  0
SECTION
  2
HEADER
  9
$ACADVER
  1
AC1018
  9
$ACADMAINTVER
 70
     0
  9
$DWGCODEPAGE
  3
ANSI_1252
  9
$INSBASE
 10
0.0
 20
0.0
 30
0.0
  9
$EXTMIN
 10
-284.7568927145247
 20
-47.79362749508124
 30
0.0
  9
$EXTMAX
 10
135.2431072854737
 20
249.2063725049188
 30
0.0
  9
$LIMMIN
 10
0.0
 20
0.0
  9
$LIMMAX
 10
12.0
 20
9.0
  9
$ORTHOMODE
 70
     0
  9
$REGENMODE
 70
     1
  9
$FILLMODE
 70
     1
  9
$QTEXTMODE
 70
     0
  9
$MIRRTEXT
 70
     1
  9
$LTSCALE
 40
1.0
  9
$ATTMODE
 70
     1
  9
$TEXTSIZE
 40
0.2
  9
$TRACEWID
 40
0.05
  9
$TEXTSTYLE
  7
Standard
  9
$CLAYER
  8
0
  9
$CELTYPE
  6
ByLayer
  9
$CECOLOR
 62
   256
  9
$CELTSCALE
 40
1.0
  9
$DISPSILH
 70
     0
  9
$DIMSCALE
 40
1.0
  9
$DIMASZ
 40
0.18
  9
$DIMEXO
 40
0.0625
  9
$DIMDLI
 40
0.38
  9
$DIMRND
 40
0.0
  9
$DIMDLE
 40
0.0
  9
$DIMEXE
 40
0.18
  9
$DIMTP
 40
0.0
  9
$DIMTM
 40
0.0
  9
$DIMTXT
 40
0.18
  9
$DIMCEN
 40
0.09
  9
$DIMTSZ
 40
0.0
  9
$DIMTOL
 70
     0
  9
$DIMLIM
 70
     0
  9
$DIMTIH
 70
     1
  9
$DIMTOH
 70
     1
  9
$DIMSE1
 70
     0
  9
$DIMSE2
 70
     0
  9
$DIMTAD
 70
     0
  9
$DIMZIN
 70
     0
  9
$DIMBLK
  1

  9
$DIMASO
 70
     1
  9
$DIMSHO
 70
     1
  9
$DIMPOST
  1

  9
$DIMAPOST
  1

  9
$DIMALT
 70
     0
  9
$DIMALTD
 70
     2
  9
$DIMALTF
 40
25.4
  9
$DIMLFAC
 40
1.0
  9
$DIMTOFL
 70
     0
  9
$DIMTVP
 40
0.0
  9
$DIMTIX
 70
     0
  9
$DIMSOXD
 70
     0
  9
$DIMSAH
 70
     0
  9
$DIMBLK1
  1

  9
$DIMBLK2
  1

  9
$DIMSTYLE
  2
Standard
  9
$DIMCLRD
 70
     0
  9
$DIMCLRE
 70
     0
  9
$DIMCLRT
 70
     0
  9
$DIMTFAC
 40
1.0
  9
$DIMGAP
 40
0.09
  9
$DIMJUST
 70
     0
  9
$DIMSD1
 70
     0
  9
$DIMSD2
 70
     0
  9
$DIMTOLJ
 70
     1
  9
$DIMTZIN
 70
     0
  9
$DIMALTZ
 70
     0
  9
$DIMALTTZ
 70
     0
  9
$DIMUPT
 70
     0
  9
$DIMDEC
 70
     4
  9
$DIMTDEC
 70
     4
  9
$DIMALTU
 70
     2
  9
$DIMALTTD
 70
     2
  9
$DIMTXSTY
  7
Standard
  9
$DIMAUNIT
 70
     0
  9
$DIMADEC
 70
     0
  9
$DIMALTRND
 40
0.0
  9
$DIMAZIN
 70
     0
  9
$DIMDSEP
 70
    46
  9
$DIMATFIT
 70
     3
  9
$DIMFRAC
 70
     0
  9
$DIMLDRBLK
  1

  9
$DIMLUNIT
 70
     2
  9
$DIMLWD
 70
    -2
  9
$DIMLWE
 70
    -2
  9
$DIMTMOVE
 70
     0
  9
$LUNITS
 70
     2
  9
$LUPREC
 70
     4
  9
$SKETCHINC
 40
0.1
  9
$FILLETRAD
 40
0.5
  9
$AUNITS
 70
     0
  9
$AUPREC
 70
     0
  9
$MENU
  1
.
  9
$ELEVATION
 40
0.0
  9
$PELEVATION
 40
0.0
  9
$THICKNESS
 40
0.0
  9
$LIMCHECK
 70
     0
  9
$CHAMFERA
 40
0.0
  9
$CHAMFERB
 40
0.0
  9
$CHAMFERC
 40
0.0
  9
$CHAMFERD
 40
0.0
  9
$SKPOLY
 70
     0
  9
$TDCREATE
 40
2459306.456719398
  9
$TDUCREATE
 40
2459306.373386065
  9
$TDUPDATE
 40
2459306.456719583
  9
$TDUUPDATE
 40
2459306.37338625
  9
$TDINDWG
 40
0.0000000116
  9
$TDUSRTIMER
 40
0.0000000116
  9
$USRTIMER
 70
     1
  9
$ANGBASE
 50
0.0
  9
$ANGDIR
 70
     0
  9
$PDMODE
 70
     0
  9
$PDSIZE
 40
0.0
  9
$PLINEWID
 40
0.0
  9
$SPLFRAME
 70
     0
  9
$SPLINETYPE
 70
     6
  9
$SPLINESEGS
 70
     8
  9
$HANDSEED
  5
361
  9
$SURFTAB1
 70
     6
  9
$SURFTAB2
 70
     6
  9
$SURFTYPE
 70
     6
  9
$SURFU
 70
     6
  9
$SURFV
 70
     6
  9
$UCSBASE
  2

  9
$UCSNAME
  2

  9
$UCSORG
 10
0.0
 20
0.0
 30
0.0
  9
$UCSXDIR
 10
1.0
 20
0.0
 30
0.0
  9
$UCSYDIR
 10
0.0
 20
1.0
 30
0.0
  9
$UCSORTHOREF
  2

  9
$UCSORTHOVIEW
 70
     0
  9
$UCSORGTOP
 10
0.0
 20
0.0
 30
0.0
  9
$UCSORGBOTTOM
 10
0.0
 20
0.0
 30
0.0
  9
$UCSORGLEFT
 10
0.0
 20
0.0
 30
0.0
  9
$UCSORGRIGHT
 10
0.0
 20
0.0
 30
0.0
  9
$UCSORGFRONT
 10
0.0
 20
0.0
 30
0.0
  9
$UCSORGBACK
 10
0.0
 20
0.0
 30
0.0
  9
$PUCSBASE
  2

  9
$PUCSNAME
  2

  9
$PUCSORG
 10
0.0
 20
0.0
 30
0.0
  9
$PUCSXDIR
 10
1.0
 20
0.0
 30
0.0
  9
$PUCSYDIR
 10
0.0
 20
1.0
 30
0.0
  9
$PUCSORTHOREF
  2

  9
$PUCSORTHOVIEW
 70
     0
  9
$PUCSORGTOP
 10
0.0
 20
0.0
 30
0.0
  9
$PUCSORGBOTTOM
 10
0.0
 20
0.0
 30
0.0
  9
$PUCSORGLEFT
 10
0.0
 20
0.0
 30
0.0
  9
$PUCSORGRIGHT
 10
0.0
 20
0.0
 30
0.0
  9
$PUCSORGFRONT
 10
0.0
 20
0.0
 30
0.0
  9
$PUCSORGBACK
 10
0.0
 20
0.0
 30
0.0
  9
$USERI1
 70
     0
  9
$USERI2
 70
     0
  9
$USERI3
 70
     0
  9
$USERI4
 70
     0
  9
$USERI5
 70
     0
  9
$USERR1
 40
20.1
  9
$USERR2
 40
0.0
  9
$USERR3
 40
0.0
  9
$USERR4
 40
0.0
  9
$USERR5
 40
0.0
  9
$WORLDVIEW
 70
     1
  9
$SHADEDGE
 70
     3
  9
$SHADEDIF
 70
    70
  9
$TILEMODE
 70
     1
  9
$MAXACTVP
 70
    64
  9
$PINSBASE
 10
0.0
 20
0.0
 30
0.0
  9
$PLIMCHECK
 70
     0
  9
$PEXTMIN
 10
1.00000000000000E+20
 20
1.00000000000000E+20
 30
1.00000000000000E+20
  9
$PEXTMAX
 10
-1.00000000000000E+20
 20
-1.00000000000000E+20
 30
-1.00000000000000E+20
  9
$PLIMMIN
 10
0.0
 20
0.0
  9
$PLIMMAX
 10
12.0
 20
9.0
  9
$UNITMODE
 70
     0
  9
$VISRETAIN
 70
     1
  9
$PLINEGEN
 70
     0
  9
$PSLTSCALE
 70
     1
  9
$TREEDEPTH
 70
  3020
  9
$CMLSTYLE
  2
Standard
  9
$CMLJUST
 70
     0
  9
$CMLSCALE
 40
1.0
  9
$PROXYGRAPHICS
 70
     1
  9
$MEASUREMENT
 70
     1
  9
$CELWEIGHT
370
    -1
  9
$ENDCAPS
280
     0
  9
$JOINSTYLE
280
     0
  9
$LWDISPLAY
290
     0
  9
$INSUNITS
 70
     4
  9
$HYPERLINKBASE
  1

  9
$STYLESHEET
  1

  9
$XEDIT
290
     1
  9
$CEPSNTYPE
380
     0
  9
$PSTYLEMODE
290
     1
  9
$FINGERPRINTGUID
  2
{c79b90bd-2a83-4e42-b5fa-597f7a39f1f0}
  9
$VERSIONGUID
  2
{FAEB1C32-E019-11D5-929B-00C0DF256EC4}
  9
$EXTNAMES
290
     1
  9
$PSVPSCALE
 40
0.0
  9
$OLESTARTUP
290
     0
  9
$SORTENTS
280
   127
  9
$INDEXCTL
280
     0
  9
$HIDETEXT
280
     1
  9
$XCLIPFRAME
290
     0
  9
$HALOGAP
280
     0
  9
$OBSCOLOR
 70
   257
  9
$OBSLTYPE
280
     0
  9
$INTERSECTIONDISPLAY
280
     0
  9
$INTERSECTIONCOLOR
 70
   257
  9
$DIMASSOC
280
     2
  9
$PROJECTNAME
  1

  0
ENDSEC
  0
SECTION
  2
CLASSES
  0
CLASS
  1
ACDBDICTIONARYWDFLT
  2
AcDbDictionaryWithDefault
  3
ObjectDBX Classes
 90
        0
 91
        3
280
     0
281
     0
  0
CLASS
  1
VISUALSTYLE
  2
AcDbVisualStyle
  3
ObjectDBX Classes
 90
     4095
 91
        3
280
     0
281
     0
  0
CLASS
  1
MATERIAL
  2
AcDbMaterial
  3
ObjectDBX Classes
 90
     1153
 91
        3
280
     0
281
     0
  0
CLASS
  1
SCALE
  2
AcDbScale
  3
ObjectDBX Classes
 90
     1153
 91
        3
280
     0
281
     0
  0
CLASS
  1
TABLESTYLE
  2
AcDbTableStyle
  3
ObjectDBX Classes
 90
     4095
 91
        3
280
     0
281
     0
  0
CLASS
  1
MLEADERSTYLE
  2
AcDbMLeaderStyle
  3
ACDB_MLEADERSTYLE_CLASS
 90
     4095
 91
        3
280
     0
281
     0
  0
CLASS
  1
SUN
  2
AcDbSun
  3
SCENEOE
 90
     1153
 91
        3
280
     0
281
     0
  0
CLASS
  1
DICTIONARYVAR
  2
AcDbDictionaryVar
  3
ObjectDBX Classes
 90
        0
 91
        3
280
     0
281
     0
  0
CLASS
  1
CELLSTYLEMAP
  2
AcDbCellStyleMap
  3
ObjectDBX Classes
 90
     1152
 91
        3
280
     0
281
     0
  0
ENDSEC
  0
SECTION
  2
TABLES
  0
TABLE
  2
VPORT
  5
8
102
{ACAD_XDICTIONARY
360
31A
102
}
330
0
100
AcDbSymbolTable
 70
     1
  0
VPORT
  5
29
330
8
100
AcDbSymbolTableRecord
100
AcDbViewportTableRecord
  2
*Active
 70
     0
 10
0.0
 20
0.0
 11
1.0
 21
1.0
 12
-74.7568927145255
 22
100.7063725049188
 13
0.0
 23
0.0
 14
0.5
 24
0.5
 15
0.5
 25
0.5
 16
0.0
 26
0.0
 36
1.0
 17
0.0
 27
0.0
 37
0.0
 40
326.7
 41
1.60267857142857
 42
50.0
 43
0.0
 44
0.0
 50
0.0
 51
0.0
 71
     0
 72
   100
 73
     1
 74
     3
 75
     0
 76
     0
 77
     0
 78
     0
281
     0
 65
     1
110
0.0
120
0.0
130
0.0
111
1.0
121
0.0
131
0.0
112
0.0
122
1.0
132
0.0
 79
     0
146
0.0
  0
ENDTAB
  0
TABLE
  2
LTYPE
  5
5
330
0
100
AcDbSymbolTable
 70
     8
  0
LTYPE
  5
14
330
5
100
AcDbSymbolTableRecord
100
AcDbLinetypeTableRecord
  2
ByBlock
 70
     0
  3

 72
    65
 73
     0
 40
0.0
  0
LTYPE
  5
15
330
5
100
AcDbSymbolTableRecord
100
AcDbLinetypeTableRecord
  2
ByLayer
 70
     0
  3

 72
    65
 73
     0
 40
0.0
  0
LTYPE
  5
16
330
5
100
AcDbSymbolTableRecord
100
AcDbLinetypeTableRecord
  2
Continuous
 70
     0
  3
Solid line
 72
    65
 73
     0
 40
0.0
  0
LTYPE
  5
6E
330
5
100
AcDbSymbolTableRecord
100
AcDbLinetypeTableRecord
  2
DASHED
 70
     0
  3
Dashed
 72
    65
 73
     2
 40
15.0
 49
7.0
 74
     0
 49
-8.0
 74
     0
  0
LTYPE
  5
6F
330
5
100
AcDbSymbolTableRecord
100
AcDbLinetypeTableRecord
  2
DOTTED
 70
     0
  3
Dotted
 72
    65
 73
     2
 40
1.0
 49
0.0
 74
     0
 49
-1.0
 74
     0
  0
LTYPE
  5
70
330
5
100
AcDbSymbolTableRecord
100
AcDbLinetypeTableRecord
  2
DOT_CENTER
 70
     0
  3
Dot_Center
 72
    65
 73
     4
 40
14.0
 49
12.0
 74
     0
 49
-1.0
 74
     0
 49
0.0
 74
     0
 49
-1.0
 74
     0
  0
LTYPE
  5
71
330
5
100
AcDbSymbolTableRecord
100
AcDbLinetypeTableRecord
  2
LONG_DASHED
 70
     0
  3
Long_Dashed
 72
    65
 73
     2
 40
15.0
 49
10.0
 74
     0
 49
-5.0
 74
     0
  0
LTYPE
  5
72
330
5
100
AcDbSymbolTableRecord
100
AcDbLinetypeTableRecord
  2
DASH_CENTER
 70
     0
  3
Dash_Center
 72
    65
 73
     4
 40
14.0
 49
11.0
 74
     0
 49
-1.0
 74
     0
 49
1.0
 74
     0
 49
-1.0
 74
     0
  0
LTYPE
  5
73
330
5
100
AcDbSymbolTableRecord
100
AcDbLinetypeTableRecord
  2
PHANTOM
 70
     0
  3
Phantom
 72
    65
 73
     6
 40
13.0
 49
10.0
 74
     0
 49
-1.0
 74
     0
 49
0.0
 74
     0
 49
-1.0
 74
     0
 49
0.0
 74
     0
 49
-1.0
 74
     0
  0
LTYPE
  5
74
330
5
100
AcDbSymbolTableRecord
100
AcDbLinetypeTableRecord
  2
CENTER_DASH_DASH
 70
     0
  3
Center_Dash_Dash
 72
    65
 73
     6
 40
14.0
 49
9.0
 74
     0
 49
-1.0
 74
     0
 49
1.0
 74
     0
 49
-1.0
 74
     0
 49
1.0
 74
     0
 49
-1.0
 74
     0
  0
ENDTAB
  0
TABLE
  2
LAYER
  5
2
330
0
100
AcDbSymbolTable
 70
     2
  0
LAYER
  5
10
330
2
100
AcDbSymbolTableRecord
100
AcDbLayerTableRecord
  2
0
 70
     0
 62
     7
  6
Continuous
370
    -3
390
F
  0
LAYER
  5
75
330
2
100
AcDbSymbolTableRecord
100
AcDbLayerTableRecord
  2
1
 70
     0
 62
     7
  6
Continuous
370
    -3
390
F
  0
ENDTAB
  0
TABLE
  2
STYLE
  5
3
330
0
100
AcDbSymbolTable
 70
     5
  0
STYLE
  5
11
330
3
100
AcDbSymbolTableRecord
100
AcDbTextStyleTableRecord
  2
Standard
 70
     0
 40
0.0
 41
1.0
 50
0.0
 71
     0
 42
0.2
  3
txt
  4

  0
STYLE
  5
1BD
330
3
100
AcDbSymbolTableRecord
100
AcDbTextStyleTableRecord
  2
CONVERTER_11
 70
     0
 40
0.0
 41
0.9
 50
0.0
 71
     0
 42
0.2
  3
txt.shx
  4

  0
STYLE
  5
1D0
330
3
100
AcDbSymbolTableRecord
100
AcDbTextStyleTableRecord
  2
CONVERTER_12
 70
     0
 40
0.0
 41
0.81
 50
0.0
 71
     0
 42
0.2
  3
txt.shx
  4

  0
STYLE
  5
1D6
330
3
100
AcDbSymbolTableRecord
100
AcDbTextStyleTableRecord
  2
CONVERTER_13
 70
     0
 40
0.0
 41
0.855
 50
0.0
 71
     0
 42
0.2
  3
txt.shx
  4

  0
STYLE
  5
1D9
330
3
100
AcDbSymbolTableRecord
100
AcDbTextStyleTableRecord
  2
CONVERTER_14
 70
     0
 40
0.0
 41
0.72
 50
0.0
 71
     0
 42
0.2
  3
txt.shx
  4

  0
ENDTAB
  0
TABLE
  2
VIEW
  5
6
330
0
100
AcDbSymbolTable
 70
     0
  0
ENDTAB
  0
TABLE
  2
UCS
  5
7
330
0
100
AcDbSymbolTable
 70
     0
  0
ENDTAB
  0
TABLE
  2
APPID
  5
9
330
0
100
AcDbSymbolTable
 70
     2
  0
APPID
  5
12
330
9
100
AcDbSymbolTableRecord
100
AcDbRegAppTableRecord
  2
ACAD
 70
     0
  0
APPID
  5
359
330
9
100
AcDbSymbolTableRecord
100
AcDbRegAppTableRecord
  2
ACAD_MLEADERVER
 70
     0
  0
ENDTAB
  0
TABLE
  2
DIMSTYLE
  5
A
330
0
100
AcDbSymbolTable
 70
     4
100
AcDbDimStyleTable
  0
DIMSTYLE
105
27
330
A
100
AcDbSymbolTableRecord
100
AcDbDimStyleTableRecord
  2
Standard
 70
     0
178
     0
340
11
  0
DIMSTYLE
105
264
102
{ACAD_REACTORS
330
265
102
}
330
A
100
AcDbSymbolTableRecord
100
AcDbDimStyleTableRecord
  2
ME10_DIM_10
 70
     0
 41
1.75
 42
0.0
 44
0.75
 73
     0
 74
     0
 77
     1
 78
     8
140
1.75
147
0.75
172
     1
173
     1
174
     1
175
     1
176
     2
177
     2
178
     3
340
1BD
  0
DIMSTYLE
105
30D
102
{ACAD_REACTORS
330
30E
102
}
330
A
100
AcDbSymbolTableRecord
100
AcDbDimStyleTableRecord
  2
ME10_DIM_11
 70
     0
 41
1.75
 42
0.0
 44
1.0
 73
     0
 74
     0
 77
     1
 78
     8
140
1.75
147
1.0
172
     1
173
     1
174
     1
175
     1
176
     2
177
     2
178
     3
340
1BD
  0
DIMSTYLE
105
318
102
{ACAD_REACTORS
330
319
102
}
330
A
100
AcDbSymbolTableRecord
100
AcDbDimStyleTableRecord
  2
ME10_DIM_12
 70
     0
 41
1.75
 42
0.0
 44
1.0
 73
     0
 74
     0
 77
     1
 78
     8
140
1.75
147
1.0
172
     1
173
     1
174
     1
175
     1
176
     2
177
     2
178
     3
340
1BD
  0
ENDTAB
  0
TABLE
  2
BLOCK_RECORD
  5
1
330
0
100
AcDbSymbolTable
 70
    20
  0
BLOCK_RECORD
  5
1F
330
1
100
AcDbSymbolTableRecord
100
AcDbBlockTableRecord
  2
*Model_Space
340
22
  0
BLOCK_RECORD
  5
1B
330
1
100
AcDbSymbolTableRecord
100
AcDbBlockTableRecord
  2
*Paper_Space
340
1E
  0
BLOCK_RECORD
  5
23
330
1
100
AcDbSymbolTableRecord
100
AcDbBlockTableRecord
  2
*Paper_Space0
340
26
  0
BLOCK_RECORD
  5
76
330
1
100
AcDbSymbolTableRecord
100
AcDbBlockTableRecord
  2
_rahmen
340
0
102
{BLKREFS
331
7D
102
}
  0
BLOCK_RECORD
  5
79
330
1
100
AcDbSymbolTableRecord
100
AcDbBlockTableRecord
  2
_punkt
340
0
102
{BLKREFS
331
7E
102
}
  0
BLOCK_RECORD
  5
7C
330
1
100
AcDbSymbolTableRecord
100
AcDbBlockTableRecord
  2
A3I_CS
340
0
102
{BLKREFS
331
AC
102
}
  0
BLOCK_RECORD
  5
81
330
1
100
AcDbSymbolTableRecord
100
AcDbBlockTableRecord
  2
CES_STPG_GY_2ASI_RR-select__1
340
0
102
{BLKREFS
331
85
102
}
  0
BLOCK_RECORD
  5
84
330
1
100
AcDbSymbolTableRecord
100
AcDbBlockTableRecord
  2
AllgSicht1
340
0
102
{BLKREFS
331
AD
102
}
  0
BLOCK_RECORD
  5
88
330
1
100
AcDbSymbolTableRecord
100
AcDbBlockTableRecord
  2
CES_STPG_GY_2ASI_RR-select__2
340
0
102
{BLKREFS
331
8C
102
}
  0
BLOCK_RECORD
  5
8B
330
1
100
AcDbSymbolTableRecord
100
AcDbBlockTableRecord
  2
Drfsicht1
340
0
102
{BLKREFS
331
AE
102
}
  0
BLOCK_RECORD
  5
8F
330
1
100
AcDbSymbolTableRecord
100
AcDbBlockTableRecord
  2
CES_STPG_GY_2ASI_RR-select__3
340
0
102
{BLKREFS
331
93
102
}
  0
BLOCK_RECORD
  5
92
330
1
100
AcDbSymbolTableRecord
100
AcDbBlockTableRecord
  2
Rckans1
340
0
102
{BLKREFS
331
AF
102
}
  0
BLOCK_RECORD
  5
96
330
1
100
AcDbSymbolTableRecord
100
AcDbBlockTableRecord
  2
CES_STPG_GY_2ASI_RR-select__4
340
0
102
{BLKREFS
331
9A
102
}
  0
BLOCK_RECORD
  5
99
330
1
100
AcDbSymbolTableRecord
100
AcDbBlockTableRecord
  2
SA_Links1
340
0
102
{BLKREFS
331
B0
102
}
  0
BLOCK_RECORD
  5
9D
330
1
100
AcDbSymbolTableRecord
100
AcDbBlockTableRecord
  2
CES_STPG_GY_2ASI_RR-select__5
340
0
102
{BLKREFS
331
A1
102
}
  0
BLOCK_RECORD
  5
A0
330
1
100
AcDbSymbolTableRecord
100
AcDbBlockTableRecord
  2
SA_Rechts1
340
0
102
{BLKREFS
331
B1
102
}
  0
BLOCK_RECORD
  5
A4
330
1
100
AcDbSymbolTableRecord
100
AcDbBlockTableRecord
  2
CES_STPG_GY_2ASI_RR-select__6
340
0
102
{BLKREFS
331
A8
102
}
  0
BLOCK_RECORD
  5
A7
330
1
100
AcDbSymbolTableRecord
100
AcDbBlockTableRecord
  2
Vordans1
340
0
102
{BLKREFS
331
B2
102
}
  0
BLOCK_RECORD
  5
AB
330
1
100
AcDbSymbolTableRecord
100
AcDbBlockTableRecord
  2
1
340
0
102
{BLKREFS
331
B5
102
}
  0
BLOCK_RECORD
  5
25B
330
1
100
AcDbSymbolTableRecord
100
AcDbBlockTableRecord
  2
*D17
340
0
  0
BLOCK_RECORD
  5
304
330
1
100
AcDbSymbolTableRecord
100
AcDbBlockTableRecord
  2
*D18
340
0
  0
BLOCK_RECORD
  5
30F
330
1
100
AcDbSymbolTableRecord
100
AcDbBlockTableRecord
  2
*D19
340
0
  0
ENDTAB
  0
ENDSEC
  0
SECTION
  2
BLOCKS
  0
BLOCK
  5
20
330
1F
100
AcDbEntity
  8
0
100
AcDbBlockBegin
  2
*Model_Space
 70
     0
 10
0.0
 20
0.0
 30
0.0
  3
*Model_Space
  1

  0
ENDBLK
  5
21
330
1F
100
AcDbEntity
  8
0
100
AcDbBlockEnd
  0
BLOCK
  5
1C
330
1B
100
AcDbEntity
 67
     1
  8
0
100
AcDbBlockBegin
  2
*Paper_Space
 70
     0
 10
0.0
 20
0.0
 30
0.0
  3
*Paper_Space
  1

  0
ENDBLK
  5
1D
330
1B
100
AcDbEntity
 67
     1
  8
0
100
AcDbBlockEnd
  0
BLOCK
  5
24
330
23
100
AcDbEntity
  8
0
100
AcDbBlockBegin
  2
*Paper_Space0
 70
     0
 10
0.0
 20
0.0
 30
0.0
  3
*Paper_Space0
  1

  0
ENDBLK
  5
25
330
23
100
AcDbEntity
  8
0
100
AcDbBlockEnd
  0
BLOCK
  5
77
330
76
100
AcDbEntity
  8
0
100
AcDbBlockBegin
  2
_rahmen
 70
     0
 10
130.2431072854761
 20
-47.79362749508124
 30
0.0
  3
_rahmen
  1

  0
LINE
  5
B6
330
76
100
AcDbEntity
  8
1
  6
Continuous
 62
     6
100
AcDbLine
 10
61.90977395214266
 20
-42.79362749508124
 30
0.0
 11
130.243107285476
 21
-42.79362749508175
 31
0.0
  0
LINE
  5
B7
330
76
100
AcDbEntity
  8
1
  6
Continuous
 62
     6
100
AcDbLine
 10
130.2431072854756
 20
-34.29362749508181
 30
0.0
 11
130.2431072854761
 21
-25.79362749508181
 31
0.0
  0
LINE
  5
B8
330
76
100
AcDbEntity
  8
1
  6
Continuous
 62
     6
100
AcDbLine
 10
130.2431072854761
 20
-25.79362749508181
 30
0.0
 11
130.2431072854751
 21
-21.54362749508181
 31
0.0
  0
LINE
  5
B9
330
76
100
AcDbEntity
  8
1
  6
Continuous
 62
     6
100
AcDbLine
 10
130.2431072854751
 20
-21.54362749508181
 30
0.0
 11
130.243107285476
 21
14.60637250491888
 31
0.0
  0
LINE
  5
BA
330
76
100
AcDbEntity
  8
1
  6
Continuous
 62
     2
100
AcDbLine
 10
-74.75689271452393
 20
-47.79362749508124
 30
0.0
 11
-143.090226047857
 21
-47.79362749508124
 31
0.0
  0
LINE
  5
BB
330
76
100
AcDbEntity
  8
1
  6
Continuous
 62
     2
100
AcDbLine
 10
61.90977395214266
 20
-47.79362749508124
 30
0.0
 11
130.2431072854761
 21
-47.79362749508124
 31
0.0
  0
LINE
  5
BC
330
76
100
AcDbEntity
  8
1
  6
Continuous
 62
     2
100
AcDbLine
 10
61.90977395214266
 20
-47.79362749508124
 30
0.0
 11
61.90977395214266
 21
-42.79362749508124
 31
0.0
  0
LINE
  5
BD
330
76
100
AcDbEntity
  8
1
  6
Continuous
 62
     2
100
AcDbLine
 10
-6.42355938119053
 20
-47.79362749508124
 30
0.0
 11
-6.42355938119053
 21
-42.79362749508414
 31
0.0
  0
LINE
  5
BE
330
76
100
AcDbEntity
  8
1
  6
Continuous
 62
     2
100
AcDbLine
 10
-74.75689271452393
 20
-47.79362749508124
 30
0.0
 11
-74.75689271452393
 21
-42.79362749508124
 31
0.0
  0
LINE
  5
BF
330
76
100
AcDbEntity
  8
1
  6
Continuous
 62
     2
100
AcDbLine
 10
135.2431072854736
 20
14.60637250491888
 30
0.0
 11
135.2431072854736
 21
72.00637250491897
 31
0.0
  0
LINE
  5
C0
330
76
100
AcDbEntity
  8
1
  6
Continuous
 62
     2
100
AcDbLine
 10
135.2431072854736
 20
14.60637250491888
 30
0.0
 11
130.243107285476
 21
14.60637250491888
 31
0.0
  0
LINE
  5
C1
330
76
100
AcDbEntity
  8
1
  6
Continuous
 62
     2
100
AcDbLine
 10
-264.7568927145246
 20
-47.79362749508124
 30
0.0
 11
-284.7568927145247
 21
-47.79362749508124
 31
0.0
  0
LINE
  5
C2
330
76
100
AcDbEntity
  8
1
  6
Continuous
 62
     2
100
AcDbLine
 10
-211.4235593811906
 20
-47.79362749508124
 30
0.0
 11
-211.4235593811906
 21
-42.79362749508124
 31
0.0
  0
LINE
  5
C3
330
76
100
AcDbEntity
  8
1
  6
Continuous
 62
     2
100
AcDbLine
 10
-211.4235593811906
 20
-47.79362749508124
 30
0.0
 11
-143.090226047857
 21
-47.79362749508124
 31
0.0
  0
LINE
  5
C4
330
76
100
AcDbEntity
  8
1
  6
Continuous
 62
     6
100
AcDbLine
 10
-211.4235593811906
 20
-42.79362749508124
 30
0.0
 11
-143.090226047857
 21
-42.79362749508124
 31
0.0
  0
LINE
  5
C5
330
76
100
AcDbEntity
  8
1
  6
Continuous
 62
     6
100
AcDbLine
 10
-211.4235593811906
 20
-42.79362749508124
 30
0.0
 11
-264.7568927145236
 21
-42.79362749508124
 31
0.0
  0
LINE
  5
C6
330
76
100
AcDbEntity
  8
1
  6
Continuous
 62
     2
100
AcDbLine
 10
-143.090226047857
 20
-47.79362749508124
 30
0.0
 11
-143.090226047857
 21
-42.79362749508124
 31
0.0
  0
LINE
  5
C7
330
76
100
AcDbEntity
  8
1
  6
Continuous
 62
     2
100
AcDbLine
 10
-264.7568927145246
 20
-47.79362749508124
 30
0.0
 11
-264.7568927145246
 21
-43.79362749508124
 31
0.0
  0
LINE
  5
C8
330
76
100
AcDbEntity
  8
1
  6
Continuous
 62
     2
100
AcDbLine
 10
-264.7568927145246
 20
-47.79362749508124
 30
0.0
 11
-211.4235593811906
 21
-47.79362749508124
 31
0.0
  0
LINE
  5
C9
330
76
100
AcDbEntity
  8
1
  6
Continuous
 62
     2
100
AcDbLine
 10
-54.75689271452674
 20
-47.79362749508124
 30
0.0
 11
-74.75689271452393
 21
-47.79362749508124
 31
0.0
  0
LINE
  5
CA
330
76
100
AcDbEntity
  8
1
  6
Continuous
 62
     2
100
AcDbLine
 10
-54.75689271452674
 20
-47.79362749508124
 30
0.0
 11
-54.75689271452674
 21
-43.79362749508124
 31
0.0
  0
LINE
  5
CB
330
76
100
AcDbEntity
  8
1
  6
Continuous
 62
     2
100
AcDbLine
 10
-54.75689271452674
 20
-47.79362749508124
 30
0.0
 11
-6.42355938119053
 21
-47.79362749508124
 31
0.0
  0
LINE
  5
CC
330
76
100
AcDbEntity
  8
1
  6
Continuous
 62
     2
100
AcDbLine
 10
-6.42355938119053
 20
-47.79362749508124
 30
0.0
 11
61.90977395214266
 21
-47.79362749508124
 31
0.0
  0
LINE
  5
CD
330
76
100
AcDbEntity
  8
1
  6
Continuous
 62
     2
100
AcDbLine
 10
135.2431072854736
 20
-47.79362749508124
 30
0.0
 11
130.2431072854761
 21
-47.79362749508124
 31
0.0
  0
LINE
  5
CE
330
76
100
AcDbEntity
  8
1
  6
Continuous
 62
     2
100
AcDbLine
 10
135.2431072854736
 20
-42.79362749508124
 30
0.0
 11
135.2431072854736
 21
-47.79362749508124
 31
0.0
  0
LINE
  5
CF
330
76
100
AcDbEntity
  8
1
  6
Continuous
 62
     2
100
AcDbLine
 10
135.2431072854736
 20
-42.79362749508124
 30
0.0
 11
135.2431072854736
 21
14.60637250491888
 31
0.0
  0
LINE
  5
D0
330
76
100
AcDbEntity
  8
1
  6
Continuous
 62
     2
100
AcDbLine
 10
135.2431072854736
 20
249.2063725049188
 30
0.0
 11
130.2431072854736
 21
249.2063725049188
 31
0.0
  0
LINE
  5
D1
330
76
100
AcDbEntity
  8
1
  6
Continuous
 62
     6
100
AcDbLine
 10
130.2431072854736
 20
244.2063725049188
 30
0.0
 11
130.2431072854741
 21
186.8063725049187
 31
0.0
  0
LINE
  5
D2
330
76
100
AcDbEntity
  8
1
  6
Continuous
 62
     2
100
AcDbLine
 10
135.2431072854736
 20
249.2063725049188
 30
0.0
 11
135.2431072854736
 21
244.2063725049188
 31
0.0
  0
LINE
  5
D3
330
76
100
AcDbEntity
  8
1
  6
Continuous
 62
     2
100
AcDbLine
 10
130.2431072854736
 20
244.2063725049188
 30
0.0
 11
130.2431072854736
 21
249.2063725049188
 31
0.0
  0
LINE
  5
D4
330
76
100
AcDbEntity
  8
1
  6
Continuous
 62
     2
100
AcDbLine
 10
130.2431072854736
 20
244.2063725049188
 30
0.0
 11
135.2431072854736
 21
244.2063725049188
 31
0.0
  0
LINE
  5
D5
330
76
100
AcDbEntity
  8
1
  6
Continuous
 62
     2
100
AcDbLine
 10
135.2431072854736
 20
244.2063725049188
 30
0.0
 11
135.2431072854736
 21
186.8063725049187
 31
0.0
  0
LINE
  5
D6
330
76
100
AcDbEntity
  8
1
  6
Continuous
 62
     2
100
AcDbLine
 10
130.2431072854741
 20
186.8063725049187
 30
0.0
 11
135.2431072854736
 21
186.8063725049187
 31
0.0
  0
LINE
  5
D7
330
76
100
AcDbEntity
  8
1
  6
Continuous
 62
     6
100
AcDbLine
 10
130.2431072854741
 20
186.8063725049187
 30
0.0
 11
130.2431072854761
 21
129.4063725049188
 31
0.0
  0
LINE
  5
D8
330
76
100
AcDbEntity
  8
1
  6
Continuous
 62
     2
100
AcDbLine
 10
135.2431072854736
 20
186.8063725049187
 30
0.0
 11
135.2431072854736
 21
129.4063725049188
 31
0.0
  0
LINE
  5
D9
330
76
100
AcDbEntity
  8
1
  6
Continuous
 62
     2
100
AcDbLine
 10
130.2431072854761
 20
129.4063725049188
 30
0.0
 11
135.2431072854736
 21
129.4063725049188
 31
0.0
  0
LINE
  5
DA
330
76
100
AcDbEntity
  8
1
  6
Continuous
 62
     6
100
AcDbLine
 10
130.2431072854761
 20
129.4063725049188
 30
0.0
 11
130.2431072854761
 21
72.00637250491897
 31
0.0
  0
LINE
  5
DB
330
76
100
AcDbEntity
  8
1
  6
Continuous
 62
     2
100
AcDbLine
 10
135.2431072854736
 20
129.4063725049188
 30
0.0
 11
135.2431072854736
 21
72.00637250491897
 31
0.0
  0
LINE
  5
DC
330
76
100
AcDbEntity
  8
1
  6
Continuous
 62
     2
100
AcDbLine
 10
130.2431072854761
 20
72.00637250491897
 30
0.0
 11
135.2431072854736
 21
72.00637250491897
 31
0.0
  0
LINE
  5
DD
330
76
100
AcDbEntity
  8
1
  6
Continuous
 62
     6
100
AcDbLine
 10
130.2431072854761
 20
72.00637250491897
 30
0.0
 11
130.243107285476
 21
14.60637250491888
 31
0.0
  0
LINE
  5
DE
330
76
100
AcDbEntity
  8
1
  6
Continuous
 62
     6
100
AcDbLine
 10
-264.7568927145246
 20
244.206372504919
 30
0.0
 11
-211.4235593811906
 21
244.206372504919
 31
0.0
  0
LINE
  5
DF
330
76
100
AcDbEntity
  8
1
  6
Continuous
 62
     2
100
AcDbLine
 10
130.2431072854736
 20
249.2063725049188
 30
0.0
 11
61.90977395214266
 21
249.2063725049188
 31
0.0
  0
LINE
  5
E0
330
76
100
AcDbEntity
  8
1
  6
Continuous
 62
     2
100
AcDbLine
 10
61.90977395214266
 20
244.2063725049188
 30
0.0
 11
61.90977395214266
 21
249.2063725049188
 31
0.0
  0
LINE
  5
E1
330
76
100
AcDbEntity
  8
1
  6
Continuous
 62
     6
100
AcDbLine
 10
61.90977395214266
 20
244.2063725049188
 30
0.0
 11
130.2431072854736
 21
244.2063725049188
 31
0.0
  0
LINE
  5
E2
330
76
100
AcDbEntity
  8
1
  6
Continuous
 62
     2
100
AcDbLine
 10
61.90977395214266
 20
249.2063725049188
 30
0.0
 11
-6.42355938119053
 21
249.2063725049188
 31
0.0
  0
LINE
  5
E3
330
76
100
AcDbEntity
  8
1
  6
Continuous
 62
     2
100
AcDbLine
 10
-6.42355938119053
 20
244.2063725049188
 30
0.0
 11
-6.42355938119053
 21
249.2063725049188
 31
0.0
  0
LINE
  5
E4
330
76
100
AcDbEntity
  8
1
  6
Continuous
 62
     6
100
AcDbLine
 10
-6.42355938119053
 20
244.2063725049188
 30
0.0
 11
61.90977395214266
 21
244.2063725049188
 31
0.0
  0
LINE
  5
E5
330
76
100
AcDbEntity
  8
1
  6
Continuous
 62
     2
100
AcDbLine
 10
-6.42355938119053
 20
249.2063725049188
 30
0.0
 11
-54.75689271452674
 21
249.2063725049188
 31
0.0
  0
LINE
  5
E6
330
76
100
AcDbEntity
  8
1
  6
Continuous
 62
     2
100
AcDbLine
 10
-74.75689271452393
 20
244.2063725049188
 30
0.0
 11
-74.75689271452393
 21
249.2063725049188
 31
0.0
  0
LINE
  5
E7
330
76
100
AcDbEntity
  8
1
  6
Continuous
 62
     6
100
AcDbLine
 10
-74.75689271452393
 20
244.2063725049188
 30
0.0
 11
-6.42355938119053
 21
244.2063725049188
 31
0.0
  0
LINE
  5
E8
330
76
100
AcDbEntity
  8
1
  6
Continuous
 62
     2
100
AcDbLine
 10
-74.75689271452393
 20
249.2063725049188
 30
0.0
 11
-143.090226047857
 21
249.2063725049188
 31
0.0
  0
LINE
  5
E9
330
76
100
AcDbEntity
  8
1
  6
Continuous
 62
     2
100
AcDbLine
 10
-143.090226047857
 20
244.2063725049188
 30
0.0
 11
-143.090226047857
 21
249.2063725049188
 31
0.0
  0
LINE
  5
EA
330
76
100
AcDbEntity
  8
1
  6
Continuous
 62
     6
100
AcDbLine
 10
-143.090226047857
 20
244.2063725049188
 30
0.0
 11
-74.75689271452393
 21
244.2063725049188
 31
0.0
  0
LINE
  5
EB
330
76
100
AcDbEntity
  8
1
  6
Continuous
 62
     2
100
AcDbLine
 10
-143.090226047857
 20
249.2063725049188
 30
0.0
 11
-211.4235593811906
 21
249.2063725049188
 31
0.0
  0
LINE
  5
EC
330
76
100
AcDbEntity
  8
1
  6
Continuous
 62
     2
100
AcDbLine
 10
-211.4235593811906
 20
244.206372504919
 30
0.0
 11
-211.4235593811906
 21
249.2063725049188
 31
0.0
  0
LINE
  5
ED
330
76
100
AcDbEntity
  8
1
  6
Continuous
 62
     6
100
AcDbLine
 10
-211.4235593811906
 20
244.206372504919
 30
0.0
 11
-143.090226047857
 21
244.2063725049188
 31
0.0
  0
LINE
  5
EE
330
76
100
AcDbEntity
  8
1
  6
Continuous
 62
     2
100
AcDbLine
 10
-211.4235593811906
 20
249.2063725049188
 30
0.0
 11
-264.7568927145246
 21
249.2063725049188
 31
0.0
  0
LINE
  5
EF
330
76
100
AcDbEntity
  8
1
  6
Continuous
 62
     2
100
AcDbLine
 10
-264.7568927145246
 20
249.2063725049188
 30
0.0
 11
-264.7568927145246
 21
245.206372504919
 31
0.0
  0
LINE
  5
F0
330
76
100
AcDbEntity
  8
1
  6
Continuous
 62
     2
100
AcDbLine
 10
-264.7568927145246
 20
249.2063725049188
 30
0.0
 11
-284.7568927145247
 21
249.2063725049188
 31
0.0
  0
LINE
  5
F1
330
76
100
AcDbEntity
  8
1
  6
Continuous
 62
     2
100
AcDbLine
 10
-54.75689271452674
 20
249.2063725049188
 30
0.0
 11
-54.75689271452674
 21
245.206372504919
 31
0.0
  0
LINE
  5
F2
330
76
100
AcDbEntity
  8
1
  6
Continuous
 62
     2
100
AcDbLine
 10
-54.75689271452674
 20
249.2063725049188
 30
0.0
 11
-74.75689271452393
 21
249.2063725049188
 31
0.0
  0
LINE
  5
F3
330
76
100
AcDbEntity
  8
1
  6
Continuous
 62
     2
100
AcDbLine
 10
-284.7568927145247
 20
249.2063725049188
 30
0.0
 11
-284.7568927145247
 21
100.7063725049188
 31
0.0
  0
LINE
  5
F4
330
76
100
AcDbEntity
  8
1
  6
Continuous
 62
     2
100
AcDbLine
 10
-284.7568927145247
 20
100.7063725049188
 30
0.0
 11
-274.7568927145246
 21
100.7063725049188
 31
0.0
  0
LINE
  5
F5
330
76
100
AcDbEntity
  8
1
  6
Continuous
 62
     2
100
AcDbLine
 10
-284.7568927145247
 20
100.7063725049188
 30
0.0
 11
-284.7568927145247
 21
-47.79362749508124
 31
0.0
  0
LINE
  5
F6
330
76
100
AcDbEntity
  8
1
  6
Continuous
 62
     6
100
AcDbLine
 10
-264.7568927145236
 20
-42.79362749508124
 30
0.0
 11
-264.7568927145246
 21
244.206372504919
 31
0.0
  0
LINE
  5
F7
330
76
100
AcDbEntity
  8
1
  6
Continuous
 62
     6
100
AcDbLine
 10
130.243107285476
 20
-42.79362749508175
 30
0.0
 11
130.2431072854756
 21
-34.29362749508181
 31
0.0
  0
LINE
  5
F8
330
76
100
AcDbEntity
  8
1
  6
Continuous
 62
     6
100
AcDbLine
 10
-143.090226047857
 20
-42.79362749508124
 30
0.0
 11
0.69830275872616
 21
-42.79362749508431
 31
0.0
  0
LINE
  5
F9
330
76
100
AcDbEntity
  8
1
  6
Continuous
 62
     2
100
AcDbLine
 10
-6.42355938119053
 20
-42.79362749508414
 30
0.0
 11
-6.42355938119053
 21
-42.79362749508124
 31
0.0
  0
LINE
  5
FA
330
76
100
AcDbEntity
  8
1
  6
Continuous
 62
     6
100
AcDbLine
 10
130.2431072854779
 20
-25.79362749508181
 30
0.0
 11
130.2431072854779
 21
-17.29362749508181
 31
0.0
  0
LINE
  5
FB
330
76
100
AcDbEntity
  8
1
  6
Continuous
 62
     7
100
AcDbLine
 10
64.99830275872607
 20
-34.29362749508181
 30
0.0
 11
64.99830275872607
 21
-25.79362749508181
 31
0.0
  0
LINE
  5
FC
330
76
100
AcDbEntity
  8
1
  6
Continuous
 62
     6
100
AcDbLine
 10
37.09830275872608
 20
-25.79362749508181
 30
0.0
 11
130.2431072854779
 21
-25.79362749508181
 31
0.0
  0
LINE
  5
FD
330
76
100
AcDbEntity
  8
1
  6
Continuous
 62
     7
100
AcDbLine
 10
0.69830275872616
 20
-25.79362749508181
 30
0.0
 11
0.69830275872616
 21
-17.29362749508181
 31
0.0
  0
LINE
  5
FE
330
76
100
AcDbEntity
  8
1
  6
Continuous
 62
     7
100
AcDbLine
 10
37.09830275872608
 20
-25.79362749508181
 30
0.0
 11
37.09830275872608
 21
-17.29362749508181
 31
0.0
  0
LINE
  5
FF
330
76
100
AcDbEntity
  8
1
  6
Continuous
 62
     7
100
AcDbLine
 10
94.82469900379904
 20
-17.29362749508181
 30
0.0
 11
94.82469900379904
 21
-25.79362749508181
 31
0.0
  0
LINE
  5
100
330
76
100
AcDbEntity
  8
1
  6
Continuous
 62
     7
100
AcDbLine
 10
121.3246990037987
 20
-17.29362749508181
 30
0.0
 11
121.3246990037987
 21
-25.79362749508181
 31
0.0
  0
LINE
  5
101
330
76
100
AcDbEntity
  8
1
  6
Continuous
 62
     7
100
AcDbLine
 10
130.2431072854774
 20
-34.29362749508181
 30
0.0
 11
37.09830275872608
 21
-34.29362749508181
 31
0.0
  0
LINE
  5
102
102
{ACAD_REACTORS
330
1E8
330
1E9
102
}
330
76
100
AcDbEntity
  8
0
  6
Continuous
 62
     2
100
AcDbLine
 10
14.40573170049356
 20
-33.4933383794185
 30
0.0
 11
14.40573170049356
 21
-32.62082137261524
 31
0.0
  0
LINE
  5
103
102
{ACAD_REACTORS
330
1E8
330
1E9
102
}
330
76
100
AcDbEntity
  8
0
  6
Continuous
 62
     2
100
AcDbLine
 10
14.40573170049356
 20
-34.4531070869013
 30
0.0
 11
14.40573170049356
 21
-35.32562409370462
 31
0.0
  0
LINE
  5
104
102
{ACAD_REACTORS
330
1EA
330
1EB
102
}
330
76
100
AcDbEntity
  8
0
  6
Continuous
 62
     2
100
AcDbLine
 10
29.73877583678396
 20
-33.23158327737804
 30
0.0
 11
30.84241513635206
 21
-33.23158327737804
 31
0.0
  0
LINE
  5
105
102
{ACAD_REACTORS
330
1EA
330
1EB
102
}
330
76
100
AcDbEntity
  8
0
  6
Continuous
 62
     2
100
AcDbLine
 10
30.50843317974537
 20
-34.45310708690181
 30
0.0
 11
30.50843317974537
 21
-35.32562409370513
 31
0.0
  0
LINE
  5
106
102
{ACAD_REACTORS
330
1F4
330
1F5
102
}
330
76
100
AcDbEntity
  8
0
  6
Continuous
 62
     2
100
AcDbLine
 10
28.64767656436555
 20
-32.14093701889112
 30
0.0
 11
30.04562961130586
 21
-30.56007802511624
 31
0.0
  0
LINE
  5
107
102
{ACAD_REACTORS
330
1F4
330
1F5
102
}
330
76
100
AcDbEntity
  8
0
  6
Continuous
 62
     2
100
AcDbLine
 10
28.74309998053838
 20
-29.08712749508004
 30
0.0
 11
30.04562961130586
 21
-30.56007802511624
 31
0.0
  0
LINE
  5
108
102
{ACAD_REACTORS
330
1F4
330
1F5
102
}
330
76
100
AcDbEntity
  8
0
  6
Continuous
 62
     2
100
AcDbLine
 10
31.34815924207226
 20
-29.08712749508004
 30
0.0
 11
32.75088345981948
 21
-29.08712749508004
 31
0.0
  0
LINE
  5
109
102
{ACAD_REACTORS
330
1F4
330
1F5
102
}
330
76
100
AcDbEntity
  8
0
  6
Continuous
 62
     2
100
AcDbLine
 10
30.05040078211366
 20
-32.14093701889112
 30
0.0
 11
30.74699172017947
 21
-31.35320523359741
 31
0.0
  0
LINE
  5
10A
102
{ACAD_REACTORS
330
1F4
330
1F5
102
}
330
76
100
AcDbEntity
  8
0
  6
Continuous
 62
     2
100
AcDbLine
 10
30.05040078211366
 20
-32.14093701889112
 30
0.0
 11
28.64767656436555
 21
-32.14093701889112
 31
0.0
  0
LINE
  5
10B
102
{ACAD_REACTORS
330
1F6
330
1F7
102
}
330
76
100
AcDbEntity
  8
0
  6
Continuous
 62
     2
100
AcDbLine
 10
28.52839729414868
 20
-32.14093701889112
 30
0.0
 11
27.28789288389575
 21
-32.14093701889112
 31
0.0
  0
LINE
  5
10C
102
{ACAD_REACTORS
330
1F8
330
1F9
102
}
330
76
100
AcDbEntity
  8
0
  6
Continuous
 62
     2
100
AcDbLine
 10
26.41991327574067
 20
-34.27860368554104
 30
0.0
 11
26.11974803855046
 21
-33.51078871955434
 31
0.0
  0
LINE
  5
10D
102
{ACAD_REACTORS
330
1F8
330
1F9
102
}
330
76
100
AcDbEntity
  8
0
  6
Continuous
 62
     2
100
AcDbLine
 10
25.81958280135817
 20
-34.27860368554104
 30
0.0
 11
26.41991327574067
 21
-34.27860368554104
 31
0.0
  0
LINE
  5
10E
102
{ACAD_REACTORS
330
1F8
330
1F9
102
}
330
76
100
AcDbEntity
  8
0
  6
Continuous
 62
     2
100
AcDbLine
 10
24.10154278648437
 20
-35.50012749506544
 30
0.0
 11
25.34204719673727
 21
-35.50012749506544
 31
0.0
  0
LINE
  5
10F
102
{ACAD_REACTORS
330
1F8
330
1F9
102
}
330
76
100
AcDbEntity
  8
0
  6
Continuous
 62
     2
100
AcDbLine
 10
25.49949583342357
 20
-32.4463179712543
 30
0.0
 11
26.74000024367638
 21
-32.4463179712543
 31
0.0
  0
LINE
  5
110
102
{ACAD_REACTORS
330
1F8
330
1F9
102
}
330
76
100
AcDbEntity
  8
0
  6
Continuous
 62
     2
100
AcDbLine
 10
26.74000024367638
 20
-32.4463179712543
 30
0.0
 11
28.13795329061665
 21
-35.50012749506544
 31
0.0
  0
LINE
  5
111
102
{ACAD_REACTORS
330
1F8
330
1F9
102
}
330
76
100
AcDbEntity
  8
0
  6
Continuous
 62
     2
100
AcDbLine
 10
26.89744888036276
 20
-35.50012749506544
 30
0.0
 11
26.68596882688698
 21
-34.95916695084765
 31
0.0
  0
LINE
  5
112
102
{ACAD_REACTORS
330
1FA
330
1FB
102
}
330
76
100
AcDbEntity
  8
0
  6
Continuous
 62
     2
100
AcDbLine
 10
22.75512968477676
 20
-35.50012749506544
 30
0.0
 11
23.94792238694316
 21
-35.50012749506544
 31
0.0
  0
LINE
  5
113
102
{ACAD_REACTORS
330
1FA
330
1FB
102
}
330
76
100
AcDbEntity
  8
0
  6
Continuous
 62
     2
100
AcDbLine
 10
22.75512968477676
 20
-33.23158327737804
 30
0.0
 11
22.75512968477676
 21
-35.50012749506544
 31
0.0
  0
LINE
  5
114
102
{ACAD_REACTORS
330
1FA
330
1FB
102
}
330
76
100
AcDbEntity
  8
0
  6
Continuous
 62
     2
100
AcDbLine
 10
21.94403064730207
 20
-32.4463179712543
 30
0.0
 11
21.94403064730207
 21
-33.23158327737804
 31
0.0
  0
LINE
  5
115
102
{ACAD_REACTORS
330
1FC
330
1FD
102
}
330
76
100
AcDbEntity
  8
0
  6
Continuous
 62
     2
100
AcDbLine
 10
23.42324452887476
 20
-32.14093701889112
 30
0.0
 11
24.61603723104116
 21
-32.14093701889112
 31
0.0
  0
LINE
  5
116
102
{ACAD_REACTORS
330
1FC
330
1FD
102
}
330
76
100
AcDbEntity
  8
0
  6
Continuous
 62
     2
100
AcDbLine
 10
25.85654164129525
 20
-30.39590300528511
 30
0.0
 11
24.61603723104116
 21
-29.08712749508004
 31
0.0
  0
LINE
  5
117
102
{ACAD_REACTORS
330
1FC
330
1FD
102
}
330
76
100
AcDbEntity
  8
0
  6
Continuous
 62
     2
100
AcDbLine
 10
27.04933434346185
 20
-29.08712749508004
 30
0.0
 11
25.85654164129525
 21
-29.08712749508004
 31
0.0
  0
LINE
  5
118
102
{ACAD_REACTORS
330
1FC
330
1FD
102
}
330
76
100
AcDbEntity
  8
0
  6
Continuous
 62
     2
100
AcDbLine
 10
27.04933434346185
 20
-32.14093701889112
 30
0.0
 11
27.04933434346185
 21
-29.08712749508004
 31
0.0
  0
LINE
  5
119
102
{ACAD_REACTORS
330
1FC
330
1FD
102
}
330
76
100
AcDbEntity
  8
0
  6
Continuous
 62
     2
100
AcDbLine
 10
25.85654164129525
 20
-32.14093701889112
 30
0.0
 11
27.04933434346185
 21
-32.14093701889112
 31
0.0
  0
LINE
  5
11A
102
{ACAD_REACTORS
330
1FC
330
1FD
102
}
330
76
100
AcDbEntity
  8
0
  6
Continuous
 62
     2
100
AcDbLine
 10
24.61603723104116
 20
-30.8321615086864
 30
0.0
 11
25.85654164129525
 21
-32.14093701889112
 31
0.0
  0
LINE
  5
11B
102
{ACAD_REACTORS
330
1FE
330
1FF
102
}
330
76
100
AcDbEntity
  8
0
  6
Continuous
 62
     2
100
AcDbLine
 10
20.60810282087556
 20
-33.75509348145954
 30
0.0
 11
19.36759841062258
 21
-32.4463179712543
 31
0.0
  0
LINE
  5
11C
102
{ACAD_REACTORS
330
1FE
330
1FF
102
}
330
76
100
AcDbEntity
  8
0
  6
Continuous
 62
     2
100
AcDbLine
 10
20.60810282087556
 20
-32.4463179712543
 30
0.0
 11
20.60810282087556
 21
-33.75509348145954
 31
0.0
  0
LINE
  5
11D
102
{ACAD_REACTORS
330
1FE
330
1FF
102
}
330
76
100
AcDbEntity
  8
0
  6
Continuous
 62
     2
100
AcDbLine
 10
21.80089552304196
 20
-32.4463179712543
 30
0.0
 11
20.60810282087556
 21
-32.4463179712543
 31
0.0
  0
LINE
  5
11E
102
{ACAD_REACTORS
330
1FE
330
1FF
102
}
330
76
100
AcDbEntity
  8
0
  6
Continuous
 62
     2
100
AcDbLine
 10
21.80089552304196
 20
-35.50012749506544
 30
0.0
 11
21.80089552304196
 21
-32.4463179712543
 31
0.0
  0
LINE
  5
11F
102
{ACAD_REACTORS
330
1FE
330
1FF
102
}
330
76
100
AcDbEntity
  8
0
  6
Continuous
 62
     2
100
AcDbLine
 10
19.36759841062258
 20
-34.19135198486094
 30
0.0
 11
20.60810282087556
 21
-35.50012749506544
 31
0.0
  0
LINE
  5
120
102
{ACAD_REACTORS
330
1FE
330
1FF
102
}
330
76
100
AcDbEntity
  8
0
  6
Continuous
 62
     2
100
AcDbLine
 10
19.36759841062258
 20
-35.50012749506544
 30
0.0
 11
19.36759841062258
 21
-34.19135198486094
 31
0.0
  0
LINE
  5
121
102
{ACAD_REACTORS
330
1EE
330
1EF
102
}
330
76
100
AcDbEntity
  8
0
  6
Continuous
 62
     2
100
AcDbLine
 10
21.84875816201415
 20
-29.78514110052294
 30
0.0
 11
23.18468598844177
 21
-29.78514110052294
 31
0.0
  0
LINE
  5
122
102
{ACAD_REACTORS
330
1EE
330
1EF
102
}
330
76
100
AcDbEntity
  8
0
  6
Continuous
 62
     2
100
AcDbLine
 10
21.84875816201415
 20
-31.44292341344874
 30
0.0
 11
21.84875816201415
 21
-30.963039059707
 31
0.0
  0
LINE
  5
123
102
{ACAD_REACTORS
330
1EE
330
1EF
102
}
330
76
100
AcDbEntity
  8
0
  6
Continuous
 62
     2
100
AcDbLine
 10
23.18468598844177
 20
-31.44292341344874
 30
0.0
 11
21.84875816201415
 21
-31.44292341344874
 31
0.0
  0
LINE
  5
124
102
{ACAD_REACTORS
330
1EE
330
1EF
102
}
330
76
100
AcDbEntity
  8
0
  6
Continuous
 62
     2
100
AcDbLine
 10
23.18468598844177
 20
-32.14093701889112
 30
0.0
 11
23.18468598844177
 21
-31.44292341344874
 31
0.0
  0
LINE
  5
125
102
{ACAD_REACTORS
330
1EE
330
1EF
102
}
330
76
100
AcDbEntity
  8
0
  6
Continuous
 62
     2
100
AcDbLine
 10
20.03436626466086
 20
-32.14093701889112
 30
0.0
 11
23.18468598844177
 21
-32.14093701889112
 31
0.0
  0
LINE
  5
126
102
{ACAD_REACTORS
330
1EE
330
1EF
102
}
330
76
100
AcDbEntity
  8
0
  6
Continuous
 62
     2
100
AcDbLine
 10
20.03436626466086
 20
-29.08712749508004
 30
0.0
 11
23.18468598844177
 21
-29.08712749508004
 31
0.0
  0
LINE
  5
127
102
{ACAD_REACTORS
330
1EE
330
1EF
102
}
330
76
100
AcDbEntity
  8
0
  6
Continuous
 62
     2
100
AcDbLine
 10
23.18468598844177
 20
-29.78514110052294
 30
0.0
 11
23.18468598844177
 21
-29.08712749508004
 31
0.0
  0
LINE
  5
128
102
{ACAD_REACTORS
330
200
330
201
102
}
330
76
100
AcDbEntity
  8
0
  6
Continuous
 62
     2
100
AcDbLine
 10
17.17301076952077
 20
-30.15596082841461
 30
0.0
 11
17.17301076952077
 21
-29.08712749508004
 31
0.0
  0
LINE
  5
129
102
{ACAD_REACTORS
330
200
330
201
102
}
330
76
100
AcDbEntity
  8
0
  6
Continuous
 62
     2
100
AcDbLine
 10
17.17301076952077
 20
-29.08712749508004
 30
0.0
 11
18.36580347168726
 21
-29.08712749508004
 31
0.0
  0
LINE
  5
12A
102
{ACAD_REACTORS
330
200
330
201
102
}
330
76
100
AcDbEntity
  8
0
  6
Continuous
 62
     2
100
AcDbLine
 10
17.17301076952077
 20
-31.00666491004745
 30
0.0
 11
16.12335319161338
 21
-31.00666491004745
 31
0.0
  0
LINE
  5
12B
102
{ACAD_REACTORS
330
200
330
201
102
}
330
76
100
AcDbEntity
  8
0
  6
Continuous
 62
     2
100
AcDbLine
 10
16.12335319161338
 20
-31.00666491004745
 30
0.0
 11
16.12335319161338
 21
-32.14093701889112
 31
0.0
  0
LINE
  5
12C
102
{ACAD_REACTORS
330
200
330
201
102
}
330
76
100
AcDbEntity
  8
0
  6
Continuous
 62
     2
100
AcDbLine
 10
14.93056048944678
 20
-29.08712749508004
 30
0.0
 11
14.93056048944678
 21
-32.14093701889112
 31
0.0
  0
LINE
  5
12D
102
{ACAD_REACTORS
330
1F2
330
1F3
102
}
330
76
100
AcDbEntity
  8
0
  6
Continuous
 62
     2
100
AcDbLine
 10
12.97438045789306
 20
-30.45596098986232
 30
0.0
 11
12.97438045789306
 21
-29.75023334052003
 31
0.0
  0
LINE
  5
12E
102
{ACAD_REACTORS
330
1F2
330
1F3
102
}
330
76
100
AcDbEntity
  8
0
  6
Continuous
 62
     2
100
AcDbLine
 10
11.73387604763906
 20
-32.14093701889112
 30
0.0
 11
12.97438045789306
 21
-32.14093701889112
 31
0.0
  0
LINE
  5
12F
102
{ACAD_REACTORS
330
1F2
330
1F3
102
}
330
76
100
AcDbEntity
  8
0
  6
Continuous
 62
     2
100
AcDbLine
 10
12.97438045789306
 20
-32.14093701889112
 30
0.0
 11
12.97438045789306
 21
-31.1978587777474
 31
0.0
  0
LINE
  5
130
102
{ACAD_REACTORS
330
1EC
330
1ED
102
}
330
76
100
AcDbEntity
  8
0
  6
Continuous
 62
     2
100
AcDbLine
 10
7.42893019842757
 20
-34.78757193950855
 30
0.0
 11
5.95309693741797
 21
-34.78757193950855
 31
0.0
  0
LINE
  5
131
102
{ACAD_REACTORS
330
1EC
330
1ED
102
}
330
76
100
AcDbEntity
  8
0
  6
Continuous
 62
     2
100
AcDbLine
 10
4.93495764528868
 20
-29.511372110482
 30
0.0
 11
4.93495764528868
 21
-35.07588287968224
 31
0.0
  0
LINE
  5
132
102
{ACAD_REACTORS
330
1EC
330
1ED
102
}
330
76
100
AcDbEntity
  8
0
  6
Continuous
 62
     2
100
AcDbLine
 10
5.35920226067145
 20
-29.08712749509812
 30
0.0
 11
10.83251435138837
 21
-29.08712749509812
 31
0.0
  0
LINE
  5
133
102
{ACAD_REACTORS
330
1EC
330
1ED
102
}
330
76
100
AcDbEntity
  8
0
  6
Continuous
 62
     2
100
AcDbLine
 10
11.25675896677225
 20
-29.511372110482
 30
0.0
 11
11.25675896677225
 21
-35.07588287968224
 31
0.0
  0
LINE
  5
134
102
{ACAD_REACTORS
330
1EC
330
1ED
102
}
330
76
100
AcDbEntity
  8
0
  6
Continuous
 62
     2
100
AcDbLine
 10
10.83251435138837
 20
-35.50012749506544
 30
0.0
 11
5.35920226067145
 21
-35.50012749506544
 31
0.0
  0
LINE
  5
135
102
{ACAD_REACTORS
330
1EC
330
1ED
102
}
330
76
100
AcDbEntity
  8
0
  6
Continuous
 62
     2
100
AcDbLine
 10
7.74464712150416
 20
-34.47185501643185
 30
0.0
 11
7.74464712150416
 21
-32.94108408490024
 31
0.0
  0
LINE
  5
136
102
{ACAD_REACTORS
330
1EC
330
1ED
102
}
330
76
100
AcDbEntity
  8
0
  6
Continuous
 62
     2
100
AcDbLine
 10
7.74464712150416
 20
-30.71942459277534
 30
0.0
 11
7.74464712150416
 21
-30.11539997371472
 31
0.0
  0
LINE
  5
137
102
{ACAD_REACTORS
330
1EC
330
1ED
102
}
330
76
100
AcDbEntity
  8
0
  6
Continuous
 62
     2
100
AcDbLine
 10
5.95309693741797
 20
-29.79968305063864
 30
0.0
 11
7.42893019842757
 21
-29.79968305063864
 31
0.0
  0
LINE
  5
138
102
{ACAD_REACTORS
330
1EC
330
1ED
102
}
330
76
100
AcDbEntity
  8
0
  6
Continuous
 62
     2
100
AcDbLine
 10
5.63738001434237
 20
-30.11539997371472
 30
0.0
 11
5.63738001434237
 21
-34.47185501643185
 31
0.0
  0
LINE
  5
139
102
{ACAD_REACTORS
330
1F2
330
1F3
102
}
330
76
100
AcDbEntity
  8
0
  6
Continuous
 62
     2
100
AcDbLine
 10
12.97438045789306
 20
-31.1978587777474
 30
0.0
 11
13.73314804567346
 21
-31.1978587777474
 31
0.0
  0
LINE
  5
13A
102
{ACAD_REACTORS
330
1F2
330
1F3
102
}
330
76
100
AcDbEntity
  8
0
  6
Continuous
 62
     2
100
AcDbLine
 10
11.73387604763906
 20
-29.08712749508004
 30
0.0
 11
13.73314804567346
 21
-29.08712749508004
 31
0.0
  0
LINE
  5
13B
102
{ACAD_REACTORS
330
1F2
330
1F3
102
}
330
76
100
AcDbEntity
  8
0
  6
Continuous
 62
     2
100
AcDbLine
 10
11.73387604763906
 20
-29.08712749508004
 30
0.0
 11
11.73387604763906
 21
-32.14093701889112
 31
0.0
  0
LINE
  5
13C
102
{ACAD_REACTORS
330
1F2
330
1F3
102
}
330
76
100
AcDbEntity
  8
0
  6
Continuous
 62
     2
100
AcDbLine
 10
12.97438045789306
 20
-30.45596098986232
 30
0.0
 11
13.29167551943507
 21
-30.45596098986232
 31
0.0
  0
LINE
  5
13D
102
{ACAD_REACTORS
330
1F2
330
1F3
102
}
330
76
100
AcDbEntity
  8
0
  6
Continuous
 62
     2
100
AcDbLine
 10
12.97438045789306
 20
-29.75023334052003
 30
0.0
 11
13.29167551943507
 21
-29.75023334052003
 31
0.0
  0
LINE
  5
13E
102
{ACAD_REACTORS
330
200
330
201
102
}
330
76
100
AcDbEntity
  8
0
  6
Continuous
 62
     2
100
AcDbLine
 10
16.12335319161338
 20
-30.15596082841461
 30
0.0
 11
17.17301076952077
 21
-30.15596082841461
 31
0.0
  0
LINE
  5
13F
102
{ACAD_REACTORS
330
200
330
201
102
}
330
76
100
AcDbEntity
  8
0
  6
Continuous
 62
     2
100
AcDbLine
 10
16.12335319161338
 20
-29.08712749508004
 30
0.0
 11
16.12335319161338
 21
-30.15596082841461
 31
0.0
  0
LINE
  5
140
102
{ACAD_REACTORS
330
200
330
201
102
}
330
76
100
AcDbEntity
  8
0
  6
Continuous
 62
     2
100
AcDbLine
 10
14.93056048944678
 20
-29.08712749508004
 30
0.0
 11
16.12335319161338
 21
-29.08712749508004
 31
0.0
  0
LINE
  5
141
102
{ACAD_REACTORS
330
200
330
201
102
}
330
76
100
AcDbEntity
  8
0
  6
Continuous
 62
     2
100
AcDbLine
 10
16.12335319161338
 20
-32.14093701889112
 30
0.0
 11
14.93056048944678
 21
-32.14093701889112
 31
0.0
  0
LINE
  5
142
102
{ACAD_REACTORS
330
200
330
201
102
}
330
76
100
AcDbEntity
  8
0
  6
Continuous
 62
     2
100
AcDbLine
 10
17.17301076952077
 20
-32.14093701889112
 30
0.0
 11
17.17301076952077
 21
-31.00666491004745
 31
0.0
  0
LINE
  5
143
102
{ACAD_REACTORS
330
200
330
201
102
}
330
76
100
AcDbEntity
  8
0
  6
Continuous
 62
     2
100
AcDbLine
 10
18.36580347168726
 20
-32.14093701889112
 30
0.0
 11
17.17301076952077
 21
-32.14093701889112
 31
0.0
  0
LINE
  5
144
102
{ACAD_REACTORS
330
200
330
201
102
}
330
76
100
AcDbEntity
  8
0
  6
Continuous
 62
     2
100
AcDbLine
 10
18.36580347168726
 20
-29.08712749508004
 30
0.0
 11
18.36580347168726
 21
-32.14093701889112
 31
0.0
  0
LINE
  5
145
102
{ACAD_REACTORS
330
1EE
330
1EF
102
}
330
76
100
AcDbEntity
  8
0
  6
Continuous
 62
     2
100
AcDbLine
 10
21.84875816201415
 20
-30.963039059707
 30
0.0
 11
23.18468598844177
 21
-30.963039059707
 31
0.0
  0
LINE
  5
146
102
{ACAD_REACTORS
330
1EE
330
1EF
102
}
330
76
100
AcDbEntity
  8
0
  6
Continuous
 62
     2
100
AcDbLine
 10
23.18468598844177
 20
-30.963039059707
 30
0.0
 11
23.18468598844177
 21
-30.26502545426462
 31
0.0
  0
LINE
  5
147
102
{ACAD_REACTORS
330
1EE
330
1EF
102
}
330
76
100
AcDbEntity
  8
0
  6
Continuous
 62
     2
100
AcDbLine
 10
23.18468598844177
 20
-30.26502545426462
 30
0.0
 11
21.84875816201415
 21
-30.26502545426462
 31
0.0
  0
LINE
  5
148
102
{ACAD_REACTORS
330
1EE
330
1EF
102
}
330
76
100
AcDbEntity
  8
0
  6
Continuous
 62
     2
100
AcDbLine
 10
21.84875816201415
 20
-30.26502545426462
 30
0.0
 11
21.84875816201415
 21
-29.78514110052294
 31
0.0
  0
LINE
  5
149
102
{ACAD_REACTORS
330
1FE
330
1FF
102
}
330
76
100
AcDbEntity
  8
0
  6
Continuous
 62
     2
100
AcDbLine
 10
18.17480570845507
 20
-35.50012749506544
 30
0.0
 11
19.36759841062258
 21
-35.50012749506544
 31
0.0
  0
LINE
  5
14A
102
{ACAD_REACTORS
330
1FE
330
1FF
102
}
330
76
100
AcDbEntity
  8
0
  6
Continuous
 62
     2
100
AcDbLine
 10
20.60810282087556
 20
-35.50012749506544
 30
0.0
 11
21.80089552304196
 21
-35.50012749506544
 31
0.0
  0
LINE
  5
14B
102
{ACAD_REACTORS
330
1FE
330
1FF
102
}
330
76
100
AcDbEntity
  8
0
  6
Continuous
 62
     2
100
AcDbLine
 10
19.36759841062258
 20
-32.4463179712543
 30
0.0
 11
18.17480570845507
 21
-32.4463179712543
 31
0.0
  0
LINE
  5
14C
102
{ACAD_REACTORS
330
1FE
330
1FF
102
}
330
76
100
AcDbEntity
  8
0
  6
Continuous
 62
     2
100
AcDbLine
 10
18.17480570845507
 20
-32.4463179712543
 30
0.0
 11
18.17480570845507
 21
-35.50012749506544
 31
0.0
  0
LINE
  5
14D
102
{ACAD_REACTORS
330
1FC
330
1FD
102
}
330
76
100
AcDbEntity
  8
0
  6
Continuous
 62
     2
100
AcDbLine
 10
25.85654164129525
 20
-29.08712749508004
 30
0.0
 11
25.85654164129525
 21
-30.39590300528511
 31
0.0
  0
LINE
  5
14E
102
{ACAD_REACTORS
330
1FC
330
1FD
102
}
330
76
100
AcDbEntity
  8
0
  6
Continuous
 62
     2
100
AcDbLine
 10
24.61603723104116
 20
-29.08712749508004
 30
0.0
 11
23.42324452887476
 21
-29.08712749508004
 31
0.0
  0
LINE
  5
14F
102
{ACAD_REACTORS
330
1FC
330
1FD
102
}
330
76
100
AcDbEntity
  8
0
  6
Continuous
 62
     2
100
AcDbLine
 10
23.42324452887476
 20
-29.08712749508004
 30
0.0
 11
23.42324452887476
 21
-32.14093701889112
 31
0.0
  0
LINE
  5
150
102
{ACAD_REACTORS
330
1FC
330
1FD
102
}
330
76
100
AcDbEntity
  8
0
  6
Continuous
 62
     2
100
AcDbLine
 10
24.61603723104116
 20
-32.14093701889112
 30
0.0
 11
24.61603723104116
 21
-30.8321615086864
 31
0.0
  0
LINE
  5
151
102
{ACAD_REACTORS
330
1FA
330
1FB
102
}
330
76
100
AcDbEntity
  8
0
  6
Continuous
 62
     2
100
AcDbLine
 10
23.94792238694316
 20
-35.50012749506544
 30
0.0
 11
23.94792238694316
 21
-33.23158327737804
 31
0.0
  0
LINE
  5
152
102
{ACAD_REACTORS
330
1FA
330
1FB
102
}
330
76
100
AcDbEntity
  8
0
  6
Continuous
 62
     2
100
AcDbLine
 10
23.94792238694316
 20
-33.23158327737804
 30
0.0
 11
24.75902142441578
 21
-33.23158327737804
 31
0.0
  0
LINE
  5
153
102
{ACAD_REACTORS
330
1FA
330
1FB
102
}
330
76
100
AcDbEntity
  8
0
  6
Continuous
 62
     2
100
AcDbLine
 10
24.75902142441578
 20
-33.23158327737804
 30
0.0
 11
24.75902142441578
 21
-32.4463179712543
 31
0.0
  0
LINE
  5
154
102
{ACAD_REACTORS
330
1FA
330
1FB
102
}
330
76
100
AcDbEntity
  8
0
  6
Continuous
 62
     2
100
AcDbLine
 10
24.75902142441578
 20
-32.4463179712543
 30
0.0
 11
21.94403064730207
 21
-32.4463179712543
 31
0.0
  0
LINE
  5
155
102
{ACAD_REACTORS
330
1FA
330
1FB
102
}
330
76
100
AcDbEntity
  8
0
  6
Continuous
 62
     2
100
AcDbLine
 10
21.94403064730207
 20
-33.23158327737804
 30
0.0
 11
22.75512968477676
 21
-33.23158327737804
 31
0.0
  0
LINE
  5
156
102
{ACAD_REACTORS
330
1F8
330
1F9
102
}
330
76
100
AcDbEntity
  8
0
  6
Continuous
 62
     2
100
AcDbLine
 10
25.55352725021305
 20
-34.95916695084765
 30
0.0
 11
26.68596882688698
 21
-34.95916695084765
 31
0.0
  0
LINE
  5
157
102
{ACAD_REACTORS
330
1F8
330
1F9
102
}
330
76
100
AcDbEntity
  8
0
  6
Continuous
 62
     2
100
AcDbLine
 10
28.13795329061665
 20
-35.50012749506544
 30
0.0
 11
26.89744888036276
 21
-35.50012749506544
 31
0.0
  0
LINE
  5
158
102
{ACAD_REACTORS
330
1F8
330
1F9
102
}
330
76
100
AcDbEntity
  8
0
  6
Continuous
 62
     2
100
AcDbLine
 10
25.49949583342357
 20
-32.4463179712543
 30
0.0
 11
24.10154278648437
 21
-35.50012749506544
 31
0.0
  0
LINE
  5
159
102
{ACAD_REACTORS
330
1F8
330
1F9
102
}
330
76
100
AcDbEntity
  8
0
  6
Continuous
 62
     2
100
AcDbLine
 10
25.34204719673727
 20
-35.50012749506544
 30
0.0
 11
25.55352725021305
 21
-34.95916695084765
 31
0.0
  0
LINE
  5
15A
102
{ACAD_REACTORS
330
1F8
330
1F9
102
}
330
76
100
AcDbEntity
  8
0
  6
Continuous
 62
     2
100
AcDbLine
 10
25.81958280135817
 20
-34.27860368554104
 30
0.0
 11
26.11974803855046
 21
-33.51078871955434
 31
0.0
  0
LINE
  5
15B
102
{ACAD_REACTORS
330
1F6
330
1F7
102
}
330
76
100
AcDbEntity
  8
0
  6
Continuous
 62
     2
100
AcDbLine
 10
27.28789288389575
 20
-32.14093701889112
 30
0.0
 11
27.28789288389575
 21
-29.08712749508004
 31
0.0
  0
LINE
  5
15C
102
{ACAD_REACTORS
330
1F6
330
1F7
102
}
330
76
100
AcDbEntity
  8
0
  6
Continuous
 62
     2
100
AcDbLine
 10
28.52839729414868
 20
-29.08712749508004
 30
0.0
 11
28.52839729414868
 21
-32.14093701889112
 31
0.0
  0
LINE
  5
15D
102
{ACAD_REACTORS
330
1F6
330
1F7
102
}
330
76
100
AcDbEntity
  8
0
  6
Continuous
 62
     2
100
AcDbLine
 10
27.28789288389575
 20
-29.08712749508004
 30
0.0
 11
28.52839729414868
 21
-29.08712749508004
 31
0.0
  0
LINE
  5
15E
102
{ACAD_REACTORS
330
1F4
330
1F5
102
}
330
76
100
AcDbEntity
  8
0
  6
Continuous
 62
     2
100
AcDbLine
 10
30.74699172017947
 20
-31.35320523359741
 30
0.0
 11
31.44358265824485
 21
-32.14093701889112
 31
0.0
  0
LINE
  5
15F
102
{ACAD_REACTORS
330
1F4
330
1F5
102
}
330
76
100
AcDbEntity
  8
0
  6
Continuous
 62
     2
100
AcDbLine
 10
31.44358265824485
 20
-32.14093701889112
 30
0.0
 11
32.84630687599315
 21
-32.14093701889112
 31
0.0
  0
LINE
  5
160
102
{ACAD_REACTORS
330
1F4
330
1F5
102
}
330
76
100
AcDbEntity
  8
0
  6
Continuous
 62
     2
100
AcDbLine
 10
31.44835382905288
 20
-30.56007802511624
 30
0.0
 11
32.84630687599315
 21
-32.14093701889112
 31
0.0
  0
LINE
  5
161
102
{ACAD_REACTORS
330
1F4
330
1F5
102
}
330
76
100
AcDbEntity
  8
0
  6
Continuous
 62
     2
100
AcDbLine
 10
31.44835382905288
 20
-30.56007802511624
 30
0.0
 11
32.75088345981948
 21
-29.08712749508004
 31
0.0
  0
LINE
  5
162
102
{ACAD_REACTORS
330
1F4
330
1F5
102
}
330
76
100
AcDbEntity
  8
0
  6
Continuous
 62
     2
100
AcDbLine
 10
30.74699172017947
 20
-29.76695081663553
 30
0.0
 11
31.34815924207226
 21
-29.08712749508004
 31
0.0
  0
LINE
  5
163
102
{ACAD_REACTORS
330
1F4
330
1F5
102
}
330
76
100
AcDbEntity
  8
0
  6
Continuous
 62
     2
100
AcDbLine
 10
30.14582419828756
 20
-29.08712749508004
 30
0.0
 11
30.74699172017947
 21
-29.76695081663553
 31
0.0
  0
LINE
  5
164
102
{ACAD_REACTORS
330
1F4
330
1F5
102
}
330
76
100
AcDbEntity
  8
0
  6
Continuous
 62
     2
100
AcDbLine
 10
30.14582419828756
 20
-29.08712749508004
 30
0.0
 11
28.74309998053838
 21
-29.08712749508004
 31
0.0
  0
LINE
  5
165
102
{ACAD_REACTORS
330
1EA
330
1EB
102
}
330
76
100
AcDbEntity
  8
0
  6
Continuous
 62
     2
100
AcDbLine
 10
30.84241513635206
 20
-35.50012749506544
 30
0.0
 11
32.03520783851977
 21
-35.50012749506544
 31
0.0
  0
LINE
  5
166
102
{ACAD_REACTORS
330
1EA
330
1EB
102
}
330
76
100
AcDbEntity
  8
0
  6
Continuous
 62
     2
100
AcDbLine
 10
32.03520783851977
 20
-35.50012749506544
 30
0.0
 11
32.03520783851977
 21
-33.23158327737804
 31
0.0
  0
LINE
  5
167
102
{ACAD_REACTORS
330
1EA
330
1EB
102
}
330
76
100
AcDbEntity
  8
0
  6
Continuous
 62
     2
100
AcDbLine
 10
32.03520783851977
 20
-33.23158327737804
 30
0.0
 11
32.84630687599315
 21
-33.23158327737804
 31
0.0
  0
LINE
  5
168
102
{ACAD_REACTORS
330
1EA
330
1EB
102
}
330
76
100
AcDbEntity
  8
0
  6
Continuous
 62
     2
100
AcDbLine
 10
32.84630687599315
 20
-33.23158327737804
 30
0.0
 11
32.84630687599315
 21
-32.4463179712543
 31
0.0
  0
LINE
  5
169
102
{ACAD_REACTORS
330
1EA
330
1EB
102
}
330
76
100
AcDbEntity
  8
0
  6
Continuous
 62
     2
100
AcDbLine
 10
29.46136135736455
 20
-32.44631797125493
 30
0.0
 11
32.84630687599315
 21
-32.4463179712543
 31
0.0
  0
LINE
  5
16A
102
{ACAD_REACTORS
330
1EA
330
1EB
102
}
330
76
100
AcDbEntity
  8
0
  6
Continuous
 62
     2
100
AcDbLine
 10
30.84241513635206
 20
-33.23158327737804
 30
0.0
 11
30.84241513635206
 21
-35.50012749506544
 31
0.0
  0
LINE
  5
16B
102
{ACAD_REACTORS
330
1EC
330
1ED
102
}
330
76
100
AcDbEntity
  8
0
  6
Continuous
 62
     2
100
AcDbLine
 10
8.21292870087296
 20
-33.52124734550091
 30
0.0
 11
8.21292870087296
 21
-32.93939593880583
 31
0.0
  0
LINE
  5
16C
102
{ACAD_REACTORS
330
1EC
330
1ED
102
}
330
76
100
AcDbEntity
  8
0
  6
Continuous
 62
     2
100
AcDbLine
 10
8.21292870087296
 20
-30.72111273886975
 30
0.0
 11
8.21292870087296
 21
-30.11557745036294
 31
0.0
  0
LINE
  5
16D
330
76
100
AcDbEntity
  8
1
  6
Continuous
 62
     6
100
AcDbLine
 10
86.74310728547607
 20
-42.79362749508175
 30
0.0
 11
130.243107285476
 21
-42.79362749508175
 31
0.0
  0
LINE
  5
16E
330
76
100
AcDbEntity
  8
1
  6
Continuous
 62
     6
100
AcDbLine
 10
36.74310728547607
 20
-42.79362749508175
 30
0.0
 11
18.89830275872606
 21
-42.79362749508175
 31
0.0
  0
LINE
  5
16F
330
76
100
AcDbEntity
  8
1
  6
Continuous
 62
     6
100
AcDbLine
 10
0.69830275872616
 20
-25.79362749508181
 30
0.0
 11
37.09830275872608
 21
-25.79362749508181
 31
0.0
  0
LINE
  5
170
330
76
100
AcDbEntity
  8
1
  6
Continuous
 62
     6
100
AcDbLine
 10
130.243107285476
 20
-42.79362749508175
 30
0.0
 11
130.2431072854774
 21
-34.29362749508181
 31
0.0
  0
LINE
  5
171
330
76
100
AcDbEntity
  8
1
  6
Continuous
 62
     6
100
AcDbLine
 10
37.09830275872608
 20
-42.79362749508181
 30
0.0
 11
86.74310728547607
 21
-42.79362749508175
 31
0.0
  0
LINE
  5
172
330
76
100
AcDbEntity
  8
1
  6
Continuous
 62
     7
100
AcDbLine
 10
0.69830275872616
 20
-25.79362749508181
 30
0.0
 11
0.69830275872616
 21
-38.54362749508181
 31
0.0
  0
LINE
  5
173
330
76
100
AcDbEntity
  8
1
  6
Continuous
 62
     7
100
AcDbLine
 10
37.09830275872608
 20
-25.79362749508181
 30
0.0
 11
37.09830275872608
 21
-38.54362749508175
 31
0.0
  0
LINE
  5
174
330
76
100
AcDbEntity
  8
1
  6
Continuous
 62
     6
100
AcDbLine
 10
37.09830275872608
 20
-42.79362749508181
 30
0.0
 11
36.74310728547607
 21
-42.79362749508175
 31
0.0
  0
LINE
  5
175
330
76
100
AcDbEntity
  8
1
  6
Continuous
 62
     6
100
AcDbLine
 10
130.2431072854779
 20
-25.79362749508181
 30
0.0
 11
130.2431072854774
 21
-34.29362749508181
 31
0.0
  0
LINE
  5
176
330
76
100
AcDbEntity
  8
1
  6
Continuous
 62
     2
100
AcDbLine
 10
4.93495764528868
 20
-20.41862749508192
 30
0.0
 11
9.93495764528868
 21
-19.16862749508192
 31
0.0
  0
LINE
  5
177
330
76
100
AcDbEntity
  8
1
  6
Continuous
 62
     2
100
AcDbLine
 10
4.93495764528868
 20
-22.91862749508192
 30
0.0
 11
4.93495764528868
 21
-20.41862749508192
 31
0.0
  0
LINE
  5
178
330
76
100
AcDbEntity
  8
1
  6
Continuous
 62
     2
100
AcDbLine
 10
9.93495764528868
 20
-24.16862749508192
 30
0.0
 11
4.93495764528868
 21
-22.91862749508192
 31
0.0
  0
LINE
  5
179
330
76
100
AcDbEntity
  8
1
  6
Continuous
 62
     2
100
AcDbLine
 10
9.93495764528868
 20
-19.16862749508192
 30
0.0
 11
9.93495764528868
 21
-24.16862749508192
 31
0.0
  0
LINE
  5
17A
330
76
100
AcDbEntity
  8
1
  6
Continuous
 62
     7
100
AcDbLine
 10
0.69830275872616
 20
-38.54362749508181
 30
0.0
 11
18.89830275872606
 21
-38.54362749508175
 31
0.0
  0
LINE
  5
17B
330
76
100
AcDbEntity
  8
1
  6
Continuous
 62
     7
100
AcDbLine
 10
0.69830275872616
 20
-38.54362749508181
 30
0.0
 11
0.69830275872616
 21
-42.79362749508181
 31
0.0
  0
LINE
  5
17C
330
76
100
AcDbEntity
  8
1
  6
Continuous
 62
     7
100
AcDbLine
 10
37.09830275872608
 20
-38.54362749508175
 30
0.0
 11
37.09830275872608
 21
-42.79362749508181
 31
0.0
  0
LINE
  5
17D
330
76
100
AcDbEntity
  8
1
  6
Continuous
 62
     7
100
AcDbLine
 10
18.89830275872606
 20
-38.54362749508175
 30
0.0
 11
18.89830275872606
 21
-42.79362749508175
 31
0.0
  0
LINE
  5
17E
330
76
100
AcDbEntity
  8
1
  6
Continuous
 62
     6
100
AcDbLine
 10
18.89830275872606
 20
-42.79362749508175
 30
0.0
 11
0.69830275872616
 21
-42.79362749508181
 31
0.0
  0
LINE
  5
17F
330
76
100
AcDbEntity
  8
1
  6
Continuous
 62
     7
100
AcDbLine
 10
18.89830275872606
 20
-38.54362749508175
 30
0.0
 11
37.09830275872608
 21
-38.54362749508175
 31
0.0
  0
LINE
  5
180
330
76
100
AcDbEntity
  8
1
  6
Continuous
 62
     6
100
AcDbLine
 10
0.69830275872616
 20
-17.29362749508181
 30
0.0
 11
130.2431072854779
 21
-17.29362749508181
 31
0.0
  0
LINE
  5
181
330
76
100
AcDbEntity
  8
1
  6
PHANTOM
 62
     2
100
AcDbLine
 10
16.18495764528868
 20
-21.66862749508192
 30
0.0
 11
10.68495764528868
 21
-21.66862749508192
 31
0.0
  0
LINE
  5
182
330
76
100
AcDbEntity
  8
1
  6
PHANTOM
 62
     2
100
AcDbLine
 10
13.43495764528868
 20
-18.91862749508181
 30
0.0
 11
13.43495764528868
 21
-24.41862749508181
 31
0.0
  0
LINE
  5
183
330
76
100
AcDbEntity
  8
1
  6
DOT_CENTER
 62
     2
100
AcDbLine
 10
4.68495764528868
 20
-21.66862749508192
 30
0.0
 11
10.18495764528868
 21
-21.66862749508192
 31
0.0
  0
ARC
  5
184
102
{ACAD_REACTORS
330
1F0
330
1F1
102
}
330
76
100
AcDbEntity
  8
0
  6
Continuous
 62
     2
100
AcDbCircle
 10
16.08995075768615
 20
-33.97322273316024
 30
0.0
 40
0.7717997786795379
100
AcDbArc
 50
321.8795802028433
 51
38.12041979716621
  0
ARC
  5
185
102
{ACAD_REACTORS
330
1F0
330
1F1
102
}
330
76
100
AcDbEntity
  8
0
  6
Continuous
 62
     2
100
AcDbCircle
 10
16.28969079403257
 20
-34.1299539112801
 30
0.0
 40
0.5179085730138452
100
AcDbArc
 50
218.1204197971876
 51
321.8795802027906
  0
ARC
  5
186
102
{ACAD_REACTORS
330
1F0
330
1F1
102
}
330
76
100
AcDbEntity
  8
0
  6
Continuous
 62
     2
100
AcDbCircle
 10
16.48943083037855
 20
-33.97322273316024
 30
0.0
 40
0.7717997786795439
100
AcDbArc
 50
141.8795802028282
 51
218.1204197971622
  0
ARC
  5
187
102
{ACAD_REACTORS
330
1F0
330
1F1
102
}
330
76
100
AcDbEntity
  8
0
  6
Continuous
 62
     2
100
AcDbCircle
 10
16.28969079403257
 20
-33.8164915550397
 30
0.0
 40
0.517908573013269
100
AcDbArc
 50
38.1204197971637
 51
141.8795802028581
  0
ARC
  5
188
102
{ACAD_REACTORS
330
1E8
330
1E9
102
}
330
76
100
AcDbEntity
  8
0
  6
Continuous
 62
     2
100
AcDbCircle
 10
13.22767665846857
 20
-35.38368909856831
 30
0.0
 40
2.227384008973464
100
AcDbArc
 50
58.06909105003716
 51
71.55192388186676
  0
ARC
  5
189
102
{ACAD_REACTORS
330
1E8
330
1E9
102
}
330
76
100
AcDbEntity
  8
0
  6
Continuous
 62
     2
100
AcDbCircle
 10
13.48940435942737
 20
-33.76815130382113
 30
0.0
 40
0.5115800601948306
100
AcDbArc
 50
113.3722778881949
 51
151.4785267423157
  0
ARC
  5
18A
102
{ACAD_REACTORS
330
1E8
330
1E9
102
}
330
76
100
AcDbEntity
  8
0
  6
Continuous
 62
     2
100
AcDbCircle
 10
13.86676161750776
 20
-33.97322273316024
 30
0.0
 40
0.9410597353333279
100
AcDbArc
 50
151.4785267422693
 51
208.5214732576976
  0
ARC
  5
18B
102
{ACAD_REACTORS
330
1E8
330
1E9
102
}
330
76
100
AcDbEntity
  8
0
  6
Continuous
 62
     2
100
AcDbCircle
 10
13.06980378337576
 20
-30.6605417879037
 30
0.0
 40
4.852596863498269
100
AcDbArc
 50
275.1581447696238
 51
285.9799912583526
  0
ARC
  5
18C
102
{ACAD_REACTORS
330
1E8
330
1E9
102
}
330
76
100
AcDbEntity
  8
0
  6
Continuous
 62
     2
100
AcDbCircle
 10
13.35865987811167
 20
-33.86043237112534
 30
0.0
 40
1.639695123939442
100
AcDbArc
 50
195.0618917770922
 51
275.1581447696362
  0
ARC
  5
18D
102
{ACAD_REACTORS
330
1E8
330
1E9
102
}
330
76
100
AcDbEntity
  8
0
  6
Continuous
 62
     2
100
AcDbCircle
 10
12.93953203464886
 20
-33.97322273316024
 30
0.0
 40
1.20565616839097
100
AcDbArc
 50
164.9381082228768
 51
195.0618917770945
  0
ARC
  5
18E
102
{ACAD_REACTORS
330
1E8
330
1E9
102
}
330
76
100
AcDbEntity
  8
0
  6
Continuous
 62
     2
100
AcDbCircle
 10
13.35865987811167
 20
-34.08601309519503
 30
0.0
 40
1.639695123940499
100
AcDbArc
 50
84.84185523036538
 51
164.9381082228906
  0
ARC
  5
18F
102
{ACAD_REACTORS
330
1EC
330
1ED
102
}
330
76
100
AcDbEntity
  8
0
  6
Continuous
 62
     2
100
AcDbCircle
 10
8.52864562394976
 20
-32.93939593880583
 30
0.0
 40
0.3157169230765328
100
AcDbArc
 50
115.3740086783519
 51
180.0
  0
ARC
  5
190
102
{ACAD_REACTORS
330
1EC
330
1ED
102
}
330
76
100
AcDbEntity
  8
0
  6
Continuous
 62
     2
100
AcDbCircle
 10
8.52864562394976
 20
-30.72111273886975
 30
0.0
 40
0.315716923076792
100
AcDbArc
 50
180.0
 51
244.6259913216351
  0
ARC
  5
191
102
{ACAD_REACTORS
330
1EC
330
1ED
102
}
330
76
100
AcDbEntity
  8
0
  6
Continuous
 62
     2
100
AcDbCircle
 10
8.53426175925978
 20
-31.81841239793192
 30
0.0
 40
2.01856113193327
100
AcDbArc
 50
269.8110329575827
 51
90.18896704241737
  0
ARC
  5
192
102
{ACAD_REACTORS
330
1EC
330
1ED
102
}
330
76
100
AcDbEntity
  8
0
  6
Continuous
 62
     2
100
AcDbCircle
 10
8.52864562394976
 20
-33.52124734550091
 30
0.0
 40
0.315716923076792
100
AcDbArc
 50
180.0
 51
269.8110329574335
  0
ARC
  5
193
102
{ACAD_REACTORS
330
1EA
330
1EB
102
}
330
76
100
AcDbEntity
  8
0
  6
Continuous
 62
     2
100
AcDbCircle
 10
29.59210583868025
 20
-33.76815130382113
 30
0.0
 40
0.5115800601944025
100
AcDbArc
 50
109.3371432194815
 51
151.4785267424178
  0
ARC
  5
194
102
{ACAD_REACTORS
330
1EA
330
1EB
102
}
330
76
100
AcDbEntity
  8
0
  6
Continuous
 62
     2
100
AcDbCircle
 10
29.59210583868025
 20
-34.17829416249873
 30
0.0
 40
0.5115800601959903
100
AcDbArc
 50
208.5214732576885
 51
246.6277221118402
  0
ARC
  5
195
102
{ACAD_REACTORS
330
1EA
330
1EB
102
}
330
76
100
AcDbEntity
  8
0
  6
Continuous
 62
     2
100
AcDbCircle
 10
29.04223351390286
 20
-33.97322273316024
 30
0.0
 40
1.205656168392979
100
AcDbArc
 50
164.9381082229025
 51
195.0618917770923
  0
ARC
  5
196
102
{ACAD_REACTORS
330
1EA
330
1EB
102
}
330
76
100
AcDbEntity
  8
0
  6
Continuous
 62
     2
100
AcDbCircle
 10
29.46136135736455
 20
-34.08601309519503
 30
0.0
 40
1.639695123940101
100
AcDbArc
 50
90.0
 51
164.9381082228993
  0
ARC
  5
197
102
{ACAD_REACTORS
330
1EE
330
1EF
102
}
330
76
100
AcDbEntity
  8
0
  6
Continuous
 62
     2
100
AcDbCircle
 10
20.03436626466086
 20
-30.61403225698581
 30
0.0
 40
1.526904761905769
100
AcDbArc
 50
90.0
 51
270.0
  0
ARC
  5
198
102
{ACAD_REACTORS
330
1F2
330
1F3
102
}
330
76
100
AcDbEntity
  8
0
  6
Continuous
 62
     2
100
AcDbCircle
 10
13.29167551943507
 20
-30.10309716519123
 30
0.0
 40
0.3528638246710898
100
AcDbArc
 50
270.0
 51
90.0
  0
ARC
  5
199
102
{ACAD_REACTORS
330
1EC
330
1ED
102
}
330
76
100
AcDbEntity
  8
0
  6
Continuous
 62
     2
100
AcDbCircle
 10
5.95309693741797
 20
-30.11539997371472
 30
0.0
 40
0.3157169230760779
100
AcDbArc
 50
90.0
 51
180.0
  0
ARC
  5
19A
102
{ACAD_REACTORS
330
1EC
330
1ED
102
}
330
76
100
AcDbEntity
  8
0
  6
Continuous
 62
     2
100
AcDbCircle
 10
7.95151464600255
 20
-31.83025433883751
 30
0.0
 40
0.9118975235576438
100
AcDbArc
 50
115.1944106485196
 51
244.805589351491
  0
ARC
  5
19B
102
{ACAD_REACTORS
330
1EC
330
1ED
102
}
330
76
100
AcDbEntity
  8
0
  6
Continuous
 62
     2
100
AcDbCircle
 10
7.42893019842757
 20
-32.94108408490024
 30
0.0
 40
0.315716923076593
100
AcDbArc
 50
0.0
 51
64.805589351446
  0
ARC
  5
19C
102
{ACAD_REACTORS
330
1EC
330
1ED
102
}
330
76
100
AcDbEntity
  8
0
  6
Continuous
 62
     2
100
AcDbCircle
 10
5.35920226067145
 20
-35.07588287968224
 30
0.0
 40
0.4242446153827748
100
AcDbArc
 50
180.0
 51
270.0
  0
ARC
  5
19D
102
{ACAD_REACTORS
330
1EE
330
1EF
102
}
330
76
100
AcDbEntity
  8
0
  6
Continuous
 62
     2
100
AcDbCircle
 10
20.25063827482606
 20
-30.45730107886533
 30
0.0
 40
0.5179085730133713
100
AcDbArc
 50
38.12041979714183
 51
141.8795802028662
  0
ARC
  5
19E
102
{ACAD_REACTORS
330
1EE
330
1EF
102
}
330
76
100
AcDbEntity
  8
0
  6
Continuous
 62
     2
100
AcDbCircle
 10
20.45037831117227
 20
-30.61403225698581
 30
0.0
 40
0.7717997786796268
100
AcDbArc
 50
141.8795802028482
 51
218.1204197971549
  0
ARC
  5
19F
102
{ACAD_REACTORS
330
1F0
330
1F1
102
}
330
76
100
AcDbEntity
  8
0
  6
Continuous
 62
     2
100
AcDbCircle
 10
16.28969079403257
 20
-33.43464772285682
 30
0.0
 40
2.065479772208636
100
AcDbArc
 50
242.4518518243386
 51
297.5481481756859
  0
ARC
  5
1A0
102
{ACAD_REACTORS
330
1F0
330
1F1
102
}
330
76
100
AcDbEntity
  8
0
  6
Continuous
 62
     2
100
AcDbCircle
 10
16.28969079403257
 20
-34.51179774346304
 30
0.0
 40
2.065479772208699
100
AcDbArc
 50
62.45185182430836
 51
117.5481481756672
  0
ARC
  5
1A1
102
{ACAD_REACTORS
330
1F0
330
1F1
102
}
330
76
100
AcDbEntity
  8
0
  6
Continuous
 62
     2
100
AcDbCircle
 10
16.00875090219915
 20
-33.97322273316024
 30
0.0
 40
1.458034083651612
100
AcDbArc
 50
117.5481481756595
 51
242.4518518243373
  0
ARC
  5
1A2
102
{ACAD_REACTORS
330
1F0
330
1F1
102
}
330
76
100
AcDbEntity
  8
0
  6
Continuous
 62
     2
100
AcDbCircle
 10
16.57063068586575
 20
-33.97322273316024
 30
0.0
 40
1.45803408365203
100
AcDbArc
 50
297.5481481757055
 51
62.45185182429758
  0
ARC
  5
1A3
102
{ACAD_REACTORS
330
1EE
330
1EF
102
}
330
76
100
AcDbEntity
  8
0
  6
Continuous
 62
     2
100
AcDbCircle
 10
20.25063827482606
 20
-30.77076343510635
 30
0.0
 40
0.5179085730134569
100
AcDbArc
 50
218.1204197971329
 51
321.8795802028591
  0
ARC
  5
1A4
102
{ACAD_REACTORS
330
1EE
330
1EF
102
}
330
76
100
AcDbEntity
  8
0
  6
Continuous
 62
     2
100
AcDbCircle
 10
20.05089823847987
 20
-30.61403225698581
 30
0.0
 40
0.7717997786795506
100
AcDbArc
 50
321.8795802028387
 51
38.12041979715818
  0
ARC
  5
1A5
102
{ACAD_REACTORS
330
1EC
330
1ED
102
}
330
76
100
AcDbEntity
  8
0
  6
Continuous
 62
     2
100
AcDbCircle
 10
10.83251435138837
 20
-35.07588287968224
 30
0.0
 40
0.424244615383202
100
AcDbArc
 50
270.0
 51
0.0
  0
ARC
  5
1A6
102
{ACAD_REACTORS
330
1EC
330
1ED
102
}
330
76
100
AcDbEntity
  8
0
  6
Continuous
 62
     2
100
AcDbCircle
 10
10.83251435138837
 20
-29.511372110482
 30
0.0
 40
0.4242446153838788
100
AcDbArc
 50
0.0
 51
90.0
  0
ARC
  5
1A7
102
{ACAD_REACTORS
330
1EC
330
1ED
102
}
330
76
100
AcDbEntity
  8
0
  6
Continuous
 62
     2
100
AcDbCircle
 10
5.35920226067145
 20
-29.511372110482
 30
0.0
 40
0.4242446153838806
100
AcDbArc
 50
90.0
 51
180.0
  0
ARC
  5
1A8
102
{ACAD_REACTORS
330
1EC
330
1ED
102
}
330
76
100
AcDbEntity
  8
0
  6
Continuous
 62
     2
100
AcDbCircle
 10
7.42893019842757
 20
-34.47185501643185
 30
0.0
 40
0.3157169230766996
100
AcDbArc
 50
270.0
 51
0.0
  0
ARC
  5
1A9
102
{ACAD_REACTORS
330
1EC
330
1ED
102
}
330
76
100
AcDbEntity
  8
0
  6
Continuous
 62
     2
100
AcDbCircle
 10
7.42893019842757
 20
-30.71942459277534
 30
0.0
 40
0.315716923076069
100
AcDbArc
 50
295.1944106485669
 51
0.0
  0
ARC
  5
1AA
102
{ACAD_REACTORS
330
1EC
330
1ED
102
}
330
76
100
AcDbEntity
  8
0
  6
Continuous
 62
     2
100
AcDbCircle
 10
7.42893019842757
 20
-30.11539997371472
 30
0.0
 40
0.315716923076593
100
AcDbArc
 50
0.0
 51
90.0
  0
ARC
  5
1AB
102
{ACAD_REACTORS
330
1EC
330
1ED
102
}
330
76
100
AcDbEntity
  8
0
  6
Continuous
 62
     2
100
AcDbCircle
 10
5.95309693741797
 20
-34.47185501643185
 30
0.0
 40
0.3157169230755983
100
AcDbArc
 50
180.0
 51
270.0
  0
ARC
  5
1AC
102
{ACAD_REACTORS
330
1F2
330
1F3
102
}
330
76
100
AcDbEntity
  8
0
  6
Continuous
 62
     2
100
AcDbCircle
 10
13.73314804567346
 20
-30.14249313641375
 30
0.0
 40
1.055365641333648
100
AcDbArc
 50
270.0
 51
90.0
  0
ARC
  5
1AD
102
{ACAD_REACTORS
330
1EA
330
1EB
102
}
330
76
100
AcDbEntity
  8
0
  6
Continuous
 62
     2
100
AcDbCircle
 10
29.46136135736455
 20
-33.86043237112534
 30
0.0
 40
1.6396951239405
100
AcDbArc
 50
195.0618917771007
 51
275.1581447696774
  0
ARC
  5
1AE
102
{ACAD_REACTORS
330
1EA
330
1EB
102
}
330
76
100
AcDbEntity
  8
0
  6
Continuous
 62
     2
100
AcDbCircle
 10
29.17250526262868
 20
-30.6605417879037
 30
0.0
 40
4.852596863498886
100
AcDbArc
 50
275.1581447696373
 51
285.9799912583383
  0
ARC
  5
1AF
102
{ACAD_REACTORS
330
1EA
330
1EB
102
}
330
76
100
AcDbEntity
  8
0
  6
Continuous
 62
     2
100
AcDbCircle
 10
29.33037813772145
 20
-32.562756367752
 30
0.0
 40
2.227384008972775
100
AcDbArc
 50
288.4480761181334
 51
301.9309089499395
  0
ARC
  5
1B0
102
{ACAD_REACTORS
330
1EA
330
1EB
102
}
330
76
100
AcDbEntity
  8
0
  6
Continuous
 62
     2
100
AcDbCircle
 10
29.74854587138347
 20
-33.81630214378873
 30
0.0
 40
0.9059297849852208
100
AcDbArc
 50
246.6277221118088
 51
288.4480761180774
  0
ARC
  5
1B1
102
{ACAD_REACTORS
330
1EA
330
1EB
102
}
330
76
100
AcDbEntity
  8
0
  6
Continuous
 62
     2
100
AcDbCircle
 10
29.96946309676176
 20
-33.97322273316024
 30
0.0
 40
0.9410597353350352
100
AcDbArc
 50
151.4785267423573
 51
208.521473257667
  0
ARC
  5
1B2
102
{ACAD_REACTORS
330
1EA
330
1EB
102
}
330
76
100
AcDbEntity
  8
0
  6
Continuous
 62
     2
100
AcDbCircle
 10
29.73877583678396
 20
-34.18610628420413
 30
0.0
 40
0.9545230068260864
100
AcDbArc
 50
90.0
 51
109.3371432194281
  0
ARC
  5
1B3
102
{ACAD_REACTORS
330
1EC
330
1ED
102
}
330
76
100
AcDbEntity
  8
0
  6
Continuous
 62
     2
100
AcDbCircle
 10
8.52864562394976
 20
-30.11557745036294
 30
0.0
 40
0.3157169230761958
100
AcDbArc
 50
90.18896704256647
 51
180.0
  0
ARC
  5
1B4
102
{ACAD_REACTORS
330
1EC
330
1ED
102
}
330
76
100
AcDbEntity
  8
0
  6
Continuous
 62
     2
100
AcDbCircle
 10
8.00260292586185
 20
-31.83025433883751
 30
0.0
 40
0.9118481501443909
100
AcDbArc
 50
295.3740086781805
 51
64.62599132180893
  0
ARC
  5
1B5
102
{ACAD_REACTORS
330
1E8
330
1E9
102
}
330
76
100
AcDbEntity
  8
0
  6
Continuous
 62
     2
100
AcDbCircle
 10
13.22767665846857
 20
-32.56275636775155
 30
0.0
 40
2.227384008972719
100
AcDbArc
 50
288.4480761181337
 51
301.9309089499636
  0
ARC
  5
1B6
102
{ACAD_REACTORS
330
1E8
330
1E9
102
}
330
76
100
AcDbEntity
  8
0
  6
Continuous
 62
     2
100
AcDbCircle
 10
13.64584439212948
 20
-33.81630214378873
 30
0.0
 40
0.9059297849848282
100
AcDbArc
 50
246.6277221118663
 51
288.4480761181538
  0
ARC
  5
1B7
102
{ACAD_REACTORS
330
1E8
330
1E9
102
}
330
76
100
AcDbEntity
  8
0
  6
Continuous
 62
     2
100
AcDbCircle
 10
13.48940435942737
 20
-34.17829416249873
 30
0.0
 40
0.5115800601947541
100
AcDbArc
 50
208.521473257685
 51
246.6277221118278
  0
ARC
  5
1B8
102
{ACAD_REACTORS
330
1E8
330
1E9
102
}
330
76
100
AcDbEntity
  8
0
  6
Continuous
 62
     2
100
AcDbCircle
 10
13.64584439212948
 20
-34.13014332253175
 30
0.0
 40
0.9059297849853493
100
AcDbArc
 50
71.55192388185984
 51
113.3722778881309
  0
ARC
  5
1B9
102
{ACAD_REACTORS
330
1E8
330
1E9
102
}
330
76
100
AcDbEntity
  8
0
  6
Continuous
 62
     2
100
AcDbCircle
 10
13.06980378337576
 20
-37.28590367841605
 30
0.0
 40
4.852596863497986
100
AcDbArc
 50
74.0200087416471
 51
84.84185523037604
  0
CIRCLE
  5
1BA
102
{ACAD_REACTORS
330
1EC
330
1ED
102
}
330
76
100
AcDbEntity
  8
0
  6
Continuous
 62
     2
100
AcDbCircle
 10
7.97878791118907
 20
-31.83025433883751
 30
0.0
 40
0.470978932778479
  0
CIRCLE
  5
1BB
330
76
100
AcDbEntity
  8
1
  6
Continuous
 62
     2
100
AcDbCircle
 10
13.43495764528868
 20
-21.66862749508192
 30
0.0
 40
1.25
  0
CIRCLE
  5
1BC
330
76
100
AcDbEntity
  8
1
  6
Continuous
 62
     2
100
AcDbCircle
 10
13.43495764528868
 20
-21.66862749508192
 30
0.0
 40
2.5
  0
TEXT
  5
1BE
330
76
100
AcDbEntity
  8
1
 62
     7
100
AcDbText
 10
94.9097739521427
 20
-46.79362749508124
 30
0.0
 40
2.5
  1
6
 41
0.9
  7
CONVERTER_11
100
AcDbText
  0
TEXT
  5
1BF
330
76
100
AcDbEntity
  8
1
 62
     7
100
AcDbText
 10
26.57644061880927
 20
-46.79362749508124
 30
0.0
 40
2.5
  1
5
 41
0.9
  7
CONVERTER_11
100
AcDbText
  0
TEXT
  5
1C0
330
76
100
AcDbEntity
  8
1
 62
     7
100
AcDbText
 10
-41.75689271452393
 20
-46.79362749508124
 30
0.0
 40
2.5
  1
4
 41
0.9
  7
CONVERTER_11
100
AcDbText
  0
TEXT
  5
1C1
330
76
100
AcDbEntity
  8
1
 62
     7
100
AcDbText
 10
-110.090226047857
 20
-46.79362749508124
 30
0.0
 40
2.5
  1
3
 41
0.9
  7
CONVERTER_11
100
AcDbText
  0
TEXT
  5
1C2
330
76
100
AcDbEntity
  8
1
 62
     7
100
AcDbText
 10
131.2431072854761
 20
-15.29362749508124
 30
0.0
 40
2.5
  1
E
 41
0.9
  7
CONVERTER_11
100
AcDbText
  0
TEXT
  5
1C3
330
76
100
AcDbEntity
  8
1
 62
     7
100
AcDbText
 10
-246.7568927145236
 20
-46.79362749508124
 30
0.0
 40
2.5
  1
1
 41
0.9
  7
CONVERTER_11
100
AcDbText
  0
TEXT
  5
1C4
330
76
100
AcDbEntity
  8
1
 62
     7
100
AcDbText
 10
-178.4235593811906
 20
-46.79362749508124
 30
0.0
 40
2.5
  1
2
 41
0.9
  7
CONVERTER_11
100
AcDbText
  0
TEXT
  5
1C5
330
76
100
AcDbEntity
  8
1
 62
     7
100
AcDbText
 10
131.2431072854761
 20
42.10637250491888
 30
0.0
 40
2.5
  1
D
 41
0.9
  7
CONVERTER_11
100
AcDbText
  0
TEXT
  5
1C6
330
76
100
AcDbEntity
  8
1
 62
     7
100
AcDbText
 10
131.2431072854761
 20
99.50637250491897
 30
0.0
 40
2.5
  1
C
 41
0.9
  7
CONVERTER_11
100
AcDbText
  0
TEXT
  5
1C7
330
76
100
AcDbEntity
  8
1
 62
     7
100
AcDbText
 10
131.2431072854761
 20
156.9063725049188
 30
0.0
 40
2.5
  1
B
 41
0.9
  7
CONVERTER_11
100
AcDbText
  0
TEXT
  5
1C8
330
76
100
AcDbEntity
  8
1
 62
     7
100
AcDbText
 10
131.2431072854761
 20
214.3063725049187
 30
0.0
 40
2.5
  1
A
 41
0.9
  7
CONVERTER_11
100
AcDbText
  0
TEXT
  5
1C9
330
76
100
AcDbEntity
  8
1
 62
     7
100
AcDbText
 10
94.9097739521427
 20
245.206372504919
 30
0.0
 40
2.5
  1
6
 41
0.9
  7
CONVERTER_11
100
AcDbText
  0
TEXT
  5
1CA
330
76
100
AcDbEntity
  8
1
 62
     7
100
AcDbText
 10
26.57644061880947
 20
245.206372504919
 30
0.0
 40
2.5
  1
5
 41
0.9
  7
CONVERTER_11
100
AcDbText
  0
TEXT
  5
1CB
330
76
100
AcDbEntity
  8
1
 62
     7
100
AcDbText
 10
-41.75689271452393
 20
245.206372504919
 30
0.0
 40
2.5
  1
4
 41
0.9
  7
CONVERTER_11
100
AcDbText
  0
TEXT
  5
1CC
330
76
100
AcDbEntity
  8
1
 62
     7
100
AcDbText
 10
-110.090226047857
 20
245.206372504919
 30
0.0
 40
2.5
  1
3
 41
0.9
  7
CONVERTER_11
100
AcDbText
  0
TEXT
  5
1CD
330
76
100
AcDbEntity
  8
1
 62
     7
100
AcDbText
 10
-178.4235593811906
 20
245.206372504919
 30
0.0
 40
2.5
  1
2
 41
0.9
  7
CONVERTER_11
100
AcDbText
  0
TEXT
  5
1CE
330
76
100
AcDbEntity
  8
1
 62
     7
100
AcDbText
 10
-246.7568927145236
 20
245.206372504919
 30
0.0
 40
2.5
  1
1
 41
0.9
  7
CONVERTER_11
100
AcDbText
  0
TEXT
  5
1CF
330
76
100
AcDbEntity
  8
1
 62
     7
100
AcDbText
 10
56.07185048073987
 20
-24.4936274950818
 30
0.0
 40
2.5
  1
/
 41
0.9
  7
CONVERTER_11
100
AcDbText
  0
TEXT
  5
1D1
330
76
100
AcDbEntity
  8
1
 62
     7
100
AcDbText
 10
58.22821497778186
 20
-24.4936274950818
 30
0.0
 40
2.5
  1
01
 41
0.81
  7
CONVERTER_12
100
AcDbText
  0
TEXT
  5
1D2
330
76
100
AcDbEntity
  8
1
 62
     3
100
AcDbText
 10
95.82469900379904
 20
-24.4936274950818
 30
0.0
 40
2.5
  1
01.04.2021
 41
0.81
  7
CONVERTER_12
100
AcDbText
  0
MTEXT
  5
1D3
330
76
100
AcDbEntity
  8
1
 62
     2
100
AcDbMText
 10
95.82469900379904
 20
-18.29362749508181
 30
0.0
 40
1.8
 41
0.0
 71
     1
 72
     1
  1
date
  7
CONVERTER_11
 73
     1
 44
1.32052821128451
  0
MTEXT
  5
1D4
330
76
100
AcDbEntity
  8
1
 62
     2
100
AcDbMText
 10
65.99830275872607
 20
-26.79362749508181
 30
0.0
 40
1.8
 41
0.0
 71
     1
 72
     1
  1
document-type
  7
CONVERTER_11
 73
     1
 44
1.20048019207683
  0
TEXT
  5
1D5
330
76
100
AcDbEntity
  8
1
 62
     3
100
AcDbText
 10
65.99830275872607
 20
-32.9936274950818
 30
0.0
 40
2.5
  1
TECDOC 2D_Productdrawing
 41
0.81
  7
CONVERTER_12
100
AcDbText
  0
MTEXT
  5
1D7
330
76
100
AcDbEntity
  8
1
 62
     2
100
AcDbMText
 10
38.19830275872607
 20
-18.29362749508181
 30
0.0
 40
1.8
 41
0.0
 71
     1
 72
     1
  1
document-No. / RI
  7
CONVERTER_13
 73
     1
 44
1.32052821128451
  0
TEXT
  5
1D8
330
76
100
AcDbEntity
  8
1
 62
     7
100
AcDbText
 10
38.19830275872607
 20
-24.4936274950818
 30
0.0
 40
2.5
  1
00649430
 41
0.81
  7
CONVERTER_12
100
AcDbText
  0
MTEXT
  5
1DA
330
76
100
AcDbEntity
  8
1
 62
     3
100
AcDbMText
 10
125.7839031446384
 20
-24.49362749508174
 30
0.0
 40
2.5
 41
0.0
 71
     8
 72
     1
  1
2:1
  7
CONVERTER_14
 73
     1
 44
1.32052821128451
  0
MTEXT
  5
1DB
330
76
100
AcDbEntity
  8
1
 62
     2
100
AcDbMText
 10
122.4246990037989
 20
-18.29362749508181
 30
0.0
 40
1.8
 41
0.0
 71
     1
 72
     1
  1
scale
  7
CONVERTER_11
 73
     1
 44
1.20048019207683
  0
MTEXT
  5
1DC
330
76
100
AcDbEntity
  8
1
 62
     2
100
AcDbMText
 10
38.19830275872607
 20
-26.79362749508181
 30
0.0
 40
1.8
 41
0.0
 71
     1
 72
     1
  1
ident.-No.
  7
CONVERTER_11
 73
     1
 44
1.20048019207683
  0
TEXT
  5
1DD
330
76
100
AcDbEntity
  8
1
 62
     7
100
AcDbText
 10
38.59830275872585
 20
-32.9936274950818
 30
0.0
 40
2.5
  1
0801713
 41
0.81
  7
CONVERTER_12
100
AcDbText
  0
MTEXT
  5
1DE
330
76
100
AcDbEntity
  8
1
 62
     2
100
AcDbMText
 10
-33.71272051048345
 20
-30.043627495083
 30
0.0
 40
2.0
 41
0.0
 71
     5
 72
     1
  1
General Information\P- Simplified representation\P- Document excluded from change process\P- Linear dimensions [mm]
  7
CONVERTER_11
 73
     1
 44
1.20048019207683
  0
MTEXT
  5
1DF
330
76
100
AcDbEntity
  8
1
 62
     3
100
AcDbMText
 10
26.89830275872606
 20
-21.66862749508181
 30
0.0
 40
2.5
 41
0.0
 71
     5
 72
     1
  1
DIN A3
  7
CONVERTER_11
 73
     1
 44
1.20048019207683
  0
MTEXT
  5
1E0
330
76
100
AcDbEntity
  8
1
 62
     2
100
AcDbMText
 10
38.09830275872608
 20
-35.29362749508181
 30
0.0
 40
1.8
 41
0.0
 71
     1
 72
     1
  1
description
  7
CONVERTER_11
 73
     1
 44
1.20048019207683
  0
MTEXT
  5
1E1
330
76
100
AcDbEntity
  8
1
 62
     7
100
AcDbMText
 10
83.67070502210157
 20
-39.54362749508164
 30
0.0
 40
3.0
 41
0.0
 71
     5
 72
     1
  1
CES-STPG-GY-2ASI-RR
  7
CONVERTER_12
 73
     1
 44
1.20048019207683
  0
TEXT
  5
1E2
330
76
100
AcDbEntity
  8
1
 62
     2
100
AcDbText
 10
25.13361156853966
 20
-41.54362749508181
 30
0.0
 40
1.8
  1
1
 41
0.9
  7
CONVERTER_11
100
AcDbText
  0
TEXT
  5
1E3
330
76
100
AcDbEntity
  8
1
 62
     2
100
AcDbText
 10
10.34456772906816
 20
-41.5928761488837
 30
0.0
 40
1.8
  1
1
 41
0.9
  7
CONVERTER_11
100
AcDbText
  0
TEXT
  5
1E4
330
76
100
AcDbEntity
  8
1
 62
     2
100
AcDbText
 10
1.69830275872616
 20
-41.55264471007354
 30
0.0
 40
1.8
  1
page
 41
0.9
  7
CONVERTER_11
100
AcDbText
  0
TEXT
  5
1E5
330
76
100
AcDbEntity
  8
1
 62
     2
100
AcDbText
 10
19.89830275872598
 20
-41.55264471007331
 30
0.0
 40
1.8
  1
of
 41
0.9
  7
CONVERTER_11
100
AcDbText
  0
MTEXT
  5
1E6
330
76
100
AcDbEntity
  8
1
 62
     3
100
AcDbMText
 10
-266.4884257142646
 20
130.1926566185725
 30
0.0
 40
1.8
 41
0.0
 71
     7
 72
     1
  3
Transfer or duplication of this document as well as the utilisation or\Pcommunication of its content are not permitted unless express consent\Pis granted. Violations give rise to claims for damages. All rights reserved\Pin case of patent, utility mo
  1
del or design patent registrations.
  7
CONVERTER_11
 11
0.0
 21
1.0
 31
0.0
 73
     1
 44
0.99639855942377
  0
MTEXT
  5
1E7
330
76
100
AcDbEntity
  8
1
 62
     3
100
AcDbMText
 10
-266.3342194031707
 20
-42.76671339558061
 30
0.0
 40
1.8
 41
0.0
 71
     7
 72
     1
  3
Weitergabe sowie Vervielfältigung dieses Dokuments, Verwertung und \PMitteilung seines Inhalts sind verboten, soweit nicht ausdrücklich gestattet. \PZuwiderhandlungen verpflichten zu Schadenersatz. Alle Rechte für den Fall\Pder Patent-, Gebrauchsmus
  1
ter- oder Designeintragung vorbehalten.
  7
CONVERTER_11
 11
0.0
 21
1.0
 31
0.0
 73
     1
 44
0.99639855942377
  0
HATCH
  5
1E8
330
76
100
AcDbEntity
  8
1
  6
Continuous
 62
     2
100
AcDbHatch
 10
0.0
 20
0.0
 30
0.0
210
0.0
220
0.0
230
1.0
  2
CUSTOM0
 70
     0
 71
     1
 91
        1
 92
        1
 93
       14
 72
     2
 10
12.93953203464886
 20
-33.97322273316024
 40
1.20565616839097
 50
164.9381082228768
 51
195.0618917770945
 73
     1
 72
     2
 10
13.35865987811167
 20
-33.86043237112534
 40
1.639695123939442
 50
195.0618917770922
 51
275.1581447696362
 73
     1
 72
     2
 10
13.06980378337576
 20
-30.6605417879037
 40
4.852596863498269
 50
275.1581447696238
 51
285.9799912583526
 73
     1
 72
     1
 10
14.40573170049356
 20
-35.32562409370462
 11
14.40573170049356
 21
-34.4531070869013
 72
     2
 10
13.22767665846857
 20
-32.56275636775155
 40
2.227384008972719
 50
58.06909105003638
 51
71.55192388186632
 73
     0
 72
     2
 10
13.64584439212948
 20
-33.81630214378873
 40
0.9059297849848282
 50
71.55192388184615
 51
113.3722778881338
 73
     0
 72
     2
 10
13.48940435942737
 20
-34.17829416249873
 40
0.5115800601947541
 50
113.3722778881722
 51
151.478526742315
 73
     0
 72
     2
 10
13.86676161750776
 20
-33.97322273316024
 40
0.9410597353333279
 50
151.4785267423024
 51
208.5214732577307
 73
     0
 72
     2
 10
13.48940435942737
 20
-33.76815130382113
 40
0.5115800601948306
 50
208.5214732576843
 51
246.6277221118051
 73
     0
 72
     2
 10
13.64584439212948
 20
-34.13014332253175
 40
0.9059297849853493
 50
246.6277221118691
 51
288.4480761181402
 73
     0
 72
     2
 10
13.22767665846857
 20
-35.38368909856831
 40
2.227384008973464
 50
288.4480761181333
 51
301.9309089499628
 73
     0
 72
     1
 10
14.40573170049356
 20
-33.4933383794185
 11
14.40573170049356
 21
-32.62082137261524
 72
     2
 10
13.06980378337576
 20
-37.28590367841605
 40
4.852596863497986
 50
74.0200087416471
 51
84.84185523037604
 73
     1
 72
     2
 10
13.35865987811167
 20
-34.08601309519503
 40
1.639695123940499
 50
84.84185523036538
 51
164.9381082228906
 73
     1
 97
       14
330
1B9
330
102
330
188
330
1B8
330
189
330
18A
330
1B7
330
1B6
330
1B5
330
103
330
18B
330
18C
330
18D
330
18E
 75
     1
 76
     2
 52
45.0
 41
0.1
 77
     0
 78
     1
 53
45.0
 43
62.7811309658083
 44
-72.3161373035813
 45
-0.1414213562373095
 46
0.0
 79
     0
 98
        1
 10
0.0
 20
0.0
  0
HATCH
  5
1E9
330
76
100
AcDbEntity
  8
1
  6
Continuous
 62
     2
100
AcDbHatch
 10
0.0
 20
0.0
 30
0.0
210
0.0
220
0.0
230
1.0
  2
CUSTOM1
 70
     0
 71
     1
 91
        1
 92
        1
 93
       14
 72
     2
 10
12.93953203464886
 20
-33.97322273316024
 40
1.20565616839097
 50
164.9381082228768
 51
195.0618917770945
 73
     1
 72
     2
 10
13.35865987811167
 20
-33.86043237112534
 40
1.639695123939442
 50
195.0618917770922
 51
275.1581447696362
 73
     1
 72
     2
 10
13.06980378337576
 20
-30.6605417879037
 40
4.852596863498269
 50
275.1581447696238
 51
285.9799912583526
 73
     1
 72
     1
 10
14.40573170049356
 20
-35.32562409370462
 11
14.40573170049356
 21
-34.4531070869013
 72
     2
 10
13.22767665846857
 20
-32.56275636775155
 40
2.227384008972719
 50
58.06909105003638
 51
71.55192388186632
 73
     0
 72
     2
 10
13.64584439212948
 20
-33.81630214378873
 40
0.9059297849848282
 50
71.55192388184615
 51
113.3722778881338
 73
     0
 72
     2
 10
13.48940435942737
 20
-34.17829416249873
 40
0.5115800601947541
 50
113.3722778881722
 51
151.478526742315
 73
     0
 72
     2
 10
13.86676161750776
 20
-33.97322273316024
 40
0.9410597353333279
 50
151.4785267423024
 51
208.5214732577307
 73
     0
 72
     2
 10
13.48940435942737
 20
-33.76815130382113
 40
0.5115800601948306
 50
208.5214732576843
 51
246.6277221118051
 73
     0
 72
     2
 10
13.64584439212948
 20
-34.13014332253175
 40
0.9059297849853493
 50
246.6277221118691
 51
288.4480761181402
 73
     0
 72
     2
 10
13.22767665846857
 20
-35.38368909856831
 40
2.227384008973464
 50
288.4480761181333
 51
301.9309089499628
 73
     0
 72
     1
 10
14.40573170049356
 20
-33.4933383794185
 11
14.40573170049356
 21
-32.62082137261524
 72
     2
 10
13.06980378337576
 20
-37.28590367841605
 40
4.852596863497986
 50
74.0200087416471
 51
84.84185523037604
 73
     1
 72
     2
 10
13.35865987811167
 20
-34.08601309519503
 40
1.639695123940499
 50
84.84185523036538
 51
164.9381082228906
 73
     1
 97
       14
330
1B9
330
102
330
188
330
1B8
330
189
330
18A
330
1B7
330
1B6
330
1B5
330
103
330
18B
330
18C
330
18D
330
18E
 75
     1
 76
     2
 52
45.0
 41
0.1
 77
     0
 78
     1
 53
45.0
 43
62.7811309658083
 44
-72.3161373035813
 45
-0.1414213562373095
 46
0.0
 79
     0
 98
        1
 10
0.0
 20
0.0
  0
HATCH
  5
1EA
330
76
100
AcDbEntity
  8
1
  6
Continuous
 62
     2
100
AcDbHatch
 10
0.0
 20
0.0
 30
0.0
210
0.0
220
0.0
230
1.0
  2
CUSTOM2
 70
     0
 71
     1
 91
        1
 92
        1
 93
       18
 72
     2
 10
29.46136135736455
 20
-34.08601309519503
 40
1.639695123940101
 50
90.0
 51
164.9381082228993
 73
     1
 72
     2
 10
29.04223351390286
 20
-33.97322273316024
 40
1.205656168392979
 50
164.9381082229025
 51
195.0618917770923
 73
     1
 72
     2
 10
29.46136135736455
 20
-33.86043237112534
 40
1.6396951239405
 50
195.0618917771007
 51
275.1581447696774
 73
     1
 72
     2
 10
29.17250526262868
 20
-30.6605417879037
 40
4.852596863498886
 50
275.1581447696373
 51
285.9799912583383
 73
     1
 72
     1
 10
30.50843317974537
 20
-35.32562409370513
 11
30.50843317974537
 21
-34.45310708690181
 72
     2
 10
29.33037813772145
 20
-32.562756367752
 40
2.227384008972775
 50
58.0690910500605
 51
71.55192388186657
 73
     0
 72
     2
 10
29.74854587138347
 20
-33.81630214378873
 40
0.9059297849852208
 50
71.55192388192259
 51
113.3722778881912
 73
     0
 72
     2
 10
29.59210583868025
 20
-34.17829416249873
 40
0.5115800601959903
 50
113.3722778881598
 51
151.4785267423115
 73
     0
 72
     2
 10
29.96946309676176
 20
-33.97322273316024
 40
0.9410597353350352
 50
151.478526742333
 51
208.5214732576427
 73
     0
 72
     2
 10
29.59210583868025
 20
-33.76815130382113
 40
0.5115800601944025
 50
208.5214732575822
 51
250.6628567805185
 73
     0
 72
     2
 10
29.73877583678396
 20
-34.18610628420413
 40
0.9545230068260864
 50
250.6628567805719
 51
270.0
 73
     0
 72
     1
 10
29.73877583678396
 20
-33.23158327737804
 11
30.84241513635206
 21
-33.23158327737804
 72
     1
 10
30.84241513635206
 20
-33.23158327737804
 11
30.84241513635206
 21
-35.50012749506544
 72
     1
 10
30.84241513635206
 20
-35.50012749506544
 11
32.03520783851977
 21
-35.50012749506544
 72
     1
 10
32.03520783851977
 20
-35.50012749506544
 11
32.03520783851977
 21
-33.23158327737804
 72
     1
 10
32.03520783851977
 20
-33.23158327737804
 11
32.84630687599315
 21
-33.23158327737804
 72
     1
 10
32.84630687599315
 20
-33.23158327737804
 11
32.84630687599315
 21
-32.4463179712543
 72
     1
 10
32.84630687599315
 20
-32.4463179712543
 11
29.46136135736455
 21
-32.44631797125493
 97
       18
330
168
330
167
330
166
330
165
330
16A
330
104
330
1B2
330
193
330
1B1
330
194
330
1B0
330
1AF
330
105
330
1AE
330
1AD
330
195
330
196
330
169
 75
     1
 76
     2
 52
45.0
 41
0.1
 77
     0
 78
     1
 53
45.0
 43
62.7811309658083
 44
-72.3161373035813
 45
-0.1414213562373095
 46
0.0
 79
     0
 98
        1
 10
0.0
 20
0.0
  0
HATCH
  5
1EB
330
76
100
AcDbEntity
  8
1
  6
Continuous
 62
     2
100
AcDbHatch
 10
0.0
 20
0.0
 30
0.0
210
0.0
220
0.0
230
1.0
  2
CUSTOM3
 70
     0
 71
     1
 91
        1
 92
        1
 93
       18
 72
     2
 10
29.46136135736455
 20
-34.08601309519503
 40
1.639695123940101
 50
90.0
 51
164.9381082228993
 73
     1
 72
     2
 10
29.04223351390286
 20
-33.97322273316024
 40
1.205656168392979
 50
164.9381082229025
 51
195.0618917770923
 73
     1
 72
     2
 10
29.46136135736455
 20
-33.86043237112534
 40
1.6396951239405
 50
195.0618917771007
 51
275.1581447696774
 73
     1
 72
     2
 10
29.17250526262868
 20
-30.6605417879037
 40
4.852596863498886
 50
275.1581447696373
 51
285.9799912583383
 73
     1
 72
     1
 10
30.50843317974537
 20
-35.32562409370513
 11
30.50843317974537
 21
-34.45310708690181
 72
     2
 10
29.33037813772145
 20
-32.562756367752
 40
2.227384008972775
 50
58.0690910500605
 51
71.55192388186657
 73
     0
 72
     2
 10
29.74854587138347
 20
-33.81630214378873
 40
0.9059297849852208
 50
71.55192388192259
 51
113.3722778881912
 73
     0
 72
     2
 10
29.59210583868025
 20
-34.17829416249873
 40
0.5115800601959903
 50
113.3722778881598
 51
151.4785267423115
 73
     0
 72
     2
 10
29.96946309676176
 20
-33.97322273316024
 40
0.9410597353350352
 50
151.478526742333
 51
208.5214732576427
 73
     0
 72
     2
 10
29.59210583868025
 20
-33.76815130382113
 40
0.5115800601944025
 50
208.5214732575822
 51
250.6628567805185
 73
     0
 72
     2
 10
29.73877583678396
 20
-34.18610628420413
 40
0.9545230068260864
 50
250.6628567805719
 51
270.0
 73
     0
 72
     1
 10
29.73877583678396
 20
-33.23158327737804
 11
30.84241513635206
 21
-33.23158327737804
 72
     1
 10
30.84241513635206
 20
-33.23158327737804
 11
30.84241513635206
 21
-35.50012749506544
 72
     1
 10
30.84241513635206
 20
-35.50012749506544
 11
32.03520783851977
 21
-35.50012749506544
 72
     1
 10
32.03520783851977
 20
-35.50012749506544
 11
32.03520783851977
 21
-33.23158327737804
 72
     1
 10
32.03520783851977
 20
-33.23158327737804
 11
32.84630687599315
 21
-33.23158327737804
 72
     1
 10
32.84630687599315
 20
-33.23158327737804
 11
32.84630687599315
 21
-32.4463179712543
 72
     1
 10
32.84630687599315
 20
-32.4463179712543
 11
29.46136135736455
 21
-32.44631797125493
 97
       18
330
168
330
167
330
166
330
165
330
16A
330
104
330
1B2
330
193
330
1B1
330
194
330
1B0
330
1AF
330
105
330
1AE
330
1AD
330
195
330
196
330
169
 75
     1
 76
     2
 52
45.0
 41
0.1
 77
     0
 78
     1
 53
45.0
 43
62.7811309658083
 44
-72.3161373035813
 45
-0.1414213562373095
 46
0.0
 79
     0
 98
        1
 10
0.0
 20
0.0
  0
HATCH
  5
1EC
330
76
100
AcDbEntity
  8
1
  6
Continuous
 62
     2
100
AcDbHatch
 10
0.0
 20
0.0
 30
0.0
210
0.0
220
0.0
230
1.0
  2
CUSTOM4
 70
     0
 71
     1
 91
        4
 92
        1
 93
        8
 72
     2
 10
5.359202260671452
 20
-29.511372110482
 40
0.4242446153838806
 50
90.0
 51
180.0
 73
     1
 72
     1
 10
4.934957645288677
 20
-29.511372110482
 11
4.934957645288677
 21
-35.07588287968224
 72
     2
 10
5.359202260671452
 20
-35.07588287968224
 40
0.4242446153827748
 50
180.0
 51
270.0
 73
     1
 72
     1
 10
5.359202260671452
 20
-35.50012749506544
 11
10.83251435138837
 21
-35.50012749506544
 72
     2
 10
10.83251435138837
 20
-35.07588287968224
 40
0.424244615383202
 50
270.0
 51
360.0
 73
     1
 72
     1
 10
11.25675896677225
 20
-35.07588287968224
 11
11.25675896677225
 21
-29.511372110482
 72
     2
 10
10.83251435138837
 20
-29.511372110482
 40
0.4242446153838788
 50
0.0
 51
90.0
 73
     1
 72
     1
 10
10.83251435138837
 20
-29.08712749509812
 11
5.359202260671452
 21
-29.08712749509812
 97
        8
330
1A6
330
133
330
1A5
330
134
330
19C
330
131
330
1A7
330
132
 92
       16
 93
       12
 72
     1
 10
5.953096937417968
 20
-34.78757193950855
 11
7.428930198427565
 21
-34.78757193950855
 72
     2
 10
7.428930198427565
 20
-34.47185501643185
 40
0.3157169230766996
 50
270.0
 51
360.0
 73
     1
 72
     1
 10
7.744647121504158
 20
-34.47185501643185
 11
7.744647121504158
 21
-32.94108408490024
 72
     2
 10
7.428930198427565
 20
-32.94108408490024
 40
0.315716923076593
 50
0.0
 51
64.805589351446
 73
     1
 72
     2
 10
7.951514646002551
 20
-31.83025433883751
 40
0.9118975235576438
 50
115.194410648509
 51
244.8055893514804
 73
     0
 72
     2
 10
7.428930198427565
 20
-30.71942459277534
 40
0.315716923076069
 50
295.1944106485669
 51
360.0
 73
     1
 72
     1
 10
7.744647121504158
 20
-30.71942459277534
 11
7.744647121504158
 21
-30.11539997371472
 72
     2
 10
7.428930198427565
 20
-30.11539997371472
 40
0.315716923076593
 50
0.0
 51
90.0
 73
     1
 72
     1
 10
7.428930198427565
 20
-29.79968305063864
 11
5.953096937417968
 21
-29.79968305063864
 72
     2
 10
5.953096937417968
 20
-30.11539997371472
 40
0.3157169230760779
 50
90.0
 51
180.0
 73
     1
 72
     1
 10
5.637380014342369
 20
-30.11539997371472
 11
5.637380014342369
 21
-34.47185501643185
 72
     2
 10
5.953096937417968
 20
-34.47185501643185
 40
0.3157169230755983
 50
180.0
 51
270.0
 73
     1
 97
       12
330
138
330
199
330
137
330
1AA
330
136
330
1A9
330
19A
330
19B
330
135
330
1A8
330
130
330
1AB
 92
       16
 93
        8
 72
     2
 10
8.00260292586185
 20
-31.83025433883751
 40
0.9118481501443909
 50
295.3740086781805
 51
424.6259913218089
 73
     1
 72
     2
 10
8.528645623949757
 20
-30.72111273886975
 40
0.315716923076792
 50
115.3740086783648
 51
180.0
 73
     0
 72
     1
 10
8.212928700872965
 20
-30.72111273886975
 11
8.212928700872965
 21
-30.11557745036294
 72
     2
 10
8.528645623949757
 20
-30.11557745036294
 40
0.3157169230761958
 50
180.0
 51
269.8110329574336
 73
     0
 72
     2
 10
8.534261759259778
 20
-31.81841239793192
 40
2.01856113193327
 50
269.8110329575827
 51
450.1889670424174
 73
     0
 72
     2
 10
8.528645623949757
 20
-33.52124734550091
 40
0.315716923076792
 50
90.18896704256652
 51
180.0
 73
     0
 72
     1
 10
8.212928700872965
 20
-33.52124734550091
 11
8.212928700872965
 21
-32.93939593880583
 72
     2
 10
8.528645623949757
 20
-32.93939593880583
 40
0.3157169230765328
 50
180.0
 51
244.6259913216482
 73
     0
 97
        8
330
1B4
330
190
330
16C
330
1B3
330
191
330
192
330
16B
330
18F
 92
       16
 93
        1
 72
     2
 10
7.978787911189073
 20
-31.83025433883751
 40
0.470978932778479
 50
0.0
 51
360.0
 73
     1
 97
        1
330
1BA
 75
     1
 76
     2
 52
45.0
 41
0.1
 77
     0
 78
     1
 53
45.0
 43
62.7811309658083
 44
-72.3161373035813
 45
-0.1414213562373095
 46
0.0
 79
     0
 98
        1
 10
0.0
 20
0.0
  0
HATCH
  5
1ED
330
76
100
AcDbEntity
  8
1
  6
Continuous
 62
     2
100
AcDbHatch
 10
0.0
 20
0.0
 30
0.0
210
0.0
220
0.0
230
1.0
  2
CUSTOM5
 70
     0
 71
     1
 91
        4
 92
        1
 93
        8
 72
     2
 10
5.359202260671452
 20
-29.511372110482
 40
0.4242446153838806
 50
90.0
 51
180.0
 73
     1
 72
     1
 10
4.934957645288677
 20
-29.511372110482
 11
4.934957645288677
 21
-35.07588287968224
 72
     2
 10
5.359202260671452
 20
-35.07588287968224
 40
0.4242446153827748
 50
180.0
 51
270.0
 73
     1
 72
     1
 10
5.359202260671452
 20
-35.50012749506544
 11
10.83251435138837
 21
-35.50012749506544
 72
     2
 10
10.83251435138837
 20
-35.07588287968224
 40
0.424244615383202
 50
270.0
 51
360.0
 73
     1
 72
     1
 10
11.25675896677225
 20
-35.07588287968224
 11
11.25675896677225
 21
-29.511372110482
 72
     2
 10
10.83251435138837
 20
-29.511372110482
 40
0.4242446153838788
 50
0.0
 51
90.0
 73
     1
 72
     1
 10
10.83251435138837
 20
-29.08712749509812
 11
5.359202260671452
 21
-29.08712749509812
 97
        8
330
1A6
330
133
330
1A5
330
134
330
19C
330
131
330
1A7
330
132
 92
       16
 93
       12
 72
     1
 10
5.953096937417968
 20
-34.78757193950855
 11
7.428930198427565
 21
-34.78757193950855
 72
     2
 10
7.428930198427565
 20
-34.47185501643185
 40
0.3157169230766996
 50
270.0
 51
360.0
 73
     1
 72
     1
 10
7.744647121504158
 20
-34.47185501643185
 11
7.744647121504158
 21
-32.94108408490024
 72
     2
 10
7.428930198427565
 20
-32.94108408490024
 40
0.315716923076593
 50
0.0
 51
64.805589351446
 73
     1
 72
     2
 10
7.951514646002551
 20
-31.83025433883751
 40
0.9118975235576438
 50
115.194410648509
 51
244.8055893514804
 73
     0
 72
     2
 10
7.428930198427565
 20
-30.71942459277534
 40
0.315716923076069
 50
295.1944106485669
 51
360.0
 73
     1
 72
     1
 10
7.744647121504158
 20
-30.71942459277534
 11
7.744647121504158
 21
-30.11539997371472
 72
     2
 10
7.428930198427565
 20
-30.11539997371472
 40
0.315716923076593
 50
0.0
 51
90.0
 73
     1
 72
     1
 10
7.428930198427565
 20
-29.79968305063864
 11
5.953096937417968
 21
-29.79968305063864
 72
     2
 10
5.953096937417968
 20
-30.11539997371472
 40
0.3157169230760779
 50
90.0
 51
180.0
 73
     1
 72
     1
 10
5.637380014342369
 20
-30.11539997371472
 11
5.637380014342369
 21
-34.47185501643185
 72
     2
 10
5.953096937417968
 20
-34.47185501643185
 40
0.3157169230755983
 50
180.0
 51
270.0
 73
     1
 97
       12
330
138
330
199
330
137
330
1AA
330
136
330
1A9
330
19A
330
19B
330
135
330
1A8
330
130
330
1AB
 92
       16
 93
        8
 72
     2
 10
8.00260292586185
 20
-31.83025433883751
 40
0.9118481501443909
 50
295.3740086781805
 51
424.6259913218089
 73
     1
 72
     2
 10
8.528645623949757
 20
-30.72111273886975
 40
0.315716923076792
 50
115.3740086783648
 51
180.0
 73
     0
 72
     1
 10
8.212928700872965
 20
-30.72111273886975
 11
8.212928700872965
 21
-30.11557745036294
 72
     2
 10
8.528645623949757
 20
-30.11557745036294
 40
0.3157169230761958
 50
180.0
 51
269.8110329574336
 73
     0
 72
     2
 10
8.534261759259778
 20
-31.81841239793192
 40
2.01856113193327
 50
269.8110329575827
 51
450.1889670424174
 73
     0
 72
     2
 10
8.528645623949757
 20
-33.52124734550091
 40
0.315716923076792
 50
90.18896704256652
 51
180.0
 73
     0
 72
     1
 10
8.212928700872965
 20
-33.52124734550091
 11
8.212928700872965
 21
-32.93939593880583
 72
     2
 10
8.528645623949757
 20
-32.93939593880583
 40
0.3157169230765328
 50
180.0
 51
244.6259913216482
 73
     0
 97
        8
330
1B4
330
190
330
16C
330
1B3
330
191
330
192
330
16B
330
18F
 92
       16
 93
        1
 72
     2
 10
7.978787911189073
 20
-31.83025433883751
 40
0.470978932778479
 50
0.0
 51
360.0
 73
     1
 97
        1
330
1BA
 75
     1
 76
     2
 52
45.0
 41
0.1
 77
     0
 78
     1
 53
45.0
 43
62.7811309658083
 44
-72.3161373035813
 45
-0.1414213562373095
 46
0.0
 79
     0
 98
        1
 10
0.0
 20
0.0
  0
HATCH
  5
1EE
330
76
100
AcDbEntity
  8
1
  6
Continuous
 62
     2
100
AcDbHatch
 10
0.0
 20
0.0
 30
0.0
210
0.0
220
0.0
230
1.0
  2
CUSTOM6
 70
     0
 71
     1
 91
        2
 92
        1
 93
       12
 72
     2
 10
20.03436626466086
 20
-30.61403225698581
 40
1.526904761905769
 50
90.0
 51
270.0
 73
     1
 72
     1
 10
20.03436626466086
 20
-32.14093701889112
 11
23.18468598844177
 21
-32.14093701889112
 72
     1
 10
23.18468598844177
 20
-32.14093701889112
 11
23.18468598844177
 21
-31.44292341344874
 72
     1
 10
23.18468598844177
 20
-31.44292341344874
 11
21.84875816201415
 21
-31.44292341344874
 72
     1
 10
21.84875816201415
 20
-31.44292341344874
 11
21.84875816201415
 21
-30.963039059707
 72
     1
 10
21.84875816201415
 20
-30.963039059707
 11
23.18468598844177
 21
-30.963039059707
 72
     1
 10
23.18468598844177
 20
-30.963039059707
 11
23.18468598844177
 21
-30.26502545426462
 72
     1
 10
23.18468598844177
 20
-30.26502545426462
 11
21.84875816201415
 21
-30.26502545426462
 72
     1
 10
21.84875816201415
 20
-30.26502545426462
 11
21.84875816201415
 21
-29.78514110052294
 72
     1
 10
21.84875816201415
 20
-29.78514110052294
 11
23.18468598844177
 21
-29.78514110052294
 72
     1
 10
23.18468598844177
 20
-29.78514110052294
 11
23.18468598844177
 21
-29.08712749508004
 72
     1
 10
23.18468598844177
 20
-29.08712749508004
 11
20.03436626466086
 21
-29.08712749508004
 97
       12
330
127
330
121
330
148
330
147
330
146
330
145
330
122
330
123
330
124
330
125
330
197
330
126
 92
       16
 93
        4
 72
     2
 10
20.45037831117227
 20
-30.61403225698581
 40
0.7717997786796268
 50
141.8795802028482
 51
218.1204197971549
 73
     1
 72
     2
 10
20.25063827482606
 20
-30.77076343510635
 40
0.5179085730134569
 50
218.1204197971329
 51
321.8795802028591
 73
     1
 72
     2
 10
20.05089823847987
 20
-30.61403225698581
 40
0.7717997786795506
 50
321.8795802028387
 51
398.1204197971581
 73
     1
 72
     2
 10
20.25063827482606
 20
-30.45730107886533
 40
0.5179085730133713
 50
38.12041979714183
 51
141.8795802028662
 73
     1
 97
        4
330
1A4
330
1A3
330
19E
330
19D
 75
     1
 76
     2
 52
45.0
 41
0.1
 77
     0
 78
     1
 53
45.0
 43
62.7811309658083
 44
-72.3161373035813
 45
-0.1414213562373095
 46
0.0
 79
     0
 98
        1
 10
0.0
 20
0.0
  0
HATCH
  5
1EF
330
76
100
AcDbEntity
  8
1
  6
Continuous
 62
     2
100
AcDbHatch
 10
0.0
 20
0.0
 30
0.0
210
0.0
220
0.0
230
1.0
  2
CUSTOM7
 70
     0
 71
     1
 91
        2
 92
        1
 93
       12
 72
     2
 10
20.03436626466086
 20
-30.61403225698581
 40
1.526904761905769
 50
90.0
 51
270.0
 73
     1
 72
     1
 10
20.03436626466086
 20
-32.14093701889112
 11
23.18468598844177
 21
-32.14093701889112
 72
     1
 10
23.18468598844177
 20
-32.14093701889112
 11
23.18468598844177
 21
-31.44292341344874
 72
     1
 10
23.18468598844177
 20
-31.44292341344874
 11
21.84875816201415
 21
-31.44292341344874
 72
     1
 10
21.84875816201415
 20
-31.44292341344874
 11
21.84875816201415
 21
-30.963039059707
 72
     1
 10
21.84875816201415
 20
-30.963039059707
 11
23.18468598844177
 21
-30.963039059707
 72
     1
 10
23.18468598844177
 20
-30.963039059707
 11
23.18468598844177
 21
-30.26502545426462
 72
     1
 10
23.18468598844177
 20
-30.26502545426462
 11
21.84875816201415
 21
-30.26502545426462
 72
     1
 10
21.84875816201415
 20
-30.26502545426462
 11
21.84875816201415
 21
-29.78514110052294
 72
     1
 10
21.84875816201415
 20
-29.78514110052294
 11
23.18468598844177
 21
-29.78514110052294
 72
     1
 10
23.18468598844177
 20
-29.78514110052294
 11
23.18468598844177
 21
-29.08712749508004
 72
     1
 10
23.18468598844177
 20
-29.08712749508004
 11
20.03436626466086
 21
-29.08712749508004
 97
       12
330
127
330
121
330
148
330
147
330
146
330
145
330
122
330
123
330
124
330
125
330
197
330
126
 92
       16
 93
        4
 72
     2
 10
20.45037831117227
 20
-30.61403225698581
 40
0.7717997786796268
 50
141.8795802028482
 51
218.1204197971549
 73
     1
 72
     2
 10
20.25063827482606
 20
-30.77076343510635
 40
0.5179085730134569
 50
218.1204197971329
 51
321.8795802028591
 73
     1
 72
     2
 10
20.05089823847987
 20
-30.61403225698581
 40
0.7717997786795506
 50
321.8795802028387
 51
398.1204197971581
 73
     1
 72
     2
 10
20.25063827482606
 20
-30.45730107886533
 40
0.5179085730133713
 50
38.12041979714183
 51
141.8795802028662
 73
     1
 97
        4
330
1A4
330
1A3
330
19E
330
19D
 75
     1
 76
     2
 52
45.0
 41
0.1
 77
     0
 78
     1
 53
45.0
 43
62.7811309658083
 44
-72.3161373035813
 45
-0.1414213562373095
 46
0.0
 79
     0
 98
        1
 10
0.0
 20
0.0
  0
HATCH
  5
1F0
330
76
100
AcDbEntity
  8
1
  6
Continuous
 62
     2
100
AcDbHatch
 10
0.0
 20
0.0
 30
0.0
210
0.0
220
0.0
230
1.0
  2
CUSTOM8
 70
     0
 71
     1
 91
        2
 92
        1
 93
        4
 72
     2
 10
16.00875090219915
 20
-33.97322273316024
 40
1.458034083651612
 50
117.5481481756595
 51
242.4518518243373
 73
     1
 72
     2
 10
16.28969079403257
 20
-33.43464772285682
 40
2.065479772208636
 50
242.4518518243386
 51
297.5481481756859
 73
     1
 72
     2
 10
16.57063068586575
 20
-33.97322273316024
 40
1.45803408365203
 50
297.5481481757055
 51
422.4518518242976
 73
     1
 72
     2
 10
16.28969079403257
 20
-34.51179774346304
 40
2.065479772208699
 50
62.45185182430836
 51
117.5481481756672
 73
     1
 97
        4
330
1A2
330
19F
330
1A1
330
1A0
 92
       16
 93
        4
 72
     2
 10
16.28969079403257
 20
-33.8164915550397
 40
0.517908573013269
 50
38.1204197971637
 51
141.8795802028581
 73
     1
 72
     2
 10
16.48943083037855
 20
-33.97322273316024
 40
0.7717997786795439
 50
141.8795802028282
 51
218.1204197971622
 73
     1
 72
     2
 10
16.28969079403257
 20
-34.1299539112801
 40
0.5179085730138452
 50
218.1204197971876
 51
321.8795802027906
 73
     1
 72
     2
 10
16.08995075768615
 20
-33.97322273316024
 40
0.7717997786795379
 50
321.8795802028433
 51
398.1204197971662
 73
     1
 97
        4
330
185
330
186
330
187
330
184
 75
     1
 76
     2
 52
45.0
 41
0.1
 77
     0
 78
     1
 53
45.0
 43
62.7811309658083
 44
-72.3161373035813
 45
-0.1414213562373095
 46
0.0
 79
     0
 98
        1
 10
0.0
 20
0.0
  0
HATCH
  5
1F1
330
76
100
AcDbEntity
  8
1
  6
Continuous
 62
     2
100
AcDbHatch
 10
0.0
 20
0.0
 30
0.0
210
0.0
220
0.0
230
1.0
  2
CUSTOM9
 70
     0
 71
     1
 91
        2
 92
        1
 93
        4
 72
     2
 10
16.00875090219915
 20
-33.97322273316024
 40
1.458034083651612
 50
117.5481481756595
 51
242.4518518243373
 73
     1
 72
     2
 10
16.28969079403257
 20
-33.43464772285682
 40
2.065479772208636
 50
242.4518518243386
 51
297.5481481756859
 73
     1
 72
     2
 10
16.57063068586575
 20
-33.97322273316024
 40
1.45803408365203
 50
297.5481481757055
 51
422.4518518242976
 73
     1
 72
     2
 10
16.28969079403257
 20
-34.51179774346304
 40
2.065479772208699
 50
62.45185182430836
 51
117.5481481756672
 73
     1
 97
        4
330
1A2
330
19F
330
1A1
330
1A0
 92
       16
 93
        4
 72
     2
 10
16.28969079403257
 20
-33.8164915550397
 40
0.517908573013269
 50
38.1204197971637
 51
141.8795802028581
 73
     1
 72
     2
 10
16.48943083037855
 20
-33.97322273316024
 40
0.7717997786795439
 50
141.8795802028282
 51
218.1204197971622
 73
     1
 72
     2
 10
16.28969079403257
 20
-34.1299539112801
 40
0.5179085730138452
 50
218.1204197971876
 51
321.8795802027906
 73
     1
 72
     2
 10
16.08995075768615
 20
-33.97322273316024
 40
0.7717997786795379
 50
321.8795802028433
 51
398.1204197971662
 73
     1
 97
        4
330
185
330
186
330
187
330
184
 75
     1
 76
     2
 52
45.0
 41
0.1
 77
     0
 78
     1
 53
45.0
 43
62.7811309658083
 44
-72.3161373035813
 45
-0.1414213562373095
 46
0.0
 79
     0
 98
        1
 10
0.0
 20
0.0
  0
HATCH
  5
1F2
330
76
100
AcDbEntity
  8
1
  6
Continuous
 62
     2
100
AcDbHatch
 10
0.0
 20
0.0
 30
0.0
210
0.0
220
0.0
230
1.0
  2
CUSTOM10
 70
     0
 71
     1
 91
        2
 92
        1
 93
        6
 72
     1
 10
11.73387604763906
 20
-29.08712749508004
 11
11.73387604763906
 21
-32.14093701889112
 72
     1
 10
11.73387604763906
 20
-32.14093701889112
 11
12.97438045789306
 21
-32.14093701889112
 72
     1
 10
12.97438045789306
 20
-32.14093701889112
 11
12.97438045789306
 21
-31.1978587777474
 72
     1
 10
12.97438045789306
 20
-31.1978587777474
 11
13.73314804567346
 21
-31.1978587777474
 72
     2
 10
13.73314804567346
 20
-30.14249313641375
 40
1.055365641333648
 50
270.0
 51
450.0
 73
     1
 72
     1
 10
13.73314804567346
 20
-29.08712749508004
 11
11.73387604763906
 21
-29.08712749508004
 97
        6
330
1AC
330
139
330
12F
330
12E
330
13B
330
13A
 92
       16
 93
        4
 72
     1
 10
13.29167551943507
 20
-29.75023334052003
 11
12.97438045789306
 21
-29.75023334052003
 72
     1
 10
12.97438045789306
 20
-29.75023334052003
 11
12.97438045789306
 21
-30.45596098986232
 72
     1
 10
12.97438045789306
 20
-30.45596098986232
 11
13.29167551943507
 21
-30.45596098986232
 72
     2
 10
13.29167551943507
 20
-30.10309716519123
 40
0.3528638246710898
 50
270.0
 51
450.0
 73
     1
 97
        4
330
13C
330
12D
330
13D
330
198
 75
     1
 76
     2
 52
45.0
 41
0.1
 77
     0
 78
     1
 53
45.0
 43
62.7811309658083
 44
-72.3161373035813
 45
-0.1414213562373095
 46
0.0
 79
     0
 98
        1
 10
0.0
 20
0.0
  0
HATCH
  5
1F3
330
76
100
AcDbEntity
  8
1
  6
Continuous
 62
     2
100
AcDbHatch
 10
0.0
 20
0.0
 30
0.0
210
0.0
220
0.0
230
1.0
  2
CUSTOM11
 70
     0
 71
     1
 91
        2
 92
        1
 93
        6
 72
     1
 10
11.73387604763906
 20
-29.08712749508004
 11
11.73387604763906
 21
-32.14093701889112
 72
     1
 10
11.73387604763906
 20
-32.14093701889112
 11
12.97438045789306
 21
-32.14093701889112
 72
     1
 10
12.97438045789306
 20
-32.14093701889112
 11
12.97438045789306
 21
-31.1978587777474
 72
     1
 10
12.97438045789306
 20
-31.1978587777474
 11
13.73314804567346
 21
-31.1978587777474
 72
     2
 10
13.73314804567346
 20
-30.14249313641375
 40
1.055365641333648
 50
270.0
 51
450.0
 73
     1
 72
     1
 10
13.73314804567346
 20
-29.08712749508004
 11
11.73387604763906
 21
-29.08712749508004
 97
        6
330
1AC
330
139
330
12F
330
12E
330
13B
330
13A
 92
       16
 93
        4
 72
     1
 10
13.29167551943507
 20
-29.75023334052003
 11
12.97438045789306
 21
-29.75023334052003
 72
     1
 10
12.97438045789306
 20
-29.75023334052003
 11
12.97438045789306
 21
-30.45596098986232
 72
     1
 10
12.97438045789306
 20
-30.45596098986232
 11
13.29167551943507
 21
-30.45596098986232
 72
     2
 10
13.29167551943507
 20
-30.10309716519123
 40
0.3528638246710898
 50
270.0
 51
450.0
 73
     1
 97
        4
330
13C
330
12D
330
13D
330
198
 75
     1
 76
     2
 52
45.0
 41
0.1
 77
     0
 78
     1
 53
45.0
 43
62.7811309658083
 44
-72.3161373035813
 45
-0.1414213562373095
 46
0.0
 79
     0
 98
        1
 10
0.0
 20
0.0
  0
HATCH
  5
1F4
330
76
100
AcDbEntity
  8
1
  6
Continuous
 62
     2
100
AcDbHatch
 10
0.0
 20
0.0
 30
0.0
210
0.0
220
0.0
230
1.0
  2
CUSTOM12
 70
     0
 71
     1
 91
        1
 92
        1
 93
       12
 72
     1
 10
31.34815924207226
 20
-29.08712749508004
 11
32.75088345981948
 21
-29.08712749508004
 72
     1
 10
32.75088345981948
 20
-29.08712749508004
 11
31.44835382905288
 21
-30.56007802511624
 72
     1
 10
31.44835382905288
 20
-30.56007802511624
 11
32.84630687599315
 21
-32.14093701889112
 72
     1
 10
32.84630687599315
 20
-32.14093701889112
 11
31.44358265824485
 21
-32.14093701889112
 72
     1
 10
31.44358265824485
 20
-32.14093701889112
 11
30.74699172017947
 21
-31.35320523359741
 72
     1
 10
30.74699172017947
 20
-31.35320523359741
 11
30.05040078211366
 21
-32.14093701889112
 72
     1
 10
30.05040078211366
 20
-32.14093701889112
 11
28.64767656436555
 21
-32.14093701889112
 72
     1
 10
28.64767656436555
 20
-32.14093701889112
 11
30.04562961130586
 21
-30.56007802511624
 72
     1
 10
30.04562961130586
 20
-30.56007802511624
 11
28.74309998053838
 21
-29.08712749508004
 72
     1
 10
28.74309998053838
 20
-29.08712749508004
 11
30.14582419828756
 21
-29.08712749508004
 72
     1
 10
30.14582419828756
 20
-29.08712749508004
 11
30.74699172017947
 21
-29.76695081663553
 72
     1
 10
30.74699172017947
 20
-29.76695081663553
 11
31.34815924207226
 21
-29.08712749508004
 97
       12
330
108
330
161
330
160
330
15F
330
15E
330
109
330
10A
330
106
330
107
330
164
330
163
330
162
 75
     1
 76
     2
 52
45.0
 41
0.1
 77
     0
 78
     1
 53
45.0
 43
62.7811309658083
 44
-72.3161373035813
 45
-0.1414213562373095
 46
0.0
 79
     0
 98
        1
 10
0.0
 20
0.0
  0
HATCH
  5
1F5
330
76
100
AcDbEntity
  8
1
  6
Continuous
 62
     2
100
AcDbHatch
 10
0.0
 20
0.0
 30
0.0
210
0.0
220
0.0
230
1.0
  2
CUSTOM13
 70
     0
 71
     1
 91
        1
 92
        1
 93
       12
 72
     1
 10
31.34815924207226
 20
-29.08712749508004
 11
32.75088345981948
 21
-29.08712749508004
 72
     1
 10
32.75088345981948
 20
-29.08712749508004
 11
31.44835382905288
 21
-30.56007802511624
 72
     1
 10
31.44835382905288
 20
-30.56007802511624
 11
32.84630687599315
 21
-32.14093701889112
 72
     1
 10
32.84630687599315
 20
-32.14093701889112
 11
31.44358265824485
 21
-32.14093701889112
 72
     1
 10
31.44358265824485
 20
-32.14093701889112
 11
30.74699172017947
 21
-31.35320523359741
 72
     1
 10
30.74699172017947
 20
-31.35320523359741
 11
30.05040078211366
 21
-32.14093701889112
 72
     1
 10
30.05040078211366
 20
-32.14093701889112
 11
28.64767656436555
 21
-32.14093701889112
 72
     1
 10
28.64767656436555
 20
-32.14093701889112
 11
30.04562961130586
 21
-30.56007802511624
 72
     1
 10
30.04562961130586
 20
-30.56007802511624
 11
28.74309998053838
 21
-29.08712749508004
 72
     1
 10
28.74309998053838
 20
-29.08712749508004
 11
30.14582419828756
 21
-29.08712749508004
 72
     1
 10
30.14582419828756
 20
-29.08712749508004
 11
30.74699172017947
 21
-29.76695081663553
 72
     1
 10
30.74699172017947
 20
-29.76695081663553
 11
31.34815924207226
 21
-29.08712749508004
 97
       12
330
108
330
161
330
160
330
15F
330
15E
330
109
330
10A
330
106
330
107
330
164
330
163
330
162
 75
     1
 76
     2
 52
45.0
 41
0.1
 77
     0
 78
     1
 53
45.0
 43
62.7811309658083
 44
-72.3161373035813
 45
-0.1414213562373095
 46
0.0
 79
     0
 98
        1
 10
0.0
 20
0.0
  0
HATCH
  5
1F6
330
76
100
AcDbEntity
  8
1
  6
Continuous
 62
     2
100
AcDbHatch
 10
0.0
 20
0.0
 30
0.0
210
0.0
220
0.0
230
1.0
  2
CUSTOM14
 70
     0
 71
     1
 91
        1
 92
        1
 93
        4
 72
     1
 10
28.52839729414868
 20
-29.08712749508004
 11
28.52839729414868
 21
-32.14093701889112
 72
     1
 10
28.52839729414868
 20
-32.14093701889112
 11
27.28789288389575
 21
-32.14093701889112
 72
     1
 10
27.28789288389575
 20
-32.14093701889112
 11
27.28789288389575
 21
-29.08712749508004
 72
     1
 10
27.28789288389575
 20
-29.08712749508004
 11
28.52839729414868
 21
-29.08712749508004
 97
        4
330
15C
330
10B
330
15B
330
15D
 75
     1
 76
     2
 52
45.0
 41
0.1
 77
     0
 78
     1
 53
45.0
 43
62.7811309658083
 44
-72.3161373035813
 45
-0.1414213562373095
 46
0.0
 79
     0
 98
        1
 10
0.0
 20
0.0
  0
HATCH
  5
1F7
330
76
100
AcDbEntity
  8
1
  6
Continuous
 62
     2
100
AcDbHatch
 10
0.0
 20
0.0
 30
0.0
210
0.0
220
0.0
230
1.0
  2
CUSTOM15
 70
     0
 71
     1
 91
        1
 92
        1
 93
        4
 72
     1
 10
28.52839729414868
 20
-29.08712749508004
 11
28.52839729414868
 21
-32.14093701889112
 72
     1
 10
28.52839729414868
 20
-32.14093701889112
 11
27.28789288389575
 21
-32.14093701889112
 72
     1
 10
27.28789288389575
 20
-32.14093701889112
 11
27.28789288389575
 21
-29.08712749508004
 72
     1
 10
27.28789288389575
 20
-29.08712749508004
 11
28.52839729414868
 21
-29.08712749508004
 97
        4
330
15C
330
10B
330
15B
330
15D
 75
     1
 76
     2
 52
45.0
 41
0.1
 77
     0
 78
     1
 53
45.0
 43
62.7811309658083
 44
-72.3161373035813
 45
-0.1414213562373095
 46
0.0
 79
     0
 98
        1
 10
0.0
 20
0.0
  0
HATCH
  5
1F8
330
76
100
AcDbEntity
  8
1
  6
Continuous
 62
     2
100
AcDbHatch
 10
0.0
 20
0.0
 30
0.0
210
0.0
220
0.0
230
1.0
  2
CUSTOM16
 70
     0
 71
     1
 91
        2
 92
        1
 93
        8
 72
     1
 10
28.13795329061665
 20
-35.50012749506544
 11
26.89744888036276
 21
-35.50012749506544
 72
     1
 10
26.89744888036276
 20
-35.50012749506544
 11
26.68596882688698
 21
-34.95916695084765
 72
     1
 10
26.68596882688698
 20
-34.95916695084765
 11
25.55352725021305
 21
-34.95916695084765
 72
     1
 10
25.55352725021305
 20
-34.95916695084765
 11
25.34204719673727
 21
-35.50012749506544
 72
     1
 10
25.34204719673727
 20
-35.50012749506544
 11
24.10154278648437
 21
-35.50012749506544
 72
     1
 10
24.10154278648437
 20
-35.50012749506544
 11
25.49949583342357
 21
-32.4463179712543
 72
     1
 10
25.49949583342357
 20
-32.4463179712543
 11
26.74000024367638
 21
-32.4463179712543
 72
     1
 10
26.74000024367638
 20
-32.4463179712543
 11
28.13795329061665
 21
-35.50012749506544
 97
        8
330
157
330
111
330
156
330
159
330
10E
330
158
330
10F
330
110
 92
       16
 93
        3
 72
     1
 10
25.81958280135817
 20
-34.27860368554104
 11
26.41991327574067
 21
-34.27860368554104
 72
     1
 10
26.41991327574067
 20
-34.27860368554104
 11
26.11974803855046
 21
-33.51078871955434
 72
     1
 10
26.11974803855046
 20
-33.51078871955434
 11
25.81958280135817
 21
-34.27860368554104
 97
        3
330
10D
330
10C
330
15A
 75
     1
 76
     2
 52
45.0
 41
0.1
 77
     0
 78
     1
 53
45.0
 43
62.7811309658083
 44
-72.3161373035813
 45
-0.1414213562373095
 46
0.0
 79
     0
 98
        1
 10
0.0
 20
0.0
  0
HATCH
  5
1F9
330
76
100
AcDbEntity
  8
1
  6
Continuous
 62
     2
100
AcDbHatch
 10
0.0
 20
0.0
 30
0.0
210
0.0
220
0.0
230
1.0
  2
CUSTOM17
 70
     0
 71
     1
 91
        2
 92
        1
 93
        8
 72
     1
 10
28.13795329061665
 20
-35.50012749506544
 11
26.89744888036276
 21
-35.50012749506544
 72
     1
 10
26.89744888036276
 20
-35.50012749506544
 11
26.68596882688698
 21
-34.95916695084765
 72
     1
 10
26.68596882688698
 20
-34.95916695084765
 11
25.55352725021305
 21
-34.95916695084765
 72
     1
 10
25.55352725021305
 20
-34.95916695084765
 11
25.34204719673727
 21
-35.50012749506544
 72
     1
 10
25.34204719673727
 20
-35.50012749506544
 11
24.10154278648437
 21
-35.50012749506544
 72
     1
 10
24.10154278648437
 20
-35.50012749506544
 11
25.49949583342357
 21
-32.4463179712543
 72
     1
 10
25.49949583342357
 20
-32.4463179712543
 11
26.74000024367638
 21
-32.4463179712543
 72
     1
 10
26.74000024367638
 20
-32.4463179712543
 11
28.13795329061665
 21
-35.50012749506544
 97
        8
330
157
330
111
330
156
330
159
330
10E
330
158
330
10F
330
110
 92
       16
 93
        3
 72
     1
 10
25.81958280135817
 20
-34.27860368554104
 11
26.41991327574067
 21
-34.27860368554104
 72
     1
 10
26.41991327574067
 20
-34.27860368554104
 11
26.11974803855046
 21
-33.51078871955434
 72
     1
 10
26.11974803855046
 20
-33.51078871955434
 11
25.81958280135817
 21
-34.27860368554104
 97
        3
330
10D
330
10C
330
15A
 75
     1
 76
     2
 52
45.0
 41
0.1
 77
     0
 78
     1
 53
45.0
 43
62.7811309658083
 44
-72.3161373035813
 45
-0.1414213562373095
 46
0.0
 79
     0
 98
        1
 10
0.0
 20
0.0
  0
HATCH
  5
1FA
330
76
100
AcDbEntity
  8
1
  6
Continuous
 62
     2
100
AcDbHatch
 10
0.0
 20
0.0
 30
0.0
210
0.0
220
0.0
230
1.0
  2
CUSTOM18
 70
     0
 71
     1
 91
        1
 92
        1
 93
        8
 72
     1
 10
21.94403064730207
 20
-32.4463179712543
 11
21.94403064730207
 21
-33.23158327737804
 72
     1
 10
21.94403064730207
 20
-33.23158327737804
 11
22.75512968477676
 21
-33.23158327737804
 72
     1
 10
22.75512968477676
 20
-33.23158327737804
 11
22.75512968477676
 21
-35.50012749506544
 72
     1
 10
22.75512968477676
 20
-35.50012749506544
 11
23.94792238694316
 21
-35.50012749506544
 72
     1
 10
23.94792238694316
 20
-35.50012749506544
 11
23.94792238694316
 21
-33.23158327737804
 72
     1
 10
23.94792238694316
 20
-33.23158327737804
 11
24.75902142441578
 21
-33.23158327737804
 72
     1
 10
24.75902142441578
 20
-33.23158327737804
 11
24.75902142441578
 21
-32.4463179712543
 72
     1
 10
24.75902142441578
 20
-32.4463179712543
 11
21.94403064730207
 21
-32.4463179712543
 97
        8
330
153
330
152
330
151
330
112
330
113
330
155
330
114
330
154
 75
     1
 76
     2
 52
45.0
 41
0.1
 77
     0
 78
     1
 53
45.0
 43
62.7811309658083
 44
-72.3161373035813
 45
-0.1414213562373095
 46
0.0
 79
     0
 98
        1
 10
0.0
 20
0.0
  0
HATCH
  5
1FB
330
76
100
AcDbEntity
  8
1
  6
Continuous
 62
     2
100
AcDbHatch
 10
0.0
 20
0.0
 30
0.0
210
0.0
220
0.0
230
1.0
  2
CUSTOM19
 70
     0
 71
     1
 91
        1
 92
        1
 93
        8
 72
     1
 10
21.94403064730207
 20
-32.4463179712543
 11
21.94403064730207
 21
-33.23158327737804
 72
     1
 10
21.94403064730207
 20
-33.23158327737804
 11
22.75512968477676
 21
-33.23158327737804
 72
     1
 10
22.75512968477676
 20
-33.23158327737804
 11
22.75512968477676
 21
-35.50012749506544
 72
     1
 10
22.75512968477676
 20
-35.50012749506544
 11
23.94792238694316
 21
-35.50012749506544
 72
     1
 10
23.94792238694316
 20
-35.50012749506544
 11
23.94792238694316
 21
-33.23158327737804
 72
     1
 10
23.94792238694316
 20
-33.23158327737804
 11
24.75902142441578
 21
-33.23158327737804
 72
     1
 10
24.75902142441578
 20
-33.23158327737804
 11
24.75902142441578
 21
-32.4463179712543
 72
     1
 10
24.75902142441578
 20
-32.4463179712543
 11
21.94403064730207
 21
-32.4463179712543
 97
        8
330
153
330
152
330
151
330
112
330
113
330
155
330
114
330
154
 75
     1
 76
     2
 52
45.0
 41
0.1
 77
     0
 78
     1
 53
45.0
 43
62.7811309658083
 44
-72.3161373035813
 45
-0.1414213562373095
 46
0.0
 79
     0
 98
        1
 10
0.0
 20
0.0
  0
HATCH
  5
1FC
330
76
100
AcDbEntity
  8
1
  6
Continuous
 62
     2
100
AcDbHatch
 10
0.0
 20
0.0
 30
0.0
210
0.0
220
0.0
230
1.0
  2
CUSTOM20
 70
     0
 71
     1
 91
        1
 92
        1
 93
       10
 72
     1
 10
24.61603723104116
 20
-29.08712749508004
 11
23.42324452887476
 21
-29.08712749508004
 72
     1
 10
23.42324452887476
 20
-29.08712749508004
 11
23.42324452887476
 21
-32.14093701889112
 72
     1
 10
23.42324452887476
 20
-32.14093701889112
 11
24.61603723104116
 21
-32.14093701889112
 72
     1
 10
24.61603723104116
 20
-32.14093701889112
 11
24.61603723104116
 21
-30.8321615086864
 72
     1
 10
24.61603723104116
 20
-30.8321615086864
 11
25.85654164129525
 21
-32.14093701889112
 72
     1
 10
25.85654164129525
 20
-32.14093701889112
 11
27.04933434346185
 21
-32.14093701889112
 72
     1
 10
27.04933434346185
 20
-32.14093701889112
 11
27.04933434346185
 21
-29.08712749508004
 72
     1
 10
27.04933434346185
 20
-29.08712749508004
 11
25.85654164129525
 21
-29.08712749508004
 72
     1
 10
25.85654164129525
 20
-29.08712749508004
 11
25.85654164129525
 21
-30.39590300528511
 72
     1
 10
25.85654164129525
 20
-30.39590300528511
 11
24.61603723104116
 21
-29.08712749508004
 97
       10
330
14D
330
117
330
118
330
119
330
11A
330
150
330
115
330
14F
330
14E
330
116
 75
     1
 76
     2
 52
45.0
 41
0.1
 77
     0
 78
     1
 53
45.0
 43
62.7811309658083
 44
-72.3161373035813
 45
-0.1414213562373095
 46
0.0
 79
     0
 98
        1
 10
0.0
 20
0.0
  0
HATCH
  5
1FD
330
76
100
AcDbEntity
  8
1
  6
Continuous
 62
     2
100
AcDbHatch
 10
0.0
 20
0.0
 30
0.0
210
0.0
220
0.0
230
1.0
  2
CUSTOM21
 70
     0
 71
     1
 91
        1
 92
        1
 93
       10
 72
     1
 10
24.61603723104116
 20
-29.08712749508004
 11
23.42324452887476
 21
-29.08712749508004
 72
     1
 10
23.42324452887476
 20
-29.08712749508004
 11
23.42324452887476
 21
-32.14093701889112
 72
     1
 10
23.42324452887476
 20
-32.14093701889112
 11
24.61603723104116
 21
-32.14093701889112
 72
     1
 10
24.61603723104116
 20
-32.14093701889112
 11
24.61603723104116
 21
-30.8321615086864
 72
     1
 10
24.61603723104116
 20
-30.8321615086864
 11
25.85654164129525
 21
-32.14093701889112
 72
     1
 10
25.85654164129525
 20
-32.14093701889112
 11
27.04933434346185
 21
-32.14093701889112
 72
     1
 10
27.04933434346185
 20
-32.14093701889112
 11
27.04933434346185
 21
-29.08712749508004
 72
     1
 10
27.04933434346185
 20
-29.08712749508004
 11
25.85654164129525
 21
-29.08712749508004
 72
     1
 10
25.85654164129525
 20
-29.08712749508004
 11
25.85654164129525
 21
-30.39590300528511
 72
     1
 10
25.85654164129525
 20
-30.39590300528511
 11
24.61603723104116
 21
-29.08712749508004
 97
       10
330
14D
330
117
330
118
330
119
330
11A
330
150
330
115
330
14F
330
14E
330
116
 75
     1
 76
     2
 52
45.0
 41
0.1
 77
     0
 78
     1
 53
45.0
 43
62.7811309658083
 44
-72.3161373035813
 45
-0.1414213562373095
 46
0.0
 79
     0
 98
        1
 10
0.0
 20
0.0
  0
HATCH
  5
1FE
330
76
100
AcDbEntity
  8
1
  6
Continuous
 62
     2
100
AcDbHatch
 10
0.0
 20
0.0
 30
0.0
210
0.0
220
0.0
230
1.0
  2
CUSTOM22
 70
     0
 71
     1
 91
        1
 92
        1
 93
       10
 72
     1
 10
19.36759841062258
 20
-32.4463179712543
 11
18.17480570845507
 21
-32.4463179712543
 72
     1
 10
18.17480570845507
 20
-32.4463179712543
 11
18.17480570845507
 21
-35.50012749506544
 72
     1
 10
18.17480570845507
 20
-35.50012749506544
 11
19.36759841062258
 21
-35.50012749506544
 72
     1
 10
19.36759841062258
 20
-35.50012749506544
 11
19.36759841062258
 21
-34.19135198486094
 72
     1
 10
19.36759841062258
 20
-34.19135198486094
 11
20.60810282087556
 21
-35.50012749506544
 72
     1
 10
20.60810282087556
 20
-35.50012749506544
 11
21.80089552304196
 21
-35.50012749506544
 72
     1
 10
21.80089552304196
 20
-35.50012749506544
 11
21.80089552304196
 21
-32.4463179712543
 72
     1
 10
21.80089552304196
 20
-32.4463179712543
 11
20.60810282087556
 21
-32.4463179712543
 72
     1
 10
20.60810282087556
 20
-32.4463179712543
 11
20.60810282087556
 21
-33.75509348145954
 72
     1
 10
20.60810282087556
 20
-33.75509348145954
 11
19.36759841062258
 21
-32.4463179712543
 97
       10
330
11C
330
11D
330
11E
330
14A
330
11F
330
120
330
149
330
14C
330
14B
330
11B
 75
     1
 76
     2
 52
45.0
 41
0.1
 77
     0
 78
     1
 53
45.0
 43
62.7811309658083
 44
-72.3161373035813
 45
-0.1414213562373095
 46
0.0
 79
     0
 98
        1
 10
0.0
 20
0.0
  0
HATCH
  5
1FF
330
76
100
AcDbEntity
  8
1
  6
Continuous
 62
     2
100
AcDbHatch
 10
0.0
 20
0.0
 30
0.0
210
0.0
220
0.0
230
1.0
  2
CUSTOM23
 70
     0
 71
     1
 91
        1
 92
        1
 93
       10
 72
     1
 10
19.36759841062258
 20
-32.4463179712543
 11
18.17480570845507
 21
-32.4463179712543
 72
     1
 10
18.17480570845507
 20
-32.4463179712543
 11
18.17480570845507
 21
-35.50012749506544
 72
     1
 10
18.17480570845507
 20
-35.50012749506544
 11
19.36759841062258
 21
-35.50012749506544
 72
     1
 10
19.36759841062258
 20
-35.50012749506544
 11
19.36759841062258
 21
-34.19135198486094
 72
     1
 10
19.36759841062258
 20
-34.19135198486094
 11
20.60810282087556
 21
-35.50012749506544
 72
     1
 10
20.60810282087556
 20
-35.50012749506544
 11
21.80089552304196
 21
-35.50012749506544
 72
     1
 10
21.80089552304196
 20
-35.50012749506544
 11
21.80089552304196
 21
-32.4463179712543
 72
     1
 10
21.80089552304196
 20
-32.4463179712543
 11
20.60810282087556
 21
-32.4463179712543
 72
     1
 10
20.60810282087556
 20
-32.4463179712543
 11
20.60810282087556
 21
-33.75509348145954
 72
     1
 10
20.60810282087556
 20
-33.75509348145954
 11
19.36759841062258
 21
-32.4463179712543
 97
       10
330
11C
330
11D
330
11E
330
14A
330
11F
330
120
330
149
330
14C
330
14B
330
11B
 75
     1
 76
     2
 52
45.0
 41
0.1
 77
     0
 78
     1
 53
45.0
 43
62.7811309658083
 44
-72.3161373035813
 45
-0.1414213562373095
 46
0.0
 79
     0
 98
        1
 10
0.0
 20
0.0
  0
HATCH
  5
200
330
76
100
AcDbEntity
  8
1
  6
Continuous
 62
     2
100
AcDbHatch
 10
0.0
 20
0.0
 30
0.0
210
0.0
220
0.0
230
1.0
  2
CUSTOM24
 70
     0
 71
     1
 91
        1
 92
        1
 93
       12
 72
     1
 10
18.36580347168726
 20
-29.08712749508004
 11
18.36580347168726
 21
-32.14093701889112
 72
     1
 10
18.36580347168726
 20
-32.14093701889112
 11
17.17301076952077
 21
-32.14093701889112
 72
     1
 10
17.17301076952077
 20
-32.14093701889112
 11
17.17301076952077
 21
-31.00666491004745
 72
     1
 10
17.17301076952077
 20
-31.00666491004745
 11
16.12335319161338
 21
-31.00666491004745
 72
     1
 10
16.12335319161338
 20
-31.00666491004745
 11
16.12335319161338
 21
-32.14093701889112
 72
     1
 10
16.12335319161338
 20
-32.14093701889112
 11
14.93056048944678
 21
-32.14093701889112
 72
     1
 10
14.93056048944678
 20
-32.14093701889112
 11
14.93056048944678
 21
-29.08712749508004
 72
     1
 10
14.93056048944678
 20
-29.08712749508004
 11
16.12335319161338
 21
-29.08712749508004
 72
     1
 10
16.12335319161338
 20
-29.08712749508004
 11
16.12335319161338
 21
-30.15596082841461
 72
     1
 10
16.12335319161338
 20
-30.15596082841461
 11
17.17301076952077
 21
-30.15596082841461
 72
     1
 10
17.17301076952077
 20
-30.15596082841461
 11
17.17301076952077
 21
-29.08712749508004
 72
     1
 10
17.17301076952077
 20
-29.08712749508004
 11
18.36580347168726
 21
-29.08712749508004
 97
       12
330
144
330
143
330
142
330
12A
330
12B
330
141
330
12C
330
140
330
13F
330
13E
330
128
330
129
 75
     1
 76
     2
 52
45.0
 41
0.1
 77
     0
 78
     1
 53
45.0
 43
62.7811309658083
 44
-72.3161373035813
 45
-0.1414213562373095
 46
0.0
 79
     0
 98
        1
 10
0.0
 20
0.0
  0
HATCH
  5
201
330
76
100
AcDbEntity
  8
1
  6
Continuous
 62
     2
100
AcDbHatch
 10
0.0
 20
0.0
 30
0.0
210
0.0
220
0.0
230
1.0
  2
CUSTOM25
 70
     0
 71
     1
 91
        1
 92
        1
 93
       12
 72
     1
 10
18.36580347168726
 20
-29.08712749508004
 11
18.36580347168726
 21
-32.14093701889112
 72
     1
 10
18.36580347168726
 20
-32.14093701889112
 11
17.17301076952077
 21
-32.14093701889112
 72
     1
 10
17.17301076952077
 20
-32.14093701889112
 11
17.17301076952077
 21
-31.00666491004745
 72
     1
 10
17.17301076952077
 20
-31.00666491004745
 11
16.12335319161338
 21
-31.00666491004745
 72
     1
 10
16.12335319161338
 20
-31.00666491004745
 11
16.12335319161338
 21
-32.14093701889112
 72
     1
 10
16.12335319161338
 20
-32.14093701889112
 11
14.93056048944678
 21
-32.14093701889112
 72
     1
 10
14.93056048944678
 20
-32.14093701889112
 11
14.93056048944678
 21
-29.08712749508004
 72
     1
 10
14.93056048944678
 20
-29.08712749508004
 11
16.12335319161338
 21
-29.08712749508004
 72
     1
 10
16.12335319161338
 20
-29.08712749508004
 11
16.12335319161338
 21
-30.15596082841461
 72
     1
 10
16.12335319161338
 20
-30.15596082841461
 11
17.17301076952077
 21
-30.15596082841461
 72
     1
 10
17.17301076952077
 20
-30.15596082841461
 11
17.17301076952077
 21
-29.08712749508004
 72
     1
 10
17.17301076952077
 20
-29.08712749508004
 11
18.36580347168726
 21
-29.08712749508004
 97
       12
330
144
330
143
330
142
330
12A
330
12B
330
141
330
12C
330
140
330
13F
330
13E
330
128
330
129
 75
     1
 76
     2
 52
45.0
 41
0.1
 77
     0
 78
     1
 53
45.0
 43
62.7811309658083
 44
-72.3161373035813
 45
-0.1414213562373095
 46
0.0
 79
     0
 98
        1
 10
0.0
 20
0.0
  0
ENDBLK
  5
78
330
76
100
AcDbEntity
  8
0
100
AcDbBlockEnd
  0
BLOCK
  5
7A
330
79
100
AcDbEntity
  8
0
100
AcDbBlockBegin
  2
_punkt
 70
     0
 10
130.243107285476
 20
-42.79362749508175
 30
0.0
  3
_punkt
  1

  0
LINE
  5
202
330
79
100
AcDbEntity
  8
1
  6
Continuous
 62
     2
100
AcDbLine
 10
130.2431072854761
 20
-42.79362749508175
 30
0.0
 11
130.2431072854761
 21
-47.79362749508124
 31
0.0
  0
LINE
  5
203
330
79
100
AcDbEntity
  8
1
  6
Continuous
 62
     2
100
AcDbLine
 10
130.2431072854761
 20
-42.79362749508175
 30
0.0
 11
135.2431072854737
 21
-42.79362749508175
 31
0.0
  0
ENDBLK
  5
7B
330
79
100
AcDbEntity
  8
0
100
AcDbBlockEnd
  0
BLOCK
  5
7F
330
7C
100
AcDbEntity
  8
0
100
AcDbBlockBegin
  2
A3I_CS
 70
     0
 10
130.2431072854761
 20
-47.79362749508124
 30
0.0
  3
A3I_CS
  1

  0
INSERT
  5
7D
330
7C
100
AcDbEntity
  8
1
100
AcDbBlockReference
  2
_rahmen
 10
130.2431072854761
 20
-47.79362749508124
 30
0.0
  0
INSERT
  5
7E
330
7C
100
AcDbEntity
  8
1
100
AcDbBlockReference
  2
_punkt
 10
130.243107285476
 20
-42.79362749508175
 30
0.0
  0
ENDBLK
  5
80
330
7C
100
AcDbEntity
  8
0
100
AcDbBlockEnd
  0
BLOCK
  5
82
330
81
100
AcDbEntity
  8
0
100
AcDbBlockBegin
  2
CES_STPG_GY_2ASI_RR-select__1
 70
     0
 10
32.76378361408455
 20
-0.02267316640688
 30
0.0
  3
CES_STPG_GY_2ASI_RR-select__1
  1

  0
LINE
  5
204
330
81
100
AcDbEntity
  8
0
  6
Continuous
 62
     7
100
AcDbLine
 10
37.41817749751989
 20
1.9801035833287
 30
0.0
 11
37.10706510496166
 21
2.97352946463347
 31
0.0
  0
LINE
  5
205
330
81
100
AcDbEntity
  8
0
  6
Continuous
 62
     7
100
AcDbLine
 10
54.361215478421
 20
10.47788485448013
 30
0.0
 11
51.111215478421
 21
7.6633022921807
 31
0.0
  0
LINE
  5
206
330
81
100
AcDbEntity
  8
0
  6
Continuous
 62
     7
100
AcDbLine
 10
44.75823545649904
 20
0.76482683359376
 30
0.0
 11
32.76378361408455
 21
4.22732683359661
 31
0.0
  0
LINE
  5
207
330
81
100
AcDbEntity
  8
0
  6
Continuous
 62
     7
100
AcDbLine
 10
53.86121547842266
 20
16.97307538286296
 30
0.0
 11
54.61121547842266
 21
17.62259443570127
 31
0.0
  0
LINE
  5
208
330
81
100
AcDbEntity
  8
0
  6
Continuous
 62
     7
100
AcDbLine
 10
48.18625000887686
 20
28.78709529807337
 30
0.0
 11
57.23621547842418
 21
26.17459529807124
 31
0.0
  0
LINE
  5
209
330
81
100
AcDbEntity
  8
0
  6
Continuous
 62
     7
100
AcDbLine
 10
44.75823545649904
 20
0.76482683359376
 30
0.0
 11
44.75823545650327
 21
18.51834761117358
 31
0.0
  0
LINE
  5
20A
330
81
100
AcDbEntity
  8
0
  6
Continuous
 62
     7
100
AcDbLine
 10
48.00323730698465
 20
29.12860164901957
 30
0.0
 11
47.32022460509244
 21
29.03709529807357
 31
0.0
  0
LINE
  5
20B
330
81
100
AcDbEntity
  8
0
  6
Continuous
 62
     7
100
AcDbLine
 10
45.97788522922782
 20
34.62074772078015
 30
0.0
 11
45.97788522922657
 21
29.42459529807388
 31
0.0
  0
LINE
  5
20C
330
81
100
AcDbEntity
  8
0
  6
Continuous
 62
     7
100
AcDbLine
 10
47.48621547842417
 20
17.73084761117295
 30
0.0
 11
47.48621547841992
 21
-0.02267316640688
 31
0.0
  0
LINE
  5
20D
330
81
100
AcDbEntity
  8
0
  6
Continuous
 62
     7
100
AcDbLine
 10
45.97788522922657
 20
29.42459529807388
 30
0.0
 11
47.32022460509244
 21
29.03709529807357
 31
0.0
  0
LINE
  5
20E
330
81
100
AcDbEntity
  8
0
  6
Continuous
 62
     7
100
AcDbLine
 10
45.62426086028773
 20
18.26834761117337
 30
0.0
 11
45.62426086028349
 21
0.51482683359353
 31
0.0
  0
LINE
  5
20F
330
81
100
AcDbEntity
  8
0
  6
Continuous
 62
     7
100
AcDbLine
 10
47.48621547841992
 20
-0.02267316640688
 30
0.0
 11
45.62426086028349
 21
0.51482683359353
 31
0.0
  0
LINE
  5
210
330
81
100
AcDbEntity
  8
0
  6
Continuous
 62
     7
100
AcDbLine
 10
44.94124815839552
 20
18.17684126022735
 30
0.0
 11
44.94124815839128
 21
0.42332048264753
 31
0.0
  0
LINE
  5
211
330
81
100
AcDbEntity
  8
0
  6
Continuous
 62
     7
100
AcDbLine
 10
44.94124815839128
 20
0.42332048264753
 30
0.0
 11
45.62426086028349
 21
0.51482683359353
 31
0.0
  0
LINE
  5
212
330
81
100
AcDbEntity
  8
0
  6
Continuous
 62
     7
100
AcDbLine
 10
44.75823545649904
 20
0.76482683359376
 30
0.0
 11
44.94124815839128
 21
0.42332048264753
 31
0.0
  0
LINE
  5
213
330
81
100
AcDbEntity
  8
0
  6
Continuous
 62
     7
100
AcDbLine
 10
46.08374784576026
 20
29.19242023633295
 30
0.0
 11
46.08374784575972
 21
27.26929491486837
 31
0.0
  0
LINE
  5
214
330
81
100
AcDbEntity
  8
0
  6
Continuous
 62
     7
100
AcDbLine
 10
46.08374784575972
 20
27.26929491486837
 30
0.0
 11
45.33374784575972
 21
26.61977586203004
 31
0.0
  0
LINE
  5
215
330
81
100
AcDbEntity
  8
0
  6
Continuous
 62
     7
100
AcDbLine
 10
50.36121547842308
 20
15.67403727718617
 30
0.0
 11
53.61121547842308
 21
18.48861983948561
 31
0.0
  0
LINE
  5
216
330
81
100
AcDbEntity
  8
0
  6
Continuous
 62
     7
100
AcDbLine
 10
43.22343092372724
 20
26.71531311897786
 30
0.0
 11
46.08374784576026
 21
29.19242023633295
 31
0.0
  0
LINE
  5
217
330
81
100
AcDbEntity
  8
0
  6
Continuous
 62
     7
100
AcDbLine
 10
42.60463126770217
 20
30.40341021835606
 30
0.0
 11
46.08374784576026
 21
29.19242023633295
 31
0.0
  0
LINE
  5
218
330
81
100
AcDbEntity
  8
0
  6
Continuous
 62
     7
100
AcDbLine
 10
44.75823545650327
 20
18.51834761117358
 30
0.0
 11
44.94124815839552
 21
18.17684126022735
 31
0.0
  0
LINE
  5
219
330
81
100
AcDbEntity
  8
0
  6
Continuous
 62
     7
100
AcDbLine
 10
44.75823545650327
 20
18.51834761117358
 30
0.0
 11
36.22788522922657
 21
20.98084761117561
 31
0.0
  0
LINE
  5
21A
330
81
100
AcDbEntity
  8
0
  6
Continuous
 62
     7
100
AcDbLine
 10
44.94124815839552
 20
18.17684126022735
 30
0.0
 11
45.62426086028773
 21
18.26834761117337
 31
0.0
  0
LINE
  5
21B
330
81
100
AcDbEntity
  8
0
  6
Continuous
 62
     7
100
AcDbLine
 10
47.48621547842417
 20
17.73084761117295
 30
0.0
 11
45.62426086028773
 21
18.26834761117337
 31
0.0
  0
LINE
  5
21C
330
81
100
AcDbEntity
  8
0
  6
Continuous
 62
     7
100
AcDbLine
 10
53.86121547842266
 20
16.97307538286296
 30
0.0
 11
53.61121547842308
 21
18.48861983948561
 31
0.0
  0
LINE
  5
21D
330
81
100
AcDbEntity
  8
0
  6
Continuous
 62
     7
100
AcDbLine
 10
32.76378361408455
 20
4.22732683359661
 30
0.0
 11
32.76378361409004
 21
27.17700003388269
 31
0.0
  0
LINE
  5
21E
330
81
100
AcDbEntity
  8
0
  6
Continuous
 62
     7
100
AcDbLine
 10
32.76378361409004
 20
27.17700003388269
 30
0.0
 11
36.22788522922782
 21
26.17700003388187
 31
0.0
  0
LINE
  5
21F
330
81
100
AcDbEntity
  8
0
  6
Continuous
 62
     7
100
AcDbLine
 10
45.97788522922782
 20
34.62074772078015
 30
0.0
 11
42.51378361409004
 21
35.62074772078097
 31
0.0
  0
LINE
  5
220
330
81
100
AcDbEntity
  8
0
  6
Continuous
 62
     7
100
AcDbLine
 10
45.33374784575972
 20
26.61977586203004
 30
0.0
 11
45.33374784575919
 21
24.76675596046306
 31
0.0
  0
LINE
  5
221
330
81
100
AcDbEntity
  8
0
  6
Continuous
 62
     7
100
AcDbLine
 10
45.81700298190224
 20
29.28526718487311
 30
0.0
 11
45.97788522922657
 21
29.42459529807388
 31
0.0
  0
LINE
  5
222
330
81
100
AcDbEntity
  8
0
  6
Continuous
 62
     7
100
AcDbLine
 10
45.33374784575919
 20
24.76675596046306
 30
0.0
 11
43.97343092372619
 21
23.58868694878461
 31
0.0
  0
LINE
  5
223
330
81
100
AcDbEntity
  8
0
  6
Continuous
 62
     7
100
AcDbLine
 10
36.22788522922657
 20
20.98084761117561
 30
0.0
 11
36.22788522922782
 21
26.17700003388187
 31
0.0
  0
LINE
  5
224
330
81
100
AcDbEntity
  8
0
  6
Continuous
 62
     7
100
AcDbLine
 10
43.22343092372672
 20
24.79218779751327
 30
0.0
 11
43.22343092372724
 21
26.71531311897786
 31
0.0
  0
LINE
  5
225
330
81
100
AcDbEntity
  8
0
  6
Continuous
 62
     7
100
AcDbLine
 10
39.60113919075239
 20
25.63119781549186
 30
0.0
 11
43.22343092372672
 21
24.79218779751327
 31
0.0
  0
LINE
  5
226
330
81
100
AcDbEntity
  8
0
  6
Continuous
 62
     7
100
AcDbLine
 10
43.97343092372619
 20
23.58868694878461
 30
0.0
 11
43.97343092372672
 21
25.44170685035159
 31
0.0
  0
LINE
  5
227
330
81
100
AcDbEntity
  8
0
  6
Continuous
 62
     7
100
AcDbLine
 10
40.3511391907519
 20
24.55169028811137
 30
0.0
 11
43.97343092372619
 21
23.58868694878461
 31
0.0
  0
LINE
  5
228
330
81
100
AcDbEntity
  8
0
  6
Continuous
 62
     7
100
AcDbLine
 10
39.601139190753
 20
27.80230977965279
 30
0.0
 11
39.60113919075239
 21
25.63119781549186
 31
0.0
  0
LINE
  5
229
330
81
100
AcDbEntity
  8
0
  6
Continuous
 62
     7
100
AcDbLine
 10
40.35113919075216
 20
25.45747974972828
 30
0.0
 11
40.3511391907519
 21
24.55169028811137
 31
0.0
  0
LINE
  5
22A
330
81
100
AcDbEntity
  8
0
  6
Continuous
 62
     7
100
AcDbLine
 10
42.60463126770217
 20
30.40341021835606
 30
0.0
 11
39.601139190753
 21
27.80230977965279
 31
0.0
  0
LINE
  5
22B
330
81
100
AcDbEntity
  8
0
  6
Continuous
 62
     7
100
AcDbLine
 10
36.22788522922657
 20
20.98084761117561
 30
0.0
 11
40.3511391907519
 21
24.55169028811137
 31
0.0
  0
LINE
  5
22C
330
81
100
AcDbEntity
  8
0
  6
Continuous
 62
     7
100
AcDbLine
 10
36.22788522922782
 20
26.17700003388187
 30
0.0
 11
45.97788522922782
 21
34.62074772078015
 31
0.0
  0
LINE
  5
22D
330
81
100
AcDbEntity
  8
0
  6
Continuous
 62
     7
100
AcDbLine
 10
39.601139190753
 20
27.80230977965279
 30
0.0
 11
43.22343092372724
 21
26.71531311897786
 31
0.0
  0
LINE
  5
22E
330
81
100
AcDbEntity
  8
0
  6
Continuous
 62
     7
100
AcDbLine
 10
32.76378361409004
 20
27.17700003388269
 30
0.0
 11
42.51378361409004
 21
35.62074772078097
 31
0.0
  0
LINE
  5
22F
330
81
100
AcDbEntity
  8
0
  6
Continuous
 62
     7
100
AcDbLine
 10
43.97343092372672
 20
25.44170685035159
 30
0.0
 11
43.22343092372672
 21
24.79218779751327
 31
0.0
  0
LINE
  5
230
330
81
100
AcDbEntity
  8
0
  6
Continuous
 62
     7
100
AcDbLine
 10
51.8612154784237
 20
16.97307538286337
 30
0.0
 11
54.86121547842223
 21
16.10704997907862
 31
0.0
  0
LINE
  5
231
330
81
100
AcDbEntity
  8
0
  6
Continuous
 62
     7
100
AcDbLine
 10
50.86121547842141
 20
9.17884674880335
 30
0.0
 11
50.11121547842141
 21
8.52932769596503
 31
0.0
  0
LINE
  5
232
330
81
100
AcDbEntity
  8
0
  6
Continuous
 62
     7
100
AcDbLine
 10
54.361215478421
 20
10.47788485448013
 30
0.0
 11
54.86121547842183
 21
14.37499917150987
 31
0.0
  0
LINE
  5
233
330
81
100
AcDbEntity
  8
0
  6
Continuous
 62
     7
100
AcDbLine
 10
49.86121547842183
 20
10.04487215258767
 30
0.0
 11
50.11121547842141
 21
8.52932769596503
 31
0.0
  0
LINE
  5
234
330
81
100
AcDbEntity
  8
0
  6
Continuous
 62
     7
100
AcDbLine
 10
53.86121547842266
 20
16.97307538286296
 30
0.0
 11
52.3612154784234
 21
17.40608808475533
 31
0.0
  0
LINE
  5
235
330
81
100
AcDbEntity
  8
0
  6
Continuous
 62
     7
100
AcDbLine
 10
54.86121547842223
 20
16.10704997907862
 30
0.0
 11
54.61121547842266
 21
17.62259443570127
 31
0.0
  0
LINE
  5
236
330
81
100
AcDbEntity
  8
0
  6
Continuous
 62
     7
100
AcDbLine
 10
50.36121547842308
 20
15.67403727718617
 30
0.0
 11
49.86121547842225
 21
11.77692296015644
 31
0.0
  0
LINE
  5
237
330
81
100
AcDbEntity
  8
0
  6
Continuous
 62
     7
100
AcDbLine
 10
54.86121547842223
 20
16.10704997907862
 30
0.0
 11
49.86121547842225
 21
11.77692296015644
 31
0.0
  0
LINE
  5
238
330
81
100
AcDbEntity
  8
0
  6
Continuous
 62
     7
100
AcDbLine
 10
49.86121547842183
 20
10.04487215258767
 30
0.0
 11
54.86121547842183
 21
14.37499917150987
 31
0.0
  0
LINE
  5
239
330
81
100
AcDbEntity
  8
0
  6
Continuous
 62
     7
100
AcDbLine
 10
51.36121547842245
 20
11.34391025826487
 30
0.0
 11
54.361215478421
 21
10.47788485448013
 31
0.0
  0
LINE
  5
23A
330
81
100
AcDbEntity
  8
0
  6
Continuous
 62
     7
100
AcDbLine
 10
47.48621547842417
 20
17.73084761117295
 30
0.0
 11
57.23621547842418
 21
26.17459529807124
 31
0.0
  0
LINE
  5
23B
330
81
100
AcDbEntity
  8
0
  6
Continuous
 62
     7
100
AcDbLine
 10
57.23621547841993
 20
8.42107452049141
 30
0.0
 11
57.23621547842418
 21
26.17459529807124
 31
0.0
  0
LINE
  5
23C
330
81
100
AcDbEntity
  8
0
  6
Continuous
 62
     7
100
AcDbLine
 10
48.18625000887686
 20
28.78709529807337
 30
0.0
 11
48.00323730698465
 21
29.12860164901957
 31
0.0
  0
LINE
  5
23D
330
81
100
AcDbEntity
  8
0
  6
Continuous
 62
     7
100
AcDbLine
 10
50.86121547842141
 20
9.17884674880335
 30
0.0
 11
51.111215478421
 21
7.6633022921807
 31
0.0
  0
LINE
  5
23E
330
81
100
AcDbEntity
  8
0
  6
Continuous
 62
     7
100
AcDbLine
 10
50.86121547842141
 20
9.17884674880335
 30
0.0
 11
49.96121547842162
 21
9.43865436993885
 31
0.0
  0
LINE
  5
23F
330
81
100
AcDbEntity
  8
0
  6
Continuous
 62
     7
100
AcDbLine
 10
57.23621547841993
 20
8.42107452049141
 30
0.0
 11
47.48621547841992
 21
-0.02267316640688
 31
0.0
  0
SPLINE
  5
240
330
81
100
AcDbEntity
  8
0
  6
Continuous
 62
     7
100
AcDbSpline
210
0.0
220
0.0
230
1.0
 70
  1064
 71
     3
 72
    17
 73
    13
 74
    11
 42
0.000000001
 43
0.0000000001
 44
0.00000001
 40
0.0
 40
0.0
 40
0.0
 40
0.0
 40
0.2611458113190477
 40
0.58065035262639
 40
0.9629386800357926
 40
1.395689917896206
 40
1.857467596866856
 40
2.322564778821826
 40
2.764819070973979
 40
3.161334733372756
 40
3.496942824021361
 40
3.770946873225381
 40
3.770946873225381
 40
3.770946873225381
 40
3.770946873225381
 10
37.41817749751989
 20
1.980103583328699
 30
0.0
 10
37.45808981252888
 20
1.90145245142785
 30
0.0
 10
37.54683373719321
 20
1.726573888668448
 30
0.0
 10
37.81964892540364
 20
1.538602137388736
 30
0.0
 10
38.16617583993624
 20
1.388239186785644
 30
0.0
 10
38.58354307542635
 20
1.291760292126016
 30
0.0
 10
39.03629023782364
 20
1.253193828329892
 30
0.0
 10
39.49328945064862
 20
1.276504529462996
 30
0.0
 10
39.92261905522187
 20
1.358737657930532
 30
0.0
 10
40.28846225460138
 20
1.497276011700613
 30
0.0
 10
40.58392217584058
 20
1.673917522692121
 30
0.0
 10
40.69680909641295
 20
1.845493598910882
 30
0.0
 10
40.7475486849232
 20
1.922612377196998
 30
0.0
 11
37.41817749751989
 21
1.980103583328699
 31
0.0
 11
37.55323925028949
 21
1.756596405697907
 31
0.0
 11
37.8050785555693
 21
1.559974639871164
 31
0.0
 11
38.15460868979985
 21
1.405142314325211
 31
0.0
 11
38.5753346567214
 21
1.303834402949811
 31
0.0
 11
39.03536761939831
 21
1.263730836644219
 31
0.0
 11
39.49983793965998
 21
1.287870184538253
 31
0.0
 11
39.9335398023584
 21
1.37442393252593
 31
0.0
 11
40.30360068326598
 21
1.516830441587881
 31
0.0
 11
40.58196953861632
 21
1.704296632701044
 31
0.0
 11
40.7475486849232
 21
1.922612377196998
 31
0.0
  0
SPLINE
  5
241
330
81
100
AcDbEntity
  8
0
  6
Continuous
 62
     7
100
AcDbSpline
210
0.0
220
0.0
230
1.0
 70
  1064
 71
     3
 72
    15
 73
    11
 74
     9
 42
0.000000001
 43
0.0000000001
 44
0.00000001
 40
0.0
 40
0.0
 40
0.0
 40
0.0
 40
0.2298529119743224
 40
0.5160607998329599
 40
0.87912217379102
 40
1.313105872362619
 40
1.798319181630535
 40
2.30792295814089
 40
2.812142237556482
 40
3.281830617084565
 40
3.281830617084565
 40
3.281830617084565
 40
3.281830617084565
 10
37.7009200428127
 20
23.05250097482788
 30
0.0
 10
37.77910752564568
 20
23.04682151744205
 30
0.0
 10
37.95465237317382
 20
23.03407013190567
 30
0.0
 10
38.21274435902243
 20
23.20358601827326
 30
0.0
 10
38.46064780729235
 20
23.46347724593305
 30
0.0
 10
38.69377239213819
 20
23.82580598176579
 30
0.0
 10
38.89560468389094
 20
24.25806999189381
 30
0.0
 10
39.05072514288399
 20
24.73400894313293
 30
0.0
 10
39.15543313769104
 20
25.21931012593576
 30
0.0
 10
39.17058021788798
 20
25.54406559640275
 30
0.0
 10
39.17788522922707
 20
25.70068606180098
 30
0.0
 11
37.7009200428127
 21
23.05250097482788
 31
0.0
 11
37.93071341345367
 21
23.05773282908202
 31
0.0
 11
38.18201534368907
 21
23.19470835476127
 31
0.0
 11
38.43663727911333
 21
23.45351567776085
 31
0.0
 11
38.67615025848211
 21
23.81542089040062
 31
0.0
 11
38.88321837330311
 21
24.25423150006712
 31
0.0
 11
39.04285509915846
 21
24.73818617243546
 31
0.0
 11
39.14350532079241
 21
25.23225763992959
 31
0.0
 11
39.17788522922707
 21
25.70068606180098
 31
0.0
  0
SPLINE
  5
242
330
81
100
AcDbEntity
  8
0
  6
Continuous
 62
     7
100
AcDbSpline
210
0.0
220
0.0
230
1.0
 70
  1064
 71
     3
 72
    11
 73
     7
 74
     5
 42
0.000000001
 43
0.0000000001
 44
0.00000001
 40
0.0
 40
0.0
 40
0.0
 40
0.0
 40
0.3766024589415507
 40
0.6915266369968995
 40
0.9435619909941801
 40
1.151652787050227
 40
1.151652787050227
 40
1.151652787050227
 40
1.151652787050227
 10
39.17788522922707
 20
25.70068606180098
 30
0.0
 10
39.17341258159396
 20
25.82674453659152
 30
0.0
 10
39.16519978915208
 20
26.05821618693607
 30
0.0
 10
39.08446543685201
 20
26.36183481658321
 30
0.0
 10
38.95785524830285
 20
26.60096657217742
 30
0.0
 10
38.81806856541794
 20
26.67151675815535
 30
0.0
 10
38.75485041564146
 20
26.70342288158363
 30
0.0
 11
39.17788522922707
 21
25.70068606180098
 31
0.0
 11
39.14935435696239
 21
26.07620622824486
 31
0.0
 11
39.06547609805683
 21
26.37975470451666
 31
0.0
 11
38.93128794843816
 21
26.59309800632723
 31
0.0
 11
38.75485041564146
 21
26.70342288158363
 31
0.0
  0
SPLINE
  5
243
330
81
100
AcDbEntity
  8
0
  6
Continuous
 62
     7
100
AcDbSpline
210
0.0
220
0.0
230
1.0
 70
  1064
 71
     3
 72
     9
 73
     5
 74
     3
 42
0.000000001
 43
0.0000000001
 44
0.00000001
 40
0.0
 40
0.0
 40
0.0
 40
0.0
 40
0.541526702653267
 40
1.045780652216692
 40
1.045780652216692
 40
1.045780652216692
 40
1.045780652216692
 10
44.77376209482534
 20
29.64839220087708
 30
0.0
 10
44.81828010816868
 20
29.82388066186131
 30
0.0
 10
44.9042519839252
 20
30.16277888828303
 30
0.0
 10
44.92019691873877
 20
30.51196281532695
 30
0.0
 10
44.92788522922709
 20
30.68033213356077
 30
0.0
 11
44.77376209482534
 21
29.64839220087708
 31
0.0
 11
44.88853923266898
 21
30.17761557436691
 31
0.0
 11
44.92788522922709
 21
30.68033213356077
 31
0.0
  0
SPLINE
  5
244
330
81
100
AcDbEntity
  8
0
  6
Continuous
 62
     7
100
AcDbSpline
210
0.0
220
0.0
230
1.0
 70
  1064
 71
     3
 72
    11
 73
     7
 74
     5
 42
0.000000001
 43
0.0000000001
 44
0.00000001
 40
0.0
 40
0.0
 40
0.0
 40
0.0
 40
0.3766024589415624
 40
0.6915266369969078
 40
0.9435619909941854
 40
1.151652787050229
 40
1.151652787050229
 40
1.151652787050229
 40
1.151652787050229
 10
44.92788522922709
 20
30.68033213356077
 30
0.0
 10
44.92341258159398
 20
30.8063906083513
 30
0.0
 10
44.91519978915208
 20
31.03786225869588
 30
0.0
 10
44.83446543685202
 20
31.34148088834301
 30
0.0
 10
44.70785524830283
 20
31.5806126439372
 30
0.0
 10
44.56806856541793
 20
31.65116282991515
 30
0.0
 10
44.50485041564146
 20
31.68306895334342
 30
0.0
 11
44.92788522922709
 21
30.68033213356077
 31
0.0
 11
44.89935435696239
 21
31.05585230000466
 31
0.0
 11
44.81547609805683
 21
31.35940077627646
 31
0.0
 11
44.68128794843816
 21
31.57274407808703
 31
0.0
 11
44.50485041564146
 21
31.68306895334342
 31
0.0
  0
SPLINE
  5
245
330
81
100
AcDbEntity
  8
0
  6
Continuous
 62
     7
100
AcDbSpline
210
0.0
220
0.0
230
1.0
 70
  1064
 71
     3
 72
    13
 73
     9
 74
     7
 42
0.000000001
 43
0.0000000001
 44
0.00000001
 40
0.0
 40
0.0
 40
0.0
 40
0.0
 40
0.2139874779891454
 40
0.4751337361676681
 40
0.8028943691586372
 40
1.194942496085166
 40
1.637084715653252
 40
2.108651799284248
 40
2.108651799284248
 40
2.108651799284248
 40
2.108651799284248
 10
44.50485041564146
 20
31.68306895334342
 30
0.0
 10
44.43228249420359
 20
31.68951582444613
 30
0.0
 10
44.27115406020663
 20
31.70383031924528
 30
0.0
 10
44.02984838989977
 20
31.56000682235942
 30
0.0
 10
43.79598098982517
 20
31.33314803518758
 30
0.0
 10
43.57302882674175
 20
31.01302772335145
 30
0.0
 10
43.37141521940112
 20
30.6260632321216
 30
0.0
 10
43.27075890706935
 20
30.33819824078516
 30
0.0
 10
43.21880999549544
 20
30.18963057923155
 30
0.0
 11
44.50485041564146
 21
31.68306895334342
 31
0.0
 11
44.29086452706671
 21
31.68224242893553
 31
0.0
 11
44.05706463712792
 21
31.56590248458556
 31
0.0
 11
43.81825201504729
 21
31.3414129228311
 31
0.0
 11
43.58954540555388
 21
31.02298707529484
 31
0.0
 11
43.38542402052341
 21
30.63078278834851
 31
0.0
 11
43.21880999549544
 21
30.18963057923155
 31
0.0
  0
SPLINE
  5
246
330
81
100
AcDbEntity
  8
0
  6
Continuous
 62
     7
100
AcDbSpline
210
0.0
220
0.0
230
1.0
 70
  1064
 71
     3
 72
    19
 73
    15
 74
    13
 42
0.000000001
 43
0.0000000001
 44
0.00000001
 40
0.0
 40
0.0
 40
0.0
 40
0.0
 40
0.2225611229058564
 40
0.4971528408223647
 40
0.8438580853671737
 40
1.258513177648495
 40
1.724069573307516
 40
2.216624054942628
 40
2.709178536577733
 40
3.174734932236753
 40
3.589390024518068
 40
3.936095269062887
 40
4.21068698697939
 40
4.433248109885233
 40
4.433248109885233
 40
4.433248109885233
 40
4.433248109885233
 10
38.75485041564146
 20
26.70342288158363
 30
0.0
 10
38.6792466918645
 20
26.70947780021132
 30
0.0
 10
38.51036452182185
 20
26.72300314295683
 30
0.0
 10
38.25989108055991
 20
26.56548894077659
 30
0.0
 10
38.0183920091755
 20
26.32089446525616
 30
0.0
 10
37.7894360103538
 20
25.97812757759201
 30
0.0
 10
37.58867738985612
 20
25.56619710596517
 30
0.0
 10
37.42868959500296
 20
25.10866983548319
 30
0.0
 10
37.32022988962525
 20
24.63626768683646
 30
0.0
 10
37.27056887434046
 20
24.18071909368778
 30
0.0
 10
37.28162713039353
 20
23.76866605869294
 30
0.0
 10
37.35561863422573
 20
23.43299729890838
 30
0.0
 10
37.48361228418885
 20
23.16622905822895
 30
0.0
 10
37.63372076063257
 20
23.08766973316544
 30
0.0
 10
37.7009200428127
 20
23.05250097482788
 30
0.0
 11
38.75485041564146
 21
26.70342288158363
 31
0.0
 11
38.5323114916533
 21
26.70027932971844
 31
0.0
 11
38.28902657776159
 21
26.57294879703374
 31
0.0
 11
38.04157495051769
 21
26.33010683734589
 31
0.0
 11
37.80681996491775
 21
25.98830434980004
 31
0.0
 11
37.60076009810386
 21
25.57083328927628
 31
0.0
 11
37.43743744960639
 21
25.10614454737812
 31
0.0
 11
37.32798291812779
 21
24.62590541954917
 31
0.0
 11
37.27985477850338
 21
24.16284339642215
 31
0.0
 11
37.29633383567766
 21
23.7485158877636
 31
0.0
 11
37.3762961010719
 21
23.41115767855014
 31
0.0
 11
37.51429319683718
 21
23.17376051040904
 31
0.0
 11
37.7009200428127
 21
23.05250097482788
 31
0.0
  0
ENDBLK
  5
83
330
81
100
AcDbEntity
  8
0
100
AcDbBlockEnd
  0
BLOCK
  5
86
330
84
100
AcDbEntity
  8
0
100
AcDbBlockBegin
  2
AllgSicht1
 70
     0
 10
44.99999999999987
 20
16.50000000001
 30
0.0
  3
AllgSicht1
  1

  0
INSERT
  5
85
330
84
100
AcDbEntity
  8
0
100
AcDbBlockReference
  2
CES_STPG_GY_2ASI_RR-select__1
 10
32.76378361408455
 20
-0.02267316640688
 30
0.0
  0
MTEXT
  5
247
330
84
100
AcDbEntity
  8
1
 62
     6
100
AcDbMText
 10
44.99999954625436
 20
-2.52267316640688
 30
0.0
 40
2.5
 41
0.0
 71
     2
 72
     1
  1
 
  7
CONVERTER_11
 73
     1
 44
1.32052821128451
  0
ENDBLK
  5
87
330
84
100
AcDbEntity
  8
0
100
AcDbBlockEnd
  0
BLOCK
  5
89
330
88
100
AcDbEntity
  8
0
100
AcDbBlockBegin
  2
CES_STPG_GY_2ASI_RR-select__2
 70
     0
 10
-58.37499999999773
 20
37.74999861568263
 30
0.0
  3
CES_STPG_GY_2ASI_RR-select__2
  1

  0
LINE
  5
248
330
88
100
AcDbEntity
  8
0
  6
Continuous
 62
     7
100
AcDbLine
 10
-44.52499999999917
 20
38.24999861568264
 30
0.0
 11
-54.37499999999915
 21
38.24999861568264
 31
0.0
  0
LINE
  5
249
330
88
100
AcDbEntity
  8
0
  6
Continuous
 62
     7
100
AcDbLine
 10
-58.37499999999773
 20
38.24999861568264
 30
0.0
 11
-58.37499999999773
 21
57.74999861568264
 31
0.0
  0
LINE
  5
24A
330
88
100
AcDbEntity
  8
0
  6
Continuous
 62
     7
100
AcDbLine
 10
-51.82499999999916
 20
57.74999861568264
 30
0.0
 11
-41.37499999999926
 21
57.74999861568264
 31
0.0
  0
LINE
  5
24B
330
88
100
AcDbEntity
  8
0
  6
Continuous
 62
     7
100
AcDbLine
 10
-41.37499999999926
 20
38.24999861568264
 30
0.0
 11
-43.52499999999914
 21
38.24999861568264
 31
0.0
  0
LINE
  5
24C
330
88
100
AcDbEntity
  8
0
  6
Continuous
 62
     7
100
AcDbLine
 10
-44.02499999999913
 20
37.74999861568263
 30
0.0
 11
-43.52499999999914
 21
38.24999861568264
 31
0.0
  0
LINE
  5
24D
330
88
100
AcDbEntity
  8
0
  6
Continuous
 62
     7
100
AcDbLine
 10
-44.52499999999917
 20
38.24999861568264
 30
0.0
 11
-44.02499999999913
 21
37.74999861568263
 31
0.0
  0
LINE
  5
24E
330
88
100
AcDbEntity
  8
0
  6
Continuous
 62
     7
100
AcDbLine
 10
-51.82499999999916
 20
57.74999861568264
 30
0.0
 11
-52.32499999999914
 21
58.24999861568263
 31
0.0
  0
LINE
  5
24F
330
88
100
AcDbEntity
  8
0
  6
Continuous
 62
     7
100
AcDbLine
 10
-50.27499999999809
 20
45.13968169364979
 30
0.0
 11
-50.2749999999981
 21
50.86031553771579
 31
0.0
  0
LINE
  5
250
330
88
100
AcDbEntity
  8
0
  6
Continuous
 62
     7
100
AcDbLine
 10
-54.37499999999807
 20
51.00349069263197
 30
0.0
 11
-50.2749999999981
 21
50.86031553771579
 31
0.0
  0
LINE
  5
251
330
88
100
AcDbEntity
  8
0
  6
Continuous
 62
     7
100
AcDbLine
 10
-41.37499999999926
 20
38.24999861568264
 30
0.0
 11
-41.37499999999926
 21
57.74999861568264
 31
0.0
  0
LINE
  5
252
330
88
100
AcDbEntity
  8
0
  6
Continuous
 62
     7
100
AcDbLine
 10
-54.37499999999915
 20
57.74999861568264
 30
0.0
 11
-52.82499999999914
 21
57.74999861568263
 31
0.0
  0
LINE
  5
253
330
88
100
AcDbEntity
  8
0
  6
Continuous
 62
     7
100
AcDbLine
 10
-54.37499999999915
 20
57.74999861568264
 30
0.0
 11
-58.37499999999773
 21
57.74999861568264
 31
0.0
  0
LINE
  5
254
330
88
100
AcDbEntity
  8
0
  6
Continuous
 62
     7
100
AcDbLine
 10
-54.37499999999807
 20
44.99650653873363
 30
0.0
 11
-54.37499999999807
 21
51.00349069263197
 31
0.0
  0
LINE
  5
255
330
88
100
AcDbEntity
  8
0
  6
Continuous
 62
     7
100
AcDbLine
 10
-54.37499999999915
 20
38.24999861568264
 30
0.0
 11
-54.37499999999807
 21
44.99650653873363
 31
0.0
  0
LINE
  5
256
330
88
100
AcDbEntity
  8
0
  6
Continuous
 62
     7
100
AcDbLine
 10
-52.32499999999914
 20
58.24999861568263
 30
0.0
 11
-52.82499999999914
 21
57.74999861568263
 31
0.0
  0
LINE
  5
257
330
88
100
AcDbEntity
  8
0
  6
Continuous
 62
     7
100
AcDbLine
 10
-54.37499999999807
 20
51.00349069263197
 30
0.0
 11
-54.37499999999915
 21
57.74999861568264
 31
0.0
  0
LINE
  5
258
330
88
100
AcDbEntity
  8
0
  6
Continuous
 62
     7
100
AcDbLine
 10
-58.37499999999773
 20
38.24999861568264
 30
0.0
 11
-54.37499999999915
 21
38.24999861568264
 31
0.0
  0
LINE
  5
259
330
88
100
AcDbEntity
  8
0
  6
Continuous
 62
     7
100
AcDbLine
 10
-54.37499999999807
 20
44.99650653873363
 30
0.0
 11
-50.27499999999809
 21
45.13968169364979
 31
0.0
  0
ENDBLK
  5
8A
330
88
100
AcDbEntity
  8
0
100
AcDbBlockEnd
  0
BLOCK
  5
8D
330
8B
100
AcDbEntity
  8
0
100
AcDbBlockBegin
  2
Drfsicht1
 70
     0
 10
-49.8749999999966
 20
47.99999952316492
 30
0.0
  3
Drfsicht1
  1

  0
INSERT
  5
8C
330
8B
100
AcDbEntity
  8
0
100
AcDbBlockReference
  2
CES_STPG_GY_2ASI_RR-select__2
 10
-58.37499999999773
 20
37.74999861568263
 30
0.0
  0
MTEXT
  5
25A
330
8B
100
AcDbEntity
  8
1
 62
     6
100
AcDbMText
 10
-49.87499999999849
 20
35.24999861568263
 30
0.0
 40
2.5
 41
0.0
 71
     2
 72
     1
  1
 
  7
CONVERTER_11
 73
     1
 44
1.32052821128451
  0
DIMENSION
  5
265
330
8B
100
AcDbEntity
  8
1
100
AcDbDimension
  2
*D17
 10
-65.56444989376303
 20
58.24999861568263
 30
0.0
 11
-67.27694989376303
 21
48.1551819209454
 31
0.0
 70
    32
  1
<>
 71
     5
 42
-1.0
 53
90.0
  3
ME10_DIM_10
100
AcDbAlignedDimension
 13
-44.02499999999913
 23
37.74999861568263
 33
0.0
 14
-52.32499999999914
 24
58.24999861568263
 34
0.0
 50
90.0
100
AcDbRotatedDimension
  0
ENDBLK
  5
8E
330
8B
100
AcDbEntity
  8
0
100
AcDbBlockEnd
  0
BLOCK
  5
90
330
8F
100
AcDbEntity
  8
0
100
AcDbBlockBegin
  2
CES_STPG_GY_2ASI_RR-select__3
 70
     0
 10
12.37499999999913
 20
78.74999949708035
 30
0.0
  3
CES_STPG_GY_2ASI_RR-select__3
  1

  0
LINE
  5
266
330
8F
100
AcDbEntity
  8
0
  6
Continuous
 62
     7
100
AcDbLine
 10
22.82500000000394
 20
81.74999949708038
 30
0.0
 11
21.87500000000394
 21
81.74999949708015
 31
0.0
  0
LINE
  5
267
330
8F
100
AcDbEntity
  8
0
  6
Continuous
 62
     7
100
AcDbLine
 10
21.87500000000394
 20
81.74999949708015
 30
0.0
 11
12.37500000000404
 21
81.74999949707788
 31
0.0
  0
LINE
  5
268
330
8F
100
AcDbEntity
  8
0
  6
Continuous
 62
     7
100
AcDbLine
 10
22.82499999999904
 20
102.2499994970804
 30
0.0
 11
23.32499999999902
 21
102.2499994970806
 31
0.0
  0
LINE
  5
269
330
8F
100
AcDbEntity
  8
0
  6
Continuous
 62
     7
100
AcDbLine
 10
23.32499999999902
 20
102.2499994970806
 30
0.0
 11
23.82499999999902
 21
102.2499994970807
 31
0.0
  0
LINE
  5
26A
330
8F
100
AcDbEntity
  8
0
  6
Continuous
 62
     7
100
AcDbLine
 10
25.37499999999854
 20
104.2465074201318
 30
0.0
 11
21.2749999999985
 21
104.389682575047
 31
0.0
  0
LINE
  5
26B
330
8F
100
AcDbEntity
  8
0
  6
Continuous
 62
     7
100
AcDbLine
 10
23.32500000000391
 20
81.7499994970805
 30
0.0
 11
23.32499999999902
 21
102.2499994970806
 31
0.0
  0
LINE
  5
26C
330
8F
100
AcDbEntity
  8
0
  6
Continuous
 62
     7
100
AcDbLine
 10
21.27499999999797
 20
106.610316419113
 30
0.0
 11
21.2749999999985
 21
104.389682575047
 31
0.0
  0
LINE
  5
26D
330
8F
100
AcDbEntity
  8
0
  6
Continuous
 62
     7
100
AcDbLine
 10
21.2749999999985
 20
104.389682575047
 30
0.0
 11
21.27499999999901
 21
102.2499994970801
 31
0.0
  0
LINE
  5
26E
330
8F
100
AcDbEntity
  8
0
  6
Continuous
 62
     7
100
AcDbLine
 10
22.82500000000394
 20
81.74999949708038
 30
0.0
 11
22.82499999999904
 21
102.2499994970804
 31
0.0
  0
LINE
  5
26F
330
8F
100
AcDbEntity
  8
0
  6
Continuous
 62
     7
100
AcDbLine
 10
22.82500000000394
 20
81.74999949708038
 30
0.0
 11
23.32500000000391
 21
81.7499994970805
 31
0.0
  0
LINE
  5
270
330
8F
100
AcDbEntity
  8
0
  6
Continuous
 62
     7
100
AcDbLine
 10
23.32500000000391
 20
81.7499994970805
 30
0.0
 11
23.82500000000388
 21
81.74999949708061
 31
0.0
  0
LINE
  5
271
330
8F
100
AcDbEntity
  8
0
  6
Continuous
 62
     7
100
AcDbLine
 10
22.67884757729802
 20
78.74999949708035
 30
0.0
 11
24.37500000000466
 21
78.74999949708075
 31
0.0
  0
LINE
  5
272
330
8F
100
AcDbEntity
  8
0
  6
Continuous
 62
     7
100
AcDbLine
 10
24.37500000000466
 20
78.74999949708075
 30
0.0
 11
26.07115242271129
 21
78.74999949708118
 31
0.0
  0
LINE
  5
273
330
8F
100
AcDbEntity
  8
0
  6
Continuous
 62
     7
100
AcDbLine
 10
22.67884757729802
 20
78.74999949708035
 30
0.0
 11
21.87500000000394
 21
81.74999949708015
 31
0.0
  0
LINE
  5
274
330
8F
100
AcDbEntity
  8
0
  6
Continuous
 62
     7
100
AcDbLine
 10
12.37500000000404
 20
81.74999949707788
 30
0.0
 11
12.37499999999913
 21
102.249999497078
 31
0.0
  0
LINE
  5
275
330
8F
100
AcDbEntity
  8
0
  6
Continuous
 62
     7
100
AcDbLine
 10
22.82499999999904
 20
102.2499994970804
 30
0.0
 11
21.27499999999901
 21
102.2499994970801
 31
0.0
  0
LINE
  5
276
330
8F
100
AcDbEntity
  8
0
  6
Continuous
 62
     7
100
AcDbLine
 10
21.27499999999901
 20
102.2499994970801
 30
0.0
 11
12.37499999999913
 21
102.249999497078
 31
0.0
  0
LINE
  5
277
330
8F
100
AcDbEntity
  8
0
  6
Continuous
 62
     7
100
AcDbLine
 10
25.37499999999794
 20
106.7534915740302
 30
0.0
 11
21.27499999999797
 21
106.610316419113
 31
0.0
  0
LINE
  5
278
330
8F
100
AcDbEntity
  8
0
  6
Continuous
 62
     7
100
AcDbLine
 10
29.3749999999976
 20
108.249999497082
 30
0.0
 11
29.37500000000395
 21
81.74999949708194
 31
0.0
  0
LINE
  5
279
330
8F
100
AcDbEntity
  8
0
  6
Continuous
 62
     7
100
AcDbLine
 10
29.37500000000395
 20
81.74999949708194
 30
0.0
 11
26.87500000000394
 21
81.74999949708135
 31
0.0
  0
LINE
  5
27A
330
8F
100
AcDbEntity
  8
0
  6
Continuous
 62
     7
100
AcDbLine
 10
26.87500000000394
 20
81.74999949708135
 30
0.0
 11
23.82500000000388
 21
81.74999949708061
 31
0.0
  0
LINE
  5
27B
330
8F
100
AcDbEntity
  8
0
  6
Continuous
 62
     7
100
AcDbLine
 10
25.37499999999901
 20
102.249999497081
 30
0.0
 11
23.82499999999902
 21
102.2499994970807
 31
0.0
  0
LINE
  5
27C
330
8F
100
AcDbEntity
  8
0
  6
Continuous
 62
     7
100
AcDbLine
 10
25.37499999999758
 20
108.249999497081
 30
0.0
 11
25.37499999999794
 21
106.7534915740302
 31
0.0
  0
LINE
  5
27D
330
8F
100
AcDbEntity
  8
0
  6
Continuous
 62
     7
100
AcDbLine
 10
25.37499999999794
 20
106.7534915740302
 30
0.0
 11
25.37499999999854
 21
104.2465074201318
 31
0.0
  0
LINE
  5
27E
330
8F
100
AcDbEntity
  8
0
  6
Continuous
 62
     7
100
AcDbLine
 10
25.37499999999854
 20
104.2465074201318
 30
0.0
 11
25.37499999999901
 21
102.249999497081
 31
0.0
  0
LINE
  5
27F
330
8F
100
AcDbEntity
  8
0
  6
Continuous
 62
     7
100
AcDbLine
 10
25.37499999999758
 20
108.249999497081
 30
0.0
 11
29.3749999999976
 21
108.249999497082
 31
0.0
  0
LINE
  5
280
330
8F
100
AcDbEntity
  8
0
  6
Continuous
 62
     7
100
AcDbLine
 10
23.82499999999902
 20
102.2499994970807
 30
0.0
 11
23.82500000000388
 21
81.74999949708061
 31
0.0
  0
LINE
  5
281
330
8F
100
AcDbEntity
  8
0
  6
Continuous
 62
     7
100
AcDbLine
 10
26.07115242271129
 20
78.74999949708118
 30
0.0
 11
26.87500000000394
 21
81.74999949708135
 31
0.0
  0
LINE
  5
282
330
8F
100
AcDbEntity
  8
1
  6
DOT_CENTER
 62
     2
100
AcDbLine
 10
24.37500000000466
 20
78.74999949708075
 30
0.0
 11
24.37500000000394
 21
81.74999949708075
 31
0.0
  0
ENDBLK
  5
91
330
8F
100
AcDbEntity
  8
0
100
AcDbBlockEnd
  0
BLOCK
  5
94
330
92
100
AcDbEntity
  8
0
100
AcDbBlockBegin
  2
Rckans1
 70
     0
 10
20.87499999999648
 20
93.50000000000901
 30
0.0
  3
Rckans1
  1

  0
INSERT
  5
93
330
92
100
AcDbEntity
  8
0
100
AcDbBlockReference
  2
CES_STPG_GY_2ASI_RR-select__3
 10
12.37499999999913
 20
78.74999949708035
 30
0.0
  0
MTEXT
  5
283
330
92
100
AcDbEntity
  8
1
 62
     6
100
AcDbMText
 10
20.87500000000154
 20
76.24999949708035
 30
0.0
 40
2.5
 41
0.0
 71
     2
 72
     1
  1
 
  7
CONVERTER_11
 73
     1
 44
1.32052821128451
  0
ENDBLK
  5
95
330
92
100
AcDbEntity
  8
0
100
AcDbBlockEnd
  0
BLOCK
  5
97
330
96
100
AcDbEntity
  8
0
100
AcDbBlockBegin
  2
CES_STPG_GY_2ASI_RR-select__4
 70
     0
 10
-24.36794249291467
 20
78.74999949708968
 30
0.0
  3
CES_STPG_GY_2ASI_RR-select__4
  1

  0
LINE
  5
284
330
96
100
AcDbEntity
  8
0
  6
Continuous
 62
     7
100
AcDbLine
 10
-9.61794249291465
 20
88.999999497092
 30
0.0
 11
-9.11794249291465
 21
90.999999497092
 31
0.0
  0
LINE
  5
285
330
96
100
AcDbEntity
  8
0
  6
Continuous
 62
     7
100
AcDbLine
 10
-9.11794249291465
 20
92.99999949709203
 30
0.0
 11
-10.11794249291465
 21
96.99999949709203
 31
0.0
  0
LINE
  5
286
330
96
100
AcDbEntity
  8
0
  6
Continuous
 62
     7
100
AcDbLine
 10
-10.06409491562132
 20
78.74999949708968
 30
0.0
 11
-10.86794249291469
 21
81.74999949708965
 31
0.0
  0
LINE
  5
287
330
96
100
AcDbEntity
  8
0
  6
Continuous
 62
     7
100
AcDbLine
 10
-4.36794249291468
 20
108.2499994970909
 30
0.0
 11
-23.86794249291468
 21
108.2499994970909
 31
0.0
  0
LINE
  5
288
330
96
100
AcDbEntity
  8
0
  6
Continuous
 62
     7
100
AcDbLine
 10
-24.36794249291467
 20
102.2499994970895
 30
0.0
 11
-23.86794249291467
 21
102.2499994970896
 31
0.0
  0
LINE
  5
289
330
96
100
AcDbEntity
  8
0
  6
Continuous
 62
     7
100
AcDbLine
 10
-23.86794249291467
 20
102.2499994970896
 30
0.0
 11
-23.86794249291468
 21
81.74999949709084
 31
0.0
  0
LINE
  5
28A
330
96
100
AcDbEntity
  8
0
  6
Continuous
 62
     7
100
AcDbLine
 10
-23.86794249291468
 20
108.2499994970909
 30
0.0
 11
-23.86794249291467
 21
102.2499994970896
 31
0.0
  0
LINE
  5
28B
330
96
100
AcDbEntity
  8
0
  6
Continuous
 62
     7
100
AcDbLine
 10
-24.36794249291467
 20
81.74999949708939
 30
0.0
 11
-24.36794249291467
 21
102.2499994970895
 31
0.0
  0
LINE
  5
28C
330
96
100
AcDbEntity
  8
0
  6
Continuous
 62
     7
100
AcDbLine
 10
-24.36794249291467
 20
81.74999949708939
 30
0.0
 11
-23.86794249291468
 21
81.74999949709084
 31
0.0
  0
LINE
  5
28D
330
96
100
AcDbEntity
  8
0
  6
Continuous
 62
     7
100
AcDbLine
 10
-9.11794249291465
 20
90.999999497092
 30
0.0
 11
-19.11794249291465
 21
90.99999949709203
 31
0.0
  0
LINE
  5
28E
330
96
100
AcDbEntity
  8
0
  6
Continuous
 62
     7
100
AcDbLine
 10
-19.11794249291464
 20
92.99999949709203
 30
0.0
 11
-9.11794249291465
 21
92.99999949709203
 31
0.0
  0
LINE
  5
28F
330
96
100
AcDbEntity
  8
0
  6
Continuous
 62
     7
100
AcDbLine
 10
-10.06409491562132
 20
78.74999949708968
 30
0.0
 11
-6.67179007020806
 21
78.74999949708968
 31
0.0
  0
LINE
  5
290
330
96
100
AcDbEntity
  8
0
  6
Continuous
 62
     7
100
AcDbLine
 10
-11.61794249291465
 20
86.999999497092
 30
0.0
 11
-11.11794249291465
 21
88.999999497092
 31
0.0
  0
LINE
  5
291
330
96
100
AcDbEntity
  8
0
  6
Continuous
 62
     7
100
AcDbLine
 10
-6.67179007020806
 20
78.74999949708968
 30
0.0
 11
-5.86794249291469
 21
81.74999949708965
 31
0.0
  0
LINE
  5
292
330
96
100
AcDbEntity
  8
0
  6
Continuous
 62
     7
100
AcDbLine
 10
-5.86794249291469
 20
81.74999949708965
 30
0.0
 11
-10.86794249291469
 21
81.74999949708965
 31
0.0
  0
LINE
  5
293
330
96
100
AcDbEntity
  8
0
  6
Continuous
 62
     7
100
AcDbLine
 10
-4.36794249291468
 20
81.74999949709084
 30
0.0
 11
-5.86794249291469
 21
81.74999949708965
 31
0.0
  0
LINE
  5
294
330
96
100
AcDbEntity
  8
0
  6
Continuous
 62
     7
100
AcDbLine
 10
-18.11794249291465
 20
86.999999497092
 30
0.0
 11
-11.61794249291465
 21
86.999999497092
 31
0.0
  0
LINE
  5
295
330
96
100
AcDbEntity
  8
0
  6
Continuous
 62
     7
100
AcDbLine
 10
-10.86794249291469
 20
81.74999949708965
 30
0.0
 11
-23.86794249291468
 21
81.74999949709084
 31
0.0
  0
LINE
  5
296
330
96
100
AcDbEntity
  8
0
  6
Continuous
 62
     7
100
AcDbLine
 10
-11.11794249291465
 20
88.999999497092
 30
0.0
 11
-9.61794249291465
 21
88.999999497092
 31
0.0
  0
LINE
  5
297
330
96
100
AcDbEntity
  8
0
  6
Continuous
 62
     7
100
AcDbLine
 10
-10.11794249291465
 20
96.99999949709203
 30
0.0
 11
-16.61794249291465
 21
96.99999949709203
 31
0.0
  0
LINE
  5
298
330
96
100
AcDbEntity
  8
0
  6
Continuous
 62
     7
100
AcDbLine
 10
-3.86794249291467
 20
102.2499994970875
 30
0.0
 11
-3.86794249291467
 21
81.74999949708743
 31
0.0
  0
LINE
  5
299
330
96
100
AcDbEntity
  8
0
  6
Continuous
 62
     7
100
AcDbLine
 10
-4.36794249291468
 20
102.2499994970876
 30
0.0
 11
-3.86794249291467
 21
102.2499994970875
 31
0.0
  0
LINE
  5
29A
330
96
100
AcDbEntity
  8
0
  6
Continuous
 62
     7
100
AcDbLine
 10
-4.36794249291468
 20
102.2499994970876
 30
0.0
 11
-4.36794249291468
 21
108.2499994970909
 31
0.0
  0
LINE
  5
29B
330
96
100
AcDbEntity
  8
0
  6
Continuous
 62
     7
100
AcDbLine
 10
-4.36794249291468
 20
81.74999949709084
 30
0.0
 11
-3.86794249291467
 21
81.74999949708743
 31
0.0
  0
LINE
  5
29C
330
96
100
AcDbEntity
  8
0
  6
Continuous
 62
     7
100
AcDbLine
 10
-4.36794249291468
 20
81.74999949709084
 30
0.0
 11
-4.36794249291468
 21
102.2499994970876
 31
0.0
  0
LINE
  5
29D
330
96
100
AcDbEntity
  8
0
  6
Continuous
 62
     7
100
AcDbLine
 10
-19.11794249291465
 20
90.99999949709203
 30
0.0
 11
-18.11794249291465
 21
86.999999497092
 31
0.0
  0
LINE
  5
29E
330
96
100
AcDbEntity
  8
0
  6
Continuous
 62
     7
100
AcDbLine
 10
-18.61794249291464
 20
94.99999949709203
 30
0.0
 11
-19.11794249291464
 21
92.99999949709203
 31
0.0
  0
LINE
  5
29F
330
96
100
AcDbEntity
  8
0
  6
Continuous
 62
     7
100
AcDbLine
 10
-17.11794249291465
 20
94.99999949709203
 30
0.0
 11
-18.61794249291464
 21
94.99999949709203
 31
0.0
  0
LINE
  5
2A0
330
96
100
AcDbEntity
  8
0
  6
Continuous
 62
     7
100
AcDbLine
 10
-16.61794249291465
 20
96.99999949709203
 30
0.0
 11
-17.11794249291465
 21
94.99999949709203
 31
0.0
  0
LINE
  5
2A1
330
96
100
AcDbEntity
  8
1
  6
DOT_CENTER
 62
     2
100
AcDbLine
 10
-17.77794249291467
 20
104.7499994970904
 30
0.0
 11
-21.95794249291467
 21
104.7499994970904
 31
0.0
  0
LINE
  5
2A2
330
96
100
AcDbEntity
  8
1
  6
DOT_CENTER
 62
     2
100
AcDbLine
 10
-19.86794249291467
 20
106.8399994970905
 30
0.0
 11
-19.86794249291467
 21
102.6599994970904
 31
0.0
  0
LINE
  5
2A3
330
96
100
AcDbEntity
  8
1
  6
DOT_CENTER
 62
     2
100
AcDbLine
 10
-6.27794249291467
 20
104.7499994970913
 30
0.0
 11
-10.45794249291467
 21
104.7499994970913
 31
0.0
  0
LINE
  5
2A4
330
96
100
AcDbEntity
  8
1
  6
DOT_CENTER
 62
     2
100
AcDbLine
 10
-8.36794249291467
 20
106.8399994970913
 30
0.0
 11
-8.36794249291467
 21
102.6599994970913
 31
0.0
  0
LINE
  5
2A5
330
96
100
AcDbEntity
  8
1
  6
DOT_CENTER
 62
     2
100
AcDbLine
 10
-8.36794249291469
 20
78.74999949708968
 30
0.0
 11
-8.36794249291469
 21
81.74999949708965
 31
0.0
  0
CIRCLE
  5
2A6
330
96
100
AcDbEntity
  8
0
  6
Continuous
 62
     7
100
AcDbCircle
 10
-8.36794249291467
 20
104.7499994970913
 30
0.0
 40
1.900000000000002
  0
CIRCLE
  5
2A7
330
96
100
AcDbEntity
  8
0
  6
Continuous
 62
     7
100
AcDbCircle
 10
-19.86794249291467
 20
104.7499994970904
 30
0.0
 40
1.900000000000002
  0
ENDBLK
  5
98
330
96
100
AcDbEntity
  8
0
100
AcDbBlockEnd
  0
BLOCK
  5
9B
330
99
100
AcDbEntity
  8
0
100
AcDbBlockBegin
  2
SA_Links1
 70
     0
 10
-14.11794340039695
 20
93.5000000000179
 30
0.0
  3
SA_Links1
  1

  0
INSERT
  5
9A
330
99
100
AcDbEntity
  8
0
100
AcDbBlockReference
  2
CES_STPG_GY_2ASI_RR-select__4
 10
-24.36794249291467
 20
78.74999949708968
 30
0.0
  0
MTEXT
  5
2A8
330
99
100
AcDbEntity
  8
1
 62
     6
100
AcDbMText
 10
-14.11794249291466
 20
64.66344339044899
 30
0.0
 40
2.5
 41
0.0
 71
     2
 72
     1
  1
 
  7
CONVERTER_11
 73
     1
 44
1.32052821128451
  0
ENDBLK
  5
9C
330
99
100
AcDbEntity
  8
0
100
AcDbBlockEnd
  0
BLOCK
  5
9E
330
9D
100
AcDbEntity
  8
0
100
AcDbBlockBegin
  2
CES_STPG_GY_2ASI_RR-select__5
 70
     0
 10
-102.5000009074753
 20
78.74999949708078
 30
0.0
  3
CES_STPG_GY_2ASI_RR-select__5
  1

  0
LINE
  5
2A9
330
9D
100
AcDbEntity
  8
0
  6
Continuous
 62
     7
100
AcDbLine
 10
-102.0000009074753
 20
102.249999497078
 30
0.0
 11
-102.0000009074753
 21
81.74999949707791
 31
0.0
  0
LINE
  5
2AA
330
9D
100
AcDbEntity
  8
0
  6
Continuous
 62
     7
100
AcDbLine
 10
-102.0000009074753
 20
102.249999497078
 30
0.0
 11
-102.0000009074753
 21
108.249999497081
 31
0.0
  0
LINE
  5
2AB
330
9D
100
AcDbEntity
  8
0
  6
Continuous
 62
     7
100
AcDbLine
 10
-102.5000009074753
 20
102.2499994970786
 30
0.0
 11
-102.0000009074753
 21
102.249999497078
 31
0.0
  0
LINE
  5
2AC
330
9D
100
AcDbEntity
  8
0
  6
Continuous
 62
     7
100
AcDbLine
 10
-102.5000009074753
 20
102.2499994970786
 30
0.0
 11
-102.5000009074753
 21
81.74999949707853
 31
0.0
  0
LINE
  5
2AD
330
9D
100
AcDbEntity
  8
0
  6
Continuous
 62
     7
100
AcDbLine
 10
-102.5000009074753
 20
81.74999949707853
 30
0.0
 11
-102.0000009074753
 21
81.74999949707791
 31
0.0
  0
LINE
  5
2AE
330
9D
100
AcDbEntity
  8
0
  6
Continuous
 62
     7
100
AcDbLine
 10
-87.25000090747528
 20
92.99999949707907
 30
0.0
 11
-97.25000090747528
 21
92.99999949707907
 31
0.0
  0
LINE
  5
2AF
330
9D
100
AcDbEntity
  8
0
  6
Continuous
 62
     7
100
AcDbLine
 10
-95.25349298442427
 20
106.7534915740302
 30
0.0
 11
-95.11031782950812
 21
106.6103164191131
 31
0.0
  0
LINE
  5
2B0
330
9D
100
AcDbEntity
  8
0
  6
Continuous
 62
     7
100
AcDbLine
 10
-89.2465088305261
 20
104.2465074201318
 30
0.0
 11
-89.38968398544228
 21
104.389682575047
 31
0.0
  0
LINE
  5
2B1
330
9D
100
AcDbEntity
  8
0
  6
Continuous
 62
     7
100
AcDbLine
 10
-89.24650883052593
 20
106.7534915740302
 30
0.0
 11
-95.25349298442427
 21
106.7534915740302
 31
0.0
  0
LINE
  5
2B2
330
9D
100
AcDbEntity
  8
0
  6
Continuous
 62
     7
100
AcDbLine
 10
-89.3896839854421
 20
106.6103164191131
 30
0.0
 11
-89.38968398544228
 21
104.389682575047
 31
0.0
  0
LINE
  5
2B3
330
9D
100
AcDbEntity
  8
0
  6
Continuous
 62
     7
100
AcDbLine
 10
-95.11031782950826
 20
104.389682575047
 30
0.0
 11
-95.11031782950812
 21
106.6103164191131
 31
0.0
  0
LINE
  5
2B4
330
9D
100
AcDbEntity
  8
0
  6
Continuous
 62
     7
100
AcDbLine
 10
-93.75349298442458
 20
102.2499994970811
 30
0.0
 11
-93.6103178295084
 21
102.2499994970801
 31
0.0
  0
LINE
  5
2B5
330
9D
100
AcDbEntity
  8
0
  6
Continuous
 62
     7
100
AcDbLine
 10
-93.6103178295084
 20
102.2499994970801
 30
0.0
 11
-93.61031782950826
 21
104.389682575047
 31
0.0
  0
LINE
  5
2B6
330
9D
100
AcDbEntity
  8
0
  6
Continuous
 62
     7
100
AcDbLine
 10
-89.25000090747528
 20
94.99999949707907
 30
0.0
 11
-89.75000090747528
 21
96.99999949707907
 31
0.0
  0
LINE
  5
2B7
330
9D
100
AcDbEntity
  8
0
  6
Continuous
 62
     7
100
AcDbLine
 10
-95.25349298442427
 20
106.7534915740302
 30
0.0
 11
-95.25349298442444
 21
104.2465074201318
 31
0.0
  0
LINE
  5
2B8
330
9D
100
AcDbEntity
  8
0
  6
Continuous
 62
     7
100
AcDbLine
 10
-89.24650883052593
 20
106.7534915740302
 30
0.0
 11
-89.3896839854421
 21
106.6103164191131
 31
0.0
  0
LINE
  5
2B9
330
9D
100
AcDbEntity
  8
0
  6
Continuous
 62
     7
100
AcDbLine
 10
-96.25000090747528
 20
96.99999949707907
 30
0.0
 11
-89.75000090747528
 21
96.99999949707907
 31
0.0
  0
LINE
  5
2BA
330
9D
100
AcDbEntity
  8
0
  6
Continuous
 62
     7
100
AcDbLine
 10
-96.25000090747528
 20
96.99999949707907
 30
0.0
 11
-97.25000090747528
 21
92.99999949707907
 31
0.0
  0
LINE
  5
2BB
330
9D
100
AcDbEntity
  8
0
  6
Continuous
 62
     7
100
AcDbLine
 10
-99.69615333018189
 20
78.74999949708078
 30
0.0
 11
-96.30384848476862
 21
78.74999949708078
 31
0.0
  0
LINE
  5
2BC
330
9D
100
AcDbEntity
  8
0
  6
Continuous
 62
     7
100
AcDbLine
 10
-82.50000090747525
 20
81.74999949707791
 30
0.0
 11
-82.00000090747528
 21
81.74999949708052
 31
0.0
  0
LINE
  5
2BD
330
9D
100
AcDbEntity
  8
0
  6
Continuous
 62
     7
100
AcDbLine
 10
-100.5000009074753
 20
81.74999949708078
 30
0.0
 11
-102.0000009074753
 21
81.74999949707791
 31
0.0
  0
LINE
  5
2BE
330
9D
100
AcDbEntity
  8
0
  6
Continuous
 62
     7
100
AcDbLine
 10
-95.50000090747525
 20
81.74999949708078
 30
0.0
 11
-100.5000009074753
 21
81.74999949708078
 31
0.0
  0
LINE
  5
2BF
330
9D
100
AcDbEntity
  8
0
  6
Continuous
 62
     7
100
AcDbLine
 10
-82.50000090747525
 20
81.74999949707791
 30
0.0
 11
-95.50000090747525
 21
81.74999949708078
 31
0.0
  0
LINE
  5
2C0
330
9D
100
AcDbEntity
  8
0
  6
Continuous
 62
     7
100
AcDbLine
 10
-99.69615333018189
 20
78.74999949708078
 30
0.0
 11
-100.5000009074753
 21
81.74999949708078
 31
0.0
  0
LINE
  5
2C1
330
9D
100
AcDbEntity
  8
0
  6
Continuous
 62
     7
100
AcDbLine
 10
-96.30384848476862
 20
78.74999949708078
 30
0.0
 11
-95.50000090747525
 21
81.74999949708078
 31
0.0
  0
LINE
  5
2C2
330
9D
100
AcDbEntity
  8
0
  6
Continuous
 62
     7
100
AcDbLine
 10
-82.50000090747525
 20
102.249999497078
 30
0.0
 11
-82.00000090747528
 21
102.2499994970806
 31
0.0
  0
LINE
  5
2C3
330
9D
100
AcDbEntity
  8
0
  6
Continuous
 62
     7
100
AcDbLine
 10
-82.50000090747525
 20
81.74999949707791
 30
0.0
 11
-82.50000090747525
 21
102.249999497078
 31
0.0
  0
LINE
  5
2C4
330
9D
100
AcDbEntity
  8
0
  6
Continuous
 62
     7
100
AcDbLine
 10
-82.50000090747525
 20
108.249999497081
 30
0.0
 11
-82.50000090747525
 21
102.249999497078
 31
0.0
  0
LINE
  5
2C5
330
9D
100
AcDbEntity
  8
0
  6
Continuous
 62
     7
100
AcDbLine
 10
-82.00000090747528
 20
81.74999949708052
 30
0.0
 11
-82.00000090747528
 21
102.2499994970806
 31
0.0
  0
LINE
  5
2C6
330
9D
100
AcDbEntity
  8
0
  6
Continuous
 62
     7
100
AcDbLine
 10
-89.25000090747528
 20
94.99999949707907
 30
0.0
 11
-87.75000090747528
 21
94.99999949707907
 31
0.0
  0
LINE
  5
2C7
330
9D
100
AcDbEntity
  8
0
  6
Continuous
 62
     7
100
AcDbLine
 10
-95.25000090747528
 20
88.99999949707907
 30
0.0
 11
-96.75000090747528
 21
88.99999949707907
 31
0.0
  0
LINE
  5
2C8
330
9D
100
AcDbEntity
  8
0
  6
Continuous
 62
     7
100
AcDbLine
 10
-88.25000090747528
 20
86.99999949707907
 30
0.0
 11
-94.75000090747528
 21
86.99999949707907
 31
0.0
  0
LINE
  5
2C9
330
9D
100
AcDbEntity
  8
0
  6
Continuous
 62
     7
100
AcDbLine
 10
-97.25000090747528
 20
90.99999949707907
 30
0.0
 11
-96.75000090747528
 21
88.99999949707907
 31
0.0
  0
LINE
  5
2CA
330
9D
100
AcDbEntity
  8
0
  6
Continuous
 62
     7
100
AcDbLine
 10
-97.25000090747528
 20
90.99999949707907
 30
0.0
 11
-87.25000090747528
 21
90.99999949707907
 31
0.0
  0
LINE
  5
2CB
330
9D
100
AcDbEntity
  8
0
  6
Continuous
 62
     7
100
AcDbLine
 10
-95.25000090747528
 20
88.99999949707907
 30
0.0
 11
-94.75000090747528
 21
86.99999949707907
 31
0.0
  0
LINE
  5
2CC
330
9D
100
AcDbEntity
  8
0
  6
Continuous
 62
     7
100
AcDbLine
 10
-87.25000090747528
 20
92.99999949707907
 30
0.0
 11
-87.75000090747528
 21
94.99999949707907
 31
0.0
  0
LINE
  5
2CD
330
9D
100
AcDbEntity
  8
0
  6
Continuous
 62
     7
100
AcDbLine
 10
-88.25000090747528
 20
86.99999949707907
 30
0.0
 11
-87.25000090747528
 21
90.99999949707907
 31
0.0
  0
LINE
  5
2CE
330
9D
100
AcDbEntity
  8
0
  6
Continuous
 62
     7
100
AcDbLine
 10
-89.2465088305261
 20
104.2465074201318
 30
0.0
 11
-89.24650883052593
 21
106.7534915740302
 31
0.0
  0
LINE
  5
2CF
330
9D
100
AcDbEntity
  8
0
  6
Continuous
 62
     7
100
AcDbLine
 10
-95.11031782950812
 20
106.6103164191131
 30
0.0
 11
-89.3896839854421
 21
106.6103164191131
 31
0.0
  0
LINE
  5
2D0
330
9D
100
AcDbEntity
  8
0
  6
Continuous
 62
     7
100
AcDbLine
 10
-102.0000009074753
 20
108.249999497081
 30
0.0
 11
-82.50000090747525
 21
108.249999497081
 31
0.0
  0
LINE
  5
2D1
330
9D
100
AcDbEntity
  8
0
  6
Continuous
 62
     7
100
AcDbLine
 10
-89.38968398544228
 20
104.389682575047
 30
0.0
 11
-90.88968398544225
 21
104.389682575047
 31
0.0
  0
LINE
  5
2D2
330
9D
100
AcDbEntity
  8
0
  6
Continuous
 62
     7
100
AcDbLine
 10
-90.88968398544225
 20
104.389682575047
 30
0.0
 11
-90.88968398544242
 21
102.2499994970801
 31
0.0
  0
LINE
  5
2D3
330
9D
100
AcDbEntity
  8
0
  6
Continuous
 62
     7
100
AcDbLine
 10
-90.74650883052624
 20
102.2499994970811
 30
0.0
 11
-90.7465088305261
 21
104.2465074201318
 31
0.0
  0
LINE
  5
2D4
330
9D
100
AcDbEntity
  8
0
  6
Continuous
 62
     7
100
AcDbLine
 10
-90.7465088305261
 20
104.2465074201318
 30
0.0
 11
-89.2465088305261
 21
104.2465074201318
 31
0.0
  0
LINE
  5
2D5
330
9D
100
AcDbEntity
  8
0
  6
Continuous
 62
     7
100
AcDbLine
 10
-93.75349298442444
 20
104.2465074201318
 30
0.0
 11
-93.75349298442458
 21
102.2499994970811
 31
0.0
  0
LINE
  5
2D6
330
9D
100
AcDbEntity
  8
0
  6
Continuous
 62
     7
100
AcDbLine
 10
-93.61031782950826
 20
104.389682575047
 30
0.0
 11
-93.75349298442444
 21
104.2465074201318
 31
0.0
  0
LINE
  5
2D7
330
9D
100
AcDbEntity
  8
0
  6
Continuous
 62
     7
100
AcDbLine
 10
-95.25349298442444
 20
104.2465074201318
 30
0.0
 11
-93.75349298442444
 21
104.2465074201318
 31
0.0
  0
LINE
  5
2D8
330
9D
100
AcDbEntity
  8
0
  6
Continuous
 62
     7
100
AcDbLine
 10
-93.61031782950826
 20
104.389682575047
 30
0.0
 11
-95.11031782950826
 21
104.389682575047
 31
0.0
  0
LINE
  5
2D9
330
9D
100
AcDbEntity
  8
0
  6
Continuous
 62
     7
100
AcDbLine
 10
-90.88968398544242
 20
102.2499994970801
 30
0.0
 11
-90.74650883052624
 21
102.2499994970811
 31
0.0
  0
LINE
  5
2DA
330
9D
100
AcDbEntity
  8
0
  6
Continuous
 62
     7
100
AcDbLine
 10
-93.6103178295084
 20
102.2499994970801
 30
0.0
 11
-90.88968398544242
 21
102.2499994970801
 31
0.0
  0
LINE
  5
2DB
330
9D
100
AcDbEntity
  8
0
  6
Continuous
 62
     7
100
AcDbLine
 10
-102.0000009074753
 20
102.249999497078
 30
0.0
 11
-93.75349298442458
 21
102.2499994970811
 31
0.0
  0
LINE
  5
2DC
330
9D
100
AcDbEntity
  8
0
  6
Continuous
 62
     7
100
AcDbLine
 10
-90.74650883052624
 20
102.2499994970811
 30
0.0
 11
-82.50000090747525
 21
102.249999497078
 31
0.0
  0
LINE
  5
2DD
330
9D
100
AcDbEntity
  8
0
  6
Continuous
 62
     7
100
AcDbLine
 10
-95.25349298442444
 20
104.2465074201318
 30
0.0
 11
-95.11031782950826
 21
104.389682575047
 31
0.0
  0
LINE
  5
2DE
330
9D
100
AcDbEntity
  8
0
  6
Continuous
 62
     7
100
AcDbLine
 10
-90.88968398544225
 20
104.389682575047
 30
0.0
 11
-90.7465088305261
 21
104.2465074201318
 31
0.0
  0
LINE
  5
2DF
330
9D
100
AcDbEntity
  8
1
  6
DOT_CENTER
 62
     2
100
AcDbLine
 10
-84.41000090747528
 20
104.7499994970806
 30
0.0
 11
-88.59000090747523
 21
104.7499994970806
 31
0.0
  0
LINE
  5
2E0
330
9D
100
AcDbEntity
  8
1
  6
DOT_CENTER
 62
     2
100
AcDbLine
 10
-86.50000090747525
 20
106.8399994970806
 30
0.0
 11
-86.50000090747525
 21
102.6599994970806
 31
0.0
  0
LINE
  5
2E1
330
9D
100
AcDbEntity
  8
1
  6
DOT_CENTER
 62
     2
100
AcDbLine
 10
-95.91000090747528
 20
104.7499994970814
 30
0.0
 11
-100.0900009074752
 21
104.7499994970814
 31
0.0
  0
LINE
  5
2E2
330
9D
100
AcDbEntity
  8
1
  6
DOT_CENTER
 62
     2
100
AcDbLine
 10
-98.00000090747525
 20
106.8399994970814
 30
0.0
 11
-98.00000090747525
 21
102.6599994970815
 31
0.0
  0
LINE
  5
2E3
330
9D
100
AcDbEntity
  8
1
  6
DOT_CENTER
 62
     2
100
AcDbLine
 10
-98.00000090747525
 20
78.74999949708078
 30
0.0
 11
-98.00000090747525
 21
81.74999949708078
 31
0.0
  0
CIRCLE
  5
2E4
330
9D
100
AcDbEntity
  8
0
  6
Continuous
 62
     7
100
AcDbCircle
 10
-86.50000090747525
 20
104.7499994970806
 30
0.0
 40
1.899999999999977
  0
CIRCLE
  5
2E5
330
9D
100
AcDbEntity
  8
0
  6
Continuous
 62
     7
100
AcDbCircle
 10
-98.00000090747525
 20
104.7499994970814
 30
0.0
 40
1.899999999999977
  0
ENDBLK
  5
9F
330
9D
100
AcDbEntity
  8
0
100
AcDbBlockEnd
  0
BLOCK
  5
A2
330
A0
100
AcDbEntity
  8
0
100
AcDbBlockBegin
  2
SA_Rechts1
 70
     0
 10
-92.24999999999301
 20
93.50000000000901
 30
0.0
  3
SA_Rechts1
  1

  0
INSERT
  5
A1
330
A0
100
AcDbEntity
  8
0
100
AcDbBlockReference
  2
CES_STPG_GY_2ASI_RR-select__5
 10
-102.5000009074753
 20
78.74999949708078
 30
0.0
  0
MTEXT
  5
2E6
330
A0
100
AcDbEntity
  8
1
 62
     6
100
AcDbMText
 10
-92.25000090747528
 20
76.24999949708078
 30
0.0
 40
2.5
 41
0.0
 71
     2
 72
     1
  1
 
  7
CONVERTER_11
 73
     1
 44
1.32052821128451
  0
ENDBLK
  5
A3
330
A0
100
AcDbEntity
  8
0
100
AcDbBlockEnd
  0
BLOCK
  5
A5
330
A4
100
AcDbEntity
  8
0
100
AcDbBlockBegin
  2
CES_STPG_GY_2ASI_RR-select__6
 70
     0
 10
-58.37500000000406
 20
78.74999949708038
 30
0.0
  3
CES_STPG_GY_2ASI_RR-select__6
  1

  0
LINE
  5
2E7
330
A4
100
AcDbEntity
  8
0
  6
Continuous
 62
     7
100
AcDbLine
 10
-55.07115242271141
 20
78.74999949708118
 30
0.0
 11
-51.67884757729814
 21
78.74999949708038
 31
0.0
  0
LINE
  5
2E8
330
A4
100
AcDbEntity
  8
0
  6
Continuous
 62
     7
100
AcDbLine
 10
-41.37500000000416
 20
81.74999949707791
 30
0.0
 11
-43.52500000000403
 21
81.74999949707842
 31
0.0
  0
LINE
  5
2E9
330
A4
100
AcDbEntity
  8
0
  6
Continuous
 62
     7
100
AcDbLine
 10
-44.02500000000401
 20
81.74999949707853
 30
0.0
 11
-43.52500000000403
 21
81.74999949707842
 31
0.0
  0
LINE
  5
2EA
330
A4
100
AcDbEntity
  8
0
  6
Continuous
 62
     7
100
AcDbLine
 10
-51.67884757729814
 20
78.74999949708038
 30
0.0
 11
-50.87500000000406
 21
81.74999949708018
 31
0.0
  0
LINE
  5
2EB
330
A4
100
AcDbEntity
  8
0
  6
Continuous
 62
     7
100
AcDbLine
 10
-58.37500000000406
 20
81.74999949708194
 30
0.0
 11
-58.37499999999773
 21
108.249999497082
 31
0.0
  0
LINE
  5
2EC
330
A4
100
AcDbEntity
  8
0
  6
Continuous
 62
     7
100
AcDbLine
 10
-50.27499999999914
 20
102.2499994970801
 30
0.0
 11
-50.27499999999863
 21
104.389682575047
 31
0.0
  0
LINE
  5
2ED
330
A4
100
AcDbEntity
  8
0
  6
Continuous
 62
     7
100
AcDbLine
 10
-54.37499999999915
 20
102.2499994970811
 30
0.0
 11
-54.37499999999866
 21
104.2465074201318
 31
0.0
  0
LINE
  5
2EE
330
A4
100
AcDbEntity
  8
0
  6
Continuous
 62
     7
100
AcDbLine
 10
-50.27499999999863
 20
104.389682575047
 30
0.0
 11
-50.27499999999809
 21
106.610316419113
 31
0.0
  0
LINE
  5
2EF
330
A4
100
AcDbEntity
  8
0
  6
Continuous
 62
     7
100
AcDbLine
 10
-54.37499999999807
 20
106.7534915740302
 30
0.0
 11
-54.3749999999977
 21
108.249999497081
 31
0.0
  0
LINE
  5
2F0
330
A4
100
AcDbEntity
  8
0
  6
Continuous
 62
     7
100
AcDbLine
 10
-58.37499999999773
 20
108.249999497082
 30
0.0
 11
-54.3749999999977
 21
108.249999497081
 31
0.0
  0
LINE
  5
2F1
330
A4
100
AcDbEntity
  8
0
  6
Continuous
 62
     7
100
AcDbLine
 10
-54.37499999999866
 20
104.2465074201318
 30
0.0
 11
-50.27499999999863
 21
104.389682575047
 31
0.0
  0
LINE
  5
2F2
330
A4
100
AcDbEntity
  8
0
  6
Continuous
 62
     7
100
AcDbLine
 10
-54.37499999999866
 20
104.2465074201318
 30
0.0
 11
-54.37499999999807
 21
106.7534915740302
 31
0.0
  0
LINE
  5
2F3
330
A4
100
AcDbEntity
  8
0
  6
Continuous
 62
     7
100
AcDbLine
 10
-44.52499999999917
 20
102.2499994970787
 30
0.0
 11
-44.02499999999913
 21
102.2499994970786
 31
0.0
  0
LINE
  5
2F4
330
A4
100
AcDbEntity
  8
0
  6
Continuous
 62
     7
100
AcDbLine
 10
-44.52500000000406
 20
81.74999949707865
 30
0.0
 11
-44.02500000000401
 21
81.74999949707853
 31
0.0
  0
LINE
  5
2F5
330
A4
100
AcDbEntity
  8
0
  6
Continuous
 62
     7
100
AcDbLine
 10
-44.02499999999913
 20
102.2499994970786
 30
0.0
 11
-43.52499999999914
 21
102.2499994970785
 31
0.0
  0
LINE
  5
2F6
330
A4
100
AcDbEntity
  8
0
  6
Continuous
 62
     7
100
AcDbLine
 10
-44.02499999999913
 20
102.2499994970786
 30
0.0
 11
-44.02500000000401
 21
81.74999949707853
 31
0.0
  0
LINE
  5
2F7
330
A4
100
AcDbEntity
  8
0
  6
Continuous
 62
     7
100
AcDbLine
 10
-44.52500000000406
 20
81.74999949707865
 30
0.0
 11
-44.52499999999917
 21
102.2499994970787
 31
0.0
  0
LINE
  5
2F8
330
A4
100
AcDbEntity
  8
0
  6
Continuous
 62
     7
100
AcDbLine
 10
-41.37499999999926
 20
102.249999497078
 30
0.0
 11
-41.37500000000416
 21
81.74999949707791
 31
0.0
  0
LINE
  5
2F9
330
A4
100
AcDbEntity
  8
0
  6
Continuous
 62
     7
100
AcDbLine
 10
-43.52499999999914
 20
102.2499994970785
 30
0.0
 11
-43.52500000000403
 21
81.74999949707842
 31
0.0
  0
LINE
  5
2FA
330
A4
100
AcDbEntity
  8
0
  6
Continuous
 62
     7
100
AcDbLine
 10
-50.87500000000406
 20
81.74999949708018
 30
0.0
 11
-55.87500000000406
 21
81.74999949708138
 31
0.0
  0
LINE
  5
2FB
330
A4
100
AcDbEntity
  8
0
  6
Continuous
 62
     7
100
AcDbLine
 10
-55.87500000000406
 20
81.74999949708138
 30
0.0
 11
-58.37500000000406
 21
81.74999949708194
 31
0.0
  0
LINE
  5
2FC
330
A4
100
AcDbEntity
  8
0
  6
Continuous
 62
     7
100
AcDbLine
 10
-44.52500000000406
 20
81.74999949707865
 30
0.0
 11
-50.87500000000406
 21
81.74999949708018
 31
0.0
  0
LINE
  5
2FD
330
A4
100
AcDbEntity
  8
0
  6
Continuous
 62
     7
100
AcDbLine
 10
-50.27499999999914
 20
102.2499994970801
 30
0.0
 11
-54.37499999999915
 21
102.2499994970811
 31
0.0
  0
LINE
  5
2FE
330
A4
100
AcDbEntity
  8
0
  6
Continuous
 62
     7
100
AcDbLine
 10
-41.37499999999926
 20
102.249999497078
 30
0.0
 11
-43.52499999999914
 21
102.2499994970785
 31
0.0
  0
LINE
  5
2FF
330
A4
100
AcDbEntity
  8
0
  6
Continuous
 62
     7
100
AcDbLine
 10
-44.52499999999917
 20
102.2499994970787
 30
0.0
 11
-50.27499999999914
 21
102.2499994970801
 31
0.0
  0
LINE
  5
300
330
A4
100
AcDbEntity
  8
0
  6
Continuous
 62
     7
100
AcDbLine
 10
-54.37499999999807
 20
106.7534915740302
 30
0.0
 11
-50.27499999999809
 21
106.610316419113
 31
0.0
  0
LINE
  5
301
330
A4
100
AcDbEntity
  8
0
  6
Continuous
 62
     7
100
AcDbLine
 10
-55.07115242271141
 20
78.74999949708118
 30
0.0
 11
-55.87500000000406
 21
81.74999949708138
 31
0.0
  0
LINE
  5
302
330
A4
100
AcDbEntity
  8
1
  6
DOT_CENTER
 62
     2
100
AcDbLine
 10
-53.37500000000478
 20
78.74999949708078
 30
0.0
 11
-53.37500000000406
 21
81.74999949708078
 31
0.0
  0
ENDBLK
  5
A6
330
A4
100
AcDbEntity
  8
0
100
AcDbBlockEnd
  0
BLOCK
  5
A9
330
A7
100
AcDbEntity
  8
0
100
AcDbBlockBegin
  2
Vordans1
 70
     0
 10
-49.8749999999966
 20
93.50000000000901
 30
0.0
  3
Vordans1
  1

  0
INSERT
  5
A8
330
A7
100
AcDbEntity
  8
0
100
AcDbBlockReference
  2
CES_STPG_GY_2ASI_RR-select__6
 10
-58.37500000000406
 20
78.74999949708038
 30
0.0
  0
MTEXT
  5
303
330
A7
100
AcDbEntity
  8
1
 62
     6
100
AcDbMText
 10
-43.21972494688356
 20
64.663443390449
 30
0.0
 40
2.5
 41
0.0
 71
     2
 72
     1
  1
 
  7
CONVERTER_11
 73
     1
 44
1.32052821128451
  0
DIMENSION
  5
30E
330
A7
100
AcDbEntity
  8
1
100
AcDbDimension
  2
*D18
 10
-65.56444989376303
 20
78.74999949708032
 30
0.0
 11
-67.52694989376303
 21
93.72282156526899
 31
0.0
 70
    32
  1
<>
 71
     5
 42
-1.0
 53
90.0
  3
ME10_DIM_11
100
AcDbAlignedDimension
 13
-58.37499999999773
 23
108.249999497082
 33
0.0
 14
-51.67884757729814
 24
78.74999949708038
 34
0.0
 50
90.0
100
AcDbRotatedDimension
  0
DIMENSION
  5
319
330
A7
100
AcDbEntity
  8
1
100
AcDbDimension
  2
*D19
 10
-41.37500000000419
 20
72.163443390449
 30
0.0
 11
-49.87499999999668
 21
74.038443390449
 31
0.0
 70
    32
  1
<>
 71
     5
 42
-1.0
 53
0.00013888888889
  3
ME10_DIM_12
100
AcDbAlignedDimension
 13
-58.37500000000406
 23
81.74999949708194
 33
0.0
 14
-41.37500000000416
 24
81.74999949707791
 34
0.0
100
AcDbRotatedDimension
  0
ENDBLK
  5
AA
330
A7
100
AcDbEntity
  8
0
100
AcDbBlockEnd
  0
BLOCK
  5
B3
330
AB
100
AcDbEntity
  8
0
100
AcDbBlockBegin
  2
1
 70
     0
 10
0.0
 20
0.0
 30
0.0
  3
1
  1

  0
INSERT
  5
AC
330
AB
100
AcDbEntity
  8
0
100
AcDbBlockReference
  2
A3I_CS
 10
130.2431072854761
 20
-47.79362749508124
 30
0.0
  0
INSERT
  5
AD
330
AB
100
AcDbEntity
  8
0
100
AcDbBlockReference
  2
AllgSicht1
 10
89.99999999999974
 20
33.00000000002
 30
0.0
 41
2.0
 42
2.0
 43
2.0
  0
INSERT
  5
AE
330
AB
100
AcDbEntity
  8
0
100
AcDbBlockReference
  2
Drfsicht1
 10
-99.7499999999932
 20
95.99999904632983
 30
0.0
 41
2.0
 42
2.0
 43
2.0
  0
INSERT
  5
AF
330
AB
100
AcDbEntity
  8
0
100
AcDbBlockReference
  2
Rckans1
 10
41.74999999999296
 20
187.000000000018
 30
0.0
 41
2.0
 42
2.0
 43
2.0
  0
INSERT
  5
B0
330
AB
100
AcDbEntity
  8
0
100
AcDbBlockReference
  2
SA_Links1
 10
-28.2358868007939
 20
187.0000000000358
 30
0.0
 41
2.0
 42
2.0
 43
2.0
  0
INSERT
  5
B1
330
AB
100
AcDbEntity
  8
0
100
AcDbBlockReference
  2
SA_Rechts1
 10
-184.499999999986
 20
187.000000000018
 30
0.0
 41
2.0
 42
2.0
 43
2.0
  0
INSERT
  5
B2
330
AB
100
AcDbEntity
  8
0
100
AcDbBlockReference
  2
Vordans1
 10
-99.7499999999932
 20
187.000000000018
 30
0.0
 41
2.0
 42
2.0
 43
2.0
  0
ENDBLK
  5
B4
330
AB
100
AcDbEntity
  8
0
100
AcDbBlockEnd
  0
BLOCK
  5
262
330
25B
100
AcDbEntity
  8
0
100
AcDbBlockBegin
  2
*D17
 70
     1
 10
0.0
 20
0.0
 30
0.0
  3
*D17
  1

  0
LINE
  5
25C
330
25B
100
AcDbEntity
  8
1
  6
Continuous
 62
     2
100
AcDbLine
 10
-65.56444989376303
 20
58.24999861568263
 30
0.0
 11
-65.56444989376303
 21
37.74999861568263
 31
0.0
  0
LINE
  5
25D
330
25B
100
AcDbEntity
  8
1
  6
Continuous
 62
     2
100
AcDbLine
 10
-52.32499999999914
 20
58.24999861568263
 30
0.0
 11
-66.31444989376303
 21
58.24999861568263
 31
0.0
  0
LINE
  5
25E
330
25B
100
AcDbEntity
  8
1
  6
Continuous
 62
     2
100
AcDbLine
 10
-44.02499999999912
 20
37.74999861568263
 30
0.0
 11
-66.31444989376303
 21
37.74999861568263
 31
0.0
  0
SOLID
  5
25F
330
25B
100
AcDbEntity
  8
1
 62
     2
100
AcDbTrace
 10
-65.33405802298509
 20
56.49999861568263
 30
0.0
 11
-65.79484176454096
 21
56.49999861568263
 31
0.0
 12
-65.56444989376303
 22
58.24999861568263
 32
0.0
 13
-65.56444989376303
 23
58.24999861568263
 33
0.0
  0
SOLID
  5
260
330
25B
100
AcDbEntity
  8
1
 62
     2
100
AcDbTrace
 10
-65.79484176454096
 20
39.49999861568263
 30
0.0
 11
-65.33405802298509
 21
39.49999861568263
 31
0.0
 12
-65.56444989376303
 22
37.74999861568263
 32
0.0
 13
-65.56444989376303
 23
37.74999861568263
 33
0.0
  0
MTEXT
  5
261
330
25B
100
AcDbEntity
  8
1
 62
     3
100
AcDbMText
 10
-66.48944989376304
 20
45.7489319209454
 30
0.0
 40
1.75
 41
0.0
 71
     7
 72
     1
  1
20,5
  7
CONVERTER_11
 11
0.0
 21
1.0
 31
0.0
 73
     1
 44
0.60024009603842
  0
ENDBLK
  5
263
330
25B
100
AcDbEntity
  8
0
100
AcDbBlockEnd
  0
BLOCK
  5
30B
330
304
100
AcDbEntity
  8
0
100
AcDbBlockBegin
  2
*D18
 70
     1
 10
0.0
 20
0.0
 30
0.0
  3
*D18
  1

  0
LINE
  5
305
330
304
100
AcDbEntity
  8
1
  6
Continuous
 62
     2
100
AcDbLine
 10
-65.56444989376303
 20
78.74999949708032
 30
0.0
 11
-65.56444989376303
 21
108.249999497082
 31
0.0
  0
LINE
  5
306
330
304
100
AcDbEntity
  8
1
  6
Continuous
 62
     2
100
AcDbLine
 10
-51.67884757729814
 20
78.74999949708032
 30
0.0
 11
-66.56444989376303
 21
78.74999949708032
 31
0.0
  0
LINE
  5
307
330
304
100
AcDbEntity
  8
1
  6
Continuous
 62
     2
100
AcDbLine
 10
-58.37499999999775
 20
108.249999497082
 30
0.0
 11
-66.56444989376303
 21
108.249999497082
 31
0.0
  0
SOLID
  5
308
330
304
100
AcDbEntity
  8
1
 62
     2
100
AcDbTrace
 10
-65.79484176454096
 20
80.49999949708032
 30
0.0
 11
-65.33405802298509
 21
80.49999949708032
 31
0.0
 12
-65.56444989376303
 22
78.74999949708032
 32
0.0
 13
-65.56444989376303
 23
78.74999949708032
 33
0.0
  0
SOLID
  5
309
330
304
100
AcDbEntity
  8
1
 62
     2
100
AcDbTrace
 10
-65.33405802298509
 20
106.499999497082
 30
0.0
 11
-65.79484176454096
 21
106.499999497082
 31
0.0
 12
-65.56444989376303
 22
108.249999497082
 32
0.0
 13
-65.56444989376303
 23
108.249999497082
 33
0.0
  0
MTEXT
  5
30A
330
304
100
AcDbEntity
  8
1
 62
     3
100
AcDbMText
 10
-66.73944989376304
 20
91.31657156526899
 30
0.0
 40
1.75
 41
0.0
 71
     7
 72
     1
  1
29,5
  7
CONVERTER_11
 11
0.0
 21
1.0
 31
0.0
 73
     1
 44
0.60024009603842
  0
ENDBLK
  5
30C
330
304
100
AcDbEntity
  8
0
100
AcDbBlockEnd
  0
BLOCK
  5
316
330
30F
100
AcDbEntity
  8
0
100
AcDbBlockBegin
  2
*D19
 70
     1
 10
0.0
 20
0.0
 30
0.0
  3
*D19
  1

  0
LINE
  5
310
330
30F
100
AcDbEntity
  8
1
  6
Continuous
 62
     2
100
AcDbLine
 10
-41.37500000000419
 20
72.163443390449
 30
0.0
 11
-58.3750000000041
 21
72.163443390449
 31
0.0
  0
LINE
  5
311
330
30F
100
AcDbEntity
  8
1
  6
Continuous
 62
     2
100
AcDbLine
 10
-41.37500000000419
 20
81.74999949707788
 30
0.0
 11
-41.37500000000419
 21
71.163443390449
 31
0.0
  0
LINE
  5
312
330
30F
100
AcDbEntity
  8
1
  6
Continuous
 62
     2
100
AcDbLine
 10
-58.3750000000041
 20
81.74999949708197
 30
0.0
 11
-58.3750000000041
 21
71.163443390449
 31
0.0
  0
SOLID
  5
313
330
30F
100
AcDbEntity
  8
1
 62
     2
100
AcDbTrace
 10
-43.12500000000419
 20
71.93305151967107
 30
0.0
 11
-43.12500000000419
 21
72.39383526122694
 31
0.0
 12
-41.37500000000419
 22
72.163443390449
 32
0.0
 13
-41.37500000000419
 23
72.163443390449
 33
0.0
  0
SOLID
  5
314
330
30F
100
AcDbEntity
  8
1
 62
     2
100
AcDbTrace
 10
-56.6250000000041
 20
72.39383526122694
 30
0.0
 11
-56.6250000000041
 21
71.93305151967107
 31
0.0
 12
-58.3750000000041
 22
72.163443390449
 32
0.0
 13
-58.3750000000041
 23
72.163443390449
 33
0.0
  0
MTEXT
  5
315
330
30F
100
AcDbEntity
  8
1
 62
     3
100
AcDbMText
 10
-50.92499999999668
 20
73.163443390449
 30
0.0
 40
1.75
 41
0.0
 71
     7
 72
     1
  1
17
  7
CONVERTER_11
 11
0.9999999999970619
 21
2.424068405545306E-6
 31
0.0
 73
     1
 44
0.60024009603842
  0
ENDBLK
  5
317
330
30F
100
AcDbEntity
  8
0
100
AcDbBlockEnd
  0
ENDSEC
  0
SECTION
  2
ENTITIES
  0
INSERT
  5
B5
330
1F
100
AcDbEntity
  8
1
100
AcDbBlockReference
  2
1
 10
0.0
 20
0.0
 30
0.0
  0
ENDSEC
  0
SECTION
  2
OBJECTS
  0
DICTIONARY
  5
C
330
0
100
AcDbDictionary
281
     1
  3
ACAD_DETAILVIEWSTYLE
350
35F
  3
ACAD_GROUP
350
D
  3
ACAD_LAYOUT
350
1A
  3
ACAD_MATERIAL
350
43
  3
ACAD_MLEADERSTYLE
350
6B
  3
ACAD_MLINESTYLE
350
17
  3
ACAD_PLOTSETTINGS
350
19
  3
ACAD_PLOTSTYLENAME
350
E
  3
ACAD_SCALELIST
350
47
  3
ACAD_SECTIONVIEWSTYLE
350
360
  3
ACAD_TABLESTYLE
350
69
  3
ACAD_VISUALSTYLE
350
2A
  3
ACDB_RECOMPOSE_DATA
350
35C
  3
AcDbVariableDictionary
350
31C
  0
DICTIONARY
  5
31A
330
8
100
AcDbDictionary
280
     1
281
     1
  3
ACAD_XREC_ROUNDTRIP
360
31B
  0
DICTIONARY
  5
35F
102
{ACAD_REACTORS
330
C
102
}
330
C
100
AcDbDictionary
281
     1
  0
DICTIONARY
  5
D
102
{ACAD_REACTORS
330
C
102
}
330
C
100
AcDbDictionary
281
     1
  0
DICTIONARY
  5
1A
102
{ACAD_REACTORS
330
C
102
}
330
C
100
AcDbDictionary
281
     1
  3
Layout1
350
1E
  3
Layout2
350
26
  3
Model
350
22
  0
DICTIONARY
  5
43
102
{ACAD_REACTORS
330
C
102
}
330
C
100
AcDbDictionary
281
     1
  3
ByBlock
350
45
  3
ByLayer
350
44
  3
Global
350
46
  0
DICTIONARY
  5
6B
102
{ACAD_REACTORS
330
C
102
}
330
C
100
AcDbDictionary
281
     1
  3
Standard
350
6C
  0
DICTIONARY
  5
17
102
{ACAD_REACTORS
330
C
102
}
330
C
100
AcDbDictionary
281
     1
  3
Standard
350
18
  0
DICTIONARY
  5
19
102
{ACAD_REACTORS
330
C
102
}
330
C
100
AcDbDictionary
281
     1
  0
ACDBDICTIONARYWDFLT
  5
E
102
{ACAD_REACTORS
330
C
102
}
330
C
100
AcDbDictionary
281
     1
  3
Normal
350
F
100
AcDbDictionaryWithDefault
340
F
  0
DICTIONARY
  5
47
102
{ACAD_REACTORS
330
C
102
}
330
C
100
AcDbDictionary
281
     1
  3
A0
350
48
  3
A1
350
49
  3
A2
350
4A
  3
A3
350
4B
  3
A4
350
4C
  3
A5
350
4D
  3
A6
350
4E
  3
A7
350
4F
  3
A8
350
50
  3
A9
350
51
  3
B0
350
52
  3
B1
350
53
  3
B2
350
54
  3
B3
350
55
  3
B4
350
56
  3
B5
350
57
  3
B6
350
58
  3
B7
350
59
  3
B8
350
5A
  3
B9
350
5B
  3
C0
350
5C
  3
C1
350
5D
  3
C2
350
5E
  3
C3
350
5F
  3
C4
350
60
  3
C5
350
61
  3
C6
350
62
  3
C7
350
63
  3
C8
350
64
  3
C9
350
65
  3
D0
350
66
  3
D1
350
67
  3
D2
350
68
  0
DICTIONARY
  5
360
102
{ACAD_REACTORS
330
C
102
}
330
C
100
AcDbDictionary
281
     1
  0
DICTIONARY
  5
69
102
{ACAD_REACTORS
330
C
102
}
330
C
100
AcDbDictionary
281
     1
  3
Standard
350
6A
  0
DICTIONARY
  5
2A
102
{ACAD_REACTORS
330
C
102
}
330
C
100
AcDbDictionary
281
     1
  3
2dWireframe
350
2F
  3
Basic
350
32
  3
Brighten
350
36
  3
ColorChange
350
3A
  3
Conceptual
350
34
  3
Dim
350
35
  3
EdgeColorOff
350
3D
  3
Facepattern
350
39
  3
Flat
350
2B
  3
FlatWithEdges
350
2C
  3
Gouraud
350
2D
  3
GouraudWithEdges
350
2E
  3
Hidden
350
31
  3
JitterOff
350
3B
  3
Linepattern
350
38
  3
OverhangOff
350
3C
  3
Realistic
350
33
  3
Shaded
350
42
  3
Shaded with edges
350
41
  3
Shades of Gray
350
3E
  3
Sketchy
350
3F
  3
Thicken
350
37
  3
Wireframe
350
30
  3
X-Ray
350
40
  0
XRECORD
  5
35C
102
{ACAD_REACTORS
330
C
102
}
330
C
100
AcDbXrecord
280
     1
 90
        1
330
6A
  0
DICTIONARY
  5
31C
102
{ACAD_REACTORS
330
C
102
}
330
C
100
AcDbDictionary
281
     1
  3
CANNOSCALE
350
31D
  3
CMLEADERSTYLE
350
35E
  3
CTABLESTYLE
350
35D
  3
MSLTSCALE
350
31E
  3
XCLIPFRAME
350
31F
  0
XRECORD
  5
31B
102
{ACAD_REACTORS
330
31A
102
}
330
31A
100
AcDbXrecord
280
     1
102
VTR_0.000_0.000_1.000_1.000_VISUALSTYLE
340
2F
102
VTR_0.000_0.000_1.000_1.000_GRIDDISPLAY
 70
     3
102
VTR_0.000_0.000_1.000_1.000_GRIDMAJOR
 70
     5
102
VTR_0.000_0.000_1.000_1.000_DEFAULTLIGHTING
280
     1
102
VTR_0.000_0.000_1.000_1.000_DEFAULTLIGHTINGTYPE
 70
     1
102
VTR_0.000_0.000_1.000_1.000_BRIGHTNESS
141
0.0
102
VTR_0.000_0.000_1.000_1.000_CONTRAST
142
0.0
  0
LAYOUT
  5
1E
102
{ACAD_REACTORS
330
1A
102
}
330
1A
100
AcDbPlotSettings
  1

  2
none_device
  4

  6

 40
0.0
 41
0.0
 42
0.0
 43
0.0
 44
0.0
 45
0.0
 46
0.0
 47
0.0
 48
0.0
 49
0.0
140
0.0
141
0.0
142
1.0
143
1.0
 70
   688
 72
     0
 73
     0
 74
     5
  7

 75
    16
 76
     0
 77
     2
 78
   300
147
1.0
148
0.0
149
0.0
100
AcDbLayout
  1
Layout1
 70
     1
 71
     1
 10
0.0
 20
0.0
 11
12.0
 21
9.0
 12
0.0
 22
0.0
 32
0.0
 14
1.00000000000000E+20
 24
1.00000000000000E+20
 34
1.00000000000000E+20
 15
-1.00000000000000E+20
 25
-1.00000000000000E+20
 35
-1.00000000000000E+20
146
0.0
 13
0.0
 23
0.0
 33
0.0
 16
1.0
 26
0.0
 36
0.0
 17
0.0
 27
1.0
 37
0.0
 76
     0
330
1B
  0
LAYOUT
  5
26
102
{ACAD_REACTORS
330
1A
102
}
330
1A
100
AcDbPlotSettings
  1

  2
none_device
  4

  6

 40
0.0
 41
0.0
 42
0.0
 43
0.0
 44
0.0
 45
0.0
 46
0.0
 47
0.0
 48
0.0
 49
0.0
140
0.0
141
0.0
142
1.0
143
1.0
 70
   688
 72
     0
 73
     0
 74
     5
  7

 75
    16
 76
     0
 77
     2
 78
   300
147
1.0
148
0.0
149
0.0
100
AcDbLayout
  1
Layout2
 70
     1
 71
     2
 10
0.0
 20
0.0
 11
0.0
 21
0.0
 12
0.0
 22
0.0
 32
0.0
 14
0.0
 24
0.0
 34
0.0
 15
0.0
 25
0.0
 35
0.0
146
0.0
 13
0.0
 23
0.0
 33
0.0
 16
1.0
 26
0.0
 36
0.0
 17
0.0
 27
1.0
 37
0.0
 76
     0
330
23
  0
LAYOUT
  5
22
102
{ACAD_REACTORS
330
1A
102
}
330
1A
100
AcDbPlotSettings
  1

  2
none_device
  4
Letter_(8.50_x_11.00_Inches)
  6

 40
6.35
 41
6.35
 42
6.35000508
 43
6.35000508
 44
215.9
 45
279.4
 46
0.0
 47
0.0
 48
0.0
 49
0.0
140
0.0
141
0.0
142
1.0
143
1.0
 70
  1712
 72
     0
 73
     0
 74
     0
  7

 75
     0
 76
     0
 77
     2
 78
   300
147
1.0
148
0.0
149
0.0
100
AcDbLayout
  1
Model
 70
     1
 71
     0
 10
0.0
 20
0.0
 11
12.0
 21
9.0
 12
0.0
 22
0.0
 32
0.0
 14
-284.7568927145247
 24
-47.79362749508124
 34
0.0
 15
135.2431072854737
 25
249.2063725049188
 35
0.0
146
0.0
 13
0.0
 23
0.0
 33
0.0
 16
1.0
 26
0.0
 36
0.0
 17
0.0
 27
1.0
 37
0.0
 76
     0
330
1F
331
29
  0
MATERIAL
  5
45
102
{ACAD_REACTORS
330
43
102
}
102
{ACAD_XDICTIONARY
360
352
102
}
330
43
100
AcDbMaterial
  1
ByBlock
  0
MATERIAL
  5
44
102
{ACAD_REACTORS
330
43
102
}
102
{ACAD_XDICTIONARY
360
350
102
}
330
43
100
AcDbMaterial
  1
ByLayer
  0
MATERIAL
  5
46
102
{ACAD_REACTORS
330
43
102
}
102
{ACAD_XDICTIONARY
360
354
102
}
330
43
100
AcDbMaterial
  1
Global
  0
MLEADERSTYLE
  5
6C
102
{ACAD_REACTORS
330
6B
102
}
102
{ACAD_XDICTIONARY
360
35A
102
}
330
6B
100
AcDbMLeaderStyle
170
     2
171
     1
172
     0
 90
        2
 40
0.0
 41
0.0
173
     1
 91
-1056964608
340
14
 92
       -2
290
     1
 42
0.09
291
     1
 43
0.36
  3
Standard
341
0
 44
0.18
300

342
11
174
     1
178
     6
175
     1
176
     0
 93
-1056964608
 45
0.18
292
     0
297
     0
 46
0.18
343
0
 94
-1056964608
 47
1.0
 49
1.0
140
1.0
293
     1
141
0.0
294
     1
177
     0
142
1.0
295
     0
296
     0
143
0.125
1001
ACAD_MLEADERVER
1070
     2
  0
MLINESTYLE
  5
18
102
{ACAD_REACTORS
330
17
102
}
330
17
100
AcDbMlineStyle
  2
Standard
 70
     0
  3

 62
   256
 51
90.0
 52
90.0
 71
     2
 49
0.5
 62
   256
  6
BYLAYER
 49
-0.5
 62
   256
  6
BYLAYER
  0
ACDBPLACEHOLDER
  5
F
102
{ACAD_REACTORS
330
E
102
}
330
E
  0
SCALE
  5
48
102
{ACAD_REACTORS
330
47
102
}
330
47
100
AcDbScale
 70
     0
300
1:1
140
1.0
141
1.0
290
     1
  0
SCALE
  5
49
102
{ACAD_REACTORS
330
47
102
}
330
47
100
AcDbScale
 70
     0
300
1:2
140
1.0
141
2.0
290
     0
  0
SCALE
  5
4A
102
{ACAD_REACTORS
330
47
102
}
330
47
100
AcDbScale
 70
     0
300
1:4
140
1.0
141
4.0
290
     0
  0
SCALE
  5
4B
102
{ACAD_REACTORS
330
47
102
}
330
47
100
AcDbScale
 70
     0
300
1:5
140
1.0
141
5.0
290
     0
  0
SCALE
  5
4C
102
{ACAD_REACTORS
330
47
102
}
330
47
100
AcDbScale
 70
     0
300
1:8
140
1.0
141
8.0
290
     0
  0
SCALE
  5
4D
102
{ACAD_REACTORS
330
47
102
}
330
47
100
AcDbScale
 70
     0
300
1:10
140
1.0
141
10.0
290
     0
  0
SCALE
  5
4E
102
{ACAD_REACTORS
330
47
102
}
330
47
100
AcDbScale
 70
     0
300
1:16
140
1.0
141
16.0
290
     0
  0
SCALE
  5
4F
102
{ACAD_REACTORS
330
47
102
}
330
47
100
AcDbScale
 70
     0
300
1:20
140
1.0
141
20.0
290
     0
  0
SCALE
  5
50
102
{ACAD_REACTORS
330
47
102
}
330
47
100
AcDbScale
 70
     0
300
1:30
140
1.0
141
30.0
290
     0
  0
SCALE
  5
51
102
{ACAD_REACTORS
330
47
102
}
330
47
100
AcDbScale
 70
     0
300
1:40
140
1.0
141
40.0
290
     0
  0
SCALE
  5
52
102
{ACAD_REACTORS
330
47
102
}
330
47
100
AcDbScale
 70
     0
300
1:50
140
1.0
141
50.0
290
     0
  0
SCALE
  5
53
102
{ACAD_REACTORS
330
47
102
}
330
47
100
AcDbScale
 70
     0
300
1:100
140
1.0
141
100.0
290
     0
  0
SCALE
  5
54
102
{ACAD_REACTORS
330
47
102
}
330
47
100
AcDbScale
 70
     0
300
2:1
140
2.0
141
1.0
290
     0
  0
SCALE
  5
55
102
{ACAD_REACTORS
330
47
102
}
330
47
100
AcDbScale
 70
     0
300
4:1
140
4.0
141
1.0
290
     0
  0
SCALE
  5
56
102
{ACAD_REACTORS
330
47
102
}
330
47
100
AcDbScale
 70
     0
300
8:1
140
8.0
141
1.0
290
     0
  0
SCALE
  5
57
102
{ACAD_REACTORS
330
47
102
}
330
47
100
AcDbScale
 70
     0
300
10:1
140
10.0
141
1.0
290
     0
  0
SCALE
  5
58
102
{ACAD_REACTORS
330
47
102
}
330
47
100
AcDbScale
 70
     0
300
100:1
140
100.0
141
1.0
290
     0
  0
SCALE
  5
59
102
{ACAD_REACTORS
330
47
102
}
330
47
100
AcDbScale
 70
     0
300
1/128" = 1'-0"
140
0.0078125
141
12.0
290
     0
  0
SCALE
  5
5A
102
{ACAD_REACTORS
330
47
102
}
330
47
100
AcDbScale
 70
     0
300
1/64" = 1'-0"
140
0.015625
141
12.0
290
     0
  0
SCALE
  5
5B
102
{ACAD_REACTORS
330
47
102
}
330
47
100
AcDbScale
 70
     0
300
1/32" = 1'-0"
140
0.03125
141
12.0
290
     0
  0
SCALE
  5
5C
102
{ACAD_REACTORS
330
47
102
}
330
47
100
AcDbScale
 70
     0
300
1/16" = 1'-0"
140
0.0625
141
12.0
290
     0
  0
SCALE
  5
5D
102
{ACAD_REACTORS
330
47
102
}
330
47
100
AcDbScale
 70
     0
300
3/32" = 1'-0"
140
0.09375
141
12.0
290
     0
  0
SCALE
  5
5E
102
{ACAD_REACTORS
330
47
102
}
330
47
100
AcDbScale
 70
     0
300
1/8" = 1'-0"
140
0.125
141
12.0
290
     0
  0
SCALE
  5
5F
102
{ACAD_REACTORS
330
47
102
}
330
47
100
AcDbScale
 70
     0
300
3/16" = 1'-0"
140
0.1875
141
12.0
290
     0
  0
SCALE
  5
60
102
{ACAD_REACTORS
330
47
102
}
330
47
100
AcDbScale
 70
     0
300
1/4" = 1'-0"
140
0.25
141
12.0
290
     0
  0
SCALE
  5
61
102
{ACAD_REACTORS
330
47
102
}
330
47
100
AcDbScale
 70
     0
300
3/8" = 1'-0"
140
0.375
141
12.0
290
     0
  0
SCALE
  5
62
102
{ACAD_REACTORS
330
47
102
}
330
47
100
AcDbScale
 70
     0
300
1/2" = 1'-0"
140
0.5
141
12.0
290
     0
  0
SCALE
  5
63
102
{ACAD_REACTORS
330
47
102
}
330
47
100
AcDbScale
 70
     0
300
3/4" = 1'-0"
140
0.75
141
12.0
290
     0
  0
SCALE
  5
64
102
{ACAD_REACTORS
330
47
102
}
330
47
100
AcDbScale
 70
     0
300
1" = 1'-0"
140
1.0
141
12.0
290
     0
  0
SCALE
  5
65
102
{ACAD_REACTORS
330
47
102
}
330
47
100
AcDbScale
 70
     0
300
1-1/2" = 1'-0"
140
1.5
141
12.0
290
     0
  0
SCALE
  5
66
102
{ACAD_REACTORS
330
47
102
}
330
47
100
AcDbScale
 70
     0
300
3" = 1'-0"
140
3.0
141
12.0
290
     0
  0
SCALE
  5
67
102
{ACAD_REACTORS
330
47
102
}
330
47
100
AcDbScale
 70
     0
300
6" = 1'-0"
140
6.0
141
12.0
290
     0
  0
SCALE
  5
68
102
{ACAD_REACTORS
330
47
102
}
330
47
100
AcDbScale
 70
     0
300
1'-0" = 1'-0"
140
12.0
141
12.0
290
     0
  0
TABLESTYLE
  5
6A
102
{ACAD_REACTORS
330
69
102
}
102
{ACAD_XDICTIONARY
360
356
102
}
330
69
100
AcDbTableStyle
  3
Standard
 70
     0
 71
     0
 40
0.06
 41
0.06
280
     0
281
     0
  7
Standard
140
0.18
170
     2
 62
     0
 63
   257
283
     0
274
    -2
284
     1
 64
     0
275
    -2
285
     1
 65
     0
276
    -2
286
     1
 66
     0
277
    -2
287
     1
 67
     0
278
    -2
288
     1
 68
     0
279
    -2
289
     1
 69
     0
  7
Standard
140
0.25
170
     5
 62
     0
 63
   257
283
     0
274
    -2
284
     1
 64
     0
275
    -2
285
     1
 65
     0
276
    -2
286
     1
 66
     0
277
    -2
287
     1
 67
     0
278
    -2
288
     1
 68
     0
279
    -2
289
     1
 69
     0
  7
Standard
140
0.18
170
     5
 62
     0
 63
   257
283
     0
274
    -2
284
     1
 64
     0
275
    -2
285
     1
 65
     0
276
    -2
286
     1
 66
     0
277
    -2
287
     1
 67
     0
278
    -2
288
     1
 68
     0
279
    -2
289
     1
 69
     0
  0
VISUALSTYLE
  5
2F
102
{ACAD_REACTORS
330
2A
102
}
102
{ACAD_XDICTIONARY
360
328
102
}
330
2A
100
AcDbVisualStyle
  2
2dWireframe
 70
     4
 71
     0
 72
     2
 73
     0
 90
        0
 40
0.6
 41
30.0
 62
     5
 63
     7
421
 16777215
 74
     1
 91
        4
 64
     7
 65
   257
 75
     1
175
     1
 42
1.0
 92
        0
 66
   257
 43
1.0
 76
     1
 77
     6
 78
     2
 67
     7
 79
     5
170
     0
171
     0
290
     0
174
     0
 93
        1
 44
0.0
173
     0
291
     0
 45
0.0
1001
ACAD
1000
AcDbSavedByObjectVersion
1070
     0
  0
VISUALSTYLE
  5
32
102
{ACAD_REACTORS
330
2A
102
}
102
{ACAD_XDICTIONARY
360
32E
102
}
330
2A
100
AcDbVisualStyle
  2
Basic
 70
     7
 71
     1
 72
     0
 73
     1
 90
        0
 40
0.6
 41
30.0
 62
     5
 63
     7
421
 16777215
 74
     0
 91
        4
 64
     7
 65
   257
 75
     1
175
     1
 42
1.0
 92
        8
 66
     7
 43
1.0
 76
     1
 77
     6
 78
     2
 67
     7
 79
     5
170
     0
171
     0
290
     0
174
     0
 93
        1
 44
0.0
173
     0
291
     1
 45
0.0
1001
ACAD
1000
AcDbSavedByObjectVersion
1070
     0
  0
VISUALSTYLE
  5
36
102
{ACAD_REACTORS
330
2A
102
}
102
{ACAD_XDICTIONARY
360
336
102
}
330
2A
100
AcDbVisualStyle
  2
Brighten
 70
    12
 71
     2
 72
     2
 73
     0
 90
        0
 40
0.6
 41
30.0
 62
     5
 63
     7
421
 16777215
 74
     1
 91
        4
 64
     7
 65
   257
 75
     1
175
     1
 42
1.0
 92
        8
 66
     7
 43
1.0
 76
     1
 77
     6
 78
     2
 67
     7
 79
     5
170
     0
171
     0
290
     0
174
     0
 93
        1
 44
50.0
173
     0
291
     1
 45
0.0
1001
ACAD
1000
AcDbSavedByObjectVersion
1070
     0
  0
VISUALSTYLE
  5
3A
102
{ACAD_REACTORS
330
2A
102
}
102
{ACAD_XDICTIONARY
360
33E
102
}
330
2A
100
AcDbVisualStyle
  2
ColorChange
 70
    16
 71
     2
 72
     2
 73
     3
 90
        0
 40
0.6
 41
30.0
 62
     5
 63
     8
421
  8421504
 74
     1
 91
        4
 64
     7
 65
   257
 75
     1
175
     1
 42
1.0
 92
        8
 66
     8
424
  8421504
 43
1.0
 76
     1
 77
     6
 78
     2
 67
     7
 79
     5
170
     0
171
     0
290
     0
174
     0
 93
        1
 44
0.0
173
     0
291
     1
 45
0.0
1001
ACAD
1000
AcDbSavedByObjectVersion
1070
     0
  0
VISUALSTYLE
  5
34
102
{ACAD_REACTORS
330
2A
102
}
102
{ACAD_XDICTIONARY
360
332
102
}
330
2A
100
AcDbVisualStyle
  2
Conceptual
 70
     9
 71
     3
 72
     2
 73
     0
 90
        0
 40
0.6
 41
30.0
 62
     5
 63
     7
421
 16777215
 74
     2
 91
        2
 64
     7
 65
   257
 75
     1
175
     1
 42
179.0
 92
        8
 66
     7
 43
1.0
 76
     1
 77
     6
 78
     2
 67
     7
 79
     3
170
     0
171
     0
290
     0
174
     0
 93
        1
 44
0.0
173
     0
291
     0
 45
0.0
1001
ACAD
1000
AcDbSavedByObjectVersion
1070
     0
  0
VISUALSTYLE
  5
35
102
{ACAD_REACTORS
330
2A
102
}
102
{ACAD_XDICTIONARY
360
334
102
}
330
2A
100
AcDbVisualStyle
  2
Dim
 70
    11
 71
     2
 72
     2
 73
     0
 90
        0
 40
0.6
 41
30.0
 62
     5
 63
     7
421
 16777215
 74
     1
 91
        4
 64
     7
 65
   257
 75
     1
175
     1
 42
1.0
 92
        8
 66
     7
 43
1.0
 76
     1
 77
     6
 78
     2
 67
     7
 79
     5
170
     0
171
     0
290
     0
174
     0
 93
        1
 44
-50.0
173
     0
291
     1
 45
0.0
1001
ACAD
1000
AcDbSavedByObjectVersion
1070
     0
  0
VISUALSTYLE
  5
3D
102
{ACAD_REACTORS
330
2A
102
}
102
{ACAD_XDICTIONARY
360
344
102
}
330
2A
100
AcDbVisualStyle
  2
EdgeColorOff
 70
    22
 71
     2
 72
     2
 73
     0
 90
        0
 40
0.6
 41
30.0
 62
     5
 63
     7
421
 16777215
 74
     1
 91
        4
 64
     7
 65
   257
 75
     1
175
     1
 42
1.0
 92
        8
 66
     7
 43
1.0
 76
     1
 77
     6
 78
     2
 67
     7
 79
     5
170
     0
171
     0
290
     0
174
     0
 93
        1
 44
0.0
173
     0
291
     1
 45
0.0
1001
ACAD
1000
AcDbSavedByObjectVersion
1070
     0
  0
VISUALSTYLE
  5
39
102
{ACAD_REACTORS
330
2A
102
}
102
{ACAD_XDICTIONARY
360
33C
102
}
330
2A
100
AcDbVisualStyle
  2
Facepattern
 70
    15
 71
     2
 72
     2
 73
     0
 90
        0
 40
0.6
 41
30.0
 62
     5
 63
     7
421
 16777215
 74
     1
 91
        4
 64
     7
 65
   257
 75
     1
175
     1
 42
1.0
 92
        8
 66
     7
 43
1.0
 76
     1
 77
     6
 78
     2
 67
     7
 79
     5
170
     0
171
     0
290
     0
174
     0
 93
        1
 44
0.0
173
     0
291
     1
 45
0.0
1001
ACAD
1000
AcDbSavedByObjectVersion
1070
     0
  0
VISUALSTYLE
  5
2B
102
{ACAD_REACTORS
330
2A
102
}
102
{ACAD_XDICTIONARY
360
320
102
}
330
2A
100
AcDbVisualStyle
  2
Flat
 70
     0
 71
     2
 72
     1
 73
     1
 90
        2
 40
0.6
 41
30.0
 62
     5
 63
     7
421
 16777215
 74
     0
 91
        0
 64
     7
 65
   257
 75
     1
175
     1
 42
1.0
 92
        8
 66
     7
 43
1.0
 76
     1
 77
     6
 78
     2
 67
     7
 79
     5
170
     0
171
     0
290
     0
174
     0
 93
       13
 44
0.0
173
     0
291
     1
 45
0.0
1001
ACAD
1000
AcDbSavedByObjectVersion
1070
     0
  0
VISUALSTYLE
  5
2C
102
{ACAD_REACTORS
330
2A
102
}
102
{ACAD_XDICTIONARY
360
322
102
}
330
2A
100
AcDbVisualStyle
  2
FlatWithEdges
 70
     1
 71
     2
 72
     1
 73
     1
 90
        2
 40
0.6
 41
30.0
 62
     5
 63
     7
421
 16777215
 74
     1
 91
        0
 64
     7
 65
   257
 75
     1
175
     1
 42
1.0
 92
        0
 66
   257
 43
1.0
 76
     1
 77
     6
 78
     2
 67
     7
 79
     5
170
     0
171
     0
290
     0
174
     0
 93
       13
 44
0.0
173
     0
291
     1
 45
0.0
1001
ACAD
1000
AcDbSavedByObjectVersion
1070
     0
  0
VISUALSTYLE
  5
2D
102
{ACAD_REACTORS
330
2A
102
}
102
{ACAD_XDICTIONARY
360
324
102
}
330
2A
100
AcDbVisualStyle
  2
Gouraud
 70
     2
 71
     2
 72
     2
 73
     1
 90
        2
 40
0.6
 41
30.0
 62
     5
 63
     7
421
 16777215
 74
     0
 91
        0
 64
     7
 65
   257
 75
     1
175
     1
 42
1.0
 92
        0
 66
     7
 43
1.0
 76
     1
 77
     6
 78
     2
 67
     7
 79
     5
170
     0
171
     0
290
     0
174
     0
 93
       13
 44
0.0
173
     0
291
     1
 45
0.0
1001
ACAD
1000
AcDbSavedByObjectVersion
1070
     0
  0
VISUALSTYLE
  5
2E
102
{ACAD_REACTORS
330
2A
102
}
102
{ACAD_XDICTIONARY
360
326
102
}
330
2A
100
AcDbVisualStyle
  2
GouraudWithEdges
 70
     3
 71
     2
 72
     2
 73
     1
 90
        2
 40
0.6
 41
30.0
 62
     5
 63
     7
421
 16777215
 74
     1
 91
        0
 64
     7
 65
   257
 75
     1
175
     1
 42
1.0
 92
        0
 66
   257
 43
1.0
 76
     1
 77
     6
 78
     2
 67
     7
 79
     5
170
     0
171
     0
290
     0
174
     0
 93
       13
 44
0.0
173
     0
291
     1
 45
0.0
1001
ACAD
1000
AcDbSavedByObjectVersion
1070
     0
  0
VISUALSTYLE
  5
31
102
{ACAD_REACTORS
330
2A
102
}
102
{ACAD_XDICTIONARY
360
32C
102
}
330
2A
100
AcDbVisualStyle
  2
Hidden
 70
     6
 71
     1
 72
     2
 73
     2
 90
        0
 40
0.6
 41
30.0
 62
     5
 63
     7
421
 16777215
 74
     2
 91
        2
 64
     7
 65
   257
 75
     2
175
     1
 42
40.0
 92
        0
 66
   257
 43
1.0
 76
     1
 77
     6
 78
     2
 67
     7
 79
     3
170
     0
171
     0
290
     0
174
     0
 93
        1
 44
0.0
173
     0
291
     0
 45
0.0
1001
ACAD
1000
AcDbSavedByObjectVersion
1070
     0
  0
VISUALSTYLE
  5
3B
102
{ACAD_REACTORS
330
2A
102
}
102
{ACAD_XDICTIONARY
360
340
102
}
330
2A
100
AcDbVisualStyle
  2
JitterOff
 70
    20
 71
     2
 72
     2
 73
     0
 90
        0
 40
0.6
 41
30.0
 62
     5
 63
     7
421
 16777215
 74
     1
 91
        4
 64
     7
 65
   257
 75
     1
175
     1
 42
1.0
 92
       10
 66
     7
 43
1.0
 76
     1
 77
     6
 78
     2
 67
     7
 79
     5
170
     0
171
     0
290
     0
174
     0
 93
        1
 44
0.0
173
     0
291
     1
 45
0.0
1001
ACAD
1000
AcDbSavedByObjectVersion
1070
     0
  0
VISUALSTYLE
  5
38
102
{ACAD_REACTORS
330
2A
102
}
102
{ACAD_XDICTIONARY
360
33A
102
}
330
2A
100
AcDbVisualStyle
  2
Linepattern
 70
    14
 71
     2
 72
     2
 73
     0
 90
        0
 40
0.6
 41
30.0
 62
     5
 63
     7
421
 16777215
 74
     1
 91
        4
 64
     7
 65
   257
 75
     7
175
     7
 42
1.0
 92
        8
 66
     7
 43
1.0
 76
     1
 77
     6
 78
     2
 67
     7
 79
     5
170
     0
171
     0
290
     0
174
     0
 93
        1
 44
0.0
173
     0
291
     1
 45
0.0
1001
ACAD
1000
AcDbSavedByObjectVersion
1070
     0
  0
VISUALSTYLE
  5
3C
102
{ACAD_REACTORS
330
2A
102
}
102
{ACAD_XDICTIONARY
360
342
102
}
330
2A
100
AcDbVisualStyle
  2
OverhangOff
 70
    21
 71
     2
 72
     2
 73
     0
 90
        0
 40
0.6
 41
30.0
 62
     5
 63
     7
421
 16777215
 74
     1
 91
        4
 64
     7
 65
   257
 75
     1
175
     1
 42
1.0
 92
        9
 66
     7
 43
1.0
 76
     1
 77
     6
 78
     2
 67
     7
 79
     5
170
     0
171
     0
290
     0
174
     0
 93
        1
 44
0.0
173
     0
291
     1
 45
0.0
1001
ACAD
1000
AcDbSavedByObjectVersion
1070
     0
  0
VISUALSTYLE
  5
33
102
{ACAD_REACTORS
330
2A
102
}
102
{ACAD_XDICTIONARY
360
330
102
}
330
2A
100
AcDbVisualStyle
  2
Realistic
 70
     8
 71
     2
 72
     3
 73
     0
 90
        2
 40
0.6
 41
30.0
 62
     5
 63
     7
421
 16777215
 74
     0
 91
        0
 64
     7
 65
   257
 75
     1
175
     1
 42
1.0
 92
        8
 66
   257
 43
1.0
 76
     1
 77
     6
 78
     2
 67
     7
 79
     3
170
     0
171
     0
290
     0
174
     0
 93
       13
 44
0.0
173
     0
291
     0
 45
0.0
1001
ACAD
1000
AcDbSavedByObjectVersion
1070
     0
  0
VISUALSTYLE
  5
42
102
{ACAD_REACTORS
330
2A
102
}
102
{ACAD_XDICTIONARY
360
34E
102
}
330
2A
100
AcDbVisualStyle
  2
Shaded
 70
    27
 71
     2
 72
     2
 73
     1
 90
        2
 40
0.6
 41
30.0
 62
     5
 63
     7
421
 16777215
 74
     0
 91
        4
 64
     7
 65
   257
 75
     1
175
     1
 42
1.0
 92
        8
 66
   257
 43
1.0
 76
     1
 77
     6
 78
     2
 67
     8
425
  7895160
 79
     3
170
     0
171
     0
290
     0
174
     0
 93
        5
 44
0.0
173
     0
291
     0
 45
0.0
1001
ACAD
1000
AcDbSavedByObjectVersion
1070
     0
  0
VISUALSTYLE
  5
41
102
{ACAD_REACTORS
330
2A
102
}
102
{ACAD_XDICTIONARY
360
34C
102
}
330
2A
100
AcDbVisualStyle
  2
Shaded with edges
 70
    26
 71
     2
 72
     2
 73
     1
 90
        2
 40
0.6
 41
30.0
 62
     5
 63
     7
421
 16777215
 74
     1
 91
       10
 64
     7
 65
   257
 75
     2
175
     1
 42
1.0
 92
        8
 66
   257
 43
1.0
 76
     1
 77
     6
 78
     2
 67
     7
 79
     3
170
     0
171
     0
290
     0
174
     0
 93
        5
 44
0.0
173
     0
291
     0
 45
0.0
1001
ACAD
1000
AcDbSavedByObjectVersion
1070
     0
  0
VISUALSTYLE
  5
3E
102
{ACAD_REACTORS
330
2A
102
}
102
{ACAD_XDICTIONARY
360
346
102
}
330
2A
100
AcDbVisualStyle
  2
Shades of Gray
 70
    23
 71
     2
 72
     2
 73
     3
 90
        0
 40
0.6
 41
30.0
 62
     5
 63
     7
421
 16777215
 74
     2
 91
        2
 64
     7
 65
     7
 75
     1
175
     1
 42
40.0
 92
        8
 66
     7
 43
1.0
 76
     1
 77
     6
 78
     2
 67
     7
 79
     3
170
     0
171
     0
290
     0
174
     0
 93
        1
 44
0.0
173
     0
291
     0
 45
0.0
1001
ACAD
1000
AcDbSavedByObjectVersion
1070
     0
  0
VISUALSTYLE
  5
3F
102
{ACAD_REACTORS
330
2A
102
}
102
{ACAD_XDICTIONARY
360
348
102
}
330
2A
100
AcDbVisualStyle
  2
Sketchy
 70
    24
 71
     1
 72
     2
 73
     2
 90
        0
 40
0.6
 41
30.0
 62
     5
 63
     7
421
 16777215
 74
     2
 91
        2
 64
     7
 65
     7
 75
     1
175
     1
 42
40.0
 92
       11
 66
     7
 43
1.0
 76
     1
 77
     6
 78
     2
 67
     7
 79
     6
170
     0
171
     0
290
     0
174
     0
 93
        1
 44
0.0
173
     0
291
     0
 45
0.0
1001
ACAD
1000
AcDbSavedByObjectVersion
1070
     0
  0
VISUALSTYLE
  5
37
102
{ACAD_REACTORS
330
2A
102
}
102
{ACAD_XDICTIONARY
360
338
102
}
330
2A
100
AcDbVisualStyle
  2
Thicken
 70
    13
 71
     2
 72
     2
 73
     0
 90
        0
 40
0.6
 41
30.0
 62
     5
 63
     7
421
 16777215
 74
     1
 91
        4
 64
     7
 65
   257
 75
     1
175
     1
 42
1.0
 92
       12
 66
     7
 43
1.0
 76
     1
 77
     6
 78
     2
 67
     7
 79
     5
170
     0
171
     0
290
     0
174
     0
 93
        1
 44
0.0
173
     0
291
     1
 45
0.0
1001
ACAD
1000
AcDbSavedByObjectVersion
1070
     0
  0
VISUALSTYLE
  5
30
102
{ACAD_REACTORS
330
2A
102
}
102
{ACAD_XDICTIONARY
360
32A
102
}
330
2A
100
AcDbVisualStyle
  2
Wireframe
 70
     5
 71
     0
 72
     2
 73
     0
 90
        0
 40
0.6
 41
30.0
 62
     5
 63
     7
421
 16777215
 74
     1
 91
        4
 64
     7
 65
   257
 75
     1
175
     1
 42
1.0
 92
        0
 66
   257
 43
1.0
 76
     1
 77
     6
 78
     2
 67
     7
 79
     3
170
     0
171
     0
290
     0
174
     0
 93
        1
 44
0.0
173
     0
291
     0
 45
0.0
1001
ACAD
1000
AcDbSavedByObjectVersion
1070
     0
  0
VISUALSTYLE
  5
40
102
{ACAD_REACTORS
330
2A
102
}
102
{ACAD_XDICTIONARY
360
34A
102
}
330
2A
100
AcDbVisualStyle
  2
X-Ray
 70
    25
 71
     2
 72
     2
 73
     1
 90
        1
 40
0.5
 41
30.0
 62
     5
 63
     7
421
 16777215
 74
     1
 91
        0
 64
     7
 65
   257
 75
     1
175
     1
 42
1.0
 92
        8
 66
     7
 43
1.0
 76
     1
 77
     6
 78
     2
 67
     7
 79
     3
170
     0
171
     0
290
     0
174
     0
 93
       13
 44
0.0
173
     0
291
     0
 45
0.0
1001
ACAD
1000
AcDbSavedByObjectVersion
1070
     0
  0
DICTIONARYVAR
  5
31D
102
{ACAD_REACTORS
330
31C
102
}
330
31C
100
DictionaryVariables
280
     0
  1
1:1
  0
DICTIONARYVAR
  5
35E
102
{ACAD_REACTORS
330
31C
102
}
330
31C
100
DictionaryVariables
280
     0
  1
Standard
  0
DICTIONARYVAR
  5
35D
102
{ACAD_REACTORS
330
31C
102
}
330
31C
100
DictionaryVariables
280
     0
  1
Standard
  0
DICTIONARYVAR
  5
31E
102
{ACAD_REACTORS
330
31C
102
}
330
31C
100
DictionaryVariables
280
     0
  1
1
  0
DICTIONARYVAR
  5
31F
102
{ACAD_REACTORS
330
31C
102
}
330
31C
100
DictionaryVariables
280
     0
  1
2
  0
DICTIONARY
  5
352
330
45
100
AcDbDictionary
280
     1
281
     1
  3
ACAD_XREC_ROUNDTRIP
360
353
  0
DICTIONARY
  5
350
330
44
100
AcDbDictionary
280
     1
281
     1
  3
ACAD_XREC_ROUNDTRIP
360
351
  0
DICTIONARY
  5
354
330
46
100
AcDbDictionary
280
     1
281
     1
  3
ACAD_XREC_ROUNDTRIP
360
355
  0
DICTIONARY
  5
35A
330
6C
100
AcDbDictionary
280
     1
281
     1
  3
ACAD_XREC_ROUNDTRIP
360
35B
  0
DICTIONARY
  5
356
330
6A
100
AcDbDictionary
280
     1
281
     1
  3
ACAD_ROUNDTRIP_2008_TABLESTYLE_CELLSTYLEMAP
360
358
  3
ACAD_XREC_ROUNDTRIP
360
357
  0
DICTIONARY
  5
328
330
2F
100
AcDbDictionary
280
     1
281
     1
  3
ACAD_XREC_ROUNDTRIP
360
329
  0
DICTIONARY
  5
32E
330
32
100
AcDbDictionary
280
     1
281
     1
  3
ACAD_XREC_ROUNDTRIP
360
32F
  0
DICTIONARY
  5
336
330
36
100
AcDbDictionary
280
     1
281
     1
  3
ACAD_XREC_ROUNDTRIP
360
337
  0
DICTIONARY
  5
33E
330
3A
100
AcDbDictionary
280
     1
281
     1
  3
ACAD_XREC_ROUNDTRIP
360
33F
  0
DICTIONARY
  5
332
330
34
100
AcDbDictionary
280
     1
281
     1
  3
ACAD_XREC_ROUNDTRIP
360
333
  0
DICTIONARY
  5
334
330
35
100
AcDbDictionary
280
     1
281
     1
  3
ACAD_XREC_ROUNDTRIP
360
335
  0
DICTIONARY
  5
344
330
3D
100
AcDbDictionary
280
     1
281
     1
  3
ACAD_XREC_ROUNDTRIP
360
345
  0
DICTIONARY
  5
33C
330
39
100
AcDbDictionary
280
     1
281
     1
  3
ACAD_XREC_ROUNDTRIP
360
33D
  0
DICTIONARY
  5
320
330
2B
100
AcDbDictionary
280
     1
281
     1
  3
ACAD_XREC_ROUNDTRIP
360
321
  0
DICTIONARY
  5
322
330
2C
100
AcDbDictionary
280
     1
281
     1
  3
ACAD_XREC_ROUNDTRIP
360
323
  0
DICTIONARY
  5
324
330
2D
100
AcDbDictionary
280
     1
281
     1
  3
ACAD_XREC_ROUNDTRIP
360
325
  0
DICTIONARY
  5
326
330
2E
100
AcDbDictionary
280
     1
281
     1
  3
ACAD_XREC_ROUNDTRIP
360
327
  0
DICTIONARY
  5
32C
330
31
100
AcDbDictionary
280
     1
281
     1
  3
ACAD_XREC_ROUNDTRIP
360
32D
  0
DICTIONARY
  5
340
330
3B
100
AcDbDictionary
280
     1
281
     1
  3
ACAD_XREC_ROUNDTRIP
360
341
  0
DICTIONARY
  5
33A
330
38
100
AcDbDictionary
280
     1
281
     1
  3
ACAD_XREC_ROUNDTRIP
360
33B
  0
DICTIONARY
  5
342
330
3C
100
AcDbDictionary
280
     1
281
     1
  3
ACAD_XREC_ROUNDTRIP
360
343
  0
DICTIONARY
  5
330
330
33
100
AcDbDictionary
280
     1
281
     1
  3
ACAD_XREC_ROUNDTRIP
360
331
  0
DICTIONARY
  5
34E
330
42
100
AcDbDictionary
280
     1
281
     1
  3
ACAD_XREC_ROUNDTRIP
360
34F
  0
DICTIONARY
  5
34C
330
41
100
AcDbDictionary
280
     1
281
     1
  3
ACAD_XREC_ROUNDTRIP
360
34D
  0
DICTIONARY
  5
346
330
3E
100
AcDbDictionary
280
     1
281
     1
  3
ACAD_XREC_ROUNDTRIP
360
347
  0
DICTIONARY
  5
348
330
3F
100
AcDbDictionary
280
     1
281
     1
  3
ACAD_XREC_ROUNDTRIP
360
349
  0
DICTIONARY
  5
338
330
37
100
AcDbDictionary
280
     1
281
     1
  3
ACAD_XREC_ROUNDTRIP
360
339
  0
DICTIONARY
  5
32A
330
30
100
AcDbDictionary
280
     1
281
     1
  3
ACAD_XREC_ROUNDTRIP
360
32B
  0
DICTIONARY
  5
34A
330
40
100
AcDbDictionary
280
     1
281
     1
  3
ACAD_XREC_ROUNDTRIP
360
34B
  0
XRECORD
  5
353
102
{ACAD_REACTORS
330
352
102
}
330
352
100
AcDbXrecord
280
     1
102
MATERIAL
148
0.0
149
0.0
149
0.0
 93
        0
 94
      127
282
     0
 72
     1
 77
     1
171
     1
175
     1
179
     1
273
     0
  0
XRECORD
  5
351
102
{ACAD_REACTORS
330
350
102
}
330
350
100
AcDbXrecord
280
     1
102
MATERIAL
148
0.0
149
0.0
149
0.0
 93
        0
 94
      127
282
     0
 72
     1
 77
     1
171
     1
175
     1
179
     1
273
     0
  0
XRECORD
  5
355
102
{ACAD_REACTORS
330
354
102
}
330
354
100
AcDbXrecord
280
     1
102
MATERIAL
148
0.0
149
0.0
149
0.0
 93
        0
 94
      127
282
     0
 72
     1
 77
     1
171
     1
175
     1
179
     1
273
     0
  0
XRECORD
  5
35B
102
{ACAD_REACTORS
330
35A
102
}
330
35A
100
AcDbXrecord
280
     1
102
ACAD_ROUNDTRIP_2010_MLEADER_STYLE
  0
CELLSTYLEMAP
  5
358
102
{ACAD_REACTORS
330
356
102
}
330
356
100
AcDbCellStyleMap
 90
        3
300
CELLSTYLE
  1
TABLEFORMAT_BEGIN
 90
        5
170
     1
 91
        0
 92
    32768
 62
   257
 93
        1
300
CONTENTFORMAT
  1
CONTENTFORMAT_BEGIN
 90
        0
 91
        0
 92
        4
 93
        0
300

 40
0.0
140
1.0
 94
        5
 62
     0
340
11
144
0.25
309
CONTENTFORMAT_END
171
     1
301
MARGIN
  1
CELLMARGIN_BEGIN
 40
0.06
 40
0.06
 40
0.06
 40
0.06
 40
0.06
 40
0.06
309
CELLMARGIN_END
 94
        6
 95
        1
302
GRIDFORMAT
  1
GRIDFORMAT_BEGIN
 90
        0
 91
        1
 62
     0
 92
       -2
340
14
 93
        0
 40
0.045
309
GRIDFORMAT_END
 95
        2
302
GRIDFORMAT
  1
GRIDFORMAT_BEGIN
 90
        0
 91
        1
 62
     0
 92
       -2
340
14
 93
        0
 40
0.045
309
GRIDFORMAT_END
 95
        4
302
GRIDFORMAT
  1
GRIDFORMAT_BEGIN
 90
        0
 91
        1
 62
     0
 92
       -2
340
14
 93
        0
 40
0.045
309
GRIDFORMAT_END
 95
        8
302
GRIDFORMAT
  1
GRIDFORMAT_BEGIN
 90
        0
 91
        1
 62
     0
 92
       -2
340
14
 93
        0
 40
0.045
309
GRIDFORMAT_END
 95
       16
302
GRIDFORMAT
  1
GRIDFORMAT_BEGIN
 90
        0
 91
        1
 62
     0
 92
       -2
340
14
 93
        0
 40
0.045
309
GRIDFORMAT_END
 95
       32
302
GRIDFORMAT
  1
GRIDFORMAT_BEGIN
 90
        0
 91
        1
 62
     0
 92
       -2
340
14
 93
        0
 40
0.045
309
GRIDFORMAT_END
309
TABLEFORMAT_END
  1
CELLSTYLE_BEGIN
 90
        1
 91
        1
300
_TITLE
309
CELLSTYLE_END
300
CELLSTYLE
  1
TABLEFORMAT_BEGIN
 90
        5
170
     1
 91
        0
 92
        0
 62
   257
 93
        1
300
CONTENTFORMAT
  1
CONTENTFORMAT_BEGIN
 90
        0
 91
        0
 92
        4
 93
        0
300

 40
0.0
140
1.0
 94
        5
 62
     0
340
11
144
0.18
309
CONTENTFORMAT_END
171
     1
301
MARGIN
  1
CELLMARGIN_BEGIN
 40
0.06
 40
0.06
 40
0.06
 40
0.06
 40
0.06
 40
0.06
309
CELLMARGIN_END
 94
        6
 95
        1
302
GRIDFORMAT
  1
GRIDFORMAT_BEGIN
 90
        0
 91
        1
 62
     0
 92
       -2
340
14
 93
        0
 40
0.045
309
GRIDFORMAT_END
 95
        2
302
GRIDFORMAT
  1
GRIDFORMAT_BEGIN
 90
        0
 91
        1
 62
     0
 92
       -2
340
14
 93
        0
 40
0.045
309
GRIDFORMAT_END
 95
        4
302
GRIDFORMAT
  1
GRIDFORMAT_BEGIN
 90
        0
 91
        1
 62
     0
 92
       -2
340
14
 93
        0
 40
0.045
309
GRIDFORMAT_END
 95
        8
302
GRIDFORMAT
  1
GRIDFORMAT_BEGIN
 90
        0
 91
        1
 62
     0
 92
       -2
340
14
 93
        0
 40
0.045
309
GRIDFORMAT_END
 95
       16
302
GRIDFORMAT
  1
GRIDFORMAT_BEGIN
 90
        0
 91
        1
 62
     0
 92
       -2
340
14
 93
        0
 40
0.045
309
GRIDFORMAT_END
 95
       32
302
GRIDFORMAT
  1
GRIDFORMAT_BEGIN
 90
        0
 91
        1
 62
     0
 92
       -2
340
14
 93
        0
 40
0.045
309
GRIDFORMAT_END
309
TABLEFORMAT_END
  1
CELLSTYLE_BEGIN
 90
        2
 91
        1
300
_HEADER
309
CELLSTYLE_END
300
CELLSTYLE
  1
TABLEFORMAT_BEGIN
 90
        5
170
     1
 91
        0
 92
        0
 62
   257
 93
        1
300
CONTENTFORMAT
  1
CONTENTFORMAT_BEGIN
 90
        0
 91
        0
 92
        4
 93
        0
300

 40
0.0
140
1.0
 94
        2
 62
     0
340
11
144
0.18
309
CONTENTFORMAT_END
171
     1
301
MARGIN
  1
CELLMARGIN_BEGIN
 40
0.06
 40
0.06
 40
0.06
 40
0.06
 40
0.06
 40
0.06
309
CELLMARGIN_END
 94
        6
 95
        1
302
GRIDFORMAT
  1
GRIDFORMAT_BEGIN
 90
        0
 91
        1
 62
     0
 92
       -2
340
14
 93
        0
 40
0.045
309
GRIDFORMAT_END
 95
        2
302
GRIDFORMAT
  1
GRIDFORMAT_BEGIN
 90
        0
 91
        1
 62
     0
 92
       -2
340
14
 93
        0
 40
0.045
309
GRIDFORMAT_END
 95
        4
302
GRIDFORMAT
  1
GRIDFORMAT_BEGIN
 90
        0
 91
        1
 62
     0
 92
       -2
340
14
 93
        0
 40
0.045
309
GRIDFORMAT_END
 95
        8
302
GRIDFORMAT
  1
GRIDFORMAT_BEGIN
 90
        0
 91
        1
 62
     0
 92
       -2
340
14
 93
        0
 40
0.045
309
GRIDFORMAT_END
 95
       16
302
GRIDFORMAT
  1
GRIDFORMAT_BEGIN
 90
        0
 91
        1
 62
     0
 92
       -2
340
14
 93
        0
 40
0.045
309
GRIDFORMAT_END
 95
       32
302
GRIDFORMAT
  1
GRIDFORMAT_BEGIN
 90
        0
 91
        1
 62
     0
 92
       -2
340
14
 93
        0
 40
0.045
309
GRIDFORMAT_END
309
TABLEFORMAT_END
  1
CELLSTYLE_BEGIN
 90
        3
 91
        2
300
_DATA
309
CELLSTYLE_END
  0
XRECORD
  5
357
102
{ACAD_REACTORS
330
356
102
}
330
356
100
AcDbXrecord
280
     1
102
ACAD_ROUNDTRIP_PRE2007_TABLESTYLE
 90
        4
 91
        0
  1

 92
        4
 93
        0
  2

 94
        4
 95
        0
  3

  0
XRECORD
  5
329
102
{ACAD_REACTORS
330
328
102
}
330
328
100
AcDbXrecord
280
     1
102
RTVSPropertyOp0
 70
     1
102
RTVSPropertyOp1
 70
     1
102
RTVSPropertyOp2
 70
     1
102
RTVSPropertyOp3
 70
     1
102
RTVSPropertyOp4
 70
     1
102
RTVSPropertyOp5
 70
     1
102
RTVSPropertyOp6
 70
     1
102
RTVSPropertyOp7
 70
     1
102
RTVSPropertyOp8
 70
     1
102
RTVSPropertyOp9
 70
     1
102
RTVSPropertyOp10
 70
     1
102
RTVSPropertyOp11
 70
     1
102
RTVSPropertyOp12
 70
     1
102
RTVSPropertyOp13
 70
     1
102
RTVSPropertyOp14
 70
     1
102
RTVSPropertyOp15
 70
     1
102
RTVSPropertyOp16
 70
     1
102
RTVSPropertyOp17
 70
     1
102
RTVSPropertyOp18
 70
     1
102
RTVSPropertyOp19
 70
     1
102
RTVSPropertyOp20
 70
     1
102
RTVSPropertyOp21
 70
     1
102
RTVSPropertyOp22
 70
     1
102
RTVSPropertyOp23
 70
     1
102
RTVSPropertyOp24
 70
     1
102
RTVSPropertyOp25
 70
     1
102
RTVSPropertyOp26
 70
     1
102
RTVSPropertyOp27
 70
     1
102
RTVSPropertyOp28
 70
     1
102
RTVSPropertyOp29
 70
     1
102
RTVSPropertyOp30
 70
     1
102
RTVSPropertyOp31
 70
     1
102
RTVSPropertyOp32
 70
     1
102
RTVSPropertyOp33
 70
     1
102
RTVSPropertyOp34
 70
     1
102
RTVSPropertyOp35
 70
     1
102
RTVSPropertyOp36
 70
     1
102
RTVSPropertyOp37
 70
     1
102
RTVSPropertyOp38
 70
     1
102
RTVSPropertyOp39
 70
     1
102
RTVSPropertyOp40
 70
     1
102
RTVSPropertyOp41
 70
     1
102
RTVSPropertyOp42
 70
     1
102
RTVSPropertyOp43
 70
     1
102
RTVSPropertyOp44
 70
     1
102
RTVSPropertyOp45
 70
     1
102
RTVSPropertyOp46
 70
     1
102
RTVSPropertyOp47
 70
     1
102
RTVSPropertyOp48
 70
     1
102
RTVSPropertyOp49
 70
     1
102
RTVSPropertyOp50
 70
     1
102
RTVSPropertyOp51
 70
     0
102
RTVSPropertyOp52
 70
     0
102
RTVSPropertyOp53
 70
     1
102
RTVSPropertyOp54
 70
     1
102
RTVSPropertyOp55
 70
     1
102
RTVSPropertyOp56
 70
     1
102
RTVSPropertyOp57
 70
     1
102
RTVSPost2010Prop28
280
     1
102
RTVSPost2010PropOp28
 70
     1
102
RTVSPost2010Prop29
280
     1
102
RTVSPost2010PropOp29
 70
     1
102
RTVSPost2010Prop30
280
     0
102
RTVSPost2010PropOp30
 70
     1
102
RTVSPost2010Prop31
280
     0
102
RTVSPost2010PropOp31
 70
     1
102
RTVSPost2010Prop32
280
     0
102
RTVSPost2010PropOp32
 70
     1
102
RTVSPost2010Prop33
280
     0
102
RTVSPost2010PropOp33
 70
     1
102
RTVSPost2010Prop34
280
     0
102
RTVSPost2010PropOp34
 70
     1
102
RTVSPost2010Prop35
280
     0
102
RTVSPost2010PropOp35
 70
     1
102
RTVSPost2010Prop36
280
     0
102
RTVSPost2010PropOp36
 70
     1
102
RTVSPost2010Prop37
 90
       50
102
RTVSPost2010PropOp37
 70
     1
102
RTVSPost2010Prop38
140
0.0
102
RTVSPost2010PropOp38
 70
     1
102
RTVSPost2010Prop39
140
1.0
102
RTVSPost2010PropOp39
 70
     1
102
RTVSPost2010Prop40
 90
        0
102
RTVSPost2010PropOp40
 70
     1
102
RTVSPost2010Prop41ColorIndex
 90
       18
102
RTVSPost2010Prop41ColorRGB
 90
        0
102
RTVSPost2010PropOp41
 70
     1
102
RTVSPost2010Prop42
 90
       50
102
RTVSPost2010PropOp42
 70
     1
102
RTVSPost2010Prop43
 90
        3
102
RTVSPost2010PropOp43
 70
     1
102
RTVSPost2010Prop44ColorIndex
 90
        5
102
RTVSPost2010Prop44ColorRGB
 90
      255
102
RTVSPost2010PropOp44
 70
     1
102
RTVSPost2010Prop45
280
     0
102
RTVSPost2010PropOp45
 70
     1
102
RTVSPost2010Prop46
 90
       50
102
RTVSPost2010PropOp46
 70
     1
102
RTVSPost2010Prop47
 90
       50
102
RTVSPost2010PropOp47
 70
     1
102
RTVSPost2010Prop48
 90
       50
102
RTVSPost2010PropOp48
 70
     1
102
RTVSPost2010Prop49
280
     0
102
RTVSPost2010PropOp49
 70
     1
102
RTVSPost2010Prop50
 90
       50
102
RTVSPost2010PropOp50
 70
     1
102
RTVSPost2010Prop51ColorIndex
 90
      256
102
RTVSPost2010Prop51ColorRGB
 90
-16777216
102
RTVSPost2010PropOp51
 70
     0
102
RTVSPost2010Prop52
140
1.0
102
RTVSPost2010PropOp52
 70
     0
102
RTVSPost2010Prop53
 90
        2
102
RTVSPost2010PropOp53
 70
     1
102
RTVSPost2010Prop54
  1
strokes_ogs.tif
102
RTVSPost2010PropOp54
 70
     1
102
RTVSPost2010Prop55
280
     0
102
RTVSPost2010PropOp55
 70
     1
102
RTVSPost2010Prop56
140
1.0
102
RTVSPost2010PropOp56
 70
     1
102
RTVSPost2010Prop57
140
1.0
102
RTVSPost2010PropOp57
 70
     1
  0
XRECORD
  5
32F
102
{ACAD_REACTORS
330
32E
102
}
330
32E
100
AcDbXrecord
280
     1
102
RTVSPropertyOp0
 70
     1
102
RTVSPropertyOp1
 70
     1
102
RTVSPropertyOp2
 70
     1
102
RTVSPropertyOp3
 70
     1
102
RTVSPropertyOp4
 70
     1
102
RTVSPropertyOp5
 70
     1
102
RTVSPropertyOp6
 70
     1
102
RTVSPropertyOp7
 70
     1
102
RTVSPropertyOp8
 70
     1
102
RTVSPropertyOp9
 70
     1
102
RTVSPropertyOp10
 70
     1
102
RTVSPropertyOp11
 70
     1
102
RTVSPropertyOp12
 70
     1
102
RTVSPropertyOp13
 70
     1
102
RTVSPropertyOp14
 70
     1
102
RTVSPropertyOp15
 70
     1
102
RTVSPropertyOp16
 70
     1
102
RTVSPropertyOp17
 70
     1
102
RTVSPropertyOp18
 70
     1
102
RTVSPropertyOp19
 70
     1
102
RTVSPropertyOp20
 70
     1
102
RTVSPropertyOp21
 70
     1
102
RTVSPropertyOp22
 70
     1
102
RTVSPropertyOp23
 70
     1
102
RTVSPropertyOp24
 70
     1
102
RTVSPropertyOp25
 70
     1
102
RTVSPropertyOp26
 70
     1
102
RTVSPropertyOp27
 70
     1
102
RTVSPropertyOp28
 70
     1
102
RTVSPropertyOp29
 70
     1
102
RTVSPropertyOp30
 70
     1
102
RTVSPropertyOp31
 70
     1
102
RTVSPropertyOp32
 70
     1
102
RTVSPropertyOp33
 70
     1
102
RTVSPropertyOp34
 70
     1
102
RTVSPropertyOp35
 70
     1
102
RTVSPropertyOp36
 70
     1
102
RTVSPropertyOp37
 70
     1
102
RTVSPropertyOp38
 70
     1
102
RTVSPropertyOp39
 70
     1
102
RTVSPropertyOp40
 70
     1
102
RTVSPropertyOp41
 70
     1
102
RTVSPropertyOp42
 70
     1
102
RTVSPropertyOp43
 70
     1
102
RTVSPropertyOp44
 70
     1
102
RTVSPropertyOp45
 70
     1
102
RTVSPropertyOp46
 70
     1
102
RTVSPropertyOp47
 70
     1
102
RTVSPropertyOp48
 70
     1
102
RTVSPropertyOp49
 70
     1
102
RTVSPropertyOp50
 70
     1
102
RTVSPropertyOp51
 70
     0
102
RTVSPropertyOp52
 70
     0
102
RTVSPropertyOp53
 70
     1
102
RTVSPropertyOp54
 70
     1
102
RTVSPropertyOp55
 70
     1
102
RTVSPropertyOp56
 70
     1
102
RTVSPropertyOp57
 70
     1
102
RTVSPost2010Prop28
280
     0
102
RTVSPost2010PropOp28
 70
     1
102
RTVSPost2010Prop29
280
     1
102
RTVSPost2010PropOp29
 70
     1
102
RTVSPost2010Prop30
280
     1
102
RTVSPost2010PropOp30
 70
     1
102
RTVSPost2010Prop31
280
     0
102
RTVSPost2010PropOp31
 70
     1
102
RTVSPost2010Prop32
280
     0
102
RTVSPost2010PropOp32
 70
     1
102
RTVSPost2010Prop33
280
     0
102
RTVSPost2010PropOp33
 70
     1
102
RTVSPost2010Prop34
280
     0
102
RTVSPost2010PropOp34
 70
     1
102
RTVSPost2010Prop35
280
     0
102
RTVSPost2010PropOp35
 70
     1
102
RTVSPost2010Prop36
280
     0
102
RTVSPost2010PropOp36
 70
     1
102
RTVSPost2010Prop37
 90
       50
102
RTVSPost2010PropOp37
 70
     1
102
RTVSPost2010Prop38
140
0.0
102
RTVSPost2010PropOp38
 70
     1
102
RTVSPost2010Prop39
140
1.0
102
RTVSPost2010PropOp39
 70
     1
102
RTVSPost2010Prop40
 90
        0
102
RTVSPost2010PropOp40
 70
     1
102
RTVSPost2010Prop41ColorIndex
 90
       18
102
RTVSPost2010Prop41ColorRGB
 90
        0
102
RTVSPost2010PropOp41
 70
     1
102
RTVSPost2010Prop42
 90
       50
102
RTVSPost2010PropOp42
 70
     1
102
RTVSPost2010Prop43
 90
        3
102
RTVSPost2010PropOp43
 70
     1
102
RTVSPost2010Prop44ColorIndex
 90
        5
102
RTVSPost2010Prop44ColorRGB
 90
      255
102
RTVSPost2010PropOp44
 70
     1
102
RTVSPost2010Prop45
280
     0
102
RTVSPost2010PropOp45
 70
     1
102
RTVSPost2010Prop46
 90
       50
102
RTVSPost2010PropOp46
 70
     1
102
RTVSPost2010Prop47
 90
       50
102
RTVSPost2010PropOp47
 70
     1
102
RTVSPost2010Prop48
 90
       50
102
RTVSPost2010PropOp48
 70
     1
102
RTVSPost2010Prop49
280
     0
102
RTVSPost2010PropOp49
 70
     1
102
RTVSPost2010Prop50
 90
       50
102
RTVSPost2010PropOp50
 70
     1
102
RTVSPost2010Prop51ColorIndex
 90
      256
102
RTVSPost2010Prop51ColorRGB
 90
-16777216
102
RTVSPost2010PropOp51
 70
     0
102
RTVSPost2010Prop52
140
1.0
102
RTVSPost2010PropOp52
 70
     0
102
RTVSPost2010Prop53
 90
        2
102
RTVSPost2010PropOp53
 70
     1
102
RTVSPost2010Prop54
  1
strokes_ogs.tif
102
RTVSPost2010PropOp54
 70
     1
102
RTVSPost2010Prop55
280
     0
102
RTVSPost2010PropOp55
 70
     1
102
RTVSPost2010Prop56
140
1.0
102
RTVSPost2010PropOp56
 70
     1
102
RTVSPost2010Prop57
140
1.0
102
RTVSPost2010PropOp57
 70
     1
  0
XRECORD
  5
337
102
{ACAD_REACTORS
330
336
102
}
330
336
100
AcDbXrecord
280
     1
102
RTVSPropertyOp0
 70
     1
102
RTVSPropertyOp1
 70
     1
102
RTVSPropertyOp2
 70
     1
102
RTVSPropertyOp3
 70
     1
102
RTVSPropertyOp4
 70
     1
102
RTVSPropertyOp5
 70
     1
102
RTVSPropertyOp6
 70
     1
102
RTVSPropertyOp7
 70
     1
102
RTVSPropertyOp8
 70
     1
102
RTVSPropertyOp9
 70
     1
102
RTVSPropertyOp10
 70
     1
102
RTVSPropertyOp11
 70
     1
102
RTVSPropertyOp12
 70
     1
102
RTVSPropertyOp13
 70
     1
102
RTVSPropertyOp14
 70
     1
102
RTVSPropertyOp15
 70
     1
102
RTVSPropertyOp16
 70
     1
102
RTVSPropertyOp17
 70
     1
102
RTVSPropertyOp18
 70
     1
102
RTVSPropertyOp19
 70
     1
102
RTVSPropertyOp20
 70
     1
102
RTVSPropertyOp21
 70
     1
102
RTVSPropertyOp22
 70
     1
102
RTVSPropertyOp23
 70
     1
102
RTVSPropertyOp24
 70
     1
102
RTVSPropertyOp25
 70
     1
102
RTVSPropertyOp26
 70
     1
102
RTVSPropertyOp27
 70
     1
102
RTVSPropertyOp28
 70
     1
102
RTVSPropertyOp29
 70
     1
102
RTVSPropertyOp30
 70
     1
102
RTVSPropertyOp31
 70
     1
102
RTVSPropertyOp32
 70
     1
102
RTVSPropertyOp33
 70
     1
102
RTVSPropertyOp34
 70
     1
102
RTVSPropertyOp35
 70
     1
102
RTVSPropertyOp36
 70
     1
102
RTVSPropertyOp37
 70
     1
102
RTVSPropertyOp38
 70
     1
102
RTVSPropertyOp39
 70
     1
102
RTVSPropertyOp40
 70
     1
102
RTVSPropertyOp41
 70
     1
102
RTVSPropertyOp42
 70
     1
102
RTVSPropertyOp43
 70
     1
102
RTVSPropertyOp44
 70
     1
102
RTVSPropertyOp45
 70
     1
102
RTVSPropertyOp46
 70
     1
102
RTVSPropertyOp47
 70
     1
102
RTVSPropertyOp48
 70
     1
102
RTVSPropertyOp49
 70
     1
102
RTVSPropertyOp50
 70
     1
102
RTVSPropertyOp51
 70
     0
102
RTVSPropertyOp52
 70
     0
102
RTVSPropertyOp53
 70
     1
102
RTVSPropertyOp54
 70
     1
102
RTVSPropertyOp55
 70
     1
102
RTVSPropertyOp56
 70
     1
102
RTVSPropertyOp57
 70
     1
102
RTVSPost2010Prop28
280
     0
102
RTVSPost2010PropOp28
 70
     1
102
RTVSPost2010Prop29
280
     1
102
RTVSPost2010PropOp29
 70
     1
102
RTVSPost2010Prop30
280
     1
102
RTVSPost2010PropOp30
 70
     1
102
RTVSPost2010Prop31
280
     0
102
RTVSPost2010PropOp31
 70
     1
102
RTVSPost2010Prop32
280
     0
102
RTVSPost2010PropOp32
 70
     1
102
RTVSPost2010Prop33
280
     0
102
RTVSPost2010PropOp33
 70
     1
102
RTVSPost2010Prop34
280
     0
102
RTVSPost2010PropOp34
 70
     1
102
RTVSPost2010Prop35
280
     0
102
RTVSPost2010PropOp35
 70
     1
102
RTVSPost2010Prop36
280
     0
102
RTVSPost2010PropOp36
 70
     1
102
RTVSPost2010Prop37
 90
       50
102
RTVSPost2010PropOp37
 70
     1
102
RTVSPost2010Prop38
140
0.0
102
RTVSPost2010PropOp38
 70
     1
102
RTVSPost2010Prop39
140
1.0
102
RTVSPost2010PropOp39
 70
     1
102
RTVSPost2010Prop40
 90
        0
102
RTVSPost2010PropOp40
 70
     1
102
RTVSPost2010Prop41ColorIndex
 90
       18
102
RTVSPost2010Prop41ColorRGB
 90
        0
102
RTVSPost2010PropOp41
 70
     1
102
RTVSPost2010Prop42
 90
       50
102
RTVSPost2010PropOp42
 70
     1
102
RTVSPost2010Prop43
 90
        3
102
RTVSPost2010PropOp43
 70
     1
102
RTVSPost2010Prop44ColorIndex
 90
        5
102
RTVSPost2010Prop44ColorRGB
 90
      255
102
RTVSPost2010PropOp44
 70
     1
102
RTVSPost2010Prop45
280
     0
102
RTVSPost2010PropOp45
 70
     1
102
RTVSPost2010Prop46
 90
       50
102
RTVSPost2010PropOp46
 70
     1
102
RTVSPost2010Prop47
 90
       50
102
RTVSPost2010PropOp47
 70
     1
102
RTVSPost2010Prop48
 90
       50
102
RTVSPost2010PropOp48
 70
     1
102
RTVSPost2010Prop49
280
     0
102
RTVSPost2010PropOp49
 70
     1
102
RTVSPost2010Prop50
 90
       50
102
RTVSPost2010PropOp50
 70
     1
102
RTVSPost2010Prop51ColorIndex
 90
      256
102
RTVSPost2010Prop51ColorRGB
 90
-16777216
102
RTVSPost2010PropOp51
 70
     0
102
RTVSPost2010Prop52
140
1.0
102
RTVSPost2010PropOp52
 70
     0
102
RTVSPost2010Prop53
 90
        2
102
RTVSPost2010PropOp53
 70
     1
102
RTVSPost2010Prop54
  1
strokes_ogs.tif
102
RTVSPost2010PropOp54
 70
     1
102
RTVSPost2010Prop55
280
     0
102
RTVSPost2010PropOp55
 70
     1
102
RTVSPost2010Prop56
140
1.0
102
RTVSPost2010PropOp56
 70
     1
102
RTVSPost2010Prop57
140
1.0
102
RTVSPost2010PropOp57
 70
     1
  0
XRECORD
  5
33F
102
{ACAD_REACTORS
330
33E
102
}
330
33E
100
AcDbXrecord
280
     1
102
RTVSPropertyOp0
 70
     1
102
RTVSPropertyOp1
 70
     1
102
RTVSPropertyOp2
 70
     1
102
RTVSPropertyOp3
 70
     1
102
RTVSPropertyOp4
 70
     1
102
RTVSPropertyOp5
 70
     1
102
RTVSPropertyOp6
 70
     1
102
RTVSPropertyOp7
 70
     1
102
RTVSPropertyOp8
 70
     1
102
RTVSPropertyOp9
 70
     1
102
RTVSPropertyOp10
 70
     1
102
RTVSPropertyOp11
 70
     1
102
RTVSPropertyOp12
 70
     1
102
RTVSPropertyOp13
 70
     1
102
RTVSPropertyOp14
 70
     1
102
RTVSPropertyOp15
 70
     1
102
RTVSPropertyOp16
 70
     1
102
RTVSPropertyOp17
 70
     1
102
RTVSPropertyOp18
 70
     1
102
RTVSPropertyOp19
 70
     1
102
RTVSPropertyOp20
 70
     1
102
RTVSPropertyOp21
 70
     1
102
RTVSPropertyOp22
 70
     1
102
RTVSPropertyOp23
 70
     1
102
RTVSPropertyOp24
 70
     1
102
RTVSPropertyOp25
 70
     1
102
RTVSPropertyOp26
 70
     1
102
RTVSPropertyOp27
 70
     1
102
RTVSPropertyOp28
 70
     1
102
RTVSPropertyOp29
 70
     1
102
RTVSPropertyOp30
 70
     1
102
RTVSPropertyOp31
 70
     1
102
RTVSPropertyOp32
 70
     1
102
RTVSPropertyOp33
 70
     1
102
RTVSPropertyOp34
 70
     1
102
RTVSPropertyOp35
 70
     1
102
RTVSPropertyOp36
 70
     1
102
RTVSPropertyOp37
 70
     1
102
RTVSPropertyOp38
 70
     1
102
RTVSPropertyOp39
 70
     1
102
RTVSPropertyOp40
 70
     1
102
RTVSPropertyOp41
 70
     1
102
RTVSPropertyOp42
 70
     1
102
RTVSPropertyOp43
 70
     1
102
RTVSPropertyOp44
 70
     1
102
RTVSPropertyOp45
 70
     1
102
RTVSPropertyOp46
 70
     1
102
RTVSPropertyOp47
 70
     1
102
RTVSPropertyOp48
 70
     1
102
RTVSPropertyOp49
 70
     1
102
RTVSPropertyOp50
 70
     1
102
RTVSPropertyOp51
 70
     0
102
RTVSPropertyOp52
 70
     0
102
RTVSPropertyOp53
 70
     1
102
RTVSPropertyOp54
 70
     1
102
RTVSPropertyOp55
 70
     1
102
RTVSPropertyOp56
 70
     1
102
RTVSPropertyOp57
 70
     1
102
RTVSPost2010Prop28
280
     0
102
RTVSPost2010PropOp28
 70
     1
102
RTVSPost2010Prop29
280
     1
102
RTVSPost2010PropOp29
 70
     1
102
RTVSPost2010Prop30
280
     1
102
RTVSPost2010PropOp30
 70
     1
102
RTVSPost2010Prop31
280
     0
102
RTVSPost2010PropOp31
 70
     1
102
RTVSPost2010Prop32
280
     0
102
RTVSPost2010PropOp32
 70
     1
102
RTVSPost2010Prop33
280
     0
102
RTVSPost2010PropOp33
 70
     1
102
RTVSPost2010Prop34
280
     0
102
RTVSPost2010PropOp34
 70
     1
102
RTVSPost2010Prop35
280
     0
102
RTVSPost2010PropOp35
 70
     1
102
RTVSPost2010Prop36
280
     0
102
RTVSPost2010PropOp36
 70
     1
102
RTVSPost2010Prop37
 90
       50
102
RTVSPost2010PropOp37
 70
     1
102
RTVSPost2010Prop38
140
0.0
102
RTVSPost2010PropOp38
 70
     1
102
RTVSPost2010Prop39
140
1.0
102
RTVSPost2010PropOp39
 70
     1
102
RTVSPost2010Prop40
 90
        0
102
RTVSPost2010PropOp40
 70
     1
102
RTVSPost2010Prop41ColorIndex
 90
       18
102
RTVSPost2010Prop41ColorRGB
 90
        0
102
RTVSPost2010PropOp41
 70
     1
102
RTVSPost2010Prop42
 90
       50
102
RTVSPost2010PropOp42
 70
     1
102
RTVSPost2010Prop43
 90
        3
102
RTVSPost2010PropOp43
 70
     1
102
RTVSPost2010Prop44ColorIndex
 90
        5
102
RTVSPost2010Prop44ColorRGB
 90
      255
102
RTVSPost2010PropOp44
 70
     1
102
RTVSPost2010Prop45
280
     0
102
RTVSPost2010PropOp45
 70
     1
102
RTVSPost2010Prop46
 90
       50
102
RTVSPost2010PropOp46
 70
     1
102
RTVSPost2010Prop47
 90
       50
102
RTVSPost2010PropOp47
 70
     1
102
RTVSPost2010Prop48
 90
       50
102
RTVSPost2010PropOp48
 70
     1
102
RTVSPost2010Prop49
280
     0
102
RTVSPost2010PropOp49
 70
     1
102
RTVSPost2010Prop50
 90
       50
102
RTVSPost2010PropOp50
 70
     1
102
RTVSPost2010Prop51ColorIndex
 90
      256
102
RTVSPost2010Prop51ColorRGB
 90
-16777216
102
RTVSPost2010PropOp51
 70
     0
102
RTVSPost2010Prop52
140
1.0
102
RTVSPost2010PropOp52
 70
     0
102
RTVSPost2010Prop53
 90
        2
102
RTVSPost2010PropOp53
 70
     1
102
RTVSPost2010Prop54
  1
strokes_ogs.tif
102
RTVSPost2010PropOp54
 70
     1
102
RTVSPost2010Prop55
280
     0
102
RTVSPost2010PropOp55
 70
     1
102
RTVSPost2010Prop56
140
1.0
102
RTVSPost2010PropOp56
 70
     1
102
RTVSPost2010Prop57
140
1.0
102
RTVSPost2010PropOp57
 70
     1
  0
XRECORD
  5
333
102
{ACAD_REACTORS
330
332
102
}
330
332
100
AcDbXrecord
280
     1
102
RTVSPropertyOp0
 70
     1
102
RTVSPropertyOp1
 70
     1
102
RTVSPropertyOp2
 70
     1
102
RTVSPropertyOp3
 70
     1
102
RTVSPropertyOp4
 70
     1
102
RTVSPropertyOp5
 70
     1
102
RTVSPropertyOp6
 70
     1
102
RTVSPropertyOp7
 70
     1
102
RTVSPropertyOp8
 70
     1
102
RTVSPropertyOp9
 70
     1
102
RTVSPropertyOp10
 70
     1
102
RTVSPropertyOp11
 70
     1
102
RTVSPropertyOp12
 70
     1
102
RTVSPropertyOp13
 70
     1
102
RTVSPropertyOp14
 70
     1
102
RTVSPropertyOp15
 70
     1
102
RTVSPropertyOp16
 70
     1
102
RTVSPropertyOp17
 70
     1
102
RTVSPropertyOp18
 70
     1
102
RTVSPropertyOp19
 70
     1
102
RTVSPropertyOp20
 70
     1
102
RTVSPropertyOp21
 70
     1
102
RTVSPropertyOp22
 70
     1
102
RTVSPropertyOp23
 70
     1
102
RTVSPropertyOp24
 70
     1
102
RTVSPropertyOp25
 70
     1
102
RTVSPropertyOp26
 70
     1
102
RTVSPropertyOp27
 70
     1
102
RTVSPropertyOp28
 70
     1
102
RTVSPropertyOp29
 70
     1
102
RTVSPropertyOp30
 70
     1
102
RTVSPropertyOp31
 70
     1
102
RTVSPropertyOp32
 70
     1
102
RTVSPropertyOp33
 70
     1
102
RTVSPropertyOp34
 70
     1
102
RTVSPropertyOp35
 70
     1
102
RTVSPropertyOp36
 70
     1
102
RTVSPropertyOp37
 70
     1
102
RTVSPropertyOp38
 70
     1
102
RTVSPropertyOp39
 70
     1
102
RTVSPropertyOp40
 70
     1
102
RTVSPropertyOp41
 70
     1
102
RTVSPropertyOp42
 70
     1
102
RTVSPropertyOp43
 70
     1
102
RTVSPropertyOp44
 70
     1
102
RTVSPropertyOp45
 70
     1
102
RTVSPropertyOp46
 70
     1
102
RTVSPropertyOp47
 70
     1
102
RTVSPropertyOp48
 70
     1
102
RTVSPropertyOp49
 70
     1
102
RTVSPropertyOp50
 70
     1
102
RTVSPropertyOp51
 70
     0
102
RTVSPropertyOp52
 70
     0
102
RTVSPropertyOp53
 70
     1
102
RTVSPropertyOp54
 70
     1
102
RTVSPropertyOp55
 70
     1
102
RTVSPropertyOp56
 70
     1
102
RTVSPropertyOp57
 70
     1
102
RTVSPost2010Prop28
280
     0
102
RTVSPost2010PropOp28
 70
     1
102
RTVSPost2010Prop29
280
     1
102
RTVSPost2010PropOp29
 70
     1
102
RTVSPost2010Prop30
280
     1
102
RTVSPost2010PropOp30
 70
     1
102
RTVSPost2010Prop31
280
     0
102
RTVSPost2010PropOp31
 70
     1
102
RTVSPost2010Prop32
280
     0
102
RTVSPost2010PropOp32
 70
     1
102
RTVSPost2010Prop33
280
     0
102
RTVSPost2010PropOp33
 70
     1
102
RTVSPost2010Prop34
280
     0
102
RTVSPost2010PropOp34
 70
     1
102
RTVSPost2010Prop35
280
     0
102
RTVSPost2010PropOp35
 70
     1
102
RTVSPost2010Prop36
280
     0
102
RTVSPost2010PropOp36
 70
     1
102
RTVSPost2010Prop37
 90
       50
102
RTVSPost2010PropOp37
 70
     1
102
RTVSPost2010Prop38
140
0.0
102
RTVSPost2010PropOp38
 70
     1
102
RTVSPost2010Prop39
140
1.0
102
RTVSPost2010PropOp39
 70
     1
102
RTVSPost2010Prop40
 90
        0
102
RTVSPost2010PropOp40
 70
     1
102
RTVSPost2010Prop41ColorIndex
 90
       18
102
RTVSPost2010Prop41ColorRGB
 90
        0
102
RTVSPost2010PropOp41
 70
     1
102
RTVSPost2010Prop42
 90
       50
102
RTVSPost2010PropOp42
 70
     1
102
RTVSPost2010Prop43
 90
        3
102
RTVSPost2010PropOp43
 70
     1
102
RTVSPost2010Prop44ColorIndex
 90
        5
102
RTVSPost2010Prop44ColorRGB
 90
      255
102
RTVSPost2010PropOp44
 70
     1
102
RTVSPost2010Prop45
280
     0
102
RTVSPost2010PropOp45
 70
     1
102
RTVSPost2010Prop46
 90
       50
102
RTVSPost2010PropOp46
 70
     1
102
RTVSPost2010Prop47
 90
       50
102
RTVSPost2010PropOp47
 70
     1
102
RTVSPost2010Prop48
 90
       50
102
RTVSPost2010PropOp48
 70
     1
102
RTVSPost2010Prop49
280
     0
102
RTVSPost2010PropOp49
 70
     1
102
RTVSPost2010Prop50
 90
       50
102
RTVSPost2010PropOp50
 70
     1
102
RTVSPost2010Prop51ColorIndex
 90
      256
102
RTVSPost2010Prop51ColorRGB
 90
-16777216
102
RTVSPost2010PropOp51
 70
     0
102
RTVSPost2010Prop52
140
1.0
102
RTVSPost2010PropOp52
 70
     0
102
RTVSPost2010Prop53
 90
        2
102
RTVSPost2010PropOp53
 70
     1
102
RTVSPost2010Prop54
  1
strokes_ogs.tif
102
RTVSPost2010PropOp54
 70
     1
102
RTVSPost2010Prop55
280
     0
102
RTVSPost2010PropOp55
 70
     1
102
RTVSPost2010Prop56
140
1.0
102
RTVSPost2010PropOp56
 70
     1
102
RTVSPost2010Prop57
140
1.0
102
RTVSPost2010PropOp57
 70
     1
  0
XRECORD
  5
335
102
{ACAD_REACTORS
330
334
102
}
330
334
100
AcDbXrecord
280
     1
102
RTVSPropertyOp0
 70
     1
102
RTVSPropertyOp1
 70
     1
102
RTVSPropertyOp2
 70
     1
102
RTVSPropertyOp3
 70
     1
102
RTVSPropertyOp4
 70
     1
102
RTVSPropertyOp5
 70
     1
102
RTVSPropertyOp6
 70
     1
102
RTVSPropertyOp7
 70
     1
102
RTVSPropertyOp8
 70
     1
102
RTVSPropertyOp9
 70
     1
102
RTVSPropertyOp10
 70
     1
102
RTVSPropertyOp11
 70
     1
102
RTVSPropertyOp12
 70
     1
102
RTVSPropertyOp13
 70
     1
102
RTVSPropertyOp14
 70
     1
102
RTVSPropertyOp15
 70
     1
102
RTVSPropertyOp16
 70
     1
102
RTVSPropertyOp17
 70
     1
102
RTVSPropertyOp18
 70
     1
102
RTVSPropertyOp19
 70
     1
102
RTVSPropertyOp20
 70
     1
102
RTVSPropertyOp21
 70
     1
102
RTVSPropertyOp22
 70
     1
102
RTVSPropertyOp23
 70
     1
102
RTVSPropertyOp24
 70
     1
102
RTVSPropertyOp25
 70
     1
102
RTVSPropertyOp26
 70
     1
102
RTVSPropertyOp27
 70
     1
102
RTVSPropertyOp28
 70
     1
102
RTVSPropertyOp29
 70
     1
102
RTVSPropertyOp30
 70
     1
102
RTVSPropertyOp31
 70
     1
102
RTVSPropertyOp32
 70
     1
102
RTVSPropertyOp33
 70
     1
102
RTVSPropertyOp34
 70
     1
102
RTVSPropertyOp35
 70
     1
102
RTVSPropertyOp36
 70
     1
102
RTVSPropertyOp37
 70
     1
102
RTVSPropertyOp38
 70
     1
102
RTVSPropertyOp39
 70
     1
102
RTVSPropertyOp40
 70
     1
102
RTVSPropertyOp41
 70
     1
102
RTVSPropertyOp42
 70
     1
102
RTVSPropertyOp43
 70
     1
102
RTVSPropertyOp44
 70
     1
102
RTVSPropertyOp45
 70
     1
102
RTVSPropertyOp46
 70
     1
102
RTVSPropertyOp47
 70
     1
102
RTVSPropertyOp48
 70
     1
102
RTVSPropertyOp49
 70
     1
102
RTVSPropertyOp50
 70
     1
102
RTVSPropertyOp51
 70
     0
102
RTVSPropertyOp52
 70
     0
102
RTVSPropertyOp53
 70
     1
102
RTVSPropertyOp54
 70
     1
102
RTVSPropertyOp55
 70
     1
102
RTVSPropertyOp56
 70
     1
102
RTVSPropertyOp57
 70
     1
102
RTVSPost2010Prop28
280
     0
102
RTVSPost2010PropOp28
 70
     1
102
RTVSPost2010Prop29
280
     1
102
RTVSPost2010PropOp29
 70
     1
102
RTVSPost2010Prop30
280
     1
102
RTVSPost2010PropOp30
 70
     1
102
RTVSPost2010Prop31
280
     0
102
RTVSPost2010PropOp31
 70
     1
102
RTVSPost2010Prop32
280
     0
102
RTVSPost2010PropOp32
 70
     1
102
RTVSPost2010Prop33
280
     0
102
RTVSPost2010PropOp33
 70
     1
102
RTVSPost2010Prop34
280
     0
102
RTVSPost2010PropOp34
 70
     1
102
RTVSPost2010Prop35
280
     0
102
RTVSPost2010PropOp35
 70
     1
102
RTVSPost2010Prop36
280
     0
102
RTVSPost2010PropOp36
 70
     1
102
RTVSPost2010Prop37
 90
       50
102
RTVSPost2010PropOp37
 70
     1
102
RTVSPost2010Prop38
140
0.0
102
RTVSPost2010PropOp38
 70
     1
102
RTVSPost2010Prop39
140
1.0
102
RTVSPost2010PropOp39
 70
     1
102
RTVSPost2010Prop40
 90
        0
102
RTVSPost2010PropOp40
 70
     1
102
RTVSPost2010Prop41ColorIndex
 90
       18
102
RTVSPost2010Prop41ColorRGB
 90
        0
102
RTVSPost2010PropOp41
 70
     1
102
RTVSPost2010Prop42
 90
       50
102
RTVSPost2010PropOp42
 70
     1
102
RTVSPost2010Prop43
 90
        3
102
RTVSPost2010PropOp43
 70
     1
102
RTVSPost2010Prop44ColorIndex
 90
        5
102
RTVSPost2010Prop44ColorRGB
 90
      255
102
RTVSPost2010PropOp44
 70
     1
102
RTVSPost2010Prop45
280
     0
102
RTVSPost2010PropOp45
 70
     1
102
RTVSPost2010Prop46
 90
       50
102
RTVSPost2010PropOp46
 70
     1
102
RTVSPost2010Prop47
 90
       50
102
RTVSPost2010PropOp47
 70
     1
102
RTVSPost2010Prop48
 90
       50
102
RTVSPost2010PropOp48
 70
     1
102
RTVSPost2010Prop49
280
     0
102
RTVSPost2010PropOp49
 70
     1
102
RTVSPost2010Prop50
 90
       50
102
RTVSPost2010PropOp50
 70
     1
102
RTVSPost2010Prop51ColorIndex
 90
      256
102
RTVSPost2010Prop51ColorRGB
 90
-16777216
102
RTVSPost2010PropOp51
 70
     0
102
RTVSPost2010Prop52
140
1.0
102
RTVSPost2010PropOp52
 70
     0
102
RTVSPost2010Prop53
 90
        2
102
RTVSPost2010PropOp53
 70
     1
102
RTVSPost2010Prop54
  1
strokes_ogs.tif
102
RTVSPost2010PropOp54
 70
     1
102
RTVSPost2010Prop55
280
     0
102
RTVSPost2010PropOp55
 70
     1
102
RTVSPost2010Prop56
140
1.0
102
RTVSPost2010PropOp56
 70
     1
102
RTVSPost2010Prop57
140
1.0
102
RTVSPost2010PropOp57
 70
     1
  0
XRECORD
  5
345
102
{ACAD_REACTORS
330
344
102
}
330
344
100
AcDbXrecord
280
     1
102
RTVSPropertyOp0
 70
     0
102
RTVSPropertyOp1
 70
     0
102
RTVSPropertyOp2
 70
     0
102
RTVSPropertyOp3
 70
     0
102
RTVSPropertyOp4
 70
     0
102
RTVSPropertyOp5
 70
     0
102
RTVSPropertyOp6
 70
     0
102
RTVSPropertyOp7
 70
     0
102
RTVSPropertyOp8
 70
     0
102
RTVSPropertyOp9
 70
     0
102
RTVSPropertyOp10
 70
     0
102
RTVSPropertyOp11
 70
     0
102
RTVSPropertyOp12
 70
     0
102
RTVSPropertyOp13
 70
     0
102
RTVSPropertyOp14
 70
     2
102
RTVSPropertyOp15
 70
     0
102
RTVSPropertyOp16
 70
     0
102
RTVSPropertyOp17
 70
     0
102
RTVSPropertyOp18
 70
     0
102
RTVSPropertyOp19
 70
     0
102
RTVSPropertyOp20
 70
     0
102
RTVSPropertyOp21
 70
     0
102
RTVSPropertyOp22
 70
     0
102
RTVSPropertyOp23
 70
     0
102
RTVSPropertyOp24
 70
     0
102
RTVSPropertyOp25
 70
     0
102
RTVSPropertyOp26
 70
     0
102
RTVSPropertyOp27
 70
     0
102
RTVSPropertyOp28
 70
     0
102
RTVSPropertyOp29
 70
     0
102
RTVSPropertyOp30
 70
     0
102
RTVSPropertyOp31
 70
     0
102
RTVSPropertyOp32
 70
     0
102
RTVSPropertyOp33
 70
     0
102
RTVSPropertyOp34
 70
     0
102
RTVSPropertyOp35
 70
     0
102
RTVSPropertyOp36
 70
     0
102
RTVSPropertyOp37
 70
     0
102
RTVSPropertyOp38
 70
     0
102
RTVSPropertyOp39
 70
     0
102
RTVSPropertyOp40
 70
     0
102
RTVSPropertyOp41
 70
     0
102
RTVSPropertyOp42
 70
     0
102
RTVSPropertyOp43
 70
     0
102
RTVSPropertyOp44
 70
     0
102
RTVSPropertyOp45
 70
     0
102
RTVSPropertyOp46
 70
     0
102
RTVSPropertyOp47
 70
     0
102
RTVSPropertyOp48
 70
     0
102
RTVSPropertyOp49
 70
     0
102
RTVSPropertyOp50
 70
     0
102
RTVSPropertyOp51
 70
     0
102
RTVSPropertyOp52
 70
     0
102
RTVSPropertyOp53
 70
     0
102
RTVSPropertyOp54
 70
     0
102
RTVSPropertyOp55
 70
     0
102
RTVSPropertyOp56
 70
     0
102
RTVSPropertyOp57
 70
     0
102
RTVSPost2010Prop28
280
     0
102
RTVSPost2010PropOp28
 70
     0
102
RTVSPost2010Prop29
280
     1
102
RTVSPost2010PropOp29
 70
     0
102
RTVSPost2010Prop30
280
     1
102
RTVSPost2010PropOp30
 70
     0
102
RTVSPost2010Prop31
280
     0
102
RTVSPost2010PropOp31
 70
     0
102
RTVSPost2010Prop32
280
     0
102
RTVSPost2010PropOp32
 70
     0
102
RTVSPost2010Prop33
280
     0
102
RTVSPost2010PropOp33
 70
     0
102
RTVSPost2010Prop34
280
     0
102
RTVSPost2010PropOp34
 70
     0
102
RTVSPost2010Prop35
280
     0
102
RTVSPost2010PropOp35
 70
     0
102
RTVSPost2010Prop36
280
     0
102
RTVSPost2010PropOp36
 70
     0
102
RTVSPost2010Prop37
 90
       50
102
RTVSPost2010PropOp37
 70
     0
102
RTVSPost2010Prop38
140
0.0
102
RTVSPost2010PropOp38
 70
     0
102
RTVSPost2010Prop39
140
1.0
102
RTVSPost2010PropOp39
 70
     0
102
RTVSPost2010Prop40
 90
        0
102
RTVSPost2010PropOp40
 70
     0
102
RTVSPost2010Prop41ColorIndex
 90
       18
102
RTVSPost2010Prop41ColorRGB
 90
        0
102
RTVSPost2010PropOp41
 70
     0
102
RTVSPost2010Prop42
 90
       50
102
RTVSPost2010PropOp42
 70
     0
102
RTVSPost2010Prop43
 90
        3
102
RTVSPost2010PropOp43
 70
     0
102
RTVSPost2010Prop44ColorIndex
 90
        5
102
RTVSPost2010Prop44ColorRGB
 90
      255
102
RTVSPost2010PropOp44
 70
     0
102
RTVSPost2010Prop45
280
     0
102
RTVSPost2010PropOp45
 70
     0
102
RTVSPost2010Prop46
 90
       50
102
RTVSPost2010PropOp46
 70
     0
102
RTVSPost2010Prop47
 90
       50
102
RTVSPost2010PropOp47
 70
     0
102
RTVSPost2010Prop48
 90
       50
102
RTVSPost2010PropOp48
 70
     0
102
RTVSPost2010Prop49
280
     0
102
RTVSPost2010PropOp49
 70
     0
102
RTVSPost2010Prop50
 90
       50
102
RTVSPost2010PropOp50
 70
     0
102
RTVSPost2010Prop51ColorIndex
 90
      256
102
RTVSPost2010Prop51ColorRGB
 90
-16777216
102
RTVSPost2010PropOp51
 70
     0
102
RTVSPost2010Prop52
140
1.0
102
RTVSPost2010PropOp52
 70
     0
102
RTVSPost2010Prop53
 90
        2
102
RTVSPost2010PropOp53
 70
     0
102
RTVSPost2010Prop54
  1
strokes_ogs.tif
102
RTVSPost2010PropOp54
 70
     0
102
RTVSPost2010Prop55
280
     0
102
RTVSPost2010PropOp55
 70
     0
102
RTVSPost2010Prop56
140
1.0
102
RTVSPost2010PropOp56
 70
     0
102
RTVSPost2010Prop57
140
1.0
102
RTVSPost2010PropOp57
 70
     0
  0
XRECORD
  5
33D
102
{ACAD_REACTORS
330
33C
102
}
330
33C
100
AcDbXrecord
280
     1
102
RTVSPropertyOp0
 70
     1
102
RTVSPropertyOp1
 70
     1
102
RTVSPropertyOp2
 70
     1
102
RTVSPropertyOp3
 70
     1
102
RTVSPropertyOp4
 70
     1
102
RTVSPropertyOp5
 70
     1
102
RTVSPropertyOp6
 70
     1
102
RTVSPropertyOp7
 70
     1
102
RTVSPropertyOp8
 70
     1
102
RTVSPropertyOp9
 70
     1
102
RTVSPropertyOp10
 70
     1
102
RTVSPropertyOp11
 70
     1
102
RTVSPropertyOp12
 70
     1
102
RTVSPropertyOp13
 70
     1
102
RTVSPropertyOp14
 70
     1
102
RTVSPropertyOp15
 70
     1
102
RTVSPropertyOp16
 70
     1
102
RTVSPropertyOp17
 70
     1
102
RTVSPropertyOp18
 70
     1
102
RTVSPropertyOp19
 70
     1
102
RTVSPropertyOp20
 70
     1
102
RTVSPropertyOp21
 70
     1
102
RTVSPropertyOp22
 70
     1
102
RTVSPropertyOp23
 70
     1
102
RTVSPropertyOp24
 70
     1
102
RTVSPropertyOp25
 70
     1
102
RTVSPropertyOp26
 70
     1
102
RTVSPropertyOp27
 70
     1
102
RTVSPropertyOp28
 70
     1
102
RTVSPropertyOp29
 70
     1
102
RTVSPropertyOp30
 70
     1
102
RTVSPropertyOp31
 70
     1
102
RTVSPropertyOp32
 70
     1
102
RTVSPropertyOp33
 70
     1
102
RTVSPropertyOp34
 70
     1
102
RTVSPropertyOp35
 70
     1
102
RTVSPropertyOp36
 70
     1
102
RTVSPropertyOp37
 70
     1
102
RTVSPropertyOp38
 70
     1
102
RTVSPropertyOp39
 70
     1
102
RTVSPropertyOp40
 70
     1
102
RTVSPropertyOp41
 70
     1
102
RTVSPropertyOp42
 70
     1
102
RTVSPropertyOp43
 70
     1
102
RTVSPropertyOp44
 70
     1
102
RTVSPropertyOp45
 70
     1
102
RTVSPropertyOp46
 70
     1
102
RTVSPropertyOp47
 70
     1
102
RTVSPropertyOp48
 70
     1
102
RTVSPropertyOp49
 70
     1
102
RTVSPropertyOp50
 70
     1
102
RTVSPropertyOp51
 70
     0
102
RTVSPropertyOp52
 70
     0
102
RTVSPropertyOp53
 70
     1
102
RTVSPropertyOp54
 70
     1
102
RTVSPropertyOp55
 70
     1
102
RTVSPropertyOp56
 70
     1
102
RTVSPropertyOp57
 70
     1
102
RTVSPost2010Prop28
280
     0
102
RTVSPost2010PropOp28
 70
     1
102
RTVSPost2010Prop29
280
     1
102
RTVSPost2010PropOp29
 70
     1
102
RTVSPost2010Prop30
280
     1
102
RTVSPost2010PropOp30
 70
     1
102
RTVSPost2010Prop31
280
     0
102
RTVSPost2010PropOp31
 70
     1
102
RTVSPost2010Prop32
280
     0
102
RTVSPost2010PropOp32
 70
     1
102
RTVSPost2010Prop33
280
     0
102
RTVSPost2010PropOp33
 70
     1
102
RTVSPost2010Prop34
280
     0
102
RTVSPost2010PropOp34
 70
     1
102
RTVSPost2010Prop35
280
     0
102
RTVSPost2010PropOp35
 70
     1
102
RTVSPost2010Prop36
280
     0
102
RTVSPost2010PropOp36
 70
     1
102
RTVSPost2010Prop37
 90
       50
102
RTVSPost2010PropOp37
 70
     1
102
RTVSPost2010Prop38
140
0.0
102
RTVSPost2010PropOp38
 70
     1
102
RTVSPost2010Prop39
140
1.0
102
RTVSPost2010PropOp39
 70
     1
102
RTVSPost2010Prop40
 90
        0
102
RTVSPost2010PropOp40
 70
     1
102
RTVSPost2010Prop41ColorIndex
 90
       18
102
RTVSPost2010Prop41ColorRGB
 90
        0
102
RTVSPost2010PropOp41
 70
     1
102
RTVSPost2010Prop42
 90
       50
102
RTVSPost2010PropOp42
 70
     1
102
RTVSPost2010Prop43
 90
        3
102
RTVSPost2010PropOp43
 70
     1
102
RTVSPost2010Prop44ColorIndex
 90
        5
102
RTVSPost2010Prop44ColorRGB
 90
      255
102
RTVSPost2010PropOp44
 70
     1
102
RTVSPost2010Prop45
280
     0
102
RTVSPost2010PropOp45
 70
     1
102
RTVSPost2010Prop46
 90
       50
102
RTVSPost2010PropOp46
 70
     1
102
RTVSPost2010Prop47
 90
       50
102
RTVSPost2010PropOp47
 70
     1
102
RTVSPost2010Prop48
 90
       50
102
RTVSPost2010PropOp48
 70
     1
102
RTVSPost2010Prop49
280
     0
102
RTVSPost2010PropOp49
 70
     1
102
RTVSPost2010Prop50
 90
       50
102
RTVSPost2010PropOp50
 70
     1
102
RTVSPost2010Prop51ColorIndex
 90
      256
102
RTVSPost2010Prop51ColorRGB
 90
-16777216
102
RTVSPost2010PropOp51
 70
     0
102
RTVSPost2010Prop52
140
1.0
102
RTVSPost2010PropOp52
 70
     0
102
RTVSPost2010Prop53
 90
        2
102
RTVSPost2010PropOp53
 70
     1
102
RTVSPost2010Prop54
  1
strokes_ogs.tif
102
RTVSPost2010PropOp54
 70
     1
102
RTVSPost2010Prop55
280
     0
102
RTVSPost2010PropOp55
 70
     1
102
RTVSPost2010Prop56
140
1.0
102
RTVSPost2010PropOp56
 70
     1
102
RTVSPost2010Prop57
140
1.0
102
RTVSPost2010PropOp57
 70
     1
  0
XRECORD
  5
321
102
{ACAD_REACTORS
330
320
102
}
330
320
100
AcDbXrecord
280
     1
102
RTVSPropertyOp0
 70
     1
102
RTVSPropertyOp1
 70
     1
102
RTVSPropertyOp2
 70
     1
102
RTVSPropertyOp3
 70
     1
102
RTVSPropertyOp4
 70
     1
102
RTVSPropertyOp5
 70
     1
102
RTVSPropertyOp6
 70
     1
102
RTVSPropertyOp7
 70
     1
102
RTVSPropertyOp8
 70
     1
102
RTVSPropertyOp9
 70
     1
102
RTVSPropertyOp10
 70
     1
102
RTVSPropertyOp11
 70
     1
102
RTVSPropertyOp12
 70
     1
102
RTVSPropertyOp13
 70
     1
102
RTVSPropertyOp14
 70
     1
102
RTVSPropertyOp15
 70
     1
102
RTVSPropertyOp16
 70
     1
102
RTVSPropertyOp17
 70
     1
102
RTVSPropertyOp18
 70
     1
102
RTVSPropertyOp19
 70
     1
102
RTVSPropertyOp20
 70
     1
102
RTVSPropertyOp21
 70
     1
102
RTVSPropertyOp22
 70
     1
102
RTVSPropertyOp23
 70
     1
102
RTVSPropertyOp24
 70
     1
102
RTVSPropertyOp25
 70
     1
102
RTVSPropertyOp26
 70
     1
102
RTVSPropertyOp27
 70
     1
102
RTVSPropertyOp28
 70
     1
102
RTVSPropertyOp29
 70
     1
102
RTVSPropertyOp30
 70
     1
102
RTVSPropertyOp31
 70
     1
102
RTVSPropertyOp32
 70
     1
102
RTVSPropertyOp33
 70
     1
102
RTVSPropertyOp34
 70
     1
102
RTVSPropertyOp35
 70
     1
102
RTVSPropertyOp36
 70
     1
102
RTVSPropertyOp37
 70
     1
102
RTVSPropertyOp38
 70
     1
102
RTVSPropertyOp39
 70
     1
102
RTVSPropertyOp40
 70
     1
102
RTVSPropertyOp41
 70
     1
102
RTVSPropertyOp42
 70
     1
102
RTVSPropertyOp43
 70
     1
102
RTVSPropertyOp44
 70
     1
102
RTVSPropertyOp45
 70
     1
102
RTVSPropertyOp46
 70
     1
102
RTVSPropertyOp47
 70
     1
102
RTVSPropertyOp48
 70
     1
102
RTVSPropertyOp49
 70
     1
102
RTVSPropertyOp50
 70
     1
102
RTVSPropertyOp51
 70
     0
102
RTVSPropertyOp52
 70
     0
102
RTVSPropertyOp53
 70
     1
102
RTVSPropertyOp54
 70
     1
102
RTVSPropertyOp55
 70
     1
102
RTVSPropertyOp56
 70
     1
102
RTVSPropertyOp57
 70
     1
102
RTVSPost2010Prop28
280
     0
102
RTVSPost2010PropOp28
 70
     1
102
RTVSPost2010Prop29
280
     1
102
RTVSPost2010PropOp29
 70
     1
102
RTVSPost2010Prop30
280
     1
102
RTVSPost2010PropOp30
 70
     1
102
RTVSPost2010Prop31
280
     0
102
RTVSPost2010PropOp31
 70
     1
102
RTVSPost2010Prop32
280
     0
102
RTVSPost2010PropOp32
 70
     1
102
RTVSPost2010Prop33
280
     0
102
RTVSPost2010PropOp33
 70
     1
102
RTVSPost2010Prop34
280
     0
102
RTVSPost2010PropOp34
 70
     1
102
RTVSPost2010Prop35
280
     0
102
RTVSPost2010PropOp35
 70
     1
102
RTVSPost2010Prop36
280
     0
102
RTVSPost2010PropOp36
 70
     1
102
RTVSPost2010Prop37
 90
       50
102
RTVSPost2010PropOp37
 70
     1
102
RTVSPost2010Prop38
140
0.0
102
RTVSPost2010PropOp38
 70
     1
102
RTVSPost2010Prop39
140
1.0
102
RTVSPost2010PropOp39
 70
     1
102
RTVSPost2010Prop40
 90
        0
102
RTVSPost2010PropOp40
 70
     1
102
RTVSPost2010Prop41ColorIndex
 90
       18
102
RTVSPost2010Prop41ColorRGB
 90
        0
102
RTVSPost2010PropOp41
 70
     1
102
RTVSPost2010Prop42
 90
       50
102
RTVSPost2010PropOp42
 70
     1
102
RTVSPost2010Prop43
 90
        3
102
RTVSPost2010PropOp43
 70
     1
102
RTVSPost2010Prop44ColorIndex
 90
        5
102
RTVSPost2010Prop44ColorRGB
 90
      255
102
RTVSPost2010PropOp44
 70
     1
102
RTVSPost2010Prop45
280
     0
102
RTVSPost2010PropOp45
 70
     1
102
RTVSPost2010Prop46
 90
       50
102
RTVSPost2010PropOp46
 70
     1
102
RTVSPost2010Prop47
 90
       50
102
RTVSPost2010PropOp47
 70
     1
102
RTVSPost2010Prop48
 90
       50
102
RTVSPost2010PropOp48
 70
     1
102
RTVSPost2010Prop49
280
     0
102
RTVSPost2010PropOp49
 70
     1
102
RTVSPost2010Prop50
 90
       50
102
RTVSPost2010PropOp50
 70
     1
102
RTVSPost2010Prop51ColorIndex
 90
      256
102
RTVSPost2010Prop51ColorRGB
 90
-16777216
102
RTVSPost2010PropOp51
 70
     0
102
RTVSPost2010Prop52
140
1.0
102
RTVSPost2010PropOp52
 70
     0
102
RTVSPost2010Prop53
 90
        2
102
RTVSPost2010PropOp53
 70
     1
102
RTVSPost2010Prop54
  1
strokes_ogs.tif
102
RTVSPost2010PropOp54
 70
     1
102
RTVSPost2010Prop55
280
     0
102
RTVSPost2010PropOp55
 70
     1
102
RTVSPost2010Prop56
140
1.0
102
RTVSPost2010PropOp56
 70
     1
102
RTVSPost2010Prop57
140
1.0
102
RTVSPost2010PropOp57
 70
     1
  0
XRECORD
  5
323
102
{ACAD_REACTORS
330
322
102
}
330
322
100
AcDbXrecord
280
     1
102
RTVSPropertyOp0
 70
     1
102
RTVSPropertyOp1
 70
     1
102
RTVSPropertyOp2
 70
     1
102
RTVSPropertyOp3
 70
     1
102
RTVSPropertyOp4
 70
     1
102
RTVSPropertyOp5
 70
     1
102
RTVSPropertyOp6
 70
     1
102
RTVSPropertyOp7
 70
     1
102
RTVSPropertyOp8
 70
     1
102
RTVSPropertyOp9
 70
     1
102
RTVSPropertyOp10
 70
     1
102
RTVSPropertyOp11
 70
     1
102
RTVSPropertyOp12
 70
     1
102
RTVSPropertyOp13
 70
     1
102
RTVSPropertyOp14
 70
     1
102
RTVSPropertyOp15
 70
     1
102
RTVSPropertyOp16
 70
     1
102
RTVSPropertyOp17
 70
     1
102
RTVSPropertyOp18
 70
     1
102
RTVSPropertyOp19
 70
     1
102
RTVSPropertyOp20
 70
     1
102
RTVSPropertyOp21
 70
     1
102
RTVSPropertyOp22
 70
     1
102
RTVSPropertyOp23
 70
     1
102
RTVSPropertyOp24
 70
     1
102
RTVSPropertyOp25
 70
     1
102
RTVSPropertyOp26
 70
     1
102
RTVSPropertyOp27
 70
     1
102
RTVSPropertyOp28
 70
     1
102
RTVSPropertyOp29
 70
     1
102
RTVSPropertyOp30
 70
     1
102
RTVSPropertyOp31
 70
     1
102
RTVSPropertyOp32
 70
     1
102
RTVSPropertyOp33
 70
     1
102
RTVSPropertyOp34
 70
     1
102
RTVSPropertyOp35
 70
     1
102
RTVSPropertyOp36
 70
     1
102
RTVSPropertyOp37
 70
     1
102
RTVSPropertyOp38
 70
     1
102
RTVSPropertyOp39
 70
     1
102
RTVSPropertyOp40
 70
     1
102
RTVSPropertyOp41
 70
     1
102
RTVSPropertyOp42
 70
     1
102
RTVSPropertyOp43
 70
     1
102
RTVSPropertyOp44
 70
     1
102
RTVSPropertyOp45
 70
     1
102
RTVSPropertyOp46
 70
     1
102
RTVSPropertyOp47
 70
     1
102
RTVSPropertyOp48
 70
     1
102
RTVSPropertyOp49
 70
     1
102
RTVSPropertyOp50
 70
     1
102
RTVSPropertyOp51
 70
     0
102
RTVSPropertyOp52
 70
     0
102
RTVSPropertyOp53
 70
     1
102
RTVSPropertyOp54
 70
     1
102
RTVSPropertyOp55
 70
     1
102
RTVSPropertyOp56
 70
     1
102
RTVSPropertyOp57
 70
     1
102
RTVSPost2010Prop28
280
     0
102
RTVSPost2010PropOp28
 70
     1
102
RTVSPost2010Prop29
280
     1
102
RTVSPost2010PropOp29
 70
     1
102
RTVSPost2010Prop30
280
     1
102
RTVSPost2010PropOp30
 70
     1
102
RTVSPost2010Prop31
280
     0
102
RTVSPost2010PropOp31
 70
     1
102
RTVSPost2010Prop32
280
     0
102
RTVSPost2010PropOp32
 70
     1
102
RTVSPost2010Prop33
280
     0
102
RTVSPost2010PropOp33
 70
     1
102
RTVSPost2010Prop34
280
     0
102
RTVSPost2010PropOp34
 70
     1
102
RTVSPost2010Prop35
280
     0
102
RTVSPost2010PropOp35
 70
     1
102
RTVSPost2010Prop36
280
     0
102
RTVSPost2010PropOp36
 70
     1
102
RTVSPost2010Prop37
 90
       50
102
RTVSPost2010PropOp37
 70
     1
102
RTVSPost2010Prop38
140
0.0
102
RTVSPost2010PropOp38
 70
     1
102
RTVSPost2010Prop39
140
1.0
102
RTVSPost2010PropOp39
 70
     1
102
RTVSPost2010Prop40
 90
        0
102
RTVSPost2010PropOp40
 70
     1
102
RTVSPost2010Prop41ColorIndex
 90
       18
102
RTVSPost2010Prop41ColorRGB
 90
        0
102
RTVSPost2010PropOp41
 70
     1
102
RTVSPost2010Prop42
 90
       50
102
RTVSPost2010PropOp42
 70
     1
102
RTVSPost2010Prop43
 90
        3
102
RTVSPost2010PropOp43
 70
     1
102
RTVSPost2010Prop44ColorIndex
 90
        5
102
RTVSPost2010Prop44ColorRGB
 90
      255
102
RTVSPost2010PropOp44
 70
     1
102
RTVSPost2010Prop45
280
     0
102
RTVSPost2010PropOp45
 70
     1
102
RTVSPost2010Prop46
 90
       50
102
RTVSPost2010PropOp46
 70
     1
102
RTVSPost2010Prop47
 90
       50
102
RTVSPost2010PropOp47
 70
     1
102
RTVSPost2010Prop48
 90
       50
102
RTVSPost2010PropOp48
 70
     1
102
RTVSPost2010Prop49
280
     0
102
RTVSPost2010PropOp49
 70
     1
102
RTVSPost2010Prop50
 90
       50
102
RTVSPost2010PropOp50
 70
     1
102
RTVSPost2010Prop51ColorIndex
 90
      256
102
RTVSPost2010Prop51ColorRGB
 90
-16777216
102
RTVSPost2010PropOp51
 70
     0
102
RTVSPost2010Prop52
140
1.0
102
RTVSPost2010PropOp52
 70
     0
102
RTVSPost2010Prop53
 90
        2
102
RTVSPost2010PropOp53
 70
     1
102
RTVSPost2010Prop54
  1
strokes_ogs.tif
102
RTVSPost2010PropOp54
 70
     1
102
RTVSPost2010Prop55
280
     0
102
RTVSPost2010PropOp55
 70
     1
102
RTVSPost2010Prop56
140
1.0
102
RTVSPost2010PropOp56
 70
     1
102
RTVSPost2010Prop57
140
1.0
102
RTVSPost2010PropOp57
 70
     1
  0
XRECORD
  5
325
102
{ACAD_REACTORS
330
324
102
}
330
324
100
AcDbXrecord
280
     1
102
RTVSPropertyOp0
 70
     1
102
RTVSPropertyOp1
 70
     1
102
RTVSPropertyOp2
 70
     1
102
RTVSPropertyOp3
 70
     1
102
RTVSPropertyOp4
 70
     1
102
RTVSPropertyOp5
 70
     1
102
RTVSPropertyOp6
 70
     1
102
RTVSPropertyOp7
 70
     1
102
RTVSPropertyOp8
 70
     1
102
RTVSPropertyOp9
 70
     1
102
RTVSPropertyOp10
 70
     1
102
RTVSPropertyOp11
 70
     1
102
RTVSPropertyOp12
 70
     1
102
RTVSPropertyOp13
 70
     1
102
RTVSPropertyOp14
 70
     1
102
RTVSPropertyOp15
 70
     1
102
RTVSPropertyOp16
 70
     1
102
RTVSPropertyOp17
 70
     1
102
RTVSPropertyOp18
 70
     1
102
RTVSPropertyOp19
 70
     1
102
RTVSPropertyOp20
 70
     1
102
RTVSPropertyOp21
 70
     1
102
RTVSPropertyOp22
 70
     1
102
RTVSPropertyOp23
 70
     1
102
RTVSPropertyOp24
 70
     1
102
RTVSPropertyOp25
 70
     1
102
RTVSPropertyOp26
 70
     1
102
RTVSPropertyOp27
 70
     1
102
RTVSPropertyOp28
 70
     1
102
RTVSPropertyOp29
 70
     1
102
RTVSPropertyOp30
 70
     1
102
RTVSPropertyOp31
 70
     1
102
RTVSPropertyOp32
 70
     1
102
RTVSPropertyOp33
 70
     1
102
RTVSPropertyOp34
 70
     1
102
RTVSPropertyOp35
 70
     1
102
RTVSPropertyOp36
 70
     1
102
RTVSPropertyOp37
 70
     1
102
RTVSPropertyOp38
 70
     1
102
RTVSPropertyOp39
 70
     1
102
RTVSPropertyOp40
 70
     1
102
RTVSPropertyOp41
 70
     1
102
RTVSPropertyOp42
 70
     1
102
RTVSPropertyOp43
 70
     1
102
RTVSPropertyOp44
 70
     1
102
RTVSPropertyOp45
 70
     1
102
RTVSPropertyOp46
 70
     1
102
RTVSPropertyOp47
 70
     1
102
RTVSPropertyOp48
 70
     1
102
RTVSPropertyOp49
 70
     1
102
RTVSPropertyOp50
 70
     1
102
RTVSPropertyOp51
 70
     0
102
RTVSPropertyOp52
 70
     0
102
RTVSPropertyOp53
 70
     1
102
RTVSPropertyOp54
 70
     1
102
RTVSPropertyOp55
 70
     1
102
RTVSPropertyOp56
 70
     1
102
RTVSPropertyOp57
 70
     1
102
RTVSPost2010Prop28
280
     0
102
RTVSPost2010PropOp28
 70
     1
102
RTVSPost2010Prop29
280
     1
102
RTVSPost2010PropOp29
 70
     1
102
RTVSPost2010Prop30
280
     1
102
RTVSPost2010PropOp30
 70
     1
102
RTVSPost2010Prop31
280
     0
102
RTVSPost2010PropOp31
 70
     1
102
RTVSPost2010Prop32
280
     0
102
RTVSPost2010PropOp32
 70
     1
102
RTVSPost2010Prop33
280
     0
102
RTVSPost2010PropOp33
 70
     1
102
RTVSPost2010Prop34
280
     0
102
RTVSPost2010PropOp34
 70
     1
102
RTVSPost2010Prop35
280
     0
102
RTVSPost2010PropOp35
 70
     1
102
RTVSPost2010Prop36
280
     0
102
RTVSPost2010PropOp36
 70
     1
102
RTVSPost2010Prop37
 90
       50
102
RTVSPost2010PropOp37
 70
     1
102
RTVSPost2010Prop38
140
0.0
102
RTVSPost2010PropOp38
 70
     1
102
RTVSPost2010Prop39
140
1.0
102
RTVSPost2010PropOp39
 70
     1
102
RTVSPost2010Prop40
 90
        0
102
RTVSPost2010PropOp40
 70
     1
102
RTVSPost2010Prop41ColorIndex
 90
       18
102
RTVSPost2010Prop41ColorRGB
 90
        0
102
RTVSPost2010PropOp41
 70
     1
102
RTVSPost2010Prop42
 90
       50
102
RTVSPost2010PropOp42
 70
     1
102
RTVSPost2010Prop43
 90
        3
102
RTVSPost2010PropOp43
 70
     1
102
RTVSPost2010Prop44ColorIndex
 90
        5
102
RTVSPost2010Prop44ColorRGB
 90
      255
102
RTVSPost2010PropOp44
 70
     1
102
RTVSPost2010Prop45
280
     0
102
RTVSPost2010PropOp45
 70
     1
102
RTVSPost2010Prop46
 90
       50
102
RTVSPost2010PropOp46
 70
     1
102
RTVSPost2010Prop47
 90
       50
102
RTVSPost2010PropOp47
 70
     1
102
RTVSPost2010Prop48
 90
       50
102
RTVSPost2010PropOp48
 70
     1
102
RTVSPost2010Prop49
280
     0
102
RTVSPost2010PropOp49
 70
     1
102
RTVSPost2010Prop50
 90
       50
102
RTVSPost2010PropOp50
 70
     1
102
RTVSPost2010Prop51ColorIndex
 90
      256
102
RTVSPost2010Prop51ColorRGB
 90
-16777216
102
RTVSPost2010PropOp51
 70
     0
102
RTVSPost2010Prop52
140
1.0
102
RTVSPost2010PropOp52
 70
     0
102
RTVSPost2010Prop53
 90
        2
102
RTVSPost2010PropOp53
 70
     1
102
RTVSPost2010Prop54
  1
strokes_ogs.tif
102
RTVSPost2010PropOp54
 70
     1
102
RTVSPost2010Prop55
280
     0
102
RTVSPost2010PropOp55
 70
     1
102
RTVSPost2010Prop56
140
1.0
102
RTVSPost2010PropOp56
 70
     1
102
RTVSPost2010Prop57
140
1.0
102
RTVSPost2010PropOp57
 70
     1
  0
XRECORD
  5
327
102
{ACAD_REACTORS
330
326
102
}
330
326
100
AcDbXrecord
280
     1
102
RTVSPropertyOp0
 70
     1
102
RTVSPropertyOp1
 70
     1
102
RTVSPropertyOp2
 70
     1
102
RTVSPropertyOp3
 70
     1
102
RTVSPropertyOp4
 70
     1
102
RTVSPropertyOp5
 70
     1
102
RTVSPropertyOp6
 70
     1
102
RTVSPropertyOp7
 70
     1
102
RTVSPropertyOp8
 70
     1
102
RTVSPropertyOp9
 70
     1
102
RTVSPropertyOp10
 70
     1
102
RTVSPropertyOp11
 70
     1
102
RTVSPropertyOp12
 70
     1
102
RTVSPropertyOp13
 70
     1
102
RTVSPropertyOp14
 70
     1
102
RTVSPropertyOp15
 70
     1
102
RTVSPropertyOp16
 70
     1
102
RTVSPropertyOp17
 70
     1
102
RTVSPropertyOp18
 70
     1
102
RTVSPropertyOp19
 70
     1
102
RTVSPropertyOp20
 70
     1
102
RTVSPropertyOp21
 70
     1
102
RTVSPropertyOp22
 70
     1
102
RTVSPropertyOp23
 70
     1
102
RTVSPropertyOp24
 70
     1
102
RTVSPropertyOp25
 70
     1
102
RTVSPropertyOp26
 70
     1
102
RTVSPropertyOp27
 70
     1
102
RTVSPropertyOp28
 70
     1
102
RTVSPropertyOp29
 70
     1
102
RTVSPropertyOp30
 70
     1
102
RTVSPropertyOp31
 70
     1
102
RTVSPropertyOp32
 70
     1
102
RTVSPropertyOp33
 70
     1
102
RTVSPropertyOp34
 70
     1
102
RTVSPropertyOp35
 70
     1
102
RTVSPropertyOp36
 70
     1
102
RTVSPropertyOp37
 70
     1
102
RTVSPropertyOp38
 70
     1
102
RTVSPropertyOp39
 70
     1
102
RTVSPropertyOp40
 70
     1
102
RTVSPropertyOp41
 70
     1
102
RTVSPropertyOp42
 70
     1
102
RTVSPropertyOp43
 70
     1
102
RTVSPropertyOp44
 70
     1
102
RTVSPropertyOp45
 70
     1
102
RTVSPropertyOp46
 70
     1
102
RTVSPropertyOp47
 70
     1
102
RTVSPropertyOp48
 70
     1
102
RTVSPropertyOp49
 70
     1
102
RTVSPropertyOp50
 70
     1
102
RTVSPropertyOp51
 70
     0
102
RTVSPropertyOp52
 70
     0
102
RTVSPropertyOp53
 70
     1
102
RTVSPropertyOp54
 70
     1
102
RTVSPropertyOp55
 70
     1
102
RTVSPropertyOp56
 70
     1
102
RTVSPropertyOp57
 70
     1
102
RTVSPost2010Prop28
280
     0
102
RTVSPost2010PropOp28
 70
     1
102
RTVSPost2010Prop29
280
     1
102
RTVSPost2010PropOp29
 70
     1
102
RTVSPost2010Prop30
280
     1
102
RTVSPost2010PropOp30
 70
     1
102
RTVSPost2010Prop31
280
     0
102
RTVSPost2010PropOp31
 70
     1
102
RTVSPost2010Prop32
280
     0
102
RTVSPost2010PropOp32
 70
     1
102
RTVSPost2010Prop33
280
     0
102
RTVSPost2010PropOp33
 70
     1
102
RTVSPost2010Prop34
280
     0
102
RTVSPost2010PropOp34
 70
     1
102
RTVSPost2010Prop35
280
     0
102
RTVSPost2010PropOp35
 70
     1
102
RTVSPost2010Prop36
280
     0
102
RTVSPost2010PropOp36
 70
     1
102
RTVSPost2010Prop37
 90
       50
102
RTVSPost2010PropOp37
 70
     1
102
RTVSPost2010Prop38
140
0.0
102
RTVSPost2010PropOp38
 70
     1
102
RTVSPost2010Prop39
140
1.0
102
RTVSPost2010PropOp39
 70
     1
102
RTVSPost2010Prop40
 90
        0
102
RTVSPost2010PropOp40
 70
     1
102
RTVSPost2010Prop41ColorIndex
 90
       18
102
RTVSPost2010Prop41ColorRGB
 90
        0
102
RTVSPost2010PropOp41
 70
     1
102
RTVSPost2010Prop42
 90
       50
102
RTVSPost2010PropOp42
 70
     1
102
RTVSPost2010Prop43
 90
        3
102
RTVSPost2010PropOp43
 70
     1
102
RTVSPost2010Prop44ColorIndex
 90
        5
102
RTVSPost2010Prop44ColorRGB
 90
      255
102
RTVSPost2010PropOp44
 70
     1
102
RTVSPost2010Prop45
280
     0
102
RTVSPost2010PropOp45
 70
     1
102
RTVSPost2010Prop46
 90
       50
102
RTVSPost2010PropOp46
 70
     1
102
RTVSPost2010Prop47
 90
       50
102
RTVSPost2010PropOp47
 70
     1
102
RTVSPost2010Prop48
 90
       50
102
RTVSPost2010PropOp48
 70
     1
102
RTVSPost2010Prop49
280
     0
102
RTVSPost2010PropOp49
 70
     1
102
RTVSPost2010Prop50
 90
       50
102
RTVSPost2010PropOp50
 70
     1
102
RTVSPost2010Prop51ColorIndex
 90
      256
102
RTVSPost2010Prop51ColorRGB
 90
-16777216
102
RTVSPost2010PropOp51
 70
     0
102
RTVSPost2010Prop52
140
1.0
102
RTVSPost2010PropOp52
 70
     0
102
RTVSPost2010Prop53
 90
        2
102
RTVSPost2010PropOp53
 70
     1
102
RTVSPost2010Prop54
  1
strokes_ogs.tif
102
RTVSPost2010PropOp54
 70
     1
102
RTVSPost2010Prop55
280
     0
102
RTVSPost2010PropOp55
 70
     1
102
RTVSPost2010Prop56
140
1.0
102
RTVSPost2010PropOp56
 70
     1
102
RTVSPost2010Prop57
140
1.0
102
RTVSPost2010PropOp57
 70
     1
  0
XRECORD
  5
32D
102
{ACAD_REACTORS
330
32C
102
}
330
32C
100
AcDbXrecord
280
     1
102
RTVSPropertyOp0
 70
     1
102
RTVSPropertyOp1
 70
     1
102
RTVSPropertyOp2
 70
     1
102
RTVSPropertyOp3
 70
     1
102
RTVSPropertyOp4
 70
     1
102
RTVSPropertyOp5
 70
     1
102
RTVSPropertyOp6
 70
     1
102
RTVSPropertyOp7
 70
     1
102
RTVSPropertyOp8
 70
     1
102
RTVSPropertyOp9
 70
     1
102
RTVSPropertyOp10
 70
     1
102
RTVSPropertyOp11
 70
     1
102
RTVSPropertyOp12
 70
     1
102
RTVSPropertyOp13
 70
     1
102
RTVSPropertyOp14
 70
     1
102
RTVSPropertyOp15
 70
     1
102
RTVSPropertyOp16
 70
     1
102
RTVSPropertyOp17
 70
     1
102
RTVSPropertyOp18
 70
     1
102
RTVSPropertyOp19
 70
     1
102
RTVSPropertyOp20
 70
     1
102
RTVSPropertyOp21
 70
     1
102
RTVSPropertyOp22
 70
     1
102
RTVSPropertyOp23
 70
     1
102
RTVSPropertyOp24
 70
     1
102
RTVSPropertyOp25
 70
     1
102
RTVSPropertyOp26
 70
     1
102
RTVSPropertyOp27
 70
     1
102
RTVSPropertyOp28
 70
     1
102
RTVSPropertyOp29
 70
     1
102
RTVSPropertyOp30
 70
     1
102
RTVSPropertyOp31
 70
     1
102
RTVSPropertyOp32
 70
     1
102
RTVSPropertyOp33
 70
     1
102
RTVSPropertyOp34
 70
     1
102
RTVSPropertyOp35
 70
     1
102
RTVSPropertyOp36
 70
     1
102
RTVSPropertyOp37
 70
     1
102
RTVSPropertyOp38
 70
     1
102
RTVSPropertyOp39
 70
     1
102
RTVSPropertyOp40
 70
     1
102
RTVSPropertyOp41
 70
     1
102
RTVSPropertyOp42
 70
     1
102
RTVSPropertyOp43
 70
     1
102
RTVSPropertyOp44
 70
     1
102
RTVSPropertyOp45
 70
     1
102
RTVSPropertyOp46
 70
     1
102
RTVSPropertyOp47
 70
     1
102
RTVSPropertyOp48
 70
     1
102
RTVSPropertyOp49
 70
     1
102
RTVSPropertyOp50
 70
     1
102
RTVSPropertyOp51
 70
     0
102
RTVSPropertyOp52
 70
     0
102
RTVSPropertyOp53
 70
     1
102
RTVSPropertyOp54
 70
     1
102
RTVSPropertyOp55
 70
     1
102
RTVSPropertyOp56
 70
     1
102
RTVSPropertyOp57
 70
     1
102
RTVSPost2010Prop28
280
     0
102
RTVSPost2010PropOp28
 70
     1
102
RTVSPost2010Prop29
280
     1
102
RTVSPost2010PropOp29
 70
     1
102
RTVSPost2010Prop30
280
     1
102
RTVSPost2010PropOp30
 70
     1
102
RTVSPost2010Prop31
280
     0
102
RTVSPost2010PropOp31
 70
     1
102
RTVSPost2010Prop32
280
     0
102
RTVSPost2010PropOp32
 70
     1
102
RTVSPost2010Prop33
280
     0
102
RTVSPost2010PropOp33
 70
     1
102
RTVSPost2010Prop34
280
     0
102
RTVSPost2010PropOp34
 70
     1
102
RTVSPost2010Prop35
280
     0
102
RTVSPost2010PropOp35
 70
     1
102
RTVSPost2010Prop36
280
     0
102
RTVSPost2010PropOp36
 70
     1
102
RTVSPost2010Prop37
 90
       50
102
RTVSPost2010PropOp37
 70
     1
102
RTVSPost2010Prop38
140
0.0
102
RTVSPost2010PropOp38
 70
     1
102
RTVSPost2010Prop39
140
1.0
102
RTVSPost2010PropOp39
 70
     1
102
RTVSPost2010Prop40
 90
        0
102
RTVSPost2010PropOp40
 70
     1
102
RTVSPost2010Prop41ColorIndex
 90
       18
102
RTVSPost2010Prop41ColorRGB
 90
        0
102
RTVSPost2010PropOp41
 70
     1
102
RTVSPost2010Prop42
 90
       50
102
RTVSPost2010PropOp42
 70
     1
102
RTVSPost2010Prop43
 90
        3
102
RTVSPost2010PropOp43
 70
     1
102
RTVSPost2010Prop44ColorIndex
 90
        5
102
RTVSPost2010Prop44ColorRGB
 90
      255
102
RTVSPost2010PropOp44
 70
     1
102
RTVSPost2010Prop45
280
     0
102
RTVSPost2010PropOp45
 70
     1
102
RTVSPost2010Prop46
 90
       50
102
RTVSPost2010PropOp46
 70
     1
102
RTVSPost2010Prop47
 90
       50
102
RTVSPost2010PropOp47
 70
     1
102
RTVSPost2010Prop48
 90
       50
102
RTVSPost2010PropOp48
 70
     1
102
RTVSPost2010Prop49
280
     0
102
RTVSPost2010PropOp49
 70
     1
102
RTVSPost2010Prop50
 90
       50
102
RTVSPost2010PropOp50
 70
     1
102
RTVSPost2010Prop51ColorIndex
 90
      256
102
RTVSPost2010Prop51ColorRGB
 90
-16777216
102
RTVSPost2010PropOp51
 70
     0
102
RTVSPost2010Prop52
140
1.0
102
RTVSPost2010PropOp52
 70
     0
102
RTVSPost2010Prop53
 90
        2
102
RTVSPost2010PropOp53
 70
     1
102
RTVSPost2010Prop54
  1
strokes_ogs.tif
102
RTVSPost2010PropOp54
 70
     1
102
RTVSPost2010Prop55
280
     0
102
RTVSPost2010PropOp55
 70
     1
102
RTVSPost2010Prop56
140
1.0
102
RTVSPost2010PropOp56
 70
     1
102
RTVSPost2010Prop57
140
1.0
102
RTVSPost2010PropOp57
 70
     1
  0
XRECORD
  5
341
102
{ACAD_REACTORS
330
340
102
}
330
340
100
AcDbXrecord
280
     1
102
RTVSPropertyOp0
 70
     0
102
RTVSPropertyOp1
 70
     0
102
RTVSPropertyOp2
 70
     0
102
RTVSPropertyOp3
 70
     0
102
RTVSPropertyOp4
 70
     0
102
RTVSPropertyOp5
 70
     0
102
RTVSPropertyOp6
 70
     0
102
RTVSPropertyOp7
 70
     0
102
RTVSPropertyOp8
 70
     0
102
RTVSPropertyOp9
 70
     0
102
RTVSPropertyOp10
 70
     0
102
RTVSPropertyOp11
 70
     0
102
RTVSPropertyOp12
 70
     0
102
RTVSPropertyOp13
 70
     0
102
RTVSPropertyOp14
 70
     2
102
RTVSPropertyOp15
 70
     0
102
RTVSPropertyOp16
 70
     0
102
RTVSPropertyOp17
 70
     0
102
RTVSPropertyOp18
 70
     0
102
RTVSPropertyOp19
 70
     0
102
RTVSPropertyOp20
 70
     0
102
RTVSPropertyOp21
 70
     0
102
RTVSPropertyOp22
 70
     0
102
RTVSPropertyOp23
 70
     0
102
RTVSPropertyOp24
 70
     0
102
RTVSPropertyOp25
 70
     0
102
RTVSPropertyOp26
 70
     0
102
RTVSPropertyOp27
 70
     0
102
RTVSPropertyOp28
 70
     0
102
RTVSPropertyOp29
 70
     0
102
RTVSPropertyOp30
 70
     0
102
RTVSPropertyOp31
 70
     0
102
RTVSPropertyOp32
 70
     0
102
RTVSPropertyOp33
 70
     0
102
RTVSPropertyOp34
 70
     0
102
RTVSPropertyOp35
 70
     0
102
RTVSPropertyOp36
 70
     0
102
RTVSPropertyOp37
 70
     0
102
RTVSPropertyOp38
 70
     0
102
RTVSPropertyOp39
 70
     0
102
RTVSPropertyOp40
 70
     0
102
RTVSPropertyOp41
 70
     0
102
RTVSPropertyOp42
 70
     0
102
RTVSPropertyOp43
 70
     0
102
RTVSPropertyOp44
 70
     0
102
RTVSPropertyOp45
 70
     0
102
RTVSPropertyOp46
 70
     0
102
RTVSPropertyOp47
 70
     0
102
RTVSPropertyOp48
 70
     0
102
RTVSPropertyOp49
 70
     0
102
RTVSPropertyOp50
 70
     0
102
RTVSPropertyOp51
 70
     0
102
RTVSPropertyOp52
 70
     0
102
RTVSPropertyOp53
 70
     0
102
RTVSPropertyOp54
 70
     0
102
RTVSPropertyOp55
 70
     0
102
RTVSPropertyOp56
 70
     0
102
RTVSPropertyOp57
 70
     0
102
RTVSPost2010Prop28
280
     0
102
RTVSPost2010PropOp28
 70
     0
102
RTVSPost2010Prop29
280
     1
102
RTVSPost2010PropOp29
 70
     0
102
RTVSPost2010Prop30
280
     1
102
RTVSPost2010PropOp30
 70
     0
102
RTVSPost2010Prop31
280
     0
102
RTVSPost2010PropOp31
 70
     0
102
RTVSPost2010Prop32
280
     0
102
RTVSPost2010PropOp32
 70
     0
102
RTVSPost2010Prop33
280
     0
102
RTVSPost2010PropOp33
 70
     0
102
RTVSPost2010Prop34
280
     0
102
RTVSPost2010PropOp34
 70
     0
102
RTVSPost2010Prop35
280
     0
102
RTVSPost2010PropOp35
 70
     0
102
RTVSPost2010Prop36
280
     0
102
RTVSPost2010PropOp36
 70
     0
102
RTVSPost2010Prop37
 90
       50
102
RTVSPost2010PropOp37
 70
     0
102
RTVSPost2010Prop38
140
0.0
102
RTVSPost2010PropOp38
 70
     0
102
RTVSPost2010Prop39
140
1.0
102
RTVSPost2010PropOp39
 70
     0
102
RTVSPost2010Prop40
 90
        0
102
RTVSPost2010PropOp40
 70
     0
102
RTVSPost2010Prop41ColorIndex
 90
       18
102
RTVSPost2010Prop41ColorRGB
 90
        0
102
RTVSPost2010PropOp41
 70
     0
102
RTVSPost2010Prop42
 90
       50
102
RTVSPost2010PropOp42
 70
     0
102
RTVSPost2010Prop43
 90
        3
102
RTVSPost2010PropOp43
 70
     0
102
RTVSPost2010Prop44ColorIndex
 90
        5
102
RTVSPost2010Prop44ColorRGB
 90
      255
102
RTVSPost2010PropOp44
 70
     0
102
RTVSPost2010Prop45
280
     0
102
RTVSPost2010PropOp45
 70
     0
102
RTVSPost2010Prop46
 90
       50
102
RTVSPost2010PropOp46
 70
     0
102
RTVSPost2010Prop47
 90
       50
102
RTVSPost2010PropOp47
 70
     0
102
RTVSPost2010Prop48
 90
       50
102
RTVSPost2010PropOp48
 70
     0
102
RTVSPost2010Prop49
280
     0
102
RTVSPost2010PropOp49
 70
     0
102
RTVSPost2010Prop50
 90
       50
102
RTVSPost2010PropOp50
 70
     0
102
RTVSPost2010Prop51ColorIndex
 90
      256
102
RTVSPost2010Prop51ColorRGB
 90
-16777216
102
RTVSPost2010PropOp51
 70
     0
102
RTVSPost2010Prop52
140
1.0
102
RTVSPost2010PropOp52
 70
     0
102
RTVSPost2010Prop53
 90
        2
102
RTVSPost2010PropOp53
 70
     0
102
RTVSPost2010Prop54
  1
strokes_ogs.tif
102
RTVSPost2010PropOp54
 70
     0
102
RTVSPost2010Prop55
280
     0
102
RTVSPost2010PropOp55
 70
     0
102
RTVSPost2010Prop56
140
1.0
102
RTVSPost2010PropOp56
 70
     0
102
RTVSPost2010Prop57
140
1.0
102
RTVSPost2010PropOp57
 70
     0
  0
XRECORD
  5
33B
102
{ACAD_REACTORS
330
33A
102
}
330
33A
100
AcDbXrecord
280
     1
102
RTVSPropertyOp0
 70
     1
102
RTVSPropertyOp1
 70
     1
102
RTVSPropertyOp2
 70
     1
102
RTVSPropertyOp3
 70
     1
102
RTVSPropertyOp4
 70
     1
102
RTVSPropertyOp5
 70
     1
102
RTVSPropertyOp6
 70
     1
102
RTVSPropertyOp7
 70
     1
102
RTVSPropertyOp8
 70
     1
102
RTVSPropertyOp9
 70
     1
102
RTVSPropertyOp10
 70
     1
102
RTVSPropertyOp11
 70
     1
102
RTVSPropertyOp12
 70
     1
102
RTVSPropertyOp13
 70
     1
102
RTVSPropertyOp14
 70
     1
102
RTVSPropertyOp15
 70
     1
102
RTVSPropertyOp16
 70
     1
102
RTVSPropertyOp17
 70
     1
102
RTVSPropertyOp18
 70
     1
102
RTVSPropertyOp19
 70
     1
102
RTVSPropertyOp20
 70
     1
102
RTVSPropertyOp21
 70
     1
102
RTVSPropertyOp22
 70
     1
102
RTVSPropertyOp23
 70
     1
102
RTVSPropertyOp24
 70
     1
102
RTVSPropertyOp25
 70
     1
102
RTVSPropertyOp26
 70
     1
102
RTVSPropertyOp27
 70
     1
102
RTVSPropertyOp28
 70
     1
102
RTVSPropertyOp29
 70
     1
102
RTVSPropertyOp30
 70
     1
102
RTVSPropertyOp31
 70
     1
102
RTVSPropertyOp32
 70
     1
102
RTVSPropertyOp33
 70
     1
102
RTVSPropertyOp34
 70
     1
102
RTVSPropertyOp35
 70
     1
102
RTVSPropertyOp36
 70
     1
102
RTVSPropertyOp37
 70
     1
102
RTVSPropertyOp38
 70
     1
102
RTVSPropertyOp39
 70
     1
102
RTVSPropertyOp40
 70
     1
102
RTVSPropertyOp41
 70
     1
102
RTVSPropertyOp42
 70
     1
102
RTVSPropertyOp43
 70
     1
102
RTVSPropertyOp44
 70
     1
102
RTVSPropertyOp45
 70
     1
102
RTVSPropertyOp46
 70
     1
102
RTVSPropertyOp47
 70
     1
102
RTVSPropertyOp48
 70
     1
102
RTVSPropertyOp49
 70
     1
102
RTVSPropertyOp50
 70
     1
102
RTVSPropertyOp51
 70
     0
102
RTVSPropertyOp52
 70
     0
102
RTVSPropertyOp53
 70
     1
102
RTVSPropertyOp54
 70
     1
102
RTVSPropertyOp55
 70
     1
102
RTVSPropertyOp56
 70
     1
102
RTVSPropertyOp57
 70
     1
102
RTVSPost2010Prop28
280
     0
102
RTVSPost2010PropOp28
 70
     1
102
RTVSPost2010Prop29
280
     1
102
RTVSPost2010PropOp29
 70
     1
102
RTVSPost2010Prop30
280
     1
102
RTVSPost2010PropOp30
 70
     1
102
RTVSPost2010Prop31
280
     0
102
RTVSPost2010PropOp31
 70
     1
102
RTVSPost2010Prop32
280
     0
102
RTVSPost2010PropOp32
 70
     1
102
RTVSPost2010Prop33
280
     0
102
RTVSPost2010PropOp33
 70
     1
102
RTVSPost2010Prop34
280
     0
102
RTVSPost2010PropOp34
 70
     1
102
RTVSPost2010Prop35
280
     0
102
RTVSPost2010PropOp35
 70
     1
102
RTVSPost2010Prop36
280
     0
102
RTVSPost2010PropOp36
 70
     1
102
RTVSPost2010Prop37
 90
       50
102
RTVSPost2010PropOp37
 70
     1
102
RTVSPost2010Prop38
140
0.0
102
RTVSPost2010PropOp38
 70
     1
102
RTVSPost2010Prop39
140
1.0
102
RTVSPost2010PropOp39
 70
     1
102
RTVSPost2010Prop40
 90
        0
102
RTVSPost2010PropOp40
 70
     1
102
RTVSPost2010Prop41ColorIndex
 90
       18
102
RTVSPost2010Prop41ColorRGB
 90
        0
102
RTVSPost2010PropOp41
 70
     1
102
RTVSPost2010Prop42
 90
       50
102
RTVSPost2010PropOp42
 70
     1
102
RTVSPost2010Prop43
 90
        3
102
RTVSPost2010PropOp43
 70
     1
102
RTVSPost2010Prop44ColorIndex
 90
        5
102
RTVSPost2010Prop44ColorRGB
 90
      255
102
RTVSPost2010PropOp44
 70
     1
102
RTVSPost2010Prop45
280
     0
102
RTVSPost2010PropOp45
 70
     1
102
RTVSPost2010Prop46
 90
       50
102
RTVSPost2010PropOp46
 70
     1
102
RTVSPost2010Prop47
 90
       50
102
RTVSPost2010PropOp47
 70
     1
102
RTVSPost2010Prop48
 90
       50
102
RTVSPost2010PropOp48
 70
     1
102
RTVSPost2010Prop49
280
     0
102
RTVSPost2010PropOp49
 70
     1
102
RTVSPost2010Prop50
 90
       50
102
RTVSPost2010PropOp50
 70
     1
102
RTVSPost2010Prop51ColorIndex
 90
      256
102
RTVSPost2010Prop51ColorRGB
 90
-16777216
102
RTVSPost2010PropOp51
 70
     0
102
RTVSPost2010Prop52
140
1.0
102
RTVSPost2010PropOp52
 70
     0
102
RTVSPost2010Prop53
 90
        2
102
RTVSPost2010PropOp53
 70
     1
102
RTVSPost2010Prop54
  1
strokes_ogs.tif
102
RTVSPost2010PropOp54
 70
     1
102
RTVSPost2010Prop55
280
     0
102
RTVSPost2010PropOp55
 70
     1
102
RTVSPost2010Prop56
140
1.0
102
RTVSPost2010PropOp56
 70
     1
102
RTVSPost2010Prop57
140
1.0
102
RTVSPost2010PropOp57
 70
     1
  0
XRECORD
  5
343
102
{ACAD_REACTORS
330
342
102
}
330
342
100
AcDbXrecord
280
     1
102
RTVSPropertyOp0
 70
     0
102
RTVSPropertyOp1
 70
     0
102
RTVSPropertyOp2
 70
     0
102
RTVSPropertyOp3
 70
     0
102
RTVSPropertyOp4
 70
     0
102
RTVSPropertyOp5
 70
     0
102
RTVSPropertyOp6
 70
     0
102
RTVSPropertyOp7
 70
     0
102
RTVSPropertyOp8
 70
     0
102
RTVSPropertyOp9
 70
     0
102
RTVSPropertyOp10
 70
     0
102
RTVSPropertyOp11
 70
     0
102
RTVSPropertyOp12
 70
     0
102
RTVSPropertyOp13
 70
     0
102
RTVSPropertyOp14
 70
     2
102
RTVSPropertyOp15
 70
     0
102
RTVSPropertyOp16
 70
     0
102
RTVSPropertyOp17
 70
     0
102
RTVSPropertyOp18
 70
     0
102
RTVSPropertyOp19
 70
     0
102
RTVSPropertyOp20
 70
     0
102
RTVSPropertyOp21
 70
     0
102
RTVSPropertyOp22
 70
     0
102
RTVSPropertyOp23
 70
     0
102
RTVSPropertyOp24
 70
     0
102
RTVSPropertyOp25
 70
     0
102
RTVSPropertyOp26
 70
     0
102
RTVSPropertyOp27
 70
     0
102
RTVSPropertyOp28
 70
     0
102
RTVSPropertyOp29
 70
     0
102
RTVSPropertyOp30
 70
     0
102
RTVSPropertyOp31
 70
     0
102
RTVSPropertyOp32
 70
     0
102
RTVSPropertyOp33
 70
     0
102
RTVSPropertyOp34
 70
     0
102
RTVSPropertyOp35
 70
     0
102
RTVSPropertyOp36
 70
     0
102
RTVSPropertyOp37
 70
     0
102
RTVSPropertyOp38
 70
     0
102
RTVSPropertyOp39
 70
     0
102
RTVSPropertyOp40
 70
     0
102
RTVSPropertyOp41
 70
     0
102
RTVSPropertyOp42
 70
     0
102
RTVSPropertyOp43
 70
     0
102
RTVSPropertyOp44
 70
     0
102
RTVSPropertyOp45
 70
     0
102
RTVSPropertyOp46
 70
     0
102
RTVSPropertyOp47
 70
     0
102
RTVSPropertyOp48
 70
     0
102
RTVSPropertyOp49
 70
     0
102
RTVSPropertyOp50
 70
     0
102
RTVSPropertyOp51
 70
     0
102
RTVSPropertyOp52
 70
     0
102
RTVSPropertyOp53
 70
     0
102
RTVSPropertyOp54
 70
     0
102
RTVSPropertyOp55
 70
     0
102
RTVSPropertyOp56
 70
     0
102
RTVSPropertyOp57
 70
     0
102
RTVSPost2010Prop28
280
     0
102
RTVSPost2010PropOp28
 70
     0
102
RTVSPost2010Prop29
280
     1
102
RTVSPost2010PropOp29
 70
     0
102
RTVSPost2010Prop30
280
     1
102
RTVSPost2010PropOp30
 70
     0
102
RTVSPost2010Prop31
280
     0
102
RTVSPost2010PropOp31
 70
     0
102
RTVSPost2010Prop32
280
     0
102
RTVSPost2010PropOp32
 70
     0
102
RTVSPost2010Prop33
280
     0
102
RTVSPost2010PropOp33
 70
     0
102
RTVSPost2010Prop34
280
     0
102
RTVSPost2010PropOp34
 70
     0
102
RTVSPost2010Prop35
280
     0
102
RTVSPost2010PropOp35
 70
     0
102
RTVSPost2010Prop36
280
     0
102
RTVSPost2010PropOp36
 70
     0
102
RTVSPost2010Prop37
 90
       50
102
RTVSPost2010PropOp37
 70
     0
102
RTVSPost2010Prop38
140
0.0
102
RTVSPost2010PropOp38
 70
     0
102
RTVSPost2010Prop39
140
1.0
102
RTVSPost2010PropOp39
 70
     0
102
RTVSPost2010Prop40
 90
        0
102
RTVSPost2010PropOp40
 70
     0
102
RTVSPost2010Prop41ColorIndex
 90
       18
102
RTVSPost2010Prop41ColorRGB
 90
        0
102
RTVSPost2010PropOp41
 70
     0
102
RTVSPost2010Prop42
 90
       50
102
RTVSPost2010PropOp42
 70
     0
102
RTVSPost2010Prop43
 90
        3
102
RTVSPost2010PropOp43
 70
     0
102
RTVSPost2010Prop44ColorIndex
 90
        5
102
RTVSPost2010Prop44ColorRGB
 90
      255
102
RTVSPost2010PropOp44
 70
     0
102
RTVSPost2010Prop45
280
     0
102
RTVSPost2010PropOp45
 70
     0
102
RTVSPost2010Prop46
 90
       50
102
RTVSPost2010PropOp46
 70
     0
102
RTVSPost2010Prop47
 90
       50
102
RTVSPost2010PropOp47
 70
     0
102
RTVSPost2010Prop48
 90
       50
102
RTVSPost2010PropOp48
 70
     0
102
RTVSPost2010Prop49
280
     0
102
RTVSPost2010PropOp49
 70
     0
102
RTVSPost2010Prop50
 90
       50
102
RTVSPost2010PropOp50
 70
     0
102
RTVSPost2010Prop51ColorIndex
 90
      256
102
RTVSPost2010Prop51ColorRGB
 90
-16777216
102
RTVSPost2010PropOp51
 70
     0
102
RTVSPost2010Prop52
140
1.0
102
RTVSPost2010PropOp52
 70
     0
102
RTVSPost2010Prop53
 90
        2
102
RTVSPost2010PropOp53
 70
     0
102
RTVSPost2010Prop54
  1
strokes_ogs.tif
102
RTVSPost2010PropOp54
 70
     0
102
RTVSPost2010Prop55
280
     0
102
RTVSPost2010PropOp55
 70
     0
102
RTVSPost2010Prop56
140
1.0
102
RTVSPost2010PropOp56
 70
     0
102
RTVSPost2010Prop57
140
1.0
102
RTVSPost2010PropOp57
 70
     0
  0
XRECORD
  5
331
102
{ACAD_REACTORS
330
330
102
}
330
330
100
AcDbXrecord
280
     1
102
RTVSPropertyOp0
 70
     1
102
RTVSPropertyOp1
 70
     1
102
RTVSPropertyOp2
 70
     1
102
RTVSPropertyOp3
 70
     1
102
RTVSPropertyOp4
 70
     1
102
RTVSPropertyOp5
 70
     1
102
RTVSPropertyOp6
 70
     1
102
RTVSPropertyOp7
 70
     1
102
RTVSPropertyOp8
 70
     1
102
RTVSPropertyOp9
 70
     1
102
RTVSPropertyOp10
 70
     1
102
RTVSPropertyOp11
 70
     1
102
RTVSPropertyOp12
 70
     1
102
RTVSPropertyOp13
 70
     1
102
RTVSPropertyOp14
 70
     1
102
RTVSPropertyOp15
 70
     1
102
RTVSPropertyOp16
 70
     1
102
RTVSPropertyOp17
 70
     1
102
RTVSPropertyOp18
 70
     1
102
RTVSPropertyOp19
 70
     1
102
RTVSPropertyOp20
 70
     1
102
RTVSPropertyOp21
 70
     1
102
RTVSPropertyOp22
 70
     1
102
RTVSPropertyOp23
 70
     1
102
RTVSPropertyOp24
 70
     1
102
RTVSPropertyOp25
 70
     1
102
RTVSPropertyOp26
 70
     1
102
RTVSPropertyOp27
 70
     1
102
RTVSPropertyOp28
 70
     1
102
RTVSPropertyOp29
 70
     1
102
RTVSPropertyOp30
 70
     1
102
RTVSPropertyOp31
 70
     1
102
RTVSPropertyOp32
 70
     1
102
RTVSPropertyOp33
 70
     1
102
RTVSPropertyOp34
 70
     1
102
RTVSPropertyOp35
 70
     1
102
RTVSPropertyOp36
 70
     1
102
RTVSPropertyOp37
 70
     1
102
RTVSPropertyOp38
 70
     1
102
RTVSPropertyOp39
 70
     1
102
RTVSPropertyOp40
 70
     1
102
RTVSPropertyOp41
 70
     1
102
RTVSPropertyOp42
 70
     1
102
RTVSPropertyOp43
 70
     1
102
RTVSPropertyOp44
 70
     1
102
RTVSPropertyOp45
 70
     1
102
RTVSPropertyOp46
 70
     1
102
RTVSPropertyOp47
 70
     1
102
RTVSPropertyOp48
 70
     1
102
RTVSPropertyOp49
 70
     1
102
RTVSPropertyOp50
 70
     1
102
RTVSPropertyOp51
 70
     0
102
RTVSPropertyOp52
 70
     0
102
RTVSPropertyOp53
 70
     1
102
RTVSPropertyOp54
 70
     1
102
RTVSPropertyOp55
 70
     1
102
RTVSPropertyOp56
 70
     1
102
RTVSPropertyOp57
 70
     1
102
RTVSPost2010Prop28
280
     0
102
RTVSPost2010PropOp28
 70
     1
102
RTVSPost2010Prop29
280
     1
102
RTVSPost2010PropOp29
 70
     1
102
RTVSPost2010Prop30
280
     1
102
RTVSPost2010PropOp30
 70
     1
102
RTVSPost2010Prop31
280
     0
102
RTVSPost2010PropOp31
 70
     1
102
RTVSPost2010Prop32
280
     0
102
RTVSPost2010PropOp32
 70
     1
102
RTVSPost2010Prop33
280
     0
102
RTVSPost2010PropOp33
 70
     1
102
RTVSPost2010Prop34
280
     0
102
RTVSPost2010PropOp34
 70
     1
102
RTVSPost2010Prop35
280
     0
102
RTVSPost2010PropOp35
 70
     1
102
RTVSPost2010Prop36
280
     0
102
RTVSPost2010PropOp36
 70
     1
102
RTVSPost2010Prop37
 90
       50
102
RTVSPost2010PropOp37
 70
     1
102
RTVSPost2010Prop38
140
0.0
102
RTVSPost2010PropOp38
 70
     1
102
RTVSPost2010Prop39
140
1.0
102
RTVSPost2010PropOp39
 70
     1
102
RTVSPost2010Prop40
 90
        0
102
RTVSPost2010PropOp40
 70
     1
102
RTVSPost2010Prop41ColorIndex
 90
       18
102
RTVSPost2010Prop41ColorRGB
 90
        0
102
RTVSPost2010PropOp41
 70
     1
102
RTVSPost2010Prop42
 90
       50
102
RTVSPost2010PropOp42
 70
     1
102
RTVSPost2010Prop43
 90
        3
102
RTVSPost2010PropOp43
 70
     1
102
RTVSPost2010Prop44ColorIndex
 90
        5
102
RTVSPost2010Prop44ColorRGB
 90
      255
102
RTVSPost2010PropOp44
 70
     1
102
RTVSPost2010Prop45
280
     0
102
RTVSPost2010PropOp45
 70
     1
102
RTVSPost2010Prop46
 90
       50
102
RTVSPost2010PropOp46
 70
     1
102
RTVSPost2010Prop47
 90
       50
102
RTVSPost2010PropOp47
 70
     1
102
RTVSPost2010Prop48
 90
       50
102
RTVSPost2010PropOp48
 70
     1
102
RTVSPost2010Prop49
280
     0
102
RTVSPost2010PropOp49
 70
     1
102
RTVSPost2010Prop50
 90
       50
102
RTVSPost2010PropOp50
 70
     1
102
RTVSPost2010Prop51ColorIndex
 90
      256
102
RTVSPost2010Prop51ColorRGB
 90
-16777216
102
RTVSPost2010PropOp51
 70
     0
102
RTVSPost2010Prop52
140
1.0
102
RTVSPost2010PropOp52
 70
     0
102
RTVSPost2010Prop53
 90
        2
102
RTVSPost2010PropOp53
 70
     1
102
RTVSPost2010Prop54
  1
strokes_ogs.tif
102
RTVSPost2010PropOp54
 70
     1
102
RTVSPost2010Prop55
280
     0
102
RTVSPost2010PropOp55
 70
     1
102
RTVSPost2010Prop56
140
1.0
102
RTVSPost2010PropOp56
 70
     1
102
RTVSPost2010Prop57
140
1.0
102
RTVSPost2010PropOp57
 70
     1
  0
XRECORD
  5
34F
102
{ACAD_REACTORS
330
34E
102
}
330
34E
100
AcDbXrecord
280
     1
102
RTVSPropertyOp0
 70
     1
102
RTVSPropertyOp1
 70
     1
102
RTVSPropertyOp2
 70
     1
102
RTVSPropertyOp3
 70
     1
102
RTVSPropertyOp4
 70
     1
102
RTVSPropertyOp5
 70
     1
102
RTVSPropertyOp6
 70
     1
102
RTVSPropertyOp7
 70
     1
102
RTVSPropertyOp8
 70
     1
102
RTVSPropertyOp9
 70
     1
102
RTVSPropertyOp10
 70
     1
102
RTVSPropertyOp11
 70
     1
102
RTVSPropertyOp12
 70
     1
102
RTVSPropertyOp13
 70
     1
102
RTVSPropertyOp14
 70
     1
102
RTVSPropertyOp15
 70
     1
102
RTVSPropertyOp16
 70
     1
102
RTVSPropertyOp17
 70
     1
102
RTVSPropertyOp18
 70
     1
102
RTVSPropertyOp19
 70
     1
102
RTVSPropertyOp20
 70
     1
102
RTVSPropertyOp21
 70
     1
102
RTVSPropertyOp22
 70
     1
102
RTVSPropertyOp23
 70
     1
102
RTVSPropertyOp24
 70
     1
102
RTVSPropertyOp25
 70
     1
102
RTVSPropertyOp26
 70
     1
102
RTVSPropertyOp27
 70
     1
102
RTVSPropertyOp28
 70
     1
102
RTVSPropertyOp29
 70
     1
102
RTVSPropertyOp30
 70
     1
102
RTVSPropertyOp31
 70
     1
102
RTVSPropertyOp32
 70
     1
102
RTVSPropertyOp33
 70
     1
102
RTVSPropertyOp34
 70
     1
102
RTVSPropertyOp35
 70
     1
102
RTVSPropertyOp36
 70
     1
102
RTVSPropertyOp37
 70
     1
102
RTVSPropertyOp38
 70
     1
102
RTVSPropertyOp39
 70
     1
102
RTVSPropertyOp40
 70
     1
102
RTVSPropertyOp41
 70
     1
102
RTVSPropertyOp42
 70
     1
102
RTVSPropertyOp43
 70
     1
102
RTVSPropertyOp44
 70
     1
102
RTVSPropertyOp45
 70
     1
102
RTVSPropertyOp46
 70
     1
102
RTVSPropertyOp47
 70
     1
102
RTVSPropertyOp48
 70
     1
102
RTVSPropertyOp49
 70
     1
102
RTVSPropertyOp50
 70
     1
102
RTVSPropertyOp51
 70
     0
102
RTVSPropertyOp52
 70
     0
102
RTVSPropertyOp53
 70
     1
102
RTVSPropertyOp54
 70
     1
102
RTVSPropertyOp55
 70
     1
102
RTVSPropertyOp56
 70
     1
102
RTVSPropertyOp57
 70
     1
102
RTVSPost2010Prop28
280
     0
102
RTVSPost2010PropOp28
 70
     1
102
RTVSPost2010Prop29
280
     1
102
RTVSPost2010PropOp29
 70
     1
102
RTVSPost2010Prop30
280
     1
102
RTVSPost2010PropOp30
 70
     1
102
RTVSPost2010Prop31
280
     0
102
RTVSPost2010PropOp31
 70
     1
102
RTVSPost2010Prop32
280
     0
102
RTVSPost2010PropOp32
 70
     1
102
RTVSPost2010Prop33
280
     0
102
RTVSPost2010PropOp33
 70
     1
102
RTVSPost2010Prop34
280
     0
102
RTVSPost2010PropOp34
 70
     1
102
RTVSPost2010Prop35
280
     0
102
RTVSPost2010PropOp35
 70
     1
102
RTVSPost2010Prop36
280
     0
102
RTVSPost2010PropOp36
 70
     1
102
RTVSPost2010Prop37
 90
       50
102
RTVSPost2010PropOp37
 70
     1
102
RTVSPost2010Prop38
140
0.0
102
RTVSPost2010PropOp38
 70
     1
102
RTVSPost2010Prop39
140
1.0
102
RTVSPost2010PropOp39
 70
     1
102
RTVSPost2010Prop40
 90
        0
102
RTVSPost2010PropOp40
 70
     1
102
RTVSPost2010Prop41ColorIndex
 90
       18
102
RTVSPost2010Prop41ColorRGB
 90
        0
102
RTVSPost2010PropOp41
 70
     1
102
RTVSPost2010Prop42
 90
       50
102
RTVSPost2010PropOp42
 70
     1
102
RTVSPost2010Prop43
 90
        3
102
RTVSPost2010PropOp43
 70
     1
102
RTVSPost2010Prop44ColorIndex
 90
        5
102
RTVSPost2010Prop44ColorRGB
 90
      255
102
RTVSPost2010PropOp44
 70
     1
102
RTVSPost2010Prop45
280
     0
102
RTVSPost2010PropOp45
 70
     1
102
RTVSPost2010Prop46
 90
       50
102
RTVSPost2010PropOp46
 70
     1
102
RTVSPost2010Prop47
 90
       50
102
RTVSPost2010PropOp47
 70
     1
102
RTVSPost2010Prop48
 90
       50
102
RTVSPost2010PropOp48
 70
     1
102
RTVSPost2010Prop49
280
     0
102
RTVSPost2010PropOp49
 70
     1
102
RTVSPost2010Prop50
 90
       50
102
RTVSPost2010PropOp50
 70
     1
102
RTVSPost2010Prop51ColorIndex
 90
      256
102
RTVSPost2010Prop51ColorRGB
 90
-16777216
102
RTVSPost2010PropOp51
 70
     0
102
RTVSPost2010Prop52
140
1.0
102
RTVSPost2010PropOp52
 70
     0
102
RTVSPost2010Prop53
 90
        2
102
RTVSPost2010PropOp53
 70
     1
102
RTVSPost2010Prop54
  1
strokes_ogs.tif
102
RTVSPost2010PropOp54
 70
     1
102
RTVSPost2010Prop55
280
     0
102
RTVSPost2010PropOp55
 70
     1
102
RTVSPost2010Prop56
140
1.0
102
RTVSPost2010PropOp56
 70
     1
102
RTVSPost2010Prop57
140
1.0
102
RTVSPost2010PropOp57
 70
     1
  0
XRECORD
  5
34D
102
{ACAD_REACTORS
330
34C
102
}
330
34C
100
AcDbXrecord
280
     1
102
RTVSPropertyOp0
 70
     1
102
RTVSPropertyOp1
 70
     1
102
RTVSPropertyOp2
 70
     1
102
RTVSPropertyOp3
 70
     1
102
RTVSPropertyOp4
 70
     1
102
RTVSPropertyOp5
 70
     1
102
RTVSPropertyOp6
 70
     1
102
RTVSPropertyOp7
 70
     1
102
RTVSPropertyOp8
 70
     1
102
RTVSPropertyOp9
 70
     1
102
RTVSPropertyOp10
 70
     1
102
RTVSPropertyOp11
 70
     1
102
RTVSPropertyOp12
 70
     1
102
RTVSPropertyOp13
 70
     1
102
RTVSPropertyOp14
 70
     1
102
RTVSPropertyOp15
 70
     1
102
RTVSPropertyOp16
 70
     1
102
RTVSPropertyOp17
 70
     1
102
RTVSPropertyOp18
 70
     1
102
RTVSPropertyOp19
 70
     1
102
RTVSPropertyOp20
 70
     1
102
RTVSPropertyOp21
 70
     1
102
RTVSPropertyOp22
 70
     1
102
RTVSPropertyOp23
 70
     1
102
RTVSPropertyOp24
 70
     1
102
RTVSPropertyOp25
 70
     1
102
RTVSPropertyOp26
 70
     1
102
RTVSPropertyOp27
 70
     1
102
RTVSPropertyOp28
 70
     1
102
RTVSPropertyOp29
 70
     1
102
RTVSPropertyOp30
 70
     1
102
RTVSPropertyOp31
 70
     1
102
RTVSPropertyOp32
 70
     1
102
RTVSPropertyOp33
 70
     1
102
RTVSPropertyOp34
 70
     1
102
RTVSPropertyOp35
 70
     1
102
RTVSPropertyOp36
 70
     1
102
RTVSPropertyOp37
 70
     1
102
RTVSPropertyOp38
 70
     1
102
RTVSPropertyOp39
 70
     1
102
RTVSPropertyOp40
 70
     1
102
RTVSPropertyOp41
 70
     1
102
RTVSPropertyOp42
 70
     1
102
RTVSPropertyOp43
 70
     1
102
RTVSPropertyOp44
 70
     1
102
RTVSPropertyOp45
 70
     1
102
RTVSPropertyOp46
 70
     1
102
RTVSPropertyOp47
 70
     1
102
RTVSPropertyOp48
 70
     1
102
RTVSPropertyOp49
 70
     1
102
RTVSPropertyOp50
 70
     1
102
RTVSPropertyOp51
 70
     0
102
RTVSPropertyOp52
 70
     0
102
RTVSPropertyOp53
 70
     1
102
RTVSPropertyOp54
 70
     1
102
RTVSPropertyOp55
 70
     1
102
RTVSPropertyOp56
 70
     1
102
RTVSPropertyOp57
 70
     1
102
RTVSPost2010Prop28
280
     0
102
RTVSPost2010PropOp28
 70
     1
102
RTVSPost2010Prop29
280
     1
102
RTVSPost2010PropOp29
 70
     1
102
RTVSPost2010Prop30
280
     1
102
RTVSPost2010PropOp30
 70
     1
102
RTVSPost2010Prop31
280
     0
102
RTVSPost2010PropOp31
 70
     1
102
RTVSPost2010Prop32
280
     0
102
RTVSPost2010PropOp32
 70
     1
102
RTVSPost2010Prop33
280
     0
102
RTVSPost2010PropOp33
 70
     1
102
RTVSPost2010Prop34
280
     0
102
RTVSPost2010PropOp34
 70
     1
102
RTVSPost2010Prop35
280
     0
102
RTVSPost2010PropOp35
 70
     1
102
RTVSPost2010Prop36
280
     0
102
RTVSPost2010PropOp36
 70
     1
102
RTVSPost2010Prop37
 90
       50
102
RTVSPost2010PropOp37
 70
     1
102
RTVSPost2010Prop38
140
0.0
102
RTVSPost2010PropOp38
 70
     1
102
RTVSPost2010Prop39
140
1.0
102
RTVSPost2010PropOp39
 70
     1
102
RTVSPost2010Prop40
 90
        0
102
RTVSPost2010PropOp40
 70
     1
102
RTVSPost2010Prop41ColorIndex
 90
       18
102
RTVSPost2010Prop41ColorRGB
 90
        0
102
RTVSPost2010PropOp41
 70
     1
102
RTVSPost2010Prop42
 90
       50
102
RTVSPost2010PropOp42
 70
     1
102
RTVSPost2010Prop43
 90
        3
102
RTVSPost2010PropOp43
 70
     1
102
RTVSPost2010Prop44ColorIndex
 90
        5
102
RTVSPost2010Prop44ColorRGB
 90
      255
102
RTVSPost2010PropOp44
 70
     1
102
RTVSPost2010Prop45
280
     0
102
RTVSPost2010PropOp45
 70
     1
102
RTVSPost2010Prop46
 90
       50
102
RTVSPost2010PropOp46
 70
     1
102
RTVSPost2010Prop47
 90
       50
102
RTVSPost2010PropOp47
 70
     1
102
RTVSPost2010Prop48
 90
       50
102
RTVSPost2010PropOp48
 70
     1
102
RTVSPost2010Prop49
280
     0
102
RTVSPost2010PropOp49
 70
     1
102
RTVSPost2010Prop50
 90
       50
102
RTVSPost2010PropOp50
 70
     1
102
RTVSPost2010Prop51ColorIndex
 90
      256
102
RTVSPost2010Prop51ColorRGB
 90
-16777216
102
RTVSPost2010PropOp51
 70
     0
102
RTVSPost2010Prop52
140
1.0
102
RTVSPost2010PropOp52
 70
     0
102
RTVSPost2010Prop53
 90
        2
102
RTVSPost2010PropOp53
 70
     1
102
RTVSPost2010Prop54
  1
strokes_ogs.tif
102
RTVSPost2010PropOp54
 70
     1
102
RTVSPost2010Prop55
280
     0
102
RTVSPost2010PropOp55
 70
     1
102
RTVSPost2010Prop56
140
1.0
102
RTVSPost2010PropOp56
 70
     1
102
RTVSPost2010Prop57
140
1.0
102
RTVSPost2010PropOp57
 70
     1
  0
XRECORD
  5
347
102
{ACAD_REACTORS
330
346
102
}
330
346
100
AcDbXrecord
280
     1
102
RTVSPropertyOp0
 70
     1
102
RTVSPropertyOp1
 70
     1
102
RTVSPropertyOp2
 70
     1
102
RTVSPropertyOp3
 70
     1
102
RTVSPropertyOp4
 70
     1
102
RTVSPropertyOp5
 70
     1
102
RTVSPropertyOp6
 70
     1
102
RTVSPropertyOp7
 70
     1
102
RTVSPropertyOp8
 70
     1
102
RTVSPropertyOp9
 70
     1
102
RTVSPropertyOp10
 70
     1
102
RTVSPropertyOp11
 70
     1
102
RTVSPropertyOp12
 70
     1
102
RTVSPropertyOp13
 70
     1
102
RTVSPropertyOp14
 70
     1
102
RTVSPropertyOp15
 70
     1
102
RTVSPropertyOp16
 70
     1
102
RTVSPropertyOp17
 70
     1
102
RTVSPropertyOp18
 70
     1
102
RTVSPropertyOp19
 70
     1
102
RTVSPropertyOp20
 70
     1
102
RTVSPropertyOp21
 70
     1
102
RTVSPropertyOp22
 70
     1
102
RTVSPropertyOp23
 70
     1
102
RTVSPropertyOp24
 70
     1
102
RTVSPropertyOp25
 70
     1
102
RTVSPropertyOp26
 70
     1
102
RTVSPropertyOp27
 70
     1
102
RTVSPropertyOp28
 70
     1
102
RTVSPropertyOp29
 70
     1
102
RTVSPropertyOp30
 70
     1
102
RTVSPropertyOp31
 70
     1
102
RTVSPropertyOp32
 70
     1
102
RTVSPropertyOp33
 70
     1
102
RTVSPropertyOp34
 70
     1
102
RTVSPropertyOp35
 70
     1
102
RTVSPropertyOp36
 70
     1
102
RTVSPropertyOp37
 70
     1
102
RTVSPropertyOp38
 70
     1
102
RTVSPropertyOp39
 70
     1
102
RTVSPropertyOp40
 70
     1
102
RTVSPropertyOp41
 70
     1
102
RTVSPropertyOp42
 70
     1
102
RTVSPropertyOp43
 70
     1
102
RTVSPropertyOp44
 70
     1
102
RTVSPropertyOp45
 70
     1
102
RTVSPropertyOp46
 70
     1
102
RTVSPropertyOp47
 70
     1
102
RTVSPropertyOp48
 70
     1
102
RTVSPropertyOp49
 70
     1
102
RTVSPropertyOp50
 70
     1
102
RTVSPropertyOp51
 70
     0
102
RTVSPropertyOp52
 70
     0
102
RTVSPropertyOp53
 70
     1
102
RTVSPropertyOp54
 70
     1
102
RTVSPropertyOp55
 70
     1
102
RTVSPropertyOp56
 70
     1
102
RTVSPropertyOp57
 70
     1
102
RTVSPost2010Prop28
280
     0
102
RTVSPost2010PropOp28
 70
     1
102
RTVSPost2010Prop29
280
     1
102
RTVSPost2010PropOp29
 70
     1
102
RTVSPost2010Prop30
280
     1
102
RTVSPost2010PropOp30
 70
     1
102
RTVSPost2010Prop31
280
     0
102
RTVSPost2010PropOp31
 70
     1
102
RTVSPost2010Prop32
280
     0
102
RTVSPost2010PropOp32
 70
     1
102
RTVSPost2010Prop33
280
     0
102
RTVSPost2010PropOp33
 70
     1
102
RTVSPost2010Prop34
280
     0
102
RTVSPost2010PropOp34
 70
     1
102
RTVSPost2010Prop35
280
     0
102
RTVSPost2010PropOp35
 70
     1
102
RTVSPost2010Prop36
280
     0
102
RTVSPost2010PropOp36
 70
     1
102
RTVSPost2010Prop37
 90
       50
102
RTVSPost2010PropOp37
 70
     1
102
RTVSPost2010Prop38
140
0.0
102
RTVSPost2010PropOp38
 70
     1
102
RTVSPost2010Prop39
140
1.0
102
RTVSPost2010PropOp39
 70
     1
102
RTVSPost2010Prop40
 90
        0
102
RTVSPost2010PropOp40
 70
     1
102
RTVSPost2010Prop41ColorIndex
 90
       18
102
RTVSPost2010Prop41ColorRGB
 90
        0
102
RTVSPost2010PropOp41
 70
     1
102
RTVSPost2010Prop42
 90
       50
102
RTVSPost2010PropOp42
 70
     1
102
RTVSPost2010Prop43
 90
        3
102
RTVSPost2010PropOp43
 70
     1
102
RTVSPost2010Prop44ColorIndex
 90
        5
102
RTVSPost2010Prop44ColorRGB
 90
      255
102
RTVSPost2010PropOp44
 70
     1
102
RTVSPost2010Prop45
280
     0
102
RTVSPost2010PropOp45
 70
     1
102
RTVSPost2010Prop46
 90
       50
102
RTVSPost2010PropOp46
 70
     1
102
RTVSPost2010Prop47
 90
       50
102
RTVSPost2010PropOp47
 70
     1
102
RTVSPost2010Prop48
 90
       50
102
RTVSPost2010PropOp48
 70
     1
102
RTVSPost2010Prop49
280
     0
102
RTVSPost2010PropOp49
 70
     1
102
RTVSPost2010Prop50
 90
       50
102
RTVSPost2010PropOp50
 70
     1
102
RTVSPost2010Prop51ColorIndex
 90
      256
102
RTVSPost2010Prop51ColorRGB
 90
-16777216
102
RTVSPost2010PropOp51
 70
     0
102
RTVSPost2010Prop52
140
1.0
102
RTVSPost2010PropOp52
 70
     0
102
RTVSPost2010Prop53
 90
        2
102
RTVSPost2010PropOp53
 70
     1
102
RTVSPost2010Prop54
  1
strokes_ogs.tif
102
RTVSPost2010PropOp54
 70
     1
102
RTVSPost2010Prop55
280
     0
102
RTVSPost2010PropOp55
 70
     1
102
RTVSPost2010Prop56
140
1.0
102
RTVSPost2010PropOp56
 70
     1
102
RTVSPost2010Prop57
140
1.0
102
RTVSPost2010PropOp57
 70
     1
  0
XRECORD
  5
349
102
{ACAD_REACTORS
330
348
102
}
330
348
100
AcDbXrecord
280
     1
102
RTVSPropertyOp0
 70
     1
102
RTVSPropertyOp1
 70
     1
102
RTVSPropertyOp2
 70
     1
102
RTVSPropertyOp3
 70
     1
102
RTVSPropertyOp4
 70
     1
102
RTVSPropertyOp5
 70
     1
102
RTVSPropertyOp6
 70
     1
102
RTVSPropertyOp7
 70
     1
102
RTVSPropertyOp8
 70
     1
102
RTVSPropertyOp9
 70
     1
102
RTVSPropertyOp10
 70
     1
102
RTVSPropertyOp11
 70
     1
102
RTVSPropertyOp12
 70
     1
102
RTVSPropertyOp13
 70
     1
102
RTVSPropertyOp14
 70
     1
102
RTVSPropertyOp15
 70
     1
102
RTVSPropertyOp16
 70
     1
102
RTVSPropertyOp17
 70
     1
102
RTVSPropertyOp18
 70
     1
102
RTVSPropertyOp19
 70
     1
102
RTVSPropertyOp20
 70
     1
102
RTVSPropertyOp21
 70
     1
102
RTVSPropertyOp22
 70
     1
102
RTVSPropertyOp23
 70
     1
102
RTVSPropertyOp24
 70
     1
102
RTVSPropertyOp25
 70
     1
102
RTVSPropertyOp26
 70
     1
102
RTVSPropertyOp27
 70
     1
102
RTVSPropertyOp28
 70
     1
102
RTVSPropertyOp29
 70
     1
102
RTVSPropertyOp30
 70
     1
102
RTVSPropertyOp31
 70
     1
102
RTVSPropertyOp32
 70
     1
102
RTVSPropertyOp33
 70
     1
102
RTVSPropertyOp34
 70
     1
102
RTVSPropertyOp35
 70
     1
102
RTVSPropertyOp36
 70
     1
102
RTVSPropertyOp37
 70
     1
102
RTVSPropertyOp38
 70
     1
102
RTVSPropertyOp39
 70
     1
102
RTVSPropertyOp40
 70
     1
102
RTVSPropertyOp41
 70
     1
102
RTVSPropertyOp42
 70
     1
102
RTVSPropertyOp43
 70
     1
102
RTVSPropertyOp44
 70
     1
102
RTVSPropertyOp45
 70
     1
102
RTVSPropertyOp46
 70
     1
102
RTVSPropertyOp47
 70
     1
102
RTVSPropertyOp48
 70
     1
102
RTVSPropertyOp49
 70
     1
102
RTVSPropertyOp50
 70
     1
102
RTVSPropertyOp51
 70
     0
102
RTVSPropertyOp52
 70
     0
102
RTVSPropertyOp53
 70
     1
102
RTVSPropertyOp54
 70
     1
102
RTVSPropertyOp55
 70
     1
102
RTVSPropertyOp56
 70
     1
102
RTVSPropertyOp57
 70
     1
102
RTVSPost2010Prop28
280
     0
102
RTVSPost2010PropOp28
 70
     1
102
RTVSPost2010Prop29
280
     1
102
RTVSPost2010PropOp29
 70
     1
102
RTVSPost2010Prop30
280
     1
102
RTVSPost2010PropOp30
 70
     1
102
RTVSPost2010Prop31
280
     0
102
RTVSPost2010PropOp31
 70
     1
102
RTVSPost2010Prop32
280
     0
102
RTVSPost2010PropOp32
 70
     1
102
RTVSPost2010Prop33
280
     0
102
RTVSPost2010PropOp33
 70
     1
102
RTVSPost2010Prop34
280
     0
102
RTVSPost2010PropOp34
 70
     1
102
RTVSPost2010Prop35
280
     0
102
RTVSPost2010PropOp35
 70
     1
102
RTVSPost2010Prop36
280
     0
102
RTVSPost2010PropOp36
 70
     1
102
RTVSPost2010Prop37
 90
       50
102
RTVSPost2010PropOp37
 70
     1
102
RTVSPost2010Prop38
140
0.0
102
RTVSPost2010PropOp38
 70
     1
102
RTVSPost2010Prop39
140
1.0
102
RTVSPost2010PropOp39
 70
     1
102
RTVSPost2010Prop40
 90
        0
102
RTVSPost2010PropOp40
 70
     1
102
RTVSPost2010Prop41ColorIndex
 90
       18
102
RTVSPost2010Prop41ColorRGB
 90
        0
102
RTVSPost2010PropOp41
 70
     1
102
RTVSPost2010Prop42
 90
       50
102
RTVSPost2010PropOp42
 70
     1
102
RTVSPost2010Prop43
 90
        3
102
RTVSPost2010PropOp43
 70
     1
102
RTVSPost2010Prop44ColorIndex
 90
        5
102
RTVSPost2010Prop44ColorRGB
 90
      255
102
RTVSPost2010PropOp44
 70
     1
102
RTVSPost2010Prop45
280
     0
102
RTVSPost2010PropOp45
 70
     1
102
RTVSPost2010Prop46
 90
       50
102
RTVSPost2010PropOp46
 70
     1
102
RTVSPost2010Prop47
 90
       50
102
RTVSPost2010PropOp47
 70
     1
102
RTVSPost2010Prop48
 90
       50
102
RTVSPost2010PropOp48
 70
     1
102
RTVSPost2010Prop49
280
     0
102
RTVSPost2010PropOp49
 70
     1
102
RTVSPost2010Prop50
 90
       50
102
RTVSPost2010PropOp50
 70
     1
102
RTVSPost2010Prop51ColorIndex
 90
      256
102
RTVSPost2010Prop51ColorRGB
 90
-16777216
102
RTVSPost2010PropOp51
 70
     0
102
RTVSPost2010Prop52
140
1.0
102
RTVSPost2010PropOp52
 70
     0
102
RTVSPost2010Prop53
 90
        2
102
RTVSPost2010PropOp53
 70
     1
102
RTVSPost2010Prop54
  1
strokes_ogs.tif
102
RTVSPost2010PropOp54
 70
     1
102
RTVSPost2010Prop55
280
     0
102
RTVSPost2010PropOp55
 70
     1
102
RTVSPost2010Prop56
140
1.0
102
RTVSPost2010PropOp56
 70
     1
102
RTVSPost2010Prop57
140
1.0
102
RTVSPost2010PropOp57
 70
     1
  0
XRECORD
  5
339
102
{ACAD_REACTORS
330
338
102
}
330
338
100
AcDbXrecord
280
     1
102
RTVSPropertyOp0
 70
     1
102
RTVSPropertyOp1
 70
     1
102
RTVSPropertyOp2
 70
     1
102
RTVSPropertyOp3
 70
     1
102
RTVSPropertyOp4
 70
     1
102
RTVSPropertyOp5
 70
     1
102
RTVSPropertyOp6
 70
     1
102
RTVSPropertyOp7
 70
     1
102
RTVSPropertyOp8
 70
     1
102
RTVSPropertyOp9
 70
     1
102
RTVSPropertyOp10
 70
     1
102
RTVSPropertyOp11
 70
     1
102
RTVSPropertyOp12
 70
     1
102
RTVSPropertyOp13
 70
     1
102
RTVSPropertyOp14
 70
     1
102
RTVSPropertyOp15
 70
     1
102
RTVSPropertyOp16
 70
     1
102
RTVSPropertyOp17
 70
     1
102
RTVSPropertyOp18
 70
     1
102
RTVSPropertyOp19
 70
     1
102
RTVSPropertyOp20
 70
     1
102
RTVSPropertyOp21
 70
     1
102
RTVSPropertyOp22
 70
     1
102
RTVSPropertyOp23
 70
     1
102
RTVSPropertyOp24
 70
     1
102
RTVSPropertyOp25
 70
     1
102
RTVSPropertyOp26
 70
     1
102
RTVSPropertyOp27
 70
     1
102
RTVSPropertyOp28
 70
     1
102
RTVSPropertyOp29
 70
     1
102
RTVSPropertyOp30
 70
     1
102
RTVSPropertyOp31
 70
     1
102
RTVSPropertyOp32
 70
     1
102
RTVSPropertyOp33
 70
     1
102
RTVSPropertyOp34
 70
     1
102
RTVSPropertyOp35
 70
     1
102
RTVSPropertyOp36
 70
     1
102
RTVSPropertyOp37
 70
     1
102
RTVSPropertyOp38
 70
     1
102
RTVSPropertyOp39
 70
     1
102
RTVSPropertyOp40
 70
     1
102
RTVSPropertyOp41
 70
     1
102
RTVSPropertyOp42
 70
     1
102
RTVSPropertyOp43
 70
     1
102
RTVSPropertyOp44
 70
     1
102
RTVSPropertyOp45
 70
     1
102
RTVSPropertyOp46
 70
     1
102
RTVSPropertyOp47
 70
     1
102
RTVSPropertyOp48
 70
     1
102
RTVSPropertyOp49
 70
     1
102
RTVSPropertyOp50
 70
     1
102
RTVSPropertyOp51
 70
     0
102
RTVSPropertyOp52
 70
     0
102
RTVSPropertyOp53
 70
     1
102
RTVSPropertyOp54
 70
     1
102
RTVSPropertyOp55
 70
     1
102
RTVSPropertyOp56
 70
     1
102
RTVSPropertyOp57
 70
     1
102
RTVSPost2010Prop28
280
     0
102
RTVSPost2010PropOp28
 70
     1
102
RTVSPost2010Prop29
280
     1
102
RTVSPost2010PropOp29
 70
     1
102
RTVSPost2010Prop30
280
     1
102
RTVSPost2010PropOp30
 70
     1
102
RTVSPost2010Prop31
280
     0
102
RTVSPost2010PropOp31
 70
     1
102
RTVSPost2010Prop32
280
     0
102
RTVSPost2010PropOp32
 70
     1
102
RTVSPost2010Prop33
280
     0
102
RTVSPost2010PropOp33
 70
     1
102
RTVSPost2010Prop34
280
     0
102
RTVSPost2010PropOp34
 70
     1
102
RTVSPost2010Prop35
280
     0
102
RTVSPost2010PropOp35
 70
     1
102
RTVSPost2010Prop36
280
     0
102
RTVSPost2010PropOp36
 70
     1
102
RTVSPost2010Prop37
 90
       50
102
RTVSPost2010PropOp37
 70
     1
102
RTVSPost2010Prop38
140
0.0
102
RTVSPost2010PropOp38
 70
     1
102
RTVSPost2010Prop39
140
1.0
102
RTVSPost2010PropOp39
 70
     1
102
RTVSPost2010Prop40
 90
        0
102
RTVSPost2010PropOp40
 70
     1
102
RTVSPost2010Prop41ColorIndex
 90
       18
102
RTVSPost2010Prop41ColorRGB
 90
        0
102
RTVSPost2010PropOp41
 70
     1
102
RTVSPost2010Prop42
 90
       50
102
RTVSPost2010PropOp42
 70
     1
102
RTVSPost2010Prop43
 90
        3
102
RTVSPost2010PropOp43
 70
     1
102
RTVSPost2010Prop44ColorIndex
 90
        5
102
RTVSPost2010Prop44ColorRGB
 90
      255
102
RTVSPost2010PropOp44
 70
     1
102
RTVSPost2010Prop45
280
     0
102
RTVSPost2010PropOp45
 70
     1
102
RTVSPost2010Prop46
 90
       50
102
RTVSPost2010PropOp46
 70
     1
102
RTVSPost2010Prop47
 90
       50
102
RTVSPost2010PropOp47
 70
     1
102
RTVSPost2010Prop48
 90
       50
102
RTVSPost2010PropOp48
 70
     1
102
RTVSPost2010Prop49
280
     0
102
RTVSPost2010PropOp49
 70
     1
102
RTVSPost2010Prop50
 90
       50
102
RTVSPost2010PropOp50
 70
     1
102
RTVSPost2010Prop51ColorIndex
 90
      256
102
RTVSPost2010Prop51ColorRGB
 90
-16777216
102
RTVSPost2010PropOp51
 70
     0
102
RTVSPost2010Prop52
140
1.0
102
RTVSPost2010PropOp52
 70
     0
102
RTVSPost2010Prop53
 90
        2
102
RTVSPost2010PropOp53
 70
     1
102
RTVSPost2010Prop54
  1
strokes_ogs.tif
102
RTVSPost2010PropOp54
 70
     1
102
RTVSPost2010Prop55
280
     0
102
RTVSPost2010PropOp55
 70
     1
102
RTVSPost2010Prop56
140
1.0
102
RTVSPost2010PropOp56
 70
     1
102
RTVSPost2010Prop57
140
1.0
102
RTVSPost2010PropOp57
 70
     1
  0
XRECORD
  5
32B
102
{ACAD_REACTORS
330
32A
102
}
330
32A
100
AcDbXrecord
280
     1
102
RTVSPropertyOp0
 70
     1
102
RTVSPropertyOp1
 70
     1
102
RTVSPropertyOp2
 70
     1
102
RTVSPropertyOp3
 70
     1
102
RTVSPropertyOp4
 70
     1
102
RTVSPropertyOp5
 70
     1
102
RTVSPropertyOp6
 70
     1
102
RTVSPropertyOp7
 70
     1
102
RTVSPropertyOp8
 70
     1
102
RTVSPropertyOp9
 70
     1
102
RTVSPropertyOp10
 70
     1
102
RTVSPropertyOp11
 70
     1
102
RTVSPropertyOp12
 70
     1
102
RTVSPropertyOp13
 70
     1
102
RTVSPropertyOp14
 70
     1
102
RTVSPropertyOp15
 70
     1
102
RTVSPropertyOp16
 70
     1
102
RTVSPropertyOp17
 70
     1
102
RTVSPropertyOp18
 70
     1
102
RTVSPropertyOp19
 70
     1
102
RTVSPropertyOp20
 70
     1
102
RTVSPropertyOp21
 70
     1
102
RTVSPropertyOp22
 70
     1
102
RTVSPropertyOp23
 70
     1
102
RTVSPropertyOp24
 70
     1
102
RTVSPropertyOp25
 70
     1
102
RTVSPropertyOp26
 70
     1
102
RTVSPropertyOp27
 70
     1
102
RTVSPropertyOp28
 70
     1
102
RTVSPropertyOp29
 70
     1
102
RTVSPropertyOp30
 70
     1
102
RTVSPropertyOp31
 70
     1
102
RTVSPropertyOp32
 70
     1
102
RTVSPropertyOp33
 70
     1
102
RTVSPropertyOp34
 70
     1
102
RTVSPropertyOp35
 70
     1
102
RTVSPropertyOp36
 70
     1
102
RTVSPropertyOp37
 70
     1
102
RTVSPropertyOp38
 70
     1
102
RTVSPropertyOp39
 70
     1
102
RTVSPropertyOp40
 70
     1
102
RTVSPropertyOp41
 70
     1
102
RTVSPropertyOp42
 70
     1
102
RTVSPropertyOp43
 70
     1
102
RTVSPropertyOp44
 70
     1
102
RTVSPropertyOp45
 70
     1
102
RTVSPropertyOp46
 70
     1
102
RTVSPropertyOp47
 70
     1
102
RTVSPropertyOp48
 70
     1
102
RTVSPropertyOp49
 70
     1
102
RTVSPropertyOp50
 70
     1
102
RTVSPropertyOp51
 70
     0
102
RTVSPropertyOp52
 70
     0
102
RTVSPropertyOp53
 70
     1
102
RTVSPropertyOp54
 70
     1
102
RTVSPropertyOp55
 70
     1
102
RTVSPropertyOp56
 70
     1
102
RTVSPropertyOp57
 70
     1
102
RTVSPost2010Prop28
280
     0
102
RTVSPost2010PropOp28
 70
     1
102
RTVSPost2010Prop29
280
     1
102
RTVSPost2010PropOp29
 70
     1
102
RTVSPost2010Prop30
280
     1
102
RTVSPost2010PropOp30
 70
     1
102
RTVSPost2010Prop31
280
     0
102
RTVSPost2010PropOp31
 70
     1
102
RTVSPost2010Prop32
280
     0
102
RTVSPost2010PropOp32
 70
     1
102
RTVSPost2010Prop33
280
     0
102
RTVSPost2010PropOp33
 70
     1
102
RTVSPost2010Prop34
280
     0
102
RTVSPost2010PropOp34
 70
     1
102
RTVSPost2010Prop35
280
     0
102
RTVSPost2010PropOp35
 70
     1
102
RTVSPost2010Prop36
280
     0
102
RTVSPost2010PropOp36
 70
     1
102
RTVSPost2010Prop37
 90
       50
102
RTVSPost2010PropOp37
 70
     1
102
RTVSPost2010Prop38
140
0.0
102
RTVSPost2010PropOp38
 70
     1
102
RTVSPost2010Prop39
140
1.0
102
RTVSPost2010PropOp39
 70
     1
102
RTVSPost2010Prop40
 90
        0
102
RTVSPost2010PropOp40
 70
     1
102
RTVSPost2010Prop41ColorIndex
 90
       18
102
RTVSPost2010Prop41ColorRGB
 90
        0
102
RTVSPost2010PropOp41
 70
     1
102
RTVSPost2010Prop42
 90
       50
102
RTVSPost2010PropOp42
 70
     1
102
RTVSPost2010Prop43
 90
        3
102
RTVSPost2010PropOp43
 70
     1
102
RTVSPost2010Prop44ColorIndex
 90
        5
102
RTVSPost2010Prop44ColorRGB
 90
      255
102
RTVSPost2010PropOp44
 70
     1
102
RTVSPost2010Prop45
280
     0
102
RTVSPost2010PropOp45
 70
     1
102
RTVSPost2010Prop46
 90
       50
102
RTVSPost2010PropOp46
 70
     1
102
RTVSPost2010Prop47
 90
       50
102
RTVSPost2010PropOp47
 70
     1
102
RTVSPost2010Prop48
 90
       50
102
RTVSPost2010PropOp48
 70
     1
102
RTVSPost2010Prop49
280
     0
102
RTVSPost2010PropOp49
 70
     1
102
RTVSPost2010Prop50
 90
       50
102
RTVSPost2010PropOp50
 70
     1
102
RTVSPost2010Prop51ColorIndex
 90
      256
102
RTVSPost2010Prop51ColorRGB
 90
-16777216
102
RTVSPost2010PropOp51
 70
     0
102
RTVSPost2010Prop52
140
1.0
102
RTVSPost2010PropOp52
 70
     0
102
RTVSPost2010Prop53
 90
        2
102
RTVSPost2010PropOp53
 70
     1
102
RTVSPost2010Prop54
  1
strokes_ogs.tif
102
RTVSPost2010PropOp54
 70
     1
102
RTVSPost2010Prop55
280
     0
102
RTVSPost2010PropOp55
 70
     1
102
RTVSPost2010Prop56
140
1.0
102
RTVSPost2010PropOp56
 70
     1
102
RTVSPost2010Prop57
140
1.0
102
RTVSPost2010PropOp57
 70
     1
  0
XRECORD
  5
34B
102
{ACAD_REACTORS
330
34A
102
}
330
34A
100
AcDbXrecord
280
     1
102
RTVSPropertyOp0
 70
     1
102
RTVSPropertyOp1
 70
     1
102
RTVSPropertyOp2
 70
     1
102
RTVSPropertyOp3
 70
     1
102
RTVSPropertyOp4
 70
     1
102
RTVSPropertyOp5
 70
     1
102
RTVSPropertyOp6
 70
     1
102
RTVSPropertyOp7
 70
     1
102
RTVSPropertyOp8
 70
     1
102
RTVSPropertyOp9
 70
     1
102
RTVSPropertyOp10
 70
     1
102
RTVSPropertyOp11
 70
     1
102
RTVSPropertyOp12
 70
     1
102
RTVSPropertyOp13
 70
     1
102
RTVSPropertyOp14
 70
     1
102
RTVSPropertyOp15
 70
     1
102
RTVSPropertyOp16
 70
     1
102
RTVSPropertyOp17
 70
     1
102
RTVSPropertyOp18
 70
     1
102
RTVSPropertyOp19
 70
     1
102
RTVSPropertyOp20
 70
     1
102
RTVSPropertyOp21
 70
     1
102
RTVSPropertyOp22
 70
     1
102
RTVSPropertyOp23
 70
     1
102
RTVSPropertyOp24
 70
     1
102
RTVSPropertyOp25
 70
     1
102
RTVSPropertyOp26
 70
     1
102
RTVSPropertyOp27
 70
     1
102
RTVSPropertyOp28
 70
     1
102
RTVSPropertyOp29
 70
     1
102
RTVSPropertyOp30
 70
     1
102
RTVSPropertyOp31
 70
     1
102
RTVSPropertyOp32
 70
     1
102
RTVSPropertyOp33
 70
     1
102
RTVSPropertyOp34
 70
     1
102
RTVSPropertyOp35
 70
     1
102
RTVSPropertyOp36
 70
     1
102
RTVSPropertyOp37
 70
     1
102
RTVSPropertyOp38
 70
     1
102
RTVSPropertyOp39
 70
     1
102
RTVSPropertyOp40
 70
     1
102
RTVSPropertyOp41
 70
     1
102
RTVSPropertyOp42
 70
     1
102
RTVSPropertyOp43
 70
     1
102
RTVSPropertyOp44
 70
     1
102
RTVSPropertyOp45
 70
     1
102
RTVSPropertyOp46
 70
     1
102
RTVSPropertyOp47
 70
     1
102
RTVSPropertyOp48
 70
     1
102
RTVSPropertyOp49
 70
     1
102
RTVSPropertyOp50
 70
     1
102
RTVSPropertyOp51
 70
     0
102
RTVSPropertyOp52
 70
     0
102
RTVSPropertyOp53
 70
     1
102
RTVSPropertyOp54
 70
     1
102
RTVSPropertyOp55
 70
     1
102
RTVSPropertyOp56
 70
     1
102
RTVSPropertyOp57
 70
     1
102
RTVSPost2010Prop28
280
     0
102
RTVSPost2010PropOp28
 70
     1
102
RTVSPost2010Prop29
280
     1
102
RTVSPost2010PropOp29
 70
     1
102
RTVSPost2010Prop30
280
     1
102
RTVSPost2010PropOp30
 70
     1
102
RTVSPost2010Prop31
280
     0
102
RTVSPost2010PropOp31
 70
     1
102
RTVSPost2010Prop32
280
     0
102
RTVSPost2010PropOp32
 70
     1
102
RTVSPost2010Prop33
280
     0
102
RTVSPost2010PropOp33
 70
     1
102
RTVSPost2010Prop34
280
     0
102
RTVSPost2010PropOp34
 70
     1
102
RTVSPost2010Prop35
280
     0
102
RTVSPost2010PropOp35
 70
     1
102
RTVSPost2010Prop36
280
     0
102
RTVSPost2010PropOp36
 70
     1
102
RTVSPost2010Prop37
 90
       50
102
RTVSPost2010PropOp37
 70
     1
102
RTVSPost2010Prop38
140
0.0
102
RTVSPost2010PropOp38
 70
     1
102
RTVSPost2010Prop39
140
1.0
102
RTVSPost2010PropOp39
 70
     1
102
RTVSPost2010Prop40
 90
        0
102
RTVSPost2010PropOp40
 70
     1
102
RTVSPost2010Prop41ColorIndex
 90
       18
102
RTVSPost2010Prop41ColorRGB
 90
        0
102
RTVSPost2010PropOp41
 70
     1
102
RTVSPost2010Prop42
 90
       50
102
RTVSPost2010PropOp42
 70
     1
102
RTVSPost2010Prop43
 90
        3
102
RTVSPost2010PropOp43
 70
     1
102
RTVSPost2010Prop44ColorIndex
 90
        5
102
RTVSPost2010Prop44ColorRGB
 90
      255
102
RTVSPost2010PropOp44
 70
     1
102
RTVSPost2010Prop45
280
     0
102
RTVSPost2010PropOp45
 70
     1
102
RTVSPost2010Prop46
 90
       50
102
RTVSPost2010PropOp46
 70
     1
102
RTVSPost2010Prop47
 90
       50
102
RTVSPost2010PropOp47
 70
     1
102
RTVSPost2010Prop48
 90
       50
102
RTVSPost2010PropOp48
 70
     1
102
RTVSPost2010Prop49
280
     0
102
RTVSPost2010PropOp49
 70
     1
102
RTVSPost2010Prop50
 90
       50
102
RTVSPost2010PropOp50
 70
     1
102
RTVSPost2010Prop51ColorIndex
 90
      256
102
RTVSPost2010Prop51ColorRGB
 90
-16777216
102
RTVSPost2010PropOp51
 70
     0
102
RTVSPost2010Prop52
140
1.0
102
RTVSPost2010PropOp52
 70
     0
102
RTVSPost2010Prop53
 90
        2
102
RTVSPost2010PropOp53
 70
     1
102
RTVSPost2010Prop54
  1
strokes_ogs.tif
102
RTVSPost2010PropOp54
 70
     1
102
RTVSPost2010Prop55
280
     0
102
RTVSPost2010PropOp55
 70
     1
102
RTVSPost2010Prop56
140
1.0
102
RTVSPost2010PropOp56
 70
     1
102
RTVSPost2010Prop57
140
1.0
102
RTVSPost2010PropOp57
 70
     1
  0
ENDSEC
  0
EOF
