  0
SECTION
  2
HEADER
  9
$ACADVER
  1
AC1018
  9
$ACADMAINTVER
 70
     0
  9
$DWGCODEPAGE
  3
ANSI_1252
  9
$INSBASE
 10
0.0
 20
0.0
 30
0.0
  9
$EXTMIN
 10
-271.7568927145344
 20
-45.29362749516849
 30
0.0
  9
$EXTMAX
 10
148.243107285464
 20
251.7063725048315
 30
0.0
  9
$LIMMIN
 10
0.0
 20
0.0
  9
$LIMMAX
 10
12.0
 20
9.0
  9
$ORTHOMODE
 70
     0
  9
$REGENMODE
 70
     1
  9
$FILLMODE
 70
     1
  9
$QTEXTMODE
 70
     0
  9
$MIRRTEXT
 70
     1
  9
$LTSCALE
 40
1.0
  9
$ATTMODE
 70
     1
  9
$TEXTSIZE
 40
0.2
  9
$TRACEWID
 40
0.05
  9
$TEXTSTYLE
  7
Standard
  9
$CLAYER
  8
0
  9
$CELTYPE
  6
ByLayer
  9
$CECOLOR
 62
   256
  9
$CELTSCALE
 40
1.0
  9
$DISPSILH
 70
     0
  9
$DIMSCALE
 40
1.0
  9
$DIMASZ
 40
0.18
  9
$DIMEXO
 40
0.0625
  9
$DIMDLI
 40
0.38
  9
$DIMRND
 40
0.0
  9
$DIMDLE
 40
0.0
  9
$DIMEXE
 40
0.18
  9
$DIMTP
 40
0.0
  9
$DIMTM
 40
0.0
  9
$DIMTXT
 40
0.18
  9
$DIMCEN
 40
0.09
  9
$DIMTSZ
 40
0.0
  9
$DIMTOL
 70
     0
  9
$DIMLIM
 70
     0
  9
$DIMTIH
 70
     1
  9
$DIMTOH
 70
     1
  9
$DIMSE1
 70
     0
  9
$DIMSE2
 70
     0
  9
$DIMTAD
 70
     0
  9
$DIMZIN
 70
     0
  9
$DIMBLK
  1

  9
$DIMASO
 70
     1
  9
$DIMSHO
 70
     1
  9
$DIMPOST
  1

  9
$DIMAPOST
  1

  9
$DIMALT
 70
     0
  9
$DIMALTD
 70
     2
  9
$DIMALTF
 40
25.4
  9
$DIMLFAC
 40
1.0
  9
$DIMTOFL
 70
     0
  9
$DIMTVP
 40
0.0
  9
$DIMTIX
 70
     0
  9
$DIMSOXD
 70
     0
  9
$DIMSAH
 70
     0
  9
$DIMBLK1
  1

  9
$DIMBLK2
  1

  9
$DIMSTYLE
  2
Standard
  9
$DIMCLRD
 70
     0
  9
$DIMCLRE
 70
     0
  9
$DIMCLRT
 70
     0
  9
$DIMTFAC
 40
1.0
  9
$DIMGAP
 40
0.09
  9
$DIMJUST
 70
     0
  9
$DIMSD1
 70
     0
  9
$DIMSD2
 70
     0
  9
$DIMTOLJ
 70
     1
  9
$DIMTZIN
 70
     0
  9
$DIMALTZ
 70
     0
  9
$DIMALTTZ
 70
     0
  9
$DIMUPT
 70
     0
  9
$DIMDEC
 70
     4
  9
$DIMTDEC
 70
     4
  9
$DIMALTU
 70
     2
  9
$DIMALTTD
 70
     2
  9
$DIMTXSTY
  7
Standard
  9
$DIMAUNIT
 70
     0
  9
$DIMADEC
 70
     0
  9
$DIMALTRND
 40
0.0
  9
$DIMAZIN
 70
     0
  9
$DIMDSEP
 70
    46
  9
$DIMATFIT
 70
     3
  9
$DIMFRAC
 70
     0
  9
$DIMLDRBLK
  1

  9
$DIMLUNIT
 70
     2
  9
$DIMLWD
 70
    -2
  9
$DIMLWE
 70
    -2
  9
$DIMTMOVE
 70
     0
  9
$LUNITS
 70
     2
  9
$LUPREC
 70
     4
  9
$SKETCHINC
 40
0.1
  9
$FILLETRAD
 40
0.5
  9
$AUNITS
 70
     0
  9
$AUPREC
 70
     0
  9
$MENU
  1
.
  9
$ELEVATION
 40
0.0
  9
$PELEVATION
 40
0.0
  9
$THICKNESS
 40
0.0
  9
$LIMCHECK
 70
     0
  9
$CHAMFERA
 40
0.0
  9
$CHAMFERB
 40
0.0
  9
$CHAMFERC
 40
0.0
  9
$CHAMFERD
 40
0.0
  9
$SKPOLY
 70
     0
  9
$TDCREATE
 40
2459306.488653866
  9
$TDUCREATE
 40
2459306.405320533
  9
$TDUPDATE
 40
2459306.488654225
  9
$TDUUPDATE
 40
2459306.405320891
  9
$TDINDWG
 40
0.0000000116
  9
$TDUSRTIMER
 40
0.0000000116
  9
$USRTIMER
 70
     1
  9
$ANGBASE
 50
0.0
  9
$ANGDIR
 70
     0
  9
$PDMODE
 70
     0
  9
$PDSIZE
 40
0.0
  9
$PLINEWID
 40
0.0
  9
$SPLFRAME
 70
     0
  9
$SPLINETYPE
 70
     6
  9
$SPLINESEGS
 70
     8
  9
$HANDSEED
  5
342
  9
$SURFTAB1
 70
     6
  9
$SURFTAB2
 70
     6
  9
$SURFTYPE
 70
     6
  9
$SURFU
 70
     6
  9
$SURFV
 70
     6
  9
$UCSBASE
  2

  9
$UCSNAME
  2

  9
$UCSORG
 10
0.0
 20
0.0
 30
0.0
  9
$UCSXDIR
 10
1.0
 20
0.0
 30
0.0
  9
$UCSYDIR
 10
0.0
 20
1.0
 30
0.0
  9
$UCSORTHOREF
  2

  9
$UCSORTHOVIEW
 70
     0
  9
$UCSORGTOP
 10
0.0
 20
0.0
 30
0.0
  9
$UCSORGBOTTOM
 10
0.0
 20
0.0
 30
0.0
  9
$UCSORGLEFT
 10
0.0
 20
0.0
 30
0.0
  9
$UCSORGRIGHT
 10
0.0
 20
0.0
 30
0.0
  9
$UCSORGFRONT
 10
0.0
 20
0.0
 30
0.0
  9
$UCSORGBACK
 10
0.0
 20
0.0
 30
0.0
  9
$PUCSBASE
  2

  9
$PUCSNAME
  2

  9
$PUCSORG
 10
0.0
 20
0.0
 30
0.0
  9
$PUCSXDIR
 10
1.0
 20
0.0
 30
0.0
  9
$PUCSYDIR
 10
0.0
 20
1.0
 30
0.0
  9
$PUCSORTHOREF
  2

  9
$PUCSORTHOVIEW
 70
     0
  9
$PUCSORGTOP
 10
0.0
 20
0.0
 30
0.0
  9
$PUCSORGBOTTOM
 10
0.0
 20
0.0
 30
0.0
  9
$PUCSORGLEFT
 10
0.0
 20
0.0
 30
0.0
  9
$PUCSORGRIGHT
 10
0.0
 20
0.0
 30
0.0
  9
$PUCSORGFRONT
 10
0.0
 20
0.0
 30
0.0
  9
$PUCSORGBACK
 10
0.0
 20
0.0
 30
0.0
  9
$USERI1
 70
     0
  9
$USERI2
 70
     0
  9
$USERI3
 70
     0
  9
$USERI4
 70
     0
  9
$USERI5
 70
     0
  9
$USERR1
 40
20.1
  9
$USERR2
 40
0.0
  9
$USERR3
 40
0.0
  9
$USERR4
 40
0.0
  9
$USERR5
 40
0.0
  9
$WORLDVIEW
 70
     1
  9
$SHADEDGE
 70
     3
  9
$SHADEDIF
 70
    70
  9
$TILEMODE
 70
     1
  9
$MAXACTVP
 70
    64
  9
$PINSBASE
 10
0.0
 20
0.0
 30
0.0
  9
$PLIMCHECK
 70
     0
  9
$PEXTMIN
 10
1.00000000000000E+20
 20
1.00000000000000E+20
 30
1.00000000000000E+20
  9
$PEXTMAX
 10
-1.00000000000000E+20
 20
-1.00000000000000E+20
 30
-1.00000000000000E+20
  9
$PLIMMIN
 10
0.0
 20
0.0
  9
$PLIMMAX
 10
12.0
 20
9.0
  9
$UNITMODE
 70
     0
  9
$VISRETAIN
 70
     1
  9
$PLINEGEN
 70
     0
  9
$PSLTSCALE
 70
     1
  9
$TREEDEPTH
 70
  3020
  9
$CMLSTYLE
  2
Standard
  9
$CMLJUST
 70
     0
  9
$CMLSCALE
 40
1.0
  9
$PROXYGRAPHICS
 70
     1
  9
$MEASUREMENT
 70
     1
  9
$CELWEIGHT
370
    -1
  9
$ENDCAPS
280
     0
  9
$JOINSTYLE
280
     0
  9
$LWDISPLAY
290
     0
  9
$INSUNITS
 70
     4
  9
$HYPERLINKBASE
  1

  9
$STYLESHEET
  1

  9
$XEDIT
290
     1
  9
$CEPSNTYPE
380
     0
  9
$PSTYLEMODE
290
     1
  9
$FINGERPRINTGUID
  2
{ead23a62-e10d-4022-b57f-93afa6e6d804}
  9
$VERSIONGUID
  2
{FAEB1C32-E019-11D5-929B-00C0DF256EC4}
  9
$EXTNAMES
290
     1
  9
$PSVPSCALE
 40
0.0
  9
$OLESTARTUP
290
     0
  9
$SORTENTS
280
   127
  9
$INDEXCTL
280
     0
  9
$HIDETEXT
280
     1
  9
$XCLIPFRAME
290
     0
  9
$HALOGAP
280
     0
  9
$OBSCOLOR
 70
   257
  9
$OBSLTYPE
280
     0
  9
$INTERSECTIONDISPLAY
280
     0
  9
$INTERSECTIONCOLOR
 70
   257
  9
$DIMASSOC
280
     2
  9
$PROJECTNAME
  1

  0
ENDSEC
  0
SECTION
  2
CLASSES
  0
CLASS
  1
ACDBDICTIONARYWDFLT
  2
AcDbDictionaryWithDefault
  3
ObjectDBX Classes
 90
        0
 91
        3
280
     0
281
     0
  0
CLASS
  1
VISUALSTYLE
  2
AcDbVisualStyle
  3
ObjectDBX Classes
 90
     4095
 91
        3
280
     0
281
     0
  0
CLASS
  1
MATERIAL
  2
AcDbMaterial
  3
ObjectDBX Classes
 90
     1153
 91
        3
280
     0
281
     0
  0
CLASS
  1
SCALE
  2
AcDbScale
  3
ObjectDBX Classes
 90
     1153
 91
        3
280
     0
281
     0
  0
CLASS
  1
TABLESTYLE
  2
AcDbTableStyle
  3
ObjectDBX Classes
 90
     4095
 91
        3
280
     0
281
     0
  0
CLASS
  1
MLEADERSTYLE
  2
AcDbMLeaderStyle
  3
ACDB_MLEADERSTYLE_CLASS
 90
     4095
 91
        3
280
     0
281
     0
  0
CLASS
  1
SUN
  2
AcDbSun
  3
SCENEOE
 90
     1153
 91
        3
280
     0
281
     0
  0
CLASS
  1
DICTIONARYVAR
  2
AcDbDictionaryVar
  3
ObjectDBX Classes
 90
        0
 91
        3
280
     0
281
     0
  0
CLASS
  1
CELLSTYLEMAP
  2
AcDbCellStyleMap
  3
ObjectDBX Classes
 90
     1152
 91
        3
280
     0
281
     0
  0
ENDSEC
  0
SECTION
  2
TABLES
  0
TABLE
  2
VPORT
  5
8
102
{ACAD_XDICTIONARY
360
2FB
102
}
330
0
100
AcDbSymbolTable
 70
     1
  0
VPORT
  5
29
330
8
100
AcDbSymbolTableRecord
100
AcDbViewportTableRecord
  2
*Active
 70
     0
 10
0.0
 20
0.0
 11
1.0
 21
1.0
 12
-61.7568927145352
 22
103.2063725048315
 13
0.0
 23
0.0
 14
0.5
 24
0.5
 15
0.5
 25
0.5
 16
0.0
 26
0.0
 36
1.0
 17
0.0
 27
0.0
 37
0.0
 40
326.7
 41
1.60267857142857
 42
50.0
 43
0.0
 44
0.0
 50
0.0
 51
0.0
 71
     0
 72
   100
 73
     1
 74
     3
 75
     0
 76
     0
 77
     0
 78
     0
281
     0
 65
     1
110
0.0
120
0.0
130
0.0
111
1.0
121
0.0
131
0.0
112
0.0
122
1.0
132
0.0
 79
     0
146
0.0
  0
ENDTAB
  0
TABLE
  2
LTYPE
  5
5
330
0
100
AcDbSymbolTable
 70
     8
  0
LTYPE
  5
14
330
5
100
AcDbSymbolTableRecord
100
AcDbLinetypeTableRecord
  2
ByBlock
 70
     0
  3

 72
    65
 73
     0
 40
0.0
  0
LTYPE
  5
15
330
5
100
AcDbSymbolTableRecord
100
AcDbLinetypeTableRecord
  2
ByLayer
 70
     0
  3

 72
    65
 73
     0
 40
0.0
  0
LTYPE
  5
16
330
5
100
AcDbSymbolTableRecord
100
AcDbLinetypeTableRecord
  2
Continuous
 70
     0
  3
Solid line
 72
    65
 73
     0
 40
0.0
  0
LTYPE
  5
6E
330
5
100
AcDbSymbolTableRecord
100
AcDbLinetypeTableRecord
  2
DASHED
 70
     0
  3
Dashed
 72
    65
 73
     2
 40
15.0
 49
7.0
 74
     0
 49
-8.0
 74
     0
  0
LTYPE
  5
6F
330
5
100
AcDbSymbolTableRecord
100
AcDbLinetypeTableRecord
  2
DOTTED
 70
     0
  3
Dotted
 72
    65
 73
     2
 40
1.0
 49
0.0
 74
     0
 49
-1.0
 74
     0
  0
LTYPE
  5
70
330
5
100
AcDbSymbolTableRecord
100
AcDbLinetypeTableRecord
  2
DOT_CENTER
 70
     0
  3
Dot_Center
 72
    65
 73
     4
 40
14.0
 49
12.0
 74
     0
 49
-1.0
 74
     0
 49
0.0
 74
     0
 49
-1.0
 74
     0
  0
LTYPE
  5
71
330
5
100
AcDbSymbolTableRecord
100
AcDbLinetypeTableRecord
  2
LONG_DASHED
 70
     0
  3
Long_Dashed
 72
    65
 73
     2
 40
15.0
 49
10.0
 74
     0
 49
-5.0
 74
     0
  0
LTYPE
  5
72
330
5
100
AcDbSymbolTableRecord
100
AcDbLinetypeTableRecord
  2
DASH_CENTER
 70
     0
  3
Dash_Center
 72
    65
 73
     4
 40
14.0
 49
11.0
 74
     0
 49
-1.0
 74
     0
 49
1.0
 74
     0
 49
-1.0
 74
     0
  0
LTYPE
  5
73
330
5
100
AcDbSymbolTableRecord
100
AcDbLinetypeTableRecord
  2
PHANTOM
 70
     0
  3
Phantom
 72
    65
 73
     6
 40
13.0
 49
10.0
 74
     0
 49
-1.0
 74
     0
 49
0.0
 74
     0
 49
-1.0
 74
     0
 49
0.0
 74
     0
 49
-1.0
 74
     0
  0
LTYPE
  5
74
330
5
100
AcDbSymbolTableRecord
100
AcDbLinetypeTableRecord
  2
CENTER_DASH_DASH
 70
     0
  3
Center_Dash_Dash
 72
    65
 73
     6
 40
14.0
 49
9.0
 74
     0
 49
-1.0
 74
     0
 49
1.0
 74
     0
 49
-1.0
 74
     0
 49
1.0
 74
     0
 49
-1.0
 74
     0
  0
ENDTAB
  0
TABLE
  2
LAYER
  5
2
330
0
100
AcDbSymbolTable
 70
     2
  0
LAYER
  5
10
330
2
100
AcDbSymbolTableRecord
100
AcDbLayerTableRecord
  2
0
 70
     0
 62
     7
  6
Continuous
370
    -3
390
F
  0
LAYER
  5
75
330
2
100
AcDbSymbolTableRecord
100
AcDbLayerTableRecord
  2
1
 70
     0
 62
     7
  6
Continuous
370
    -3
390
F
  0
ENDTAB
  0
TABLE
  2
STYLE
  5
3
330
0
100
AcDbSymbolTable
 70
     5
  0
STYLE
  5
11
330
3
100
AcDbSymbolTableRecord
100
AcDbTextStyleTableRecord
  2
Standard
 70
     0
 40
0.0
 41
1.0
 50
0.0
 71
     0
 42
0.2
  3
txt
  4

  0
STYLE
  5
1BD
330
3
100
AcDbSymbolTableRecord
100
AcDbTextStyleTableRecord
  2
CONVERTER_11
 70
     0
 40
0.0
 41
0.9
 50
0.0
 71
     0
 42
0.2
  3
txt.shx
  4

  0
STYLE
  5
1D0
330
3
100
AcDbSymbolTableRecord
100
AcDbTextStyleTableRecord
  2
CONVERTER_12
 70
     0
 40
0.0
 41
0.81
 50
0.0
 71
     0
 42
0.2
  3
txt.shx
  4

  0
STYLE
  5
1D6
330
3
100
AcDbSymbolTableRecord
100
AcDbTextStyleTableRecord
  2
CONVERTER_13
 70
     0
 40
0.0
 41
0.855
 50
0.0
 71
     0
 42
0.2
  3
txt.shx
  4

  0
STYLE
  5
1D9
330
3
100
AcDbSymbolTableRecord
100
AcDbTextStyleTableRecord
  2
CONVERTER_14
 70
     0
 40
0.0
 41
0.72
 50
0.0
 71
     0
 42
0.2
  3
txt.shx
  4

  0
ENDTAB
  0
TABLE
  2
VIEW
  5
6
330
0
100
AcDbSymbolTable
 70
     0
  0
ENDTAB
  0
TABLE
  2
UCS
  5
7
330
0
100
AcDbSymbolTable
 70
     0
  0
ENDTAB
  0
TABLE
  2
APPID
  5
9
330
0
100
AcDbSymbolTable
 70
     2
  0
APPID
  5
12
330
9
100
AcDbSymbolTableRecord
100
AcDbRegAppTableRecord
  2
ACAD
 70
     0
  0
APPID
  5
33A
330
9
100
AcDbSymbolTableRecord
100
AcDbRegAppTableRecord
  2
ACAD_MLEADERVER
 70
     0
  0
ENDTAB
  0
TABLE
  2
DIMSTYLE
  5
A
330
0
100
AcDbSymbolTable
 70
     4
100
AcDbDimStyleTable
  0
DIMSTYLE
105
27
330
A
100
AcDbSymbolTableRecord
100
AcDbDimStyleTableRecord
  2
Standard
 70
     0
178
     0
340
11
  0
DIMSTYLE
105
257
102
{ACAD_REACTORS
330
258
102
}
330
A
100
AcDbSymbolTableRecord
100
AcDbDimStyleTableRecord
  2
ME10_DIM_10
 70
     0
 41
1.75
 42
0.0
 44
0.75
 73
     0
 74
     0
 77
     1
 78
     8
140
1.75
147
0.75
172
     1
173
     1
174
     1
175
     1
176
     2
177
     2
178
     3
340
1BD
  0
DIMSTYLE
105
2EE
102
{ACAD_REACTORS
330
2EF
102
}
330
A
100
AcDbSymbolTableRecord
100
AcDbDimStyleTableRecord
  2
ME10_DIM_11
 70
     0
 41
1.75
 42
0.0
 44
1.0
 73
     0
 74
     0
 77
     1
 78
     8
140
1.75
147
1.0
172
     1
173
     1
174
     1
175
     1
176
     2
177
     2
178
     3
340
1BD
  0
DIMSTYLE
105
2F9
102
{ACAD_REACTORS
330
2FA
102
}
330
A
100
AcDbSymbolTableRecord
100
AcDbDimStyleTableRecord
  2
ME10_DIM_12
 70
     0
 41
1.75
 42
0.0
 44
1.0
 73
     0
 74
     0
 77
     1
 78
     8
140
1.75
147
1.0
172
     1
173
     1
174
     1
175
     1
176
     2
177
     2
178
     3
340
1BD
  0
ENDTAB
  0
TABLE
  2
BLOCK_RECORD
  5
1
330
0
100
AcDbSymbolTable
 70
    20
  0
BLOCK_RECORD
  5
1F
330
1
100
AcDbSymbolTableRecord
100
AcDbBlockTableRecord
  2
*Model_Space
340
22
  0
BLOCK_RECORD
  5
1B
330
1
100
AcDbSymbolTableRecord
100
AcDbBlockTableRecord
  2
*Paper_Space
340
1E
  0
BLOCK_RECORD
  5
23
330
1
100
AcDbSymbolTableRecord
100
AcDbBlockTableRecord
  2
*Paper_Space0
340
26
  0
BLOCK_RECORD
  5
76
330
1
100
AcDbSymbolTableRecord
100
AcDbBlockTableRecord
  2
_rahmen
340
0
102
{BLKREFS
331
7D
102
}
  0
BLOCK_RECORD
  5
79
330
1
100
AcDbSymbolTableRecord
100
AcDbBlockTableRecord
  2
_punkt
340
0
102
{BLKREFS
331
7E
102
}
  0
BLOCK_RECORD
  5
7C
330
1
100
AcDbSymbolTableRecord
100
AcDbBlockTableRecord
  2
A3I_CS
340
0
102
{BLKREFS
331
AC
102
}
  0
BLOCK_RECORD
  5
81
330
1
100
AcDbSymbolTableRecord
100
AcDbBlockTableRecord
  2
CES_STPG_GY_10-select__1
340
0
102
{BLKREFS
331
85
102
}
  0
BLOCK_RECORD
  5
84
330
1
100
AcDbSymbolTableRecord
100
AcDbBlockTableRecord
  2
AllgSicht1
340
0
102
{BLKREFS
331
AD
102
}
  0
BLOCK_RECORD
  5
88
330
1
100
AcDbSymbolTableRecord
100
AcDbBlockTableRecord
  2
CES_STPG_GY_10-select__2
340
0
102
{BLKREFS
331
8C
102
}
  0
BLOCK_RECORD
  5
8B
330
1
100
AcDbSymbolTableRecord
100
AcDbBlockTableRecord
  2
Drfsicht1
340
0
102
{BLKREFS
331
AE
102
}
  0
BLOCK_RECORD
  5
8F
330
1
100
AcDbSymbolTableRecord
100
AcDbBlockTableRecord
  2
CES_STPG_GY_10-select__3
340
0
102
{BLKREFS
331
93
102
}
  0
BLOCK_RECORD
  5
92
330
1
100
AcDbSymbolTableRecord
100
AcDbBlockTableRecord
  2
Rckans1
340
0
102
{BLKREFS
331
AF
102
}
  0
BLOCK_RECORD
  5
96
330
1
100
AcDbSymbolTableRecord
100
AcDbBlockTableRecord
  2
CES_STPG_GY_10-select__4
340
0
102
{BLKREFS
331
9A
102
}
  0
BLOCK_RECORD
  5
99
330
1
100
AcDbSymbolTableRecord
100
AcDbBlockTableRecord
  2
SA_Links1
340
0
102
{BLKREFS
331
B0
102
}
  0
BLOCK_RECORD
  5
9D
330
1
100
AcDbSymbolTableRecord
100
AcDbBlockTableRecord
  2
CES_STPG_GY_10-select__5
340
0
102
{BLKREFS
331
A1
102
}
  0
BLOCK_RECORD
  5
A0
330
1
100
AcDbSymbolTableRecord
100
AcDbBlockTableRecord
  2
SA_Rechts1
340
0
102
{BLKREFS
331
B1
102
}
  0
BLOCK_RECORD
  5
A4
330
1
100
AcDbSymbolTableRecord
100
AcDbBlockTableRecord
  2
CES_STPG_GY_10-select__6
340
0
102
{BLKREFS
331
A8
102
}
  0
BLOCK_RECORD
  5
A7
330
1
100
AcDbSymbolTableRecord
100
AcDbBlockTableRecord
  2
Vordans1
340
0
102
{BLKREFS
331
B2
102
}
  0
BLOCK_RECORD
  5
AB
330
1
100
AcDbSymbolTableRecord
100
AcDbBlockTableRecord
  2
1
340
0
102
{BLKREFS
331
B5
102
}
  0
BLOCK_RECORD
  5
24E
330
1
100
AcDbSymbolTableRecord
100
AcDbBlockTableRecord
  2
*D17
340
0
  0
BLOCK_RECORD
  5
2E5
330
1
100
AcDbSymbolTableRecord
100
AcDbBlockTableRecord
  2
*D18
340
0
  0
BLOCK_RECORD
  5
2F0
330
1
100
AcDbSymbolTableRecord
100
AcDbBlockTableRecord
  2
*D19
340
0
  0
ENDTAB
  0
ENDSEC
  0
SECTION
  2
BLOCKS
  0
BLOCK
  5
20
330
1F
100
AcDbEntity
  8
0
100
AcDbBlockBegin
  2
*Model_Space
 70
     0
 10
0.0
 20
0.0
 30
0.0
  3
*Model_Space
  1

  0
ENDBLK
  5
21
330
1F
100
AcDbEntity
  8
0
100
AcDbBlockEnd
  0
BLOCK
  5
1C
330
1B
100
AcDbEntity
 67
     1
  8
0
100
AcDbBlockBegin
  2
*Paper_Space
 70
     0
 10
0.0
 20
0.0
 30
0.0
  3
*Paper_Space
  1

  0
ENDBLK
  5
1D
330
1B
100
AcDbEntity
 67
     1
  8
0
100
AcDbBlockEnd
  0
BLOCK
  5
24
330
23
100
AcDbEntity
  8
0
100
AcDbBlockBegin
  2
*Paper_Space0
 70
     0
 10
0.0
 20
0.0
 30
0.0
  3
*Paper_Space0
  1

  0
ENDBLK
  5
25
330
23
100
AcDbEntity
  8
0
100
AcDbBlockEnd
  0
BLOCK
  5
77
330
76
100
AcDbEntity
  8
0
100
AcDbBlockBegin
  2
_rahmen
 70
     0
 10
143.2431072854664
 20
-45.29362749516849
 30
0.0
  3
_rahmen
  1

  0
LINE
  5
B6
330
76
100
AcDbEntity
  8
1
  6
Continuous
 62
     6
100
AcDbLine
 10
74.90977395213294
 20
-40.29362749516849
 30
0.0
 11
143.2431072854663
 21
-40.29362749516901
 31
0.0
  0
LINE
  5
B7
330
76
100
AcDbEntity
  8
1
  6
Continuous
 62
     6
100
AcDbLine
 10
143.2431072854659
 20
-31.79362749516906
 30
0.0
 11
143.2431072854664
 21
-23.29362749516906
 31
0.0
  0
LINE
  5
B8
330
76
100
AcDbEntity
  8
1
  6
Continuous
 62
     6
100
AcDbLine
 10
143.2431072854664
 20
-23.29362749516906
 30
0.0
 11
143.2431072854654
 21
-19.04362749516906
 31
0.0
  0
LINE
  5
B9
330
76
100
AcDbEntity
  8
1
  6
Continuous
 62
     6
100
AcDbLine
 10
143.2431072854654
 20
-19.04362749516906
 30
0.0
 11
143.2431072854663
 21
17.10637250483163
 31
0.0
  0
LINE
  5
BA
330
76
100
AcDbEntity
  8
1
  6
Continuous
 62
     2
100
AcDbLine
 10
-61.75689271453365
 20
-45.29362749516849
 30
0.0
 11
-130.0902260478667
 21
-45.29362749516849
 31
0.0
  0
LINE
  5
BB
330
76
100
AcDbEntity
  8
1
  6
Continuous
 62
     2
100
AcDbLine
 10
74.90977395213294
 20
-45.29362749516849
 30
0.0
 11
143.2431072854664
 21
-45.29362749516849
 31
0.0
  0
LINE
  5
BC
330
76
100
AcDbEntity
  8
1
  6
Continuous
 62
     2
100
AcDbLine
 10
74.90977395213294
 20
-45.29362749516849
 30
0.0
 11
74.90977395213294
 21
-40.29362749516849
 31
0.0
  0
LINE
  5
BD
330
76
100
AcDbEntity
  8
1
  6
Continuous
 62
     2
100
AcDbLine
 10
6.57644061879975
 20
-45.29362749516849
 30
0.0
 11
6.57644061879975
 21
-40.29362749517139
 31
0.0
  0
LINE
  5
BE
330
76
100
AcDbEntity
  8
1
  6
Continuous
 62
     2
100
AcDbLine
 10
-61.75689271453365
 20
-45.29362749516849
 30
0.0
 11
-61.75689271453365
 21
-40.29362749516849
 31
0.0
  0
LINE
  5
BF
330
76
100
AcDbEntity
  8
1
  6
Continuous
 62
     2
100
AcDbLine
 10
148.2431072854639
 20
17.10637250483163
 30
0.0
 11
148.2431072854639
 21
74.50637250483172
 31
0.0
  0
LINE
  5
C0
330
76
100
AcDbEntity
  8
1
  6
Continuous
 62
     2
100
AcDbLine
 10
148.2431072854639
 20
17.10637250483163
 30
0.0
 11
143.2431072854663
 21
17.10637250483163
 31
0.0
  0
LINE
  5
C1
330
76
100
AcDbEntity
  8
1
  6
Continuous
 62
     2
100
AcDbLine
 10
-251.7568927145343
 20
-45.29362749516849
 30
0.0
 11
-271.7568927145344
 21
-45.29362749516849
 31
0.0
  0
LINE
  5
C2
330
76
100
AcDbEntity
  8
1
  6
Continuous
 62
     2
100
AcDbLine
 10
-198.4235593812003
 20
-45.29362749516849
 30
0.0
 11
-198.4235593812003
 21
-40.29362749516849
 31
0.0
  0
LINE
  5
C3
330
76
100
AcDbEntity
  8
1
  6
Continuous
 62
     2
100
AcDbLine
 10
-198.4235593812003
 20
-45.29362749516849
 30
0.0
 11
-130.0902260478667
 21
-45.29362749516849
 31
0.0
  0
LINE
  5
C4
330
76
100
AcDbEntity
  8
1
  6
Continuous
 62
     6
100
AcDbLine
 10
-198.4235593812003
 20
-40.29362749516849
 30
0.0
 11
-130.0902260478667
 21
-40.29362749516849
 31
0.0
  0
LINE
  5
C5
330
76
100
AcDbEntity
  8
1
  6
Continuous
 62
     6
100
AcDbLine
 10
-198.4235593812003
 20
-40.29362749516849
 30
0.0
 11
-251.7568927145334
 21
-40.29362749516849
 31
0.0
  0
LINE
  5
C6
330
76
100
AcDbEntity
  8
1
  6
Continuous
 62
     2
100
AcDbLine
 10
-130.0902260478667
 20
-45.29362749516849
 30
0.0
 11
-130.0902260478667
 21
-40.29362749516849
 31
0.0
  0
LINE
  5
C7
330
76
100
AcDbEntity
  8
1
  6
Continuous
 62
     2
100
AcDbLine
 10
-251.7568927145343
 20
-45.29362749516849
 30
0.0
 11
-251.7568927145343
 21
-41.29362749516849
 31
0.0
  0
LINE
  5
C8
330
76
100
AcDbEntity
  8
1
  6
Continuous
 62
     2
100
AcDbLine
 10
-251.7568927145343
 20
-45.29362749516849
 30
0.0
 11
-198.4235593812003
 21
-45.29362749516849
 31
0.0
  0
LINE
  5
C9
330
76
100
AcDbEntity
  8
1
  6
Continuous
 62
     2
100
AcDbLine
 10
-41.75689271453646
 20
-45.29362749516849
 30
0.0
 11
-61.75689271453365
 21
-45.29362749516849
 31
0.0
  0
LINE
  5
CA
330
76
100
AcDbEntity
  8
1
  6
Continuous
 62
     2
100
AcDbLine
 10
-41.75689271453646
 20
-45.29362749516849
 30
0.0
 11
-41.75689271453646
 21
-41.29362749516849
 31
0.0
  0
LINE
  5
CB
330
76
100
AcDbEntity
  8
1
  6
Continuous
 62
     2
100
AcDbLine
 10
-41.75689271453646
 20
-45.29362749516849
 30
0.0
 11
6.57644061879975
 21
-45.29362749516849
 31
0.0
  0
LINE
  5
CC
330
76
100
AcDbEntity
  8
1
  6
Continuous
 62
     2
100
AcDbLine
 10
6.57644061879975
 20
-45.29362749516849
 30
0.0
 11
74.90977395213294
 21
-45.29362749516849
 31
0.0
  0
LINE
  5
CD
330
76
100
AcDbEntity
  8
1
  6
Continuous
 62
     2
100
AcDbLine
 10
148.2431072854639
 20
-45.29362749516849
 30
0.0
 11
143.2431072854664
 21
-45.29362749516849
 31
0.0
  0
LINE
  5
CE
330
76
100
AcDbEntity
  8
1
  6
Continuous
 62
     2
100
AcDbLine
 10
148.2431072854639
 20
-40.29362749516849
 30
0.0
 11
148.2431072854639
 21
-45.29362749516849
 31
0.0
  0
LINE
  5
CF
330
76
100
AcDbEntity
  8
1
  6
Continuous
 62
     2
100
AcDbLine
 10
148.2431072854639
 20
-40.29362749516849
 30
0.0
 11
148.2431072854639
 21
17.10637250483163
 31
0.0
  0
LINE
  5
D0
330
76
100
AcDbEntity
  8
1
  6
Continuous
 62
     2
100
AcDbLine
 10
148.2431072854639
 20
251.7063725048315
 30
0.0
 11
143.2431072854639
 21
251.7063725048315
 31
0.0
  0
LINE
  5
D1
330
76
100
AcDbEntity
  8
1
  6
Continuous
 62
     6
100
AcDbLine
 10
143.2431072854639
 20
246.7063725048315
 30
0.0
 11
143.2431072854644
 21
189.3063725048314
 31
0.0
  0
LINE
  5
D2
330
76
100
AcDbEntity
  8
1
  6
Continuous
 62
     2
100
AcDbLine
 10
148.2431072854639
 20
251.7063725048315
 30
0.0
 11
148.2431072854639
 21
246.7063725048315
 31
0.0
  0
LINE
  5
D3
330
76
100
AcDbEntity
  8
1
  6
Continuous
 62
     2
100
AcDbLine
 10
143.2431072854639
 20
246.7063725048315
 30
0.0
 11
143.2431072854639
 21
251.7063725048315
 31
0.0
  0
LINE
  5
D4
330
76
100
AcDbEntity
  8
1
  6
Continuous
 62
     2
100
AcDbLine
 10
143.2431072854639
 20
246.7063725048315
 30
0.0
 11
148.2431072854639
 21
246.7063725048315
 31
0.0
  0
LINE
  5
D5
330
76
100
AcDbEntity
  8
1
  6
Continuous
 62
     2
100
AcDbLine
 10
148.2431072854639
 20
246.7063725048315
 30
0.0
 11
148.2431072854639
 21
189.3063725048314
 31
0.0
  0
LINE
  5
D6
330
76
100
AcDbEntity
  8
1
  6
Continuous
 62
     2
100
AcDbLine
 10
143.2431072854644
 20
189.3063725048314
 30
0.0
 11
148.2431072854639
 21
189.3063725048314
 31
0.0
  0
LINE
  5
D7
330
76
100
AcDbEntity
  8
1
  6
Continuous
 62
     6
100
AcDbLine
 10
143.2431072854644
 20
189.3063725048314
 30
0.0
 11
143.2431072854664
 21
131.9063725048315
 31
0.0
  0
LINE
  5
D8
330
76
100
AcDbEntity
  8
1
  6
Continuous
 62
     2
100
AcDbLine
 10
148.2431072854639
 20
189.3063725048314
 30
0.0
 11
148.2431072854639
 21
131.9063725048315
 31
0.0
  0
LINE
  5
D9
330
76
100
AcDbEntity
  8
1
  6
Continuous
 62
     2
100
AcDbLine
 10
143.2431072854664
 20
131.9063725048315
 30
0.0
 11
148.2431072854639
 21
131.9063725048315
 31
0.0
  0
LINE
  5
DA
330
76
100
AcDbEntity
  8
1
  6
Continuous
 62
     6
100
AcDbLine
 10
143.2431072854664
 20
131.9063725048315
 30
0.0
 11
143.2431072854664
 21
74.50637250483172
 31
0.0
  0
LINE
  5
DB
330
76
100
AcDbEntity
  8
1
  6
Continuous
 62
     2
100
AcDbLine
 10
148.2431072854639
 20
131.9063725048315
 30
0.0
 11
148.2431072854639
 21
74.50637250483172
 31
0.0
  0
LINE
  5
DC
330
76
100
AcDbEntity
  8
1
  6
Continuous
 62
     2
100
AcDbLine
 10
143.2431072854664
 20
74.50637250483172
 30
0.0
 11
148.2431072854639
 21
74.50637250483172
 31
0.0
  0
LINE
  5
DD
330
76
100
AcDbEntity
  8
1
  6
Continuous
 62
     6
100
AcDbLine
 10
143.2431072854664
 20
74.50637250483172
 30
0.0
 11
143.2431072854663
 21
17.10637250483163
 31
0.0
  0
LINE
  5
DE
330
76
100
AcDbEntity
  8
1
  6
Continuous
 62
     6
100
AcDbLine
 10
-251.7568927145343
 20
246.7063725048317
 30
0.0
 11
-198.4235593812003
 21
246.7063725048317
 31
0.0
  0
LINE
  5
DF
330
76
100
AcDbEntity
  8
1
  6
Continuous
 62
     2
100
AcDbLine
 10
143.2431072854639
 20
251.7063725048315
 30
0.0
 11
74.90977395213294
 21
251.7063725048315
 31
0.0
  0
LINE
  5
E0
330
76
100
AcDbEntity
  8
1
  6
Continuous
 62
     2
100
AcDbLine
 10
74.90977395213294
 20
246.7063725048315
 30
0.0
 11
74.90977395213294
 21
251.7063725048315
 31
0.0
  0
LINE
  5
E1
330
76
100
AcDbEntity
  8
1
  6
Continuous
 62
     6
100
AcDbLine
 10
74.90977395213294
 20
246.7063725048315
 30
0.0
 11
143.2431072854639
 21
246.7063725048315
 31
0.0
  0
LINE
  5
E2
330
76
100
AcDbEntity
  8
1
  6
Continuous
 62
     2
100
AcDbLine
 10
74.90977395213294
 20
251.7063725048315
 30
0.0
 11
6.57644061879975
 21
251.7063725048315
 31
0.0
  0
LINE
  5
E3
330
76
100
AcDbEntity
  8
1
  6
Continuous
 62
     2
100
AcDbLine
 10
6.57644061879975
 20
246.7063725048315
 30
0.0
 11
6.57644061879975
 21
251.7063725048315
 31
0.0
  0
LINE
  5
E4
330
76
100
AcDbEntity
  8
1
  6
Continuous
 62
     6
100
AcDbLine
 10
6.57644061879975
 20
246.7063725048315
 30
0.0
 11
74.90977395213294
 21
246.7063725048315
 31
0.0
  0
LINE
  5
E5
330
76
100
AcDbEntity
  8
1
  6
Continuous
 62
     2
100
AcDbLine
 10
6.57644061879975
 20
251.7063725048315
 30
0.0
 11
-41.75689271453646
 21
251.7063725048315
 31
0.0
  0
LINE
  5
E6
330
76
100
AcDbEntity
  8
1
  6
Continuous
 62
     2
100
AcDbLine
 10
-61.75689271453365
 20
246.7063725048315
 30
0.0
 11
-61.75689271453365
 21
251.7063725048315
 31
0.0
  0
LINE
  5
E7
330
76
100
AcDbEntity
  8
1
  6
Continuous
 62
     6
100
AcDbLine
 10
-61.75689271453365
 20
246.7063725048315
 30
0.0
 11
6.57644061879975
 21
246.7063725048315
 31
0.0
  0
LINE
  5
E8
330
76
100
AcDbEntity
  8
1
  6
Continuous
 62
     2
100
AcDbLine
 10
-61.75689271453365
 20
251.7063725048315
 30
0.0
 11
-130.0902260478667
 21
251.7063725048315
 31
0.0
  0
LINE
  5
E9
330
76
100
AcDbEntity
  8
1
  6
Continuous
 62
     2
100
AcDbLine
 10
-130.0902260478667
 20
246.7063725048315
 30
0.0
 11
-130.0902260478667
 21
251.7063725048315
 31
0.0
  0
LINE
  5
EA
330
76
100
AcDbEntity
  8
1
  6
Continuous
 62
     6
100
AcDbLine
 10
-130.0902260478667
 20
246.7063725048315
 30
0.0
 11
-61.75689271453365
 21
246.7063725048315
 31
0.0
  0
LINE
  5
EB
330
76
100
AcDbEntity
  8
1
  6
Continuous
 62
     2
100
AcDbLine
 10
-130.0902260478667
 20
251.7063725048315
 30
0.0
 11
-198.4235593812003
 21
251.7063725048315
 31
0.0
  0
LINE
  5
EC
330
76
100
AcDbEntity
  8
1
  6
Continuous
 62
     2
100
AcDbLine
 10
-198.4235593812003
 20
246.7063725048317
 30
0.0
 11
-198.4235593812003
 21
251.7063725048315
 31
0.0
  0
LINE
  5
ED
330
76
100
AcDbEntity
  8
1
  6
Continuous
 62
     6
100
AcDbLine
 10
-198.4235593812003
 20
246.7063725048317
 30
0.0
 11
-130.0902260478667
 21
246.7063725048315
 31
0.0
  0
LINE
  5
EE
330
76
100
AcDbEntity
  8
1
  6
Continuous
 62
     2
100
AcDbLine
 10
-198.4235593812003
 20
251.7063725048315
 30
0.0
 11
-251.7568927145343
 21
251.7063725048315
 31
0.0
  0
LINE
  5
EF
330
76
100
AcDbEntity
  8
1
  6
Continuous
 62
     2
100
AcDbLine
 10
-251.7568927145343
 20
251.7063725048315
 30
0.0
 11
-251.7568927145343
 21
247.7063725048317
 31
0.0
  0
LINE
  5
F0
330
76
100
AcDbEntity
  8
1
  6
Continuous
 62
     2
100
AcDbLine
 10
-251.7568927145343
 20
251.7063725048315
 30
0.0
 11
-271.7568927145344
 21
251.7063725048315
 31
0.0
  0
LINE
  5
F1
330
76
100
AcDbEntity
  8
1
  6
Continuous
 62
     2
100
AcDbLine
 10
-41.75689271453646
 20
251.7063725048315
 30
0.0
 11
-41.75689271453646
 21
247.7063725048317
 31
0.0
  0
LINE
  5
F2
330
76
100
AcDbEntity
  8
1
  6
Continuous
 62
     2
100
AcDbLine
 10
-41.75689271453646
 20
251.7063725048315
 30
0.0
 11
-61.75689271453365
 21
251.7063725048315
 31
0.0
  0
LINE
  5
F3
330
76
100
AcDbEntity
  8
1
  6
Continuous
 62
     2
100
AcDbLine
 10
-271.7568927145344
 20
251.7063725048315
 30
0.0
 11
-271.7568927145344
 21
103.2063725048315
 31
0.0
  0
LINE
  5
F4
330
76
100
AcDbEntity
  8
1
  6
Continuous
 62
     2
100
AcDbLine
 10
-271.7568927145344
 20
103.2063725048315
 30
0.0
 11
-261.7568927145343
 21
103.2063725048315
 31
0.0
  0
LINE
  5
F5
330
76
100
AcDbEntity
  8
1
  6
Continuous
 62
     2
100
AcDbLine
 10
-271.7568927145344
 20
103.2063725048315
 30
0.0
 11
-271.7568927145344
 21
-45.29362749516849
 31
0.0
  0
LINE
  5
F6
330
76
100
AcDbEntity
  8
1
  6
Continuous
 62
     6
100
AcDbLine
 10
-251.7568927145334
 20
-40.29362749516849
 30
0.0
 11
-251.7568927145343
 21
246.7063725048317
 31
0.0
  0
LINE
  5
F7
330
76
100
AcDbEntity
  8
1
  6
Continuous
 62
     6
100
AcDbLine
 10
143.2431072854663
 20
-40.29362749516901
 30
0.0
 11
143.2431072854659
 21
-31.79362749516906
 31
0.0
  0
LINE
  5
F8
330
76
100
AcDbEntity
  8
1
  6
Continuous
 62
     6
100
AcDbLine
 10
-130.0902260478667
 20
-40.29362749516849
 30
0.0
 11
13.69830275871644
 21
-40.29362749517156
 31
0.0
  0
LINE
  5
F9
330
76
100
AcDbEntity
  8
1
  6
Continuous
 62
     2
100
AcDbLine
 10
6.57644061879975
 20
-40.29362749517139
 30
0.0
 11
6.57644061879975
 21
-40.29362749516849
 31
0.0
  0
LINE
  5
FA
330
76
100
AcDbEntity
  8
1
  6
Continuous
 62
     6
100
AcDbLine
 10
143.2431072854681
 20
-23.29362749516906
 30
0.0
 11
143.2431072854681
 21
-14.79362749516906
 31
0.0
  0
LINE
  5
FB
330
76
100
AcDbEntity
  8
1
  6
Continuous
 62
     7
100
AcDbLine
 10
77.99830275871635
 20
-31.79362749516906
 30
0.0
 11
77.99830275871635
 21
-23.29362749516906
 31
0.0
  0
LINE
  5
FC
330
76
100
AcDbEntity
  8
1
  6
Continuous
 62
     6
100
AcDbLine
 10
50.09830275871636
 20
-23.29362749516906
 30
0.0
 11
143.2431072854681
 21
-23.29362749516906
 31
0.0
  0
LINE
  5
FD
330
76
100
AcDbEntity
  8
1
  6
Continuous
 62
     7
100
AcDbLine
 10
13.69830275871644
 20
-23.29362749516906
 30
0.0
 11
13.69830275871644
 21
-14.79362749516906
 31
0.0
  0
LINE
  5
FE
330
76
100
AcDbEntity
  8
1
  6
Continuous
 62
     7
100
AcDbLine
 10
50.09830275871636
 20
-23.29362749516906
 30
0.0
 11
50.09830275871636
 21
-14.79362749516906
 31
0.0
  0
LINE
  5
FF
330
76
100
AcDbEntity
  8
1
  6
Continuous
 62
     7
100
AcDbLine
 10
107.8246990037893
 20
-14.79362749516906
 30
0.0
 11
107.8246990037893
 21
-23.29362749516906
 31
0.0
  0
LINE
  5
100
330
76
100
AcDbEntity
  8
1
  6
Continuous
 62
     7
100
AcDbLine
 10
134.324699003789
 20
-14.79362749516906
 30
0.0
 11
134.324699003789
 21
-23.29362749516906
 31
0.0
  0
LINE
  5
101
330
76
100
AcDbEntity
  8
1
  6
Continuous
 62
     7
100
AcDbLine
 10
143.2431072854677
 20
-31.79362749516906
 30
0.0
 11
50.09830275871636
 21
-31.79362749516906
 31
0.0
  0
LINE
  5
102
102
{ACAD_REACTORS
330
1E8
330
1E9
102
}
330
76
100
AcDbEntity
  8
0
  6
Continuous
 62
     2
100
AcDbLine
 10
27.40573170048384
 20
-30.99333837950576
 30
0.0
 11
27.40573170048384
 21
-30.12082137270249
 31
0.0
  0
LINE
  5
103
102
{ACAD_REACTORS
330
1E8
330
1E9
102
}
330
76
100
AcDbEntity
  8
0
  6
Continuous
 62
     2
100
AcDbLine
 10
27.40573170048384
 20
-31.95310708698855
 30
0.0
 11
27.40573170048384
 21
-32.82562409379187
 31
0.0
  0
LINE
  5
104
102
{ACAD_REACTORS
330
1EA
330
1EB
102
}
330
76
100
AcDbEntity
  8
0
  6
Continuous
 62
     2
100
AcDbLine
 10
42.73877583677424
 20
-30.73158327746529
 30
0.0
 11
43.84241513634234
 21
-30.73158327746529
 31
0.0
  0
LINE
  5
105
102
{ACAD_REACTORS
330
1EA
330
1EB
102
}
330
76
100
AcDbEntity
  8
0
  6
Continuous
 62
     2
100
AcDbLine
 10
43.50843317973565
 20
-31.95310708698906
 30
0.0
 11
43.50843317973565
 21
-32.82562409379239
 31
0.0
  0
LINE
  5
106
102
{ACAD_REACTORS
330
1F4
330
1F5
102
}
330
76
100
AcDbEntity
  8
0
  6
Continuous
 62
     2
100
AcDbLine
 10
41.64767656435583
 20
-29.64093701897838
 30
0.0
 11
43.04562961129614
 21
-28.0600780252035
 31
0.0
  0
LINE
  5
107
102
{ACAD_REACTORS
330
1F4
330
1F5
102
}
330
76
100
AcDbEntity
  8
0
  6
Continuous
 62
     2
100
AcDbLine
 10
41.74309998052866
 20
-26.58712749516729
 30
0.0
 11
43.04562961129614
 21
-28.0600780252035
 31
0.0
  0
LINE
  5
108
102
{ACAD_REACTORS
330
1F4
330
1F5
102
}
330
76
100
AcDbEntity
  8
0
  6
Continuous
 62
     2
100
AcDbLine
 10
44.34815924206254
 20
-26.58712749516729
 30
0.0
 11
45.75088345980976
 21
-26.58712749516729
 31
0.0
  0
LINE
  5
109
102
{ACAD_REACTORS
330
1F4
330
1F5
102
}
330
76
100
AcDbEntity
  8
0
  6
Continuous
 62
     2
100
AcDbLine
 10
43.05040078210394
 20
-29.64093701897838
 30
0.0
 11
43.74699172016975
 21
-28.85320523368466
 31
0.0
  0
LINE
  5
10A
102
{ACAD_REACTORS
330
1F4
330
1F5
102
}
330
76
100
AcDbEntity
  8
0
  6
Continuous
 62
     2
100
AcDbLine
 10
43.05040078210394
 20
-29.64093701897838
 30
0.0
 11
41.64767656435583
 21
-29.64093701897838
 31
0.0
  0
LINE
  5
10B
102
{ACAD_REACTORS
330
1F6
330
1F7
102
}
330
76
100
AcDbEntity
  8
0
  6
Continuous
 62
     2
100
AcDbLine
 10
41.52839729413896
 20
-29.64093701897838
 30
0.0
 11
40.28789288388603
 21
-29.64093701897838
 31
0.0
  0
LINE
  5
10C
102
{ACAD_REACTORS
330
1F8
330
1F9
102
}
330
76
100
AcDbEntity
  8
0
  6
Continuous
 62
     2
100
AcDbLine
 10
39.41991327573095
 20
-31.7786036856283
 30
0.0
 11
39.11974803854074
 21
-31.0107887196416
 31
0.0
  0
LINE
  5
10D
102
{ACAD_REACTORS
330
1F8
330
1F9
102
}
330
76
100
AcDbEntity
  8
0
  6
Continuous
 62
     2
100
AcDbLine
 10
38.81958280134845
 20
-31.7786036856283
 30
0.0
 11
39.41991327573095
 21
-31.7786036856283
 31
0.0
  0
LINE
  5
10E
102
{ACAD_REACTORS
330
1F8
330
1F9
102
}
330
76
100
AcDbEntity
  8
0
  6
Continuous
 62
     2
100
AcDbLine
 10
37.10154278647465
 20
-33.0001274951527
 30
0.0
 11
38.34204719672755
 21
-33.0001274951527
 31
0.0
  0
LINE
  5
10F
102
{ACAD_REACTORS
330
1F8
330
1F9
102
}
330
76
100
AcDbEntity
  8
0
  6
Continuous
 62
     2
100
AcDbLine
 10
38.49949583341385
 20
-29.94631797134156
 30
0.0
 11
39.74000024366666
 21
-29.94631797134156
 31
0.0
  0
LINE
  5
110
102
{ACAD_REACTORS
330
1F8
330
1F9
102
}
330
76
100
AcDbEntity
  8
0
  6
Continuous
 62
     2
100
AcDbLine
 10
39.74000024366666
 20
-29.94631797134156
 30
0.0
 11
41.13795329060693
 21
-33.0001274951527
 31
0.0
  0
LINE
  5
111
102
{ACAD_REACTORS
330
1F8
330
1F9
102
}
330
76
100
AcDbEntity
  8
0
  6
Continuous
 62
     2
100
AcDbLine
 10
39.89744888035304
 20
-33.0001274951527
 30
0.0
 11
39.68596882687726
 21
-32.4591669509349
 31
0.0
  0
LINE
  5
112
102
{ACAD_REACTORS
330
1FA
330
1FB
102
}
330
76
100
AcDbEntity
  8
0
  6
Continuous
 62
     2
100
AcDbLine
 10
35.75512968476704
 20
-33.0001274951527
 30
0.0
 11
36.94792238693344
 21
-33.0001274951527
 31
0.0
  0
LINE
  5
113
102
{ACAD_REACTORS
330
1FA
330
1FB
102
}
330
76
100
AcDbEntity
  8
0
  6
Continuous
 62
     2
100
AcDbLine
 10
35.75512968476704
 20
-30.73158327746529
 30
0.0
 11
35.75512968476704
 21
-33.0001274951527
 31
0.0
  0
LINE
  5
114
102
{ACAD_REACTORS
330
1FA
330
1FB
102
}
330
76
100
AcDbEntity
  8
0
  6
Continuous
 62
     2
100
AcDbLine
 10
34.94403064729235
 20
-29.94631797134156
 30
0.0
 11
34.94403064729235
 21
-30.73158327746529
 31
0.0
  0
LINE
  5
115
102
{ACAD_REACTORS
330
1FC
330
1FD
102
}
330
76
100
AcDbEntity
  8
0
  6
Continuous
 62
     2
100
AcDbLine
 10
36.42324452886504
 20
-29.64093701897838
 30
0.0
 11
37.61603723103144
 21
-29.64093701897838
 31
0.0
  0
LINE
  5
116
102
{ACAD_REACTORS
330
1FC
330
1FD
102
}
330
76
100
AcDbEntity
  8
0
  6
Continuous
 62
     2
100
AcDbLine
 10
38.85654164128553
 20
-27.89590300537236
 30
0.0
 11
37.61603723103144
 21
-26.58712749516729
 31
0.0
  0
LINE
  5
117
102
{ACAD_REACTORS
330
1FC
330
1FD
102
}
330
76
100
AcDbEntity
  8
0
  6
Continuous
 62
     2
100
AcDbLine
 10
40.04933434345213
 20
-26.58712749516729
 30
0.0
 11
38.85654164128553
 21
-26.58712749516729
 31
0.0
  0
LINE
  5
118
102
{ACAD_REACTORS
330
1FC
330
1FD
102
}
330
76
100
AcDbEntity
  8
0
  6
Continuous
 62
     2
100
AcDbLine
 10
40.04933434345213
 20
-29.64093701897838
 30
0.0
 11
40.04933434345213
 21
-26.58712749516729
 31
0.0
  0
LINE
  5
119
102
{ACAD_REACTORS
330
1FC
330
1FD
102
}
330
76
100
AcDbEntity
  8
0
  6
Continuous
 62
     2
100
AcDbLine
 10
38.85654164128553
 20
-29.64093701897838
 30
0.0
 11
40.04933434345213
 21
-29.64093701897838
 31
0.0
  0
LINE
  5
11A
102
{ACAD_REACTORS
330
1FC
330
1FD
102
}
330
76
100
AcDbEntity
  8
0
  6
Continuous
 62
     2
100
AcDbLine
 10
37.61603723103144
 20
-28.33216150877365
 30
0.0
 11
38.85654164128553
 21
-29.64093701897838
 31
0.0
  0
LINE
  5
11B
102
{ACAD_REACTORS
330
1FE
330
1FF
102
}
330
76
100
AcDbEntity
  8
0
  6
Continuous
 62
     2
100
AcDbLine
 10
33.60810282086584
 20
-31.25509348154679
 30
0.0
 11
32.36759841061286
 21
-29.94631797134156
 31
0.0
  0
LINE
  5
11C
102
{ACAD_REACTORS
330
1FE
330
1FF
102
}
330
76
100
AcDbEntity
  8
0
  6
Continuous
 62
     2
100
AcDbLine
 10
33.60810282086584
 20
-29.94631797134156
 30
0.0
 11
33.60810282086584
 21
-31.25509348154679
 31
0.0
  0
LINE
  5
11D
102
{ACAD_REACTORS
330
1FE
330
1FF
102
}
330
76
100
AcDbEntity
  8
0
  6
Continuous
 62
     2
100
AcDbLine
 10
34.80089552303224
 20
-29.94631797134156
 30
0.0
 11
33.60810282086584
 21
-29.94631797134156
 31
0.0
  0
LINE
  5
11E
102
{ACAD_REACTORS
330
1FE
330
1FF
102
}
330
76
100
AcDbEntity
  8
0
  6
Continuous
 62
     2
100
AcDbLine
 10
34.80089552303224
 20
-33.0001274951527
 30
0.0
 11
34.80089552303224
 21
-29.94631797134156
 31
0.0
  0
LINE
  5
11F
102
{ACAD_REACTORS
330
1FE
330
1FF
102
}
330
76
100
AcDbEntity
  8
0
  6
Continuous
 62
     2
100
AcDbLine
 10
32.36759841061286
 20
-31.6913519849482
 30
0.0
 11
33.60810282086584
 21
-33.0001274951527
 31
0.0
  0
LINE
  5
120
102
{ACAD_REACTORS
330
1FE
330
1FF
102
}
330
76
100
AcDbEntity
  8
0
  6
Continuous
 62
     2
100
AcDbLine
 10
32.36759841061286
 20
-33.0001274951527
 30
0.0
 11
32.36759841061286
 21
-31.6913519849482
 31
0.0
  0
LINE
  5
121
102
{ACAD_REACTORS
330
1EE
330
1EF
102
}
330
76
100
AcDbEntity
  8
0
  6
Continuous
 62
     2
100
AcDbLine
 10
34.84875816200443
 20
-27.28514110061019
 30
0.0
 11
36.18468598843205
 21
-27.28514110061019
 31
0.0
  0
LINE
  5
122
102
{ACAD_REACTORS
330
1EE
330
1EF
102
}
330
76
100
AcDbEntity
  8
0
  6
Continuous
 62
     2
100
AcDbLine
 10
34.84875816200443
 20
-28.94292341353599
 30
0.0
 11
34.84875816200443
 21
-28.46303905979426
 31
0.0
  0
LINE
  5
123
102
{ACAD_REACTORS
330
1EE
330
1EF
102
}
330
76
100
AcDbEntity
  8
0
  6
Continuous
 62
     2
100
AcDbLine
 10
36.18468598843205
 20
-28.94292341353599
 30
0.0
 11
34.84875816200443
 21
-28.94292341353599
 31
0.0
  0
LINE
  5
124
102
{ACAD_REACTORS
330
1EE
330
1EF
102
}
330
76
100
AcDbEntity
  8
0
  6
Continuous
 62
     2
100
AcDbLine
 10
36.18468598843205
 20
-29.64093701897838
 30
0.0
 11
36.18468598843205
 21
-28.94292341353599
 31
0.0
  0
LINE
  5
125
102
{ACAD_REACTORS
330
1EE
330
1EF
102
}
330
76
100
AcDbEntity
  8
0
  6
Continuous
 62
     2
100
AcDbLine
 10
33.03436626465114
 20
-29.64093701897838
 30
0.0
 11
36.18468598843205
 21
-29.64093701897838
 31
0.0
  0
LINE
  5
126
102
{ACAD_REACTORS
330
1EE
330
1EF
102
}
330
76
100
AcDbEntity
  8
0
  6
Continuous
 62
     2
100
AcDbLine
 10
33.03436626465114
 20
-26.58712749516729
 30
0.0
 11
36.18468598843205
 21
-26.58712749516729
 31
0.0
  0
LINE
  5
127
102
{ACAD_REACTORS
330
1EE
330
1EF
102
}
330
76
100
AcDbEntity
  8
0
  6
Continuous
 62
     2
100
AcDbLine
 10
36.18468598843205
 20
-27.28514110061019
 30
0.0
 11
36.18468598843205
 21
-26.58712749516729
 31
0.0
  0
LINE
  5
128
102
{ACAD_REACTORS
330
200
330
201
102
}
330
76
100
AcDbEntity
  8
0
  6
Continuous
 62
     2
100
AcDbLine
 10
30.17301076951105
 20
-27.65596082850186
 30
0.0
 11
30.17301076951105
 21
-26.58712749516729
 31
0.0
  0
LINE
  5
129
102
{ACAD_REACTORS
330
200
330
201
102
}
330
76
100
AcDbEntity
  8
0
  6
Continuous
 62
     2
100
AcDbLine
 10
30.17301076951105
 20
-26.58712749516729
 30
0.0
 11
31.36580347167754
 21
-26.58712749516729
 31
0.0
  0
LINE
  5
12A
102
{ACAD_REACTORS
330
200
330
201
102
}
330
76
100
AcDbEntity
  8
0
  6
Continuous
 62
     2
100
AcDbLine
 10
30.17301076951105
 20
-28.5066649101347
 30
0.0
 11
29.12335319160366
 21
-28.5066649101347
 31
0.0
  0
LINE
  5
12B
102
{ACAD_REACTORS
330
200
330
201
102
}
330
76
100
AcDbEntity
  8
0
  6
Continuous
 62
     2
100
AcDbLine
 10
29.12335319160366
 20
-28.5066649101347
 30
0.0
 11
29.12335319160366
 21
-29.64093701897838
 31
0.0
  0
LINE
  5
12C
102
{ACAD_REACTORS
330
200
330
201
102
}
330
76
100
AcDbEntity
  8
0
  6
Continuous
 62
     2
100
AcDbLine
 10
27.93056048943706
 20
-26.58712749516729
 30
0.0
 11
27.93056048943706
 21
-29.64093701897838
 31
0.0
  0
LINE
  5
12D
102
{ACAD_REACTORS
330
1F2
330
1F3
102
}
330
76
100
AcDbEntity
  8
0
  6
Continuous
 62
     2
100
AcDbLine
 10
25.97438045788334
 20
-27.95596098994957
 30
0.0
 11
25.97438045788334
 21
-27.25023334060728
 31
0.0
  0
LINE
  5
12E
102
{ACAD_REACTORS
330
1F2
330
1F3
102
}
330
76
100
AcDbEntity
  8
0
  6
Continuous
 62
     2
100
AcDbLine
 10
24.73387604762934
 20
-29.64093701897838
 30
0.0
 11
25.97438045788334
 21
-29.64093701897838
 31
0.0
  0
LINE
  5
12F
102
{ACAD_REACTORS
330
1F2
330
1F3
102
}
330
76
100
AcDbEntity
  8
0
  6
Continuous
 62
     2
100
AcDbLine
 10
25.97438045788334
 20
-29.64093701897838
 30
0.0
 11
25.97438045788334
 21
-28.69785877783465
 31
0.0
  0
LINE
  5
130
102
{ACAD_REACTORS
330
1EC
330
1ED
102
}
330
76
100
AcDbEntity
  8
0
  6
Continuous
 62
     2
100
AcDbLine
 10
20.42893019841785
 20
-32.28757193959581
 30
0.0
 11
18.95309693740825
 21
-32.28757193959581
 31
0.0
  0
LINE
  5
131
102
{ACAD_REACTORS
330
1EC
330
1ED
102
}
330
76
100
AcDbEntity
  8
0
  6
Continuous
 62
     2
100
AcDbLine
 10
17.93495764527896
 20
-27.01137211056926
 30
0.0
 11
17.93495764527896
 21
-32.5758828797695
 31
0.0
  0
LINE
  5
132
102
{ACAD_REACTORS
330
1EC
330
1ED
102
}
330
76
100
AcDbEntity
  8
0
  6
Continuous
 62
     2
100
AcDbLine
 10
18.35920226066173
 20
-26.58712749518537
 30
0.0
 11
23.83251435137865
 21
-26.58712749518537
 31
0.0
  0
LINE
  5
133
102
{ACAD_REACTORS
330
1EC
330
1ED
102
}
330
76
100
AcDbEntity
  8
0
  6
Continuous
 62
     2
100
AcDbLine
 10
24.25675896676253
 20
-27.01137211056926
 30
0.0
 11
24.25675896676253
 21
-32.5758828797695
 31
0.0
  0
LINE
  5
134
102
{ACAD_REACTORS
330
1EC
330
1ED
102
}
330
76
100
AcDbEntity
  8
0
  6
Continuous
 62
     2
100
AcDbLine
 10
23.83251435137865
 20
-33.0001274951527
 30
0.0
 11
18.35920226066173
 21
-33.0001274951527
 31
0.0
  0
LINE
  5
135
102
{ACAD_REACTORS
330
1EC
330
1ED
102
}
330
76
100
AcDbEntity
  8
0
  6
Continuous
 62
     2
100
AcDbLine
 10
20.74464712149444
 20
-31.9718550165191
 30
0.0
 11
20.74464712149444
 21
-30.44108408498749
 31
0.0
  0
LINE
  5
136
102
{ACAD_REACTORS
330
1EC
330
1ED
102
}
330
76
100
AcDbEntity
  8
0
  6
Continuous
 62
     2
100
AcDbLine
 10
20.74464712149444
 20
-28.2194245928626
 30
0.0
 11
20.74464712149444
 21
-27.61539997380197
 31
0.0
  0
LINE
  5
137
102
{ACAD_REACTORS
330
1EC
330
1ED
102
}
330
76
100
AcDbEntity
  8
0
  6
Continuous
 62
     2
100
AcDbLine
 10
18.95309693740825
 20
-27.29968305072589
 30
0.0
 11
20.42893019841785
 21
-27.29968305072589
 31
0.0
  0
LINE
  5
138
102
{ACAD_REACTORS
330
1EC
330
1ED
102
}
330
76
100
AcDbEntity
  8
0
  6
Continuous
 62
     2
100
AcDbLine
 10
18.63738001433265
 20
-27.61539997380197
 30
0.0
 11
18.63738001433265
 21
-31.9718550165191
 31
0.0
  0
LINE
  5
139
102
{ACAD_REACTORS
330
1F2
330
1F3
102
}
330
76
100
AcDbEntity
  8
0
  6
Continuous
 62
     2
100
AcDbLine
 10
25.97438045788334
 20
-28.69785877783465
 30
0.0
 11
26.73314804566374
 21
-28.69785877783465
 31
0.0
  0
LINE
  5
13A
102
{ACAD_REACTORS
330
1F2
330
1F3
102
}
330
76
100
AcDbEntity
  8
0
  6
Continuous
 62
     2
100
AcDbLine
 10
24.73387604762934
 20
-26.58712749516729
 30
0.0
 11
26.73314804566374
 21
-26.58712749516729
 31
0.0
  0
LINE
  5
13B
102
{ACAD_REACTORS
330
1F2
330
1F3
102
}
330
76
100
AcDbEntity
  8
0
  6
Continuous
 62
     2
100
AcDbLine
 10
24.73387604762934
 20
-26.58712749516729
 30
0.0
 11
24.73387604762934
 21
-29.64093701897838
 31
0.0
  0
LINE
  5
13C
102
{ACAD_REACTORS
330
1F2
330
1F3
102
}
330
76
100
AcDbEntity
  8
0
  6
Continuous
 62
     2
100
AcDbLine
 10
25.97438045788334
 20
-27.95596098994957
 30
0.0
 11
26.29167551942535
 21
-27.95596098994957
 31
0.0
  0
LINE
  5
13D
102
{ACAD_REACTORS
330
1F2
330
1F3
102
}
330
76
100
AcDbEntity
  8
0
  6
Continuous
 62
     2
100
AcDbLine
 10
25.97438045788334
 20
-27.25023334060728
 30
0.0
 11
26.29167551942535
 21
-27.25023334060728
 31
0.0
  0
LINE
  5
13E
102
{ACAD_REACTORS
330
200
330
201
102
}
330
76
100
AcDbEntity
  8
0
  6
Continuous
 62
     2
100
AcDbLine
 10
29.12335319160366
 20
-27.65596082850186
 30
0.0
 11
30.17301076951105
 21
-27.65596082850186
 31
0.0
  0
LINE
  5
13F
102
{ACAD_REACTORS
330
200
330
201
102
}
330
76
100
AcDbEntity
  8
0
  6
Continuous
 62
     2
100
AcDbLine
 10
29.12335319160366
 20
-26.58712749516729
 30
0.0
 11
29.12335319160366
 21
-27.65596082850186
 31
0.0
  0
LINE
  5
140
102
{ACAD_REACTORS
330
200
330
201
102
}
330
76
100
AcDbEntity
  8
0
  6
Continuous
 62
     2
100
AcDbLine
 10
27.93056048943706
 20
-26.58712749516729
 30
0.0
 11
29.12335319160366
 21
-26.58712749516729
 31
0.0
  0
LINE
  5
141
102
{ACAD_REACTORS
330
200
330
201
102
}
330
76
100
AcDbEntity
  8
0
  6
Continuous
 62
     2
100
AcDbLine
 10
29.12335319160366
 20
-29.64093701897838
 30
0.0
 11
27.93056048943706
 21
-29.64093701897838
 31
0.0
  0
LINE
  5
142
102
{ACAD_REACTORS
330
200
330
201
102
}
330
76
100
AcDbEntity
  8
0
  6
Continuous
 62
     2
100
AcDbLine
 10
30.17301076951105
 20
-29.64093701897838
 30
0.0
 11
30.17301076951105
 21
-28.5066649101347
 31
0.0
  0
LINE
  5
143
102
{ACAD_REACTORS
330
200
330
201
102
}
330
76
100
AcDbEntity
  8
0
  6
Continuous
 62
     2
100
AcDbLine
 10
31.36580347167754
 20
-29.64093701897838
 30
0.0
 11
30.17301076951105
 21
-29.64093701897838
 31
0.0
  0
LINE
  5
144
102
{ACAD_REACTORS
330
200
330
201
102
}
330
76
100
AcDbEntity
  8
0
  6
Continuous
 62
     2
100
AcDbLine
 10
31.36580347167754
 20
-26.58712749516729
 30
0.0
 11
31.36580347167754
 21
-29.64093701897838
 31
0.0
  0
LINE
  5
145
102
{ACAD_REACTORS
330
1EE
330
1EF
102
}
330
76
100
AcDbEntity
  8
0
  6
Continuous
 62
     2
100
AcDbLine
 10
34.84875816200443
 20
-28.46303905979426
 30
0.0
 11
36.18468598843205
 21
-28.46303905979426
 31
0.0
  0
LINE
  5
146
102
{ACAD_REACTORS
330
1EE
330
1EF
102
}
330
76
100
AcDbEntity
  8
0
  6
Continuous
 62
     2
100
AcDbLine
 10
36.18468598843205
 20
-28.46303905979426
 30
0.0
 11
36.18468598843205
 21
-27.76502545435187
 31
0.0
  0
LINE
  5
147
102
{ACAD_REACTORS
330
1EE
330
1EF
102
}
330
76
100
AcDbEntity
  8
0
  6
Continuous
 62
     2
100
AcDbLine
 10
36.18468598843205
 20
-27.76502545435187
 30
0.0
 11
34.84875816200443
 21
-27.76502545435187
 31
0.0
  0
LINE
  5
148
102
{ACAD_REACTORS
330
1EE
330
1EF
102
}
330
76
100
AcDbEntity
  8
0
  6
Continuous
 62
     2
100
AcDbLine
 10
34.84875816200443
 20
-27.76502545435187
 30
0.0
 11
34.84875816200443
 21
-27.28514110061019
 31
0.0
  0
LINE
  5
149
102
{ACAD_REACTORS
330
1FE
330
1FF
102
}
330
76
100
AcDbEntity
  8
0
  6
Continuous
 62
     2
100
AcDbLine
 10
31.17480570844535
 20
-33.0001274951527
 30
0.0
 11
32.36759841061286
 21
-33.0001274951527
 31
0.0
  0
LINE
  5
14A
102
{ACAD_REACTORS
330
1FE
330
1FF
102
}
330
76
100
AcDbEntity
  8
0
  6
Continuous
 62
     2
100
AcDbLine
 10
33.60810282086584
 20
-33.0001274951527
 30
0.0
 11
34.80089552303224
 21
-33.0001274951527
 31
0.0
  0
LINE
  5
14B
102
{ACAD_REACTORS
330
1FE
330
1FF
102
}
330
76
100
AcDbEntity
  8
0
  6
Continuous
 62
     2
100
AcDbLine
 10
32.36759841061286
 20
-29.94631797134156
 30
0.0
 11
31.17480570844535
 21
-29.94631797134156
 31
0.0
  0
LINE
  5
14C
102
{ACAD_REACTORS
330
1FE
330
1FF
102
}
330
76
100
AcDbEntity
  8
0
  6
Continuous
 62
     2
100
AcDbLine
 10
31.17480570844535
 20
-29.94631797134156
 30
0.0
 11
31.17480570844535
 21
-33.0001274951527
 31
0.0
  0
LINE
  5
14D
102
{ACAD_REACTORS
330
1FC
330
1FD
102
}
330
76
100
AcDbEntity
  8
0
  6
Continuous
 62
     2
100
AcDbLine
 10
38.85654164128553
 20
-26.58712749516729
 30
0.0
 11
38.85654164128553
 21
-27.89590300537236
 31
0.0
  0
LINE
  5
14E
102
{ACAD_REACTORS
330
1FC
330
1FD
102
}
330
76
100
AcDbEntity
  8
0
  6
Continuous
 62
     2
100
AcDbLine
 10
37.61603723103144
 20
-26.58712749516729
 30
0.0
 11
36.42324452886504
 21
-26.58712749516729
 31
0.0
  0
LINE
  5
14F
102
{ACAD_REACTORS
330
1FC
330
1FD
102
}
330
76
100
AcDbEntity
  8
0
  6
Continuous
 62
     2
100
AcDbLine
 10
36.42324452886504
 20
-26.58712749516729
 30
0.0
 11
36.42324452886504
 21
-29.64093701897838
 31
0.0
  0
LINE
  5
150
102
{ACAD_REACTORS
330
1FC
330
1FD
102
}
330
76
100
AcDbEntity
  8
0
  6
Continuous
 62
     2
100
AcDbLine
 10
37.61603723103144
 20
-29.64093701897838
 30
0.0
 11
37.61603723103144
 21
-28.33216150877365
 31
0.0
  0
LINE
  5
151
102
{ACAD_REACTORS
330
1FA
330
1FB
102
}
330
76
100
AcDbEntity
  8
0
  6
Continuous
 62
     2
100
AcDbLine
 10
36.94792238693344
 20
-33.0001274951527
 30
0.0
 11
36.94792238693344
 21
-30.73158327746529
 31
0.0
  0
LINE
  5
152
102
{ACAD_REACTORS
330
1FA
330
1FB
102
}
330
76
100
AcDbEntity
  8
0
  6
Continuous
 62
     2
100
AcDbLine
 10
36.94792238693344
 20
-30.73158327746529
 30
0.0
 11
37.75902142440606
 21
-30.73158327746529
 31
0.0
  0
LINE
  5
153
102
{ACAD_REACTORS
330
1FA
330
1FB
102
}
330
76
100
AcDbEntity
  8
0
  6
Continuous
 62
     2
100
AcDbLine
 10
37.75902142440606
 20
-30.73158327746529
 30
0.0
 11
37.75902142440606
 21
-29.94631797134156
 31
0.0
  0
LINE
  5
154
102
{ACAD_REACTORS
330
1FA
330
1FB
102
}
330
76
100
AcDbEntity
  8
0
  6
Continuous
 62
     2
100
AcDbLine
 10
37.75902142440606
 20
-29.94631797134156
 30
0.0
 11
34.94403064729235
 21
-29.94631797134156
 31
0.0
  0
LINE
  5
155
102
{ACAD_REACTORS
330
1FA
330
1FB
102
}
330
76
100
AcDbEntity
  8
0
  6
Continuous
 62
     2
100
AcDbLine
 10
34.94403064729235
 20
-30.73158327746529
 30
0.0
 11
35.75512968476704
 21
-30.73158327746529
 31
0.0
  0
LINE
  5
156
102
{ACAD_REACTORS
330
1F8
330
1F9
102
}
330
76
100
AcDbEntity
  8
0
  6
Continuous
 62
     2
100
AcDbLine
 10
38.55352725020333
 20
-32.4591669509349
 30
0.0
 11
39.68596882687726
 21
-32.4591669509349
 31
0.0
  0
LINE
  5
157
102
{ACAD_REACTORS
330
1F8
330
1F9
102
}
330
76
100
AcDbEntity
  8
0
  6
Continuous
 62
     2
100
AcDbLine
 10
41.13795329060693
 20
-33.0001274951527
 30
0.0
 11
39.89744888035304
 21
-33.0001274951527
 31
0.0
  0
LINE
  5
158
102
{ACAD_REACTORS
330
1F8
330
1F9
102
}
330
76
100
AcDbEntity
  8
0
  6
Continuous
 62
     2
100
AcDbLine
 10
38.49949583341385
 20
-29.94631797134156
 30
0.0
 11
37.10154278647465
 21
-33.0001274951527
 31
0.0
  0
LINE
  5
159
102
{ACAD_REACTORS
330
1F8
330
1F9
102
}
330
76
100
AcDbEntity
  8
0
  6
Continuous
 62
     2
100
AcDbLine
 10
38.34204719672755
 20
-33.0001274951527
 30
0.0
 11
38.55352725020333
 21
-32.4591669509349
 31
0.0
  0
LINE
  5
15A
102
{ACAD_REACTORS
330
1F8
330
1F9
102
}
330
76
100
AcDbEntity
  8
0
  6
Continuous
 62
     2
100
AcDbLine
 10
38.81958280134845
 20
-31.7786036856283
 30
0.0
 11
39.11974803854074
 21
-31.0107887196416
 31
0.0
  0
LINE
  5
15B
102
{ACAD_REACTORS
330
1F6
330
1F7
102
}
330
76
100
AcDbEntity
  8
0
  6
Continuous
 62
     2
100
AcDbLine
 10
40.28789288388603
 20
-29.64093701897838
 30
0.0
 11
40.28789288388603
 21
-26.58712749516729
 31
0.0
  0
LINE
  5
15C
102
{ACAD_REACTORS
330
1F6
330
1F7
102
}
330
76
100
AcDbEntity
  8
0
  6
Continuous
 62
     2
100
AcDbLine
 10
41.52839729413896
 20
-26.58712749516729
 30
0.0
 11
41.52839729413896
 21
-29.64093701897838
 31
0.0
  0
LINE
  5
15D
102
{ACAD_REACTORS
330
1F6
330
1F7
102
}
330
76
100
AcDbEntity
  8
0
  6
Continuous
 62
     2
100
AcDbLine
 10
40.28789288388603
 20
-26.58712749516729
 30
0.0
 11
41.52839729413896
 21
-26.58712749516729
 31
0.0
  0
LINE
  5
15E
102
{ACAD_REACTORS
330
1F4
330
1F5
102
}
330
76
100
AcDbEntity
  8
0
  6
Continuous
 62
     2
100
AcDbLine
 10
43.74699172016975
 20
-28.85320523368466
 30
0.0
 11
44.44358265823513
 21
-29.64093701897838
 31
0.0
  0
LINE
  5
15F
102
{ACAD_REACTORS
330
1F4
330
1F5
102
}
330
76
100
AcDbEntity
  8
0
  6
Continuous
 62
     2
100
AcDbLine
 10
44.44358265823513
 20
-29.64093701897838
 30
0.0
 11
45.84630687598343
 21
-29.64093701897838
 31
0.0
  0
LINE
  5
160
102
{ACAD_REACTORS
330
1F4
330
1F5
102
}
330
76
100
AcDbEntity
  8
0
  6
Continuous
 62
     2
100
AcDbLine
 10
44.44835382904316
 20
-28.0600780252035
 30
0.0
 11
45.84630687598343
 21
-29.64093701897838
 31
0.0
  0
LINE
  5
161
102
{ACAD_REACTORS
330
1F4
330
1F5
102
}
330
76
100
AcDbEntity
  8
0
  6
Continuous
 62
     2
100
AcDbLine
 10
44.44835382904316
 20
-28.0600780252035
 30
0.0
 11
45.75088345980976
 21
-26.58712749516729
 31
0.0
  0
LINE
  5
162
102
{ACAD_REACTORS
330
1F4
330
1F5
102
}
330
76
100
AcDbEntity
  8
0
  6
Continuous
 62
     2
100
AcDbLine
 10
43.74699172016975
 20
-27.26695081672278
 30
0.0
 11
44.34815924206254
 21
-26.58712749516729
 31
0.0
  0
LINE
  5
163
102
{ACAD_REACTORS
330
1F4
330
1F5
102
}
330
76
100
AcDbEntity
  8
0
  6
Continuous
 62
     2
100
AcDbLine
 10
43.14582419827784
 20
-26.58712749516729
 30
0.0
 11
43.74699172016975
 21
-27.26695081672278
 31
0.0
  0
LINE
  5
164
102
{ACAD_REACTORS
330
1F4
330
1F5
102
}
330
76
100
AcDbEntity
  8
0
  6
Continuous
 62
     2
100
AcDbLine
 10
43.14582419827784
 20
-26.58712749516729
 30
0.0
 11
41.74309998052866
 21
-26.58712749516729
 31
0.0
  0
LINE
  5
165
102
{ACAD_REACTORS
330
1EA
330
1EB
102
}
330
76
100
AcDbEntity
  8
0
  6
Continuous
 62
     2
100
AcDbLine
 10
43.84241513634234
 20
-33.0001274951527
 30
0.0
 11
45.03520783851005
 21
-33.0001274951527
 31
0.0
  0
LINE
  5
166
102
{ACAD_REACTORS
330
1EA
330
1EB
102
}
330
76
100
AcDbEntity
  8
0
  6
Continuous
 62
     2
100
AcDbLine
 10
45.03520783851005
 20
-33.0001274951527
 30
0.0
 11
45.03520783851005
 21
-30.73158327746529
 31
0.0
  0
LINE
  5
167
102
{ACAD_REACTORS
330
1EA
330
1EB
102
}
330
76
100
AcDbEntity
  8
0
  6
Continuous
 62
     2
100
AcDbLine
 10
45.03520783851005
 20
-30.73158327746529
 30
0.0
 11
45.84630687598343
 21
-30.73158327746529
 31
0.0
  0
LINE
  5
168
102
{ACAD_REACTORS
330
1EA
330
1EB
102
}
330
76
100
AcDbEntity
  8
0
  6
Continuous
 62
     2
100
AcDbLine
 10
45.84630687598343
 20
-30.73158327746529
 30
0.0
 11
45.84630687598343
 21
-29.94631797134156
 31
0.0
  0
LINE
  5
169
102
{ACAD_REACTORS
330
1EA
330
1EB
102
}
330
76
100
AcDbEntity
  8
0
  6
Continuous
 62
     2
100
AcDbLine
 10
42.46136135735483
 20
-29.94631797134218
 30
0.0
 11
45.84630687598343
 21
-29.94631797134156
 31
0.0
  0
LINE
  5
16A
102
{ACAD_REACTORS
330
1EA
330
1EB
102
}
330
76
100
AcDbEntity
  8
0
  6
Continuous
 62
     2
100
AcDbLine
 10
43.84241513634234
 20
-30.73158327746529
 30
0.0
 11
43.84241513634234
 21
-33.0001274951527
 31
0.0
  0
LINE
  5
16B
102
{ACAD_REACTORS
330
1EC
330
1ED
102
}
330
76
100
AcDbEntity
  8
0
  6
Continuous
 62
     2
100
AcDbLine
 10
21.21292870086325
 20
-31.02124734558817
 30
0.0
 11
21.21292870086325
 21
-30.43939593889309
 31
0.0
  0
LINE
  5
16C
102
{ACAD_REACTORS
330
1EC
330
1ED
102
}
330
76
100
AcDbEntity
  8
0
  6
Continuous
 62
     2
100
AcDbLine
 10
21.21292870086325
 20
-28.221112738957
 30
0.0
 11
21.21292870086325
 21
-27.61557745045019
 31
0.0
  0
LINE
  5
16D
330
76
100
AcDbEntity
  8
1
  6
Continuous
 62
     6
100
AcDbLine
 10
99.74310728546635
 20
-40.29362749516901
 30
0.0
 11
143.2431072854663
 21
-40.29362749516901
 31
0.0
  0
LINE
  5
16E
330
76
100
AcDbEntity
  8
1
  6
Continuous
 62
     6
100
AcDbLine
 10
49.74310728546635
 20
-40.29362749516901
 30
0.0
 11
31.89830275871634
 21
-40.29362749516901
 31
0.0
  0
LINE
  5
16F
330
76
100
AcDbEntity
  8
1
  6
Continuous
 62
     6
100
AcDbLine
 10
13.69830275871644
 20
-23.29362749516906
 30
0.0
 11
50.09830275871636
 21
-23.29362749516906
 31
0.0
  0
LINE
  5
170
330
76
100
AcDbEntity
  8
1
  6
Continuous
 62
     6
100
AcDbLine
 10
143.2431072854663
 20
-40.29362749516901
 30
0.0
 11
143.2431072854677
 21
-31.79362749516906
 31
0.0
  0
LINE
  5
171
330
76
100
AcDbEntity
  8
1
  6
Continuous
 62
     6
100
AcDbLine
 10
50.09830275871636
 20
-40.29362749516906
 30
0.0
 11
99.74310728546635
 21
-40.29362749516901
 31
0.0
  0
LINE
  5
172
330
76
100
AcDbEntity
  8
1
  6
Continuous
 62
     7
100
AcDbLine
 10
13.69830275871644
 20
-23.29362749516906
 30
0.0
 11
13.69830275871644
 21
-36.04362749516906
 31
0.0
  0
LINE
  5
173
330
76
100
AcDbEntity
  8
1
  6
Continuous
 62
     7
100
AcDbLine
 10
50.09830275871636
 20
-23.29362749516906
 30
0.0
 11
50.09830275871636
 21
-36.04362749516901
 31
0.0
  0
LINE
  5
174
330
76
100
AcDbEntity
  8
1
  6
Continuous
 62
     6
100
AcDbLine
 10
50.09830275871636
 20
-40.29362749516906
 30
0.0
 11
49.74310728546635
 21
-40.29362749516901
 31
0.0
  0
LINE
  5
175
330
76
100
AcDbEntity
  8
1
  6
Continuous
 62
     6
100
AcDbLine
 10
143.2431072854681
 20
-23.29362749516906
 30
0.0
 11
143.2431072854677
 21
-31.79362749516906
 31
0.0
  0
LINE
  5
176
330
76
100
AcDbEntity
  8
1
  6
Continuous
 62
     2
100
AcDbLine
 10
17.93495764527896
 20
-17.91862749516918
 30
0.0
 11
22.93495764527896
 21
-16.66862749516918
 31
0.0
  0
LINE
  5
177
330
76
100
AcDbEntity
  8
1
  6
Continuous
 62
     2
100
AcDbLine
 10
17.93495764527896
 20
-20.41862749516918
 30
0.0
 11
17.93495764527896
 21
-17.91862749516918
 31
0.0
  0
LINE
  5
178
330
76
100
AcDbEntity
  8
1
  6
Continuous
 62
     2
100
AcDbLine
 10
22.93495764527896
 20
-21.66862749516918
 30
0.0
 11
17.93495764527896
 21
-20.41862749516918
 31
0.0
  0
LINE
  5
179
330
76
100
AcDbEntity
  8
1
  6
Continuous
 62
     2
100
AcDbLine
 10
22.93495764527896
 20
-16.66862749516918
 30
0.0
 11
22.93495764527896
 21
-21.66862749516918
 31
0.0
  0
LINE
  5
17A
330
76
100
AcDbEntity
  8
1
  6
Continuous
 62
     7
100
AcDbLine
 10
13.69830275871644
 20
-36.04362749516906
 30
0.0
 11
31.89830275871634
 21
-36.04362749516901
 31
0.0
  0
LINE
  5
17B
330
76
100
AcDbEntity
  8
1
  6
Continuous
 62
     7
100
AcDbLine
 10
13.69830275871644
 20
-36.04362749516906
 30
0.0
 11
13.69830275871644
 21
-40.29362749516906
 31
0.0
  0
LINE
  5
17C
330
76
100
AcDbEntity
  8
1
  6
Continuous
 62
     7
100
AcDbLine
 10
50.09830275871636
 20
-36.04362749516901
 30
0.0
 11
50.09830275871636
 21
-40.29362749516906
 31
0.0
  0
LINE
  5
17D
330
76
100
AcDbEntity
  8
1
  6
Continuous
 62
     7
100
AcDbLine
 10
31.89830275871634
 20
-36.04362749516901
 30
0.0
 11
31.89830275871634
 21
-40.29362749516901
 31
0.0
  0
LINE
  5
17E
330
76
100
AcDbEntity
  8
1
  6
Continuous
 62
     6
100
AcDbLine
 10
31.89830275871634
 20
-40.29362749516901
 30
0.0
 11
13.69830275871644
 21
-40.29362749516906
 31
0.0
  0
LINE
  5
17F
330
76
100
AcDbEntity
  8
1
  6
Continuous
 62
     7
100
AcDbLine
 10
31.89830275871634
 20
-36.04362749516901
 30
0.0
 11
50.09830275871636
 21
-36.04362749516901
 31
0.0
  0
LINE
  5
180
330
76
100
AcDbEntity
  8
1
  6
Continuous
 62
     6
100
AcDbLine
 10
13.69830275871644
 20
-14.79362749516906
 30
0.0
 11
143.2431072854681
 21
-14.79362749516906
 31
0.0
  0
LINE
  5
181
330
76
100
AcDbEntity
  8
1
  6
PHANTOM
 62
     2
100
AcDbLine
 10
29.18495764527896
 20
-19.16862749516918
 30
0.0
 11
23.68495764527896
 21
-19.16862749516918
 31
0.0
  0
LINE
  5
182
330
76
100
AcDbEntity
  8
1
  6
PHANTOM
 62
     2
100
AcDbLine
 10
26.43495764527896
 20
-16.41862749516906
 30
0.0
 11
26.43495764527896
 21
-21.91862749516906
 31
0.0
  0
LINE
  5
183
330
76
100
AcDbEntity
  8
1
  6
DOT_CENTER
 62
     2
100
AcDbLine
 10
17.68495764527896
 20
-19.16862749516918
 30
0.0
 11
23.18495764527896
 21
-19.16862749516918
 31
0.0
  0
ARC
  5
184
102
{ACAD_REACTORS
330
1F0
330
1F1
102
}
330
76
100
AcDbEntity
  8
0
  6
Continuous
 62
     2
100
AcDbCircle
 10
29.08995075767643
 20
-31.4732227332475
 30
0.0
 40
0.7717997786795335
100
AcDbArc
 50
321.8795802028437
 51
38.12041979716684
  0
ARC
  5
185
102
{ACAD_REACTORS
330
1F0
330
1F1
102
}
330
76
100
AcDbEntity
  8
0
  6
Continuous
 62
     2
100
AcDbCircle
 10
29.28969079402285
 20
-31.62995391136735
 30
0.0
 40
0.5179085730138452
100
AcDbArc
 50
218.1204197971876
 51
321.8795802027906
  0
ARC
  5
186
102
{ACAD_REACTORS
330
1F0
330
1F1
102
}
330
76
100
AcDbEntity
  8
0
  6
Continuous
 62
     2
100
AcDbCircle
 10
29.48943083036883
 20
-31.4732227332475
 30
0.0
 40
0.7717997786795504
100
AcDbArc
 50
141.8795802028276
 51
218.1204197971618
  0
ARC
  5
187
102
{ACAD_REACTORS
330
1F0
330
1F1
102
}
330
76
100
AcDbEntity
  8
0
  6
Continuous
 62
     2
100
AcDbCircle
 10
29.28969079402285
 20
-31.31649155512696
 30
0.0
 40
0.5179085730132779
100
AcDbArc
 50
38.12041979716494
 51
141.8795802028569
  0
ARC
  5
188
102
{ACAD_REACTORS
330
1E8
330
1E9
102
}
330
76
100
AcDbEntity
  8
0
  6
Continuous
 62
     2
100
AcDbCircle
 10
26.22767665845885
 20
-32.88368909865557
 30
0.0
 40
2.227384008973466
100
AcDbArc
 50
58.06909105003721
 51
71.55192388186687
  0
ARC
  5
189
102
{ACAD_REACTORS
330
1E8
330
1E9
102
}
330
76
100
AcDbEntity
  8
0
  6
Continuous
 62
     2
100
AcDbCircle
 10
26.48940435941765
 20
-31.26815130390838
 30
0.0
 40
0.5115800601948306
100
AcDbArc
 50
113.3722778881949
 51
151.4785267423165
  0
ARC
  5
18A
102
{ACAD_REACTORS
330
1E8
330
1E9
102
}
330
76
100
AcDbEntity
  8
0
  6
Continuous
 62
     2
100
AcDbCircle
 10
26.86676161749804
 20
-31.4732227332475
 30
0.0
 40
0.9410597353333263
100
AcDbArc
 50
151.4785267422693
 51
208.5214732576971
  0
ARC
  5
18B
102
{ACAD_REACTORS
330
1E8
330
1E9
102
}
330
76
100
AcDbEntity
  8
0
  6
Continuous
 62
     2
100
AcDbCircle
 10
26.06980378336604
 20
-28.16054178799095
 30
0.0
 40
4.852596863498279
100
AcDbArc
 50
275.1581447696238
 51
285.9799912583526
  0
ARC
  5
18C
102
{ACAD_REACTORS
330
1E8
330
1E9
102
}
330
76
100
AcDbEntity
  8
0
  6
Continuous
 62
     2
100
AcDbCircle
 10
26.35865987810195
 20
-31.3604323712126
 30
0.0
 40
1.639695123939442
100
AcDbArc
 50
195.0618917770919
 51
275.1581447696363
  0
ARC
  5
18D
102
{ACAD_REACTORS
330
1E8
330
1E9
102
}
330
76
100
AcDbEntity
  8
0
  6
Continuous
 62
     2
100
AcDbCircle
 10
25.93953203463914
 20
-31.4732227332475
 30
0.0
 40
1.205656168390973
100
AcDbArc
 50
164.9381082228765
 51
195.0618917770942
  0
ARC
  5
18E
102
{ACAD_REACTORS
330
1E8
330
1E9
102
}
330
76
100
AcDbEntity
  8
0
  6
Continuous
 62
     2
100
AcDbCircle
 10
26.35865987810195
 20
-31.58601309528228
 30
0.0
 40
1.639695123940495
100
AcDbArc
 50
84.84185523036533
 51
164.9381082228906
  0
ARC
  5
18F
102
{ACAD_REACTORS
330
1EC
330
1ED
102
}
330
76
100
AcDbEntity
  8
0
  6
Continuous
 62
     2
100
AcDbCircle
 10
21.52864562394004
 20
-30.43939593889309
 30
0.0
 40
0.3157169230765343
100
AcDbArc
 50
115.3740086783524
 51
180.0
  0
ARC
  5
190
102
{ACAD_REACTORS
330
1EC
330
1ED
102
}
330
76
100
AcDbEntity
  8
0
  6
Continuous
 62
     2
100
AcDbCircle
 10
21.52864562394004
 20
-28.221112738957
 30
0.0
 40
0.3157169230767884
100
AcDbArc
 50
180.0
 51
244.6259913216343
  0
ARC
  5
191
102
{ACAD_REACTORS
330
1EC
330
1ED
102
}
330
76
100
AcDbEntity
  8
0
  6
Continuous
 62
     2
100
AcDbCircle
 10
21.53426175925006
 20
-29.31841239801918
 30
0.0
 40
2.018561131933266
100
AcDbArc
 50
269.8110329575827
 51
90.18896704241737
  0
ARC
  5
192
102
{ACAD_REACTORS
330
1EC
330
1ED
102
}
330
76
100
AcDbEntity
  8
0
  6
Continuous
 62
     2
100
AcDbCircle
 10
21.52864562394004
 20
-31.02124734558817
 30
0.0
 40
0.3157169230767884
100
AcDbArc
 50
180.0
 51
269.8110329574335
  0
ARC
  5
193
102
{ACAD_REACTORS
330
1EA
330
1EB
102
}
330
76
100
AcDbEntity
  8
0
  6
Continuous
 62
     2
100
AcDbCircle
 10
42.59210583867053
 20
-31.26815130390838
 30
0.0
 40
0.5115800601943935
100
AcDbArc
 50
109.337143219481
 51
151.4785267424177
  0
ARC
  5
194
102
{ACAD_REACTORS
330
1EA
330
1EB
102
}
330
76
100
AcDbEntity
  8
0
  6
Continuous
 62
     2
100
AcDbCircle
 10
42.59210583867053
 20
-31.67829416258599
 30
0.0
 40
0.5115800601959841
100
AcDbArc
 50
208.5214732576889
 51
246.6277221118404
  0
ARC
  5
195
102
{ACAD_REACTORS
330
1EA
330
1EB
102
}
330
76
100
AcDbEntity
  8
0
  6
Continuous
 62
     2
100
AcDbCircle
 10
42.04223351389314
 20
-31.4732227332475
 30
0.0
 40
1.205656168392977
100
AcDbArc
 50
164.9381082229021
 51
195.0618917770924
  0
ARC
  5
196
102
{ACAD_REACTORS
330
1EA
330
1EB
102
}
330
76
100
AcDbEntity
  8
0
  6
Continuous
 62
     2
100
AcDbCircle
 10
42.46136135735483
 20
-31.58601309528228
 30
0.0
 40
1.639695123940101
100
AcDbArc
 50
90.0
 51
164.9381082228993
  0
ARC
  5
197
102
{ACAD_REACTORS
330
1EE
330
1EF
102
}
330
76
100
AcDbEntity
  8
0
  6
Continuous
 62
     2
100
AcDbCircle
 10
33.03436626465114
 20
-28.11403225707306
 30
0.0
 40
1.526904761905769
100
AcDbArc
 50
90.0
 51
270.0
  0
ARC
  5
198
102
{ACAD_REACTORS
330
1F2
330
1F3
102
}
330
76
100
AcDbEntity
  8
0
  6
Continuous
 62
     2
100
AcDbCircle
 10
26.29167551942535
 20
-27.60309716527848
 30
0.0
 40
0.3528638246710898
100
AcDbArc
 50
270.0
 51
90.0
  0
ARC
  5
199
102
{ACAD_REACTORS
330
1EC
330
1ED
102
}
330
76
100
AcDbEntity
  8
0
  6
Continuous
 62
     2
100
AcDbCircle
 10
18.95309693740825
 20
-27.61539997380197
 30
0.0
 40
0.3157169230760815
100
AcDbArc
 50
90.0
 51
180.0
  0
ARC
  5
19A
102
{ACAD_REACTORS
330
1EC
330
1ED
102
}
330
76
100
AcDbEntity
  8
0
  6
Continuous
 62
     2
100
AcDbCircle
 10
20.95151464599283
 20
-29.33025433892476
 30
0.0
 40
0.9118975235576419
100
AcDbArc
 50
115.1944106485193
 51
244.8055893514914
  0
ARC
  5
19B
102
{ACAD_REACTORS
330
1EC
330
1ED
102
}
330
76
100
AcDbEntity
  8
0
  6
Continuous
 62
     2
100
AcDbCircle
 10
20.42893019841785
 20
-30.44108408498749
 30
0.0
 40
0.315716923076593
100
AcDbArc
 50
0.0
 51
64.80558935144546
  0
ARC
  5
19C
102
{ACAD_REACTORS
330
1EC
330
1ED
102
}
330
76
100
AcDbEntity
  8
0
  6
Continuous
 62
     2
100
AcDbCircle
 10
18.35920226066173
 20
-32.5758828797695
 30
0.0
 40
0.4242446153827686
100
AcDbArc
 50
180.0
 51
270.0
  0
ARC
  5
19D
102
{ACAD_REACTORS
330
1EE
330
1EF
102
}
330
76
100
AcDbEntity
  8
0
  6
Continuous
 62
     2
100
AcDbCircle
 10
33.25063827481634
 20
-27.95730107895258
 30
0.0
 40
0.5179085730133626
100
AcDbArc
 50
38.12041979714059
 51
141.8795802028672
  0
ARC
  5
19E
102
{ACAD_REACTORS
330
1EE
330
1EF
102
}
330
76
100
AcDbEntity
  8
0
  6
Continuous
 62
     2
100
AcDbCircle
 10
33.45037831116255
 20
-28.11403225707306
 30
0.0
 40
0.7717997786796202
100
AcDbArc
 50
141.8795802028488
 51
218.1204197971553
  0
ARC
  5
19F
102
{ACAD_REACTORS
330
1F0
330
1F1
102
}
330
76
100
AcDbEntity
  8
0
  6
Continuous
 62
     2
100
AcDbCircle
 10
29.28969079402285
 20
-30.93464772294408
 30
0.0
 40
2.065479772208634
100
AcDbArc
 50
242.4518518243384
 51
297.5481481756859
  0
ARC
  5
1A0
102
{ACAD_REACTORS
330
1F0
330
1F1
102
}
330
76
100
AcDbEntity
  8
0
  6
Continuous
 62
     2
100
AcDbCircle
 10
29.28969079402285
 20
-32.01179774355029
 30
0.0
 40
2.065479772208689
100
AcDbArc
 50
62.45185182430824
 51
117.5481481756674
  0
ARC
  5
1A1
102
{ACAD_REACTORS
330
1F0
330
1F1
102
}
330
76
100
AcDbEntity
  8
0
  6
Continuous
 62
     2
100
AcDbCircle
 10
29.00875090218943
 20
-31.4732227332475
 30
0.0
 40
1.458034083651613
100
AcDbArc
 50
117.5481481756596
 51
242.4518518243372
  0
ARC
  5
1A2
102
{ACAD_REACTORS
330
1F0
330
1F1
102
}
330
76
100
AcDbEntity
  8
0
  6
Continuous
 62
     2
100
AcDbCircle
 10
29.57063068585603
 20
-31.4732227332475
 30
0.0
 40
1.458034083652027
100
AcDbArc
 50
297.5481481757056
 51
62.45185182429758
  0
ARC
  5
1A3
102
{ACAD_REACTORS
330
1EE
330
1EF
102
}
330
76
100
AcDbEntity
  8
0
  6
Continuous
 62
     2
100
AcDbCircle
 10
33.25063827481634
 20
-28.2707634351936
 30
0.0
 40
0.5179085730134586
100
AcDbArc
 50
218.1204197971337
 51
321.8795802028584
  0
ARC
  5
1A4
102
{ACAD_REACTORS
330
1EE
330
1EF
102
}
330
76
100
AcDbEntity
  8
0
  6
Continuous
 62
     2
100
AcDbCircle
 10
33.05089823847015
 20
-28.11403225707306
 30
0.0
 40
0.7717997786795578
100
AcDbArc
 50
321.8795802028385
 51
38.1204197971574
  0
ARC
  5
1A5
102
{ACAD_REACTORS
330
1EC
330
1ED
102
}
330
76
100
AcDbEntity
  8
0
  6
Continuous
 62
     2
100
AcDbCircle
 10
23.83251435137865
 20
-32.5758828797695
 30
0.0
 40
0.4242446153831949
100
AcDbArc
 50
270.0
 51
0.0
  0
ARC
  5
1A6
102
{ACAD_REACTORS
330
1EC
330
1ED
102
}
330
76
100
AcDbEntity
  8
0
  6
Continuous
 62
     2
100
AcDbCircle
 10
23.83251435137865
 20
-27.01137211056926
 30
0.0
 40
0.4242446153838806
100
AcDbArc
 50
0.0
 51
90.0
  0
ARC
  5
1A7
102
{ACAD_REACTORS
330
1EC
330
1ED
102
}
330
76
100
AcDbEntity
  8
0
  6
Continuous
 62
     2
100
AcDbCircle
 10
18.35920226066173
 20
-27.01137211056926
 30
0.0
 40
0.4242446153838877
100
AcDbArc
 50
90.0
 51
180.0
  0
ARC
  5
1A8
102
{ACAD_REACTORS
330
1EC
330
1ED
102
}
330
76
100
AcDbEntity
  8
0
  6
Continuous
 62
     2
100
AcDbCircle
 10
20.42893019841785
 20
-31.9718550165191
 30
0.0
 40
0.3157169230767067
100
AcDbArc
 50
270.0
 51
0.0
  0
ARC
  5
1A9
102
{ACAD_REACTORS
330
1EC
330
1ED
102
}
330
76
100
AcDbEntity
  8
0
  6
Continuous
 62
     2
100
AcDbCircle
 10
20.42893019841785
 20
-28.2194245928626
 30
0.0
 40
0.3157169230760594
100
AcDbArc
 50
295.1944106485677
 51
0.0
  0
ARC
  5
1AA
102
{ACAD_REACTORS
330
1EC
330
1ED
102
}
330
76
100
AcDbEntity
  8
0
  6
Continuous
 62
     2
100
AcDbCircle
 10
20.42893019841785
 20
-27.61539997380197
 30
0.0
 40
0.315716923076593
100
AcDbArc
 50
0.0
 51
90.0
  0
ARC
  5
1AB
102
{ACAD_REACTORS
330
1EC
330
1ED
102
}
330
76
100
AcDbEntity
  8
0
  6
Continuous
 62
     2
100
AcDbCircle
 10
18.95309693740825
 20
-31.9718550165191
 30
0.0
 40
0.3157169230756018
100
AcDbArc
 50
180.0
 51
270.0
  0
ARC
  5
1AC
102
{ACAD_REACTORS
330
1F2
330
1F3
102
}
330
76
100
AcDbEntity
  8
0
  6
Continuous
 62
     2
100
AcDbCircle
 10
26.73314804566374
 20
-27.642493136501
 30
0.0
 40
1.055365641333651
100
AcDbArc
 50
270.0
 51
90.0
  0
ARC
  5
1AD
102
{ACAD_REACTORS
330
1EA
330
1EB
102
}
330
76
100
AcDbEntity
  8
0
  6
Continuous
 62
     2
100
AcDbCircle
 10
42.46136135735483
 20
-31.3604323712126
 30
0.0
 40
1.639695123940503
100
AcDbArc
 50
195.0618917771007
 51
275.1581447696774
  0
ARC
  5
1AE
102
{ACAD_REACTORS
330
1EA
330
1EB
102
}
330
76
100
AcDbEntity
  8
0
  6
Continuous
 62
     2
100
AcDbCircle
 10
42.17250526261896
 20
-28.16054178799095
 30
0.0
 40
4.852596863498889
100
AcDbArc
 50
275.1581447696373
 51
285.9799912583382
  0
ARC
  5
1AF
102
{ACAD_REACTORS
330
1EA
330
1EB
102
}
330
76
100
AcDbEntity
  8
0
  6
Continuous
 62
     2
100
AcDbCircle
 10
42.33037813771173
 20
-30.06275636783926
 30
0.0
 40
2.227384008972765
100
AcDbArc
 50
288.4480761181335
 51
301.9309089499395
  0
ARC
  5
1B0
102
{ACAD_REACTORS
330
1EA
330
1EB
102
}
330
76
100
AcDbEntity
  8
0
  6
Continuous
 62
     2
100
AcDbCircle
 10
42.74854587137375
 20
-31.31630214387599
 30
0.0
 40
0.9059297849852176
100
AcDbArc
 50
246.6277221118087
 51
288.4480761180778
  0
ARC
  5
1B1
102
{ACAD_REACTORS
330
1EA
330
1EB
102
}
330
76
100
AcDbEntity
  8
0
  6
Continuous
 62
     2
100
AcDbCircle
 10
42.96946309675204
 20
-31.4732227332475
 30
0.0
 40
0.9410597353350306
100
AcDbArc
 50
151.4785267423569
 51
208.5214732576672
  0
ARC
  5
1B2
102
{ACAD_REACTORS
330
1EA
330
1EB
102
}
330
76
100
AcDbEntity
  8
0
  6
Continuous
 62
     2
100
AcDbCircle
 10
42.73877583677424
 20
-31.68610628429138
 30
0.0
 40
0.9545230068260899
100
AcDbArc
 50
90.0
 51
109.3371432194279
  0
ARC
  5
1B3
102
{ACAD_REACTORS
330
1EC
330
1ED
102
}
330
76
100
AcDbEntity
  8
0
  6
Continuous
 62
     2
100
AcDbCircle
 10
21.52864562394004
 20
-27.61557745045019
 30
0.0
 40
0.3157169230761815
100
AcDbArc
 50
90.1889670425665
 51
180.0
  0
ARC
  5
1B4
102
{ACAD_REACTORS
330
1EC
330
1ED
102
}
330
76
100
AcDbEntity
  8
0
  6
Continuous
 62
     2
100
AcDbCircle
 10
21.00260292585213
 20
-29.33025433892476
 30
0.0
 40
0.9118481501443972
100
AcDbArc
 50
295.3740086781803
 51
64.62599132180901
  0
ARC
  5
1B5
102
{ACAD_REACTORS
330
1E8
330
1E9
102
}
330
76
100
AcDbEntity
  8
0
  6
Continuous
 62
     2
100
AcDbCircle
 10
26.22767665845885
 20
-30.0627563678388
 30
0.0
 40
2.227384008972718
100
AcDbArc
 50
288.4480761181337
 51
301.9309089499637
  0
ARC
  5
1B6
102
{ACAD_REACTORS
330
1E8
330
1E9
102
}
330
76
100
AcDbEntity
  8
0
  6
Continuous
 62
     2
100
AcDbCircle
 10
26.64584439211976
 20
-31.31630214387599
 30
0.0
 40
0.9059297849848243
100
AcDbArc
 50
246.6277221118663
 51
288.4480761181538
  0
ARC
  5
1B7
102
{ACAD_REACTORS
330
1E8
330
1E9
102
}
330
76
100
AcDbEntity
  8
0
  6
Continuous
 62
     2
100
AcDbCircle
 10
26.48940435941765
 20
-31.67829416258599
 30
0.0
 40
0.5115800601947506
100
AcDbArc
 50
208.5214732576838
 51
246.6277221118277
  0
ARC
  5
1B8
102
{ACAD_REACTORS
330
1E8
330
1E9
102
}
330
76
100
AcDbEntity
  8
0
  6
Continuous
 62
     2
100
AcDbCircle
 10
26.64584439211976
 20
-31.63014332261901
 30
0.0
 40
0.9059297849853486
100
AcDbArc
 50
71.55192388185993
 51
113.3722778881306
  0
ARC
  5
1B9
102
{ACAD_REACTORS
330
1E8
330
1E9
102
}
330
76
100
AcDbEntity
  8
0
  6
Continuous
 62
     2
100
AcDbCircle
 10
26.06980378336604
 20
-34.7859036785033
 30
0.0
 40
4.85259686349799
100
AcDbArc
 50
74.02000874164712
 51
84.84185523037604
  0
CIRCLE
  5
1BA
102
{ACAD_REACTORS
330
1EC
330
1ED
102
}
330
76
100
AcDbEntity
  8
0
  6
Continuous
 62
     2
100
AcDbCircle
 10
20.97878791117935
 20
-29.33025433892476
 30
0.0
 40
0.470978932778479
  0
CIRCLE
  5
1BB
330
76
100
AcDbEntity
  8
1
  6
Continuous
 62
     2
100
AcDbCircle
 10
26.43495764527896
 20
-19.16862749516918
 30
0.0
 40
1.25
  0
CIRCLE
  5
1BC
330
76
100
AcDbEntity
  8
1
  6
Continuous
 62
     2
100
AcDbCircle
 10
26.43495764527896
 20
-19.16862749516918
 30
0.0
 40
2.5
  0
TEXT
  5
1BE
330
76
100
AcDbEntity
  8
1
 62
     7
100
AcDbText
 10
107.909773952133
 20
-44.29362749516849
 30
0.0
 40
2.5
  1
6
 41
0.9
  7
CONVERTER_11
100
AcDbText
  0
TEXT
  5
1BF
330
76
100
AcDbEntity
  8
1
 62
     7
100
AcDbText
 10
39.57644061879955
 20
-44.29362749516849
 30
0.0
 40
2.5
  1
5
 41
0.9
  7
CONVERTER_11
100
AcDbText
  0
TEXT
  5
1C0
330
76
100
AcDbEntity
  8
1
 62
     7
100
AcDbText
 10
-28.75689271453365
 20
-44.29362749516849
 30
0.0
 40
2.5
  1
4
 41
0.9
  7
CONVERTER_11
100
AcDbText
  0
TEXT
  5
1C1
330
76
100
AcDbEntity
  8
1
 62
     7
100
AcDbText
 10
-97.09022604786674
 20
-44.29362749516849
 30
0.0
 40
2.5
  1
3
 41
0.9
  7
CONVERTER_11
100
AcDbText
  0
TEXT
  5
1C2
330
76
100
AcDbEntity
  8
1
 62
     7
100
AcDbText
 10
144.2431072854664
 20
-12.79362749516849
 30
0.0
 40
2.5
  1
E
 41
0.9
  7
CONVERTER_11
100
AcDbText
  0
TEXT
  5
1C3
330
76
100
AcDbEntity
  8
1
 62
     7
100
AcDbText
 10
-233.7568927145334
 20
-44.29362749516849
 30
0.0
 40
2.5
  1
1
 41
0.9
  7
CONVERTER_11
100
AcDbText
  0
TEXT
  5
1C4
330
76
100
AcDbEntity
  8
1
 62
     7
100
AcDbText
 10
-165.4235593812003
 20
-44.29362749516849
 30
0.0
 40
2.5
  1
2
 41
0.9
  7
CONVERTER_11
100
AcDbText
  0
TEXT
  5
1C5
330
76
100
AcDbEntity
  8
1
 62
     7
100
AcDbText
 10
144.2431072854664
 20
44.60637250483163
 30
0.0
 40
2.5
  1
D
 41
0.9
  7
CONVERTER_11
100
AcDbText
  0
TEXT
  5
1C6
330
76
100
AcDbEntity
  8
1
 62
     7
100
AcDbText
 10
144.2431072854664
 20
102.0063725048317
 30
0.0
 40
2.5
  1
C
 41
0.9
  7
CONVERTER_11
100
AcDbText
  0
TEXT
  5
1C7
330
76
100
AcDbEntity
  8
1
 62
     7
100
AcDbText
 10
144.2431072854664
 20
159.4063725048315
 30
0.0
 40
2.5
  1
B
 41
0.9
  7
CONVERTER_11
100
AcDbText
  0
TEXT
  5
1C8
330
76
100
AcDbEntity
  8
1
 62
     7
100
AcDbText
 10
144.2431072854664
 20
216.8063725048314
 30
0.0
 40
2.5
  1
A
 41
0.9
  7
CONVERTER_11
100
AcDbText
  0
TEXT
  5
1C9
330
76
100
AcDbEntity
  8
1
 62
     7
100
AcDbText
 10
107.909773952133
 20
247.7063725048317
 30
0.0
 40
2.5
  1
6
 41
0.9
  7
CONVERTER_11
100
AcDbText
  0
TEXT
  5
1CA
330
76
100
AcDbEntity
  8
1
 62
     7
100
AcDbText
 10
39.57644061879975
 20
247.7063725048317
 30
0.0
 40
2.5
  1
5
 41
0.9
  7
CONVERTER_11
100
AcDbText
  0
TEXT
  5
1CB
330
76
100
AcDbEntity
  8
1
 62
     7
100
AcDbText
 10
-28.75689271453365
 20
247.7063725048317
 30
0.0
 40
2.5
  1
4
 41
0.9
  7
CONVERTER_11
100
AcDbText
  0
TEXT
  5
1CC
330
76
100
AcDbEntity
  8
1
 62
     7
100
AcDbText
 10
-97.09022604786674
 20
247.7063725048317
 30
0.0
 40
2.5
  1
3
 41
0.9
  7
CONVERTER_11
100
AcDbText
  0
TEXT
  5
1CD
330
76
100
AcDbEntity
  8
1
 62
     7
100
AcDbText
 10
-165.4235593812003
 20
247.7063725048317
 30
0.0
 40
2.5
  1
2
 41
0.9
  7
CONVERTER_11
100
AcDbText
  0
TEXT
  5
1CE
330
76
100
AcDbEntity
  8
1
 62
     7
100
AcDbText
 10
-233.7568927145334
 20
247.7063725048317
 30
0.0
 40
2.5
  1
1
 41
0.9
  7
CONVERTER_11
100
AcDbText
  0
TEXT
  5
1CF
330
76
100
AcDbEntity
  8
1
 62
     7
100
AcDbText
 10
69.07185048073015
 20
-21.99362749516905
 30
0.0
 40
2.5
  1
/
 41
0.9
  7
CONVERTER_11
100
AcDbText
  0
TEXT
  5
1D1
330
76
100
AcDbEntity
  8
1
 62
     7
100
AcDbText
 10
71.22821497777214
 20
-21.99362749516905
 30
0.0
 40
2.5
  1
01
 41
0.81
  7
CONVERTER_12
100
AcDbText
  0
TEXT
  5
1D2
330
76
100
AcDbEntity
  8
1
 62
     3
100
AcDbText
 10
108.8246990037893
 20
-21.99362749516905
 30
0.0
 40
2.5
  1
01.04.2021
 41
0.81
  7
CONVERTER_12
100
AcDbText
  0
MTEXT
  5
1D3
330
76
100
AcDbEntity
  8
1
 62
     2
100
AcDbMText
 10
108.8246990037893
 20
-15.79362749516906
 30
0.0
 40
1.8
 41
0.0
 71
     1
 72
     1
  1
date
  7
CONVERTER_11
 73
     1
 44
1.32052821128451
  0
MTEXT
  5
1D4
330
76
100
AcDbEntity
  8
1
 62
     2
100
AcDbMText
 10
78.99830275871635
 20
-24.29362749516906
 30
0.0
 40
1.8
 41
0.0
 71
     1
 72
     1
  1
document-type
  7
CONVERTER_11
 73
     1
 44
1.20048019207683
  0
TEXT
  5
1D5
330
76
100
AcDbEntity
  8
1
 62
     3
100
AcDbText
 10
78.99830275871635
 20
-30.49362749516905
 30
0.0
 40
2.5
  1
TECDOC 2D_Productdrawing
 41
0.81
  7
CONVERTER_12
100
AcDbText
  0
MTEXT
  5
1D7
330
76
100
AcDbEntity
  8
1
 62
     2
100
AcDbMText
 10
51.19830275871635
 20
-15.79362749516906
 30
0.0
 40
1.8
 41
0.0
 71
     1
 72
     1
  1
document-No. / RI
  7
CONVERTER_13
 73
     1
 44
1.32052821128451
  0
TEXT
  5
1D8
330
76
100
AcDbEntity
  8
1
 62
     7
100
AcDbText
 10
51.19830275871635
 20
-21.99362749516905
 30
0.0
 40
2.5
  1
00648678
 41
0.81
  7
CONVERTER_12
100
AcDbText
  0
MTEXT
  5
1DA
330
76
100
AcDbEntity
  8
1
 62
     3
100
AcDbMText
 10
138.7839031446287
 20
-21.99362749516899
 30
0.0
 40
2.5
 41
0.0
 71
     8
 72
     1
  1
2:1
  7
CONVERTER_14
 73
     1
 44
1.32052821128451
  0
MTEXT
  5
1DB
330
76
100
AcDbEntity
  8
1
 62
     2
100
AcDbMText
 10
135.4246990037892
 20
-15.79362749516906
 30
0.0
 40
1.8
 41
0.0
 71
     1
 72
     1
  1
scale
  7
CONVERTER_11
 73
     1
 44
1.20048019207683
  0
MTEXT
  5
1DC
330
76
100
AcDbEntity
  8
1
 62
     2
100
AcDbMText
 10
51.19830275871635
 20
-24.29362749516906
 30
0.0
 40
1.8
 41
0.0
 71
     1
 72
     1
  1
ident.-No.
  7
CONVERTER_11
 73
     1
 44
1.20048019207683
  0
TEXT
  5
1DD
330
76
100
AcDbEntity
  8
1
 62
     7
100
AcDbText
 10
51.59830275871613
 20
-30.49362749516905
 30
0.0
 40
2.5
  1
0801682
 41
0.81
  7
CONVERTER_12
100
AcDbText
  0
MTEXT
  5
1DE
330
76
100
AcDbEntity
  8
1
 62
     2
100
AcDbMText
 10
-20.71272051049317
 20
-27.54362749517026
 30
0.0
 40
2.0
 41
0.0
 71
     5
 72
     1
  1
General Information\P- Simplified representation\P- Document excluded from change process\P- Linear dimensions [mm]
  7
CONVERTER_11
 73
     1
 44
1.20048019207683
  0
MTEXT
  5
1DF
330
76
100
AcDbEntity
  8
1
 62
     3
100
AcDbMText
 10
39.89830275871634
 20
-19.16862749516906
 30
0.0
 40
2.5
 41
0.0
 71
     5
 72
     1
  1
DIN A3
  7
CONVERTER_11
 73
     1
 44
1.20048019207683
  0
MTEXT
  5
1E0
330
76
100
AcDbEntity
  8
1
 62
     2
100
AcDbMText
 10
51.09830275871636
 20
-32.79362749516906
 30
0.0
 40
1.8
 41
0.0
 71
     1
 72
     1
  1
description
  7
CONVERTER_11
 73
     1
 44
1.20048019207683
  0
MTEXT
  5
1E1
330
76
100
AcDbEntity
  8
1
 62
     7
100
AcDbMText
 10
96.67070502209185
 20
-37.04362749516889
 30
0.0
 40
3.0
 41
0.0
 71
     5
 72
     1
  1
CES-STPG-GY-10
  7
CONVERTER_12
 73
     1
 44
1.20048019207683
  0
TEXT
  5
1E2
330
76
100
AcDbEntity
  8
1
 62
     2
100
AcDbText
 10
38.13361156852994
 20
-39.04362749516906
 30
0.0
 40
1.8
  1
1
 41
0.9
  7
CONVERTER_11
100
AcDbText
  0
TEXT
  5
1E3
330
76
100
AcDbEntity
  8
1
 62
     2
100
AcDbText
 10
23.34456772905844
 20
-39.09287614897096
 30
0.0
 40
1.8
  1
1
 41
0.9
  7
CONVERTER_11
100
AcDbText
  0
TEXT
  5
1E4
330
76
100
AcDbEntity
  8
1
 62
     2
100
AcDbText
 10
14.69830275871644
 20
-39.05264471016079
 30
0.0
 40
1.8
  1
page
 41
0.9
  7
CONVERTER_11
100
AcDbText
  0
TEXT
  5
1E5
330
76
100
AcDbEntity
  8
1
 62
     2
100
AcDbText
 10
32.89830275871626
 20
-39.05264471016056
 30
0.0
 40
1.8
  1
of
 41
0.9
  7
CONVERTER_11
100
AcDbText
  0
MTEXT
  5
1E6
330
76
100
AcDbEntity
  8
1
 62
     3
100
AcDbMText
 10
-253.4884257142743
 20
132.6926566184852
 30
0.0
 40
1.8
 41
0.0
 71
     7
 72
     1
  3
Transfer or duplication of this document as well as the utilisation or\Pcommunication of its content are not permitted unless express consent\Pis granted. Violations give rise to claims for damages. All rights reserved\Pin case of patent, utility mo
  1
del or design patent registrations.
  7
CONVERTER_11
 11
0.0
 21
1.0
 31
0.0
 73
     1
 44
0.99639855942377
  0
MTEXT
  5
1E7
330
76
100
AcDbEntity
  8
1
 62
     3
100
AcDbMText
 10
-253.3342194031804
 20
-40.26671339566786
 30
0.0
 40
1.8
 41
0.0
 71
     7
 72
     1
  3
Weitergabe sowie Vervielfältigung dieses Dokuments, Verwertung und \PMitteilung seines Inhalts sind verboten, soweit nicht ausdrücklich gestattet. \PZuwiderhandlungen verpflichten zu Schadenersatz. Alle Rechte für den Fall\Pder Patent-, Gebrauchsmus
  1
ter- oder Designeintragung vorbehalten.
  7
CONVERTER_11
 11
0.0
 21
1.0
 31
0.0
 73
     1
 44
0.99639855942377
  0
HATCH
  5
1E8
330
76
100
AcDbEntity
  8
1
  6
Continuous
 62
     2
100
AcDbHatch
 10
0.0
 20
0.0
 30
0.0
210
0.0
220
0.0
230
1.0
  2
CUSTOM0
 70
     0
 71
     1
 91
        1
 92
        1
 93
       14
 72
     2
 10
25.93953203463914
 20
-31.4732227332475
 40
1.205656168390973
 50
164.9381082228765
 51
195.0618917770942
 73
     1
 72
     2
 10
26.35865987810195
 20
-31.3604323712126
 40
1.639695123939442
 50
195.0618917770919
 51
275.1581447696363
 73
     1
 72
     2
 10
26.06980378336604
 20
-28.16054178799095
 40
4.852596863498279
 50
275.1581447696238
 51
285.9799912583526
 73
     1
 72
     1
 10
27.40573170048384
 20
-32.82562409379187
 11
27.40573170048384
 21
-31.95310708698855
 72
     2
 10
26.22767665845885
 20
-30.0627563678388
 40
2.227384008972718
 50
58.06909105003633
 51
71.55192388186636
 73
     0
 72
     2
 10
26.64584439211976
 20
-31.31630214387599
 40
0.9059297849848243
 50
71.55192388184622
 51
113.3722778881338
 73
     0
 72
     2
 10
26.48940435941765
 20
-31.67829416258599
 40
0.5115800601947506
 50
113.3722778881723
 51
151.4785267423162
 73
     0
 72
     2
 10
26.86676161749804
 20
-31.4732227332475
 40
0.9410597353333263
 50
151.4785267423029
 51
208.5214732577307
 73
     0
 72
     2
 10
26.48940435941765
 20
-31.26815130390838
 40
0.5115800601948306
 50
208.5214732576835
 51
246.6277221118051
 73
     0
 72
     2
 10
26.64584439211976
 20
-31.63014332261901
 40
0.9059297849853486
 50
246.6277221118693
 51
288.4480761181401
 73
     0
 72
     2
 10
26.22767665845885
 20
-32.88368909865557
 40
2.227384008973466
 50
288.4480761181331
 51
301.9309089499628
 73
     0
 72
     1
 10
27.40573170048384
 20
-30.99333837950576
 11
27.40573170048384
 21
-30.12082137270249
 72
     2
 10
26.06980378336604
 20
-34.7859036785033
 40
4.85259686349799
 50
74.02000874164712
 51
84.84185523037604
 73
     1
 72
     2
 10
26.35865987810195
 20
-31.58601309528228
 40
1.639695123940495
 50
84.84185523036533
 51
164.9381082228906
 73
     1
 97
       14
330
1B9
330
102
330
188
330
1B8
330
189
330
18A
330
1B7
330
1B6
330
1B5
330
103
330
18B
330
18C
330
18D
330
18E
 75
     1
 76
     2
 52
45.0
 41
0.1
 77
     0
 78
     1
 53
45.0
 43
62.7811309658083
 44
-72.3161373035813
 45
-0.1414213562373095
 46
0.0
 79
     0
 98
        1
 10
0.0
 20
0.0
  0
HATCH
  5
1E9
330
76
100
AcDbEntity
  8
1
  6
Continuous
 62
     2
100
AcDbHatch
 10
0.0
 20
0.0
 30
0.0
210
0.0
220
0.0
230
1.0
  2
CUSTOM1
 70
     0
 71
     1
 91
        1
 92
        1
 93
       14
 72
     2
 10
25.93953203463914
 20
-31.4732227332475
 40
1.205656168390973
 50
164.9381082228765
 51
195.0618917770942
 73
     1
 72
     2
 10
26.35865987810195
 20
-31.3604323712126
 40
1.639695123939442
 50
195.0618917770919
 51
275.1581447696363
 73
     1
 72
     2
 10
26.06980378336604
 20
-28.16054178799095
 40
4.852596863498279
 50
275.1581447696238
 51
285.9799912583526
 73
     1
 72
     1
 10
27.40573170048384
 20
-32.82562409379187
 11
27.40573170048384
 21
-31.95310708698855
 72
     2
 10
26.22767665845885
 20
-30.0627563678388
 40
2.227384008972718
 50
58.06909105003633
 51
71.55192388186636
 73
     0
 72
     2
 10
26.64584439211976
 20
-31.31630214387599
 40
0.9059297849848243
 50
71.55192388184622
 51
113.3722778881338
 73
     0
 72
     2
 10
26.48940435941765
 20
-31.67829416258599
 40
0.5115800601947506
 50
113.3722778881723
 51
151.4785267423162
 73
     0
 72
     2
 10
26.86676161749804
 20
-31.4732227332475
 40
0.9410597353333263
 50
151.4785267423029
 51
208.5214732577307
 73
     0
 72
     2
 10
26.48940435941765
 20
-31.26815130390838
 40
0.5115800601948306
 50
208.5214732576835
 51
246.6277221118051
 73
     0
 72
     2
 10
26.64584439211976
 20
-31.63014332261901
 40
0.9059297849853486
 50
246.6277221118693
 51
288.4480761181401
 73
     0
 72
     2
 10
26.22767665845885
 20
-32.88368909865557
 40
2.227384008973466
 50
288.4480761181331
 51
301.9309089499628
 73
     0
 72
     1
 10
27.40573170048384
 20
-30.99333837950576
 11
27.40573170048384
 21
-30.12082137270249
 72
     2
 10
26.06980378336604
 20
-34.7859036785033
 40
4.85259686349799
 50
74.02000874164712
 51
84.84185523037604
 73
     1
 72
     2
 10
26.35865987810195
 20
-31.58601309528228
 40
1.639695123940495
 50
84.84185523036533
 51
164.9381082228906
 73
     1
 97
       14
330
1B9
330
102
330
188
330
1B8
330
189
330
18A
330
1B7
330
1B6
330
1B5
330
103
330
18B
330
18C
330
18D
330
18E
 75
     1
 76
     2
 52
45.0
 41
0.1
 77
     0
 78
     1
 53
45.0
 43
62.7811309658083
 44
-72.3161373035813
 45
-0.1414213562373095
 46
0.0
 79
     0
 98
        1
 10
0.0
 20
0.0
  0
HATCH
  5
1EA
330
76
100
AcDbEntity
  8
1
  6
Continuous
 62
     2
100
AcDbHatch
 10
0.0
 20
0.0
 30
0.0
210
0.0
220
0.0
230
1.0
  2
CUSTOM2
 70
     0
 71
     1
 91
        1
 92
        1
 93
       18
 72
     2
 10
42.46136135735483
 20
-31.58601309528228
 40
1.639695123940101
 50
90.0
 51
164.9381082228993
 73
     1
 72
     2
 10
42.04223351389314
 20
-31.4732227332475
 40
1.205656168392977
 50
164.9381082229021
 51
195.0618917770924
 73
     1
 72
     2
 10
42.46136135735483
 20
-31.3604323712126
 40
1.639695123940503
 50
195.0618917771007
 51
275.1581447696774
 73
     1
 72
     2
 10
42.17250526261896
 20
-28.16054178799095
 40
4.852596863498889
 50
275.1581447696373
 51
285.9799912583382
 73
     1
 72
     1
 10
43.50843317973565
 20
-32.82562409379239
 11
43.50843317973565
 21
-31.95310708698906
 72
     2
 10
42.33037813771173
 20
-30.06275636783926
 40
2.227384008972765
 50
58.06909105006055
 51
71.55192388186651
 73
     0
 72
     2
 10
42.74854587137375
 20
-31.31630214387599
 40
0.9059297849852176
 50
71.55192388192219
 51
113.3722778881913
 73
     0
 72
     2
 10
42.59210583867053
 20
-31.67829416258599
 40
0.5115800601959841
 50
113.3722778881596
 51
151.4785267423111
 73
     0
 72
     2
 10
42.96946309675204
 20
-31.4732227332475
 40
0.9410597353350306
 50
151.4785267423328
 51
208.5214732576431
 73
     0
 72
     2
 10
42.59210583867053
 20
-31.26815130390838
 40
0.5115800601943935
 50
208.5214732575823
 51
250.662856780519
 73
     0
 72
     2
 10
42.73877583677424
 20
-31.68610628429138
 40
0.9545230068260899
 50
250.6628567805721
 51
270.0
 73
     0
 72
     1
 10
42.73877583677424
 20
-30.73158327746529
 11
43.84241513634234
 21
-30.73158327746529
 72
     1
 10
43.84241513634234
 20
-30.73158327746529
 11
43.84241513634234
 21
-33.0001274951527
 72
     1
 10
43.84241513634234
 20
-33.0001274951527
 11
45.03520783851005
 21
-33.0001274951527
 72
     1
 10
45.03520783851005
 20
-33.0001274951527
 11
45.03520783851005
 21
-30.73158327746529
 72
     1
 10
45.03520783851005
 20
-30.73158327746529
 11
45.84630687598343
 21
-30.73158327746529
 72
     1
 10
45.84630687598343
 20
-30.73158327746529
 11
45.84630687598343
 21
-29.94631797134156
 72
     1
 10
45.84630687598343
 20
-29.94631797134156
 11
42.46136135735483
 21
-29.94631797134218
 97
       18
330
168
330
167
330
166
330
165
330
16A
330
104
330
1B2
330
193
330
1B1
330
194
330
1B0
330
1AF
330
105
330
1AE
330
1AD
330
195
330
196
330
169
 75
     1
 76
     2
 52
45.0
 41
0.1
 77
     0
 78
     1
 53
45.0
 43
62.7811309658083
 44
-72.3161373035813
 45
-0.1414213562373095
 46
0.0
 79
     0
 98
        1
 10
0.0
 20
0.0
  0
HATCH
  5
1EB
330
76
100
AcDbEntity
  8
1
  6
Continuous
 62
     2
100
AcDbHatch
 10
0.0
 20
0.0
 30
0.0
210
0.0
220
0.0
230
1.0
  2
CUSTOM3
 70
     0
 71
     1
 91
        1
 92
        1
 93
       18
 72
     2
 10
42.46136135735483
 20
-31.58601309528228
 40
1.639695123940101
 50
90.0
 51
164.9381082228993
 73
     1
 72
     2
 10
42.04223351389314
 20
-31.4732227332475
 40
1.205656168392977
 50
164.9381082229021
 51
195.0618917770924
 73
     1
 72
     2
 10
42.46136135735483
 20
-31.3604323712126
 40
1.639695123940503
 50
195.0618917771007
 51
275.1581447696774
 73
     1
 72
     2
 10
42.17250526261896
 20
-28.16054178799095
 40
4.852596863498889
 50
275.1581447696373
 51
285.9799912583382
 73
     1
 72
     1
 10
43.50843317973565
 20
-32.82562409379239
 11
43.50843317973565
 21
-31.95310708698906
 72
     2
 10
42.33037813771173
 20
-30.06275636783926
 40
2.227384008972765
 50
58.06909105006055
 51
71.55192388186651
 73
     0
 72
     2
 10
42.74854587137375
 20
-31.31630214387599
 40
0.9059297849852176
 50
71.55192388192219
 51
113.3722778881913
 73
     0
 72
     2
 10
42.59210583867053
 20
-31.67829416258599
 40
0.5115800601959841
 50
113.3722778881596
 51
151.4785267423111
 73
     0
 72
     2
 10
42.96946309675204
 20
-31.4732227332475
 40
0.9410597353350306
 50
151.4785267423328
 51
208.5214732576431
 73
     0
 72
     2
 10
42.59210583867053
 20
-31.26815130390838
 40
0.5115800601943935
 50
208.5214732575823
 51
250.662856780519
 73
     0
 72
     2
 10
42.73877583677424
 20
-31.68610628429138
 40
0.9545230068260899
 50
250.6628567805721
 51
270.0
 73
     0
 72
     1
 10
42.73877583677424
 20
-30.73158327746529
 11
43.84241513634234
 21
-30.73158327746529
 72
     1
 10
43.84241513634234
 20
-30.73158327746529
 11
43.84241513634234
 21
-33.0001274951527
 72
     1
 10
43.84241513634234
 20
-33.0001274951527
 11
45.03520783851005
 21
-33.0001274951527
 72
     1
 10
45.03520783851005
 20
-33.0001274951527
 11
45.03520783851005
 21
-30.73158327746529
 72
     1
 10
45.03520783851005
 20
-30.73158327746529
 11
45.84630687598343
 21
-30.73158327746529
 72
     1
 10
45.84630687598343
 20
-30.73158327746529
 11
45.84630687598343
 21
-29.94631797134156
 72
     1
 10
45.84630687598343
 20
-29.94631797134156
 11
42.46136135735483
 21
-29.94631797134218
 97
       18
330
168
330
167
330
166
330
165
330
16A
330
104
330
1B2
330
193
330
1B1
330
194
330
1B0
330
1AF
330
105
330
1AE
330
1AD
330
195
330
196
330
169
 75
     1
 76
     2
 52
45.0
 41
0.1
 77
     0
 78
     1
 53
45.0
 43
62.7811309658083
 44
-72.3161373035813
 45
-0.1414213562373095
 46
0.0
 79
     0
 98
        1
 10
0.0
 20
0.0
  0
HATCH
  5
1EC
330
76
100
AcDbEntity
  8
1
  6
Continuous
 62
     2
100
AcDbHatch
 10
0.0
 20
0.0
 30
0.0
210
0.0
220
0.0
230
1.0
  2
CUSTOM4
 70
     0
 71
     1
 91
        4
 92
        1
 93
        8
 72
     2
 10
18.35920226066173
 20
-27.01137211056926
 40
0.4242446153838877
 50
90.0
 51
180.0
 73
     1
 72
     1
 10
17.93495764527896
 20
-27.01137211056926
 11
17.93495764527896
 21
-32.5758828797695
 72
     2
 10
18.35920226066173
 20
-32.5758828797695
 40
0.4242446153827686
 50
180.0
 51
270.0
 73
     1
 72
     1
 10
18.35920226066173
 20
-33.0001274951527
 11
23.83251435137865
 21
-33.0001274951527
 72
     2
 10
23.83251435137865
 20
-32.5758828797695
 40
0.4242446153831949
 50
270.0
 51
360.0
 73
     1
 72
     1
 10
24.25675896676253
 20
-32.5758828797695
 11
24.25675896676253
 21
-27.01137211056926
 72
     2
 10
23.83251435137865
 20
-27.01137211056926
 40
0.4242446153838806
 50
0.0
 51
90.0
 73
     1
 72
     1
 10
23.83251435137865
 20
-26.58712749518537
 11
18.35920226066173
 21
-26.58712749518537
 97
        8
330
1A6
330
133
330
1A5
330
134
330
19C
330
131
330
1A7
330
132
 92
       16
 93
       12
 72
     1
 10
18.95309693740825
 20
-32.28757193959581
 11
20.42893019841785
 21
-32.28757193959581
 72
     2
 10
20.42893019841785
 20
-31.9718550165191
 40
0.3157169230767067
 50
270.0
 51
360.0
 73
     1
 72
     1
 10
20.74464712149444
 20
-31.9718550165191
 11
20.74464712149444
 21
-30.44108408498749
 72
     2
 10
20.42893019841785
 20
-30.44108408498749
 40
0.315716923076593
 50
0.0
 51
64.80558935144546
 73
     1
 72
     2
 10
20.95151464599283
 20
-29.33025433892476
 40
0.9118975235576419
 50
115.1944106485086
 51
244.8055893514808
 73
     0
 72
     2
 10
20.42893019841785
 20
-28.2194245928626
 40
0.3157169230760594
 50
295.1944106485677
 51
360.0
 73
     1
 72
     1
 10
20.74464712149444
 20
-28.2194245928626
 11
20.74464712149444
 21
-27.61539997380197
 72
     2
 10
20.42893019841785
 20
-27.61539997380197
 40
0.315716923076593
 50
0.0
 51
90.0
 73
     1
 72
     1
 10
20.42893019841785
 20
-27.29968305072589
 11
18.95309693740825
 21
-27.29968305072589
 72
     2
 10
18.95309693740825
 20
-27.61539997380197
 40
0.3157169230760815
 50
90.0
 51
180.0
 73
     1
 72
     1
 10
18.63738001433265
 20
-27.61539997380197
 11
18.63738001433265
 21
-31.9718550165191
 72
     2
 10
18.95309693740825
 20
-31.9718550165191
 40
0.3157169230756018
 50
180.0
 51
270.0
 73
     1
 97
       12
330
138
330
199
330
137
330
1AA
330
136
330
1A9
330
19A
330
19B
330
135
330
1A8
330
130
330
1AB
 92
       16
 93
        8
 72
     2
 10
21.00260292585213
 20
-29.33025433892476
 40
0.9118481501443972
 50
295.3740086781803
 51
424.6259913218091
 73
     1
 72
     2
 10
21.52864562394004
 20
-28.221112738957
 40
0.3157169230767884
 50
115.3740086783657
 51
180.0
 73
     0
 72
     1
 10
21.21292870086325
 20
-28.221112738957
 11
21.21292870086325
 21
-27.61557745045019
 72
     2
 10
21.52864562394004
 20
-27.61557745045019
 40
0.3157169230761815
 50
180.0
 51
269.8110329574335
 73
     0
 72
     2
 10
21.53426175925006
 20
-29.31841239801918
 40
2.018561131933266
 50
269.8110329575827
 51
450.1889670424174
 73
     0
 72
     2
 10
21.52864562394004
 20
-31.02124734558817
 40
0.3157169230767884
 50
90.18896704256652
 51
180.0
 73
     0
 72
     1
 10
21.21292870086325
 20
-31.02124734558817
 11
21.21292870086325
 21
-30.43939593889309
 72
     2
 10
21.52864562394004
 20
-30.43939593889309
 40
0.3157169230765343
 50
180.0
 51
244.6259913216475
 73
     0
 97
        8
330
1B4
330
190
330
16C
330
1B3
330
191
330
192
330
16B
330
18F
 92
       16
 93
        1
 72
     2
 10
20.97878791117935
 20
-29.33025433892476
 40
0.470978932778479
 50
0.0
 51
360.0
 73
     1
 97
        1
330
1BA
 75
     1
 76
     2
 52
45.0
 41
0.1
 77
     0
 78
     1
 53
45.0
 43
62.7811309658083
 44
-72.3161373035813
 45
-0.1414213562373095
 46
0.0
 79
     0
 98
        1
 10
0.0
 20
0.0
  0
HATCH
  5
1ED
330
76
100
AcDbEntity
  8
1
  6
Continuous
 62
     2
100
AcDbHatch
 10
0.0
 20
0.0
 30
0.0
210
0.0
220
0.0
230
1.0
  2
CUSTOM5
 70
     0
 71
     1
 91
        4
 92
        1
 93
        8
 72
     2
 10
18.35920226066173
 20
-27.01137211056926
 40
0.4242446153838877
 50
90.0
 51
180.0
 73
     1
 72
     1
 10
17.93495764527896
 20
-27.01137211056926
 11
17.93495764527896
 21
-32.5758828797695
 72
     2
 10
18.35920226066173
 20
-32.5758828797695
 40
0.4242446153827686
 50
180.0
 51
270.0
 73
     1
 72
     1
 10
18.35920226066173
 20
-33.0001274951527
 11
23.83251435137865
 21
-33.0001274951527
 72
     2
 10
23.83251435137865
 20
-32.5758828797695
 40
0.4242446153831949
 50
270.0
 51
360.0
 73
     1
 72
     1
 10
24.25675896676253
 20
-32.5758828797695
 11
24.25675896676253
 21
-27.01137211056926
 72
     2
 10
23.83251435137865
 20
-27.01137211056926
 40
0.4242446153838806
 50
0.0
 51
90.0
 73
     1
 72
     1
 10
23.83251435137865
 20
-26.58712749518537
 11
18.35920226066173
 21
-26.58712749518537
 97
        8
330
1A6
330
133
330
1A5
330
134
330
19C
330
131
330
1A7
330
132
 92
       16
 93
       12
 72
     1
 10
18.95309693740825
 20
-32.28757193959581
 11
20.42893019841785
 21
-32.28757193959581
 72
     2
 10
20.42893019841785
 20
-31.9718550165191
 40
0.3157169230767067
 50
270.0
 51
360.0
 73
     1
 72
     1
 10
20.74464712149444
 20
-31.9718550165191
 11
20.74464712149444
 21
-30.44108408498749
 72
     2
 10
20.42893019841785
 20
-30.44108408498749
 40
0.315716923076593
 50
0.0
 51
64.80558935144546
 73
     1
 72
     2
 10
20.95151464599283
 20
-29.33025433892476
 40
0.9118975235576419
 50
115.1944106485086
 51
244.8055893514808
 73
     0
 72
     2
 10
20.42893019841785
 20
-28.2194245928626
 40
0.3157169230760594
 50
295.1944106485677
 51
360.0
 73
     1
 72
     1
 10
20.74464712149444
 20
-28.2194245928626
 11
20.74464712149444
 21
-27.61539997380197
 72
     2
 10
20.42893019841785
 20
-27.61539997380197
 40
0.315716923076593
 50
0.0
 51
90.0
 73
     1
 72
     1
 10
20.42893019841785
 20
-27.29968305072589
 11
18.95309693740825
 21
-27.29968305072589
 72
     2
 10
18.95309693740825
 20
-27.61539997380197
 40
0.3157169230760815
 50
90.0
 51
180.0
 73
     1
 72
     1
 10
18.63738001433265
 20
-27.61539997380197
 11
18.63738001433265
 21
-31.9718550165191
 72
     2
 10
18.95309693740825
 20
-31.9718550165191
 40
0.3157169230756018
 50
180.0
 51
270.0
 73
     1
 97
       12
330
138
330
199
330
137
330
1AA
330
136
330
1A9
330
19A
330
19B
330
135
330
1A8
330
130
330
1AB
 92
       16
 93
        8
 72
     2
 10
21.00260292585213
 20
-29.33025433892476
 40
0.9118481501443972
 50
295.3740086781803
 51
424.6259913218091
 73
     1
 72
     2
 10
21.52864562394004
 20
-28.221112738957
 40
0.3157169230767884
 50
115.3740086783657
 51
180.0
 73
     0
 72
     1
 10
21.21292870086325
 20
-28.221112738957
 11
21.21292870086325
 21
-27.61557745045019
 72
     2
 10
21.52864562394004
 20
-27.61557745045019
 40
0.3157169230761815
 50
180.0
 51
269.8110329574335
 73
     0
 72
     2
 10
21.53426175925006
 20
-29.31841239801918
 40
2.018561131933266
 50
269.8110329575827
 51
450.1889670424174
 73
     0
 72
     2
 10
21.52864562394004
 20
-31.02124734558817
 40
0.3157169230767884
 50
90.18896704256652
 51
180.0
 73
     0
 72
     1
 10
21.21292870086325
 20
-31.02124734558817
 11
21.21292870086325
 21
-30.43939593889309
 72
     2
 10
21.52864562394004
 20
-30.43939593889309
 40
0.3157169230765343
 50
180.0
 51
244.6259913216475
 73
     0
 97
        8
330
1B4
330
190
330
16C
330
1B3
330
191
330
192
330
16B
330
18F
 92
       16
 93
        1
 72
     2
 10
20.97878791117935
 20
-29.33025433892476
 40
0.470978932778479
 50
0.0
 51
360.0
 73
     1
 97
        1
330
1BA
 75
     1
 76
     2
 52
45.0
 41
0.1
 77
     0
 78
     1
 53
45.0
 43
62.7811309658083
 44
-72.3161373035813
 45
-0.1414213562373095
 46
0.0
 79
     0
 98
        1
 10
0.0
 20
0.0
  0
HATCH
  5
1EE
330
76
100
AcDbEntity
  8
1
  6
Continuous
 62
     2
100
AcDbHatch
 10
0.0
 20
0.0
 30
0.0
210
0.0
220
0.0
230
1.0
  2
CUSTOM6
 70
     0
 71
     1
 91
        2
 92
        1
 93
       12
 72
     2
 10
33.03436626465114
 20
-28.11403225707306
 40
1.526904761905769
 50
90.0
 51
270.0
 73
     1
 72
     1
 10
33.03436626465114
 20
-29.64093701897838
 11
36.18468598843205
 21
-29.64093701897838
 72
     1
 10
36.18468598843205
 20
-29.64093701897838
 11
36.18468598843205
 21
-28.94292341353599
 72
     1
 10
36.18468598843205
 20
-28.94292341353599
 11
34.84875816200443
 21
-28.94292341353599
 72
     1
 10
34.84875816200443
 20
-28.94292341353599
 11
34.84875816200443
 21
-28.46303905979426
 72
     1
 10
34.84875816200443
 20
-28.46303905979426
 11
36.18468598843205
 21
-28.46303905979426
 72
     1
 10
36.18468598843205
 20
-28.46303905979426
 11
36.18468598843205
 21
-27.76502545435187
 72
     1
 10
36.18468598843205
 20
-27.76502545435187
 11
34.84875816200443
 21
-27.76502545435187
 72
     1
 10
34.84875816200443
 20
-27.76502545435187
 11
34.84875816200443
 21
-27.28514110061019
 72
     1
 10
34.84875816200443
 20
-27.28514110061019
 11
36.18468598843205
 21
-27.28514110061019
 72
     1
 10
36.18468598843205
 20
-27.28514110061019
 11
36.18468598843205
 21
-26.58712749516729
 72
     1
 10
36.18468598843205
 20
-26.58712749516729
 11
33.03436626465114
 21
-26.58712749516729
 97
       12
330
127
330
121
330
148
330
147
330
146
330
145
330
122
330
123
330
124
330
125
330
197
330
126
 92
       16
 93
        4
 72
     2
 10
33.45037831116255
 20
-28.11403225707306
 40
0.7717997786796202
 50
141.8795802028488
 51
218.1204197971553
 73
     1
 72
     2
 10
33.25063827481634
 20
-28.2707634351936
 40
0.5179085730134586
 50
218.1204197971337
 51
321.8795802028584
 73
     1
 72
     2
 10
33.05089823847015
 20
-28.11403225707306
 40
0.7717997786795578
 50
321.8795802028385
 51
398.1204197971574
 73
     1
 72
     2
 10
33.25063827481634
 20
-27.95730107895258
 40
0.5179085730133626
 50
38.12041979714059
 51
141.8795802028672
 73
     1
 97
        4
330
1A4
330
1A3
330
19E
330
19D
 75
     1
 76
     2
 52
45.0
 41
0.1
 77
     0
 78
     1
 53
45.0
 43
62.7811309658083
 44
-72.3161373035813
 45
-0.1414213562373095
 46
0.0
 79
     0
 98
        1
 10
0.0
 20
0.0
  0
HATCH
  5
1EF
330
76
100
AcDbEntity
  8
1
  6
Continuous
 62
     2
100
AcDbHatch
 10
0.0
 20
0.0
 30
0.0
210
0.0
220
0.0
230
1.0
  2
CUSTOM7
 70
     0
 71
     1
 91
        2
 92
        1
 93
       12
 72
     2
 10
33.03436626465114
 20
-28.11403225707306
 40
1.526904761905769
 50
90.0
 51
270.0
 73
     1
 72
     1
 10
33.03436626465114
 20
-29.64093701897838
 11
36.18468598843205
 21
-29.64093701897838
 72
     1
 10
36.18468598843205
 20
-29.64093701897838
 11
36.18468598843205
 21
-28.94292341353599
 72
     1
 10
36.18468598843205
 20
-28.94292341353599
 11
34.84875816200443
 21
-28.94292341353599
 72
     1
 10
34.84875816200443
 20
-28.94292341353599
 11
34.84875816200443
 21
-28.46303905979426
 72
     1
 10
34.84875816200443
 20
-28.46303905979426
 11
36.18468598843205
 21
-28.46303905979426
 72
     1
 10
36.18468598843205
 20
-28.46303905979426
 11
36.18468598843205
 21
-27.76502545435187
 72
     1
 10
36.18468598843205
 20
-27.76502545435187
 11
34.84875816200443
 21
-27.76502545435187
 72
     1
 10
34.84875816200443
 20
-27.76502545435187
 11
34.84875816200443
 21
-27.28514110061019
 72
     1
 10
34.84875816200443
 20
-27.28514110061019
 11
36.18468598843205
 21
-27.28514110061019
 72
     1
 10
36.18468598843205
 20
-27.28514110061019
 11
36.18468598843205
 21
-26.58712749516729
 72
     1
 10
36.18468598843205
 20
-26.58712749516729
 11
33.03436626465114
 21
-26.58712749516729
 97
       12
330
127
330
121
330
148
330
147
330
146
330
145
330
122
330
123
330
124
330
125
330
197
330
126
 92
       16
 93
        4
 72
     2
 10
33.45037831116255
 20
-28.11403225707306
 40
0.7717997786796202
 50
141.8795802028488
 51
218.1204197971553
 73
     1
 72
     2
 10
33.25063827481634
 20
-28.2707634351936
 40
0.5179085730134586
 50
218.1204197971337
 51
321.8795802028584
 73
     1
 72
     2
 10
33.05089823847015
 20
-28.11403225707306
 40
0.7717997786795578
 50
321.8795802028385
 51
398.1204197971574
 73
     1
 72
     2
 10
33.25063827481634
 20
-27.95730107895258
 40
0.5179085730133626
 50
38.12041979714059
 51
141.8795802028672
 73
     1
 97
        4
330
1A4
330
1A3
330
19E
330
19D
 75
     1
 76
     2
 52
45.0
 41
0.1
 77
     0
 78
     1
 53
45.0
 43
62.7811309658083
 44
-72.3161373035813
 45
-0.1414213562373095
 46
0.0
 79
     0
 98
        1
 10
0.0
 20
0.0
  0
HATCH
  5
1F0
330
76
100
AcDbEntity
  8
1
  6
Continuous
 62
     2
100
AcDbHatch
 10
0.0
 20
0.0
 30
0.0
210
0.0
220
0.0
230
1.0
  2
CUSTOM8
 70
     0
 71
     1
 91
        2
 92
        1
 93
        4
 72
     2
 10
29.00875090218943
 20
-31.4732227332475
 40
1.458034083651613
 50
117.5481481756596
 51
242.4518518243372
 73
     1
 72
     2
 10
29.28969079402285
 20
-30.93464772294408
 40
2.065479772208634
 50
242.4518518243384
 51
297.5481481756859
 73
     1
 72
     2
 10
29.57063068585603
 20
-31.4732227332475
 40
1.458034083652027
 50
297.5481481757056
 51
422.4518518242976
 73
     1
 72
     2
 10
29.28969079402285
 20
-32.01179774355029
 40
2.065479772208689
 50
62.45185182430824
 51
117.5481481756674
 73
     1
 97
        4
330
1A2
330
19F
330
1A1
330
1A0
 92
       16
 93
        4
 72
     2
 10
29.28969079402285
 20
-31.31649155512696
 40
0.5179085730132779
 50
38.12041979716494
 51
141.8795802028569
 73
     1
 72
     2
 10
29.48943083036883
 20
-31.4732227332475
 40
0.7717997786795504
 50
141.8795802028276
 51
218.1204197971618
 73
     1
 72
     2
 10
29.28969079402285
 20
-31.62995391136735
 40
0.5179085730138452
 50
218.1204197971876
 51
321.8795802027906
 73
     1
 72
     2
 10
29.08995075767643
 20
-31.4732227332475
 40
0.7717997786795335
 50
321.8795802028437
 51
398.1204197971668
 73
     1
 97
        4
330
185
330
186
330
187
330
184
 75
     1
 76
     2
 52
45.0
 41
0.1
 77
     0
 78
     1
 53
45.0
 43
62.7811309658083
 44
-72.3161373035813
 45
-0.1414213562373095
 46
0.0
 79
     0
 98
        1
 10
0.0
 20
0.0
  0
HATCH
  5
1F1
330
76
100
AcDbEntity
  8
1
  6
Continuous
 62
     2
100
AcDbHatch
 10
0.0
 20
0.0
 30
0.0
210
0.0
220
0.0
230
1.0
  2
CUSTOM9
 70
     0
 71
     1
 91
        2
 92
        1
 93
        4
 72
     2
 10
29.00875090218943
 20
-31.4732227332475
 40
1.458034083651613
 50
117.5481481756596
 51
242.4518518243372
 73
     1
 72
     2
 10
29.28969079402285
 20
-30.93464772294408
 40
2.065479772208634
 50
242.4518518243384
 51
297.5481481756859
 73
     1
 72
     2
 10
29.57063068585603
 20
-31.4732227332475
 40
1.458034083652027
 50
297.5481481757056
 51
422.4518518242976
 73
     1
 72
     2
 10
29.28969079402285
 20
-32.01179774355029
 40
2.065479772208689
 50
62.45185182430824
 51
117.5481481756674
 73
     1
 97
        4
330
1A2
330
19F
330
1A1
330
1A0
 92
       16
 93
        4
 72
     2
 10
29.28969079402285
 20
-31.31649155512696
 40
0.5179085730132779
 50
38.12041979716494
 51
141.8795802028569
 73
     1
 72
     2
 10
29.48943083036883
 20
-31.4732227332475
 40
0.7717997786795504
 50
141.8795802028276
 51
218.1204197971618
 73
     1
 72
     2
 10
29.28969079402285
 20
-31.62995391136735
 40
0.5179085730138452
 50
218.1204197971876
 51
321.8795802027906
 73
     1
 72
     2
 10
29.08995075767643
 20
-31.4732227332475
 40
0.7717997786795335
 50
321.8795802028437
 51
398.1204197971668
 73
     1
 97
        4
330
185
330
186
330
187
330
184
 75
     1
 76
     2
 52
45.0
 41
0.1
 77
     0
 78
     1
 53
45.0
 43
62.7811309658083
 44
-72.3161373035813
 45
-0.1414213562373095
 46
0.0
 79
     0
 98
        1
 10
0.0
 20
0.0
  0
HATCH
  5
1F2
330
76
100
AcDbEntity
  8
1
  6
Continuous
 62
     2
100
AcDbHatch
 10
0.0
 20
0.0
 30
0.0
210
0.0
220
0.0
230
1.0
  2
CUSTOM10
 70
     0
 71
     1
 91
        2
 92
        1
 93
        6
 72
     1
 10
24.73387604762934
 20
-26.58712749516729
 11
24.73387604762934
 21
-29.64093701897838
 72
     1
 10
24.73387604762934
 20
-29.64093701897838
 11
25.97438045788334
 21
-29.64093701897838
 72
     1
 10
25.97438045788334
 20
-29.64093701897838
 11
25.97438045788334
 21
-28.69785877783465
 72
     1
 10
25.97438045788334
 20
-28.69785877783465
 11
26.73314804566374
 21
-28.69785877783465
 72
     2
 10
26.73314804566374
 20
-27.642493136501
 40
1.055365641333651
 50
270.0
 51
450.0
 73
     1
 72
     1
 10
26.73314804566374
 20
-26.58712749516729
 11
24.73387604762934
 21
-26.58712749516729
 97
        6
330
1AC
330
139
330
12F
330
12E
330
13B
330
13A
 92
       16
 93
        4
 72
     1
 10
26.29167551942535
 20
-27.25023334060728
 11
25.97438045788334
 21
-27.25023334060728
 72
     1
 10
25.97438045788334
 20
-27.25023334060728
 11
25.97438045788334
 21
-27.95596098994957
 72
     1
 10
25.97438045788334
 20
-27.95596098994957
 11
26.29167551942535
 21
-27.95596098994957
 72
     2
 10
26.29167551942535
 20
-27.60309716527848
 40
0.3528638246710898
 50
270.0
 51
450.0
 73
     1
 97
        4
330
13C
330
12D
330
13D
330
198
 75
     1
 76
     2
 52
45.0
 41
0.1
 77
     0
 78
     1
 53
45.0
 43
62.7811309658083
 44
-72.3161373035813
 45
-0.1414213562373095
 46
0.0
 79
     0
 98
        1
 10
0.0
 20
0.0
  0
HATCH
  5
1F3
330
76
100
AcDbEntity
  8
1
  6
Continuous
 62
     2
100
AcDbHatch
 10
0.0
 20
0.0
 30
0.0
210
0.0
220
0.0
230
1.0
  2
CUSTOM11
 70
     0
 71
     1
 91
        2
 92
        1
 93
        6
 72
     1
 10
24.73387604762934
 20
-26.58712749516729
 11
24.73387604762934
 21
-29.64093701897838
 72
     1
 10
24.73387604762934
 20
-29.64093701897838
 11
25.97438045788334
 21
-29.64093701897838
 72
     1
 10
25.97438045788334
 20
-29.64093701897838
 11
25.97438045788334
 21
-28.69785877783465
 72
     1
 10
25.97438045788334
 20
-28.69785877783465
 11
26.73314804566374
 21
-28.69785877783465
 72
     2
 10
26.73314804566374
 20
-27.642493136501
 40
1.055365641333651
 50
270.0
 51
450.0
 73
     1
 72
     1
 10
26.73314804566374
 20
-26.58712749516729
 11
24.73387604762934
 21
-26.58712749516729
 97
        6
330
1AC
330
139
330
12F
330
12E
330
13B
330
13A
 92
       16
 93
        4
 72
     1
 10
26.29167551942535
 20
-27.25023334060728
 11
25.97438045788334
 21
-27.25023334060728
 72
     1
 10
25.97438045788334
 20
-27.25023334060728
 11
25.97438045788334
 21
-27.95596098994957
 72
     1
 10
25.97438045788334
 20
-27.95596098994957
 11
26.29167551942535
 21
-27.95596098994957
 72
     2
 10
26.29167551942535
 20
-27.60309716527848
 40
0.3528638246710898
 50
270.0
 51
450.0
 73
     1
 97
        4
330
13C
330
12D
330
13D
330
198
 75
     1
 76
     2
 52
45.0
 41
0.1
 77
     0
 78
     1
 53
45.0
 43
62.7811309658083
 44
-72.3161373035813
 45
-0.1414213562373095
 46
0.0
 79
     0
 98
        1
 10
0.0
 20
0.0
  0
HATCH
  5
1F4
330
76
100
AcDbEntity
  8
1
  6
Continuous
 62
     2
100
AcDbHatch
 10
0.0
 20
0.0
 30
0.0
210
0.0
220
0.0
230
1.0
  2
CUSTOM12
 70
     0
 71
     1
 91
        1
 92
        1
 93
       12
 72
     1
 10
44.34815924206254
 20
-26.58712749516729
 11
45.75088345980976
 21
-26.58712749516729
 72
     1
 10
45.75088345980976
 20
-26.58712749516729
 11
44.44835382904316
 21
-28.0600780252035
 72
     1
 10
44.44835382904316
 20
-28.0600780252035
 11
45.84630687598343
 21
-29.64093701897838
 72
     1
 10
45.84630687598343
 20
-29.64093701897838
 11
44.44358265823513
 21
-29.64093701897838
 72
     1
 10
44.44358265823513
 20
-29.64093701897838
 11
43.74699172016975
 21
-28.85320523368466
 72
     1
 10
43.74699172016975
 20
-28.85320523368466
 11
43.05040078210394
 21
-29.64093701897838
 72
     1
 10
43.05040078210394
 20
-29.64093701897838
 11
41.64767656435583
 21
-29.64093701897838
 72
     1
 10
41.64767656435583
 20
-29.64093701897838
 11
43.04562961129614
 21
-28.0600780252035
 72
     1
 10
43.04562961129614
 20
-28.0600780252035
 11
41.74309998052866
 21
-26.58712749516729
 72
     1
 10
41.74309998052866
 20
-26.58712749516729
 11
43.14582419827784
 21
-26.58712749516729
 72
     1
 10
43.14582419827784
 20
-26.58712749516729
 11
43.74699172016975
 21
-27.26695081672278
 72
     1
 10
43.74699172016975
 20
-27.26695081672278
 11
44.34815924206254
 21
-26.58712749516729
 97
       12
330
108
330
161
330
160
330
15F
330
15E
330
109
330
10A
330
106
330
107
330
164
330
163
330
162
 75
     1
 76
     2
 52
45.0
 41
0.1
 77
     0
 78
     1
 53
45.0
 43
62.7811309658083
 44
-72.3161373035813
 45
-0.1414213562373095
 46
0.0
 79
     0
 98
        1
 10
0.0
 20
0.0
  0
HATCH
  5
1F5
330
76
100
AcDbEntity
  8
1
  6
Continuous
 62
     2
100
AcDbHatch
 10
0.0
 20
0.0
 30
0.0
210
0.0
220
0.0
230
1.0
  2
CUSTOM13
 70
     0
 71
     1
 91
        1
 92
        1
 93
       12
 72
     1
 10
44.34815924206254
 20
-26.58712749516729
 11
45.75088345980976
 21
-26.58712749516729
 72
     1
 10
45.75088345980976
 20
-26.58712749516729
 11
44.44835382904316
 21
-28.0600780252035
 72
     1
 10
44.44835382904316
 20
-28.0600780252035
 11
45.84630687598343
 21
-29.64093701897838
 72
     1
 10
45.84630687598343
 20
-29.64093701897838
 11
44.44358265823513
 21
-29.64093701897838
 72
     1
 10
44.44358265823513
 20
-29.64093701897838
 11
43.74699172016975
 21
-28.85320523368466
 72
     1
 10
43.74699172016975
 20
-28.85320523368466
 11
43.05040078210394
 21
-29.64093701897838
 72
     1
 10
43.05040078210394
 20
-29.64093701897838
 11
41.64767656435583
 21
-29.64093701897838
 72
     1
 10
41.64767656435583
 20
-29.64093701897838
 11
43.04562961129614
 21
-28.0600780252035
 72
     1
 10
43.04562961129614
 20
-28.0600780252035
 11
41.74309998052866
 21
-26.58712749516729
 72
     1
 10
41.74309998052866
 20
-26.58712749516729
 11
43.14582419827784
 21
-26.58712749516729
 72
     1
 10
43.14582419827784
 20
-26.58712749516729
 11
43.74699172016975
 21
-27.26695081672278
 72
     1
 10
43.74699172016975
 20
-27.26695081672278
 11
44.34815924206254
 21
-26.58712749516729
 97
       12
330
108
330
161
330
160
330
15F
330
15E
330
109
330
10A
330
106
330
107
330
164
330
163
330
162
 75
     1
 76
     2
 52
45.0
 41
0.1
 77
     0
 78
     1
 53
45.0
 43
62.7811309658083
 44
-72.3161373035813
 45
-0.1414213562373095
 46
0.0
 79
     0
 98
        1
 10
0.0
 20
0.0
  0
HATCH
  5
1F6
330
76
100
AcDbEntity
  8
1
  6
Continuous
 62
     2
100
AcDbHatch
 10
0.0
 20
0.0
 30
0.0
210
0.0
220
0.0
230
1.0
  2
CUSTOM14
 70
     0
 71
     1
 91
        1
 92
        1
 93
        4
 72
     1
 10
41.52839729413896
 20
-26.58712749516729
 11
41.52839729413896
 21
-29.64093701897838
 72
     1
 10
41.52839729413896
 20
-29.64093701897838
 11
40.28789288388603
 21
-29.64093701897838
 72
     1
 10
40.28789288388603
 20
-29.64093701897838
 11
40.28789288388603
 21
-26.58712749516729
 72
     1
 10
40.28789288388603
 20
-26.58712749516729
 11
41.52839729413896
 21
-26.58712749516729
 97
        4
330
15C
330
10B
330
15B
330
15D
 75
     1
 76
     2
 52
45.0
 41
0.1
 77
     0
 78
     1
 53
45.0
 43
62.7811309658083
 44
-72.3161373035813
 45
-0.1414213562373095
 46
0.0
 79
     0
 98
        1
 10
0.0
 20
0.0
  0
HATCH
  5
1F7
330
76
100
AcDbEntity
  8
1
  6
Continuous
 62
     2
100
AcDbHatch
 10
0.0
 20
0.0
 30
0.0
210
0.0
220
0.0
230
1.0
  2
CUSTOM15
 70
     0
 71
     1
 91
        1
 92
        1
 93
        4
 72
     1
 10
41.52839729413896
 20
-26.58712749516729
 11
41.52839729413896
 21
-29.64093701897838
 72
     1
 10
41.52839729413896
 20
-29.64093701897838
 11
40.28789288388603
 21
-29.64093701897838
 72
     1
 10
40.28789288388603
 20
-29.64093701897838
 11
40.28789288388603
 21
-26.58712749516729
 72
     1
 10
40.28789288388603
 20
-26.58712749516729
 11
41.52839729413896
 21
-26.58712749516729
 97
        4
330
15C
330
10B
330
15B
330
15D
 75
     1
 76
     2
 52
45.0
 41
0.1
 77
     0
 78
     1
 53
45.0
 43
62.7811309658083
 44
-72.3161373035813
 45
-0.1414213562373095
 46
0.0
 79
     0
 98
        1
 10
0.0
 20
0.0
  0
HATCH
  5
1F8
330
76
100
AcDbEntity
  8
1
  6
Continuous
 62
     2
100
AcDbHatch
 10
0.0
 20
0.0
 30
0.0
210
0.0
220
0.0
230
1.0
  2
CUSTOM16
 70
     0
 71
     1
 91
        2
 92
        1
 93
        8
 72
     1
 10
41.13795329060693
 20
-33.0001274951527
 11
39.89744888035304
 21
-33.0001274951527
 72
     1
 10
39.89744888035304
 20
-33.0001274951527
 11
39.68596882687726
 21
-32.4591669509349
 72
     1
 10
39.68596882687726
 20
-32.4591669509349
 11
38.55352725020333
 21
-32.4591669509349
 72
     1
 10
38.55352725020333
 20
-32.4591669509349
 11
38.34204719672755
 21
-33.0001274951527
 72
     1
 10
38.34204719672755
 20
-33.0001274951527
 11
37.10154278647465
 21
-33.0001274951527
 72
     1
 10
37.10154278647465
 20
-33.0001274951527
 11
38.49949583341385
 21
-29.94631797134156
 72
     1
 10
38.49949583341385
 20
-29.94631797134156
 11
39.74000024366666
 21
-29.94631797134156
 72
     1
 10
39.74000024366666
 20
-29.94631797134156
 11
41.13795329060693
 21
-33.0001274951527
 97
        8
330
157
330
111
330
156
330
159
330
10E
330
158
330
10F
330
110
 92
       16
 93
        3
 72
     1
 10
38.81958280134845
 20
-31.7786036856283
 11
39.41991327573095
 21
-31.7786036856283
 72
     1
 10
39.41991327573095
 20
-31.7786036856283
 11
39.11974803854074
 21
-31.0107887196416
 72
     1
 10
39.11974803854074
 20
-31.0107887196416
 11
38.81958280134845
 21
-31.7786036856283
 97
        3
330
10D
330
10C
330
15A
 75
     1
 76
     2
 52
45.0
 41
0.1
 77
     0
 78
     1
 53
45.0
 43
62.7811309658083
 44
-72.3161373035813
 45
-0.1414213562373095
 46
0.0
 79
     0
 98
        1
 10
0.0
 20
0.0
  0
HATCH
  5
1F9
330
76
100
AcDbEntity
  8
1
  6
Continuous
 62
     2
100
AcDbHatch
 10
0.0
 20
0.0
 30
0.0
210
0.0
220
0.0
230
1.0
  2
CUSTOM17
 70
     0
 71
     1
 91
        2
 92
        1
 93
        8
 72
     1
 10
41.13795329060693
 20
-33.0001274951527
 11
39.89744888035304
 21
-33.0001274951527
 72
     1
 10
39.89744888035304
 20
-33.0001274951527
 11
39.68596882687726
 21
-32.4591669509349
 72
     1
 10
39.68596882687726
 20
-32.4591669509349
 11
38.55352725020333
 21
-32.4591669509349
 72
     1
 10
38.55352725020333
 20
-32.4591669509349
 11
38.34204719672755
 21
-33.0001274951527
 72
     1
 10
38.34204719672755
 20
-33.0001274951527
 11
37.10154278647465
 21
-33.0001274951527
 72
     1
 10
37.10154278647465
 20
-33.0001274951527
 11
38.49949583341385
 21
-29.94631797134156
 72
     1
 10
38.49949583341385
 20
-29.94631797134156
 11
39.74000024366666
 21
-29.94631797134156
 72
     1
 10
39.74000024366666
 20
-29.94631797134156
 11
41.13795329060693
 21
-33.0001274951527
 97
        8
330
157
330
111
330
156
330
159
330
10E
330
158
330
10F
330
110
 92
       16
 93
        3
 72
     1
 10
38.81958280134845
 20
-31.7786036856283
 11
39.41991327573095
 21
-31.7786036856283
 72
     1
 10
39.41991327573095
 20
-31.7786036856283
 11
39.11974803854074
 21
-31.0107887196416
 72
     1
 10
39.11974803854074
 20
-31.0107887196416
 11
38.81958280134845
 21
-31.7786036856283
 97
        3
330
10D
330
10C
330
15A
 75
     1
 76
     2
 52
45.0
 41
0.1
 77
     0
 78
     1
 53
45.0
 43
62.7811309658083
 44
-72.3161373035813
 45
-0.1414213562373095
 46
0.0
 79
     0
 98
        1
 10
0.0
 20
0.0
  0
HATCH
  5
1FA
330
76
100
AcDbEntity
  8
1
  6
Continuous
 62
     2
100
AcDbHatch
 10
0.0
 20
0.0
 30
0.0
210
0.0
220
0.0
230
1.0
  2
CUSTOM18
 70
     0
 71
     1
 91
        1
 92
        1
 93
        8
 72
     1
 10
34.94403064729235
 20
-29.94631797134156
 11
34.94403064729235
 21
-30.73158327746529
 72
     1
 10
34.94403064729235
 20
-30.73158327746529
 11
35.75512968476704
 21
-30.73158327746529
 72
     1
 10
35.75512968476704
 20
-30.73158327746529
 11
35.75512968476704
 21
-33.0001274951527
 72
     1
 10
35.75512968476704
 20
-33.0001274951527
 11
36.94792238693344
 21
-33.0001274951527
 72
     1
 10
36.94792238693344
 20
-33.0001274951527
 11
36.94792238693344
 21
-30.73158327746529
 72
     1
 10
36.94792238693344
 20
-30.73158327746529
 11
37.75902142440606
 21
-30.73158327746529
 72
     1
 10
37.75902142440606
 20
-30.73158327746529
 11
37.75902142440606
 21
-29.94631797134156
 72
     1
 10
37.75902142440606
 20
-29.94631797134156
 11
34.94403064729235
 21
-29.94631797134156
 97
        8
330
153
330
152
330
151
330
112
330
113
330
155
330
114
330
154
 75
     1
 76
     2
 52
45.0
 41
0.1
 77
     0
 78
     1
 53
45.0
 43
62.7811309658083
 44
-72.3161373035813
 45
-0.1414213562373095
 46
0.0
 79
     0
 98
        1
 10
0.0
 20
0.0
  0
HATCH
  5
1FB
330
76
100
AcDbEntity
  8
1
  6
Continuous
 62
     2
100
AcDbHatch
 10
0.0
 20
0.0
 30
0.0
210
0.0
220
0.0
230
1.0
  2
CUSTOM19
 70
     0
 71
     1
 91
        1
 92
        1
 93
        8
 72
     1
 10
34.94403064729235
 20
-29.94631797134156
 11
34.94403064729235
 21
-30.73158327746529
 72
     1
 10
34.94403064729235
 20
-30.73158327746529
 11
35.75512968476704
 21
-30.73158327746529
 72
     1
 10
35.75512968476704
 20
-30.73158327746529
 11
35.75512968476704
 21
-33.0001274951527
 72
     1
 10
35.75512968476704
 20
-33.0001274951527
 11
36.94792238693344
 21
-33.0001274951527
 72
     1
 10
36.94792238693344
 20
-33.0001274951527
 11
36.94792238693344
 21
-30.73158327746529
 72
     1
 10
36.94792238693344
 20
-30.73158327746529
 11
37.75902142440606
 21
-30.73158327746529
 72
     1
 10
37.75902142440606
 20
-30.73158327746529
 11
37.75902142440606
 21
-29.94631797134156
 72
     1
 10
37.75902142440606
 20
-29.94631797134156
 11
34.94403064729235
 21
-29.94631797134156
 97
        8
330
153
330
152
330
151
330
112
330
113
330
155
330
114
330
154
 75
     1
 76
     2
 52
45.0
 41
0.1
 77
     0
 78
     1
 53
45.0
 43
62.7811309658083
 44
-72.3161373035813
 45
-0.1414213562373095
 46
0.0
 79
     0
 98
        1
 10
0.0
 20
0.0
  0
HATCH
  5
1FC
330
76
100
AcDbEntity
  8
1
  6
Continuous
 62
     2
100
AcDbHatch
 10
0.0
 20
0.0
 30
0.0
210
0.0
220
0.0
230
1.0
  2
CUSTOM20
 70
     0
 71
     1
 91
        1
 92
        1
 93
       10
 72
     1
 10
37.61603723103144
 20
-26.58712749516729
 11
36.42324452886504
 21
-26.58712749516729
 72
     1
 10
36.42324452886504
 20
-26.58712749516729
 11
36.42324452886504
 21
-29.64093701897838
 72
     1
 10
36.42324452886504
 20
-29.64093701897838
 11
37.61603723103144
 21
-29.64093701897838
 72
     1
 10
37.61603723103144
 20
-29.64093701897838
 11
37.61603723103144
 21
-28.33216150877365
 72
     1
 10
37.61603723103144
 20
-28.33216150877365
 11
38.85654164128553
 21
-29.64093701897838
 72
     1
 10
38.85654164128553
 20
-29.64093701897838
 11
40.04933434345213
 21
-29.64093701897838
 72
     1
 10
40.04933434345213
 20
-29.64093701897838
 11
40.04933434345213
 21
-26.58712749516729
 72
     1
 10
40.04933434345213
 20
-26.58712749516729
 11
38.85654164128553
 21
-26.58712749516729
 72
     1
 10
38.85654164128553
 20
-26.58712749516729
 11
38.85654164128553
 21
-27.89590300537236
 72
     1
 10
38.85654164128553
 20
-27.89590300537236
 11
37.61603723103144
 21
-26.58712749516729
 97
       10
330
14D
330
117
330
118
330
119
330
11A
330
150
330
115
330
14F
330
14E
330
116
 75
     1
 76
     2
 52
45.0
 41
0.1
 77
     0
 78
     1
 53
45.0
 43
62.7811309658083
 44
-72.3161373035813
 45
-0.1414213562373095
 46
0.0
 79
     0
 98
        1
 10
0.0
 20
0.0
  0
HATCH
  5
1FD
330
76
100
AcDbEntity
  8
1
  6
Continuous
 62
     2
100
AcDbHatch
 10
0.0
 20
0.0
 30
0.0
210
0.0
220
0.0
230
1.0
  2
CUSTOM21
 70
     0
 71
     1
 91
        1
 92
        1
 93
       10
 72
     1
 10
37.61603723103144
 20
-26.58712749516729
 11
36.42324452886504
 21
-26.58712749516729
 72
     1
 10
36.42324452886504
 20
-26.58712749516729
 11
36.42324452886504
 21
-29.64093701897838
 72
     1
 10
36.42324452886504
 20
-29.64093701897838
 11
37.61603723103144
 21
-29.64093701897838
 72
     1
 10
37.61603723103144
 20
-29.64093701897838
 11
37.61603723103144
 21
-28.33216150877365
 72
     1
 10
37.61603723103144
 20
-28.33216150877365
 11
38.85654164128553
 21
-29.64093701897838
 72
     1
 10
38.85654164128553
 20
-29.64093701897838
 11
40.04933434345213
 21
-29.64093701897838
 72
     1
 10
40.04933434345213
 20
-29.64093701897838
 11
40.04933434345213
 21
-26.58712749516729
 72
     1
 10
40.04933434345213
 20
-26.58712749516729
 11
38.85654164128553
 21
-26.58712749516729
 72
     1
 10
38.85654164128553
 20
-26.58712749516729
 11
38.85654164128553
 21
-27.89590300537236
 72
     1
 10
38.85654164128553
 20
-27.89590300537236
 11
37.61603723103144
 21
-26.58712749516729
 97
       10
330
14D
330
117
330
118
330
119
330
11A
330
150
330
115
330
14F
330
14E
330
116
 75
     1
 76
     2
 52
45.0
 41
0.1
 77
     0
 78
     1
 53
45.0
 43
62.7811309658083
 44
-72.3161373035813
 45
-0.1414213562373095
 46
0.0
 79
     0
 98
        1
 10
0.0
 20
0.0
  0
HATCH
  5
1FE
330
76
100
AcDbEntity
  8
1
  6
Continuous
 62
     2
100
AcDbHatch
 10
0.0
 20
0.0
 30
0.0
210
0.0
220
0.0
230
1.0
  2
CUSTOM22
 70
     0
 71
     1
 91
        1
 92
        1
 93
       10
 72
     1
 10
32.36759841061286
 20
-29.94631797134156
 11
31.17480570844535
 21
-29.94631797134156
 72
     1
 10
31.17480570844535
 20
-29.94631797134156
 11
31.17480570844535
 21
-33.0001274951527
 72
     1
 10
31.17480570844535
 20
-33.0001274951527
 11
32.36759841061286
 21
-33.0001274951527
 72
     1
 10
32.36759841061286
 20
-33.0001274951527
 11
32.36759841061286
 21
-31.6913519849482
 72
     1
 10
32.36759841061286
 20
-31.6913519849482
 11
33.60810282086584
 21
-33.0001274951527
 72
     1
 10
33.60810282086584
 20
-33.0001274951527
 11
34.80089552303224
 21
-33.0001274951527
 72
     1
 10
34.80089552303224
 20
-33.0001274951527
 11
34.80089552303224
 21
-29.94631797134156
 72
     1
 10
34.80089552303224
 20
-29.94631797134156
 11
33.60810282086584
 21
-29.94631797134156
 72
     1
 10
33.60810282086584
 20
-29.94631797134156
 11
33.60810282086584
 21
-31.25509348154679
 72
     1
 10
33.60810282086584
 20
-31.25509348154679
 11
32.36759841061286
 21
-29.94631797134156
 97
       10
330
11C
330
11D
330
11E
330
14A
330
11F
330
120
330
149
330
14C
330
14B
330
11B
 75
     1
 76
     2
 52
45.0
 41
0.1
 77
     0
 78
     1
 53
45.0
 43
62.7811309658083
 44
-72.3161373035813
 45
-0.1414213562373095
 46
0.0
 79
     0
 98
        1
 10
0.0
 20
0.0
  0
HATCH
  5
1FF
330
76
100
AcDbEntity
  8
1
  6
Continuous
 62
     2
100
AcDbHatch
 10
0.0
 20
0.0
 30
0.0
210
0.0
220
0.0
230
1.0
  2
CUSTOM23
 70
     0
 71
     1
 91
        1
 92
        1
 93
       10
 72
     1
 10
32.36759841061286
 20
-29.94631797134156
 11
31.17480570844535
 21
-29.94631797134156
 72
     1
 10
31.17480570844535
 20
-29.94631797134156
 11
31.17480570844535
 21
-33.0001274951527
 72
     1
 10
31.17480570844535
 20
-33.0001274951527
 11
32.36759841061286
 21
-33.0001274951527
 72
     1
 10
32.36759841061286
 20
-33.0001274951527
 11
32.36759841061286
 21
-31.6913519849482
 72
     1
 10
32.36759841061286
 20
-31.6913519849482
 11
33.60810282086584
 21
-33.0001274951527
 72
     1
 10
33.60810282086584
 20
-33.0001274951527
 11
34.80089552303224
 21
-33.0001274951527
 72
     1
 10
34.80089552303224
 20
-33.0001274951527
 11
34.80089552303224
 21
-29.94631797134156
 72
     1
 10
34.80089552303224
 20
-29.94631797134156
 11
33.60810282086584
 21
-29.94631797134156
 72
     1
 10
33.60810282086584
 20
-29.94631797134156
 11
33.60810282086584
 21
-31.25509348154679
 72
     1
 10
33.60810282086584
 20
-31.25509348154679
 11
32.36759841061286
 21
-29.94631797134156
 97
       10
330
11C
330
11D
330
11E
330
14A
330
11F
330
120
330
149
330
14C
330
14B
330
11B
 75
     1
 76
     2
 52
45.0
 41
0.1
 77
     0
 78
     1
 53
45.0
 43
62.7811309658083
 44
-72.3161373035813
 45
-0.1414213562373095
 46
0.0
 79
     0
 98
        1
 10
0.0
 20
0.0
  0
HATCH
  5
200
330
76
100
AcDbEntity
  8
1
  6
Continuous
 62
     2
100
AcDbHatch
 10
0.0
 20
0.0
 30
0.0
210
0.0
220
0.0
230
1.0
  2
CUSTOM24
 70
     0
 71
     1
 91
        1
 92
        1
 93
       12
 72
     1
 10
31.36580347167754
 20
-26.58712749516729
 11
31.36580347167754
 21
-29.64093701897838
 72
     1
 10
31.36580347167754
 20
-29.64093701897838
 11
30.17301076951105
 21
-29.64093701897838
 72
     1
 10
30.17301076951105
 20
-29.64093701897838
 11
30.17301076951105
 21
-28.5066649101347
 72
     1
 10
30.17301076951105
 20
-28.5066649101347
 11
29.12335319160366
 21
-28.5066649101347
 72
     1
 10
29.12335319160366
 20
-28.5066649101347
 11
29.12335319160366
 21
-29.64093701897838
 72
     1
 10
29.12335319160366
 20
-29.64093701897838
 11
27.93056048943706
 21
-29.64093701897838
 72
     1
 10
27.93056048943706
 20
-29.64093701897838
 11
27.93056048943706
 21
-26.58712749516729
 72
     1
 10
27.93056048943706
 20
-26.58712749516729
 11
29.12335319160366
 21
-26.58712749516729
 72
     1
 10
29.12335319160366
 20
-26.58712749516729
 11
29.12335319160366
 21
-27.65596082850186
 72
     1
 10
29.12335319160366
 20
-27.65596082850186
 11
30.17301076951105
 21
-27.65596082850186
 72
     1
 10
30.17301076951105
 20
-27.65596082850186
 11
30.17301076951105
 21
-26.58712749516729
 72
     1
 10
30.17301076951105
 20
-26.58712749516729
 11
31.36580347167754
 21
-26.58712749516729
 97
       12
330
144
330
143
330
142
330
12A
330
12B
330
141
330
12C
330
140
330
13F
330
13E
330
128
330
129
 75
     1
 76
     2
 52
45.0
 41
0.1
 77
     0
 78
     1
 53
45.0
 43
62.7811309658083
 44
-72.3161373035813
 45
-0.1414213562373095
 46
0.0
 79
     0
 98
        1
 10
0.0
 20
0.0
  0
HATCH
  5
201
330
76
100
AcDbEntity
  8
1
  6
Continuous
 62
     2
100
AcDbHatch
 10
0.0
 20
0.0
 30
0.0
210
0.0
220
0.0
230
1.0
  2
CUSTOM25
 70
     0
 71
     1
 91
        1
 92
        1
 93
       12
 72
     1
 10
31.36580347167754
 20
-26.58712749516729
 11
31.36580347167754
 21
-29.64093701897838
 72
     1
 10
31.36580347167754
 20
-29.64093701897838
 11
30.17301076951105
 21
-29.64093701897838
 72
     1
 10
30.17301076951105
 20
-29.64093701897838
 11
30.17301076951105
 21
-28.5066649101347
 72
     1
 10
30.17301076951105
 20
-28.5066649101347
 11
29.12335319160366
 21
-28.5066649101347
 72
     1
 10
29.12335319160366
 20
-28.5066649101347
 11
29.12335319160366
 21
-29.64093701897838
 72
     1
 10
29.12335319160366
 20
-29.64093701897838
 11
27.93056048943706
 21
-29.64093701897838
 72
     1
 10
27.93056048943706
 20
-29.64093701897838
 11
27.93056048943706
 21
-26.58712749516729
 72
     1
 10
27.93056048943706
 20
-26.58712749516729
 11
29.12335319160366
 21
-26.58712749516729
 72
     1
 10
29.12335319160366
 20
-26.58712749516729
 11
29.12335319160366
 21
-27.65596082850186
 72
     1
 10
29.12335319160366
 20
-27.65596082850186
 11
30.17301076951105
 21
-27.65596082850186
 72
     1
 10
30.17301076951105
 20
-27.65596082850186
 11
30.17301076951105
 21
-26.58712749516729
 72
     1
 10
30.17301076951105
 20
-26.58712749516729
 11
31.36580347167754
 21
-26.58712749516729
 97
       12
330
144
330
143
330
142
330
12A
330
12B
330
141
330
12C
330
140
330
13F
330
13E
330
128
330
129
 75
     1
 76
     2
 52
45.0
 41
0.1
 77
     0
 78
     1
 53
45.0
 43
62.7811309658083
 44
-72.3161373035813
 45
-0.1414213562373095
 46
0.0
 79
     0
 98
        1
 10
0.0
 20
0.0
  0
ENDBLK
  5
78
330
76
100
AcDbEntity
  8
0
100
AcDbBlockEnd
  0
BLOCK
  5
7A
330
79
100
AcDbEntity
  8
0
100
AcDbBlockBegin
  2
_punkt
 70
     0
 10
143.2431072854663
 20
-40.29362749516901
 30
0.0
  3
_punkt
  1

  0
LINE
  5
202
330
79
100
AcDbEntity
  8
1
  6
Continuous
 62
     2
100
AcDbLine
 10
143.2431072854664
 20
-40.29362749516901
 30
0.0
 11
143.2431072854664
 21
-45.29362749516849
 31
0.0
  0
LINE
  5
203
330
79
100
AcDbEntity
  8
1
  6
Continuous
 62
     2
100
AcDbLine
 10
143.2431072854664
 20
-40.29362749516901
 30
0.0
 11
148.243107285464
 21
-40.29362749516901
 31
0.0
  0
ENDBLK
  5
7B
330
79
100
AcDbEntity
  8
0
100
AcDbBlockEnd
  0
BLOCK
  5
7F
330
7C
100
AcDbEntity
  8
0
100
AcDbBlockBegin
  2
A3I_CS
 70
     0
 10
143.2431072854664
 20
-45.29362749516849
 30
0.0
  3
A3I_CS
  1

  0
INSERT
  5
7D
330
7C
100
AcDbEntity
  8
1
100
AcDbBlockReference
  2
_rahmen
 10
143.2431072854664
 20
-45.29362749516849
 30
0.0
  0
INSERT
  5
7E
330
7C
100
AcDbEntity
  8
1
100
AcDbBlockReference
  2
_punkt
 10
143.2431072854663
 20
-40.29362749516901
 30
0.0
  0
ENDBLK
  5
80
330
7C
100
AcDbEntity
  8
0
100
AcDbBlockEnd
  0
BLOCK
  5
82
330
81
100
AcDbEntity
  8
0
100
AcDbBlockBegin
  2
CES_STPG_GY_10-select__1
 70
     0
 10
38.26378361410519
 20
0.70776944311885
 30
0.0
  3
CES_STPG_GY_10-select__1
  1

  0
LINE
  5
204
330
81
100
AcDbEntity
  8
0
  6
Continuous
 62
     7
100
AcDbLine
 10
50.25823545651967
 20
1.49526944311946
 30
0.0
 11
50.25823545652389
 21
19.24879022069931
 31
0.0
  0
LINE
  5
205
330
81
100
AcDbEntity
  8
0
  6
Continuous
 62
     7
100
AcDbLine
 10
48.72343092374788
 20
27.44575572850357
 30
0.0
 11
51.58374784578088
 21
29.92286284585866
 31
0.0
  0
LINE
  5
206
330
81
100
AcDbEntity
  8
0
  6
Continuous
 62
     7
100
AcDbLine
 10
48.1046312677228
 20
31.13385282788177
 30
0.0
 11
51.58374784578088
 21
29.92286284585866
 31
0.0
  0
LINE
  5
207
330
81
100
AcDbEntity
  8
0
  6
Continuous
 62
     7
100
AcDbLine
 10
50.83374784578034
 20
27.35021847155575
 30
0.0
 11
50.83374784577983
 21
25.49719856998877
 31
0.0
  0
LINE
  5
208
330
81
100
AcDbEntity
  8
0
  6
Continuous
 62
     7
100
AcDbLine
 10
50.44124815841616
 20
18.90728386975309
 30
0.0
 11
51.12426086030835
 21
18.99879022069909
 31
0.0
  0
LINE
  5
209
330
81
100
AcDbEntity
  8
0
  6
Continuous
 62
     7
100
AcDbLine
 10
50.83374784577983
 20
25.49719856998877
 30
0.0
 11
49.47343092374683
 21
24.31912955831034
 31
0.0
  0
LINE
  5
20A
330
81
100
AcDbEntity
  8
0
  6
Continuous
 62
     7
100
AcDbLine
 10
45.10113919077362
 20
28.5327523891785
 30
0.0
 11
45.10113919077301
 21
26.36164042501757
 31
0.0
  0
LINE
  5
20B
330
81
100
AcDbEntity
  8
0
  6
Continuous
 62
     7
100
AcDbLine
 10
45.85113919077254
 20
25.28213289763708
 30
0.0
 11
49.47343092374683
 21
24.31912955831034
 31
0.0
  0
LINE
  5
20C
330
81
100
AcDbEntity
  8
0
  6
Continuous
 62
     7
100
AcDbLine
 10
49.47343092374683
 20
24.31912955831034
 30
0.0
 11
49.47343092374734
 21
26.17214945987732
 31
0.0
  0
LINE
  5
20D
330
81
100
AcDbEntity
  8
0
  6
Continuous
 62
     7
100
AcDbLine
 10
45.10113919077362
 20
28.5327523891785
 30
0.0
 11
48.72343092374788
 21
27.44575572850357
 31
0.0
  0
LINE
  5
20E
330
81
100
AcDbEntity
  8
0
  6
Continuous
 62
     7
100
AcDbLine
 10
48.1046312677228
 20
31.13385282788177
 30
0.0
 11
45.10113919077362
 21
28.5327523891785
 31
0.0
  0
LINE
  5
20F
330
81
100
AcDbEntity
  8
0
  6
Continuous
 62
     7
100
AcDbLine
 10
50.25823545652389
 20
19.24879022069931
 30
0.0
 11
50.44124815841616
 21
18.90728386975309
 31
0.0
  0
LINE
  5
210
330
81
100
AcDbEntity
  8
0
  6
Continuous
 62
     7
100
AcDbLine
 10
51.31700298192288
 20
30.0157097943988
 30
0.0
 11
51.47788522924719
 21
30.15503790759958
 31
0.0
  0
LINE
  5
211
330
81
100
AcDbEntity
  8
0
  6
Continuous
 62
     7
100
AcDbLine
 10
51.47788522924843
 20
35.35119033030584
 30
0.0
 11
51.47788522924719
 21
30.15503790759958
 31
0.0
  0
LINE
  5
212
330
81
100
AcDbEntity
  8
0
  6
Continuous
 62
     7
100
AcDbLine
 10
51.47788522924843
 20
35.35119033030584
 30
0.0
 11
48.01378361411067
 21
36.35119033030668
 31
0.0
  0
LINE
  5
213
330
81
100
AcDbEntity
  8
0
  6
Continuous
 62
     7
100
AcDbLine
 10
38.26378361411068
 20
27.90744264340842
 30
0.0
 11
48.01378361411067
 21
36.35119033030668
 31
0.0
  0
LINE
  5
214
330
81
100
AcDbEntity
  8
0
  6
Continuous
 62
     7
100
AcDbLine
 10
52.98621547844482
 20
18.46129022069869
 30
0.0
 11
52.98621547844057
 21
0.70776944311885
 31
0.0
  0
LINE
  5
215
330
81
100
AcDbEntity
  8
0
  6
Continuous
 62
     7
100
AcDbLine
 10
52.98621547844482
 20
18.46129022069869
 30
0.0
 11
51.12426086030835
 21
18.99879022069909
 31
0.0
  0
LINE
  5
216
330
81
100
AcDbEntity
  8
0
  6
Continuous
 62
     7
100
AcDbLine
 10
53.6862500088975
 20
29.51753790759906
 30
0.0
 11
53.50323730700529
 21
29.85904425854527
 31
0.0
  0
LINE
  5
217
330
81
100
AcDbEntity
  8
0
  6
Continuous
 62
     7
100
AcDbLine
 10
53.50323730700529
 20
29.85904425854527
 30
0.0
 11
52.82022460511307
 21
29.76753790759926
 31
0.0
  0
LINE
  5
218
330
81
100
AcDbEntity
  8
0
  6
Continuous
 62
     7
100
AcDbLine
 10
38.26378361410519
 20
4.95776944312232
 30
0.0
 11
38.26378361411068
 21
27.90744264340842
 31
0.0
  0
LINE
  5
219
330
81
100
AcDbEntity
  8
0
  6
Continuous
 62
     7
100
AcDbLine
 10
49.47343092374734
 20
26.17214945987732
 30
0.0
 11
48.72343092374734
 21
25.52263040703897
 31
0.0
  0
LINE
  5
21A
330
81
100
AcDbEntity
  8
0
  6
Continuous
 62
     7
100
AcDbLine
 10
45.10113919077301
 20
26.36164042501757
 30
0.0
 11
48.72343092374734
 21
25.52263040703897
 31
0.0
  0
LINE
  5
21B
330
81
100
AcDbEntity
  8
0
  6
Continuous
 62
     7
100
AcDbLine
 10
48.72343092374734
 20
25.52263040703897
 30
0.0
 11
48.72343092374788
 21
27.44575572850357
 31
0.0
  0
LINE
  5
21C
330
81
100
AcDbEntity
  8
0
  6
Continuous
 62
     7
100
AcDbLine
 10
38.26378361411068
 20
27.90744264340842
 30
0.0
 11
41.72788522924844
 21
26.90744264340758
 31
0.0
  0
LINE
  5
21D
330
81
100
AcDbEntity
  8
0
  6
Continuous
 62
     7
100
AcDbLine
 10
45.8511391907728
 20
26.18792235925397
 30
0.0
 11
45.85113919077254
 21
25.28213289763708
 31
0.0
  0
LINE
  5
21E
330
81
100
AcDbEntity
  8
0
  6
Continuous
 62
     7
100
AcDbLine
 10
41.72788522924721
 20
21.71129022070133
 30
0.0
 11
41.72788522924844
 21
26.90744264340758
 31
0.0
  0
LINE
  5
21F
330
81
100
AcDbEntity
  8
0
  6
Continuous
 62
     7
100
AcDbLine
 10
41.72788522924721
 20
21.71129022070133
 30
0.0
 11
45.85113919077254
 21
25.28213289763708
 31
0.0
  0
LINE
  5
220
330
81
100
AcDbEntity
  8
0
  6
Continuous
 62
     7
100
AcDbLine
 10
50.25823545652389
 20
19.24879022069931
 30
0.0
 11
41.72788522924721
 21
21.71129022070133
 31
0.0
  0
LINE
  5
221
330
81
100
AcDbEntity
  8
0
  6
Continuous
 62
     7
100
AcDbLine
 10
51.12426086030835
 20
18.99879022069909
 30
0.0
 11
51.12426086030413
 21
1.24526944311926
 31
0.0
  0
LINE
  5
222
330
81
100
AcDbEntity
  8
0
  6
Continuous
 62
     7
100
AcDbLine
 10
51.47788522924719
 20
30.15503790759958
 30
0.0
 11
52.82022460511307
 21
29.76753790759926
 31
0.0
  0
LINE
  5
223
330
81
100
AcDbEntity
  8
0
  6
Continuous
 62
     7
100
AcDbLine
 10
51.58374784578088
 20
29.92286284585866
 30
0.0
 11
51.58374784578034
 21
27.99973752439408
 31
0.0
  0
LINE
  5
224
330
81
100
AcDbEntity
  8
0
  6
Continuous
 62
     7
100
AcDbLine
 10
51.58374784578034
 20
27.99973752439408
 30
0.0
 11
50.83374784578034
 21
27.35021847155575
 31
0.0
  0
LINE
  5
225
330
81
100
AcDbEntity
  8
0
  6
Continuous
 62
     7
100
AcDbLine
 10
50.44124815841616
 20
18.90728386975309
 30
0.0
 11
50.44124815841192
 21
1.15376309217324
 31
0.0
  0
LINE
  5
226
330
81
100
AcDbEntity
  8
0
  6
Continuous
 62
     7
100
AcDbLine
 10
52.98621547844482
 20
18.46129022069869
 30
0.0
 11
62.73621547844481
 21
26.90503790759695
 31
0.0
  0
LINE
  5
227
330
81
100
AcDbEntity
  8
0
  6
Continuous
 62
     7
100
AcDbLine
 10
53.6862500088975
 20
29.51753790759906
 30
0.0
 11
62.73621547844481
 21
26.90503790759695
 31
0.0
  0
LINE
  5
228
330
81
100
AcDbEntity
  8
0
  6
Continuous
 62
     7
100
AcDbLine
 10
62.73621547844057
 20
9.15151713001711
 30
0.0
 11
62.73621547844481
 21
26.90503790759695
 31
0.0
  0
LINE
  5
229
330
81
100
AcDbEntity
  8
0
  6
Continuous
 62
     7
100
AcDbLine
 10
42.91817749754053
 20
2.71054619285438
 30
0.0
 11
42.6070651049823
 21
3.70397207415918
 31
0.0
  0
LINE
  5
22A
330
81
100
AcDbEntity
  8
0
  6
Continuous
 62
     7
100
AcDbLine
 10
50.44124815841192
 20
1.15376309217324
 30
0.0
 11
51.12426086030413
 21
1.24526944311926
 31
0.0
  0
LINE
  5
22B
330
81
100
AcDbEntity
  8
0
  6
Continuous
 62
     7
100
AcDbLine
 10
52.98621547844057
 20
0.70776944311885
 30
0.0
 11
51.12426086030413
 21
1.24526944311926
 31
0.0
  0
LINE
  5
22C
330
81
100
AcDbEntity
  8
0
  6
Continuous
 62
     7
100
AcDbLine
 10
50.25823545651967
 20
1.49526944311946
 30
0.0
 11
50.44124815841192
 21
1.15376309217324
 31
0.0
  0
LINE
  5
22D
330
81
100
AcDbEntity
  8
0
  6
Continuous
 62
     7
100
AcDbLine
 10
62.73621547844057
 20
9.15151713001711
 30
0.0
 11
52.98621547844057
 21
0.70776944311885
 31
0.0
  0
LINE
  5
22E
330
81
100
AcDbEntity
  8
0
  6
Continuous
 62
     7
100
AcDbLine
 10
50.25823545651967
 20
1.49526944311946
 30
0.0
 11
38.26378361410519
 21
4.95776944312232
 31
0.0
  0
LINE
  5
22F
330
81
100
AcDbEntity
  8
0
  6
Continuous
 62
     7
100
AcDbLine
 10
41.72788522924844
 20
26.90744264340758
 30
0.0
 11
51.47788522924843
 21
35.35119033030584
 31
0.0
  0
SPLINE
  5
230
330
81
100
AcDbEntity
  8
0
  6
Continuous
 62
     7
100
AcDbSpline
210
0.0
220
0.0
230
1.0
 70
  1064
 71
     3
 72
    11
 73
     7
 74
     5
 42
0.000000001
 43
0.0000000001
 44
0.00000001
 40
0.0
 40
0.0
 40
0.0
 40
0.0
 40
0.3766024589415566
 40
0.6915266369969142
 40
0.9435619909942046
 40
1.151652787050256
 40
1.151652787050256
 40
1.151652787050256
 40
1.151652787050256
 10
50.42788522924771
 20
31.41077474308646
 30
0.0
 10
50.4234125816146
 20
31.53683321787699
 30
0.0
 10
50.41519978917273
 20
31.76830486822157
 30
0.0
 10
50.33446543687266
 20
32.07192349786871
 30
0.0
 10
50.20785524832345
 20
32.31105525346291
 30
0.0
 10
50.06806856543857
 20
32.38160543944085
 30
0.0
 10
50.00485041566208
 20
32.41351156286912
 30
0.0
 11
50.42788522924771
 21
31.41077474308646
 31
0.0
 11
50.39935435698304
 21
31.78629490953035
 31
0.0
 11
50.31547609807747
 21
32.08984338580215
 31
0.0
 11
50.1812879484588
 21
32.30318668761273
 31
0.0
 11
50.00485041566208
 21
32.41351156286912
 31
0.0
  0
SPLINE
  5
231
330
81
100
AcDbEntity
  8
0
  6
Continuous
 62
     7
100
AcDbSpline
210
0.0
220
0.0
230
1.0
 70
  1064
 71
     3
 72
     9
 73
     5
 74
     3
 42
0.000000001
 43
0.0000000001
 44
0.00000001
 40
0.0
 40
0.0
 40
0.0
 40
0.0
 40
0.5415267026532621
 40
1.04578065221668
 40
1.04578065221668
 40
1.04578065221668
 40
1.04578065221668
 10
50.27376209484596
 20
30.37883481040278
 30
0.0
 10
50.31828010818929
 20
30.55432327138701
 30
0.0
 10
50.40425198394583
 20
30.89322149780873
 30
0.0
 10
50.42019691875937
 20
31.24240542485264
 30
0.0
 10
50.42788522924771
 20
31.41077474308646
 30
0.0
 11
50.27376209484596
 21
30.37883481040278
 31
0.0
 11
50.38853923268959
 21
30.9080581838926
 31
0.0
 11
50.42788522924771
 21
31.41077474308646
 31
0.0
  0
SPLINE
  5
232
330
81
100
AcDbEntity
  8
0
  6
Continuous
 62
     7
100
AcDbSpline
210
0.0
220
0.0
230
1.0
 70
  1064
 71
     3
 72
    13
 73
     9
 74
     7
 42
0.000000001
 43
0.0000000001
 44
0.00000001
 40
0.0
 40
0.0
 40
0.0
 40
0.0
 40
0.2139874779891312
 40
0.4751337361676508
 40
0.8028943691586177
 40
1.194942496085156
 40
1.637084715653243
 40
2.10865179928423
 40
2.10865179928423
 40
2.10865179928423
 40
2.10865179928423
 10
50.00485041566208
 20
32.41351156286912
 30
0.0
 10
49.93228249422422
 20
32.41995843397182
 30
0.0
 10
49.77115406022725
 20
32.43427292877096
 30
0.0
 10
49.5298483899204
 20
32.29044943188512
 30
0.0
 10
49.29598098984582
 20
32.0635906447133
 30
0.0
 10
49.07302882676238
 20
31.74347033287715
 30
0.0
 10
48.87141521942173
 20
31.35650584164731
 30
0.0
 10
48.77075890708997
 20
31.06864085031086
 30
0.0
 10
48.71880999551607
 20
30.92007318875726
 30
0.0
 11
50.00485041566208
 21
32.41351156286912
 31
0.0
 11
49.79086452708734
 21
32.41268503846122
 31
0.0
 11
49.55706463714856
 21
32.29634509411127
 31
0.0
 11
49.31825201506791
 21
32.07185553235681
 31
0.0
 11
49.0895454055745
 21
31.75342968482054
 31
0.0
 11
48.88542402054402
 21
31.36122539787422
 31
0.0
 11
48.71880999551607
 21
30.92007318875726
 31
0.0
  0
SPLINE
  5
233
330
81
100
AcDbEntity
  8
0
  6
Continuous
 62
     7
100
AcDbSpline
210
0.0
220
0.0
230
1.0
 70
  1064
 71
     3
 72
    11
 73
     7
 74
     5
 42
0.000000001
 43
0.0000000001
 44
0.00000001
 40
0.0
 40
0.0
 40
0.0
 40
0.0
 40
0.376602458941546
 40
0.6915266369969002
 40
0.9435619909941846
 40
1.151652787050232
 40
1.151652787050232
 40
1.151652787050232
 40
1.151652787050232
 10
44.67788522924771
 20
26.43112867132669
 30
0.0
 10
44.67341258161461
 20
26.55718714611722
 30
0.0
 10
44.66519978917273
 20
26.78865879646179
 30
0.0
 10
44.58446543687266
 20
27.09227742610892
 30
0.0
 10
44.45785524832346
 20
27.33140918170312
 30
0.0
 10
44.31806856543859
 20
27.40195936768106
 30
0.0
 10
44.25485041566209
 20
27.43386549110934
 30
0.0
 11
44.67788522924771
 21
26.43112867132669
 31
0.0
 11
44.64935435698304
 21
26.80664883777057
 31
0.0
 11
44.56547609807747
 21
27.11019731404237
 31
0.0
 11
44.4312879484588
 21
27.32354061585294
 31
0.0
 11
44.25485041566209
 21
27.43386549110934
 31
0.0
  0
SPLINE
  5
234
330
81
100
AcDbEntity
  8
0
  6
Continuous
 62
     7
100
AcDbSpline
210
0.0
220
0.0
230
1.0
 70
  1064
 71
     3
 72
    15
 73
    11
 74
     9
 42
0.000000001
 43
0.0000000001
 44
0.00000001
 40
0.0
 40
0.0
 40
0.0
 40
0.0
 40
0.2298529119743152
 40
0.5160607998329607
 40
0.8791221737910082
 40
1.313105872362614
 40
1.798319181630543
 40
2.307922958140898
 40
2.812142237556491
 40
3.281830617084573
 40
3.281830617084573
 40
3.281830617084573
 40
3.281830617084573
 10
43.20092004283333
 20
23.78294358435359
 30
0.0
 10
43.27910752566633
 20
23.77726412696776
 30
0.0
 10
43.45465237319446
 20
23.76451274143138
 30
0.0
 10
43.71274435904306
 20
23.93402862779897
 30
0.0
 10
43.96064780731297
 20
24.19391985545875
 30
0.0
 10
44.19377239215882
 20
24.55624859129149
 30
0.0
 10
44.3956046839116
 20
24.98851260141952
 30
0.0
 10
44.55072514290462
 20
25.46445155265864
 30
0.0
 10
44.65543313771173
 20
25.94975273546148
 30
0.0
 10
44.67058021790861
 20
26.27450820592846
 30
0.0
 10
44.67788522924771
 20
26.43112867132669
 30
0.0
 11
43.20092004283333
 21
23.78294358435359
 31
0.0
 11
43.4307134134743
 21
23.78817543860773
 31
0.0
 11
43.68201534370971
 21
23.92515096428698
 31
0.0
 11
43.93663727913395
 21
24.18395828728655
 31
0.0
 11
44.17615025850274
 21
24.54586349992633
 31
0.0
 11
44.38321837332376
 21
24.98467410959283
 31
0.0
 11
44.54285509917911
 21
25.46862878196116
 31
0.0
 11
44.64350532081307
 21
25.9627002494553
 31
0.0
 11
44.67788522924771
 21
26.43112867132669
 31
0.0
  0
SPLINE
  5
235
330
81
100
AcDbEntity
  8
0
  6
Continuous
 62
     7
100
AcDbSpline
210
0.0
220
0.0
230
1.0
 70
  1064
 71
     3
 72
    19
 73
    15
 74
    13
 42
0.000000001
 43
0.0000000001
 44
0.00000001
 40
0.0
 40
0.0
 40
0.0
 40
0.0
 40
0.2225611229058494
 40
0.4971528408223497
 40
0.8438580853671739
 40
1.258513177648497
 40
1.724069573307512
 40
2.216624054942619
 40
2.709178536577729
 40
3.174734932236746
 40
3.589390024518068
 40
3.93609526906289
 40
4.21068698697939
 40
4.433248109885229
 40
4.433248109885229
 40
4.433248109885229
 40
4.433248109885229
 10
44.25485041566209
 20
27.43386549110934
 30
0.0
 10
44.17924669188512
 20
27.43992040973702
 30
0.0
 10
44.01036452184252
 20
27.45344575248255
 30
0.0
 10
43.75989108058055
 20
27.2959315503023
 30
0.0
 10
43.51839200919612
 20
27.05133707478188
 30
0.0
 10
43.28943601037444
 20
26.70857018711772
 30
0.0
 10
43.08867738987676
 20
26.29663971549086
 30
0.0
 10
42.92868959502361
 20
25.8391124450089
 30
0.0
 10
42.82022988964588
 20
25.36671029636216
 30
0.0
 10
42.7705688743611
 20
24.9111617032135
 30
0.0
 10
42.78162713041417
 20
24.49910866821864
 30
0.0
 10
42.85561863424635
 20
24.16343990843409
 30
0.0
 10
42.98361228420949
 20
23.89667166775465
 30
0.0
 10
43.1337207606532
 20
23.81811234269115
 30
0.0
 10
43.20092004283333
 20
23.78294358435359
 30
0.0
 11
44.25485041566209
 21
27.43386549110934
 31
0.0
 11
44.03231149167394
 21
27.43072193924414
 31
0.0
 11
43.78902657778224
 21
27.30339140655945
 31
0.0
 11
43.54157495053832
 21
27.0605494468716
 31
0.0
 11
43.30681996493838
 21
26.71874695932574
 31
0.0
 11
43.10076009812451
 21
26.30127589880198
 31
0.0
 11
42.93743744962703
 21
25.83658715690383
 31
0.0
 11
42.82798291814842
 21
25.35634802907487
 31
0.0
 11
42.77985477852402
 21
24.89328600594786
 31
0.0
 11
42.79633383569829
 21
24.4789584972893
 31
0.0
 11
42.87629610109254
 21
24.14160028807584
 31
0.0
 11
43.01429319685781
 21
23.90420311993474
 31
0.0
 11
43.20092004283333
 21
23.78294358435359
 31
0.0
  0
SPLINE
  5
236
330
81
100
AcDbEntity
  8
0
  6
Continuous
 62
     7
100
AcDbSpline
210
0.0
220
0.0
230
1.0
 70
  1064
 71
     3
 72
    11
 73
     7
 74
     5
 42
0.000000001
 43
0.0000000001
 44
0.00000001
 40
0.0
 40
0.0
 40
0.0
 40
0.0
 40
0.826746165401342
 40
1.520958215140622
 40
2.08844413740388
 40
2.571998142527431
 40
2.571998142527431
 40
2.571998142527431
 40
2.571998142527431
 10
55.37626932901287
 20
11.17990073112513
 30
0.0
 10
55.40468984853353
 20
10.90458246586407
 30
0.0
 10
55.45697485777977
 20
10.39808168817216
 30
0.0
 10
55.68212766531728
 20
9.738433536729426
 30
0.0
 10
56.00409820566115
 20
9.225740232268986
 30
0.0
 10
56.32625135275378
 20
9.072883946962977
 30
0.0
 10
56.47446498787855
 20
9.002559061205574
 30
0.0
 11
55.37626932901287
 21
11.17990073112513
 31
0.0
 11
55.49453100649953
 21
10.36165664336088
 31
0.0
 11
55.72507731520503
 21
9.706844628910751
 31
0.0
 11
56.05697099615047
 21
9.246532925278611
 31
0.0
 11
56.47446498787855
 21
9.002559061205574
 31
0.0
  0
SPLINE
  5
237
330
81
100
AcDbEntity
  8
0
  6
Continuous
 62
     7
100
AcDbSpline
210
0.0
220
0.0
230
1.0
 70
  1064
 71
     3
 72
    17
 73
    13
 74
    11
 42
0.000000001
 43
0.0000000001
 44
0.00000001
 40
0.0
 40
0.0
 40
0.0
 40
0.0
 40
0.5035333697484162
 40
1.100327345247095
 40
1.835605554096063
 40
2.712889803728482
 40
3.71129340365753
 40
4.795823589012112
 40
5.923439187841613
 40
7.047474491845034
 40
8.121556502056704
 40
9.103558598187545
 40
9.103558598187545
 40
9.103558598187545
 40
9.103558598187545
 10
59.24796596900681
 20
18.61024828951018
 30
0.0
 10
59.07807033093579
 20
18.62924756258731
 30
0.0
 10
58.70681228363384
 20
18.67076500462075
 30
0.0
 10
58.13761992115435
 20
18.38135028862861
 30
0.0
 10
57.57941166904786
 20
17.90264460697475
 30
0.0
 10
57.03511618584041
 20
17.21565263000235
 30
0.0
 10
56.53181223762716
 20
16.3650871807779
 30
0.0
 10
56.09293421434041
 20
15.38667296518403
 30
0.0
 10
55.73978847400343
 20
14.3301190560597
 30
0.0
 10
55.49440429610311
 20
13.24796264988617
 30
0.0
 10
55.35326028348554
 20
12.19362494556605
 30
0.0
 10
55.36883210273628
 20
11.50756730713728
 30
0.0
 10
55.37626932901287
 20
11.17990073112513
 30
0.0
 11
59.24796596900681
 21
18.61024828951018
 31
0.0
 11
58.74457494351164
 21
18.62222075673139
 31
0.0
 11
58.19591645327871
 21
18.38740826433542
 31
0.0
 11
57.63010617465615
 21
17.91784168626443
 31
0.0
 11
57.0761390161601
 21
17.23758582196318
 31
0.0
 11
56.56240318760675
 21
16.38149864992893
 31
0.0
 11
56.11522456696397
 21
15.39345158436636
 31
0.0
 11
55.75751944324964
 21
14.32407607357626
 31
0.0
 11
55.50761752973195
 21
13.2281726113024
 31
0.0
 11
55.37832600281497
 21
12.16190066371375
 31
0.0
 11
55.37626932901287
 21
11.17990073112513
 31
0.0
  0
SPLINE
  5
238
330
81
100
AcDbEntity
  8
0
  6
Continuous
 62
     7
100
AcDbSpline
210
0.0
220
0.0
230
1.0
 70
  1064
 71
     3
 72
    21
 73
    17
 74
    15
 42
0.000000001
 43
0.0000000001
 44
0.00000001
 40
0.0
 40
0.0
 40
0.0
 40
0.0
 40
0.4978147528544591
 40
1.086167241986671
 40
1.809604225878031
 40
2.672348135565725
 40
3.654842336428997
 40
4.723718295849278
 40
5.837646363611686
 40
6.951574431374098
 40
8.020450390794373
 40
9.002944591657641
 40
9.865688501345344
 40
10.58912548523671
 40
11.17747797436893
 40
11.67529272722337
 40
11.67529272722337
 40
11.67529272722337
 40
11.67529272722337
 10
56.47446498787855
 20
9.002559061205574
 30
0.0
 10
56.64234318710906
 20
8.983417137677764
 30
0.0
 10
57.00863164794767
 20
8.941651958713624
 30
0.0
 10
57.57134265169115
 20
9.22302316274671
 30
0.0
 10
58.123858724268
 20
9.690770405033316
 30
0.0
 10
58.66351668209287
 20
10.36325392814986
 30
0.0
 10
59.16406375955685
 20
11.1975342202457
 30
0.0
 10
59.6030160421579
 20
12.15939259671925
 30
0.0
 10
59.95840183154736
 20
13.20099812260448
 30
0.0
 10
60.21280268430374
 20
14.27175548866433
 30
0.0
 10
60.35399308448422
 20
15.31957031662291
 30
0.0
 10
60.37507351237312
 20
16.29226070831869
 30
0.0
 10
60.27683235707261
 20
17.14888984377475
 30
0.0
 10
60.05859936912044
 20
17.83913317484859
 30
0.0
 10
59.73241289554454
 20
18.37710697778805
 30
0.0
 10
59.40021822500326
 20
18.53697651078736
 30
0.0
 10
59.24796596900681
 20
18.61024828951018
 30
0.0
 11
56.47446498787855
 21
9.002559061205574
 31
0.0
 11
56.97210533342655
 21
8.989382485636668
 31
0.0
 11
57.51432919099861
 21
9.217750473849776
 31
0.0
 11
58.07394744698818
 21
9.676213639865741
 31
0.0
 11
58.62289847762808
 21
10.34178092919105
 31
0.0
 11
59.13365538519298
 21
11.18107958408069
 31
0.0
 11
59.58060710483996
 21
12.1520224102202
 31
0.0
 11
59.94134099441455
 21
13.2059231620601
 31
0.0
 11
60.19776913348937
 21
14.28993439046456
 31
0.0
 11
60.33703223413261
 21
15.34969927010833
 31
0.0
 11
60.35214805480676
 21
16.33207718246699
 31
0.0
 11
60.24235760148638
 21
17.18780675833788
 31
0.0
 11
60.01316723009199
 21
17.87397936103365
 31
0.0
 11
59.67606856857965
 21
18.35618589579591
 31
0.0
 11
59.24796596900681
 21
18.61024828951018
 31
0.0
  0
SPLINE
  5
239
330
81
100
AcDbEntity
  8
0
  6
Continuous
 62
     7
100
AcDbSpline
210
0.0
220
0.0
230
1.0
 70
  1064
 71
     3
 72
    17
 73
    13
 74
    11
 42
0.000000001
 43
0.0000000001
 44
0.00000001
 40
0.0
 40
0.0
 40
0.0
 40
0.0
 40
0.2611458113190304
 40
0.5806503526263673
 40
0.9629386800357596
 40
1.395689917896194
 40
1.857467596866844
 40
2.322564778821807
 40
2.764819070973968
 40
3.161334733372737
 40
3.496942824021337
 40
3.770946873225362
 40
3.770946873225362
 40
3.770946873225362
 40
3.770946873225362
 10
42.91817749754053
 20
2.71054619285438
 30
0.0
 10
42.95808981254952
 20
2.631895060953537
 30
0.0
 10
43.04683373721387
 20
2.457016498194148
 30
0.0
 10
43.3196489254243
 20
2.269044746914453
 30
0.0
 10
43.66617583995686
 20
2.118681796311338
 30
0.0
 10
44.08354307544699
 20
2.022202901651721
 30
0.0
 10
44.53629023784431
 20
1.9836364378556
 30
0.0
 10
44.99328945066924
 20
2.006947138988701
 30
0.0
 10
45.42261905524254
 20
2.089180267456241
 30
0.0
 10
45.78846225462202
 20
2.227718621226322
 30
0.0
 10
46.0839221758612
 20
2.404360132217834
 30
0.0
 10
46.1968090964336
 20
2.575936208436597
 30
0.0
 10
46.24754868494384
 20
2.653054986722715
 30
0.0
 11
42.91817749754053
 21
2.71054619285438
 31
0.0
 11
43.05323925031013
 21
2.487039015223608
 31
0.0
 11
43.30507855558994
 21
2.290417249396874
 31
0.0
 11
43.65460868982048
 21
2.135584923850915
 31
0.0
 11
44.07533465674204
 21
2.034277012475513
 31
0.0
 11
44.53536761941896
 21
1.994173446169925
 31
0.0
 11
44.99983793968062
 21
2.018312794063959
 31
0.0
 11
45.43353980237905
 21
2.104866542051639
 31
0.0
 11
45.80360068328662
 21
2.247273051113591
 31
0.0
 11
46.08196953863695
 21
2.434739242226755
 31
0.0
 11
46.24754868494384
 21
2.653054986722715
 31
0.0
  0
ENDBLK
  5
83
330
81
100
AcDbEntity
  8
0
100
AcDbBlockEnd
  0
BLOCK
  5
86
330
84
100
AcDbEntity
  8
0
100
AcDbBlockBegin
  2
AllgSicht1
 70
     0
 10
50.50000000001012
 20
17.23044260960506
 30
0.0
  3
AllgSicht1
  1

  0
INSERT
  5
85
330
84
100
AcDbEntity
  8
0
100
AcDbBlockReference
  2
CES_STPG_GY_10-select__1
 10
38.26378361410519
 20
0.70776944311885
 30
0.0
  0
MTEXT
  5
23A
330
84
100
AcDbEntity
  8
1
 62
     6
100
AcDbMText
 10
50.499999546275
 20
-1.79223055688115
 30
0.0
 40
2.5
 41
0.0
 71
     2
 72
     1
  1
 
  7
CONVERTER_11
 73
     1
 44
1.32052821128451
  0
ENDBLK
  5
87
330
84
100
AcDbEntity
  8
0
100
AcDbBlockEnd
  0
BLOCK
  5
89
330
88
100
AcDbEntity
  8
0
100
AcDbBlockBegin
  2
CES_STPG_GY_10-select__2
 70
     0
 10
-48.37499999996257
 20
37.24999861560175
 30
0.0
  3
CES_STPG_GY_10-select__2
  1

  0
LINE
  5
23B
330
88
100
AcDbEntity
  8
0
  6
Continuous
 62
     7
100
AcDbLine
 10
-42.32499999996396
 20
57.74999861560175
 30
0.0
 11
-42.82499999996398
 21
57.24999861560175
 31
0.0
  0
LINE
  5
23C
330
88
100
AcDbEntity
  8
0
  6
Continuous
 62
     7
100
AcDbLine
 10
-44.3749999999629
 20
50.50349069255111
 30
0.0
 11
-40.27499999996293
 21
50.36031553763493
 31
0.0
  0
LINE
  5
23D
330
88
100
AcDbEntity
  8
0
  6
Continuous
 62
     7
100
AcDbLine
 10
-34.02499999996395
 20
37.24999861560175
 30
0.0
 11
-33.52499999996398
 21
37.74999861560175
 31
0.0
  0
LINE
  5
23E
330
88
100
AcDbEntity
  8
0
  6
Continuous
 62
     7
100
AcDbLine
 10
-34.524999999964
 20
37.74999861560178
 30
0.0
 11
-34.02499999996395
 21
37.24999861560175
 31
0.0
  0
LINE
  5
23F
330
88
100
AcDbEntity
  8
0
  6
Continuous
 62
     7
100
AcDbLine
 10
-41.82499999996399
 20
57.24999861560178
 30
0.0
 11
-31.37499999996408
 21
57.24999861560178
 31
0.0
  0
LINE
  5
240
330
88
100
AcDbEntity
  8
0
  6
Continuous
 62
     7
100
AcDbLine
 10
-31.37499999996408
 20
37.74999861560178
 30
0.0
 11
-31.37499999996408
 21
57.24999861560178
 31
0.0
  0
LINE
  5
241
330
88
100
AcDbEntity
  8
0
  6
Continuous
 62
     7
100
AcDbLine
 10
-31.37499999996408
 20
37.74999861560178
 30
0.0
 11
-33.52499999996398
 21
37.74999861560175
 31
0.0
  0
LINE
  5
242
330
88
100
AcDbEntity
  8
0
  6
Continuous
 62
     7
100
AcDbLine
 10
-44.37499999996254
 20
57.24999861560178
 30
0.0
 11
-48.37499999996257
 21
57.24999861560178
 31
0.0
  0
LINE
  5
243
330
88
100
AcDbEntity
  8
0
  6
Continuous
 62
     7
100
AcDbLine
 10
-44.37499999996254
 20
57.24999861560178
 30
0.0
 11
-42.82499999996398
 21
57.24999861560175
 31
0.0
  0
LINE
  5
244
330
88
100
AcDbEntity
  8
0
  6
Continuous
 62
     7
100
AcDbLine
 10
-44.3749999999629
 20
44.49650653865277
 30
0.0
 11
-44.3749999999629
 21
50.50349069255111
 31
0.0
  0
LINE
  5
245
330
88
100
AcDbEntity
  8
0
  6
Continuous
 62
     7
100
AcDbLine
 10
-44.37499999996254
 20
37.74999861560178
 30
0.0
 11
-44.3749999999629
 21
44.49650653865277
 31
0.0
  0
LINE
  5
246
330
88
100
AcDbEntity
  8
0
  6
Continuous
 62
     7
100
AcDbLine
 10
-44.3749999999629
 20
50.50349069255111
 30
0.0
 11
-44.37499999996254
 21
57.24999861560178
 31
0.0
  0
LINE
  5
247
330
88
100
AcDbEntity
  8
0
  6
Continuous
 62
     7
100
AcDbLine
 10
-48.37499999996257
 20
37.74999861560178
 30
0.0
 11
-44.37499999996254
 21
37.74999861560178
 31
0.0
  0
LINE
  5
248
330
88
100
AcDbEntity
  8
0
  6
Continuous
 62
     7
100
AcDbLine
 10
-34.524999999964
 20
37.74999861560178
 30
0.0
 11
-44.37499999996254
 21
37.74999861560178
 31
0.0
  0
LINE
  5
249
330
88
100
AcDbEntity
  8
0
  6
Continuous
 62
     7
100
AcDbLine
 10
-48.37499999996257
 20
37.74999861560178
 30
0.0
 11
-48.37499999996257
 21
57.24999861560178
 31
0.0
  0
LINE
  5
24A
330
88
100
AcDbEntity
  8
0
  6
Continuous
 62
     7
100
AcDbLine
 10
-41.82499999996399
 20
57.24999861560178
 30
0.0
 11
-42.32499999996396
 21
57.74999861560175
 31
0.0
  0
LINE
  5
24B
330
88
100
AcDbEntity
  8
0
  6
Continuous
 62
     7
100
AcDbLine
 10
-40.27499999996293
 20
44.63968169356892
 30
0.0
 11
-40.27499999996293
 21
50.36031553763493
 31
0.0
  0
LINE
  5
24C
330
88
100
AcDbEntity
  8
0
  6
Continuous
 62
     7
100
AcDbLine
 10
-44.3749999999629
 20
44.49650653865277
 30
0.0
 11
-40.27499999996293
 21
44.63968169356892
 31
0.0
  0
ENDBLK
  5
8A
330
88
100
AcDbEntity
  8
0
100
AcDbBlockEnd
  0
BLOCK
  5
8D
330
8B
100
AcDbEntity
  8
0
100
AcDbBlockBegin
  2
Drfsicht1
 70
     0
 10
-39.8749999999965
 20
47.49999952312402
 30
0.0
  3
Drfsicht1
  1

  0
INSERT
  5
8C
330
8B
100
AcDbEntity
  8
0
100
AcDbBlockReference
  2
CES_STPG_GY_10-select__2
 10
-48.37499999996257
 20
37.24999861560175
 30
0.0
  0
MTEXT
  5
24D
330
8B
100
AcDbEntity
  8
1
 62
     6
100
AcDbMText
 10
-39.87499999996332
 20
34.74999861560175
 30
0.0
 40
2.5
 41
0.0
 71
     2
 72
     1
  1
 
  7
CONVERTER_11
 73
     1
 44
1.32052821128451
  0
DIMENSION
  5
258
330
8B
100
AcDbEntity
  8
1
100
AcDbDimension
  2
*D17
 10
-54.40860578418626
 20
57.74999861560175
 30
0.0
 11
-56.12110578418626
 21
47.43770764611925
 31
0.0
 70
    32
  1
<>
 71
     5
 42
-1.0
 53
90.0
  3
ME10_DIM_10
100
AcDbAlignedDimension
 13
-34.02499999996395
 23
37.24999861560175
 33
0.0
 14
-42.32499999996396
 24
57.74999861560175
 34
0.0
 50
90.0
100
AcDbRotatedDimension
  0
ENDBLK
  5
8E
330
8B
100
AcDbEntity
  8
0
100
AcDbBlockEnd
  0
BLOCK
  5
90
330
8F
100
AcDbEntity
  8
0
100
AcDbBlockBegin
  2
CES_STPG_GY_10-select__3
 70
     0
 10
22.87499999996399
 20
79.74999949698051
 30
0.0
  3
CES_STPG_GY_10-select__3
  1

  0
LINE
  5
259
330
8F
100
AcDbEntity
  8
0
  6
Continuous
 62
     7
100
AcDbLine
 10
33.82499999996874
 20
82.74999949698062
 30
0.0
 11
34.32499999996872
 21
82.74999949698076
 31
0.0
  0
LINE
  5
25A
330
8F
100
AcDbEntity
  8
0
  6
Continuous
 62
     7
100
AcDbLine
 10
33.17884757726286
 20
79.74999949698051
 30
0.0
 11
34.87499999996949
 21
79.7499994969809
 31
0.0
  0
LINE
  5
25B
330
8F
100
AcDbEntity
  8
0
  6
Continuous
 62
     7
100
AcDbLine
 10
34.87499999996949
 20
79.7499994969809
 30
0.0
 11
36.57115242267612
 21
79.74999949698133
 31
0.0
  0
LINE
  5
25C
330
8F
100
AcDbEntity
  8
0
  6
Continuous
 62
     7
100
AcDbLine
 10
33.17884757726286
 20
79.74999949698051
 30
0.0
 11
32.37499999996877
 21
82.74999949698031
 31
0.0
  0
LINE
  5
25D
330
8F
100
AcDbEntity
  8
0
  6
Continuous
 62
     7
100
AcDbLine
 10
35.87499999996244
 20
109.2499994969812
 30
0.0
 11
35.87499999996281
 21
107.7534915739303
 31
0.0
  0
LINE
  5
25E
330
8F
100
AcDbEntity
  8
0
  6
Continuous
 62
     7
100
AcDbLine
 10
35.8749999999634
 20
105.246507420032
 30
0.0
 11
35.87499999996388
 21
103.2499994969812
 31
0.0
  0
LINE
  5
25F
330
8F
100
AcDbEntity
  8
0
  6
Continuous
 62
     7
100
AcDbLine
 10
35.87499999996281
 20
107.7534915739303
 30
0.0
 11
35.8749999999634
 21
105.246507420032
 31
0.0
  0
LINE
  5
260
330
8F
100
AcDbEntity
  8
0
  6
Continuous
 62
     7
100
AcDbLine
 10
35.87499999996244
 20
109.2499994969812
 30
0.0
 11
39.87499999996246
 21
109.2499994969821
 31
0.0
  0
LINE
  5
261
330
8F
100
AcDbEntity
  8
0
  6
Continuous
 62
     7
100
AcDbLine
 10
39.87499999996246
 20
109.2499994969821
 30
0.0
 11
39.87499999996878
 21
82.74999949698204
 31
0.0
  0
LINE
  5
262
330
8F
100
AcDbEntity
  8
0
  6
Continuous
 62
     7
100
AcDbLine
 10
35.87499999996281
 20
107.7534915739303
 30
0.0
 11
31.77499999996283
 21
107.6103164190132
 31
0.0
  0
LINE
  5
263
330
8F
100
AcDbEntity
  8
0
  6
Continuous
 62
     7
100
AcDbLine
 10
35.8749999999634
 20
105.246507420032
 30
0.0
 11
31.77499999996337
 21
105.3896825749471
 31
0.0
  0
LINE
  5
264
330
8F
100
AcDbEntity
  8
0
  6
Continuous
 62
     7
100
AcDbLine
 10
33.82499999996874
 20
82.74999949698062
 30
0.0
 11
33.82499999996387
 21
103.2499994969807
 31
0.0
  0
LINE
  5
265
330
8F
100
AcDbEntity
  8
0
  6
Continuous
 62
     7
100
AcDbLine
 10
33.32499999996877
 20
82.74999949698051
 30
0.0
 11
33.82499999996874
 21
82.74999949698062
 31
0.0
  0
LINE
  5
266
330
8F
100
AcDbEntity
  8
0
  6
Continuous
 62
     7
100
AcDbLine
 10
32.37499999996877
 20
82.74999949698031
 30
0.0
 11
22.87499999996887
 21
82.74999949697803
 31
0.0
  0
LINE
  5
267
330
8F
100
AcDbEntity
  8
0
  6
Continuous
 62
     7
100
AcDbLine
 10
39.87499999996878
 20
82.74999949698204
 30
0.0
 11
37.37499999996877
 21
82.7499994969815
 31
0.0
  0
LINE
  5
268
330
8F
100
AcDbEntity
  8
0
  6
Continuous
 62
     7
100
AcDbLine
 10
37.37499999996877
 20
82.7499994969815
 30
0.0
 11
34.32499999996872
 21
82.74999949698076
 31
0.0
  0
LINE
  5
269
330
8F
100
AcDbEntity
  8
0
  6
Continuous
 62
     7
100
AcDbLine
 10
34.32499999996387
 20
103.2499994969808
 30
0.0
 11
34.32499999996872
 21
82.74999949698076
 31
0.0
  0
LINE
  5
26A
330
8F
100
AcDbEntity
  8
0
  6
Continuous
 62
     7
100
AcDbLine
 10
33.32499999996877
 20
82.74999949698051
 30
0.0
 11
32.37499999996877
 21
82.74999949698031
 31
0.0
  0
LINE
  5
26B
330
8F
100
AcDbEntity
  8
0
  6
Continuous
 62
     7
100
AcDbLine
 10
33.32499999996877
 20
82.74999949698051
 30
0.0
 11
33.3249999999639
 21
103.2499994969806
 31
0.0
  0
LINE
  5
26C
330
8F
100
AcDbEntity
  8
0
  6
Continuous
 62
     7
100
AcDbLine
 10
22.87499999996887
 20
82.74999949697803
 30
0.0
 11
22.87499999996399
 21
103.2499994969781
 31
0.0
  0
LINE
  5
26D
330
8F
100
AcDbEntity
  8
0
  6
Continuous
 62
     7
100
AcDbLine
 10
33.82499999996387
 20
103.2499994969807
 30
0.0
 11
34.32499999996387
 21
103.2499994969808
 31
0.0
  0
LINE
  5
26E
330
8F
100
AcDbEntity
  8
0
  6
Continuous
 62
     7
100
AcDbLine
 10
33.3249999999639
 20
103.2499994969806
 30
0.0
 11
33.82499999996387
 21
103.2499994969807
 31
0.0
  0
LINE
  5
26F
330
8F
100
AcDbEntity
  8
0
  6
Continuous
 62
     7
100
AcDbLine
 10
31.77499999996387
 20
103.2499994969802
 30
0.0
 11
22.87499999996399
 21
103.2499994969781
 31
0.0
  0
LINE
  5
270
330
8F
100
AcDbEntity
  8
0
  6
Continuous
 62
     7
100
AcDbLine
 10
33.3249999999639
 20
103.2499994969806
 30
0.0
 11
31.77499999996387
 21
103.2499994969802
 31
0.0
  0
LINE
  5
271
330
8F
100
AcDbEntity
  8
0
  6
Continuous
 62
     7
100
AcDbLine
 10
31.77499999996337
 20
105.3896825749471
 30
0.0
 11
31.77499999996387
 21
103.2499994969802
 31
0.0
  0
LINE
  5
272
330
8F
100
AcDbEntity
  8
0
  6
Continuous
 62
     7
100
AcDbLine
 10
35.87499999996388
 20
103.2499994969812
 30
0.0
 11
34.32499999996387
 21
103.2499994969808
 31
0.0
  0
LINE
  5
273
330
8F
100
AcDbEntity
  8
0
  6
Continuous
 62
     7
100
AcDbLine
 10
31.77499999996283
 20
107.6103164190132
 30
0.0
 11
31.77499999996337
 21
105.3896825749471
 31
0.0
  0
LINE
  5
274
330
8F
100
AcDbEntity
  8
0
  6
Continuous
 62
     7
100
AcDbLine
 10
36.57115242267612
 20
79.74999949698133
 30
0.0
 11
37.37499999996877
 21
82.7499994969815
 31
0.0
  0
LINE
  5
275
330
8F
100
AcDbEntity
  8
1
  6
DOT_CENTER
 62
     2
100
AcDbLine
 10
34.87499999996949
 20
79.7499994969809
 30
0.0
 11
34.87499999996877
 21
82.7499994969809
 31
0.0
  0
ENDBLK
  5
91
330
8F
100
AcDbEntity
  8
0
100
AcDbBlockEnd
  0
BLOCK
  5
94
330
92
100
AcDbEntity
  8
0
100
AcDbBlockBegin
  2
Rckans1
 70
     0
 10
31.37499999999641
 20
94.4999999999591
 30
0.0
  3
Rckans1
  1

  0
INSERT
  5
93
330
92
100
AcDbEntity
  8
0
100
AcDbBlockReference
  2
CES_STPG_GY_10-select__3
 10
22.87499999996399
 20
79.74999949698051
 30
0.0
  0
MTEXT
  5
276
330
92
100
AcDbEntity
  8
1
 62
     6
100
AcDbMText
 10
31.37499999996638
 20
77.24999949698051
 30
0.0
 40
2.5
 41
0.0
 71
     2
 72
     1
  1
 
  7
CONVERTER_11
 73
     1
 44
1.32052821128451
  0
ENDBLK
  5
95
330
92
100
AcDbEntity
  8
0
100
AcDbBlockEnd
  0
BLOCK
  5
97
330
96
100
AcDbEntity
  8
0
100
AcDbBlockBegin
  2
CES_STPG_GY_10-select__4
 70
     0
 10
-14.27665606740241
 20
79.74999949693989
 30
0.0
  3
CES_STPG_GY_10-select__4
  1

  0
LINE
  5
277
330
96
100
AcDbEntity
  8
0
  6
Continuous
 62
     7
100
AcDbLine
 10
0.02719150989096
 20
79.74999949693989
 30
0.0
 11
3.41949635530423
 21
79.74999949693989
 31
0.0
  0
LINE
  5
278
330
96
100
AcDbEntity
  8
0
  6
Continuous
 62
     7
100
AcDbLine
 10
5.7233439325976
 20
82.74999949694109
 30
0.0
 11
6.22334393259761
 21
82.74999949693768
 31
0.0
  0
LINE
  5
279
330
96
100
AcDbEntity
  8
0
  6
Continuous
 62
     7
100
AcDbLine
 10
3.41949635530423
 20
79.74999949693989
 30
0.0
 11
4.22334393259759
 21
82.74999949693989
 31
0.0
  0
LINE
  5
27A
330
96
100
AcDbEntity
  8
0
  6
Continuous
 62
     7
100
AcDbLine
 10
0.02719150989096
 20
79.74999949693989
 30
0.0
 11
-0.77665606740241
 21
82.74999949693989
 31
0.0
  0
LINE
  5
27B
330
96
100
AcDbEntity
  8
0
  6
Continuous
 62
     7
100
AcDbLine
 10
5.72334393259757
 20
103.2499994969379
 30
0.0
 11
6.22334393259759
 21
103.2499994969377
 31
0.0
  0
LINE
  5
27C
330
96
100
AcDbEntity
  8
0
  6
Continuous
 62
     7
100
AcDbLine
 10
6.22334393259759
 20
103.2499994969377
 30
0.0
 11
6.22334393259761
 21
82.74999949693768
 31
0.0
  0
LINE
  5
27D
330
96
100
AcDbEntity
  8
0
  6
Continuous
 62
     7
100
AcDbLine
 10
-14.27665606740237
 20
82.74999949693961
 30
0.0
 11
-13.77665606740239
 21
82.74999949694106
 31
0.0
  0
LINE
  5
27E
330
96
100
AcDbEntity
  8
0
  6
Continuous
 62
     7
100
AcDbLine
 10
5.7233439325976
 20
82.74999949694109
 30
0.0
 11
4.22334393259759
 21
82.74999949693989
 31
0.0
  0
LINE
  5
27F
330
96
100
AcDbEntity
  8
0
  6
Continuous
 62
     7
100
AcDbLine
 10
-0.77665606740241
 20
82.74999949693989
 30
0.0
 11
-13.77665606740239
 21
82.74999949694106
 31
0.0
  0
LINE
  5
280
330
96
100
AcDbEntity
  8
0
  6
Continuous
 62
     7
100
AcDbLine
 10
4.22334393259759
 20
82.74999949693989
 30
0.0
 11
-0.77665606740241
 21
82.74999949693989
 31
0.0
  0
LINE
  5
281
330
96
100
AcDbEntity
  8
0
  6
Continuous
 62
     7
100
AcDbLine
 10
5.72334393259757
 20
103.2499994969379
 30
0.0
 11
5.72334393259757
 21
109.2499994969411
 31
0.0
  0
LINE
  5
282
330
96
100
AcDbEntity
  8
0
  6
Continuous
 62
     7
100
AcDbLine
 10
5.7233439325976
 20
82.74999949694109
 30
0.0
 11
5.72334393259757
 21
103.2499994969379
 31
0.0
  0
LINE
  5
283
330
96
100
AcDbEntity
  8
0
  6
Continuous
 62
     7
100
AcDbLine
 10
-14.27665606740241
 20
103.2499994969397
 30
0.0
 11
-13.77665606740241
 21
103.2499994969398
 31
0.0
  0
LINE
  5
284
330
96
100
AcDbEntity
  8
0
  6
Continuous
 62
     7
100
AcDbLine
 10
-14.27665606740237
 20
82.74999949693961
 30
0.0
 11
-14.27665606740241
 21
103.2499994969397
 31
0.0
  0
LINE
  5
285
330
96
100
AcDbEntity
  8
0
  6
Continuous
 62
     7
100
AcDbLine
 10
-13.77665606740243
 20
109.2499994969411
 30
0.0
 11
-13.77665606740241
 21
103.2499994969398
 31
0.0
  0
LINE
  5
286
330
96
100
AcDbEntity
  8
0
  6
Continuous
 62
     7
100
AcDbLine
 10
-13.77665606740241
 20
103.2499994969398
 30
0.0
 11
-13.77665606740239
 21
82.74999949694106
 31
0.0
  0
LINE
  5
287
330
96
100
AcDbEntity
  8
0
  6
Continuous
 62
     7
100
AcDbLine
 10
5.72334393259757
 20
109.2499994969411
 30
0.0
 11
-13.77665606740243
 21
109.2499994969411
 31
0.0
  0
LINE
  5
288
330
96
100
AcDbEntity
  8
1
  6
DOT_CENTER
 62
     2
100
AcDbLine
 10
3.81334393259758
 20
105.7499994969415
 30
0.0
 11
-0.36665606740241
 21
105.7499994969415
 31
0.0
  0
LINE
  5
289
330
96
100
AcDbEntity
  8
1
  6
DOT_CENTER
 62
     2
100
AcDbLine
 10
1.72334393259759
 20
107.8399994969415
 30
0.0
 11
1.72334393259759
 21
103.6599994969415
 31
0.0
  0
LINE
  5
28A
330
96
100
AcDbEntity
  8
1
  6
DOT_CENTER
 62
     2
100
AcDbLine
 10
-7.68665606740242
 20
105.7499994969407
 30
0.0
 11
-11.86665606740241
 21
105.7499994969407
 31
0.0
  0
LINE
  5
28B
330
96
100
AcDbEntity
  8
1
  6
DOT_CENTER
 62
     2
100
AcDbLine
 10
-9.77665606740241
 20
107.8399994969407
 30
0.0
 11
-9.77665606740241
 21
103.6599994969407
 31
0.0
  0
LINE
  5
28C
330
96
100
AcDbEntity
  8
1
  6
DOT_CENTER
 62
     2
100
AcDbLine
 10
1.4733439325976
 20
92.99999949694109
 30
0.0
 11
-9.52665606740239
 21
92.99999949694109
 31
0.0
  0
LINE
  5
28D
330
96
100
AcDbEntity
  8
1
  6
DOT_CENTER
 62
     2
100
AcDbLine
 10
-4.02665606740239
 20
98.49999949694109
 30
0.0
 11
-4.02665606740239
 21
87.49999949694109
 31
0.0
  0
LINE
  5
28E
330
96
100
AcDbEntity
  8
1
  6
DOT_CENTER
 62
     2
100
AcDbLine
 10
1.72334393259759
 20
79.74999949693989
 30
0.0
 11
1.72334393259759
 21
82.74999949693989
 31
0.0
  0
CIRCLE
  5
28F
330
96
100
AcDbEntity
  8
0
  6
Continuous
 62
     7
100
AcDbCircle
 10
-9.77665606740241
 20
105.7499994969407
 30
0.0
 40
1.899999999999997
  0
CIRCLE
  5
290
330
96
100
AcDbEntity
  8
0
  6
Continuous
 62
     7
100
AcDbCircle
 10
1.72334393259759
 20
105.7499994969415
 30
0.0
 40
1.899999999999999
  0
CIRCLE
  5
291
330
96
100
AcDbEntity
  8
0
  6
Continuous
 62
     7
100
AcDbCircle
 10
-4.02665606740239
 20
92.99999949694109
 30
0.0
 40
5.000000000000003
  0
ENDBLK
  5
98
330
96
100
AcDbEntity
  8
0
100
AcDbBlockEnd
  0
BLOCK
  5
9B
330
99
100
AcDbEntity
  8
0
100
AcDbBlockBegin
  2
SA_Links1
 70
     0
 10
-4.02665697492467
 20
94.49999999991809
 30
0.0
  3
SA_Links1
  1

  0
INSERT
  5
9A
330
99
100
AcDbEntity
  8
0
100
AcDbBlockReference
  2
CES_STPG_GY_10-select__4
 10
-14.27665606740241
 20
79.74999949693989
 30
0.0
  0
MTEXT
  5
292
330
99
100
AcDbEntity
  8
1
 62
     6
100
AcDbMText
 10
-4.0266560674024
 20
65.35388831579596
 30
0.0
 40
2.5
 41
0.0
 71
     2
 72
     1
  1
 
  7
CONVERTER_11
 73
     1
 44
1.32052821128451
  0
ENDBLK
  5
9C
330
99
100
AcDbEntity
  8
0
100
AcDbBlockEnd
  0
BLOCK
  5
9E
330
9D
100
AcDbEntity
  8
0
100
AcDbBlockBegin
  2
CES_STPG_GY_10-select__5
 70
     0
 10
-92.0000009075153
 20
79.7499994969809
 30
0.0
  3
CES_STPG_GY_10-select__5
  1

  0
LINE
  5
293
330
9D
100
AcDbEntity
  8
0
  6
Continuous
 62
     7
100
AcDbLine
 10
-91.50000090751524
 20
103.2499994969781
 30
0.0
 11
-91.50000090751527
 21
82.74999949697806
 31
0.0
  0
LINE
  5
294
330
9D
100
AcDbEntity
  8
0
  6
Continuous
 62
     7
100
AcDbLine
 10
-91.50000090751524
 20
103.2499994969781
 30
0.0
 11
-91.50000090751524
 21
109.2499994969812
 31
0.0
  0
LINE
  5
295
330
9D
100
AcDbEntity
  8
0
  6
Continuous
 62
     7
100
AcDbLine
 10
-92.00000090751527
 20
103.2499994969788
 30
0.0
 11
-92.0000009075153
 21
82.74999949697869
 31
0.0
  0
LINE
  5
296
330
9D
100
AcDbEntity
  8
0
  6
Continuous
 62
     7
100
AcDbLine
 10
-92.0000009075153
 20
82.74999949697869
 30
0.0
 11
-91.50000090751527
 21
82.74999949697806
 31
0.0
  0
LINE
  5
297
330
9D
100
AcDbEntity
  8
0
  6
Continuous
 62
     7
100
AcDbLine
 10
-83.11031782954825
 20
105.3896825749472
 30
0.0
 11
-84.61031782954828
 21
105.3896825749472
 31
0.0
  0
LINE
  5
298
330
9D
100
AcDbEntity
  8
0
  6
Continuous
 62
     7
100
AcDbLine
 10
-78.74650883056592
 20
107.7534915739303
 30
0.0
 11
-84.75349298446426
 21
107.7534915739303
 31
0.0
  0
LINE
  5
299
330
9D
100
AcDbEntity
  8
0
  6
Continuous
 62
     7
100
AcDbLine
 10
-78.74650883056611
 20
105.246507420032
 30
0.0
 11
-78.74650883056592
 21
107.7534915739303
 31
0.0
  0
LINE
  5
29A
330
9D
100
AcDbEntity
  8
0
  6
Continuous
 62
     7
100
AcDbLine
 10
-72.00000090751524
 20
103.2499994969781
 30
0.0
 11
-71.50000090751527
 21
103.2499994969807
 31
0.0
  0
LINE
  5
29B
330
9D
100
AcDbEntity
  8
0
  6
Continuous
 62
     7
100
AcDbLine
 10
-72.00000090751527
 20
82.74999949697803
 30
0.0
 11
-72.00000090751524
 21
103.2499994969781
 31
0.0
  0
LINE
  5
29C
330
9D
100
AcDbEntity
  8
0
  6
Continuous
 62
     7
100
AcDbLine
 10
-72.00000090751524
 20
109.2499994969812
 30
0.0
 11
-72.00000090751524
 21
103.2499994969781
 31
0.0
  0
LINE
  5
29D
330
9D
100
AcDbEntity
  8
0
  6
Continuous
 62
     7
100
AcDbLine
 10
-71.5000009075153
 20
82.74999949698062
 30
0.0
 11
-71.50000090751527
 21
103.2499994969807
 31
0.0
  0
LINE
  5
29E
330
9D
100
AcDbEntity
  8
0
  6
Continuous
 62
     7
100
AcDbLine
 10
-80.3896839854824
 20
103.2499994969802
 30
0.0
 11
-80.24650883056626
 21
103.2499994969812
 31
0.0
  0
LINE
  5
29F
330
9D
100
AcDbEntity
  8
0
  6
Continuous
 62
     7
100
AcDbLine
 10
-83.11031782954839
 20
103.2499994969802
 30
0.0
 11
-80.3896839854824
 21
103.2499994969802
 31
0.0
  0
LINE
  5
2A0
330
9D
100
AcDbEntity
  8
0
  6
Continuous
 62
     7
100
AcDbLine
 10
-83.25349298446457
 20
103.2499994969812
 30
0.0
 11
-83.11031782954839
 21
103.2499994969802
 31
0.0
  0
LINE
  5
2A1
330
9D
100
AcDbEntity
  8
0
  6
Continuous
 62
     7
100
AcDbLine
 10
-91.50000090751524
 20
103.2499994969781
 30
0.0
 11
-83.25349298446457
 21
103.2499994969812
 31
0.0
  0
LINE
  5
2A2
330
9D
100
AcDbEntity
  8
0
  6
Continuous
 62
     7
100
AcDbLine
 10
-80.24650883056626
 20
103.2499994969812
 30
0.0
 11
-72.00000090751524
 21
103.2499994969781
 31
0.0
  0
LINE
  5
2A3
330
9D
100
AcDbEntity
  8
0
  6
Continuous
 62
     7
100
AcDbLine
 10
-92.00000090751527
 20
103.2499994969788
 30
0.0
 11
-91.50000090751524
 21
103.2499994969781
 31
0.0
  0
LINE
  5
2A4
330
9D
100
AcDbEntity
  8
0
  6
Continuous
 62
     7
100
AcDbLine
 10
-78.74650883056611
 20
105.246507420032
 30
0.0
 11
-78.88968398548226
 21
105.3896825749471
 31
0.0
  0
LINE
  5
2A5
330
9D
100
AcDbEntity
  8
0
  6
Continuous
 62
     7
100
AcDbLine
 10
-80.38968398548226
 20
105.3896825749471
 30
0.0
 11
-80.24650883056611
 21
105.246507420032
 31
0.0
  0
LINE
  5
2A6
330
9D
100
AcDbEntity
  8
0
  6
Continuous
 62
     7
100
AcDbLine
 10
-80.24650883056611
 20
105.246507420032
 30
0.0
 11
-78.74650883056611
 21
105.246507420032
 31
0.0
  0
LINE
  5
2A7
330
9D
100
AcDbEntity
  8
0
  6
Continuous
 62
     7
100
AcDbLine
 10
-83.11031782954825
 20
105.3896825749472
 30
0.0
 11
-83.25349298446443
 21
105.246507420032
 31
0.0
  0
LINE
  5
2A8
330
9D
100
AcDbEntity
  8
0
  6
Continuous
 62
     7
100
AcDbLine
 10
-83.11031782954839
 20
103.2499994969802
 30
0.0
 11
-83.11031782954825
 21
105.3896825749472
 31
0.0
  0
LINE
  5
2A9
330
9D
100
AcDbEntity
  8
0
  6
Continuous
 62
     7
100
AcDbLine
 10
-80.38968398548226
 20
105.3896825749471
 30
0.0
 11
-80.3896839854824
 21
103.2499994969802
 31
0.0
  0
LINE
  5
2AA
330
9D
100
AcDbEntity
  8
0
  6
Continuous
 62
     7
100
AcDbLine
 10
-89.1961533302219
 20
79.7499994969809
 30
0.0
 11
-85.80384848480864
 21
79.7499994969809
 31
0.0
  0
LINE
  5
2AB
330
9D
100
AcDbEntity
  8
0
  6
Continuous
 62
     7
100
AcDbLine
 10
-72.00000090751527
 20
82.74999949697803
 30
0.0
 11
-71.5000009075153
 21
82.74999949698062
 31
0.0
  0
LINE
  5
2AC
330
9D
100
AcDbEntity
  8
0
  6
Continuous
 62
     7
100
AcDbLine
 10
-90.00000090751527
 20
82.7499994969809
 30
0.0
 11
-91.50000090751527
 21
82.74999949697806
 31
0.0
  0
LINE
  5
2AD
330
9D
100
AcDbEntity
  8
0
  6
Continuous
 62
     7
100
AcDbLine
 10
-85.00000090751527
 20
82.7499994969809
 30
0.0
 11
-90.00000090751527
 21
82.7499994969809
 31
0.0
  0
LINE
  5
2AE
330
9D
100
AcDbEntity
  8
0
  6
Continuous
 62
     7
100
AcDbLine
 10
-72.00000090751527
 20
82.74999949697803
 30
0.0
 11
-85.00000090751527
 21
82.7499994969809
 31
0.0
  0
LINE
  5
2AF
330
9D
100
AcDbEntity
  8
0
  6
Continuous
 62
     7
100
AcDbLine
 10
-89.1961533302219
 20
79.7499994969809
 30
0.0
 11
-90.00000090751527
 21
82.7499994969809
 31
0.0
  0
LINE
  5
2B0
330
9D
100
AcDbEntity
  8
0
  6
Continuous
 62
     7
100
AcDbLine
 10
-85.80384848480864
 20
79.7499994969809
 30
0.0
 11
-85.00000090751527
 21
82.7499994969809
 31
0.0
  0
LINE
  5
2B1
330
9D
100
AcDbEntity
  8
0
  6
Continuous
 62
     7
100
AcDbLine
 10
-83.25349298446443
 20
105.246507420032
 30
0.0
 11
-83.25349298446457
 21
103.2499994969812
 31
0.0
  0
LINE
  5
2B2
330
9D
100
AcDbEntity
  8
0
  6
Continuous
 62
     7
100
AcDbLine
 10
-80.24650883056626
 20
103.2499994969812
 30
0.0
 11
-80.24650883056611
 21
105.246507420032
 31
0.0
  0
LINE
  5
2B3
330
9D
100
AcDbEntity
  8
0
  6
Continuous
 62
     7
100
AcDbLine
 10
-84.75349298446426
 20
107.7534915739303
 30
0.0
 11
-84.61031782954811
 21
107.6103164190132
 31
0.0
  0
LINE
  5
2B4
330
9D
100
AcDbEntity
  8
0
  6
Continuous
 62
     7
100
AcDbLine
 10
-91.50000090751524
 20
109.2499994969812
 30
0.0
 11
-72.00000090751524
 21
109.2499994969812
 31
0.0
  0
LINE
  5
2B5
330
9D
100
AcDbEntity
  8
0
  6
Continuous
 62
     7
100
AcDbLine
 10
-84.61031782954811
 20
107.6103164190132
 30
0.0
 11
-78.8896839854821
 21
107.6103164190132
 31
0.0
  0
LINE
  5
2B6
330
9D
100
AcDbEntity
  8
0
  6
Continuous
 62
     7
100
AcDbLine
 10
-78.8896839854821
 20
107.6103164190132
 30
0.0
 11
-78.88968398548226
 21
105.3896825749471
 31
0.0
  0
LINE
  5
2B7
330
9D
100
AcDbEntity
  8
0
  6
Continuous
 62
     7
100
AcDbLine
 10
-78.88968398548226
 20
105.3896825749471
 30
0.0
 11
-80.38968398548226
 21
105.3896825749471
 31
0.0
  0
LINE
  5
2B8
330
9D
100
AcDbEntity
  8
0
  6
Continuous
 62
     7
100
AcDbLine
 10
-84.61031782954828
 20
105.3896825749472
 30
0.0
 11
-84.61031782954811
 21
107.6103164190132
 31
0.0
  0
LINE
  5
2B9
330
9D
100
AcDbEntity
  8
0
  6
Continuous
 62
     7
100
AcDbLine
 10
-84.75349298446443
 20
105.246507420032
 30
0.0
 11
-83.25349298446443
 21
105.246507420032
 31
0.0
  0
LINE
  5
2BA
330
9D
100
AcDbEntity
  8
0
  6
Continuous
 62
     7
100
AcDbLine
 10
-84.75349298446426
 20
107.7534915739303
 30
0.0
 11
-84.75349298446443
 21
105.246507420032
 31
0.0
  0
LINE
  5
2BB
330
9D
100
AcDbEntity
  8
0
  6
Continuous
 62
     7
100
AcDbLine
 10
-78.74650883056592
 20
107.7534915739303
 30
0.0
 11
-78.8896839854821
 21
107.6103164190132
 31
0.0
  0
LINE
  5
2BC
330
9D
100
AcDbEntity
  8
0
  6
Continuous
 62
     7
100
AcDbLine
 10
-84.75349298446443
 20
105.246507420032
 30
0.0
 11
-84.61031782954828
 21
105.3896825749472
 31
0.0
  0
LINE
  5
2BD
330
9D
100
AcDbEntity
  8
1
  6
DOT_CENTER
 62
     2
100
AcDbLine
 10
-76.25000090751519
 20
92.99999949697806
 30
0.0
 11
-87.25000090751536
 21
92.99999949697806
 31
0.0
  0
LINE
  5
2BE
330
9D
100
AcDbEntity
  8
1
  6
DOT_CENTER
 62
     2
100
AcDbLine
 10
-81.75000090751527
 20
98.49999949697815
 30
0.0
 11
-81.75000090751527
 21
87.49999949697798
 31
0.0
  0
LINE
  5
2BF
330
9D
100
AcDbEntity
  8
1
  6
DOT_CENTER
 62
     2
100
AcDbLine
 10
-73.91000090751527
 20
105.7499994969807
 30
0.0
 11
-78.09000090751528
 21
105.7499994969807
 31
0.0
  0
LINE
  5
2C0
330
9D
100
AcDbEntity
  8
1
  6
DOT_CENTER
 62
     2
100
AcDbLine
 10
-76.00000090751527
 20
107.8399994969807
 30
0.0
 11
-76.00000090751527
 21
103.6599994969807
 31
0.0
  0
LINE
  5
2C1
330
9D
100
AcDbEntity
  8
1
  6
DOT_CENTER
 62
     2
100
AcDbLine
 10
-85.41000090751527
 20
105.7499994969816
 30
0.0
 11
-89.59000090751528
 21
105.7499994969816
 31
0.0
  0
LINE
  5
2C2
330
9D
100
AcDbEntity
  8
1
  6
DOT_CENTER
 62
     2
100
AcDbLine
 10
-87.50000090751527
 20
107.8399994969816
 30
0.0
 11
-87.50000090751527
 21
103.6599994969816
 31
0.0
  0
LINE
  5
2C3
330
9D
100
AcDbEntity
  8
1
  6
DOT_CENTER
 62
     2
100
AcDbLine
 10
-87.50000090751527
 20
79.7499994969809
 30
0.0
 11
-87.50000090751527
 21
82.7499994969809
 31
0.0
  0
CIRCLE
  5
2C4
330
9D
100
AcDbEntity
  8
0
  6
Continuous
 62
     7
100
AcDbCircle
 10
-76.00000090751527
 20
105.7499994969807
 30
0.0
 40
1.900000000000006
  0
CIRCLE
  5
2C5
330
9D
100
AcDbEntity
  8
0
  6
Continuous
 62
     7
100
AcDbCircle
 10
-87.50000090751527
 20
105.7499994969816
 30
0.0
 40
1.900000000000006
  0
CIRCLE
  5
2C6
330
9D
100
AcDbEntity
  8
0
  6
Continuous
 62
     7
100
AcDbCircle
 10
-81.75000090751527
 20
92.99999949697806
 30
0.0
 40
5.00000000000001
  0
ENDBLK
  5
9F
330
9D
100
AcDbEntity
  8
0
100
AcDbBlockEnd
  0
BLOCK
  5
A2
330
A0
100
AcDbEntity
  8
0
100
AcDbBlockBegin
  2
SA_Rechts1
 70
     0
 10
-81.74999999999301
 20
94.4999999999591
 30
0.0
  3
SA_Rechts1
  1

  0
INSERT
  5
A1
330
A0
100
AcDbEntity
  8
0
100
AcDbBlockReference
  2
CES_STPG_GY_10-select__5
 10
-92.0000009075153
 20
79.7499994969809
 30
0.0
  0
MTEXT
  5
2C7
330
A0
100
AcDbEntity
  8
1
 62
     6
100
AcDbMText
 10
-81.7500009075153
 20
77.2499994969809
 30
0.0
 40
2.5
 41
0.0
 71
     2
 72
     1
  1
 
  7
CONVERTER_11
 73
     1
 44
1.32052821128451
  0
ENDBLK
  5
A3
330
A0
100
AcDbEntity
  8
0
100
AcDbBlockEnd
  0
BLOCK
  5
A5
330
A4
100
AcDbEntity
  8
0
100
AcDbBlockBegin
  2
CES_STPG_GY_10-select__6
 70
     0
 10
-48.37499999996888
 20
79.74999949698051
 30
0.0
  3
CES_STPG_GY_10-select__6
  1

  0
LINE
  5
2C8
330
A4
100
AcDbEntity
  8
0
  6
Continuous
 62
     7
100
AcDbLine
 10
-40.27499999996397
 20
103.2499994969802
 30
0.0
 11
-40.27499999996346
 21
105.3896825749472
 31
0.0
  0
LINE
  5
2C9
330
A4
100
AcDbEntity
  8
0
  6
Continuous
 62
     7
100
AcDbLine
 10
-41.67884757726296
 20
79.74999949698051
 30
0.0
 11
-40.87499999996888
 21
82.74999949698031
 31
0.0
  0
LINE
  5
2CA
330
A4
100
AcDbEntity
  8
0
  6
Continuous
 62
     7
100
AcDbLine
 10
-48.37499999996888
 20
82.74999949698207
 30
0.0
 11
-48.37499999996257
 21
109.2499994969821
 31
0.0
  0
LINE
  5
2CB
330
A4
100
AcDbEntity
  8
0
  6
Continuous
 62
     7
100
AcDbLine
 10
-34.02499999996395
 20
103.2499994969788
 30
0.0
 11
-33.52499999996398
 21
103.2499994969786
 31
0.0
  0
LINE
  5
2CC
330
A4
100
AcDbEntity
  8
0
  6
Continuous
 62
     7
100
AcDbLine
 10
-34.52499999996886
 20
82.7499994969788
 30
0.0
 11
-34.52499999996401
 21
103.2499994969789
 31
0.0
  0
LINE
  5
2CD
330
A4
100
AcDbEntity
  8
0
  6
Continuous
 62
     7
100
AcDbLine
 10
-33.52499999996398
 20
103.2499994969786
 30
0.0
 11
-33.52499999996883
 21
82.74999949697857
 31
0.0
  0
LINE
  5
2CE
330
A4
100
AcDbEntity
  8
0
  6
Continuous
 62
     7
100
AcDbLine
 10
-48.37499999996257
 20
109.2499994969821
 30
0.0
 11
-44.37499999996254
 21
109.2499994969812
 31
0.0
  0
LINE
  5
2CF
330
A4
100
AcDbEntity
  8
0
  6
Continuous
 62
     7
100
AcDbLine
 10
-44.3749999999629
 20
107.7534915739303
 30
0.0
 11
-44.37499999996254
 21
109.2499994969812
 31
0.0
  0
LINE
  5
2D0
330
A4
100
AcDbEntity
  8
0
  6
Continuous
 62
     7
100
AcDbLine
 10
-44.37499999996396
 20
103.2499994969812
 30
0.0
 11
-44.37499999996351
 21
105.246507420032
 31
0.0
  0
LINE
  5
2D1
330
A4
100
AcDbEntity
  8
0
  6
Continuous
 62
     7
100
AcDbLine
 10
-44.37499999996351
 20
105.246507420032
 30
0.0
 11
-44.3749999999629
 21
107.7534915739303
 31
0.0
  0
LINE
  5
2D2
330
A4
100
AcDbEntity
  8
0
  6
Continuous
 62
     7
100
AcDbLine
 10
-34.52499999996401
 20
103.2499994969789
 30
0.0
 11
-34.02499999996395
 21
103.2499994969788
 31
0.0
  0
LINE
  5
2D3
330
A4
100
AcDbEntity
  8
0
  6
Continuous
 62
     7
100
AcDbLine
 10
-34.52499999996401
 20
103.2499994969789
 30
0.0
 11
-40.27499999996397
 21
103.2499994969802
 31
0.0
  0
LINE
  5
2D4
330
A4
100
AcDbEntity
  8
0
  6
Continuous
 62
     7
100
AcDbLine
 10
-45.07115242267622
 20
79.7499994969813
 30
0.0
 11
-41.67884757726296
 21
79.74999949698051
 31
0.0
  0
LINE
  5
2D5
330
A4
100
AcDbEntity
  8
0
  6
Continuous
 62
     7
100
AcDbLine
 10
-34.02499999996881
 20
82.74999949697869
 30
0.0
 11
-33.52499999996883
 21
82.74999949697857
 31
0.0
  0
LINE
  5
2D6
330
A4
100
AcDbEntity
  8
0
  6
Continuous
 62
     7
100
AcDbLine
 10
-34.52499999996886
 20
82.7499994969788
 30
0.0
 11
-34.02499999996881
 21
82.74999949697869
 31
0.0
  0
LINE
  5
2D7
330
A4
100
AcDbEntity
  8
0
  6
Continuous
 62
     7
100
AcDbLine
 10
-45.87499999996888
 20
82.7499994969815
 30
0.0
 11
-48.37499999996888
 21
82.74999949698207
 31
0.0
  0
LINE
  5
2D8
330
A4
100
AcDbEntity
  8
0
  6
Continuous
 62
     7
100
AcDbLine
 10
-40.87499999996888
 20
82.74999949698031
 30
0.0
 11
-45.87499999996888
 21
82.7499994969815
 31
0.0
  0
LINE
  5
2D9
330
A4
100
AcDbEntity
  8
0
  6
Continuous
 62
     7
100
AcDbLine
 10
-34.52499999996886
 20
82.7499994969788
 30
0.0
 11
-40.87499999996888
 21
82.74999949698031
 31
0.0
  0
LINE
  5
2DA
330
A4
100
AcDbEntity
  8
0
  6
Continuous
 62
     7
100
AcDbLine
 10
-40.27499999996346
 20
105.3896825749472
 30
0.0
 11
-40.27499999996293
 21
107.6103164190132
 31
0.0
  0
LINE
  5
2DB
330
A4
100
AcDbEntity
  8
0
  6
Continuous
 62
     7
100
AcDbLine
 10
-44.3749999999629
 20
107.7534915739303
 30
0.0
 11
-40.27499999996293
 21
107.6103164190132
 31
0.0
  0
LINE
  5
2DC
330
A4
100
AcDbEntity
  8
0
  6
Continuous
 62
     7
100
AcDbLine
 10
-40.27499999996397
 20
103.2499994969802
 30
0.0
 11
-44.37499999996396
 21
103.2499994969812
 31
0.0
  0
LINE
  5
2DD
330
A4
100
AcDbEntity
  8
0
  6
Continuous
 62
     7
100
AcDbLine
 10
-44.37499999996351
 20
105.246507420032
 30
0.0
 11
-40.27499999996346
 21
105.3896825749472
 31
0.0
  0
LINE
  5
2DE
330
A4
100
AcDbEntity
  8
0
  6
Continuous
 62
     7
100
AcDbLine
 10
-31.37499999996896
 20
82.74999949697806
 30
0.0
 11
-33.52499999996883
 21
82.74999949697857
 31
0.0
  0
LINE
  5
2DF
330
A4
100
AcDbEntity
  8
0
  6
Continuous
 62
     7
100
AcDbLine
 10
-31.37499999996408
 20
103.2499994969781
 30
0.0
 11
-33.52499999996398
 21
103.2499994969786
 31
0.0
  0
LINE
  5
2E0
330
A4
100
AcDbEntity
  8
0
  6
Continuous
 62
     7
100
AcDbLine
 10
-34.02499999996395
 20
103.2499994969788
 30
0.0
 11
-34.02499999996881
 21
82.74999949697869
 31
0.0
  0
LINE
  5
2E1
330
A4
100
AcDbEntity
  8
0
  6
Continuous
 62
     7
100
AcDbLine
 10
-31.37499999996408
 20
103.2499994969781
 30
0.0
 11
-31.37499999996896
 21
82.74999949697806
 31
0.0
  0
LINE
  5
2E2
330
A4
100
AcDbEntity
  8
0
  6
Continuous
 62
     7
100
AcDbLine
 10
-45.07115242267622
 20
79.7499994969813
 30
0.0
 11
-45.87499999996888
 21
82.7499994969815
 31
0.0
  0
LINE
  5
2E3
330
A4
100
AcDbEntity
  8
1
  6
DOT_CENTER
 62
     2
100
AcDbLine
 10
-43.37499999996959
 20
79.7499994969809
 30
0.0
 11
-43.37499999996888
 21
82.7499994969809
 31
0.0
  0
ENDBLK
  5
A6
330
A4
100
AcDbEntity
  8
0
100
AcDbBlockEnd
  0
BLOCK
  5
A9
330
A7
100
AcDbEntity
  8
0
100
AcDbBlockBegin
  2
Vordans1
 70
     0
 10
-39.8749999999965
 20
94.4999999999591
 30
0.0
  3
Vordans1
  1

  0
INSERT
  5
A8
330
A7
100
AcDbEntity
  8
0
100
AcDbBlockReference
  2
CES_STPG_GY_10-select__6
 10
-48.37499999996888
 20
79.74999949698051
 30
0.0
  0
MTEXT
  5
2E4
330
A7
100
AcDbEntity
  8
1
 62
     6
100
AcDbMText
 10
-33.39180289207756
 20
65.52888831579605
 30
0.0
 40
2.5
 41
0.0
 71
     2
 72
     1
  1
 
  7
CONVERTER_11
 73
     1
 44
1.32052821128451
  0
DIMENSION
  5
2EF
330
A7
100
AcDbEntity
  8
1
100
AcDbDimension
  2
*D18
 10
-54.40860578418626
 20
79.74999949698048
 30
0.0
 11
-56.37110578418626
 21
94.49304562991802
 31
0.0
 70
    32
  1
<>
 71
     5
 42
-1.0
 53
90.0
  3
ME10_DIM_11
100
AcDbAlignedDimension
 13
-44.37499999996254
 23
109.2499994969812
 33
0.0
 14
-41.67884757726296
 24
79.74999949698051
 34
0.0
 50
90.0
100
AcDbRotatedDimension
  0
DIMENSION
  5
2FA
330
A7
100
AcDbEntity
  8
1
100
AcDbDimension
  2
*D19
 10
-31.37499999996897
 20
73.52888831579605
 30
0.0
 11
-40.20504712673898
 21
75.40388831579605
 31
0.0
 70
    32
  1
<>
 71
     5
 42
-1.0
 53
0.00013888888889
  3
ME10_DIM_12
100
AcDbAlignedDimension
 13
-48.37499999996888
 23
82.74999949698207
 33
0.0
 14
-31.37499999996896
 24
82.74999949697806
 34
0.0
100
AcDbRotatedDimension
  0
ENDBLK
  5
AA
330
A7
100
AcDbEntity
  8
0
100
AcDbBlockEnd
  0
BLOCK
  5
B3
330
AB
100
AcDbEntity
  8
0
100
AcDbBlockBegin
  2
1
 70
     0
 10
0.0
 20
0.0
 30
0.0
  3
1
  1

  0
INSERT
  5
AC
330
AB
100
AcDbEntity
  8
0
100
AcDbBlockReference
  2
A3I_CS
 10
143.2431072854664
 20
-45.29362749516849
 30
0.0
  0
INSERT
  5
AD
330
AB
100
AcDbEntity
  8
0
100
AcDbBlockReference
  2
AllgSicht1
 10
101.0000000000202
 20
34.46088521921012
 30
0.0
 41
2.0
 42
2.0
 43
2.0
  0
INSERT
  5
AE
330
AB
100
AcDbEntity
  8
0
100
AcDbBlockReference
  2
Drfsicht1
 10
-79.749999999993
 20
94.99999904624804
 30
0.0
 41
2.0
 42
2.0
 43
2.0
  0
INSERT
  5
AF
330
AB
100
AcDbEntity
  8
0
100
AcDbBlockReference
  2
Rckans1
 10
62.74999999999282
 20
188.9999999999182
 30
0.0
 41
2.0
 42
2.0
 43
2.0
  0
INSERT
  5
B0
330
AB
100
AcDbEntity
  8
0
100
AcDbBlockReference
  2
SA_Links1
 10
-8.05331394984934
 20
188.9999999998362
 30
0.0
 41
2.0
 42
2.0
 43
2.0
  0
INSERT
  5
B1
330
AB
100
AcDbEntity
  8
0
100
AcDbBlockReference
  2
SA_Rechts1
 10
-163.499999999986
 20
188.9999999999182
 30
0.0
 41
2.0
 42
2.0
 43
2.0
  0
INSERT
  5
B2
330
AB
100
AcDbEntity
  8
0
100
AcDbBlockReference
  2
Vordans1
 10
-79.749999999993
 20
188.9999999999182
 30
0.0
 41
2.0
 42
2.0
 43
2.0
  0
ENDBLK
  5
B4
330
AB
100
AcDbEntity
  8
0
100
AcDbBlockEnd
  0
BLOCK
  5
255
330
24E
100
AcDbEntity
  8
0
100
AcDbBlockBegin
  2
*D17
 70
     1
 10
0.0
 20
0.0
 30
0.0
  3
*D17
  1

  0
LINE
  5
24F
330
24E
100
AcDbEntity
  8
1
  6
Continuous
 62
     2
100
AcDbLine
 10
-54.40860578418626
 20
57.74999861560175
 30
0.0
 11
-54.40860578418626
 21
37.24999861560175
 31
0.0
  0
LINE
  5
250
330
24E
100
AcDbEntity
  8
1
  6
Continuous
 62
     2
100
AcDbLine
 10
-42.32499999996397
 20
57.74999861560175
 30
0.0
 11
-55.15860578418626
 21
57.74999861560175
 31
0.0
  0
LINE
  5
251
330
24E
100
AcDbEntity
  8
1
  6
Continuous
 62
     2
100
AcDbLine
 10
-34.02499999996397
 20
37.24999861560175
 30
0.0
 11
-55.15860578418626
 21
37.24999861560175
 31
0.0
  0
SOLID
  5
252
330
24E
100
AcDbEntity
  8
1
 62
     2
100
AcDbTrace
 10
-54.17821391340831
 20
55.99999861560175
 30
0.0
 11
-54.6389976549642
 21
55.99999861560175
 31
0.0
 12
-54.40860578418626
 22
57.74999861560175
 32
0.0
 13
-54.40860578418626
 23
57.74999861560175
 33
0.0
  0
SOLID
  5
253
330
24E
100
AcDbEntity
  8
1
 62
     2
100
AcDbTrace
 10
-54.6389976549642
 20
38.99999861560175
 30
0.0
 11
-54.17821391340831
 21
38.99999861560175
 31
0.0
 12
-54.40860578418626
 22
37.24999861560175
 32
0.0
 13
-54.40860578418626
 23
37.24999861560175
 33
0.0
  0
MTEXT
  5
254
330
24E
100
AcDbEntity
  8
1
 62
     3
100
AcDbMText
 10
-55.33360578418626
 20
45.03145764611925
 30
0.0
 40
1.75
 41
0.0
 71
     7
 72
     1
  1
20,5
  7
CONVERTER_11
 11
0.0
 21
1.0
 31
0.0
 73
     1
 44
0.60024009603842
  0
ENDBLK
  5
256
330
24E
100
AcDbEntity
  8
0
100
AcDbBlockEnd
  0
BLOCK
  5
2EC
330
2E5
100
AcDbEntity
  8
0
100
AcDbBlockBegin
  2
*D18
 70
     1
 10
0.0
 20
0.0
 30
0.0
  3
*D18
  1

  0
LINE
  5
2E6
330
2E5
100
AcDbEntity
  8
1
  6
Continuous
 62
     2
100
AcDbLine
 10
-54.40860578418626
 20
79.74999949698048
 30
0.0
 11
-54.40860578418626
 21
109.2499994969812
 31
0.0
  0
LINE
  5
2E7
330
2E5
100
AcDbEntity
  8
1
  6
Continuous
 62
     2
100
AcDbLine
 10
-41.678847577263
 20
79.74999949698048
 30
0.0
 11
-55.40860578418626
 21
79.74999949698048
 31
0.0
  0
LINE
  5
2E8
330
2E5
100
AcDbEntity
  8
1
  6
Continuous
 62
     2
100
AcDbLine
 10
-44.37499999996257
 20
109.2499994969812
 30
0.0
 11
-55.40860578418626
 21
109.2499994969812
 31
0.0
  0
SOLID
  5
2E9
330
2E5
100
AcDbEntity
  8
1
 62
     2
100
AcDbTrace
 10
-54.6389976549642
 20
81.49999949698048
 30
0.0
 11
-54.17821391340831
 21
81.49999949698048
 31
0.0
 12
-54.40860578418626
 22
79.74999949698048
 32
0.0
 13
-54.40860578418626
 23
79.74999949698048
 33
0.0
  0
SOLID
  5
2EA
330
2E5
100
AcDbEntity
  8
1
 62
     2
100
AcDbTrace
 10
-54.17821391340831
 20
107.4999994969812
 30
0.0
 11
-54.6389976549642
 21
107.4999994969812
 31
0.0
 12
-54.40860578418626
 22
109.2499994969812
 32
0.0
 13
-54.40860578418626
 23
109.2499994969812
 33
0.0
  0
MTEXT
  5
2EB
330
2E5
100
AcDbEntity
  8
1
 62
     3
100
AcDbMText
 10
-55.58360578418626
 20
92.08679562991802
 30
0.0
 40
1.75
 41
0.0
 71
     7
 72
     1
  1
29,5
  7
CONVERTER_11
 11
0.0
 21
1.0
 31
0.0
 73
     1
 44
0.60024009603842
  0
ENDBLK
  5
2ED
330
2E5
100
AcDbEntity
  8
0
100
AcDbBlockEnd
  0
BLOCK
  5
2F7
330
2F0
100
AcDbEntity
  8
0
100
AcDbBlockBegin
  2
*D19
 70
     1
 10
0.0
 20
0.0
 30
0.0
  3
*D19
  1

  0
LINE
  5
2F1
330
2F0
100
AcDbEntity
  8
1
  6
Continuous
 62
     2
100
AcDbLine
 10
-31.37499999996897
 20
73.52888831579605
 30
0.0
 11
-48.37499999996889
 21
73.52888831579605
 31
0.0
  0
LINE
  5
2F2
330
2F0
100
AcDbEntity
  8
1
  6
Continuous
 62
     2
100
AcDbLine
 10
-31.37499999996897
 20
82.74999949697806
 30
0.0
 11
-31.37499999996897
 21
72.52888831579605
 31
0.0
  0
LINE
  5
2F3
330
2F0
100
AcDbEntity
  8
1
  6
Continuous
 62
     2
100
AcDbLine
 10
-48.37499999996889
 20
82.7499994969821
 30
0.0
 11
-48.37499999996889
 21
72.52888831579605
 31
0.0
  0
SOLID
  5
2F4
330
2F0
100
AcDbEntity
  8
1
 62
     2
100
AcDbTrace
 10
-33.12499999996897
 20
73.29849644501812
 30
0.0
 11
-33.12499999996897
 21
73.75928018657399
 31
0.0
 12
-31.37499999996897
 22
73.52888831579605
 32
0.0
 13
-31.37499999996897
 23
73.52888831579605
 33
0.0
  0
SOLID
  5
2F5
330
2F0
100
AcDbEntity
  8
1
 62
     2
100
AcDbTrace
 10
-46.62499999996889
 20
73.75928018657399
 30
0.0
 11
-46.62499999996889
 21
73.29849644501812
 31
0.0
 12
-48.37499999996889
 22
73.52888831579605
 32
0.0
 13
-48.37499999996889
 23
73.52888831579605
 33
0.0
  0
MTEXT
  5
2F6
330
2F0
100
AcDbEntity
  8
1
 62
     3
100
AcDbMText
 10
-41.25504712673898
 20
74.52888831579605
 30
0.0
 40
1.75
 41
0.0
 71
     7
 72
     1
  1
17
  7
CONVERTER_11
 11
0.9999999999970619
 21
2.424068405545306E-6
 31
0.0
 73
     1
 44
0.60024009603842
  0
ENDBLK
  5
2F8
330
2F0
100
AcDbEntity
  8
0
100
AcDbBlockEnd
  0
ENDSEC
  0
SECTION
  2
ENTITIES
  0
INSERT
  5
B5
330
1F
100
AcDbEntity
  8
1
100
AcDbBlockReference
  2
1
 10
0.0
 20
0.0
 30
0.0
  0
ENDSEC
  0
SECTION
  2
OBJECTS
  0
DICTIONARY
  5
C
330
0
100
AcDbDictionary
281
     1
  3
ACAD_DETAILVIEWSTYLE
350
340
  3
ACAD_GROUP
350
D
  3
ACAD_LAYOUT
350
1A
  3
ACAD_MATERIAL
350
43
  3
ACAD_MLEADERSTYLE
350
6B
  3
ACAD_MLINESTYLE
350
17
  3
ACAD_PLOTSETTINGS
350
19
  3
ACAD_PLOTSTYLENAME
350
E
  3
ACAD_SCALELIST
350
47
  3
ACAD_SECTIONVIEWSTYLE
350
341
  3
ACAD_TABLESTYLE
350
69
  3
ACAD_VISUALSTYLE
350
2A
  3
ACDB_RECOMPOSE_DATA
350
33D
  3
AcDbVariableDictionary
350
2FD
  0
DICTIONARY
  5
2FB
330
8
100
AcDbDictionary
280
     1
281
     1
  3
ACAD_XREC_ROUNDTRIP
360
2FC
  0
DICTIONARY
  5
340
102
{ACAD_REACTORS
330
C
102
}
330
C
100
AcDbDictionary
281
     1
  0
DICTIONARY
  5
D
102
{ACAD_REACTORS
330
C
102
}
330
C
100
AcDbDictionary
281
     1
  0
DICTIONARY
  5
1A
102
{ACAD_REACTORS
330
C
102
}
330
C
100
AcDbDictionary
281
     1
  3
Layout1
350
1E
  3
Layout2
350
26
  3
Model
350
22
  0
DICTIONARY
  5
43
102
{ACAD_REACTORS
330
C
102
}
330
C
100
AcDbDictionary
281
     1
  3
ByBlock
350
45
  3
ByLayer
350
44
  3
Global
350
46
  0
DICTIONARY
  5
6B
102
{ACAD_REACTORS
330
C
102
}
330
C
100
AcDbDictionary
281
     1
  3
Standard
350
6C
  0
DICTIONARY
  5
17
102
{ACAD_REACTORS
330
C
102
}
330
C
100
AcDbDictionary
281
     1
  3
Standard
350
18
  0
DICTIONARY
  5
19
102
{ACAD_REACTORS
330
C
102
}
330
C
100
AcDbDictionary
281
     1
  0
ACDBDICTIONARYWDFLT
  5
E
102
{ACAD_REACTORS
330
C
102
}
330
C
100
AcDbDictionary
281
     1
  3
Normal
350
F
100
AcDbDictionaryWithDefault
340
F
  0
DICTIONARY
  5
47
102
{ACAD_REACTORS
330
C
102
}
330
C
100
AcDbDictionary
281
     1
  3
A0
350
48
  3
A1
350
49
  3
A2
350
4A
  3
A3
350
4B
  3
A4
350
4C
  3
A5
350
4D
  3
A6
350
4E
  3
A7
350
4F
  3
A8
350
50
  3
A9
350
51
  3
B0
350
52
  3
B1
350
53
  3
B2
350
54
  3
B3
350
55
  3
B4
350
56
  3
B5
350
57
  3
B6
350
58
  3
B7
350
59
  3
B8
350
5A
  3
B9
350
5B
  3
C0
350
5C
  3
C1
350
5D
  3
C2
350
5E
  3
C3
350
5F
  3
C4
350
60
  3
C5
350
61
  3
C6
350
62
  3
C7
350
63
  3
C8
350
64
  3
C9
350
65
  3
D0
350
66
  3
D1
350
67
  3
D2
350
68
  0
DICTIONARY
  5
341
102
{ACAD_REACTORS
330
C
102
}
330
C
100
AcDbDictionary
281
     1
  0
DICTIONARY
  5
69
102
{ACAD_REACTORS
330
C
102
}
330
C
100
AcDbDictionary
281
     1
  3
Standard
350
6A
  0
DICTIONARY
  5
2A
102
{ACAD_REACTORS
330
C
102
}
330
C
100
AcDbDictionary
281
     1
  3
2dWireframe
350
2F
  3
Basic
350
32
  3
Brighten
350
36
  3
ColorChange
350
3A
  3
Conceptual
350
34
  3
Dim
350
35
  3
EdgeColorOff
350
3D
  3
Facepattern
350
39
  3
Flat
350
2B
  3
FlatWithEdges
350
2C
  3
Gouraud
350
2D
  3
GouraudWithEdges
350
2E
  3
Hidden
350
31
  3
JitterOff
350
3B
  3
Linepattern
350
38
  3
OverhangOff
350
3C
  3
Realistic
350
33
  3
Shaded
350
42
  3
Shaded with edges
350
41
  3
Shades of Gray
350
3E
  3
Sketchy
350
3F
  3
Thicken
350
37
  3
Wireframe
350
30
  3
X-Ray
350
40
  0
XRECORD
  5
33D
102
{ACAD_REACTORS
330
C
102
}
330
C
100
AcDbXrecord
280
     1
 90
        1
330
6A
  0
DICTIONARY
  5
2FD
102
{ACAD_REACTORS
330
C
102
}
330
C
100
AcDbDictionary
281
     1
  3
CANNOSCALE
350
2FE
  3
CMLEADERSTYLE
350
33F
  3
CTABLESTYLE
350
33E
  3
MSLTSCALE
350
2FF
  3
XCLIPFRAME
350
300
  0
XRECORD
  5
2FC
102
{ACAD_REACTORS
330
2FB
102
}
330
2FB
100
AcDbXrecord
280
     1
102
VTR_0.000_0.000_1.000_1.000_VISUALSTYLE
340
2F
102
VTR_0.000_0.000_1.000_1.000_GRIDDISPLAY
 70
     3
102
VTR_0.000_0.000_1.000_1.000_GRIDMAJOR
 70
     5
102
VTR_0.000_0.000_1.000_1.000_DEFAULTLIGHTING
280
     1
102
VTR_0.000_0.000_1.000_1.000_DEFAULTLIGHTINGTYPE
 70
     1
102
VTR_0.000_0.000_1.000_1.000_BRIGHTNESS
141
0.0
102
VTR_0.000_0.000_1.000_1.000_CONTRAST
142
0.0
  0
LAYOUT
  5
1E
102
{ACAD_REACTORS
330
1A
102
}
330
1A
100
AcDbPlotSettings
  1

  2
none_device
  4

  6

 40
0.0
 41
0.0
 42
0.0
 43
0.0
 44
0.0
 45
0.0
 46
0.0
 47
0.0
 48
0.0
 49
0.0
140
0.0
141
0.0
142
1.0
143
1.0
 70
   688
 72
     0
 73
     0
 74
     5
  7

 75
    16
 76
     0
 77
     2
 78
   300
147
1.0
148
0.0
149
0.0
100
AcDbLayout
  1
Layout1
 70
     1
 71
     1
 10
0.0
 20
0.0
 11
12.0
 21
9.0
 12
0.0
 22
0.0
 32
0.0
 14
1.00000000000000E+20
 24
1.00000000000000E+20
 34
1.00000000000000E+20
 15
-1.00000000000000E+20
 25
-1.00000000000000E+20
 35
-1.00000000000000E+20
146
0.0
 13
0.0
 23
0.0
 33
0.0
 16
1.0
 26
0.0
 36
0.0
 17
0.0
 27
1.0
 37
0.0
 76
     0
330
1B
  0
LAYOUT
  5
26
102
{ACAD_REACTORS
330
1A
102
}
330
1A
100
AcDbPlotSettings
  1

  2
none_device
  4

  6

 40
0.0
 41
0.0
 42
0.0
 43
0.0
 44
0.0
 45
0.0
 46
0.0
 47
0.0
 48
0.0
 49
0.0
140
0.0
141
0.0
142
1.0
143
1.0
 70
   688
 72
     0
 73
     0
 74
     5
  7

 75
    16
 76
     0
 77
     2
 78
   300
147
1.0
148
0.0
149
0.0
100
AcDbLayout
  1
Layout2
 70
     1
 71
     2
 10
0.0
 20
0.0
 11
0.0
 21
0.0
 12
0.0
 22
0.0
 32
0.0
 14
0.0
 24
0.0
 34
0.0
 15
0.0
 25
0.0
 35
0.0
146
0.0
 13
0.0
 23
0.0
 33
0.0
 16
1.0
 26
0.0
 36
0.0
 17
0.0
 27
1.0
 37
0.0
 76
     0
330
23
  0
LAYOUT
  5
22
102
{ACAD_REACTORS
330
1A
102
}
330
1A
100
AcDbPlotSettings
  1

  2
none_device
  4
Letter_(8.50_x_11.00_Inches)
  6

 40
6.35
 41
6.35
 42
6.35000508
 43
6.35000508
 44
215.9
 45
279.4
 46
0.0
 47
0.0
 48
0.0
 49
0.0
140
0.0
141
0.0
142
1.0
143
1.0
 70
  1712
 72
     0
 73
     0
 74
     0
  7

 75
     0
 76
     0
 77
     2
 78
   300
147
1.0
148
0.0
149
0.0
100
AcDbLayout
  1
Model
 70
     1
 71
     0
 10
0.0
 20
0.0
 11
12.0
 21
9.0
 12
0.0
 22
0.0
 32
0.0
 14
-271.7568927145344
 24
-45.29362749516849
 34
0.0
 15
148.243107285464
 25
251.7063725048315
 35
0.0
146
0.0
 13
0.0
 23
0.0
 33
0.0
 16
1.0
 26
0.0
 36
0.0
 17
0.0
 27
1.0
 37
0.0
 76
     0
330
1F
331
29
  0
MATERIAL
  5
45
102
{ACAD_REACTORS
330
43
102
}
102
{ACAD_XDICTIONARY
360
333
102
}
330
43
100
AcDbMaterial
  1
ByBlock
  0
MATERIAL
  5
44
102
{ACAD_REACTORS
330
43
102
}
102
{ACAD_XDICTIONARY
360
331
102
}
330
43
100
AcDbMaterial
  1
ByLayer
  0
MATERIAL
  5
46
102
{ACAD_REACTORS
330
43
102
}
102
{ACAD_XDICTIONARY
360
335
102
}
330
43
100
AcDbMaterial
  1
Global
  0
MLEADERSTYLE
  5
6C
102
{ACAD_REACTORS
330
6B
102
}
102
{ACAD_XDICTIONARY
360
33B
102
}
330
6B
100
AcDbMLeaderStyle
170
     2
171
     1
172
     0
 90
        2
 40
0.0
 41
0.0
173
     1
 91
-1056964608
340
14
 92
       -2
290
     1
 42
0.09
291
     1
 43
0.36
  3
Standard
341
0
 44
0.18
300

342
11
174
     1
178
     6
175
     1
176
     0
 93
-1056964608
 45
0.18
292
     0
297
     0
 46
0.18
343
0
 94
-1056964608
 47
1.0
 49
1.0
140
1.0
293
     1
141
0.0
294
     1
177
     0
142
1.0
295
     0
296
     0
143
0.125
1001
ACAD_MLEADERVER
1070
     2
  0
MLINESTYLE
  5
18
102
{ACAD_REACTORS
330
17
102
}
330
17
100
AcDbMlineStyle
  2
Standard
 70
     0
  3

 62
   256
 51
90.0
 52
90.0
 71
     2
 49
0.5
 62
   256
  6
BYLAYER
 49
-0.5
 62
   256
  6
BYLAYER
  0
ACDBPLACEHOLDER
  5
F
102
{ACAD_REACTORS
330
E
102
}
330
E
  0
SCALE
  5
48
102
{ACAD_REACTORS
330
47
102
}
330
47
100
AcDbScale
 70
     0
300
1:1
140
1.0
141
1.0
290
     1
  0
SCALE
  5
49
102
{ACAD_REACTORS
330
47
102
}
330
47
100
AcDbScale
 70
     0
300
1:2
140
1.0
141
2.0
290
     0
  0
SCALE
  5
4A
102
{ACAD_REACTORS
330
47
102
}
330
47
100
AcDbScale
 70
     0
300
1:4
140
1.0
141
4.0
290
     0
  0
SCALE
  5
4B
102
{ACAD_REACTORS
330
47
102
}
330
47
100
AcDbScale
 70
     0
300
1:5
140
1.0
141
5.0
290
     0
  0
SCALE
  5
4C
102
{ACAD_REACTORS
330
47
102
}
330
47
100
AcDbScale
 70
     0
300
1:8
140
1.0
141
8.0
290
     0
  0
SCALE
  5
4D
102
{ACAD_REACTORS
330
47
102
}
330
47
100
AcDbScale
 70
     0
300
1:10
140
1.0
141
10.0
290
     0
  0
SCALE
  5
4E
102
{ACAD_REACTORS
330
47
102
}
330
47
100
AcDbScale
 70
     0
300
1:16
140
1.0
141
16.0
290
     0
  0
SCALE
  5
4F
102
{ACAD_REACTORS
330
47
102
}
330
47
100
AcDbScale
 70
     0
300
1:20
140
1.0
141
20.0
290
     0
  0
SCALE
  5
50
102
{ACAD_REACTORS
330
47
102
}
330
47
100
AcDbScale
 70
     0
300
1:30
140
1.0
141
30.0
290
     0
  0
SCALE
  5
51
102
{ACAD_REACTORS
330
47
102
}
330
47
100
AcDbScale
 70
     0
300
1:40
140
1.0
141
40.0
290
     0
  0
SCALE
  5
52
102
{ACAD_REACTORS
330
47
102
}
330
47
100
AcDbScale
 70
     0
300
1:50
140
1.0
141
50.0
290
     0
  0
SCALE
  5
53
102
{ACAD_REACTORS
330
47
102
}
330
47
100
AcDbScale
 70
     0
300
1:100
140
1.0
141
100.0
290
     0
  0
SCALE
  5
54
102
{ACAD_REACTORS
330
47
102
}
330
47
100
AcDbScale
 70
     0
300
2:1
140
2.0
141
1.0
290
     0
  0
SCALE
  5
55
102
{ACAD_REACTORS
330
47
102
}
330
47
100
AcDbScale
 70
     0
300
4:1
140
4.0
141
1.0
290
     0
  0
SCALE
  5
56
102
{ACAD_REACTORS
330
47
102
}
330
47
100
AcDbScale
 70
     0
300
8:1
140
8.0
141
1.0
290
     0
  0
SCALE
  5
57
102
{ACAD_REACTORS
330
47
102
}
330
47
100
AcDbScale
 70
     0
300
10:1
140
10.0
141
1.0
290
     0
  0
SCALE
  5
58
102
{ACAD_REACTORS
330
47
102
}
330
47
100
AcDbScale
 70
     0
300
100:1
140
100.0
141
1.0
290
     0
  0
SCALE
  5
59
102
{ACAD_REACTORS
330
47
102
}
330
47
100
AcDbScale
 70
     0
300
1/128" = 1'-0"
140
0.0078125
141
12.0
290
     0
  0
SCALE
  5
5A
102
{ACAD_REACTORS
330
47
102
}
330
47
100
AcDbScale
 70
     0
300
1/64" = 1'-0"
140
0.015625
141
12.0
290
     0
  0
SCALE
  5
5B
102
{ACAD_REACTORS
330
47
102
}
330
47
100
AcDbScale
 70
     0
300
1/32" = 1'-0"
140
0.03125
141
12.0
290
     0
  0
SCALE
  5
5C
102
{ACAD_REACTORS
330
47
102
}
330
47
100
AcDbScale
 70
     0
300
1/16" = 1'-0"
140
0.0625
141
12.0
290
     0
  0
SCALE
  5
5D
102
{ACAD_REACTORS
330
47
102
}
330
47
100
AcDbScale
 70
     0
300
3/32" = 1'-0"
140
0.09375
141
12.0
290
     0
  0
SCALE
  5
5E
102
{ACAD_REACTORS
330
47
102
}
330
47
100
AcDbScale
 70
     0
300
1/8" = 1'-0"
140
0.125
141
12.0
290
     0
  0
SCALE
  5
5F
102
{ACAD_REACTORS
330
47
102
}
330
47
100
AcDbScale
 70
     0
300
3/16" = 1'-0"
140
0.1875
141
12.0
290
     0
  0
SCALE
  5
60
102
{ACAD_REACTORS
330
47
102
}
330
47
100
AcDbScale
 70
     0
300
1/4" = 1'-0"
140
0.25
141
12.0
290
     0
  0
SCALE
  5
61
102
{ACAD_REACTORS
330
47
102
}
330
47
100
AcDbScale
 70
     0
300
3/8" = 1'-0"
140
0.375
141
12.0
290
     0
  0
SCALE
  5
62
102
{ACAD_REACTORS
330
47
102
}
330
47
100
AcDbScale
 70
     0
300
1/2" = 1'-0"
140
0.5
141
12.0
290
     0
  0
SCALE
  5
63
102
{ACAD_REACTORS
330
47
102
}
330
47
100
AcDbScale
 70
     0
300
3/4" = 1'-0"
140
0.75
141
12.0
290
     0
  0
SCALE
  5
64
102
{ACAD_REACTORS
330
47
102
}
330
47
100
AcDbScale
 70
     0
300
1" = 1'-0"
140
1.0
141
12.0
290
     0
  0
SCALE
  5
65
102
{ACAD_REACTORS
330
47
102
}
330
47
100
AcDbScale
 70
     0
300
1-1/2" = 1'-0"
140
1.5
141
12.0
290
     0
  0
SCALE
  5
66
102
{ACAD_REACTORS
330
47
102
}
330
47
100
AcDbScale
 70
     0
300
3" = 1'-0"
140
3.0
141
12.0
290
     0
  0
SCALE
  5
67
102
{ACAD_REACTORS
330
47
102
}
330
47
100
AcDbScale
 70
     0
300
6" = 1'-0"
140
6.0
141
12.0
290
     0
  0
SCALE
  5
68
102
{ACAD_REACTORS
330
47
102
}
330
47
100
AcDbScale
 70
     0
300
1'-0" = 1'-0"
140
12.0
141
12.0
290
     0
  0
TABLESTYLE
  5
6A
102
{ACAD_REACTORS
330
69
102
}
102
{ACAD_XDICTIONARY
360
337
102
}
330
69
100
AcDbTableStyle
  3
Standard
 70
     0
 71
     0
 40
0.06
 41
0.06
280
     0
281
     0
  7
Standard
140
0.18
170
     2
 62
     0
 63
   257
283
     0
274
    -2
284
     1
 64
     0
275
    -2
285
     1
 65
     0
276
    -2
286
     1
 66
     0
277
    -2
287
     1
 67
     0
278
    -2
288
     1
 68
     0
279
    -2
289
     1
 69
     0
  7
Standard
140
0.25
170
     5
 62
     0
 63
   257
283
     0
274
    -2
284
     1
 64
     0
275
    -2
285
     1
 65
     0
276
    -2
286
     1
 66
     0
277
    -2
287
     1
 67
     0
278
    -2
288
     1
 68
     0
279
    -2
289
     1
 69
     0
  7
Standard
140
0.18
170
     5
 62
     0
 63
   257
283
     0
274
    -2
284
     1
 64
     0
275
    -2
285
     1
 65
     0
276
    -2
286
     1
 66
     0
277
    -2
287
     1
 67
     0
278
    -2
288
     1
 68
     0
279
    -2
289
     1
 69
     0
  0
VISUALSTYLE
  5
2F
102
{ACAD_REACTORS
330
2A
102
}
102
{ACAD_XDICTIONARY
360
309
102
}
330
2A
100
AcDbVisualStyle
  2
2dWireframe
 70
     4
 71
     0
 72
     2
 73
     0
 90
        0
 40
0.6
 41
30.0
 62
     5
 63
     7
421
 16777215
 74
     1
 91
        4
 64
     7
 65
   257
 75
     1
175
     1
 42
1.0
 92
        0
 66
   257
 43
1.0
 76
     1
 77
     6
 78
     2
 67
     7
 79
     5
170
     0
171
     0
290
     0
174
     0
 93
        1
 44
0.0
173
     0
291
     0
 45
0.0
1001
ACAD
1000
AcDbSavedByObjectVersion
1070
     0
  0
VISUALSTYLE
  5
32
102
{ACAD_REACTORS
330
2A
102
}
102
{ACAD_XDICTIONARY
360
30F
102
}
330
2A
100
AcDbVisualStyle
  2
Basic
 70
     7
 71
     1
 72
     0
 73
     1
 90
        0
 40
0.6
 41
30.0
 62
     5
 63
     7
421
 16777215
 74
     0
 91
        4
 64
     7
 65
   257
 75
     1
175
     1
 42
1.0
 92
        8
 66
     7
 43
1.0
 76
     1
 77
     6
 78
     2
 67
     7
 79
     5
170
     0
171
     0
290
     0
174
     0
 93
        1
 44
0.0
173
     0
291
     1
 45
0.0
1001
ACAD
1000
AcDbSavedByObjectVersion
1070
     0
  0
VISUALSTYLE
  5
36
102
{ACAD_REACTORS
330
2A
102
}
102
{ACAD_XDICTIONARY
360
317
102
}
330
2A
100
AcDbVisualStyle
  2
Brighten
 70
    12
 71
     2
 72
     2
 73
     0
 90
        0
 40
0.6
 41
30.0
 62
     5
 63
     7
421
 16777215
 74
     1
 91
        4
 64
     7
 65
   257
 75
     1
175
     1
 42
1.0
 92
        8
 66
     7
 43
1.0
 76
     1
 77
     6
 78
     2
 67
     7
 79
     5
170
     0
171
     0
290
     0
174
     0
 93
        1
 44
50.0
173
     0
291
     1
 45
0.0
1001
ACAD
1000
AcDbSavedByObjectVersion
1070
     0
  0
VISUALSTYLE
  5
3A
102
{ACAD_REACTORS
330
2A
102
}
102
{ACAD_XDICTIONARY
360
31F
102
}
330
2A
100
AcDbVisualStyle
  2
ColorChange
 70
    16
 71
     2
 72
     2
 73
     3
 90
        0
 40
0.6
 41
30.0
 62
     5
 63
     8
421
  8421504
 74
     1
 91
        4
 64
     7
 65
   257
 75
     1
175
     1
 42
1.0
 92
        8
 66
     8
424
  8421504
 43
1.0
 76
     1
 77
     6
 78
     2
 67
     7
 79
     5
170
     0
171
     0
290
     0
174
     0
 93
        1
 44
0.0
173
     0
291
     1
 45
0.0
1001
ACAD
1000
AcDbSavedByObjectVersion
1070
     0
  0
VISUALSTYLE
  5
34
102
{ACAD_REACTORS
330
2A
102
}
102
{ACAD_XDICTIONARY
360
313
102
}
330
2A
100
AcDbVisualStyle
  2
Conceptual
 70
     9
 71
     3
 72
     2
 73
     0
 90
        0
 40
0.6
 41
30.0
 62
     5
 63
     7
421
 16777215
 74
     2
 91
        2
 64
     7
 65
   257
 75
     1
175
     1
 42
179.0
 92
        8
 66
     7
 43
1.0
 76
     1
 77
     6
 78
     2
 67
     7
 79
     3
170
     0
171
     0
290
     0
174
     0
 93
        1
 44
0.0
173
     0
291
     0
 45
0.0
1001
ACAD
1000
AcDbSavedByObjectVersion
1070
     0
  0
VISUALSTYLE
  5
35
102
{ACAD_REACTORS
330
2A
102
}
102
{ACAD_XDICTIONARY
360
315
102
}
330
2A
100
AcDbVisualStyle
  2
Dim
 70
    11
 71
     2
 72
     2
 73
     0
 90
        0
 40
0.6
 41
30.0
 62
     5
 63
     7
421
 16777215
 74
     1
 91
        4
 64
     7
 65
   257
 75
     1
175
     1
 42
1.0
 92
        8
 66
     7
 43
1.0
 76
     1
 77
     6
 78
     2
 67
     7
 79
     5
170
     0
171
     0
290
     0
174
     0
 93
        1
 44
-50.0
173
     0
291
     1
 45
0.0
1001
ACAD
1000
AcDbSavedByObjectVersion
1070
     0
  0
VISUALSTYLE
  5
3D
102
{ACAD_REACTORS
330
2A
102
}
102
{ACAD_XDICTIONARY
360
325
102
}
330
2A
100
AcDbVisualStyle
  2
EdgeColorOff
 70
    22
 71
     2
 72
     2
 73
     0
 90
        0
 40
0.6
 41
30.0
 62
     5
 63
     7
421
 16777215
 74
     1
 91
        4
 64
     7
 65
   257
 75
     1
175
     1
 42
1.0
 92
        8
 66
     7
 43
1.0
 76
     1
 77
     6
 78
     2
 67
     7
 79
     5
170
     0
171
     0
290
     0
174
     0
 93
        1
 44
0.0
173
     0
291
     1
 45
0.0
1001
ACAD
1000
AcDbSavedByObjectVersion
1070
     0
  0
VISUALSTYLE
  5
39
102
{ACAD_REACTORS
330
2A
102
}
102
{ACAD_XDICTIONARY
360
31D
102
}
330
2A
100
AcDbVisualStyle
  2
Facepattern
 70
    15
 71
     2
 72
     2
 73
     0
 90
        0
 40
0.6
 41
30.0
 62
     5
 63
     7
421
 16777215
 74
     1
 91
        4
 64
     7
 65
   257
 75
     1
175
     1
 42
1.0
 92
        8
 66
     7
 43
1.0
 76
     1
 77
     6
 78
     2
 67
     7
 79
     5
170
     0
171
     0
290
     0
174
     0
 93
        1
 44
0.0
173
     0
291
     1
 45
0.0
1001
ACAD
1000
AcDbSavedByObjectVersion
1070
     0
  0
VISUALSTYLE
  5
2B
102
{ACAD_REACTORS
330
2A
102
}
102
{ACAD_XDICTIONARY
360
301
102
}
330
2A
100
AcDbVisualStyle
  2
Flat
 70
     0
 71
     2
 72
     1
 73
     1
 90
        2
 40
0.6
 41
30.0
 62
     5
 63
     7
421
 16777215
 74
     0
 91
        0
 64
     7
 65
   257
 75
     1
175
     1
 42
1.0
 92
        8
 66
     7
 43
1.0
 76
     1
 77
     6
 78
     2
 67
     7
 79
     5
170
     0
171
     0
290
     0
174
     0
 93
       13
 44
0.0
173
     0
291
     1
 45
0.0
1001
ACAD
1000
AcDbSavedByObjectVersion
1070
     0
  0
VISUALSTYLE
  5
2C
102
{ACAD_REACTORS
330
2A
102
}
102
{ACAD_XDICTIONARY
360
303
102
}
330
2A
100
AcDbVisualStyle
  2
FlatWithEdges
 70
     1
 71
     2
 72
     1
 73
     1
 90
        2
 40
0.6
 41
30.0
 62
     5
 63
     7
421
 16777215
 74
     1
 91
        0
 64
     7
 65
   257
 75
     1
175
     1
 42
1.0
 92
        0
 66
   257
 43
1.0
 76
     1
 77
     6
 78
     2
 67
     7
 79
     5
170
     0
171
     0
290
     0
174
     0
 93
       13
 44
0.0
173
     0
291
     1
 45
0.0
1001
ACAD
1000
AcDbSavedByObjectVersion
1070
     0
  0
VISUALSTYLE
  5
2D
102
{ACAD_REACTORS
330
2A
102
}
102
{ACAD_XDICTIONARY
360
305
102
}
330
2A
100
AcDbVisualStyle
  2
Gouraud
 70
     2
 71
     2
 72
     2
 73
     1
 90
        2
 40
0.6
 41
30.0
 62
     5
 63
     7
421
 16777215
 74
     0
 91
        0
 64
     7
 65
   257
 75
     1
175
     1
 42
1.0
 92
        0
 66
     7
 43
1.0
 76
     1
 77
     6
 78
     2
 67
     7
 79
     5
170
     0
171
     0
290
     0
174
     0
 93
       13
 44
0.0
173
     0
291
     1
 45
0.0
1001
ACAD
1000
AcDbSavedByObjectVersion
1070
     0
  0
VISUALSTYLE
  5
2E
102
{ACAD_REACTORS
330
2A
102
}
102
{ACAD_XDICTIONARY
360
307
102
}
330
2A
100
AcDbVisualStyle
  2
GouraudWithEdges
 70
     3
 71
     2
 72
     2
 73
     1
 90
        2
 40
0.6
 41
30.0
 62
     5
 63
     7
421
 16777215
 74
     1
 91
        0
 64
     7
 65
   257
 75
     1
175
     1
 42
1.0
 92
        0
 66
   257
 43
1.0
 76
     1
 77
     6
 78
     2
 67
     7
 79
     5
170
     0
171
     0
290
     0
174
     0
 93
       13
 44
0.0
173
     0
291
     1
 45
0.0
1001
ACAD
1000
AcDbSavedByObjectVersion
1070
     0
  0
VISUALSTYLE
  5
31
102
{ACAD_REACTORS
330
2A
102
}
102
{ACAD_XDICTIONARY
360
30D
102
}
330
2A
100
AcDbVisualStyle
  2
Hidden
 70
     6
 71
     1
 72
     2
 73
     2
 90
        0
 40
0.6
 41
30.0
 62
     5
 63
     7
421
 16777215
 74
     2
 91
        2
 64
     7
 65
   257
 75
     2
175
     1
 42
40.0
 92
        0
 66
   257
 43
1.0
 76
     1
 77
     6
 78
     2
 67
     7
 79
     3
170
     0
171
     0
290
     0
174
     0
 93
        1
 44
0.0
173
     0
291
     0
 45
0.0
1001
ACAD
1000
AcDbSavedByObjectVersion
1070
     0
  0
VISUALSTYLE
  5
3B
102
{ACAD_REACTORS
330
2A
102
}
102
{ACAD_XDICTIONARY
360
321
102
}
330
2A
100
AcDbVisualStyle
  2
JitterOff
 70
    20
 71
     2
 72
     2
 73
     0
 90
        0
 40
0.6
 41
30.0
 62
     5
 63
     7
421
 16777215
 74
     1
 91
        4
 64
     7
 65
   257
 75
     1
175
     1
 42
1.0
 92
       10
 66
     7
 43
1.0
 76
     1
 77
     6
 78
     2
 67
     7
 79
     5
170
     0
171
     0
290
     0
174
     0
 93
        1
 44
0.0
173
     0
291
     1
 45
0.0
1001
ACAD
1000
AcDbSavedByObjectVersion
1070
     0
  0
VISUALSTYLE
  5
38
102
{ACAD_REACTORS
330
2A
102
}
102
{ACAD_XDICTIONARY
360
31B
102
}
330
2A
100
AcDbVisualStyle
  2
Linepattern
 70
    14
 71
     2
 72
     2
 73
     0
 90
        0
 40
0.6
 41
30.0
 62
     5
 63
     7
421
 16777215
 74
     1
 91
        4
 64
     7
 65
   257
 75
     7
175
     7
 42
1.0
 92
        8
 66
     7
 43
1.0
 76
     1
 77
     6
 78
     2
 67
     7
 79
     5
170
     0
171
     0
290
     0
174
     0
 93
        1
 44
0.0
173
     0
291
     1
 45
0.0
1001
ACAD
1000
AcDbSavedByObjectVersion
1070
     0
  0
VISUALSTYLE
  5
3C
102
{ACAD_REACTORS
330
2A
102
}
102
{ACAD_XDICTIONARY
360
323
102
}
330
2A
100
AcDbVisualStyle
  2
OverhangOff
 70
    21
 71
     2
 72
     2
 73
     0
 90
        0
 40
0.6
 41
30.0
 62
     5
 63
     7
421
 16777215
 74
     1
 91
        4
 64
     7
 65
   257
 75
     1
175
     1
 42
1.0
 92
        9
 66
     7
 43
1.0
 76
     1
 77
     6
 78
     2
 67
     7
 79
     5
170
     0
171
     0
290
     0
174
     0
 93
        1
 44
0.0
173
     0
291
     1
 45
0.0
1001
ACAD
1000
AcDbSavedByObjectVersion
1070
     0
  0
VISUALSTYLE
  5
33
102
{ACAD_REACTORS
330
2A
102
}
102
{ACAD_XDICTIONARY
360
311
102
}
330
2A
100
AcDbVisualStyle
  2
Realistic
 70
     8
 71
     2
 72
     3
 73
     0
 90
        2
 40
0.6
 41
30.0
 62
     5
 63
     7
421
 16777215
 74
     0
 91
        0
 64
     7
 65
   257
 75
     1
175
     1
 42
1.0
 92
        8
 66
   257
 43
1.0
 76
     1
 77
     6
 78
     2
 67
     7
 79
     3
170
     0
171
     0
290
     0
174
     0
 93
       13
 44
0.0
173
     0
291
     0
 45
0.0
1001
ACAD
1000
AcDbSavedByObjectVersion
1070
     0
  0
VISUALSTYLE
  5
42
102
{ACAD_REACTORS
330
2A
102
}
102
{ACAD_XDICTIONARY
360
32F
102
}
330
2A
100
AcDbVisualStyle
  2
Shaded
 70
    27
 71
     2
 72
     2
 73
     1
 90
        2
 40
0.6
 41
30.0
 62
     5
 63
     7
421
 16777215
 74
     0
 91
        4
 64
     7
 65
   257
 75
     1
175
     1
 42
1.0
 92
        8
 66
   257
 43
1.0
 76
     1
 77
     6
 78
     2
 67
     8
425
  7895160
 79
     3
170
     0
171
     0
290
     0
174
     0
 93
        5
 44
0.0
173
     0
291
     0
 45
0.0
1001
ACAD
1000
AcDbSavedByObjectVersion
1070
     0
  0
VISUALSTYLE
  5
41
102
{ACAD_REACTORS
330
2A
102
}
102
{ACAD_XDICTIONARY
360
32D
102
}
330
2A
100
AcDbVisualStyle
  2
Shaded with edges
 70
    26
 71
     2
 72
     2
 73
     1
 90
        2
 40
0.6
 41
30.0
 62
     5
 63
     7
421
 16777215
 74
     1
 91
       10
 64
     7
 65
   257
 75
     2
175
     1
 42
1.0
 92
        8
 66
   257
 43
1.0
 76
     1
 77
     6
 78
     2
 67
     7
 79
     3
170
     0
171
     0
290
     0
174
     0
 93
        5
 44
0.0
173
     0
291
     0
 45
0.0
1001
ACAD
1000
AcDbSavedByObjectVersion
1070
     0
  0
VISUALSTYLE
  5
3E
102
{ACAD_REACTORS
330
2A
102
}
102
{ACAD_XDICTIONARY
360
327
102
}
330
2A
100
AcDbVisualStyle
  2
Shades of Gray
 70
    23
 71
     2
 72
     2
 73
     3
 90
        0
 40
0.6
 41
30.0
 62
     5
 63
     7
421
 16777215
 74
     2
 91
        2
 64
     7
 65
     7
 75
     1
175
     1
 42
40.0
 92
        8
 66
     7
 43
1.0
 76
     1
 77
     6
 78
     2
 67
     7
 79
     3
170
     0
171
     0
290
     0
174
     0
 93
        1
 44
0.0
173
     0
291
     0
 45
0.0
1001
ACAD
1000
AcDbSavedByObjectVersion
1070
     0
  0
VISUALSTYLE
  5
3F
102
{ACAD_REACTORS
330
2A
102
}
102
{ACAD_XDICTIONARY
360
329
102
}
330
2A
100
AcDbVisualStyle
  2
Sketchy
 70
    24
 71
     1
 72
     2
 73
     2
 90
        0
 40
0.6
 41
30.0
 62
     5
 63
     7
421
 16777215
 74
     2
 91
        2
 64
     7
 65
     7
 75
     1
175
     1
 42
40.0
 92
       11
 66
     7
 43
1.0
 76
     1
 77
     6
 78
     2
 67
     7
 79
     6
170
     0
171
     0
290
     0
174
     0
 93
        1
 44
0.0
173
     0
291
     0
 45
0.0
1001
ACAD
1000
AcDbSavedByObjectVersion
1070
     0
  0
VISUALSTYLE
  5
37
102
{ACAD_REACTORS
330
2A
102
}
102
{ACAD_XDICTIONARY
360
319
102
}
330
2A
100
AcDbVisualStyle
  2
Thicken
 70
    13
 71
     2
 72
     2
 73
     0
 90
        0
 40
0.6
 41
30.0
 62
     5
 63
     7
421
 16777215
 74
     1
 91
        4
 64
     7
 65
   257
 75
     1
175
     1
 42
1.0
 92
       12
 66
     7
 43
1.0
 76
     1
 77
     6
 78
     2
 67
     7
 79
     5
170
     0
171
     0
290
     0
174
     0
 93
        1
 44
0.0
173
     0
291
     1
 45
0.0
1001
ACAD
1000
AcDbSavedByObjectVersion
1070
     0
  0
VISUALSTYLE
  5
30
102
{ACAD_REACTORS
330
2A
102
}
102
{ACAD_XDICTIONARY
360
30B
102
}
330
2A
100
AcDbVisualStyle
  2
Wireframe
 70
     5
 71
     0
 72
     2
 73
     0
 90
        0
 40
0.6
 41
30.0
 62
     5
 63
     7
421
 16777215
 74
     1
 91
        4
 64
     7
 65
   257
 75
     1
175
     1
 42
1.0
 92
        0
 66
   257
 43
1.0
 76
     1
 77
     6
 78
     2
 67
     7
 79
     3
170
     0
171
     0
290
     0
174
     0
 93
        1
 44
0.0
173
     0
291
     0
 45
0.0
1001
ACAD
1000
AcDbSavedByObjectVersion
1070
     0
  0
VISUALSTYLE
  5
40
102
{ACAD_REACTORS
330
2A
102
}
102
{ACAD_XDICTIONARY
360
32B
102
}
330
2A
100
AcDbVisualStyle
  2
X-Ray
 70
    25
 71
     2
 72
     2
 73
     1
 90
        1
 40
0.5
 41
30.0
 62
     5
 63
     7
421
 16777215
 74
     1
 91
        0
 64
     7
 65
   257
 75
     1
175
     1
 42
1.0
 92
        8
 66
     7
 43
1.0
 76
     1
 77
     6
 78
     2
 67
     7
 79
     3
170
     0
171
     0
290
     0
174
     0
 93
       13
 44
0.0
173
     0
291
     0
 45
0.0
1001
ACAD
1000
AcDbSavedByObjectVersion
1070
     0
  0
DICTIONARYVAR
  5
2FE
102
{ACAD_REACTORS
330
2FD
102
}
330
2FD
100
DictionaryVariables
280
     0
  1
1:1
  0
DICTIONARYVAR
  5
33F
102
{ACAD_REACTORS
330
2FD
102
}
330
2FD
100
DictionaryVariables
280
     0
  1
Standard
  0
DICTIONARYVAR
  5
33E
102
{ACAD_REACTORS
330
2FD
102
}
330
2FD
100
DictionaryVariables
280
     0
  1
Standard
  0
DICTIONARYVAR
  5
2FF
102
{ACAD_REACTORS
330
2FD
102
}
330
2FD
100
DictionaryVariables
280
     0
  1
1
  0
DICTIONARYVAR
  5
300
102
{ACAD_REACTORS
330
2FD
102
}
330
2FD
100
DictionaryVariables
280
     0
  1
2
  0
DICTIONARY
  5
333
330
45
100
AcDbDictionary
280
     1
281
     1
  3
ACAD_XREC_ROUNDTRIP
360
334
  0
DICTIONARY
  5
331
330
44
100
AcDbDictionary
280
     1
281
     1
  3
ACAD_XREC_ROUNDTRIP
360
332
  0
DICTIONARY
  5
335
330
46
100
AcDbDictionary
280
     1
281
     1
  3
ACAD_XREC_ROUNDTRIP
360
336
  0
DICTIONARY
  5
33B
330
6C
100
AcDbDictionary
280
     1
281
     1
  3
ACAD_XREC_ROUNDTRIP
360
33C
  0
DICTIONARY
  5
337
330
6A
100
AcDbDictionary
280
     1
281
     1
  3
ACAD_ROUNDTRIP_2008_TABLESTYLE_CELLSTYLEMAP
360
339
  3
ACAD_XREC_ROUNDTRIP
360
338
  0
DICTIONARY
  5
309
330
2F
100
AcDbDictionary
280
     1
281
     1
  3
ACAD_XREC_ROUNDTRIP
360
30A
  0
DICTIONARY
  5
30F
330
32
100
AcDbDictionary
280
     1
281
     1
  3
ACAD_XREC_ROUNDTRIP
360
310
  0
DICTIONARY
  5
317
330
36
100
AcDbDictionary
280
     1
281
     1
  3
ACAD_XREC_ROUNDTRIP
360
318
  0
DICTIONARY
  5
31F
330
3A
100
AcDbDictionary
280
     1
281
     1
  3
ACAD_XREC_ROUNDTRIP
360
320
  0
DICTIONARY
  5
313
330
34
100
AcDbDictionary
280
     1
281
     1
  3
ACAD_XREC_ROUNDTRIP
360
314
  0
DICTIONARY
  5
315
330
35
100
AcDbDictionary
280
     1
281
     1
  3
ACAD_XREC_ROUNDTRIP
360
316
  0
DICTIONARY
  5
325
330
3D
100
AcDbDictionary
280
     1
281
     1
  3
ACAD_XREC_ROUNDTRIP
360
326
  0
DICTIONARY
  5
31D
330
39
100
AcDbDictionary
280
     1
281
     1
  3
ACAD_XREC_ROUNDTRIP
360
31E
  0
DICTIONARY
  5
301
330
2B
100
AcDbDictionary
280
     1
281
     1
  3
ACAD_XREC_ROUNDTRIP
360
302
  0
DICTIONARY
  5
303
330
2C
100
AcDbDictionary
280
     1
281
     1
  3
ACAD_XREC_ROUNDTRIP
360
304
  0
DICTIONARY
  5
305
330
2D
100
AcDbDictionary
280
     1
281
     1
  3
ACAD_XREC_ROUNDTRIP
360
306
  0
DICTIONARY
  5
307
330
2E
100
AcDbDictionary
280
     1
281
     1
  3
ACAD_XREC_ROUNDTRIP
360
308
  0
DICTIONARY
  5
30D
330
31
100
AcDbDictionary
280
     1
281
     1
  3
ACAD_XREC_ROUNDTRIP
360
30E
  0
DICTIONARY
  5
321
330
3B
100
AcDbDictionary
280
     1
281
     1
  3
ACAD_XREC_ROUNDTRIP
360
322
  0
DICTIONARY
  5
31B
330
38
100
AcDbDictionary
280
     1
281
     1
  3
ACAD_XREC_ROUNDTRIP
360
31C
  0
DICTIONARY
  5
323
330
3C
100
AcDbDictionary
280
     1
281
     1
  3
ACAD_XREC_ROUNDTRIP
360
324
  0
DICTIONARY
  5
311
330
33
100
AcDbDictionary
280
     1
281
     1
  3
ACAD_XREC_ROUNDTRIP
360
312
  0
DICTIONARY
  5
32F
330
42
100
AcDbDictionary
280
     1
281
     1
  3
ACAD_XREC_ROUNDTRIP
360
330
  0
DICTIONARY
  5
32D
330
41
100
AcDbDictionary
280
     1
281
     1
  3
ACAD_XREC_ROUNDTRIP
360
32E
  0
DICTIONARY
  5
327
330
3E
100
AcDbDictionary
280
     1
281
     1
  3
ACAD_XREC_ROUNDTRIP
360
328
  0
DICTIONARY
  5
329
330
3F
100
AcDbDictionary
280
     1
281
     1
  3
ACAD_XREC_ROUNDTRIP
360
32A
  0
DICTIONARY
  5
319
330
37
100
AcDbDictionary
280
     1
281
     1
  3
ACAD_XREC_ROUNDTRIP
360
31A
  0
DICTIONARY
  5
30B
330
30
100
AcDbDictionary
280
     1
281
     1
  3
ACAD_XREC_ROUNDTRIP
360
30C
  0
DICTIONARY
  5
32B
330
40
100
AcDbDictionary
280
     1
281
     1
  3
ACAD_XREC_ROUNDTRIP
360
32C
  0
XRECORD
  5
334
102
{ACAD_REACTORS
330
333
102
}
330
333
100
AcDbXrecord
280
     1
102
MATERIAL
148
0.0
149
0.0
149
0.0
 93
        0
 94
      127
282
     0
 72
     1
 77
     1
171
     1
175
     1
179
     1
273
     0
  0
XRECORD
  5
332
102
{ACAD_REACTORS
330
331
102
}
330
331
100
AcDbXrecord
280
     1
102
MATERIAL
148
0.0
149
0.0
149
0.0
 93
        0
 94
      127
282
     0
 72
     1
 77
     1
171
     1
175
     1
179
     1
273
     0
  0
XRECORD
  5
336
102
{ACAD_REACTORS
330
335
102
}
330
335
100
AcDbXrecord
280
     1
102
MATERIAL
148
0.0
149
0.0
149
0.0
 93
        0
 94
      127
282
     0
 72
     1
 77
     1
171
     1
175
     1
179
     1
273
     0
  0
XRECORD
  5
33C
102
{ACAD_REACTORS
330
33B
102
}
330
33B
100
AcDbXrecord
280
     1
102
ACAD_ROUNDTRIP_2010_MLEADER_STYLE
  0
CELLSTYLEMAP
  5
339
102
{ACAD_REACTORS
330
337
102
}
330
337
100
AcDbCellStyleMap
 90
        3
300
CELLSTYLE
  1
TABLEFORMAT_BEGIN
 90
        5
170
     1
 91
        0
 92
    32768
 62
   257
 93
        1
300
CONTENTFORMAT
  1
CONTENTFORMAT_BEGIN
 90
        0
 91
        0
 92
        4
 93
        0
300

 40
0.0
140
1.0
 94
        5
 62
     0
340
11
144
0.25
309
CONTENTFORMAT_END
171
     1
301
MARGIN
  1
CELLMARGIN_BEGIN
 40
0.06
 40
0.06
 40
0.06
 40
0.06
 40
0.06
 40
0.06
309
CELLMARGIN_END
 94
        6
 95
        1
302
GRIDFORMAT
  1
GRIDFORMAT_BEGIN
 90
        0
 91
        1
 62
     0
 92
       -2
340
14
 93
        0
 40
0.045
309
GRIDFORMAT_END
 95
        2
302
GRIDFORMAT
  1
GRIDFORMAT_BEGIN
 90
        0
 91
        1
 62
     0
 92
       -2
340
14
 93
        0
 40
0.045
309
GRIDFORMAT_END
 95
        4
302
GRIDFORMAT
  1
GRIDFORMAT_BEGIN
 90
        0
 91
        1
 62
     0
 92
       -2
340
14
 93
        0
 40
0.045
309
GRIDFORMAT_END
 95
        8
302
GRIDFORMAT
  1
GRIDFORMAT_BEGIN
 90
        0
 91
        1
 62
     0
 92
       -2
340
14
 93
        0
 40
0.045
309
GRIDFORMAT_END
 95
       16
302
GRIDFORMAT
  1
GRIDFORMAT_BEGIN
 90
        0
 91
        1
 62
     0
 92
       -2
340
14
 93
        0
 40
0.045
309
GRIDFORMAT_END
 95
       32
302
GRIDFORMAT
  1
GRIDFORMAT_BEGIN
 90
        0
 91
        1
 62
     0
 92
       -2
340
14
 93
        0
 40
0.045
309
GRIDFORMAT_END
309
TABLEFORMAT_END
  1
CELLSTYLE_BEGIN
 90
        1
 91
        1
300
_TITLE
309
CELLSTYLE_END
300
CELLSTYLE
  1
TABLEFORMAT_BEGIN
 90
        5
170
     1
 91
        0
 92
        0
 62
   257
 93
        1
300
CONTENTFORMAT
  1
CONTENTFORMAT_BEGIN
 90
        0
 91
        0
 92
        4
 93
        0
300

 40
0.0
140
1.0
 94
        5
 62
     0
340
11
144
0.18
309
CONTENTFORMAT_END
171
     1
301
MARGIN
  1
CELLMARGIN_BEGIN
 40
0.06
 40
0.06
 40
0.06
 40
0.06
 40
0.06
 40
0.06
309
CELLMARGIN_END
 94
        6
 95
        1
302
GRIDFORMAT
  1
GRIDFORMAT_BEGIN
 90
        0
 91
        1
 62
     0
 92
       -2
340
14
 93
        0
 40
0.045
309
GRIDFORMAT_END
 95
        2
302
GRIDFORMAT
  1
GRIDFORMAT_BEGIN
 90
        0
 91
        1
 62
     0
 92
       -2
340
14
 93
        0
 40
0.045
309
GRIDFORMAT_END
 95
        4
302
GRIDFORMAT
  1
GRIDFORMAT_BEGIN
 90
        0
 91
        1
 62
     0
 92
       -2
340
14
 93
        0
 40
0.045
309
GRIDFORMAT_END
 95
        8
302
GRIDFORMAT
  1
GRIDFORMAT_BEGIN
 90
        0
 91
        1
 62
     0
 92
       -2
340
14
 93
        0
 40
0.045
309
GRIDFORMAT_END
 95
       16
302
GRIDFORMAT
  1
GRIDFORMAT_BEGIN
 90
        0
 91
        1
 62
     0
 92
       -2
340
14
 93
        0
 40
0.045
309
GRIDFORMAT_END
 95
       32
302
GRIDFORMAT
  1
GRIDFORMAT_BEGIN
 90
        0
 91
        1
 62
     0
 92
       -2
340
14
 93
        0
 40
0.045
309
GRIDFORMAT_END
309
TABLEFORMAT_END
  1
CELLSTYLE_BEGIN
 90
        2
 91
        1
300
_HEADER
309
CELLSTYLE_END
300
CELLSTYLE
  1
TABLEFORMAT_BEGIN
 90
        5
170
     1
 91
        0
 92
        0
 62
   257
 93
        1
300
CONTENTFORMAT
  1
CONTENTFORMAT_BEGIN
 90
        0
 91
        0
 92
        4
 93
        0
300

 40
0.0
140
1.0
 94
        2
 62
     0
340
11
144
0.18
309
CONTENTFORMAT_END
171
     1
301
MARGIN
  1
CELLMARGIN_BEGIN
 40
0.06
 40
0.06
 40
0.06
 40
0.06
 40
0.06
 40
0.06
309
CELLMARGIN_END
 94
        6
 95
        1
302
GRIDFORMAT
  1
GRIDFORMAT_BEGIN
 90
        0
 91
        1
 62
     0
 92
       -2
340
14
 93
        0
 40
0.045
309
GRIDFORMAT_END
 95
        2
302
GRIDFORMAT
  1
GRIDFORMAT_BEGIN
 90
        0
 91
        1
 62
     0
 92
       -2
340
14
 93
        0
 40
0.045
309
GRIDFORMAT_END
 95
        4
302
GRIDFORMAT
  1
GRIDFORMAT_BEGIN
 90
        0
 91
        1
 62
     0
 92
       -2
340
14
 93
        0
 40
0.045
309
GRIDFORMAT_END
 95
        8
302
GRIDFORMAT
  1
GRIDFORMAT_BEGIN
 90
        0
 91
        1
 62
     0
 92
       -2
340
14
 93
        0
 40
0.045
309
GRIDFORMAT_END
 95
       16
302
GRIDFORMAT
  1
GRIDFORMAT_BEGIN
 90
        0
 91
        1
 62
     0
 92
       -2
340
14
 93
        0
 40
0.045
309
GRIDFORMAT_END
 95
       32
302
GRIDFORMAT
  1
GRIDFORMAT_BEGIN
 90
        0
 91
        1
 62
     0
 92
       -2
340
14
 93
        0
 40
0.045
309
GRIDFORMAT_END
309
TABLEFORMAT_END
  1
CELLSTYLE_BEGIN
 90
        3
 91
        2
300
_DATA
309
CELLSTYLE_END
  0
XRECORD
  5
338
102
{ACAD_REACTORS
330
337
102
}
330
337
100
AcDbXrecord
280
     1
102
ACAD_ROUNDTRIP_PRE2007_TABLESTYLE
 90
        4
 91
        0
  1

 92
        4
 93
        0
  2

 94
        4
 95
        0
  3

  0
XRECORD
  5
30A
102
{ACAD_REACTORS
330
309
102
}
330
309
100
AcDbXrecord
280
     1
102
RTVSPropertyOp0
 70
     1
102
RTVSPropertyOp1
 70
     1
102
RTVSPropertyOp2
 70
     1
102
RTVSPropertyOp3
 70
     1
102
RTVSPropertyOp4
 70
     1
102
RTVSPropertyOp5
 70
     1
102
RTVSPropertyOp6
 70
     1
102
RTVSPropertyOp7
 70
     1
102
RTVSPropertyOp8
 70
     1
102
RTVSPropertyOp9
 70
     1
102
RTVSPropertyOp10
 70
     1
102
RTVSPropertyOp11
 70
     1
102
RTVSPropertyOp12
 70
     1
102
RTVSPropertyOp13
 70
     1
102
RTVSPropertyOp14
 70
     1
102
RTVSPropertyOp15
 70
     1
102
RTVSPropertyOp16
 70
     1
102
RTVSPropertyOp17
 70
     1
102
RTVSPropertyOp18
 70
     1
102
RTVSPropertyOp19
 70
     1
102
RTVSPropertyOp20
 70
     1
102
RTVSPropertyOp21
 70
     1
102
RTVSPropertyOp22
 70
     1
102
RTVSPropertyOp23
 70
     1
102
RTVSPropertyOp24
 70
     1
102
RTVSPropertyOp25
 70
     1
102
RTVSPropertyOp26
 70
     1
102
RTVSPropertyOp27
 70
     1
102
RTVSPropertyOp28
 70
     1
102
RTVSPropertyOp29
 70
     1
102
RTVSPropertyOp30
 70
     1
102
RTVSPropertyOp31
 70
     1
102
RTVSPropertyOp32
 70
     1
102
RTVSPropertyOp33
 70
     1
102
RTVSPropertyOp34
 70
     1
102
RTVSPropertyOp35
 70
     1
102
RTVSPropertyOp36
 70
     1
102
RTVSPropertyOp37
 70
     1
102
RTVSPropertyOp38
 70
     1
102
RTVSPropertyOp39
 70
     1
102
RTVSPropertyOp40
 70
     1
102
RTVSPropertyOp41
 70
     1
102
RTVSPropertyOp42
 70
     1
102
RTVSPropertyOp43
 70
     1
102
RTVSPropertyOp44
 70
     1
102
RTVSPropertyOp45
 70
     1
102
RTVSPropertyOp46
 70
     1
102
RTVSPropertyOp47
 70
     1
102
RTVSPropertyOp48
 70
     1
102
RTVSPropertyOp49
 70
     1
102
RTVSPropertyOp50
 70
     1
102
RTVSPropertyOp51
 70
     0
102
RTVSPropertyOp52
 70
     0
102
RTVSPropertyOp53
 70
     1
102
RTVSPropertyOp54
 70
     1
102
RTVSPropertyOp55
 70
     1
102
RTVSPropertyOp56
 70
     1
102
RTVSPropertyOp57
 70
     1
102
RTVSPost2010Prop28
280
     1
102
RTVSPost2010PropOp28
 70
     1
102
RTVSPost2010Prop29
280
     1
102
RTVSPost2010PropOp29
 70
     1
102
RTVSPost2010Prop30
280
     0
102
RTVSPost2010PropOp30
 70
     1
102
RTVSPost2010Prop31
280
     0
102
RTVSPost2010PropOp31
 70
     1
102
RTVSPost2010Prop32
280
     0
102
RTVSPost2010PropOp32
 70
     1
102
RTVSPost2010Prop33
280
     0
102
RTVSPost2010PropOp33
 70
     1
102
RTVSPost2010Prop34
280
     0
102
RTVSPost2010PropOp34
 70
     1
102
RTVSPost2010Prop35
280
     0
102
RTVSPost2010PropOp35
 70
     1
102
RTVSPost2010Prop36
280
     0
102
RTVSPost2010PropOp36
 70
     1
102
RTVSPost2010Prop37
 90
       50
102
RTVSPost2010PropOp37
 70
     1
102
RTVSPost2010Prop38
140
0.0
102
RTVSPost2010PropOp38
 70
     1
102
RTVSPost2010Prop39
140
1.0
102
RTVSPost2010PropOp39
 70
     1
102
RTVSPost2010Prop40
 90
        0
102
RTVSPost2010PropOp40
 70
     1
102
RTVSPost2010Prop41ColorIndex
 90
       18
102
RTVSPost2010Prop41ColorRGB
 90
        0
102
RTVSPost2010PropOp41
 70
     1
102
RTVSPost2010Prop42
 90
       50
102
RTVSPost2010PropOp42
 70
     1
102
RTVSPost2010Prop43
 90
        3
102
RTVSPost2010PropOp43
 70
     1
102
RTVSPost2010Prop44ColorIndex
 90
        5
102
RTVSPost2010Prop44ColorRGB
 90
      255
102
RTVSPost2010PropOp44
 70
     1
102
RTVSPost2010Prop45
280
     0
102
RTVSPost2010PropOp45
 70
     1
102
RTVSPost2010Prop46
 90
       50
102
RTVSPost2010PropOp46
 70
     1
102
RTVSPost2010Prop47
 90
       50
102
RTVSPost2010PropOp47
 70
     1
102
RTVSPost2010Prop48
 90
       50
102
RTVSPost2010PropOp48
 70
     1
102
RTVSPost2010Prop49
280
     0
102
RTVSPost2010PropOp49
 70
     1
102
RTVSPost2010Prop50
 90
       50
102
RTVSPost2010PropOp50
 70
     1
102
RTVSPost2010Prop51ColorIndex
 90
      256
102
RTVSPost2010Prop51ColorRGB
 90
-16777216
102
RTVSPost2010PropOp51
 70
     0
102
RTVSPost2010Prop52
140
1.0
102
RTVSPost2010PropOp52
 70
     0
102
RTVSPost2010Prop53
 90
        2
102
RTVSPost2010PropOp53
 70
     1
102
RTVSPost2010Prop54
  1
strokes_ogs.tif
102
RTVSPost2010PropOp54
 70
     1
102
RTVSPost2010Prop55
280
     0
102
RTVSPost2010PropOp55
 70
     1
102
RTVSPost2010Prop56
140
1.0
102
RTVSPost2010PropOp56
 70
     1
102
RTVSPost2010Prop57
140
1.0
102
RTVSPost2010PropOp57
 70
     1
  0
XRECORD
  5
310
102
{ACAD_REACTORS
330
30F
102
}
330
30F
100
AcDbXrecord
280
     1
102
RTVSPropertyOp0
 70
     1
102
RTVSPropertyOp1
 70
     1
102
RTVSPropertyOp2
 70
     1
102
RTVSPropertyOp3
 70
     1
102
RTVSPropertyOp4
 70
     1
102
RTVSPropertyOp5
 70
     1
102
RTVSPropertyOp6
 70
     1
102
RTVSPropertyOp7
 70
     1
102
RTVSPropertyOp8
 70
     1
102
RTVSPropertyOp9
 70
     1
102
RTVSPropertyOp10
 70
     1
102
RTVSPropertyOp11
 70
     1
102
RTVSPropertyOp12
 70
     1
102
RTVSPropertyOp13
 70
     1
102
RTVSPropertyOp14
 70
     1
102
RTVSPropertyOp15
 70
     1
102
RTVSPropertyOp16
 70
     1
102
RTVSPropertyOp17
 70
     1
102
RTVSPropertyOp18
 70
     1
102
RTVSPropertyOp19
 70
     1
102
RTVSPropertyOp20
 70
     1
102
RTVSPropertyOp21
 70
     1
102
RTVSPropertyOp22
 70
     1
102
RTVSPropertyOp23
 70
     1
102
RTVSPropertyOp24
 70
     1
102
RTVSPropertyOp25
 70
     1
102
RTVSPropertyOp26
 70
     1
102
RTVSPropertyOp27
 70
     1
102
RTVSPropertyOp28
 70
     1
102
RTVSPropertyOp29
 70
     1
102
RTVSPropertyOp30
 70
     1
102
RTVSPropertyOp31
 70
     1
102
RTVSPropertyOp32
 70
     1
102
RTVSPropertyOp33
 70
     1
102
RTVSPropertyOp34
 70
     1
102
RTVSPropertyOp35
 70
     1
102
RTVSPropertyOp36
 70
     1
102
RTVSPropertyOp37
 70
     1
102
RTVSPropertyOp38
 70
     1
102
RTVSPropertyOp39
 70
     1
102
RTVSPropertyOp40
 70
     1
102
RTVSPropertyOp41
 70
     1
102
RTVSPropertyOp42
 70
     1
102
RTVSPropertyOp43
 70
     1
102
RTVSPropertyOp44
 70
     1
102
RTVSPropertyOp45
 70
     1
102
RTVSPropertyOp46
 70
     1
102
RTVSPropertyOp47
 70
     1
102
RTVSPropertyOp48
 70
     1
102
RTVSPropertyOp49
 70
     1
102
RTVSPropertyOp50
 70
     1
102
RTVSPropertyOp51
 70
     0
102
RTVSPropertyOp52
 70
     0
102
RTVSPropertyOp53
 70
     1
102
RTVSPropertyOp54
 70
     1
102
RTVSPropertyOp55
 70
     1
102
RTVSPropertyOp56
 70
     1
102
RTVSPropertyOp57
 70
     1
102
RTVSPost2010Prop28
280
     0
102
RTVSPost2010PropOp28
 70
     1
102
RTVSPost2010Prop29
280
     1
102
RTVSPost2010PropOp29
 70
     1
102
RTVSPost2010Prop30
280
     1
102
RTVSPost2010PropOp30
 70
     1
102
RTVSPost2010Prop31
280
     0
102
RTVSPost2010PropOp31
 70
     1
102
RTVSPost2010Prop32
280
     0
102
RTVSPost2010PropOp32
 70
     1
102
RTVSPost2010Prop33
280
     0
102
RTVSPost2010PropOp33
 70
     1
102
RTVSPost2010Prop34
280
     0
102
RTVSPost2010PropOp34
 70
     1
102
RTVSPost2010Prop35
280
     0
102
RTVSPost2010PropOp35
 70
     1
102
RTVSPost2010Prop36
280
     0
102
RTVSPost2010PropOp36
 70
     1
102
RTVSPost2010Prop37
 90
       50
102
RTVSPost2010PropOp37
 70
     1
102
RTVSPost2010Prop38
140
0.0
102
RTVSPost2010PropOp38
 70
     1
102
RTVSPost2010Prop39
140
1.0
102
RTVSPost2010PropOp39
 70
     1
102
RTVSPost2010Prop40
 90
        0
102
RTVSPost2010PropOp40
 70
     1
102
RTVSPost2010Prop41ColorIndex
 90
       18
102
RTVSPost2010Prop41ColorRGB
 90
        0
102
RTVSPost2010PropOp41
 70
     1
102
RTVSPost2010Prop42
 90
       50
102
RTVSPost2010PropOp42
 70
     1
102
RTVSPost2010Prop43
 90
        3
102
RTVSPost2010PropOp43
 70
     1
102
RTVSPost2010Prop44ColorIndex
 90
        5
102
RTVSPost2010Prop44ColorRGB
 90
      255
102
RTVSPost2010PropOp44
 70
     1
102
RTVSPost2010Prop45
280
     0
102
RTVSPost2010PropOp45
 70
     1
102
RTVSPost2010Prop46
 90
       50
102
RTVSPost2010PropOp46
 70
     1
102
RTVSPost2010Prop47
 90
       50
102
RTVSPost2010PropOp47
 70
     1
102
RTVSPost2010Prop48
 90
       50
102
RTVSPost2010PropOp48
 70
     1
102
RTVSPost2010Prop49
280
     0
102
RTVSPost2010PropOp49
 70
     1
102
RTVSPost2010Prop50
 90
       50
102
RTVSPost2010PropOp50
 70
     1
102
RTVSPost2010Prop51ColorIndex
 90
      256
102
RTVSPost2010Prop51ColorRGB
 90
-16777216
102
RTVSPost2010PropOp51
 70
     0
102
RTVSPost2010Prop52
140
1.0
102
RTVSPost2010PropOp52
 70
     0
102
RTVSPost2010Prop53
 90
        2
102
RTVSPost2010PropOp53
 70
     1
102
RTVSPost2010Prop54
  1
strokes_ogs.tif
102
RTVSPost2010PropOp54
 70
     1
102
RTVSPost2010Prop55
280
     0
102
RTVSPost2010PropOp55
 70
     1
102
RTVSPost2010Prop56
140
1.0
102
RTVSPost2010PropOp56
 70
     1
102
RTVSPost2010Prop57
140
1.0
102
RTVSPost2010PropOp57
 70
     1
  0
XRECORD
  5
318
102
{ACAD_REACTORS
330
317
102
}
330
317
100
AcDbXrecord
280
     1
102
RTVSPropertyOp0
 70
     1
102
RTVSPropertyOp1
 70
     1
102
RTVSPropertyOp2
 70
     1
102
RTVSPropertyOp3
 70
     1
102
RTVSPropertyOp4
 70
     1
102
RTVSPropertyOp5
 70
     1
102
RTVSPropertyOp6
 70
     1
102
RTVSPropertyOp7
 70
     1
102
RTVSPropertyOp8
 70
     1
102
RTVSPropertyOp9
 70
     1
102
RTVSPropertyOp10
 70
     1
102
RTVSPropertyOp11
 70
     1
102
RTVSPropertyOp12
 70
     1
102
RTVSPropertyOp13
 70
     1
102
RTVSPropertyOp14
 70
     1
102
RTVSPropertyOp15
 70
     1
102
RTVSPropertyOp16
 70
     1
102
RTVSPropertyOp17
 70
     1
102
RTVSPropertyOp18
 70
     1
102
RTVSPropertyOp19
 70
     1
102
RTVSPropertyOp20
 70
     1
102
RTVSPropertyOp21
 70
     1
102
RTVSPropertyOp22
 70
     1
102
RTVSPropertyOp23
 70
     1
102
RTVSPropertyOp24
 70
     1
102
RTVSPropertyOp25
 70
     1
102
RTVSPropertyOp26
 70
     1
102
RTVSPropertyOp27
 70
     1
102
RTVSPropertyOp28
 70
     1
102
RTVSPropertyOp29
 70
     1
102
RTVSPropertyOp30
 70
     1
102
RTVSPropertyOp31
 70
     1
102
RTVSPropertyOp32
 70
     1
102
RTVSPropertyOp33
 70
     1
102
RTVSPropertyOp34
 70
     1
102
RTVSPropertyOp35
 70
     1
102
RTVSPropertyOp36
 70
     1
102
RTVSPropertyOp37
 70
     1
102
RTVSPropertyOp38
 70
     1
102
RTVSPropertyOp39
 70
     1
102
RTVSPropertyOp40
 70
     1
102
RTVSPropertyOp41
 70
     1
102
RTVSPropertyOp42
 70
     1
102
RTVSPropertyOp43
 70
     1
102
RTVSPropertyOp44
 70
     1
102
RTVSPropertyOp45
 70
     1
102
RTVSPropertyOp46
 70
     1
102
RTVSPropertyOp47
 70
     1
102
RTVSPropertyOp48
 70
     1
102
RTVSPropertyOp49
 70
     1
102
RTVSPropertyOp50
 70
     1
102
RTVSPropertyOp51
 70
     0
102
RTVSPropertyOp52
 70
     0
102
RTVSPropertyOp53
 70
     1
102
RTVSPropertyOp54
 70
     1
102
RTVSPropertyOp55
 70
     1
102
RTVSPropertyOp56
 70
     1
102
RTVSPropertyOp57
 70
     1
102
RTVSPost2010Prop28
280
     0
102
RTVSPost2010PropOp28
 70
     1
102
RTVSPost2010Prop29
280
     1
102
RTVSPost2010PropOp29
 70
     1
102
RTVSPost2010Prop30
280
     1
102
RTVSPost2010PropOp30
 70
     1
102
RTVSPost2010Prop31
280
     0
102
RTVSPost2010PropOp31
 70
     1
102
RTVSPost2010Prop32
280
     0
102
RTVSPost2010PropOp32
 70
     1
102
RTVSPost2010Prop33
280
     0
102
RTVSPost2010PropOp33
 70
     1
102
RTVSPost2010Prop34
280
     0
102
RTVSPost2010PropOp34
 70
     1
102
RTVSPost2010Prop35
280
     0
102
RTVSPost2010PropOp35
 70
     1
102
RTVSPost2010Prop36
280
     0
102
RTVSPost2010PropOp36
 70
     1
102
RTVSPost2010Prop37
 90
       50
102
RTVSPost2010PropOp37
 70
     1
102
RTVSPost2010Prop38
140
0.0
102
RTVSPost2010PropOp38
 70
     1
102
RTVSPost2010Prop39
140
1.0
102
RTVSPost2010PropOp39
 70
     1
102
RTVSPost2010Prop40
 90
        0
102
RTVSPost2010PropOp40
 70
     1
102
RTVSPost2010Prop41ColorIndex
 90
       18
102
RTVSPost2010Prop41ColorRGB
 90
        0
102
RTVSPost2010PropOp41
 70
     1
102
RTVSPost2010Prop42
 90
       50
102
RTVSPost2010PropOp42
 70
     1
102
RTVSPost2010Prop43
 90
        3
102
RTVSPost2010PropOp43
 70
     1
102
RTVSPost2010Prop44ColorIndex
 90
        5
102
RTVSPost2010Prop44ColorRGB
 90
      255
102
RTVSPost2010PropOp44
 70
     1
102
RTVSPost2010Prop45
280
     0
102
RTVSPost2010PropOp45
 70
     1
102
RTVSPost2010Prop46
 90
       50
102
RTVSPost2010PropOp46
 70
     1
102
RTVSPost2010Prop47
 90
       50
102
RTVSPost2010PropOp47
 70
     1
102
RTVSPost2010Prop48
 90
       50
102
RTVSPost2010PropOp48
 70
     1
102
RTVSPost2010Prop49
280
     0
102
RTVSPost2010PropOp49
 70
     1
102
RTVSPost2010Prop50
 90
       50
102
RTVSPost2010PropOp50
 70
     1
102
RTVSPost2010Prop51ColorIndex
 90
      256
102
RTVSPost2010Prop51ColorRGB
 90
-16777216
102
RTVSPost2010PropOp51
 70
     0
102
RTVSPost2010Prop52
140
1.0
102
RTVSPost2010PropOp52
 70
     0
102
RTVSPost2010Prop53
 90
        2
102
RTVSPost2010PropOp53
 70
     1
102
RTVSPost2010Prop54
  1
strokes_ogs.tif
102
RTVSPost2010PropOp54
 70
     1
102
RTVSPost2010Prop55
280
     0
102
RTVSPost2010PropOp55
 70
     1
102
RTVSPost2010Prop56
140
1.0
102
RTVSPost2010PropOp56
 70
     1
102
RTVSPost2010Prop57
140
1.0
102
RTVSPost2010PropOp57
 70
     1
  0
XRECORD
  5
320
102
{ACAD_REACTORS
330
31F
102
}
330
31F
100
AcDbXrecord
280
     1
102
RTVSPropertyOp0
 70
     1
102
RTVSPropertyOp1
 70
     1
102
RTVSPropertyOp2
 70
     1
102
RTVSPropertyOp3
 70
     1
102
RTVSPropertyOp4
 70
     1
102
RTVSPropertyOp5
 70
     1
102
RTVSPropertyOp6
 70
     1
102
RTVSPropertyOp7
 70
     1
102
RTVSPropertyOp8
 70
     1
102
RTVSPropertyOp9
 70
     1
102
RTVSPropertyOp10
 70
     1
102
RTVSPropertyOp11
 70
     1
102
RTVSPropertyOp12
 70
     1
102
RTVSPropertyOp13
 70
     1
102
RTVSPropertyOp14
 70
     1
102
RTVSPropertyOp15
 70
     1
102
RTVSPropertyOp16
 70
     1
102
RTVSPropertyOp17
 70
     1
102
RTVSPropertyOp18
 70
     1
102
RTVSPropertyOp19
 70
     1
102
RTVSPropertyOp20
 70
     1
102
RTVSPropertyOp21
 70
     1
102
RTVSPropertyOp22
 70
     1
102
RTVSPropertyOp23
 70
     1
102
RTVSPropertyOp24
 70
     1
102
RTVSPropertyOp25
 70
     1
102
RTVSPropertyOp26
 70
     1
102
RTVSPropertyOp27
 70
     1
102
RTVSPropertyOp28
 70
     1
102
RTVSPropertyOp29
 70
     1
102
RTVSPropertyOp30
 70
     1
102
RTVSPropertyOp31
 70
     1
102
RTVSPropertyOp32
 70
     1
102
RTVSPropertyOp33
 70
     1
102
RTVSPropertyOp34
 70
     1
102
RTVSPropertyOp35
 70
     1
102
RTVSPropertyOp36
 70
     1
102
RTVSPropertyOp37
 70
     1
102
RTVSPropertyOp38
 70
     1
102
RTVSPropertyOp39
 70
     1
102
RTVSPropertyOp40
 70
     1
102
RTVSPropertyOp41
 70
     1
102
RTVSPropertyOp42
 70
     1
102
RTVSPropertyOp43
 70
     1
102
RTVSPropertyOp44
 70
     1
102
RTVSPropertyOp45
 70
     1
102
RTVSPropertyOp46
 70
     1
102
RTVSPropertyOp47
 70
     1
102
RTVSPropertyOp48
 70
     1
102
RTVSPropertyOp49
 70
     1
102
RTVSPropertyOp50
 70
     1
102
RTVSPropertyOp51
 70
     0
102
RTVSPropertyOp52
 70
     0
102
RTVSPropertyOp53
 70
     1
102
RTVSPropertyOp54
 70
     1
102
RTVSPropertyOp55
 70
     1
102
RTVSPropertyOp56
 70
     1
102
RTVSPropertyOp57
 70
     1
102
RTVSPost2010Prop28
280
     0
102
RTVSPost2010PropOp28
 70
     1
102
RTVSPost2010Prop29
280
     1
102
RTVSPost2010PropOp29
 70
     1
102
RTVSPost2010Prop30
280
     1
102
RTVSPost2010PropOp30
 70
     1
102
RTVSPost2010Prop31
280
     0
102
RTVSPost2010PropOp31
 70
     1
102
RTVSPost2010Prop32
280
     0
102
RTVSPost2010PropOp32
 70
     1
102
RTVSPost2010Prop33
280
     0
102
RTVSPost2010PropOp33
 70
     1
102
RTVSPost2010Prop34
280
     0
102
RTVSPost2010PropOp34
 70
     1
102
RTVSPost2010Prop35
280
     0
102
RTVSPost2010PropOp35
 70
     1
102
RTVSPost2010Prop36
280
     0
102
RTVSPost2010PropOp36
 70
     1
102
RTVSPost2010Prop37
 90
       50
102
RTVSPost2010PropOp37
 70
     1
102
RTVSPost2010Prop38
140
0.0
102
RTVSPost2010PropOp38
 70
     1
102
RTVSPost2010Prop39
140
1.0
102
RTVSPost2010PropOp39
 70
     1
102
RTVSPost2010Prop40
 90
        0
102
RTVSPost2010PropOp40
 70
     1
102
RTVSPost2010Prop41ColorIndex
 90
       18
102
RTVSPost2010Prop41ColorRGB
 90
        0
102
RTVSPost2010PropOp41
 70
     1
102
RTVSPost2010Prop42
 90
       50
102
RTVSPost2010PropOp42
 70
     1
102
RTVSPost2010Prop43
 90
        3
102
RTVSPost2010PropOp43
 70
     1
102
RTVSPost2010Prop44ColorIndex
 90
        5
102
RTVSPost2010Prop44ColorRGB
 90
      255
102
RTVSPost2010PropOp44
 70
     1
102
RTVSPost2010Prop45
280
     0
102
RTVSPost2010PropOp45
 70
     1
102
RTVSPost2010Prop46
 90
       50
102
RTVSPost2010PropOp46
 70
     1
102
RTVSPost2010Prop47
 90
       50
102
RTVSPost2010PropOp47
 70
     1
102
RTVSPost2010Prop48
 90
       50
102
RTVSPost2010PropOp48
 70
     1
102
RTVSPost2010Prop49
280
     0
102
RTVSPost2010PropOp49
 70
     1
102
RTVSPost2010Prop50
 90
       50
102
RTVSPost2010PropOp50
 70
     1
102
RTVSPost2010Prop51ColorIndex
 90
      256
102
RTVSPost2010Prop51ColorRGB
 90
-16777216
102
RTVSPost2010PropOp51
 70
     0
102
RTVSPost2010Prop52
140
1.0
102
RTVSPost2010PropOp52
 70
     0
102
RTVSPost2010Prop53
 90
        2
102
RTVSPost2010PropOp53
 70
     1
102
RTVSPost2010Prop54
  1
strokes_ogs.tif
102
RTVSPost2010PropOp54
 70
     1
102
RTVSPost2010Prop55
280
     0
102
RTVSPost2010PropOp55
 70
     1
102
RTVSPost2010Prop56
140
1.0
102
RTVSPost2010PropOp56
 70
     1
102
RTVSPost2010Prop57
140
1.0
102
RTVSPost2010PropOp57
 70
     1
  0
XRECORD
  5
314
102
{ACAD_REACTORS
330
313
102
}
330
313
100
AcDbXrecord
280
     1
102
RTVSPropertyOp0
 70
     1
102
RTVSPropertyOp1
 70
     1
102
RTVSPropertyOp2
 70
     1
102
RTVSPropertyOp3
 70
     1
102
RTVSPropertyOp4
 70
     1
102
RTVSPropertyOp5
 70
     1
102
RTVSPropertyOp6
 70
     1
102
RTVSPropertyOp7
 70
     1
102
RTVSPropertyOp8
 70
     1
102
RTVSPropertyOp9
 70
     1
102
RTVSPropertyOp10
 70
     1
102
RTVSPropertyOp11
 70
     1
102
RTVSPropertyOp12
 70
     1
102
RTVSPropertyOp13
 70
     1
102
RTVSPropertyOp14
 70
     1
102
RTVSPropertyOp15
 70
     1
102
RTVSPropertyOp16
 70
     1
102
RTVSPropertyOp17
 70
     1
102
RTVSPropertyOp18
 70
     1
102
RTVSPropertyOp19
 70
     1
102
RTVSPropertyOp20
 70
     1
102
RTVSPropertyOp21
 70
     1
102
RTVSPropertyOp22
 70
     1
102
RTVSPropertyOp23
 70
     1
102
RTVSPropertyOp24
 70
     1
102
RTVSPropertyOp25
 70
     1
102
RTVSPropertyOp26
 70
     1
102
RTVSPropertyOp27
 70
     1
102
RTVSPropertyOp28
 70
     1
102
RTVSPropertyOp29
 70
     1
102
RTVSPropertyOp30
 70
     1
102
RTVSPropertyOp31
 70
     1
102
RTVSPropertyOp32
 70
     1
102
RTVSPropertyOp33
 70
     1
102
RTVSPropertyOp34
 70
     1
102
RTVSPropertyOp35
 70
     1
102
RTVSPropertyOp36
 70
     1
102
RTVSPropertyOp37
 70
     1
102
RTVSPropertyOp38
 70
     1
102
RTVSPropertyOp39
 70
     1
102
RTVSPropertyOp40
 70
     1
102
RTVSPropertyOp41
 70
     1
102
RTVSPropertyOp42
 70
     1
102
RTVSPropertyOp43
 70
     1
102
RTVSPropertyOp44
 70
     1
102
RTVSPropertyOp45
 70
     1
102
RTVSPropertyOp46
 70
     1
102
RTVSPropertyOp47
 70
     1
102
RTVSPropertyOp48
 70
     1
102
RTVSPropertyOp49
 70
     1
102
RTVSPropertyOp50
 70
     1
102
RTVSPropertyOp51
 70
     0
102
RTVSPropertyOp52
 70
     0
102
RTVSPropertyOp53
 70
     1
102
RTVSPropertyOp54
 70
     1
102
RTVSPropertyOp55
 70
     1
102
RTVSPropertyOp56
 70
     1
102
RTVSPropertyOp57
 70
     1
102
RTVSPost2010Prop28
280
     0
102
RTVSPost2010PropOp28
 70
     1
102
RTVSPost2010Prop29
280
     1
102
RTVSPost2010PropOp29
 70
     1
102
RTVSPost2010Prop30
280
     1
102
RTVSPost2010PropOp30
 70
     1
102
RTVSPost2010Prop31
280
     0
102
RTVSPost2010PropOp31
 70
     1
102
RTVSPost2010Prop32
280
     0
102
RTVSPost2010PropOp32
 70
     1
102
RTVSPost2010Prop33
280
     0
102
RTVSPost2010PropOp33
 70
     1
102
RTVSPost2010Prop34
280
     0
102
RTVSPost2010PropOp34
 70
     1
102
RTVSPost2010Prop35
280
     0
102
RTVSPost2010PropOp35
 70
     1
102
RTVSPost2010Prop36
280
     0
102
RTVSPost2010PropOp36
 70
     1
102
RTVSPost2010Prop37
 90
       50
102
RTVSPost2010PropOp37
 70
     1
102
RTVSPost2010Prop38
140
0.0
102
RTVSPost2010PropOp38
 70
     1
102
RTVSPost2010Prop39
140
1.0
102
RTVSPost2010PropOp39
 70
     1
102
RTVSPost2010Prop40
 90
        0
102
RTVSPost2010PropOp40
 70
     1
102
RTVSPost2010Prop41ColorIndex
 90
       18
102
RTVSPost2010Prop41ColorRGB
 90
        0
102
RTVSPost2010PropOp41
 70
     1
102
RTVSPost2010Prop42
 90
       50
102
RTVSPost2010PropOp42
 70
     1
102
RTVSPost2010Prop43
 90
        3
102
RTVSPost2010PropOp43
 70
     1
102
RTVSPost2010Prop44ColorIndex
 90
        5
102
RTVSPost2010Prop44ColorRGB
 90
      255
102
RTVSPost2010PropOp44
 70
     1
102
RTVSPost2010Prop45
280
     0
102
RTVSPost2010PropOp45
 70
     1
102
RTVSPost2010Prop46
 90
       50
102
RTVSPost2010PropOp46
 70
     1
102
RTVSPost2010Prop47
 90
       50
102
RTVSPost2010PropOp47
 70
     1
102
RTVSPost2010Prop48
 90
       50
102
RTVSPost2010PropOp48
 70
     1
102
RTVSPost2010Prop49
280
     0
102
RTVSPost2010PropOp49
 70
     1
102
RTVSPost2010Prop50
 90
       50
102
RTVSPost2010PropOp50
 70
     1
102
RTVSPost2010Prop51ColorIndex
 90
      256
102
RTVSPost2010Prop51ColorRGB
 90
-16777216
102
RTVSPost2010PropOp51
 70
     0
102
RTVSPost2010Prop52
140
1.0
102
RTVSPost2010PropOp52
 70
     0
102
RTVSPost2010Prop53
 90
        2
102
RTVSPost2010PropOp53
 70
     1
102
RTVSPost2010Prop54
  1
strokes_ogs.tif
102
RTVSPost2010PropOp54
 70
     1
102
RTVSPost2010Prop55
280
     0
102
RTVSPost2010PropOp55
 70
     1
102
RTVSPost2010Prop56
140
1.0
102
RTVSPost2010PropOp56
 70
     1
102
RTVSPost2010Prop57
140
1.0
102
RTVSPost2010PropOp57
 70
     1
  0
XRECORD
  5
316
102
{ACAD_REACTORS
330
315
102
}
330
315
100
AcDbXrecord
280
     1
102
RTVSPropertyOp0
 70
     1
102
RTVSPropertyOp1
 70
     1
102
RTVSPropertyOp2
 70
     1
102
RTVSPropertyOp3
 70
     1
102
RTVSPropertyOp4
 70
     1
102
RTVSPropertyOp5
 70
     1
102
RTVSPropertyOp6
 70
     1
102
RTVSPropertyOp7
 70
     1
102
RTVSPropertyOp8
 70
     1
102
RTVSPropertyOp9
 70
     1
102
RTVSPropertyOp10
 70
     1
102
RTVSPropertyOp11
 70
     1
102
RTVSPropertyOp12
 70
     1
102
RTVSPropertyOp13
 70
     1
102
RTVSPropertyOp14
 70
     1
102
RTVSPropertyOp15
 70
     1
102
RTVSPropertyOp16
 70
     1
102
RTVSPropertyOp17
 70
     1
102
RTVSPropertyOp18
 70
     1
102
RTVSPropertyOp19
 70
     1
102
RTVSPropertyOp20
 70
     1
102
RTVSPropertyOp21
 70
     1
102
RTVSPropertyOp22
 70
     1
102
RTVSPropertyOp23
 70
     1
102
RTVSPropertyOp24
 70
     1
102
RTVSPropertyOp25
 70
     1
102
RTVSPropertyOp26
 70
     1
102
RTVSPropertyOp27
 70
     1
102
RTVSPropertyOp28
 70
     1
102
RTVSPropertyOp29
 70
     1
102
RTVSPropertyOp30
 70
     1
102
RTVSPropertyOp31
 70
     1
102
RTVSPropertyOp32
 70
     1
102
RTVSPropertyOp33
 70
     1
102
RTVSPropertyOp34
 70
     1
102
RTVSPropertyOp35
 70
     1
102
RTVSPropertyOp36
 70
     1
102
RTVSPropertyOp37
 70
     1
102
RTVSPropertyOp38
 70
     1
102
RTVSPropertyOp39
 70
     1
102
RTVSPropertyOp40
 70
     1
102
RTVSPropertyOp41
 70
     1
102
RTVSPropertyOp42
 70
     1
102
RTVSPropertyOp43
 70
     1
102
RTVSPropertyOp44
 70
     1
102
RTVSPropertyOp45
 70
     1
102
RTVSPropertyOp46
 70
     1
102
RTVSPropertyOp47
 70
     1
102
RTVSPropertyOp48
 70
     1
102
RTVSPropertyOp49
 70
     1
102
RTVSPropertyOp50
 70
     1
102
RTVSPropertyOp51
 70
     0
102
RTVSPropertyOp52
 70
     0
102
RTVSPropertyOp53
 70
     1
102
RTVSPropertyOp54
 70
     1
102
RTVSPropertyOp55
 70
     1
102
RTVSPropertyOp56
 70
     1
102
RTVSPropertyOp57
 70
     1
102
RTVSPost2010Prop28
280
     0
102
RTVSPost2010PropOp28
 70
     1
102
RTVSPost2010Prop29
280
     1
102
RTVSPost2010PropOp29
 70
     1
102
RTVSPost2010Prop30
280
     1
102
RTVSPost2010PropOp30
 70
     1
102
RTVSPost2010Prop31
280
     0
102
RTVSPost2010PropOp31
 70
     1
102
RTVSPost2010Prop32
280
     0
102
RTVSPost2010PropOp32
 70
     1
102
RTVSPost2010Prop33
280
     0
102
RTVSPost2010PropOp33
 70
     1
102
RTVSPost2010Prop34
280
     0
102
RTVSPost2010PropOp34
 70
     1
102
RTVSPost2010Prop35
280
     0
102
RTVSPost2010PropOp35
 70
     1
102
RTVSPost2010Prop36
280
     0
102
RTVSPost2010PropOp36
 70
     1
102
RTVSPost2010Prop37
 90
       50
102
RTVSPost2010PropOp37
 70
     1
102
RTVSPost2010Prop38
140
0.0
102
RTVSPost2010PropOp38
 70
     1
102
RTVSPost2010Prop39
140
1.0
102
RTVSPost2010PropOp39
 70
     1
102
RTVSPost2010Prop40
 90
        0
102
RTVSPost2010PropOp40
 70
     1
102
RTVSPost2010Prop41ColorIndex
 90
       18
102
RTVSPost2010Prop41ColorRGB
 90
        0
102
RTVSPost2010PropOp41
 70
     1
102
RTVSPost2010Prop42
 90
       50
102
RTVSPost2010PropOp42
 70
     1
102
RTVSPost2010Prop43
 90
        3
102
RTVSPost2010PropOp43
 70
     1
102
RTVSPost2010Prop44ColorIndex
 90
        5
102
RTVSPost2010Prop44ColorRGB
 90
      255
102
RTVSPost2010PropOp44
 70
     1
102
RTVSPost2010Prop45
280
     0
102
RTVSPost2010PropOp45
 70
     1
102
RTVSPost2010Prop46
 90
       50
102
RTVSPost2010PropOp46
 70
     1
102
RTVSPost2010Prop47
 90
       50
102
RTVSPost2010PropOp47
 70
     1
102
RTVSPost2010Prop48
 90
       50
102
RTVSPost2010PropOp48
 70
     1
102
RTVSPost2010Prop49
280
     0
102
RTVSPost2010PropOp49
 70
     1
102
RTVSPost2010Prop50
 90
       50
102
RTVSPost2010PropOp50
 70
     1
102
RTVSPost2010Prop51ColorIndex
 90
      256
102
RTVSPost2010Prop51ColorRGB
 90
-16777216
102
RTVSPost2010PropOp51
 70
     0
102
RTVSPost2010Prop52
140
1.0
102
RTVSPost2010PropOp52
 70
     0
102
RTVSPost2010Prop53
 90
        2
102
RTVSPost2010PropOp53
 70
     1
102
RTVSPost2010Prop54
  1
strokes_ogs.tif
102
RTVSPost2010PropOp54
 70
     1
102
RTVSPost2010Prop55
280
     0
102
RTVSPost2010PropOp55
 70
     1
102
RTVSPost2010Prop56
140
1.0
102
RTVSPost2010PropOp56
 70
     1
102
RTVSPost2010Prop57
140
1.0
102
RTVSPost2010PropOp57
 70
     1
  0
XRECORD
  5
326
102
{ACAD_REACTORS
330
325
102
}
330
325
100
AcDbXrecord
280
     1
102
RTVSPropertyOp0
 70
     0
102
RTVSPropertyOp1
 70
     0
102
RTVSPropertyOp2
 70
     0
102
RTVSPropertyOp3
 70
     0
102
RTVSPropertyOp4
 70
     0
102
RTVSPropertyOp5
 70
     0
102
RTVSPropertyOp6
 70
     0
102
RTVSPropertyOp7
 70
     0
102
RTVSPropertyOp8
 70
     0
102
RTVSPropertyOp9
 70
     0
102
RTVSPropertyOp10
 70
     0
102
RTVSPropertyOp11
 70
     0
102
RTVSPropertyOp12
 70
     0
102
RTVSPropertyOp13
 70
     0
102
RTVSPropertyOp14
 70
     2
102
RTVSPropertyOp15
 70
     0
102
RTVSPropertyOp16
 70
     0
102
RTVSPropertyOp17
 70
     0
102
RTVSPropertyOp18
 70
     0
102
RTVSPropertyOp19
 70
     0
102
RTVSPropertyOp20
 70
     0
102
RTVSPropertyOp21
 70
     0
102
RTVSPropertyOp22
 70
     0
102
RTVSPropertyOp23
 70
     0
102
RTVSPropertyOp24
 70
     0
102
RTVSPropertyOp25
 70
     0
102
RTVSPropertyOp26
 70
     0
102
RTVSPropertyOp27
 70
     0
102
RTVSPropertyOp28
 70
     0
102
RTVSPropertyOp29
 70
     0
102
RTVSPropertyOp30
 70
     0
102
RTVSPropertyOp31
 70
     0
102
RTVSPropertyOp32
 70
     0
102
RTVSPropertyOp33
 70
     0
102
RTVSPropertyOp34
 70
     0
102
RTVSPropertyOp35
 70
     0
102
RTVSPropertyOp36
 70
     0
102
RTVSPropertyOp37
 70
     0
102
RTVSPropertyOp38
 70
     0
102
RTVSPropertyOp39
 70
     0
102
RTVSPropertyOp40
 70
     0
102
RTVSPropertyOp41
 70
     0
102
RTVSPropertyOp42
 70
     0
102
RTVSPropertyOp43
 70
     0
102
RTVSPropertyOp44
 70
     0
102
RTVSPropertyOp45
 70
     0
102
RTVSPropertyOp46
 70
     0
102
RTVSPropertyOp47
 70
     0
102
RTVSPropertyOp48
 70
     0
102
RTVSPropertyOp49
 70
     0
102
RTVSPropertyOp50
 70
     0
102
RTVSPropertyOp51
 70
     0
102
RTVSPropertyOp52
 70
     0
102
RTVSPropertyOp53
 70
     0
102
RTVSPropertyOp54
 70
     0
102
RTVSPropertyOp55
 70
     0
102
RTVSPropertyOp56
 70
     0
102
RTVSPropertyOp57
 70
     0
102
RTVSPost2010Prop28
280
     0
102
RTVSPost2010PropOp28
 70
     0
102
RTVSPost2010Prop29
280
     1
102
RTVSPost2010PropOp29
 70
     0
102
RTVSPost2010Prop30
280
     1
102
RTVSPost2010PropOp30
 70
     0
102
RTVSPost2010Prop31
280
     0
102
RTVSPost2010PropOp31
 70
     0
102
RTVSPost2010Prop32
280
     0
102
RTVSPost2010PropOp32
 70
     0
102
RTVSPost2010Prop33
280
     0
102
RTVSPost2010PropOp33
 70
     0
102
RTVSPost2010Prop34
280
     0
102
RTVSPost2010PropOp34
 70
     0
102
RTVSPost2010Prop35
280
     0
102
RTVSPost2010PropOp35
 70
     0
102
RTVSPost2010Prop36
280
     0
102
RTVSPost2010PropOp36
 70
     0
102
RTVSPost2010Prop37
 90
       50
102
RTVSPost2010PropOp37
 70
     0
102
RTVSPost2010Prop38
140
0.0
102
RTVSPost2010PropOp38
 70
     0
102
RTVSPost2010Prop39
140
1.0
102
RTVSPost2010PropOp39
 70
     0
102
RTVSPost2010Prop40
 90
        0
102
RTVSPost2010PropOp40
 70
     0
102
RTVSPost2010Prop41ColorIndex
 90
       18
102
RTVSPost2010Prop41ColorRGB
 90
        0
102
RTVSPost2010PropOp41
 70
     0
102
RTVSPost2010Prop42
 90
       50
102
RTVSPost2010PropOp42
 70
     0
102
RTVSPost2010Prop43
 90
        3
102
RTVSPost2010PropOp43
 70
     0
102
RTVSPost2010Prop44ColorIndex
 90
        5
102
RTVSPost2010Prop44ColorRGB
 90
      255
102
RTVSPost2010PropOp44
 70
     0
102
RTVSPost2010Prop45
280
     0
102
RTVSPost2010PropOp45
 70
     0
102
RTVSPost2010Prop46
 90
       50
102
RTVSPost2010PropOp46
 70
     0
102
RTVSPost2010Prop47
 90
       50
102
RTVSPost2010PropOp47
 70
     0
102
RTVSPost2010Prop48
 90
       50
102
RTVSPost2010PropOp48
 70
     0
102
RTVSPost2010Prop49
280
     0
102
RTVSPost2010PropOp49
 70
     0
102
RTVSPost2010Prop50
 90
       50
102
RTVSPost2010PropOp50
 70
     0
102
RTVSPost2010Prop51ColorIndex
 90
      256
102
RTVSPost2010Prop51ColorRGB
 90
-16777216
102
RTVSPost2010PropOp51
 70
     0
102
RTVSPost2010Prop52
140
1.0
102
RTVSPost2010PropOp52
 70
     0
102
RTVSPost2010Prop53
 90
        2
102
RTVSPost2010PropOp53
 70
     0
102
RTVSPost2010Prop54
  1
strokes_ogs.tif
102
RTVSPost2010PropOp54
 70
     0
102
RTVSPost2010Prop55
280
     0
102
RTVSPost2010PropOp55
 70
     0
102
RTVSPost2010Prop56
140
1.0
102
RTVSPost2010PropOp56
 70
     0
102
RTVSPost2010Prop57
140
1.0
102
RTVSPost2010PropOp57
 70
     0
  0
XRECORD
  5
31E
102
{ACAD_REACTORS
330
31D
102
}
330
31D
100
AcDbXrecord
280
     1
102
RTVSPropertyOp0
 70
     1
102
RTVSPropertyOp1
 70
     1
102
RTVSPropertyOp2
 70
     1
102
RTVSPropertyOp3
 70
     1
102
RTVSPropertyOp4
 70
     1
102
RTVSPropertyOp5
 70
     1
102
RTVSPropertyOp6
 70
     1
102
RTVSPropertyOp7
 70
     1
102
RTVSPropertyOp8
 70
     1
102
RTVSPropertyOp9
 70
     1
102
RTVSPropertyOp10
 70
     1
102
RTVSPropertyOp11
 70
     1
102
RTVSPropertyOp12
 70
     1
102
RTVSPropertyOp13
 70
     1
102
RTVSPropertyOp14
 70
     1
102
RTVSPropertyOp15
 70
     1
102
RTVSPropertyOp16
 70
     1
102
RTVSPropertyOp17
 70
     1
102
RTVSPropertyOp18
 70
     1
102
RTVSPropertyOp19
 70
     1
102
RTVSPropertyOp20
 70
     1
102
RTVSPropertyOp21
 70
     1
102
RTVSPropertyOp22
 70
     1
102
RTVSPropertyOp23
 70
     1
102
RTVSPropertyOp24
 70
     1
102
RTVSPropertyOp25
 70
     1
102
RTVSPropertyOp26
 70
     1
102
RTVSPropertyOp27
 70
     1
102
RTVSPropertyOp28
 70
     1
102
RTVSPropertyOp29
 70
     1
102
RTVSPropertyOp30
 70
     1
102
RTVSPropertyOp31
 70
     1
102
RTVSPropertyOp32
 70
     1
102
RTVSPropertyOp33
 70
     1
102
RTVSPropertyOp34
 70
     1
102
RTVSPropertyOp35
 70
     1
102
RTVSPropertyOp36
 70
     1
102
RTVSPropertyOp37
 70
     1
102
RTVSPropertyOp38
 70
     1
102
RTVSPropertyOp39
 70
     1
102
RTVSPropertyOp40
 70
     1
102
RTVSPropertyOp41
 70
     1
102
RTVSPropertyOp42
 70
     1
102
RTVSPropertyOp43
 70
     1
102
RTVSPropertyOp44
 70
     1
102
RTVSPropertyOp45
 70
     1
102
RTVSPropertyOp46
 70
     1
102
RTVSPropertyOp47
 70
     1
102
RTVSPropertyOp48
 70
     1
102
RTVSPropertyOp49
 70
     1
102
RTVSPropertyOp50
 70
     1
102
RTVSPropertyOp51
 70
     0
102
RTVSPropertyOp52
 70
     0
102
RTVSPropertyOp53
 70
     1
102
RTVSPropertyOp54
 70
     1
102
RTVSPropertyOp55
 70
     1
102
RTVSPropertyOp56
 70
     1
102
RTVSPropertyOp57
 70
     1
102
RTVSPost2010Prop28
280
     0
102
RTVSPost2010PropOp28
 70
     1
102
RTVSPost2010Prop29
280
     1
102
RTVSPost2010PropOp29
 70
     1
102
RTVSPost2010Prop30
280
     1
102
RTVSPost2010PropOp30
 70
     1
102
RTVSPost2010Prop31
280
     0
102
RTVSPost2010PropOp31
 70
     1
102
RTVSPost2010Prop32
280
     0
102
RTVSPost2010PropOp32
 70
     1
102
RTVSPost2010Prop33
280
     0
102
RTVSPost2010PropOp33
 70
     1
102
RTVSPost2010Prop34
280
     0
102
RTVSPost2010PropOp34
 70
     1
102
RTVSPost2010Prop35
280
     0
102
RTVSPost2010PropOp35
 70
     1
102
RTVSPost2010Prop36
280
     0
102
RTVSPost2010PropOp36
 70
     1
102
RTVSPost2010Prop37
 90
       50
102
RTVSPost2010PropOp37
 70
     1
102
RTVSPost2010Prop38
140
0.0
102
RTVSPost2010PropOp38
 70
     1
102
RTVSPost2010Prop39
140
1.0
102
RTVSPost2010PropOp39
 70
     1
102
RTVSPost2010Prop40
 90
        0
102
RTVSPost2010PropOp40
 70
     1
102
RTVSPost2010Prop41ColorIndex
 90
       18
102
RTVSPost2010Prop41ColorRGB
 90
        0
102
RTVSPost2010PropOp41
 70
     1
102
RTVSPost2010Prop42
 90
       50
102
RTVSPost2010PropOp42
 70
     1
102
RTVSPost2010Prop43
 90
        3
102
RTVSPost2010PropOp43
 70
     1
102
RTVSPost2010Prop44ColorIndex
 90
        5
102
RTVSPost2010Prop44ColorRGB
 90
      255
102
RTVSPost2010PropOp44
 70
     1
102
RTVSPost2010Prop45
280
     0
102
RTVSPost2010PropOp45
 70
     1
102
RTVSPost2010Prop46
 90
       50
102
RTVSPost2010PropOp46
 70
     1
102
RTVSPost2010Prop47
 90
       50
102
RTVSPost2010PropOp47
 70
     1
102
RTVSPost2010Prop48
 90
       50
102
RTVSPost2010PropOp48
 70
     1
102
RTVSPost2010Prop49
280
     0
102
RTVSPost2010PropOp49
 70
     1
102
RTVSPost2010Prop50
 90
       50
102
RTVSPost2010PropOp50
 70
     1
102
RTVSPost2010Prop51ColorIndex
 90
      256
102
RTVSPost2010Prop51ColorRGB
 90
-16777216
102
RTVSPost2010PropOp51
 70
     0
102
RTVSPost2010Prop52
140
1.0
102
RTVSPost2010PropOp52
 70
     0
102
RTVSPost2010Prop53
 90
        2
102
RTVSPost2010PropOp53
 70
     1
102
RTVSPost2010Prop54
  1
strokes_ogs.tif
102
RTVSPost2010PropOp54
 70
     1
102
RTVSPost2010Prop55
280
     0
102
RTVSPost2010PropOp55
 70
     1
102
RTVSPost2010Prop56
140
1.0
102
RTVSPost2010PropOp56
 70
     1
102
RTVSPost2010Prop57
140
1.0
102
RTVSPost2010PropOp57
 70
     1
  0
XRECORD
  5
302
102
{ACAD_REACTORS
330
301
102
}
330
301
100
AcDbXrecord
280
     1
102
RTVSPropertyOp0
 70
     1
102
RTVSPropertyOp1
 70
     1
102
RTVSPropertyOp2
 70
     1
102
RTVSPropertyOp3
 70
     1
102
RTVSPropertyOp4
 70
     1
102
RTVSPropertyOp5
 70
     1
102
RTVSPropertyOp6
 70
     1
102
RTVSPropertyOp7
 70
     1
102
RTVSPropertyOp8
 70
     1
102
RTVSPropertyOp9
 70
     1
102
RTVSPropertyOp10
 70
     1
102
RTVSPropertyOp11
 70
     1
102
RTVSPropertyOp12
 70
     1
102
RTVSPropertyOp13
 70
     1
102
RTVSPropertyOp14
 70
     1
102
RTVSPropertyOp15
 70
     1
102
RTVSPropertyOp16
 70
     1
102
RTVSPropertyOp17
 70
     1
102
RTVSPropertyOp18
 70
     1
102
RTVSPropertyOp19
 70
     1
102
RTVSPropertyOp20
 70
     1
102
RTVSPropertyOp21
 70
     1
102
RTVSPropertyOp22
 70
     1
102
RTVSPropertyOp23
 70
     1
102
RTVSPropertyOp24
 70
     1
102
RTVSPropertyOp25
 70
     1
102
RTVSPropertyOp26
 70
     1
102
RTVSPropertyOp27
 70
     1
102
RTVSPropertyOp28
 70
     1
102
RTVSPropertyOp29
 70
     1
102
RTVSPropertyOp30
 70
     1
102
RTVSPropertyOp31
 70
     1
102
RTVSPropertyOp32
 70
     1
102
RTVSPropertyOp33
 70
     1
102
RTVSPropertyOp34
 70
     1
102
RTVSPropertyOp35
 70
     1
102
RTVSPropertyOp36
 70
     1
102
RTVSPropertyOp37
 70
     1
102
RTVSPropertyOp38
 70
     1
102
RTVSPropertyOp39
 70
     1
102
RTVSPropertyOp40
 70
     1
102
RTVSPropertyOp41
 70
     1
102
RTVSPropertyOp42
 70
     1
102
RTVSPropertyOp43
 70
     1
102
RTVSPropertyOp44
 70
     1
102
RTVSPropertyOp45
 70
     1
102
RTVSPropertyOp46
 70
     1
102
RTVSPropertyOp47
 70
     1
102
RTVSPropertyOp48
 70
     1
102
RTVSPropertyOp49
 70
     1
102
RTVSPropertyOp50
 70
     1
102
RTVSPropertyOp51
 70
     0
102
RTVSPropertyOp52
 70
     0
102
RTVSPropertyOp53
 70
     1
102
RTVSPropertyOp54
 70
     1
102
RTVSPropertyOp55
 70
     1
102
RTVSPropertyOp56
 70
     1
102
RTVSPropertyOp57
 70
     1
102
RTVSPost2010Prop28
280
     0
102
RTVSPost2010PropOp28
 70
     1
102
RTVSPost2010Prop29
280
     1
102
RTVSPost2010PropOp29
 70
     1
102
RTVSPost2010Prop30
280
     1
102
RTVSPost2010PropOp30
 70
     1
102
RTVSPost2010Prop31
280
     0
102
RTVSPost2010PropOp31
 70
     1
102
RTVSPost2010Prop32
280
     0
102
RTVSPost2010PropOp32
 70
     1
102
RTVSPost2010Prop33
280
     0
102
RTVSPost2010PropOp33
 70
     1
102
RTVSPost2010Prop34
280
     0
102
RTVSPost2010PropOp34
 70
     1
102
RTVSPost2010Prop35
280
     0
102
RTVSPost2010PropOp35
 70
     1
102
RTVSPost2010Prop36
280
     0
102
RTVSPost2010PropOp36
 70
     1
102
RTVSPost2010Prop37
 90
       50
102
RTVSPost2010PropOp37
 70
     1
102
RTVSPost2010Prop38
140
0.0
102
RTVSPost2010PropOp38
 70
     1
102
RTVSPost2010Prop39
140
1.0
102
RTVSPost2010PropOp39
 70
     1
102
RTVSPost2010Prop40
 90
        0
102
RTVSPost2010PropOp40
 70
     1
102
RTVSPost2010Prop41ColorIndex
 90
       18
102
RTVSPost2010Prop41ColorRGB
 90
        0
102
RTVSPost2010PropOp41
 70
     1
102
RTVSPost2010Prop42
 90
       50
102
RTVSPost2010PropOp42
 70
     1
102
RTVSPost2010Prop43
 90
        3
102
RTVSPost2010PropOp43
 70
     1
102
RTVSPost2010Prop44ColorIndex
 90
        5
102
RTVSPost2010Prop44ColorRGB
 90
      255
102
RTVSPost2010PropOp44
 70
     1
102
RTVSPost2010Prop45
280
     0
102
RTVSPost2010PropOp45
 70
     1
102
RTVSPost2010Prop46
 90
       50
102
RTVSPost2010PropOp46
 70
     1
102
RTVSPost2010Prop47
 90
       50
102
RTVSPost2010PropOp47
 70
     1
102
RTVSPost2010Prop48
 90
       50
102
RTVSPost2010PropOp48
 70
     1
102
RTVSPost2010Prop49
280
     0
102
RTVSPost2010PropOp49
 70
     1
102
RTVSPost2010Prop50
 90
       50
102
RTVSPost2010PropOp50
 70
     1
102
RTVSPost2010Prop51ColorIndex
 90
      256
102
RTVSPost2010Prop51ColorRGB
 90
-16777216
102
RTVSPost2010PropOp51
 70
     0
102
RTVSPost2010Prop52
140
1.0
102
RTVSPost2010PropOp52
 70
     0
102
RTVSPost2010Prop53
 90
        2
102
RTVSPost2010PropOp53
 70
     1
102
RTVSPost2010Prop54
  1
strokes_ogs.tif
102
RTVSPost2010PropOp54
 70
     1
102
RTVSPost2010Prop55
280
     0
102
RTVSPost2010PropOp55
 70
     1
102
RTVSPost2010Prop56
140
1.0
102
RTVSPost2010PropOp56
 70
     1
102
RTVSPost2010Prop57
140
1.0
102
RTVSPost2010PropOp57
 70
     1
  0
XRECORD
  5
304
102
{ACAD_REACTORS
330
303
102
}
330
303
100
AcDbXrecord
280
     1
102
RTVSPropertyOp0
 70
     1
102
RTVSPropertyOp1
 70
     1
102
RTVSPropertyOp2
 70
     1
102
RTVSPropertyOp3
 70
     1
102
RTVSPropertyOp4
 70
     1
102
RTVSPropertyOp5
 70
     1
102
RTVSPropertyOp6
 70
     1
102
RTVSPropertyOp7
 70
     1
102
RTVSPropertyOp8
 70
     1
102
RTVSPropertyOp9
 70
     1
102
RTVSPropertyOp10
 70
     1
102
RTVSPropertyOp11
 70
     1
102
RTVSPropertyOp12
 70
     1
102
RTVSPropertyOp13
 70
     1
102
RTVSPropertyOp14
 70
     1
102
RTVSPropertyOp15
 70
     1
102
RTVSPropertyOp16
 70
     1
102
RTVSPropertyOp17
 70
     1
102
RTVSPropertyOp18
 70
     1
102
RTVSPropertyOp19
 70
     1
102
RTVSPropertyOp20
 70
     1
102
RTVSPropertyOp21
 70
     1
102
RTVSPropertyOp22
 70
     1
102
RTVSPropertyOp23
 70
     1
102
RTVSPropertyOp24
 70
     1
102
RTVSPropertyOp25
 70
     1
102
RTVSPropertyOp26
 70
     1
102
RTVSPropertyOp27
 70
     1
102
RTVSPropertyOp28
 70
     1
102
RTVSPropertyOp29
 70
     1
102
RTVSPropertyOp30
 70
     1
102
RTVSPropertyOp31
 70
     1
102
RTVSPropertyOp32
 70
     1
102
RTVSPropertyOp33
 70
     1
102
RTVSPropertyOp34
 70
     1
102
RTVSPropertyOp35
 70
     1
102
RTVSPropertyOp36
 70
     1
102
RTVSPropertyOp37
 70
     1
102
RTVSPropertyOp38
 70
     1
102
RTVSPropertyOp39
 70
     1
102
RTVSPropertyOp40
 70
     1
102
RTVSPropertyOp41
 70
     1
102
RTVSPropertyOp42
 70
     1
102
RTVSPropertyOp43
 70
     1
102
RTVSPropertyOp44
 70
     1
102
RTVSPropertyOp45
 70
     1
102
RTVSPropertyOp46
 70
     1
102
RTVSPropertyOp47
 70
     1
102
RTVSPropertyOp48
 70
     1
102
RTVSPropertyOp49
 70
     1
102
RTVSPropertyOp50
 70
     1
102
RTVSPropertyOp51
 70
     0
102
RTVSPropertyOp52
 70
     0
102
RTVSPropertyOp53
 70
     1
102
RTVSPropertyOp54
 70
     1
102
RTVSPropertyOp55
 70
     1
102
RTVSPropertyOp56
 70
     1
102
RTVSPropertyOp57
 70
     1
102
RTVSPost2010Prop28
280
     0
102
RTVSPost2010PropOp28
 70
     1
102
RTVSPost2010Prop29
280
     1
102
RTVSPost2010PropOp29
 70
     1
102
RTVSPost2010Prop30
280
     1
102
RTVSPost2010PropOp30
 70
     1
102
RTVSPost2010Prop31
280
     0
102
RTVSPost2010PropOp31
 70
     1
102
RTVSPost2010Prop32
280
     0
102
RTVSPost2010PropOp32
 70
     1
102
RTVSPost2010Prop33
280
     0
102
RTVSPost2010PropOp33
 70
     1
102
RTVSPost2010Prop34
280
     0
102
RTVSPost2010PropOp34
 70
     1
102
RTVSPost2010Prop35
280
     0
102
RTVSPost2010PropOp35
 70
     1
102
RTVSPost2010Prop36
280
     0
102
RTVSPost2010PropOp36
 70
     1
102
RTVSPost2010Prop37
 90
       50
102
RTVSPost2010PropOp37
 70
     1
102
RTVSPost2010Prop38
140
0.0
102
RTVSPost2010PropOp38
 70
     1
102
RTVSPost2010Prop39
140
1.0
102
RTVSPost2010PropOp39
 70
     1
102
RTVSPost2010Prop40
 90
        0
102
RTVSPost2010PropOp40
 70
     1
102
RTVSPost2010Prop41ColorIndex
 90
       18
102
RTVSPost2010Prop41ColorRGB
 90
        0
102
RTVSPost2010PropOp41
 70
     1
102
RTVSPost2010Prop42
 90
       50
102
RTVSPost2010PropOp42
 70
     1
102
RTVSPost2010Prop43
 90
        3
102
RTVSPost2010PropOp43
 70
     1
102
RTVSPost2010Prop44ColorIndex
 90
        5
102
RTVSPost2010Prop44ColorRGB
 90
      255
102
RTVSPost2010PropOp44
 70
     1
102
RTVSPost2010Prop45
280
     0
102
RTVSPost2010PropOp45
 70
     1
102
RTVSPost2010Prop46
 90
       50
102
RTVSPost2010PropOp46
 70
     1
102
RTVSPost2010Prop47
 90
       50
102
RTVSPost2010PropOp47
 70
     1
102
RTVSPost2010Prop48
 90
       50
102
RTVSPost2010PropOp48
 70
     1
102
RTVSPost2010Prop49
280
     0
102
RTVSPost2010PropOp49
 70
     1
102
RTVSPost2010Prop50
 90
       50
102
RTVSPost2010PropOp50
 70
     1
102
RTVSPost2010Prop51ColorIndex
 90
      256
102
RTVSPost2010Prop51ColorRGB
 90
-16777216
102
RTVSPost2010PropOp51
 70
     0
102
RTVSPost2010Prop52
140
1.0
102
RTVSPost2010PropOp52
 70
     0
102
RTVSPost2010Prop53
 90
        2
102
RTVSPost2010PropOp53
 70
     1
102
RTVSPost2010Prop54
  1
strokes_ogs.tif
102
RTVSPost2010PropOp54
 70
     1
102
RTVSPost2010Prop55
280
     0
102
RTVSPost2010PropOp55
 70
     1
102
RTVSPost2010Prop56
140
1.0
102
RTVSPost2010PropOp56
 70
     1
102
RTVSPost2010Prop57
140
1.0
102
RTVSPost2010PropOp57
 70
     1
  0
XRECORD
  5
306
102
{ACAD_REACTORS
330
305
102
}
330
305
100
AcDbXrecord
280
     1
102
RTVSPropertyOp0
 70
     1
102
RTVSPropertyOp1
 70
     1
102
RTVSPropertyOp2
 70
     1
102
RTVSPropertyOp3
 70
     1
102
RTVSPropertyOp4
 70
     1
102
RTVSPropertyOp5
 70
     1
102
RTVSPropertyOp6
 70
     1
102
RTVSPropertyOp7
 70
     1
102
RTVSPropertyOp8
 70
     1
102
RTVSPropertyOp9
 70
     1
102
RTVSPropertyOp10
 70
     1
102
RTVSPropertyOp11
 70
     1
102
RTVSPropertyOp12
 70
     1
102
RTVSPropertyOp13
 70
     1
102
RTVSPropertyOp14
 70
     1
102
RTVSPropertyOp15
 70
     1
102
RTVSPropertyOp16
 70
     1
102
RTVSPropertyOp17
 70
     1
102
RTVSPropertyOp18
 70
     1
102
RTVSPropertyOp19
 70
     1
102
RTVSPropertyOp20
 70
     1
102
RTVSPropertyOp21
 70
     1
102
RTVSPropertyOp22
 70
     1
102
RTVSPropertyOp23
 70
     1
102
RTVSPropertyOp24
 70
     1
102
RTVSPropertyOp25
 70
     1
102
RTVSPropertyOp26
 70
     1
102
RTVSPropertyOp27
 70
     1
102
RTVSPropertyOp28
 70
     1
102
RTVSPropertyOp29
 70
     1
102
RTVSPropertyOp30
 70
     1
102
RTVSPropertyOp31
 70
     1
102
RTVSPropertyOp32
 70
     1
102
RTVSPropertyOp33
 70
     1
102
RTVSPropertyOp34
 70
     1
102
RTVSPropertyOp35
 70
     1
102
RTVSPropertyOp36
 70
     1
102
RTVSPropertyOp37
 70
     1
102
RTVSPropertyOp38
 70
     1
102
RTVSPropertyOp39
 70
     1
102
RTVSPropertyOp40
 70
     1
102
RTVSPropertyOp41
 70
     1
102
RTVSPropertyOp42
 70
     1
102
RTVSPropertyOp43
 70
     1
102
RTVSPropertyOp44
 70
     1
102
RTVSPropertyOp45
 70
     1
102
RTVSPropertyOp46
 70
     1
102
RTVSPropertyOp47
 70
     1
102
RTVSPropertyOp48
 70
     1
102
RTVSPropertyOp49
 70
     1
102
RTVSPropertyOp50
 70
     1
102
RTVSPropertyOp51
 70
     0
102
RTVSPropertyOp52
 70
     0
102
RTVSPropertyOp53
 70
     1
102
RTVSPropertyOp54
 70
     1
102
RTVSPropertyOp55
 70
     1
102
RTVSPropertyOp56
 70
     1
102
RTVSPropertyOp57
 70
     1
102
RTVSPost2010Prop28
280
     0
102
RTVSPost2010PropOp28
 70
     1
102
RTVSPost2010Prop29
280
     1
102
RTVSPost2010PropOp29
 70
     1
102
RTVSPost2010Prop30
280
     1
102
RTVSPost2010PropOp30
 70
     1
102
RTVSPost2010Prop31
280
     0
102
RTVSPost2010PropOp31
 70
     1
102
RTVSPost2010Prop32
280
     0
102
RTVSPost2010PropOp32
 70
     1
102
RTVSPost2010Prop33
280
     0
102
RTVSPost2010PropOp33
 70
     1
102
RTVSPost2010Prop34
280
     0
102
RTVSPost2010PropOp34
 70
     1
102
RTVSPost2010Prop35
280
     0
102
RTVSPost2010PropOp35
 70
     1
102
RTVSPost2010Prop36
280
     0
102
RTVSPost2010PropOp36
 70
     1
102
RTVSPost2010Prop37
 90
       50
102
RTVSPost2010PropOp37
 70
     1
102
RTVSPost2010Prop38
140
0.0
102
RTVSPost2010PropOp38
 70
     1
102
RTVSPost2010Prop39
140
1.0
102
RTVSPost2010PropOp39
 70
     1
102
RTVSPost2010Prop40
 90
        0
102
RTVSPost2010PropOp40
 70
     1
102
RTVSPost2010Prop41ColorIndex
 90
       18
102
RTVSPost2010Prop41ColorRGB
 90
        0
102
RTVSPost2010PropOp41
 70
     1
102
RTVSPost2010Prop42
 90
       50
102
RTVSPost2010PropOp42
 70
     1
102
RTVSPost2010Prop43
 90
        3
102
RTVSPost2010PropOp43
 70
     1
102
RTVSPost2010Prop44ColorIndex
 90
        5
102
RTVSPost2010Prop44ColorRGB
 90
      255
102
RTVSPost2010PropOp44
 70
     1
102
RTVSPost2010Prop45
280
     0
102
RTVSPost2010PropOp45
 70
     1
102
RTVSPost2010Prop46
 90
       50
102
RTVSPost2010PropOp46
 70
     1
102
RTVSPost2010Prop47
 90
       50
102
RTVSPost2010PropOp47
 70
     1
102
RTVSPost2010Prop48
 90
       50
102
RTVSPost2010PropOp48
 70
     1
102
RTVSPost2010Prop49
280
     0
102
RTVSPost2010PropOp49
 70
     1
102
RTVSPost2010Prop50
 90
       50
102
RTVSPost2010PropOp50
 70
     1
102
RTVSPost2010Prop51ColorIndex
 90
      256
102
RTVSPost2010Prop51ColorRGB
 90
-16777216
102
RTVSPost2010PropOp51
 70
     0
102
RTVSPost2010Prop52
140
1.0
102
RTVSPost2010PropOp52
 70
     0
102
RTVSPost2010Prop53
 90
        2
102
RTVSPost2010PropOp53
 70
     1
102
RTVSPost2010Prop54
  1
strokes_ogs.tif
102
RTVSPost2010PropOp54
 70
     1
102
RTVSPost2010Prop55
280
     0
102
RTVSPost2010PropOp55
 70
     1
102
RTVSPost2010Prop56
140
1.0
102
RTVSPost2010PropOp56
 70
     1
102
RTVSPost2010Prop57
140
1.0
102
RTVSPost2010PropOp57
 70
     1
  0
XRECORD
  5
308
102
{ACAD_REACTORS
330
307
102
}
330
307
100
AcDbXrecord
280
     1
102
RTVSPropertyOp0
 70
     1
102
RTVSPropertyOp1
 70
     1
102
RTVSPropertyOp2
 70
     1
102
RTVSPropertyOp3
 70
     1
102
RTVSPropertyOp4
 70
     1
102
RTVSPropertyOp5
 70
     1
102
RTVSPropertyOp6
 70
     1
102
RTVSPropertyOp7
 70
     1
102
RTVSPropertyOp8
 70
     1
102
RTVSPropertyOp9
 70
     1
102
RTVSPropertyOp10
 70
     1
102
RTVSPropertyOp11
 70
     1
102
RTVSPropertyOp12
 70
     1
102
RTVSPropertyOp13
 70
     1
102
RTVSPropertyOp14
 70
     1
102
RTVSPropertyOp15
 70
     1
102
RTVSPropertyOp16
 70
     1
102
RTVSPropertyOp17
 70
     1
102
RTVSPropertyOp18
 70
     1
102
RTVSPropertyOp19
 70
     1
102
RTVSPropertyOp20
 70
     1
102
RTVSPropertyOp21
 70
     1
102
RTVSPropertyOp22
 70
     1
102
RTVSPropertyOp23
 70
     1
102
RTVSPropertyOp24
 70
     1
102
RTVSPropertyOp25
 70
     1
102
RTVSPropertyOp26
 70
     1
102
RTVSPropertyOp27
 70
     1
102
RTVSPropertyOp28
 70
     1
102
RTVSPropertyOp29
 70
     1
102
RTVSPropertyOp30
 70
     1
102
RTVSPropertyOp31
 70
     1
102
RTVSPropertyOp32
 70
     1
102
RTVSPropertyOp33
 70
     1
102
RTVSPropertyOp34
 70
     1
102
RTVSPropertyOp35
 70
     1
102
RTVSPropertyOp36
 70
     1
102
RTVSPropertyOp37
 70
     1
102
RTVSPropertyOp38
 70
     1
102
RTVSPropertyOp39
 70
     1
102
RTVSPropertyOp40
 70
     1
102
RTVSPropertyOp41
 70
     1
102
RTVSPropertyOp42
 70
     1
102
RTVSPropertyOp43
 70
     1
102
RTVSPropertyOp44
 70
     1
102
RTVSPropertyOp45
 70
     1
102
RTVSPropertyOp46
 70
     1
102
RTVSPropertyOp47
 70
     1
102
RTVSPropertyOp48
 70
     1
102
RTVSPropertyOp49
 70
     1
102
RTVSPropertyOp50
 70
     1
102
RTVSPropertyOp51
 70
     0
102
RTVSPropertyOp52
 70
     0
102
RTVSPropertyOp53
 70
     1
102
RTVSPropertyOp54
 70
     1
102
RTVSPropertyOp55
 70
     1
102
RTVSPropertyOp56
 70
     1
102
RTVSPropertyOp57
 70
     1
102
RTVSPost2010Prop28
280
     0
102
RTVSPost2010PropOp28
 70
     1
102
RTVSPost2010Prop29
280
     1
102
RTVSPost2010PropOp29
 70
     1
102
RTVSPost2010Prop30
280
     1
102
RTVSPost2010PropOp30
 70
     1
102
RTVSPost2010Prop31
280
     0
102
RTVSPost2010PropOp31
 70
     1
102
RTVSPost2010Prop32
280
     0
102
RTVSPost2010PropOp32
 70
     1
102
RTVSPost2010Prop33
280
     0
102
RTVSPost2010PropOp33
 70
     1
102
RTVSPost2010Prop34
280
     0
102
RTVSPost2010PropOp34
 70
     1
102
RTVSPost2010Prop35
280
     0
102
RTVSPost2010PropOp35
 70
     1
102
RTVSPost2010Prop36
280
     0
102
RTVSPost2010PropOp36
 70
     1
102
RTVSPost2010Prop37
 90
       50
102
RTVSPost2010PropOp37
 70
     1
102
RTVSPost2010Prop38
140
0.0
102
RTVSPost2010PropOp38
 70
     1
102
RTVSPost2010Prop39
140
1.0
102
RTVSPost2010PropOp39
 70
     1
102
RTVSPost2010Prop40
 90
        0
102
RTVSPost2010PropOp40
 70
     1
102
RTVSPost2010Prop41ColorIndex
 90
       18
102
RTVSPost2010Prop41ColorRGB
 90
        0
102
RTVSPost2010PropOp41
 70
     1
102
RTVSPost2010Prop42
 90
       50
102
RTVSPost2010PropOp42
 70
     1
102
RTVSPost2010Prop43
 90
        3
102
RTVSPost2010PropOp43
 70
     1
102
RTVSPost2010Prop44ColorIndex
 90
        5
102
RTVSPost2010Prop44ColorRGB
 90
      255
102
RTVSPost2010PropOp44
 70
     1
102
RTVSPost2010Prop45
280
     0
102
RTVSPost2010PropOp45
 70
     1
102
RTVSPost2010Prop46
 90
       50
102
RTVSPost2010PropOp46
 70
     1
102
RTVSPost2010Prop47
 90
       50
102
RTVSPost2010PropOp47
 70
     1
102
RTVSPost2010Prop48
 90
       50
102
RTVSPost2010PropOp48
 70
     1
102
RTVSPost2010Prop49
280
     0
102
RTVSPost2010PropOp49
 70
     1
102
RTVSPost2010Prop50
 90
       50
102
RTVSPost2010PropOp50
 70
     1
102
RTVSPost2010Prop51ColorIndex
 90
      256
102
RTVSPost2010Prop51ColorRGB
 90
-16777216
102
RTVSPost2010PropOp51
 70
     0
102
RTVSPost2010Prop52
140
1.0
102
RTVSPost2010PropOp52
 70
     0
102
RTVSPost2010Prop53
 90
        2
102
RTVSPost2010PropOp53
 70
     1
102
RTVSPost2010Prop54
  1
strokes_ogs.tif
102
RTVSPost2010PropOp54
 70
     1
102
RTVSPost2010Prop55
280
     0
102
RTVSPost2010PropOp55
 70
     1
102
RTVSPost2010Prop56
140
1.0
102
RTVSPost2010PropOp56
 70
     1
102
RTVSPost2010Prop57
140
1.0
102
RTVSPost2010PropOp57
 70
     1
  0
XRECORD
  5
30E
102
{ACAD_REACTORS
330
30D
102
}
330
30D
100
AcDbXrecord
280
     1
102
RTVSPropertyOp0
 70
     1
102
RTVSPropertyOp1
 70
     1
102
RTVSPropertyOp2
 70
     1
102
RTVSPropertyOp3
 70
     1
102
RTVSPropertyOp4
 70
     1
102
RTVSPropertyOp5
 70
     1
102
RTVSPropertyOp6
 70
     1
102
RTVSPropertyOp7
 70
     1
102
RTVSPropertyOp8
 70
     1
102
RTVSPropertyOp9
 70
     1
102
RTVSPropertyOp10
 70
     1
102
RTVSPropertyOp11
 70
     1
102
RTVSPropertyOp12
 70
     1
102
RTVSPropertyOp13
 70
     1
102
RTVSPropertyOp14
 70
     1
102
RTVSPropertyOp15
 70
     1
102
RTVSPropertyOp16
 70
     1
102
RTVSPropertyOp17
 70
     1
102
RTVSPropertyOp18
 70
     1
102
RTVSPropertyOp19
 70
     1
102
RTVSPropertyOp20
 70
     1
102
RTVSPropertyOp21
 70
     1
102
RTVSPropertyOp22
 70
     1
102
RTVSPropertyOp23
 70
     1
102
RTVSPropertyOp24
 70
     1
102
RTVSPropertyOp25
 70
     1
102
RTVSPropertyOp26
 70
     1
102
RTVSPropertyOp27
 70
     1
102
RTVSPropertyOp28
 70
     1
102
RTVSPropertyOp29
 70
     1
102
RTVSPropertyOp30
 70
     1
102
RTVSPropertyOp31
 70
     1
102
RTVSPropertyOp32
 70
     1
102
RTVSPropertyOp33
 70
     1
102
RTVSPropertyOp34
 70
     1
102
RTVSPropertyOp35
 70
     1
102
RTVSPropertyOp36
 70
     1
102
RTVSPropertyOp37
 70
     1
102
RTVSPropertyOp38
 70
     1
102
RTVSPropertyOp39
 70
     1
102
RTVSPropertyOp40
 70
     1
102
RTVSPropertyOp41
 70
     1
102
RTVSPropertyOp42
 70
     1
102
RTVSPropertyOp43
 70
     1
102
RTVSPropertyOp44
 70
     1
102
RTVSPropertyOp45
 70
     1
102
RTVSPropertyOp46
 70
     1
102
RTVSPropertyOp47
 70
     1
102
RTVSPropertyOp48
 70
     1
102
RTVSPropertyOp49
 70
     1
102
RTVSPropertyOp50
 70
     1
102
RTVSPropertyOp51
 70
     0
102
RTVSPropertyOp52
 70
     0
102
RTVSPropertyOp53
 70
     1
102
RTVSPropertyOp54
 70
     1
102
RTVSPropertyOp55
 70
     1
102
RTVSPropertyOp56
 70
     1
102
RTVSPropertyOp57
 70
     1
102
RTVSPost2010Prop28
280
     0
102
RTVSPost2010PropOp28
 70
     1
102
RTVSPost2010Prop29
280
     1
102
RTVSPost2010PropOp29
 70
     1
102
RTVSPost2010Prop30
280
     1
102
RTVSPost2010PropOp30
 70
     1
102
RTVSPost2010Prop31
280
     0
102
RTVSPost2010PropOp31
 70
     1
102
RTVSPost2010Prop32
280
     0
102
RTVSPost2010PropOp32
 70
     1
102
RTVSPost2010Prop33
280
     0
102
RTVSPost2010PropOp33
 70
     1
102
RTVSPost2010Prop34
280
     0
102
RTVSPost2010PropOp34
 70
     1
102
RTVSPost2010Prop35
280
     0
102
RTVSPost2010PropOp35
 70
     1
102
RTVSPost2010Prop36
280
     0
102
RTVSPost2010PropOp36
 70
     1
102
RTVSPost2010Prop37
 90
       50
102
RTVSPost2010PropOp37
 70
     1
102
RTVSPost2010Prop38
140
0.0
102
RTVSPost2010PropOp38
 70
     1
102
RTVSPost2010Prop39
140
1.0
102
RTVSPost2010PropOp39
 70
     1
102
RTVSPost2010Prop40
 90
        0
102
RTVSPost2010PropOp40
 70
     1
102
RTVSPost2010Prop41ColorIndex
 90
       18
102
RTVSPost2010Prop41ColorRGB
 90
        0
102
RTVSPost2010PropOp41
 70
     1
102
RTVSPost2010Prop42
 90
       50
102
RTVSPost2010PropOp42
 70
     1
102
RTVSPost2010Prop43
 90
        3
102
RTVSPost2010PropOp43
 70
     1
102
RTVSPost2010Prop44ColorIndex
 90
        5
102
RTVSPost2010Prop44ColorRGB
 90
      255
102
RTVSPost2010PropOp44
 70
     1
102
RTVSPost2010Prop45
280
     0
102
RTVSPost2010PropOp45
 70
     1
102
RTVSPost2010Prop46
 90
       50
102
RTVSPost2010PropOp46
 70
     1
102
RTVSPost2010Prop47
 90
       50
102
RTVSPost2010PropOp47
 70
     1
102
RTVSPost2010Prop48
 90
       50
102
RTVSPost2010PropOp48
 70
     1
102
RTVSPost2010Prop49
280
     0
102
RTVSPost2010PropOp49
 70
     1
102
RTVSPost2010Prop50
 90
       50
102
RTVSPost2010PropOp50
 70
     1
102
RTVSPost2010Prop51ColorIndex
 90
      256
102
RTVSPost2010Prop51ColorRGB
 90
-16777216
102
RTVSPost2010PropOp51
 70
     0
102
RTVSPost2010Prop52
140
1.0
102
RTVSPost2010PropOp52
 70
     0
102
RTVSPost2010Prop53
 90
        2
102
RTVSPost2010PropOp53
 70
     1
102
RTVSPost2010Prop54
  1
strokes_ogs.tif
102
RTVSPost2010PropOp54
 70
     1
102
RTVSPost2010Prop55
280
     0
102
RTVSPost2010PropOp55
 70
     1
102
RTVSPost2010Prop56
140
1.0
102
RTVSPost2010PropOp56
 70
     1
102
RTVSPost2010Prop57
140
1.0
102
RTVSPost2010PropOp57
 70
     1
  0
XRECORD
  5
322
102
{ACAD_REACTORS
330
321
102
}
330
321
100
AcDbXrecord
280
     1
102
RTVSPropertyOp0
 70
     0
102
RTVSPropertyOp1
 70
     0
102
RTVSPropertyOp2
 70
     0
102
RTVSPropertyOp3
 70
     0
102
RTVSPropertyOp4
 70
     0
102
RTVSPropertyOp5
 70
     0
102
RTVSPropertyOp6
 70
     0
102
RTVSPropertyOp7
 70
     0
102
RTVSPropertyOp8
 70
     0
102
RTVSPropertyOp9
 70
     0
102
RTVSPropertyOp10
 70
     0
102
RTVSPropertyOp11
 70
     0
102
RTVSPropertyOp12
 70
     0
102
RTVSPropertyOp13
 70
     0
102
RTVSPropertyOp14
 70
     2
102
RTVSPropertyOp15
 70
     0
102
RTVSPropertyOp16
 70
     0
102
RTVSPropertyOp17
 70
     0
102
RTVSPropertyOp18
 70
     0
102
RTVSPropertyOp19
 70
     0
102
RTVSPropertyOp20
 70
     0
102
RTVSPropertyOp21
 70
     0
102
RTVSPropertyOp22
 70
     0
102
RTVSPropertyOp23
 70
     0
102
RTVSPropertyOp24
 70
     0
102
RTVSPropertyOp25
 70
     0
102
RTVSPropertyOp26
 70
     0
102
RTVSPropertyOp27
 70
     0
102
RTVSPropertyOp28
 70
     0
102
RTVSPropertyOp29
 70
     0
102
RTVSPropertyOp30
 70
     0
102
RTVSPropertyOp31
 70
     0
102
RTVSPropertyOp32
 70
     0
102
RTVSPropertyOp33
 70
     0
102
RTVSPropertyOp34
 70
     0
102
RTVSPropertyOp35
 70
     0
102
RTVSPropertyOp36
 70
     0
102
RTVSPropertyOp37
 70
     0
102
RTVSPropertyOp38
 70
     0
102
RTVSPropertyOp39
 70
     0
102
RTVSPropertyOp40
 70
     0
102
RTVSPropertyOp41
 70
     0
102
RTVSPropertyOp42
 70
     0
102
RTVSPropertyOp43
 70
     0
102
RTVSPropertyOp44
 70
     0
102
RTVSPropertyOp45
 70
     0
102
RTVSPropertyOp46
 70
     0
102
RTVSPropertyOp47
 70
     0
102
RTVSPropertyOp48
 70
     0
102
RTVSPropertyOp49
 70
     0
102
RTVSPropertyOp50
 70
     0
102
RTVSPropertyOp51
 70
     0
102
RTVSPropertyOp52
 70
     0
102
RTVSPropertyOp53
 70
     0
102
RTVSPropertyOp54
 70
     0
102
RTVSPropertyOp55
 70
     0
102
RTVSPropertyOp56
 70
     0
102
RTVSPropertyOp57
 70
     0
102
RTVSPost2010Prop28
280
     0
102
RTVSPost2010PropOp28
 70
     0
102
RTVSPost2010Prop29
280
     1
102
RTVSPost2010PropOp29
 70
     0
102
RTVSPost2010Prop30
280
     1
102
RTVSPost2010PropOp30
 70
     0
102
RTVSPost2010Prop31
280
     0
102
RTVSPost2010PropOp31
 70
     0
102
RTVSPost2010Prop32
280
     0
102
RTVSPost2010PropOp32
 70
     0
102
RTVSPost2010Prop33
280
     0
102
RTVSPost2010PropOp33
 70
     0
102
RTVSPost2010Prop34
280
     0
102
RTVSPost2010PropOp34
 70
     0
102
RTVSPost2010Prop35
280
     0
102
RTVSPost2010PropOp35
 70
     0
102
RTVSPost2010Prop36
280
     0
102
RTVSPost2010PropOp36
 70
     0
102
RTVSPost2010Prop37
 90
       50
102
RTVSPost2010PropOp37
 70
     0
102
RTVSPost2010Prop38
140
0.0
102
RTVSPost2010PropOp38
 70
     0
102
RTVSPost2010Prop39
140
1.0
102
RTVSPost2010PropOp39
 70
     0
102
RTVSPost2010Prop40
 90
        0
102
RTVSPost2010PropOp40
 70
     0
102
RTVSPost2010Prop41ColorIndex
 90
       18
102
RTVSPost2010Prop41ColorRGB
 90
        0
102
RTVSPost2010PropOp41
 70
     0
102
RTVSPost2010Prop42
 90
       50
102
RTVSPost2010PropOp42
 70
     0
102
RTVSPost2010Prop43
 90
        3
102
RTVSPost2010PropOp43
 70
     0
102
RTVSPost2010Prop44ColorIndex
 90
        5
102
RTVSPost2010Prop44ColorRGB
 90
      255
102
RTVSPost2010PropOp44
 70
     0
102
RTVSPost2010Prop45
280
     0
102
RTVSPost2010PropOp45
 70
     0
102
RTVSPost2010Prop46
 90
       50
102
RTVSPost2010PropOp46
 70
     0
102
RTVSPost2010Prop47
 90
       50
102
RTVSPost2010PropOp47
 70
     0
102
RTVSPost2010Prop48
 90
       50
102
RTVSPost2010PropOp48
 70
     0
102
RTVSPost2010Prop49
280
     0
102
RTVSPost2010PropOp49
 70
     0
102
RTVSPost2010Prop50
 90
       50
102
RTVSPost2010PropOp50
 70
     0
102
RTVSPost2010Prop51ColorIndex
 90
      256
102
RTVSPost2010Prop51ColorRGB
 90
-16777216
102
RTVSPost2010PropOp51
 70
     0
102
RTVSPost2010Prop52
140
1.0
102
RTVSPost2010PropOp52
 70
     0
102
RTVSPost2010Prop53
 90
        2
102
RTVSPost2010PropOp53
 70
     0
102
RTVSPost2010Prop54
  1
strokes_ogs.tif
102
RTVSPost2010PropOp54
 70
     0
102
RTVSPost2010Prop55
280
     0
102
RTVSPost2010PropOp55
 70
     0
102
RTVSPost2010Prop56
140
1.0
102
RTVSPost2010PropOp56
 70
     0
102
RTVSPost2010Prop57
140
1.0
102
RTVSPost2010PropOp57
 70
     0
  0
XRECORD
  5
31C
102
{ACAD_REACTORS
330
31B
102
}
330
31B
100
AcDbXrecord
280
     1
102
RTVSPropertyOp0
 70
     1
102
RTVSPropertyOp1
 70
     1
102
RTVSPropertyOp2
 70
     1
102
RTVSPropertyOp3
 70
     1
102
RTVSPropertyOp4
 70
     1
102
RTVSPropertyOp5
 70
     1
102
RTVSPropertyOp6
 70
     1
102
RTVSPropertyOp7
 70
     1
102
RTVSPropertyOp8
 70
     1
102
RTVSPropertyOp9
 70
     1
102
RTVSPropertyOp10
 70
     1
102
RTVSPropertyOp11
 70
     1
102
RTVSPropertyOp12
 70
     1
102
RTVSPropertyOp13
 70
     1
102
RTVSPropertyOp14
 70
     1
102
RTVSPropertyOp15
 70
     1
102
RTVSPropertyOp16
 70
     1
102
RTVSPropertyOp17
 70
     1
102
RTVSPropertyOp18
 70
     1
102
RTVSPropertyOp19
 70
     1
102
RTVSPropertyOp20
 70
     1
102
RTVSPropertyOp21
 70
     1
102
RTVSPropertyOp22
 70
     1
102
RTVSPropertyOp23
 70
     1
102
RTVSPropertyOp24
 70
     1
102
RTVSPropertyOp25
 70
     1
102
RTVSPropertyOp26
 70
     1
102
RTVSPropertyOp27
 70
     1
102
RTVSPropertyOp28
 70
     1
102
RTVSPropertyOp29
 70
     1
102
RTVSPropertyOp30
 70
     1
102
RTVSPropertyOp31
 70
     1
102
RTVSPropertyOp32
 70
     1
102
RTVSPropertyOp33
 70
     1
102
RTVSPropertyOp34
 70
     1
102
RTVSPropertyOp35
 70
     1
102
RTVSPropertyOp36
 70
     1
102
RTVSPropertyOp37
 70
     1
102
RTVSPropertyOp38
 70
     1
102
RTVSPropertyOp39
 70
     1
102
RTVSPropertyOp40
 70
     1
102
RTVSPropertyOp41
 70
     1
102
RTVSPropertyOp42
 70
     1
102
RTVSPropertyOp43
 70
     1
102
RTVSPropertyOp44
 70
     1
102
RTVSPropertyOp45
 70
     1
102
RTVSPropertyOp46
 70
     1
102
RTVSPropertyOp47
 70
     1
102
RTVSPropertyOp48
 70
     1
102
RTVSPropertyOp49
 70
     1
102
RTVSPropertyOp50
 70
     1
102
RTVSPropertyOp51
 70
     0
102
RTVSPropertyOp52
 70
     0
102
RTVSPropertyOp53
 70
     1
102
RTVSPropertyOp54
 70
     1
102
RTVSPropertyOp55
 70
     1
102
RTVSPropertyOp56
 70
     1
102
RTVSPropertyOp57
 70
     1
102
RTVSPost2010Prop28
280
     0
102
RTVSPost2010PropOp28
 70
     1
102
RTVSPost2010Prop29
280
     1
102
RTVSPost2010PropOp29
 70
     1
102
RTVSPost2010Prop30
280
     1
102
RTVSPost2010PropOp30
 70
     1
102
RTVSPost2010Prop31
280
     0
102
RTVSPost2010PropOp31
 70
     1
102
RTVSPost2010Prop32
280
     0
102
RTVSPost2010PropOp32
 70
     1
102
RTVSPost2010Prop33
280
     0
102
RTVSPost2010PropOp33
 70
     1
102
RTVSPost2010Prop34
280
     0
102
RTVSPost2010PropOp34
 70
     1
102
RTVSPost2010Prop35
280
     0
102
RTVSPost2010PropOp35
 70
     1
102
RTVSPost2010Prop36
280
     0
102
RTVSPost2010PropOp36
 70
     1
102
RTVSPost2010Prop37
 90
       50
102
RTVSPost2010PropOp37
 70
     1
102
RTVSPost2010Prop38
140
0.0
102
RTVSPost2010PropOp38
 70
     1
102
RTVSPost2010Prop39
140
1.0
102
RTVSPost2010PropOp39
 70
     1
102
RTVSPost2010Prop40
 90
        0
102
RTVSPost2010PropOp40
 70
     1
102
RTVSPost2010Prop41ColorIndex
 90
       18
102
RTVSPost2010Prop41ColorRGB
 90
        0
102
RTVSPost2010PropOp41
 70
     1
102
RTVSPost2010Prop42
 90
       50
102
RTVSPost2010PropOp42
 70
     1
102
RTVSPost2010Prop43
 90
        3
102
RTVSPost2010PropOp43
 70
     1
102
RTVSPost2010Prop44ColorIndex
 90
        5
102
RTVSPost2010Prop44ColorRGB
 90
      255
102
RTVSPost2010PropOp44
 70
     1
102
RTVSPost2010Prop45
280
     0
102
RTVSPost2010PropOp45
 70
     1
102
RTVSPost2010Prop46
 90
       50
102
RTVSPost2010PropOp46
 70
     1
102
RTVSPost2010Prop47
 90
       50
102
RTVSPost2010PropOp47
 70
     1
102
RTVSPost2010Prop48
 90
       50
102
RTVSPost2010PropOp48
 70
     1
102
RTVSPost2010Prop49
280
     0
102
RTVSPost2010PropOp49
 70
     1
102
RTVSPost2010Prop50
 90
       50
102
RTVSPost2010PropOp50
 70
     1
102
RTVSPost2010Prop51ColorIndex
 90
      256
102
RTVSPost2010Prop51ColorRGB
 90
-16777216
102
RTVSPost2010PropOp51
 70
     0
102
RTVSPost2010Prop52
140
1.0
102
RTVSPost2010PropOp52
 70
     0
102
RTVSPost2010Prop53
 90
        2
102
RTVSPost2010PropOp53
 70
     1
102
RTVSPost2010Prop54
  1
strokes_ogs.tif
102
RTVSPost2010PropOp54
 70
     1
102
RTVSPost2010Prop55
280
     0
102
RTVSPost2010PropOp55
 70
     1
102
RTVSPost2010Prop56
140
1.0
102
RTVSPost2010PropOp56
 70
     1
102
RTVSPost2010Prop57
140
1.0
102
RTVSPost2010PropOp57
 70
     1
  0
XRECORD
  5
324
102
{ACAD_REACTORS
330
323
102
}
330
323
100
AcDbXrecord
280
     1
102
RTVSPropertyOp0
 70
     0
102
RTVSPropertyOp1
 70
     0
102
RTVSPropertyOp2
 70
     0
102
RTVSPropertyOp3
 70
     0
102
RTVSPropertyOp4
 70
     0
102
RTVSPropertyOp5
 70
     0
102
RTVSPropertyOp6
 70
     0
102
RTVSPropertyOp7
 70
     0
102
RTVSPropertyOp8
 70
     0
102
RTVSPropertyOp9
 70
     0
102
RTVSPropertyOp10
 70
     0
102
RTVSPropertyOp11
 70
     0
102
RTVSPropertyOp12
 70
     0
102
RTVSPropertyOp13
 70
     0
102
RTVSPropertyOp14
 70
     2
102
RTVSPropertyOp15
 70
     0
102
RTVSPropertyOp16
 70
     0
102
RTVSPropertyOp17
 70
     0
102
RTVSPropertyOp18
 70
     0
102
RTVSPropertyOp19
 70
     0
102
RTVSPropertyOp20
 70
     0
102
RTVSPropertyOp21
 70
     0
102
RTVSPropertyOp22
 70
     0
102
RTVSPropertyOp23
 70
     0
102
RTVSPropertyOp24
 70
     0
102
RTVSPropertyOp25
 70
     0
102
RTVSPropertyOp26
 70
     0
102
RTVSPropertyOp27
 70
     0
102
RTVSPropertyOp28
 70
     0
102
RTVSPropertyOp29
 70
     0
102
RTVSPropertyOp30
 70
     0
102
RTVSPropertyOp31
 70
     0
102
RTVSPropertyOp32
 70
     0
102
RTVSPropertyOp33
 70
     0
102
RTVSPropertyOp34
 70
     0
102
RTVSPropertyOp35
 70
     0
102
RTVSPropertyOp36
 70
     0
102
RTVSPropertyOp37
 70
     0
102
RTVSPropertyOp38
 70
     0
102
RTVSPropertyOp39
 70
     0
102
RTVSPropertyOp40
 70
     0
102
RTVSPropertyOp41
 70
     0
102
RTVSPropertyOp42
 70
     0
102
RTVSPropertyOp43
 70
     0
102
RTVSPropertyOp44
 70
     0
102
RTVSPropertyOp45
 70
     0
102
RTVSPropertyOp46
 70
     0
102
RTVSPropertyOp47
 70
     0
102
RTVSPropertyOp48
 70
     0
102
RTVSPropertyOp49
 70
     0
102
RTVSPropertyOp50
 70
     0
102
RTVSPropertyOp51
 70
     0
102
RTVSPropertyOp52
 70
     0
102
RTVSPropertyOp53
 70
     0
102
RTVSPropertyOp54
 70
     0
102
RTVSPropertyOp55
 70
     0
102
RTVSPropertyOp56
 70
     0
102
RTVSPropertyOp57
 70
     0
102
RTVSPost2010Prop28
280
     0
102
RTVSPost2010PropOp28
 70
     0
102
RTVSPost2010Prop29
280
     1
102
RTVSPost2010PropOp29
 70
     0
102
RTVSPost2010Prop30
280
     1
102
RTVSPost2010PropOp30
 70
     0
102
RTVSPost2010Prop31
280
     0
102
RTVSPost2010PropOp31
 70
     0
102
RTVSPost2010Prop32
280
     0
102
RTVSPost2010PropOp32
 70
     0
102
RTVSPost2010Prop33
280
     0
102
RTVSPost2010PropOp33
 70
     0
102
RTVSPost2010Prop34
280
     0
102
RTVSPost2010PropOp34
 70
     0
102
RTVSPost2010Prop35
280
     0
102
RTVSPost2010PropOp35
 70
     0
102
RTVSPost2010Prop36
280
     0
102
RTVSPost2010PropOp36
 70
     0
102
RTVSPost2010Prop37
 90
       50
102
RTVSPost2010PropOp37
 70
     0
102
RTVSPost2010Prop38
140
0.0
102
RTVSPost2010PropOp38
 70
     0
102
RTVSPost2010Prop39
140
1.0
102
RTVSPost2010PropOp39
 70
     0
102
RTVSPost2010Prop40
 90
        0
102
RTVSPost2010PropOp40
 70
     0
102
RTVSPost2010Prop41ColorIndex
 90
       18
102
RTVSPost2010Prop41ColorRGB
 90
        0
102
RTVSPost2010PropOp41
 70
     0
102
RTVSPost2010Prop42
 90
       50
102
RTVSPost2010PropOp42
 70
     0
102
RTVSPost2010Prop43
 90
        3
102
RTVSPost2010PropOp43
 70
     0
102
RTVSPost2010Prop44ColorIndex
 90
        5
102
RTVSPost2010Prop44ColorRGB
 90
      255
102
RTVSPost2010PropOp44
 70
     0
102
RTVSPost2010Prop45
280
     0
102
RTVSPost2010PropOp45
 70
     0
102
RTVSPost2010Prop46
 90
       50
102
RTVSPost2010PropOp46
 70
     0
102
RTVSPost2010Prop47
 90
       50
102
RTVSPost2010PropOp47
 70
     0
102
RTVSPost2010Prop48
 90
       50
102
RTVSPost2010PropOp48
 70
     0
102
RTVSPost2010Prop49
280
     0
102
RTVSPost2010PropOp49
 70
     0
102
RTVSPost2010Prop50
 90
       50
102
RTVSPost2010PropOp50
 70
     0
102
RTVSPost2010Prop51ColorIndex
 90
      256
102
RTVSPost2010Prop51ColorRGB
 90
-16777216
102
RTVSPost2010PropOp51
 70
     0
102
RTVSPost2010Prop52
140
1.0
102
RTVSPost2010PropOp52
 70
     0
102
RTVSPost2010Prop53
 90
        2
102
RTVSPost2010PropOp53
 70
     0
102
RTVSPost2010Prop54
  1
strokes_ogs.tif
102
RTVSPost2010PropOp54
 70
     0
102
RTVSPost2010Prop55
280
     0
102
RTVSPost2010PropOp55
 70
     0
102
RTVSPost2010Prop56
140
1.0
102
RTVSPost2010PropOp56
 70
     0
102
RTVSPost2010Prop57
140
1.0
102
RTVSPost2010PropOp57
 70
     0
  0
XRECORD
  5
312
102
{ACAD_REACTORS
330
311
102
}
330
311
100
AcDbXrecord
280
     1
102
RTVSPropertyOp0
 70
     1
102
RTVSPropertyOp1
 70
     1
102
RTVSPropertyOp2
 70
     1
102
RTVSPropertyOp3
 70
     1
102
RTVSPropertyOp4
 70
     1
102
RTVSPropertyOp5
 70
     1
102
RTVSPropertyOp6
 70
     1
102
RTVSPropertyOp7
 70
     1
102
RTVSPropertyOp8
 70
     1
102
RTVSPropertyOp9
 70
     1
102
RTVSPropertyOp10
 70
     1
102
RTVSPropertyOp11
 70
     1
102
RTVSPropertyOp12
 70
     1
102
RTVSPropertyOp13
 70
     1
102
RTVSPropertyOp14
 70
     1
102
RTVSPropertyOp15
 70
     1
102
RTVSPropertyOp16
 70
     1
102
RTVSPropertyOp17
 70
     1
102
RTVSPropertyOp18
 70
     1
102
RTVSPropertyOp19
 70
     1
102
RTVSPropertyOp20
 70
     1
102
RTVSPropertyOp21
 70
     1
102
RTVSPropertyOp22
 70
     1
102
RTVSPropertyOp23
 70
     1
102
RTVSPropertyOp24
 70
     1
102
RTVSPropertyOp25
 70
     1
102
RTVSPropertyOp26
 70
     1
102
RTVSPropertyOp27
 70
     1
102
RTVSPropertyOp28
 70
     1
102
RTVSPropertyOp29
 70
     1
102
RTVSPropertyOp30
 70
     1
102
RTVSPropertyOp31
 70
     1
102
RTVSPropertyOp32
 70
     1
102
RTVSPropertyOp33
 70
     1
102
RTVSPropertyOp34
 70
     1
102
RTVSPropertyOp35
 70
     1
102
RTVSPropertyOp36
 70
     1
102
RTVSPropertyOp37
 70
     1
102
RTVSPropertyOp38
 70
     1
102
RTVSPropertyOp39
 70
     1
102
RTVSPropertyOp40
 70
     1
102
RTVSPropertyOp41
 70
     1
102
RTVSPropertyOp42
 70
     1
102
RTVSPropertyOp43
 70
     1
102
RTVSPropertyOp44
 70
     1
102
RTVSPropertyOp45
 70
     1
102
RTVSPropertyOp46
 70
     1
102
RTVSPropertyOp47
 70
     1
102
RTVSPropertyOp48
 70
     1
102
RTVSPropertyOp49
 70
     1
102
RTVSPropertyOp50
 70
     1
102
RTVSPropertyOp51
 70
     0
102
RTVSPropertyOp52
 70
     0
102
RTVSPropertyOp53
 70
     1
102
RTVSPropertyOp54
 70
     1
102
RTVSPropertyOp55
 70
     1
102
RTVSPropertyOp56
 70
     1
102
RTVSPropertyOp57
 70
     1
102
RTVSPost2010Prop28
280
     0
102
RTVSPost2010PropOp28
 70
     1
102
RTVSPost2010Prop29
280
     1
102
RTVSPost2010PropOp29
 70
     1
102
RTVSPost2010Prop30
280
     1
102
RTVSPost2010PropOp30
 70
     1
102
RTVSPost2010Prop31
280
     0
102
RTVSPost2010PropOp31
 70
     1
102
RTVSPost2010Prop32
280
     0
102
RTVSPost2010PropOp32
 70
     1
102
RTVSPost2010Prop33
280
     0
102
RTVSPost2010PropOp33
 70
     1
102
RTVSPost2010Prop34
280
     0
102
RTVSPost2010PropOp34
 70
     1
102
RTVSPost2010Prop35
280
     0
102
RTVSPost2010PropOp35
 70
     1
102
RTVSPost2010Prop36
280
     0
102
RTVSPost2010PropOp36
 70
     1
102
RTVSPost2010Prop37
 90
       50
102
RTVSPost2010PropOp37
 70
     1
102
RTVSPost2010Prop38
140
0.0
102
RTVSPost2010PropOp38
 70
     1
102
RTVSPost2010Prop39
140
1.0
102
RTVSPost2010PropOp39
 70
     1
102
RTVSPost2010Prop40
 90
        0
102
RTVSPost2010PropOp40
 70
     1
102
RTVSPost2010Prop41ColorIndex
 90
       18
102
RTVSPost2010Prop41ColorRGB
 90
        0
102
RTVSPost2010PropOp41
 70
     1
102
RTVSPost2010Prop42
 90
       50
102
RTVSPost2010PropOp42
 70
     1
102
RTVSPost2010Prop43
 90
        3
102
RTVSPost2010PropOp43
 70
     1
102
RTVSPost2010Prop44ColorIndex
 90
        5
102
RTVSPost2010Prop44ColorRGB
 90
      255
102
RTVSPost2010PropOp44
 70
     1
102
RTVSPost2010Prop45
280
     0
102
RTVSPost2010PropOp45
 70
     1
102
RTVSPost2010Prop46
 90
       50
102
RTVSPost2010PropOp46
 70
     1
102
RTVSPost2010Prop47
 90
       50
102
RTVSPost2010PropOp47
 70
     1
102
RTVSPost2010Prop48
 90
       50
102
RTVSPost2010PropOp48
 70
     1
102
RTVSPost2010Prop49
280
     0
102
RTVSPost2010PropOp49
 70
     1
102
RTVSPost2010Prop50
 90
       50
102
RTVSPost2010PropOp50
 70
     1
102
RTVSPost2010Prop51ColorIndex
 90
      256
102
RTVSPost2010Prop51ColorRGB
 90
-16777216
102
RTVSPost2010PropOp51
 70
     0
102
RTVSPost2010Prop52
140
1.0
102
RTVSPost2010PropOp52
 70
     0
102
RTVSPost2010Prop53
 90
        2
102
RTVSPost2010PropOp53
 70
     1
102
RTVSPost2010Prop54
  1
strokes_ogs.tif
102
RTVSPost2010PropOp54
 70
     1
102
RTVSPost2010Prop55
280
     0
102
RTVSPost2010PropOp55
 70
     1
102
RTVSPost2010Prop56
140
1.0
102
RTVSPost2010PropOp56
 70
     1
102
RTVSPost2010Prop57
140
1.0
102
RTVSPost2010PropOp57
 70
     1
  0
XRECORD
  5
330
102
{ACAD_REACTORS
330
32F
102
}
330
32F
100
AcDbXrecord
280
     1
102
RTVSPropertyOp0
 70
     1
102
RTVSPropertyOp1
 70
     1
102
RTVSPropertyOp2
 70
     1
102
RTVSPropertyOp3
 70
     1
102
RTVSPropertyOp4
 70
     1
102
RTVSPropertyOp5
 70
     1
102
RTVSPropertyOp6
 70
     1
102
RTVSPropertyOp7
 70
     1
102
RTVSPropertyOp8
 70
     1
102
RTVSPropertyOp9
 70
     1
102
RTVSPropertyOp10
 70
     1
102
RTVSPropertyOp11
 70
     1
102
RTVSPropertyOp12
 70
     1
102
RTVSPropertyOp13
 70
     1
102
RTVSPropertyOp14
 70
     1
102
RTVSPropertyOp15
 70
     1
102
RTVSPropertyOp16
 70
     1
102
RTVSPropertyOp17
 70
     1
102
RTVSPropertyOp18
 70
     1
102
RTVSPropertyOp19
 70
     1
102
RTVSPropertyOp20
 70
     1
102
RTVSPropertyOp21
 70
     1
102
RTVSPropertyOp22
 70
     1
102
RTVSPropertyOp23
 70
     1
102
RTVSPropertyOp24
 70
     1
102
RTVSPropertyOp25
 70
     1
102
RTVSPropertyOp26
 70
     1
102
RTVSPropertyOp27
 70
     1
102
RTVSPropertyOp28
 70
     1
102
RTVSPropertyOp29
 70
     1
102
RTVSPropertyOp30
 70
     1
102
RTVSPropertyOp31
 70
     1
102
RTVSPropertyOp32
 70
     1
102
RTVSPropertyOp33
 70
     1
102
RTVSPropertyOp34
 70
     1
102
RTVSPropertyOp35
 70
     1
102
RTVSPropertyOp36
 70
     1
102
RTVSPropertyOp37
 70
     1
102
RTVSPropertyOp38
 70
     1
102
RTVSPropertyOp39
 70
     1
102
RTVSPropertyOp40
 70
     1
102
RTVSPropertyOp41
 70
     1
102
RTVSPropertyOp42
 70
     1
102
RTVSPropertyOp43
 70
     1
102
RTVSPropertyOp44
 70
     1
102
RTVSPropertyOp45
 70
     1
102
RTVSPropertyOp46
 70
     1
102
RTVSPropertyOp47
 70
     1
102
RTVSPropertyOp48
 70
     1
102
RTVSPropertyOp49
 70
     1
102
RTVSPropertyOp50
 70
     1
102
RTVSPropertyOp51
 70
     0
102
RTVSPropertyOp52
 70
     0
102
RTVSPropertyOp53
 70
     1
102
RTVSPropertyOp54
 70
     1
102
RTVSPropertyOp55
 70
     1
102
RTVSPropertyOp56
 70
     1
102
RTVSPropertyOp57
 70
     1
102
RTVSPost2010Prop28
280
     0
102
RTVSPost2010PropOp28
 70
     1
102
RTVSPost2010Prop29
280
     1
102
RTVSPost2010PropOp29
 70
     1
102
RTVSPost2010Prop30
280
     1
102
RTVSPost2010PropOp30
 70
     1
102
RTVSPost2010Prop31
280
     0
102
RTVSPost2010PropOp31
 70
     1
102
RTVSPost2010Prop32
280
     0
102
RTVSPost2010PropOp32
 70
     1
102
RTVSPost2010Prop33
280
     0
102
RTVSPost2010PropOp33
 70
     1
102
RTVSPost2010Prop34
280
     0
102
RTVSPost2010PropOp34
 70
     1
102
RTVSPost2010Prop35
280
     0
102
RTVSPost2010PropOp35
 70
     1
102
RTVSPost2010Prop36
280
     0
102
RTVSPost2010PropOp36
 70
     1
102
RTVSPost2010Prop37
 90
       50
102
RTVSPost2010PropOp37
 70
     1
102
RTVSPost2010Prop38
140
0.0
102
RTVSPost2010PropOp38
 70
     1
102
RTVSPost2010Prop39
140
1.0
102
RTVSPost2010PropOp39
 70
     1
102
RTVSPost2010Prop40
 90
        0
102
RTVSPost2010PropOp40
 70
     1
102
RTVSPost2010Prop41ColorIndex
 90
       18
102
RTVSPost2010Prop41ColorRGB
 90
        0
102
RTVSPost2010PropOp41
 70
     1
102
RTVSPost2010Prop42
 90
       50
102
RTVSPost2010PropOp42
 70
     1
102
RTVSPost2010Prop43
 90
        3
102
RTVSPost2010PropOp43
 70
     1
102
RTVSPost2010Prop44ColorIndex
 90
        5
102
RTVSPost2010Prop44ColorRGB
 90
      255
102
RTVSPost2010PropOp44
 70
     1
102
RTVSPost2010Prop45
280
     0
102
RTVSPost2010PropOp45
 70
     1
102
RTVSPost2010Prop46
 90
       50
102
RTVSPost2010PropOp46
 70
     1
102
RTVSPost2010Prop47
 90
       50
102
RTVSPost2010PropOp47
 70
     1
102
RTVSPost2010Prop48
 90
       50
102
RTVSPost2010PropOp48
 70
     1
102
RTVSPost2010Prop49
280
     0
102
RTVSPost2010PropOp49
 70
     1
102
RTVSPost2010Prop50
 90
       50
102
RTVSPost2010PropOp50
 70
     1
102
RTVSPost2010Prop51ColorIndex
 90
      256
102
RTVSPost2010Prop51ColorRGB
 90
-16777216
102
RTVSPost2010PropOp51
 70
     0
102
RTVSPost2010Prop52
140
1.0
102
RTVSPost2010PropOp52
 70
     0
102
RTVSPost2010Prop53
 90
        2
102
RTVSPost2010PropOp53
 70
     1
102
RTVSPost2010Prop54
  1
strokes_ogs.tif
102
RTVSPost2010PropOp54
 70
     1
102
RTVSPost2010Prop55
280
     0
102
RTVSPost2010PropOp55
 70
     1
102
RTVSPost2010Prop56
140
1.0
102
RTVSPost2010PropOp56
 70
     1
102
RTVSPost2010Prop57
140
1.0
102
RTVSPost2010PropOp57
 70
     1
  0
XRECORD
  5
32E
102
{ACAD_REACTORS
330
32D
102
}
330
32D
100
AcDbXrecord
280
     1
102
RTVSPropertyOp0
 70
     1
102
RTVSPropertyOp1
 70
     1
102
RTVSPropertyOp2
 70
     1
102
RTVSPropertyOp3
 70
     1
102
RTVSPropertyOp4
 70
     1
102
RTVSPropertyOp5
 70
     1
102
RTVSPropertyOp6
 70
     1
102
RTVSPropertyOp7
 70
     1
102
RTVSPropertyOp8
 70
     1
102
RTVSPropertyOp9
 70
     1
102
RTVSPropertyOp10
 70
     1
102
RTVSPropertyOp11
 70
     1
102
RTVSPropertyOp12
 70
     1
102
RTVSPropertyOp13
 70
     1
102
RTVSPropertyOp14
 70
     1
102
RTVSPropertyOp15
 70
     1
102
RTVSPropertyOp16
 70
     1
102
RTVSPropertyOp17
 70
     1
102
RTVSPropertyOp18
 70
     1
102
RTVSPropertyOp19
 70
     1
102
RTVSPropertyOp20
 70
     1
102
RTVSPropertyOp21
 70
     1
102
RTVSPropertyOp22
 70
     1
102
RTVSPropertyOp23
 70
     1
102
RTVSPropertyOp24
 70
     1
102
RTVSPropertyOp25
 70
     1
102
RTVSPropertyOp26
 70
     1
102
RTVSPropertyOp27
 70
     1
102
RTVSPropertyOp28
 70
     1
102
RTVSPropertyOp29
 70
     1
102
RTVSPropertyOp30
 70
     1
102
RTVSPropertyOp31
 70
     1
102
RTVSPropertyOp32
 70
     1
102
RTVSPropertyOp33
 70
     1
102
RTVSPropertyOp34
 70
     1
102
RTVSPropertyOp35
 70
     1
102
RTVSPropertyOp36
 70
     1
102
RTVSPropertyOp37
 70
     1
102
RTVSPropertyOp38
 70
     1
102
RTVSPropertyOp39
 70
     1
102
RTVSPropertyOp40
 70
     1
102
RTVSPropertyOp41
 70
     1
102
RTVSPropertyOp42
 70
     1
102
RTVSPropertyOp43
 70
     1
102
RTVSPropertyOp44
 70
     1
102
RTVSPropertyOp45
 70
     1
102
RTVSPropertyOp46
 70
     1
102
RTVSPropertyOp47
 70
     1
102
RTVSPropertyOp48
 70
     1
102
RTVSPropertyOp49
 70
     1
102
RTVSPropertyOp50
 70
     1
102
RTVSPropertyOp51
 70
     0
102
RTVSPropertyOp52
 70
     0
102
RTVSPropertyOp53
 70
     1
102
RTVSPropertyOp54
 70
     1
102
RTVSPropertyOp55
 70
     1
102
RTVSPropertyOp56
 70
     1
102
RTVSPropertyOp57
 70
     1
102
RTVSPost2010Prop28
280
     0
102
RTVSPost2010PropOp28
 70
     1
102
RTVSPost2010Prop29
280
     1
102
RTVSPost2010PropOp29
 70
     1
102
RTVSPost2010Prop30
280
     1
102
RTVSPost2010PropOp30
 70
     1
102
RTVSPost2010Prop31
280
     0
102
RTVSPost2010PropOp31
 70
     1
102
RTVSPost2010Prop32
280
     0
102
RTVSPost2010PropOp32
 70
     1
102
RTVSPost2010Prop33
280
     0
102
RTVSPost2010PropOp33
 70
     1
102
RTVSPost2010Prop34
280
     0
102
RTVSPost2010PropOp34
 70
     1
102
RTVSPost2010Prop35
280
     0
102
RTVSPost2010PropOp35
 70
     1
102
RTVSPost2010Prop36
280
     0
102
RTVSPost2010PropOp36
 70
     1
102
RTVSPost2010Prop37
 90
       50
102
RTVSPost2010PropOp37
 70
     1
102
RTVSPost2010Prop38
140
0.0
102
RTVSPost2010PropOp38
 70
     1
102
RTVSPost2010Prop39
140
1.0
102
RTVSPost2010PropOp39
 70
     1
102
RTVSPost2010Prop40
 90
        0
102
RTVSPost2010PropOp40
 70
     1
102
RTVSPost2010Prop41ColorIndex
 90
       18
102
RTVSPost2010Prop41ColorRGB
 90
        0
102
RTVSPost2010PropOp41
 70
     1
102
RTVSPost2010Prop42
 90
       50
102
RTVSPost2010PropOp42
 70
     1
102
RTVSPost2010Prop43
 90
        3
102
RTVSPost2010PropOp43
 70
     1
102
RTVSPost2010Prop44ColorIndex
 90
        5
102
RTVSPost2010Prop44ColorRGB
 90
      255
102
RTVSPost2010PropOp44
 70
     1
102
RTVSPost2010Prop45
280
     0
102
RTVSPost2010PropOp45
 70
     1
102
RTVSPost2010Prop46
 90
       50
102
RTVSPost2010PropOp46
 70
     1
102
RTVSPost2010Prop47
 90
       50
102
RTVSPost2010PropOp47
 70
     1
102
RTVSPost2010Prop48
 90
       50
102
RTVSPost2010PropOp48
 70
     1
102
RTVSPost2010Prop49
280
     0
102
RTVSPost2010PropOp49
 70
     1
102
RTVSPost2010Prop50
 90
       50
102
RTVSPost2010PropOp50
 70
     1
102
RTVSPost2010Prop51ColorIndex
 90
      256
102
RTVSPost2010Prop51ColorRGB
 90
-16777216
102
RTVSPost2010PropOp51
 70
     0
102
RTVSPost2010Prop52
140
1.0
102
RTVSPost2010PropOp52
 70
     0
102
RTVSPost2010Prop53
 90
        2
102
RTVSPost2010PropOp53
 70
     1
102
RTVSPost2010Prop54
  1
strokes_ogs.tif
102
RTVSPost2010PropOp54
 70
     1
102
RTVSPost2010Prop55
280
     0
102
RTVSPost2010PropOp55
 70
     1
102
RTVSPost2010Prop56
140
1.0
102
RTVSPost2010PropOp56
 70
     1
102
RTVSPost2010Prop57
140
1.0
102
RTVSPost2010PropOp57
 70
     1
  0
XRECORD
  5
328
102
{ACAD_REACTORS
330
327
102
}
330
327
100
AcDbXrecord
280
     1
102
RTVSPropertyOp0
 70
     1
102
RTVSPropertyOp1
 70
     1
102
RTVSPropertyOp2
 70
     1
102
RTVSPropertyOp3
 70
     1
102
RTVSPropertyOp4
 70
     1
102
RTVSPropertyOp5
 70
     1
102
RTVSPropertyOp6
 70
     1
102
RTVSPropertyOp7
 70
     1
102
RTVSPropertyOp8
 70
     1
102
RTVSPropertyOp9
 70
     1
102
RTVSPropertyOp10
 70
     1
102
RTVSPropertyOp11
 70
     1
102
RTVSPropertyOp12
 70
     1
102
RTVSPropertyOp13
 70
     1
102
RTVSPropertyOp14
 70
     1
102
RTVSPropertyOp15
 70
     1
102
RTVSPropertyOp16
 70
     1
102
RTVSPropertyOp17
 70
     1
102
RTVSPropertyOp18
 70
     1
102
RTVSPropertyOp19
 70
     1
102
RTVSPropertyOp20
 70
     1
102
RTVSPropertyOp21
 70
     1
102
RTVSPropertyOp22
 70
     1
102
RTVSPropertyOp23
 70
     1
102
RTVSPropertyOp24
 70
     1
102
RTVSPropertyOp25
 70
     1
102
RTVSPropertyOp26
 70
     1
102
RTVSPropertyOp27
 70
     1
102
RTVSPropertyOp28
 70
     1
102
RTVSPropertyOp29
 70
     1
102
RTVSPropertyOp30
 70
     1
102
RTVSPropertyOp31
 70
     1
102
RTVSPropertyOp32
 70
     1
102
RTVSPropertyOp33
 70
     1
102
RTVSPropertyOp34
 70
     1
102
RTVSPropertyOp35
 70
     1
102
RTVSPropertyOp36
 70
     1
102
RTVSPropertyOp37
 70
     1
102
RTVSPropertyOp38
 70
     1
102
RTVSPropertyOp39
 70
     1
102
RTVSPropertyOp40
 70
     1
102
RTVSPropertyOp41
 70
     1
102
RTVSPropertyOp42
 70
     1
102
RTVSPropertyOp43
 70
     1
102
RTVSPropertyOp44
 70
     1
102
RTVSPropertyOp45
 70
     1
102
RTVSPropertyOp46
 70
     1
102
RTVSPropertyOp47
 70
     1
102
RTVSPropertyOp48
 70
     1
102
RTVSPropertyOp49
 70
     1
102
RTVSPropertyOp50
 70
     1
102
RTVSPropertyOp51
 70
     0
102
RTVSPropertyOp52
 70
     0
102
RTVSPropertyOp53
 70
     1
102
RTVSPropertyOp54
 70
     1
102
RTVSPropertyOp55
 70
     1
102
RTVSPropertyOp56
 70
     1
102
RTVSPropertyOp57
 70
     1
102
RTVSPost2010Prop28
280
     0
102
RTVSPost2010PropOp28
 70
     1
102
RTVSPost2010Prop29
280
     1
102
RTVSPost2010PropOp29
 70
     1
102
RTVSPost2010Prop30
280
     1
102
RTVSPost2010PropOp30
 70
     1
102
RTVSPost2010Prop31
280
     0
102
RTVSPost2010PropOp31
 70
     1
102
RTVSPost2010Prop32
280
     0
102
RTVSPost2010PropOp32
 70
     1
102
RTVSPost2010Prop33
280
     0
102
RTVSPost2010PropOp33
 70
     1
102
RTVSPost2010Prop34
280
     0
102
RTVSPost2010PropOp34
 70
     1
102
RTVSPost2010Prop35
280
     0
102
RTVSPost2010PropOp35
 70
     1
102
RTVSPost2010Prop36
280
     0
102
RTVSPost2010PropOp36
 70
     1
102
RTVSPost2010Prop37
 90
       50
102
RTVSPost2010PropOp37
 70
     1
102
RTVSPost2010Prop38
140
0.0
102
RTVSPost2010PropOp38
 70
     1
102
RTVSPost2010Prop39
140
1.0
102
RTVSPost2010PropOp39
 70
     1
102
RTVSPost2010Prop40
 90
        0
102
RTVSPost2010PropOp40
 70
     1
102
RTVSPost2010Prop41ColorIndex
 90
       18
102
RTVSPost2010Prop41ColorRGB
 90
        0
102
RTVSPost2010PropOp41
 70
     1
102
RTVSPost2010Prop42
 90
       50
102
RTVSPost2010PropOp42
 70
     1
102
RTVSPost2010Prop43
 90
        3
102
RTVSPost2010PropOp43
 70
     1
102
RTVSPost2010Prop44ColorIndex
 90
        5
102
RTVSPost2010Prop44ColorRGB
 90
      255
102
RTVSPost2010PropOp44
 70
     1
102
RTVSPost2010Prop45
280
     0
102
RTVSPost2010PropOp45
 70
     1
102
RTVSPost2010Prop46
 90
       50
102
RTVSPost2010PropOp46
 70
     1
102
RTVSPost2010Prop47
 90
       50
102
RTVSPost2010PropOp47
 70
     1
102
RTVSPost2010Prop48
 90
       50
102
RTVSPost2010PropOp48
 70
     1
102
RTVSPost2010Prop49
280
     0
102
RTVSPost2010PropOp49
 70
     1
102
RTVSPost2010Prop50
 90
       50
102
RTVSPost2010PropOp50
 70
     1
102
RTVSPost2010Prop51ColorIndex
 90
      256
102
RTVSPost2010Prop51ColorRGB
 90
-16777216
102
RTVSPost2010PropOp51
 70
     0
102
RTVSPost2010Prop52
140
1.0
102
RTVSPost2010PropOp52
 70
     0
102
RTVSPost2010Prop53
 90
        2
102
RTVSPost2010PropOp53
 70
     1
102
RTVSPost2010Prop54
  1
strokes_ogs.tif
102
RTVSPost2010PropOp54
 70
     1
102
RTVSPost2010Prop55
280
     0
102
RTVSPost2010PropOp55
 70
     1
102
RTVSPost2010Prop56
140
1.0
102
RTVSPost2010PropOp56
 70
     1
102
RTVSPost2010Prop57
140
1.0
102
RTVSPost2010PropOp57
 70
     1
  0
XRECORD
  5
32A
102
{ACAD_REACTORS
330
329
102
}
330
329
100
AcDbXrecord
280
     1
102
RTVSPropertyOp0
 70
     1
102
RTVSPropertyOp1
 70
     1
102
RTVSPropertyOp2
 70
     1
102
RTVSPropertyOp3
 70
     1
102
RTVSPropertyOp4
 70
     1
102
RTVSPropertyOp5
 70
     1
102
RTVSPropertyOp6
 70
     1
102
RTVSPropertyOp7
 70
     1
102
RTVSPropertyOp8
 70
     1
102
RTVSPropertyOp9
 70
     1
102
RTVSPropertyOp10
 70
     1
102
RTVSPropertyOp11
 70
     1
102
RTVSPropertyOp12
 70
     1
102
RTVSPropertyOp13
 70
     1
102
RTVSPropertyOp14
 70
     1
102
RTVSPropertyOp15
 70
     1
102
RTVSPropertyOp16
 70
     1
102
RTVSPropertyOp17
 70
     1
102
RTVSPropertyOp18
 70
     1
102
RTVSPropertyOp19
 70
     1
102
RTVSPropertyOp20
 70
     1
102
RTVSPropertyOp21
 70
     1
102
RTVSPropertyOp22
 70
     1
102
RTVSPropertyOp23
 70
     1
102
RTVSPropertyOp24
 70
     1
102
RTVSPropertyOp25
 70
     1
102
RTVSPropertyOp26
 70
     1
102
RTVSPropertyOp27
 70
     1
102
RTVSPropertyOp28
 70
     1
102
RTVSPropertyOp29
 70
     1
102
RTVSPropertyOp30
 70
     1
102
RTVSPropertyOp31
 70
     1
102
RTVSPropertyOp32
 70
     1
102
RTVSPropertyOp33
 70
     1
102
RTVSPropertyOp34
 70
     1
102
RTVSPropertyOp35
 70
     1
102
RTVSPropertyOp36
 70
     1
102
RTVSPropertyOp37
 70
     1
102
RTVSPropertyOp38
 70
     1
102
RTVSPropertyOp39
 70
     1
102
RTVSPropertyOp40
 70
     1
102
RTVSPropertyOp41
 70
     1
102
RTVSPropertyOp42
 70
     1
102
RTVSPropertyOp43
 70
     1
102
RTVSPropertyOp44
 70
     1
102
RTVSPropertyOp45
 70
     1
102
RTVSPropertyOp46
 70
     1
102
RTVSPropertyOp47
 70
     1
102
RTVSPropertyOp48
 70
     1
102
RTVSPropertyOp49
 70
     1
102
RTVSPropertyOp50
 70
     1
102
RTVSPropertyOp51
 70
     0
102
RTVSPropertyOp52
 70
     0
102
RTVSPropertyOp53
 70
     1
102
RTVSPropertyOp54
 70
     1
102
RTVSPropertyOp55
 70
     1
102
RTVSPropertyOp56
 70
     1
102
RTVSPropertyOp57
 70
     1
102
RTVSPost2010Prop28
280
     0
102
RTVSPost2010PropOp28
 70
     1
102
RTVSPost2010Prop29
280
     1
102
RTVSPost2010PropOp29
 70
     1
102
RTVSPost2010Prop30
280
     1
102
RTVSPost2010PropOp30
 70
     1
102
RTVSPost2010Prop31
280
     0
102
RTVSPost2010PropOp31
 70
     1
102
RTVSPost2010Prop32
280
     0
102
RTVSPost2010PropOp32
 70
     1
102
RTVSPost2010Prop33
280
     0
102
RTVSPost2010PropOp33
 70
     1
102
RTVSPost2010Prop34
280
     0
102
RTVSPost2010PropOp34
 70
     1
102
RTVSPost2010Prop35
280
     0
102
RTVSPost2010PropOp35
 70
     1
102
RTVSPost2010Prop36
280
     0
102
RTVSPost2010PropOp36
 70
     1
102
RTVSPost2010Prop37
 90
       50
102
RTVSPost2010PropOp37
 70
     1
102
RTVSPost2010Prop38
140
0.0
102
RTVSPost2010PropOp38
 70
     1
102
RTVSPost2010Prop39
140
1.0
102
RTVSPost2010PropOp39
 70
     1
102
RTVSPost2010Prop40
 90
        0
102
RTVSPost2010PropOp40
 70
     1
102
RTVSPost2010Prop41ColorIndex
 90
       18
102
RTVSPost2010Prop41ColorRGB
 90
        0
102
RTVSPost2010PropOp41
 70
     1
102
RTVSPost2010Prop42
 90
       50
102
RTVSPost2010PropOp42
 70
     1
102
RTVSPost2010Prop43
 90
        3
102
RTVSPost2010PropOp43
 70
     1
102
RTVSPost2010Prop44ColorIndex
 90
        5
102
RTVSPost2010Prop44ColorRGB
 90
      255
102
RTVSPost2010PropOp44
 70
     1
102
RTVSPost2010Prop45
280
     0
102
RTVSPost2010PropOp45
 70
     1
102
RTVSPost2010Prop46
 90
       50
102
RTVSPost2010PropOp46
 70
     1
102
RTVSPost2010Prop47
 90
       50
102
RTVSPost2010PropOp47
 70
     1
102
RTVSPost2010Prop48
 90
       50
102
RTVSPost2010PropOp48
 70
     1
102
RTVSPost2010Prop49
280
     0
102
RTVSPost2010PropOp49
 70
     1
102
RTVSPost2010Prop50
 90
       50
102
RTVSPost2010PropOp50
 70
     1
102
RTVSPost2010Prop51ColorIndex
 90
      256
102
RTVSPost2010Prop51ColorRGB
 90
-16777216
102
RTVSPost2010PropOp51
 70
     0
102
RTVSPost2010Prop52
140
1.0
102
RTVSPost2010PropOp52
 70
     0
102
RTVSPost2010Prop53
 90
        2
102
RTVSPost2010PropOp53
 70
     1
102
RTVSPost2010Prop54
  1
strokes_ogs.tif
102
RTVSPost2010PropOp54
 70
     1
102
RTVSPost2010Prop55
280
     0
102
RTVSPost2010PropOp55
 70
     1
102
RTVSPost2010Prop56
140
1.0
102
RTVSPost2010PropOp56
 70
     1
102
RTVSPost2010Prop57
140
1.0
102
RTVSPost2010PropOp57
 70
     1
  0
XRECORD
  5
31A
102
{ACAD_REACTORS
330
319
102
}
330
319
100
AcDbXrecord
280
     1
102
RTVSPropertyOp0
 70
     1
102
RTVSPropertyOp1
 70
     1
102
RTVSPropertyOp2
 70
     1
102
RTVSPropertyOp3
 70
     1
102
RTVSPropertyOp4
 70
     1
102
RTVSPropertyOp5
 70
     1
102
RTVSPropertyOp6
 70
     1
102
RTVSPropertyOp7
 70
     1
102
RTVSPropertyOp8
 70
     1
102
RTVSPropertyOp9
 70
     1
102
RTVSPropertyOp10
 70
     1
102
RTVSPropertyOp11
 70
     1
102
RTVSPropertyOp12
 70
     1
102
RTVSPropertyOp13
 70
     1
102
RTVSPropertyOp14
 70
     1
102
RTVSPropertyOp15
 70
     1
102
RTVSPropertyOp16
 70
     1
102
RTVSPropertyOp17
 70
     1
102
RTVSPropertyOp18
 70
     1
102
RTVSPropertyOp19
 70
     1
102
RTVSPropertyOp20
 70
     1
102
RTVSPropertyOp21
 70
     1
102
RTVSPropertyOp22
 70
     1
102
RTVSPropertyOp23
 70
     1
102
RTVSPropertyOp24
 70
     1
102
RTVSPropertyOp25
 70
     1
102
RTVSPropertyOp26
 70
     1
102
RTVSPropertyOp27
 70
     1
102
RTVSPropertyOp28
 70
     1
102
RTVSPropertyOp29
 70
     1
102
RTVSPropertyOp30
 70
     1
102
RTVSPropertyOp31
 70
     1
102
RTVSPropertyOp32
 70
     1
102
RTVSPropertyOp33
 70
     1
102
RTVSPropertyOp34
 70
     1
102
RTVSPropertyOp35
 70
     1
102
RTVSPropertyOp36
 70
     1
102
RTVSPropertyOp37
 70
     1
102
RTVSPropertyOp38
 70
     1
102
RTVSPropertyOp39
 70
     1
102
RTVSPropertyOp40
 70
     1
102
RTVSPropertyOp41
 70
     1
102
RTVSPropertyOp42
 70
     1
102
RTVSPropertyOp43
 70
     1
102
RTVSPropertyOp44
 70
     1
102
RTVSPropertyOp45
 70
     1
102
RTVSPropertyOp46
 70
     1
102
RTVSPropertyOp47
 70
     1
102
RTVSPropertyOp48
 70
     1
102
RTVSPropertyOp49
 70
     1
102
RTVSPropertyOp50
 70
     1
102
RTVSPropertyOp51
 70
     0
102
RTVSPropertyOp52
 70
     0
102
RTVSPropertyOp53
 70
     1
102
RTVSPropertyOp54
 70
     1
102
RTVSPropertyOp55
 70
     1
102
RTVSPropertyOp56
 70
     1
102
RTVSPropertyOp57
 70
     1
102
RTVSPost2010Prop28
280
     0
102
RTVSPost2010PropOp28
 70
     1
102
RTVSPost2010Prop29
280
     1
102
RTVSPost2010PropOp29
 70
     1
102
RTVSPost2010Prop30
280
     1
102
RTVSPost2010PropOp30
 70
     1
102
RTVSPost2010Prop31
280
     0
102
RTVSPost2010PropOp31
 70
     1
102
RTVSPost2010Prop32
280
     0
102
RTVSPost2010PropOp32
 70
     1
102
RTVSPost2010Prop33
280
     0
102
RTVSPost2010PropOp33
 70
     1
102
RTVSPost2010Prop34
280
     0
102
RTVSPost2010PropOp34
 70
     1
102
RTVSPost2010Prop35
280
     0
102
RTVSPost2010PropOp35
 70
     1
102
RTVSPost2010Prop36
280
     0
102
RTVSPost2010PropOp36
 70
     1
102
RTVSPost2010Prop37
 90
       50
102
RTVSPost2010PropOp37
 70
     1
102
RTVSPost2010Prop38
140
0.0
102
RTVSPost2010PropOp38
 70
     1
102
RTVSPost2010Prop39
140
1.0
102
RTVSPost2010PropOp39
 70
     1
102
RTVSPost2010Prop40
 90
        0
102
RTVSPost2010PropOp40
 70
     1
102
RTVSPost2010Prop41ColorIndex
 90
       18
102
RTVSPost2010Prop41ColorRGB
 90
        0
102
RTVSPost2010PropOp41
 70
     1
102
RTVSPost2010Prop42
 90
       50
102
RTVSPost2010PropOp42
 70
     1
102
RTVSPost2010Prop43
 90
        3
102
RTVSPost2010PropOp43
 70
     1
102
RTVSPost2010Prop44ColorIndex
 90
        5
102
RTVSPost2010Prop44ColorRGB
 90
      255
102
RTVSPost2010PropOp44
 70
     1
102
RTVSPost2010Prop45
280
     0
102
RTVSPost2010PropOp45
 70
     1
102
RTVSPost2010Prop46
 90
       50
102
RTVSPost2010PropOp46
 70
     1
102
RTVSPost2010Prop47
 90
       50
102
RTVSPost2010PropOp47
 70
     1
102
RTVSPost2010Prop48
 90
       50
102
RTVSPost2010PropOp48
 70
     1
102
RTVSPost2010Prop49
280
     0
102
RTVSPost2010PropOp49
 70
     1
102
RTVSPost2010Prop50
 90
       50
102
RTVSPost2010PropOp50
 70
     1
102
RTVSPost2010Prop51ColorIndex
 90
      256
102
RTVSPost2010Prop51ColorRGB
 90
-16777216
102
RTVSPost2010PropOp51
 70
     0
102
RTVSPost2010Prop52
140
1.0
102
RTVSPost2010PropOp52
 70
     0
102
RTVSPost2010Prop53
 90
        2
102
RTVSPost2010PropOp53
 70
     1
102
RTVSPost2010Prop54
  1
strokes_ogs.tif
102
RTVSPost2010PropOp54
 70
     1
102
RTVSPost2010Prop55
280
     0
102
RTVSPost2010PropOp55
 70
     1
102
RTVSPost2010Prop56
140
1.0
102
RTVSPost2010PropOp56
 70
     1
102
RTVSPost2010Prop57
140
1.0
102
RTVSPost2010PropOp57
 70
     1
  0
XRECORD
  5
30C
102
{ACAD_REACTORS
330
30B
102
}
330
30B
100
AcDbXrecord
280
     1
102
RTVSPropertyOp0
 70
     1
102
RTVSPropertyOp1
 70
     1
102
RTVSPropertyOp2
 70
     1
102
RTVSPropertyOp3
 70
     1
102
RTVSPropertyOp4
 70
     1
102
RTVSPropertyOp5
 70
     1
102
RTVSPropertyOp6
 70
     1
102
RTVSPropertyOp7
 70
     1
102
RTVSPropertyOp8
 70
     1
102
RTVSPropertyOp9
 70
     1
102
RTVSPropertyOp10
 70
     1
102
RTVSPropertyOp11
 70
     1
102
RTVSPropertyOp12
 70
     1
102
RTVSPropertyOp13
 70
     1
102
RTVSPropertyOp14
 70
     1
102
RTVSPropertyOp15
 70
     1
102
RTVSPropertyOp16
 70
     1
102
RTVSPropertyOp17
 70
     1
102
RTVSPropertyOp18
 70
     1
102
RTVSPropertyOp19
 70
     1
102
RTVSPropertyOp20
 70
     1
102
RTVSPropertyOp21
 70
     1
102
RTVSPropertyOp22
 70
     1
102
RTVSPropertyOp23
 70
     1
102
RTVSPropertyOp24
 70
     1
102
RTVSPropertyOp25
 70
     1
102
RTVSPropertyOp26
 70
     1
102
RTVSPropertyOp27
 70
     1
102
RTVSPropertyOp28
 70
     1
102
RTVSPropertyOp29
 70
     1
102
RTVSPropertyOp30
 70
     1
102
RTVSPropertyOp31
 70
     1
102
RTVSPropertyOp32
 70
     1
102
RTVSPropertyOp33
 70
     1
102
RTVSPropertyOp34
 70
     1
102
RTVSPropertyOp35
 70
     1
102
RTVSPropertyOp36
 70
     1
102
RTVSPropertyOp37
 70
     1
102
RTVSPropertyOp38
 70
     1
102
RTVSPropertyOp39
 70
     1
102
RTVSPropertyOp40
 70
     1
102
RTVSPropertyOp41
 70
     1
102
RTVSPropertyOp42
 70
     1
102
RTVSPropertyOp43
 70
     1
102
RTVSPropertyOp44
 70
     1
102
RTVSPropertyOp45
 70
     1
102
RTVSPropertyOp46
 70
     1
102
RTVSPropertyOp47
 70
     1
102
RTVSPropertyOp48
 70
     1
102
RTVSPropertyOp49
 70
     1
102
RTVSPropertyOp50
 70
     1
102
RTVSPropertyOp51
 70
     0
102
RTVSPropertyOp52
 70
     0
102
RTVSPropertyOp53
 70
     1
102
RTVSPropertyOp54
 70
     1
102
RTVSPropertyOp55
 70
     1
102
RTVSPropertyOp56
 70
     1
102
RTVSPropertyOp57
 70
     1
102
RTVSPost2010Prop28
280
     0
102
RTVSPost2010PropOp28
 70
     1
102
RTVSPost2010Prop29
280
     1
102
RTVSPost2010PropOp29
 70
     1
102
RTVSPost2010Prop30
280
     1
102
RTVSPost2010PropOp30
 70
     1
102
RTVSPost2010Prop31
280
     0
102
RTVSPost2010PropOp31
 70
     1
102
RTVSPost2010Prop32
280
     0
102
RTVSPost2010PropOp32
 70
     1
102
RTVSPost2010Prop33
280
     0
102
RTVSPost2010PropOp33
 70
     1
102
RTVSPost2010Prop34
280
     0
102
RTVSPost2010PropOp34
 70
     1
102
RTVSPost2010Prop35
280
     0
102
RTVSPost2010PropOp35
 70
     1
102
RTVSPost2010Prop36
280
     0
102
RTVSPost2010PropOp36
 70
     1
102
RTVSPost2010Prop37
 90
       50
102
RTVSPost2010PropOp37
 70
     1
102
RTVSPost2010Prop38
140
0.0
102
RTVSPost2010PropOp38
 70
     1
102
RTVSPost2010Prop39
140
1.0
102
RTVSPost2010PropOp39
 70
     1
102
RTVSPost2010Prop40
 90
        0
102
RTVSPost2010PropOp40
 70
     1
102
RTVSPost2010Prop41ColorIndex
 90
       18
102
RTVSPost2010Prop41ColorRGB
 90
        0
102
RTVSPost2010PropOp41
 70
     1
102
RTVSPost2010Prop42
 90
       50
102
RTVSPost2010PropOp42
 70
     1
102
RTVSPost2010Prop43
 90
        3
102
RTVSPost2010PropOp43
 70
     1
102
RTVSPost2010Prop44ColorIndex
 90
        5
102
RTVSPost2010Prop44ColorRGB
 90
      255
102
RTVSPost2010PropOp44
 70
     1
102
RTVSPost2010Prop45
280
     0
102
RTVSPost2010PropOp45
 70
     1
102
RTVSPost2010Prop46
 90
       50
102
RTVSPost2010PropOp46
 70
     1
102
RTVSPost2010Prop47
 90
       50
102
RTVSPost2010PropOp47
 70
     1
102
RTVSPost2010Prop48
 90
       50
102
RTVSPost2010PropOp48
 70
     1
102
RTVSPost2010Prop49
280
     0
102
RTVSPost2010PropOp49
 70
     1
102
RTVSPost2010Prop50
 90
       50
102
RTVSPost2010PropOp50
 70
     1
102
RTVSPost2010Prop51ColorIndex
 90
      256
102
RTVSPost2010Prop51ColorRGB
 90
-16777216
102
RTVSPost2010PropOp51
 70
     0
102
RTVSPost2010Prop52
140
1.0
102
RTVSPost2010PropOp52
 70
     0
102
RTVSPost2010Prop53
 90
        2
102
RTVSPost2010PropOp53
 70
     1
102
RTVSPost2010Prop54
  1
strokes_ogs.tif
102
RTVSPost2010PropOp54
 70
     1
102
RTVSPost2010Prop55
280
     0
102
RTVSPost2010PropOp55
 70
     1
102
RTVSPost2010Prop56
140
1.0
102
RTVSPost2010PropOp56
 70
     1
102
RTVSPost2010Prop57
140
1.0
102
RTVSPost2010PropOp57
 70
     1
  0
XRECORD
  5
32C
102
{ACAD_REACTORS
330
32B
102
}
330
32B
100
AcDbXrecord
280
     1
102
RTVSPropertyOp0
 70
     1
102
RTVSPropertyOp1
 70
     1
102
RTVSPropertyOp2
 70
     1
102
RTVSPropertyOp3
 70
     1
102
RTVSPropertyOp4
 70
     1
102
RTVSPropertyOp5
 70
     1
102
RTVSPropertyOp6
 70
     1
102
RTVSPropertyOp7
 70
     1
102
RTVSPropertyOp8
 70
     1
102
RTVSPropertyOp9
 70
     1
102
RTVSPropertyOp10
 70
     1
102
RTVSPropertyOp11
 70
     1
102
RTVSPropertyOp12
 70
     1
102
RTVSPropertyOp13
 70
     1
102
RTVSPropertyOp14
 70
     1
102
RTVSPropertyOp15
 70
     1
102
RTVSPropertyOp16
 70
     1
102
RTVSPropertyOp17
 70
     1
102
RTVSPropertyOp18
 70
     1
102
RTVSPropertyOp19
 70
     1
102
RTVSPropertyOp20
 70
     1
102
RTVSPropertyOp21
 70
     1
102
RTVSPropertyOp22
 70
     1
102
RTVSPropertyOp23
 70
     1
102
RTVSPropertyOp24
 70
     1
102
RTVSPropertyOp25
 70
     1
102
RTVSPropertyOp26
 70
     1
102
RTVSPropertyOp27
 70
     1
102
RTVSPropertyOp28
 70
     1
102
RTVSPropertyOp29
 70
     1
102
RTVSPropertyOp30
 70
     1
102
RTVSPropertyOp31
 70
     1
102
RTVSPropertyOp32
 70
     1
102
RTVSPropertyOp33
 70
     1
102
RTVSPropertyOp34
 70
     1
102
RTVSPropertyOp35
 70
     1
102
RTVSPropertyOp36
 70
     1
102
RTVSPropertyOp37
 70
     1
102
RTVSPropertyOp38
 70
     1
102
RTVSPropertyOp39
 70
     1
102
RTVSPropertyOp40
 70
     1
102
RTVSPropertyOp41
 70
     1
102
RTVSPropertyOp42
 70
     1
102
RTVSPropertyOp43
 70
     1
102
RTVSPropertyOp44
 70
     1
102
RTVSPropertyOp45
 70
     1
102
RTVSPropertyOp46
 70
     1
102
RTVSPropertyOp47
 70
     1
102
RTVSPropertyOp48
 70
     1
102
RTVSPropertyOp49
 70
     1
102
RTVSPropertyOp50
 70
     1
102
RTVSPropertyOp51
 70
     0
102
RTVSPropertyOp52
 70
     0
102
RTVSPropertyOp53
 70
     1
102
RTVSPropertyOp54
 70
     1
102
RTVSPropertyOp55
 70
     1
102
RTVSPropertyOp56
 70
     1
102
RTVSPropertyOp57
 70
     1
102
RTVSPost2010Prop28
280
     0
102
RTVSPost2010PropOp28
 70
     1
102
RTVSPost2010Prop29
280
     1
102
RTVSPost2010PropOp29
 70
     1
102
RTVSPost2010Prop30
280
     1
102
RTVSPost2010PropOp30
 70
     1
102
RTVSPost2010Prop31
280
     0
102
RTVSPost2010PropOp31
 70
     1
102
RTVSPost2010Prop32
280
     0
102
RTVSPost2010PropOp32
 70
     1
102
RTVSPost2010Prop33
280
     0
102
RTVSPost2010PropOp33
 70
     1
102
RTVSPost2010Prop34
280
     0
102
RTVSPost2010PropOp34
 70
     1
102
RTVSPost2010Prop35
280
     0
102
RTVSPost2010PropOp35
 70
     1
102
RTVSPost2010Prop36
280
     0
102
RTVSPost2010PropOp36
 70
     1
102
RTVSPost2010Prop37
 90
       50
102
RTVSPost2010PropOp37
 70
     1
102
RTVSPost2010Prop38
140
0.0
102
RTVSPost2010PropOp38
 70
     1
102
RTVSPost2010Prop39
140
1.0
102
RTVSPost2010PropOp39
 70
     1
102
RTVSPost2010Prop40
 90
        0
102
RTVSPost2010PropOp40
 70
     1
102
RTVSPost2010Prop41ColorIndex
 90
       18
102
RTVSPost2010Prop41ColorRGB
 90
        0
102
RTVSPost2010PropOp41
 70
     1
102
RTVSPost2010Prop42
 90
       50
102
RTVSPost2010PropOp42
 70
     1
102
RTVSPost2010Prop43
 90
        3
102
RTVSPost2010PropOp43
 70
     1
102
RTVSPost2010Prop44ColorIndex
 90
        5
102
RTVSPost2010Prop44ColorRGB
 90
      255
102
RTVSPost2010PropOp44
 70
     1
102
RTVSPost2010Prop45
280
     0
102
RTVSPost2010PropOp45
 70
     1
102
RTVSPost2010Prop46
 90
       50
102
RTVSPost2010PropOp46
 70
     1
102
RTVSPost2010Prop47
 90
       50
102
RTVSPost2010PropOp47
 70
     1
102
RTVSPost2010Prop48
 90
       50
102
RTVSPost2010PropOp48
 70
     1
102
RTVSPost2010Prop49
280
     0
102
RTVSPost2010PropOp49
 70
     1
102
RTVSPost2010Prop50
 90
       50
102
RTVSPost2010PropOp50
 70
     1
102
RTVSPost2010Prop51ColorIndex
 90
      256
102
RTVSPost2010Prop51ColorRGB
 90
-16777216
102
RTVSPost2010PropOp51
 70
     0
102
RTVSPost2010Prop52
140
1.0
102
RTVSPost2010PropOp52
 70
     0
102
RTVSPost2010Prop53
 90
        2
102
RTVSPost2010PropOp53
 70
     1
102
RTVSPost2010Prop54
  1
strokes_ogs.tif
102
RTVSPost2010PropOp54
 70
     1
102
RTVSPost2010Prop55
280
     0
102
RTVSPost2010PropOp55
 70
     1
102
RTVSPost2010Prop56
140
1.0
102
RTVSPost2010PropOp56
 70
     1
102
RTVSPost2010Prop57
140
1.0
102
RTVSPost2010PropOp57
 70
     1
  0
ENDSEC
  0
EOF
