  0
SECTION
  2
HEADER
  9
$ACADVER
  1
AC1018
  9
$ACADMAINTVER
 70
     0
  9
$DWGCODEPAGE
  3
ANSI_1252
  9
$INSBASE
 10
0.0
 20
0.0
 30
0.0
  9
$EXTMIN
 10
-288.2568927145345
 20
-45.79362749516849
 30
0.0
  9
$EXTMAX
 10
131.7431072854639
 20
251.2063725048315
 30
0.0
  9
$LIMMIN
 10
0.0
 20
0.0
  9
$LIMMAX
 10
12.0
 20
9.0
  9
$ORTHOMODE
 70
     0
  9
$REGENMODE
 70
     1
  9
$FILLMODE
 70
     1
  9
$QTEXTMODE
 70
     0
  9
$MIRRTEXT
 70
     1
  9
$LTSCALE
 40
1.0
  9
$ATTMODE
 70
     1
  9
$TEXTSIZE
 40
0.2
  9
$TRACEWID
 40
0.05
  9
$TEXTSTYLE
  7
Standard
  9
$CLAYER
  8
0
  9
$CELTYPE
  6
ByLayer
  9
$CECOLOR
 62
   256
  9
$CELTSCALE
 40
1.0
  9
$DISPSILH
 70
     0
  9
$DIMSCALE
 40
1.0
  9
$DIMASZ
 40
0.18
  9
$DIMEXO
 40
0.0625
  9
$DIMDLI
 40
0.38
  9
$DIMRND
 40
0.0
  9
$DIMDLE
 40
0.0
  9
$DIMEXE
 40
0.18
  9
$DIMTP
 40
0.0
  9
$DIMTM
 40
0.0
  9
$DIMTXT
 40
0.18
  9
$DIMCEN
 40
0.09
  9
$DIMTSZ
 40
0.0
  9
$DIMTOL
 70
     0
  9
$DIMLIM
 70
     0
  9
$DIMTIH
 70
     1
  9
$DIMTOH
 70
     1
  9
$DIMSE1
 70
     0
  9
$DIMSE2
 70
     0
  9
$DIMTAD
 70
     0
  9
$DIMZIN
 70
     0
  9
$DIMBLK
  1

  9
$DIMASO
 70
     1
  9
$DIMSHO
 70
     1
  9
$DIMPOST
  1

  9
$DIMAPOST
  1

  9
$DIMALT
 70
     0
  9
$DIMALTD
 70
     2
  9
$DIMALTF
 40
25.4
  9
$DIMLFAC
 40
1.0
  9
$DIMTOFL
 70
     0
  9
$DIMTVP
 40
0.0
  9
$DIMTIX
 70
     0
  9
$DIMSOXD
 70
     0
  9
$DIMSAH
 70
     0
  9
$DIMBLK1
  1

  9
$DIMBLK2
  1

  9
$DIMSTYLE
  2
Standard
  9
$DIMCLRD
 70
     0
  9
$DIMCLRE
 70
     0
  9
$DIMCLRT
 70
     0
  9
$DIMTFAC
 40
1.0
  9
$DIMGAP
 40
0.09
  9
$DIMJUST
 70
     0
  9
$DIMSD1
 70
     0
  9
$DIMSD2
 70
     0
  9
$DIMTOLJ
 70
     1
  9
$DIMTZIN
 70
     0
  9
$DIMALTZ
 70
     0
  9
$DIMALTTZ
 70
     0
  9
$DIMUPT
 70
     0
  9
$DIMDEC
 70
     4
  9
$DIMTDEC
 70
     4
  9
$DIMALTU
 70
     2
  9
$DIMALTTD
 70
     2
  9
$DIMTXSTY
  7
Standard
  9
$DIMAUNIT
 70
     0
  9
$DIMADEC
 70
     0
  9
$DIMALTRND
 40
0.0
  9
$DIMAZIN
 70
     0
  9
$DIMDSEP
 70
    46
  9
$DIMATFIT
 70
     3
  9
$DIMFRAC
 70
     0
  9
$DIMLDRBLK
  1

  9
$DIMLUNIT
 70
     2
  9
$DIMLWD
 70
    -2
  9
$DIMLWE
 70
    -2
  9
$DIMTMOVE
 70
     0
  9
$LUNITS
 70
     2
  9
$LUPREC
 70
     4
  9
$SKETCHINC
 40
0.1
  9
$FILLETRAD
 40
0.5
  9
$AUNITS
 70
     0
  9
$AUPREC
 70
     0
  9
$MENU
  1
.
  9
$ELEVATION
 40
0.0
  9
$PELEVATION
 40
0.0
  9
$THICKNESS
 40
0.0
  9
$LIMCHECK
 70
     0
  9
$CHAMFERA
 40
0.0
  9
$CHAMFERB
 40
0.0
  9
$CHAMFERC
 40
0.0
  9
$CHAMFERD
 40
0.0
  9
$SKPOLY
 70
     0
  9
$TDCREATE
 40
2459306.457877789
  9
$TDUCREATE
 40
2459306.374544456
  9
$TDUPDATE
 40
2459306.457877963
  9
$TDUUPDATE
 40
2459306.37454463
  9
$TDINDWG
 40
0.0000000116
  9
$TDUSRTIMER
 40
0.0000000116
  9
$USRTIMER
 70
     1
  9
$ANGBASE
 50
0.0
  9
$ANGDIR
 70
     0
  9
$PDMODE
 70
     0
  9
$PDSIZE
 40
0.0
  9
$PLINEWID
 40
0.0
  9
$SPLFRAME
 70
     0
  9
$SPLINETYPE
 70
     6
  9
$SPLINESEGS
 70
     8
  9
$HANDSEED
  5
342
  9
$SURFTAB1
 70
     6
  9
$SURFTAB2
 70
     6
  9
$SURFTYPE
 70
     6
  9
$SURFU
 70
     6
  9
$SURFV
 70
     6
  9
$UCSBASE
  2

  9
$UCSNAME
  2

  9
$UCSORG
 10
0.0
 20
0.0
 30
0.0
  9
$UCSXDIR
 10
1.0
 20
0.0
 30
0.0
  9
$UCSYDIR
 10
0.0
 20
1.0
 30
0.0
  9
$UCSORTHOREF
  2

  9
$UCSORTHOVIEW
 70
     0
  9
$UCSORGTOP
 10
0.0
 20
0.0
 30
0.0
  9
$UCSORGBOTTOM
 10
0.0
 20
0.0
 30
0.0
  9
$UCSORGLEFT
 10
0.0
 20
0.0
 30
0.0
  9
$UCSORGRIGHT
 10
0.0
 20
0.0
 30
0.0
  9
$UCSORGFRONT
 10
0.0
 20
0.0
 30
0.0
  9
$UCSORGBACK
 10
0.0
 20
0.0
 30
0.0
  9
$PUCSBASE
  2

  9
$PUCSNAME
  2

  9
$PUCSORG
 10
0.0
 20
0.0
 30
0.0
  9
$PUCSXDIR
 10
1.0
 20
0.0
 30
0.0
  9
$PUCSYDIR
 10
0.0
 20
1.0
 30
0.0
  9
$PUCSORTHOREF
  2

  9
$PUCSORTHOVIEW
 70
     0
  9
$PUCSORGTOP
 10
0.0
 20
0.0
 30
0.0
  9
$PUCSORGBOTTOM
 10
0.0
 20
0.0
 30
0.0
  9
$PUCSORGLEFT
 10
0.0
 20
0.0
 30
0.0
  9
$PUCSORGRIGHT
 10
0.0
 20
0.0
 30
0.0
  9
$PUCSORGFRONT
 10
0.0
 20
0.0
 30
0.0
  9
$PUCSORGBACK
 10
0.0
 20
0.0
 30
0.0
  9
$USERI1
 70
     0
  9
$USERI2
 70
     0
  9
$USERI3
 70
     0
  9
$USERI4
 70
     0
  9
$USERI5
 70
     0
  9
$USERR1
 40
20.1
  9
$USERR2
 40
0.0
  9
$USERR3
 40
0.0
  9
$USERR4
 40
0.0
  9
$USERR5
 40
0.0
  9
$WORLDVIEW
 70
     1
  9
$SHADEDGE
 70
     3
  9
$SHADEDIF
 70
    70
  9
$TILEMODE
 70
     1
  9
$MAXACTVP
 70
    64
  9
$PINSBASE
 10
0.0
 20
0.0
 30
0.0
  9
$PLIMCHECK
 70
     0
  9
$PEXTMIN
 10
1.00000000000000E+20
 20
1.00000000000000E+20
 30
1.00000000000000E+20
  9
$PEXTMAX
 10
-1.00000000000000E+20
 20
-1.00000000000000E+20
 30
-1.00000000000000E+20
  9
$PLIMMIN
 10
0.0
 20
0.0
  9
$PLIMMAX
 10
12.0
 20
9.0
  9
$UNITMODE
 70
     0
  9
$VISRETAIN
 70
     1
  9
$PLINEGEN
 70
     0
  9
$PSLTSCALE
 70
     1
  9
$TREEDEPTH
 70
  3020
  9
$CMLSTYLE
  2
Standard
  9
$CMLJUST
 70
     0
  9
$CMLSCALE
 40
1.0
  9
$PROXYGRAPHICS
 70
     1
  9
$MEASUREMENT
 70
     1
  9
$CELWEIGHT
370
    -1
  9
$ENDCAPS
280
     0
  9
$JOINSTYLE
280
     0
  9
$LWDISPLAY
290
     0
  9
$INSUNITS
 70
     4
  9
$HYPERLINKBASE
  1

  9
$STYLESHEET
  1

  9
$XEDIT
290
     1
  9
$CEPSNTYPE
380
     0
  9
$PSTYLEMODE
290
     1
  9
$FINGERPRINTGUID
  2
{2dfc0b1b-517f-4c97-8dac-1ff87b02fa2f}
  9
$VERSIONGUID
  2
{FAEB1C32-E019-11D5-929B-00C0DF256EC4}
  9
$EXTNAMES
290
     1
  9
$PSVPSCALE
 40
0.0
  9
$OLESTARTUP
290
     0
  9
$SORTENTS
280
   127
  9
$INDEXCTL
280
     0
  9
$HIDETEXT
280
     1
  9
$XCLIPFRAME
290
     0
  9
$HALOGAP
280
     0
  9
$OBSCOLOR
 70
   257
  9
$OBSLTYPE
280
     0
  9
$INTERSECTIONDISPLAY
280
     0
  9
$INTERSECTIONCOLOR
 70
   257
  9
$DIMASSOC
280
     2
  9
$PROJECTNAME
  1

  0
ENDSEC
  0
SECTION
  2
CLASSES
  0
CLASS
  1
ACDBDICTIONARYWDFLT
  2
AcDbDictionaryWithDefault
  3
ObjectDBX Classes
 90
        0
 91
        3
280
     0
281
     0
  0
CLASS
  1
VISUALSTYLE
  2
AcDbVisualStyle
  3
ObjectDBX Classes
 90
     4095
 91
        3
280
     0
281
     0
  0
CLASS
  1
MATERIAL
  2
AcDbMaterial
  3
ObjectDBX Classes
 90
     1153
 91
        3
280
     0
281
     0
  0
CLASS
  1
SCALE
  2
AcDbScale
  3
ObjectDBX Classes
 90
     1153
 91
        3
280
     0
281
     0
  0
CLASS
  1
TABLESTYLE
  2
AcDbTableStyle
  3
ObjectDBX Classes
 90
     4095
 91
        3
280
     0
281
     0
  0
CLASS
  1
MLEADERSTYLE
  2
AcDbMLeaderStyle
  3
ACDB_MLEADERSTYLE_CLASS
 90
     4095
 91
        3
280
     0
281
     0
  0
CLASS
  1
SUN
  2
AcDbSun
  3
SCENEOE
 90
     1153
 91
        3
280
     0
281
     0
  0
CLASS
  1
DICTIONARYVAR
  2
AcDbDictionaryVar
  3
ObjectDBX Classes
 90
        0
 91
        3
280
     0
281
     0
  0
CLASS
  1
CELLSTYLEMAP
  2
AcDbCellStyleMap
  3
ObjectDBX Classes
 90
     1152
 91
        3
280
     0
281
     0
  0
ENDSEC
  0
SECTION
  2
TABLES
  0
TABLE
  2
VPORT
  5
8
102
{ACAD_XDICTIONARY
360
2FB
102
}
330
0
100
AcDbSymbolTable
 70
     1
  0
VPORT
  5
29
330
8
100
AcDbSymbolTableRecord
100
AcDbViewportTableRecord
  2
*Active
 70
     0
 10
0.0
 20
0.0
 11
1.0
 21
1.0
 12
-78.2568927145353
 22
102.7063725048315
 13
0.0
 23
0.0
 14
0.5
 24
0.5
 15
0.5
 25
0.5
 16
0.0
 26
0.0
 36
1.0
 17
0.0
 27
0.0
 37
0.0
 40
326.7
 41
1.60267857142857
 42
50.0
 43
0.0
 44
0.0
 50
0.0
 51
0.0
 71
     0
 72
   100
 73
     1
 74
     3
 75
     0
 76
     0
 77
     0
 78
     0
281
     0
 65
     1
110
0.0
120
0.0
130
0.0
111
1.0
121
0.0
131
0.0
112
0.0
122
1.0
132
0.0
 79
     0
146
0.0
  0
ENDTAB
  0
TABLE
  2
LTYPE
  5
5
330
0
100
AcDbSymbolTable
 70
     8
  0
LTYPE
  5
14
330
5
100
AcDbSymbolTableRecord
100
AcDbLinetypeTableRecord
  2
ByBlock
 70
     0
  3

 72
    65
 73
     0
 40
0.0
  0
LTYPE
  5
15
330
5
100
AcDbSymbolTableRecord
100
AcDbLinetypeTableRecord
  2
ByLayer
 70
     0
  3

 72
    65
 73
     0
 40
0.0
  0
LTYPE
  5
16
330
5
100
AcDbSymbolTableRecord
100
AcDbLinetypeTableRecord
  2
Continuous
 70
     0
  3
Solid line
 72
    65
 73
     0
 40
0.0
  0
LTYPE
  5
6E
330
5
100
AcDbSymbolTableRecord
100
AcDbLinetypeTableRecord
  2
DASHED
 70
     0
  3
Dashed
 72
    65
 73
     2
 40
15.0
 49
7.0
 74
     0
 49
-8.0
 74
     0
  0
LTYPE
  5
6F
330
5
100
AcDbSymbolTableRecord
100
AcDbLinetypeTableRecord
  2
DOTTED
 70
     0
  3
Dotted
 72
    65
 73
     2
 40
1.0
 49
0.0
 74
     0
 49
-1.0
 74
     0
  0
LTYPE
  5
70
330
5
100
AcDbSymbolTableRecord
100
AcDbLinetypeTableRecord
  2
DOT_CENTER
 70
     0
  3
Dot_Center
 72
    65
 73
     4
 40
14.0
 49
12.0
 74
     0
 49
-1.0
 74
     0
 49
0.0
 74
     0
 49
-1.0
 74
     0
  0
LTYPE
  5
71
330
5
100
AcDbSymbolTableRecord
100
AcDbLinetypeTableRecord
  2
LONG_DASHED
 70
     0
  3
Long_Dashed
 72
    65
 73
     2
 40
15.0
 49
10.0
 74
     0
 49
-5.0
 74
     0
  0
LTYPE
  5
72
330
5
100
AcDbSymbolTableRecord
100
AcDbLinetypeTableRecord
  2
DASH_CENTER
 70
     0
  3
Dash_Center
 72
    65
 73
     4
 40
14.0
 49
11.0
 74
     0
 49
-1.0
 74
     0
 49
1.0
 74
     0
 49
-1.0
 74
     0
  0
LTYPE
  5
73
330
5
100
AcDbSymbolTableRecord
100
AcDbLinetypeTableRecord
  2
PHANTOM
 70
     0
  3
Phantom
 72
    65
 73
     6
 40
13.0
 49
10.0
 74
     0
 49
-1.0
 74
     0
 49
0.0
 74
     0
 49
-1.0
 74
     0
 49
0.0
 74
     0
 49
-1.0
 74
     0
  0
LTYPE
  5
74
330
5
100
AcDbSymbolTableRecord
100
AcDbLinetypeTableRecord
  2
CENTER_DASH_DASH
 70
     0
  3
Center_Dash_Dash
 72
    65
 73
     6
 40
14.0
 49
9.0
 74
     0
 49
-1.0
 74
     0
 49
1.0
 74
     0
 49
-1.0
 74
     0
 49
1.0
 74
     0
 49
-1.0
 74
     0
  0
ENDTAB
  0
TABLE
  2
LAYER
  5
2
330
0
100
AcDbSymbolTable
 70
     2
  0
LAYER
  5
10
330
2
100
AcDbSymbolTableRecord
100
AcDbLayerTableRecord
  2
0
 70
     0
 62
     7
  6
Continuous
370
    -3
390
F
  0
LAYER
  5
75
330
2
100
AcDbSymbolTableRecord
100
AcDbLayerTableRecord
  2
1
 70
     0
 62
     7
  6
Continuous
370
    -3
390
F
  0
ENDTAB
  0
TABLE
  2
STYLE
  5
3
330
0
100
AcDbSymbolTable
 70
     5
  0
STYLE
  5
11
330
3
100
AcDbSymbolTableRecord
100
AcDbTextStyleTableRecord
  2
Standard
 70
     0
 40
0.0
 41
1.0
 50
0.0
 71
     0
 42
0.2
  3
txt
  4

  0
STYLE
  5
1BD
330
3
100
AcDbSymbolTableRecord
100
AcDbTextStyleTableRecord
  2
CONVERTER_11
 70
     0
 40
0.0
 41
0.9
 50
0.0
 71
     0
 42
0.2
  3
txt.shx
  4

  0
STYLE
  5
1D0
330
3
100
AcDbSymbolTableRecord
100
AcDbTextStyleTableRecord
  2
CONVERTER_12
 70
     0
 40
0.0
 41
0.81
 50
0.0
 71
     0
 42
0.2
  3
txt.shx
  4

  0
STYLE
  5
1D6
330
3
100
AcDbSymbolTableRecord
100
AcDbTextStyleTableRecord
  2
CONVERTER_13
 70
     0
 40
0.0
 41
0.855
 50
0.0
 71
     0
 42
0.2
  3
txt.shx
  4

  0
STYLE
  5
1D9
330
3
100
AcDbSymbolTableRecord
100
AcDbTextStyleTableRecord
  2
CONVERTER_14
 70
     0
 40
0.0
 41
0.72
 50
0.0
 71
     0
 42
0.2
  3
txt.shx
  4

  0
ENDTAB
  0
TABLE
  2
VIEW
  5
6
330
0
100
AcDbSymbolTable
 70
     0
  0
ENDTAB
  0
TABLE
  2
UCS
  5
7
330
0
100
AcDbSymbolTable
 70
     0
  0
ENDTAB
  0
TABLE
  2
APPID
  5
9
330
0
100
AcDbSymbolTable
 70
     2
  0
APPID
  5
12
330
9
100
AcDbSymbolTableRecord
100
AcDbRegAppTableRecord
  2
ACAD
 70
     0
  0
APPID
  5
33A
330
9
100
AcDbSymbolTableRecord
100
AcDbRegAppTableRecord
  2
ACAD_MLEADERVER
 70
     0
  0
ENDTAB
  0
TABLE
  2
DIMSTYLE
  5
A
330
0
100
AcDbSymbolTable
 70
     4
100
AcDbDimStyleTable
  0
DIMSTYLE
105
27
330
A
100
AcDbSymbolTableRecord
100
AcDbDimStyleTableRecord
  2
Standard
 70
     0
178
     0
340
11
  0
DIMSTYLE
105
257
102
{ACAD_REACTORS
330
258
102
}
330
A
100
AcDbSymbolTableRecord
100
AcDbDimStyleTableRecord
  2
ME10_DIM_10
 70
     0
 41
1.75
 42
0.0
 44
0.75
 73
     0
 74
     0
 77
     1
 78
     8
140
1.75
147
0.75
172
     1
173
     1
174
     1
175
     1
176
     2
177
     2
178
     3
340
1BD
  0
DIMSTYLE
105
2EE
102
{ACAD_REACTORS
330
2EF
102
}
330
A
100
AcDbSymbolTableRecord
100
AcDbDimStyleTableRecord
  2
ME10_DIM_11
 70
     0
 41
1.75
 42
0.0
 44
1.0
 73
     0
 74
     0
 77
     1
 78
     8
140
1.75
147
1.0
172
     1
173
     1
174
     1
175
     1
176
     2
177
     2
178
     3
340
1BD
  0
DIMSTYLE
105
2F9
102
{ACAD_REACTORS
330
2FA
102
}
330
A
100
AcDbSymbolTableRecord
100
AcDbDimStyleTableRecord
  2
ME10_DIM_12
 70
     0
 41
1.75
 42
0.0
 44
1.0
 73
     0
 74
     0
 77
     1
 78
     8
140
1.75
147
1.0
172
     1
173
     1
174
     1
175
     1
176
     2
177
     2
178
     3
340
1BD
  0
ENDTAB
  0
TABLE
  2
BLOCK_RECORD
  5
1
330
0
100
AcDbSymbolTable
 70
    20
  0
BLOCK_RECORD
  5
1F
330
1
100
AcDbSymbolTableRecord
100
AcDbBlockTableRecord
  2
*Model_Space
340
22
  0
BLOCK_RECORD
  5
1B
330
1
100
AcDbSymbolTableRecord
100
AcDbBlockTableRecord
  2
*Paper_Space
340
1E
  0
BLOCK_RECORD
  5
23
330
1
100
AcDbSymbolTableRecord
100
AcDbBlockTableRecord
  2
*Paper_Space0
340
26
  0
BLOCK_RECORD
  5
76
330
1
100
AcDbSymbolTableRecord
100
AcDbBlockTableRecord
  2
_rahmen
340
0
102
{BLKREFS
331
7D
102
}
  0
BLOCK_RECORD
  5
79
330
1
100
AcDbSymbolTableRecord
100
AcDbBlockTableRecord
  2
_punkt
340
0
102
{BLKREFS
331
7E
102
}
  0
BLOCK_RECORD
  5
7C
330
1
100
AcDbSymbolTableRecord
100
AcDbBlockTableRecord
  2
A3I_CS
340
0
102
{BLKREFS
331
AC
102
}
  0
BLOCK_RECORD
  5
81
330
1
100
AcDbSymbolTableRecord
100
AcDbBlockTableRecord
  2
CES_STPG_GY_7-select__1
340
0
102
{BLKREFS
331
85
102
}
  0
BLOCK_RECORD
  5
84
330
1
100
AcDbSymbolTableRecord
100
AcDbBlockTableRecord
  2
AllgSicht1
340
0
102
{BLKREFS
331
AD
102
}
  0
BLOCK_RECORD
  5
88
330
1
100
AcDbSymbolTableRecord
100
AcDbBlockTableRecord
  2
CES_STPG_GY_7-select__2
340
0
102
{BLKREFS
331
8C
102
}
  0
BLOCK_RECORD
  5
8B
330
1
100
AcDbSymbolTableRecord
100
AcDbBlockTableRecord
  2
Drfsicht1
340
0
102
{BLKREFS
331
AE
102
}
  0
BLOCK_RECORD
  5
8F
330
1
100
AcDbSymbolTableRecord
100
AcDbBlockTableRecord
  2
CES_STPG_GY_7-select__3
340
0
102
{BLKREFS
331
93
102
}
  0
BLOCK_RECORD
  5
92
330
1
100
AcDbSymbolTableRecord
100
AcDbBlockTableRecord
  2
Rckans1
340
0
102
{BLKREFS
331
AF
102
}
  0
BLOCK_RECORD
  5
96
330
1
100
AcDbSymbolTableRecord
100
AcDbBlockTableRecord
  2
CES_STPG_GY_7-select__4
340
0
102
{BLKREFS
331
9A
102
}
  0
BLOCK_RECORD
  5
99
330
1
100
AcDbSymbolTableRecord
100
AcDbBlockTableRecord
  2
SA_Links1
340
0
102
{BLKREFS
331
B0
102
}
  0
BLOCK_RECORD
  5
9D
330
1
100
AcDbSymbolTableRecord
100
AcDbBlockTableRecord
  2
CES_STPG_GY_7-select__5
340
0
102
{BLKREFS
331
A1
102
}
  0
BLOCK_RECORD
  5
A0
330
1
100
AcDbSymbolTableRecord
100
AcDbBlockTableRecord
  2
SA_Rechts1
340
0
102
{BLKREFS
331
B1
102
}
  0
BLOCK_RECORD
  5
A4
330
1
100
AcDbSymbolTableRecord
100
AcDbBlockTableRecord
  2
CES_STPG_GY_7-select__6
340
0
102
{BLKREFS
331
A8
102
}
  0
BLOCK_RECORD
  5
A7
330
1
100
AcDbSymbolTableRecord
100
AcDbBlockTableRecord
  2
Vordans1
340
0
102
{BLKREFS
331
B2
102
}
  0
BLOCK_RECORD
  5
AB
330
1
100
AcDbSymbolTableRecord
100
AcDbBlockTableRecord
  2
1
340
0
102
{BLKREFS
331
B5
102
}
  0
BLOCK_RECORD
  5
24E
330
1
100
AcDbSymbolTableRecord
100
AcDbBlockTableRecord
  2
*D17
340
0
  0
BLOCK_RECORD
  5
2E5
330
1
100
AcDbSymbolTableRecord
100
AcDbBlockTableRecord
  2
*D18
340
0
  0
BLOCK_RECORD
  5
2F0
330
1
100
AcDbSymbolTableRecord
100
AcDbBlockTableRecord
  2
*D19
340
0
  0
ENDTAB
  0
ENDSEC
  0
SECTION
  2
BLOCKS
  0
BLOCK
  5
20
330
1F
100
AcDbEntity
  8
0
100
AcDbBlockBegin
  2
*Model_Space
 70
     0
 10
0.0
 20
0.0
 30
0.0
  3
*Model_Space
  1

  0
ENDBLK
  5
21
330
1F
100
AcDbEntity
  8
0
100
AcDbBlockEnd
  0
BLOCK
  5
1C
330
1B
100
AcDbEntity
 67
     1
  8
0
100
AcDbBlockBegin
  2
*Paper_Space
 70
     0
 10
0.0
 20
0.0
 30
0.0
  3
*Paper_Space
  1

  0
ENDBLK
  5
1D
330
1B
100
AcDbEntity
 67
     1
  8
0
100
AcDbBlockEnd
  0
BLOCK
  5
24
330
23
100
AcDbEntity
  8
0
100
AcDbBlockBegin
  2
*Paper_Space0
 70
     0
 10
0.0
 20
0.0
 30
0.0
  3
*Paper_Space0
  1

  0
ENDBLK
  5
25
330
23
100
AcDbEntity
  8
0
100
AcDbBlockEnd
  0
BLOCK
  5
77
330
76
100
AcDbEntity
  8
0
100
AcDbBlockBegin
  2
_rahmen
 70
     0
 10
126.7431072854663
 20
-45.79362749516849
 30
0.0
  3
_rahmen
  1

  0
LINE
  5
B6
330
76
100
AcDbEntity
  8
1
  6
Continuous
 62
     6
100
AcDbLine
 10
58.40977395213291
 20
-40.79362749516849
 30
0.0
 11
126.7431072854663
 21
-40.79362749516901
 31
0.0
  0
LINE
  5
B7
330
76
100
AcDbEntity
  8
1
  6
Continuous
 62
     6
100
AcDbLine
 10
126.7431072854659
 20
-32.29362749516906
 30
0.0
 11
126.7431072854663
 21
-23.79362749516906
 31
0.0
  0
LINE
  5
B8
330
76
100
AcDbEntity
  8
1
  6
Continuous
 62
     6
100
AcDbLine
 10
126.7431072854663
 20
-23.79362749516906
 30
0.0
 11
126.7431072854654
 21
-19.54362749516906
 31
0.0
  0
LINE
  5
B9
330
76
100
AcDbEntity
  8
1
  6
Continuous
 62
     6
100
AcDbLine
 10
126.7431072854654
 20
-19.54362749516906
 30
0.0
 11
126.7431072854663
 21
16.60637250483163
 31
0.0
  0
LINE
  5
BA
330
76
100
AcDbEntity
  8
1
  6
Continuous
 62
     2
100
AcDbLine
 10
-78.25689271453368
 20
-45.79362749516849
 30
0.0
 11
-146.5902260478668
 21
-45.79362749516849
 31
0.0
  0
LINE
  5
BB
330
76
100
AcDbEntity
  8
1
  6
Continuous
 62
     2
100
AcDbLine
 10
58.40977395213291
 20
-45.79362749516849
 30
0.0
 11
126.7431072854663
 21
-45.79362749516849
 31
0.0
  0
LINE
  5
BC
330
76
100
AcDbEntity
  8
1
  6
Continuous
 62
     2
100
AcDbLine
 10
58.40977395213291
 20
-45.79362749516849
 30
0.0
 11
58.40977395213291
 21
-40.79362749516849
 31
0.0
  0
LINE
  5
BD
330
76
100
AcDbEntity
  8
1
  6
Continuous
 62
     2
100
AcDbLine
 10
-9.92355938120028
 20
-45.79362749516849
 30
0.0
 11
-9.92355938120028
 21
-40.79362749517139
 31
0.0
  0
LINE
  5
BE
330
76
100
AcDbEntity
  8
1
  6
Continuous
 62
     2
100
AcDbLine
 10
-78.25689271453368
 20
-45.79362749516849
 30
0.0
 11
-78.25689271453368
 21
-40.79362749516849
 31
0.0
  0
LINE
  5
BF
330
76
100
AcDbEntity
  8
1
  6
Continuous
 62
     2
100
AcDbLine
 10
131.7431072854638
 20
16.60637250483163
 30
0.0
 11
131.7431072854638
 21
74.00637250483172
 31
0.0
  0
LINE
  5
C0
330
76
100
AcDbEntity
  8
1
  6
Continuous
 62
     2
100
AcDbLine
 10
131.7431072854638
 20
16.60637250483163
 30
0.0
 11
126.7431072854663
 21
16.60637250483163
 31
0.0
  0
LINE
  5
C1
330
76
100
AcDbEntity
  8
1
  6
Continuous
 62
     2
100
AcDbLine
 10
-268.2568927145344
 20
-45.79362749516849
 30
0.0
 11
-288.2568927145345
 21
-45.79362749516849
 31
0.0
  0
LINE
  5
C2
330
76
100
AcDbEntity
  8
1
  6
Continuous
 62
     2
100
AcDbLine
 10
-214.9235593812003
 20
-45.79362749516849
 30
0.0
 11
-214.9235593812003
 21
-40.79362749516849
 31
0.0
  0
LINE
  5
C3
330
76
100
AcDbEntity
  8
1
  6
Continuous
 62
     2
100
AcDbLine
 10
-214.9235593812003
 20
-45.79362749516849
 30
0.0
 11
-146.5902260478668
 21
-45.79362749516849
 31
0.0
  0
LINE
  5
C4
330
76
100
AcDbEntity
  8
1
  6
Continuous
 62
     6
100
AcDbLine
 10
-214.9235593812003
 20
-40.79362749516849
 30
0.0
 11
-146.5902260478668
 21
-40.79362749516849
 31
0.0
  0
LINE
  5
C5
330
76
100
AcDbEntity
  8
1
  6
Continuous
 62
     6
100
AcDbLine
 10
-214.9235593812003
 20
-40.79362749516849
 30
0.0
 11
-268.2568927145334
 21
-40.79362749516849
 31
0.0
  0
LINE
  5
C6
330
76
100
AcDbEntity
  8
1
  6
Continuous
 62
     2
100
AcDbLine
 10
-146.5902260478668
 20
-45.79362749516849
 30
0.0
 11
-146.5902260478668
 21
-40.79362749516849
 31
0.0
  0
LINE
  5
C7
330
76
100
AcDbEntity
  8
1
  6
Continuous
 62
     2
100
AcDbLine
 10
-268.2568927145344
 20
-45.79362749516849
 30
0.0
 11
-268.2568927145344
 21
-41.79362749516849
 31
0.0
  0
LINE
  5
C8
330
76
100
AcDbEntity
  8
1
  6
Continuous
 62
     2
100
AcDbLine
 10
-268.2568927145344
 20
-45.79362749516849
 30
0.0
 11
-214.9235593812003
 21
-45.79362749516849
 31
0.0
  0
LINE
  5
C9
330
76
100
AcDbEntity
  8
1
  6
Continuous
 62
     2
100
AcDbLine
 10
-58.25689271453649
 20
-45.79362749516849
 30
0.0
 11
-78.25689271453368
 21
-45.79362749516849
 31
0.0
  0
LINE
  5
CA
330
76
100
AcDbEntity
  8
1
  6
Continuous
 62
     2
100
AcDbLine
 10
-58.25689271453649
 20
-45.79362749516849
 30
0.0
 11
-58.25689271453649
 21
-41.79362749516849
 31
0.0
  0
LINE
  5
CB
330
76
100
AcDbEntity
  8
1
  6
Continuous
 62
     2
100
AcDbLine
 10
-58.25689271453649
 20
-45.79362749516849
 30
0.0
 11
-9.92355938120028
 21
-45.79362749516849
 31
0.0
  0
LINE
  5
CC
330
76
100
AcDbEntity
  8
1
  6
Continuous
 62
     2
100
AcDbLine
 10
-9.92355938120028
 20
-45.79362749516849
 30
0.0
 11
58.40977395213291
 21
-45.79362749516849
 31
0.0
  0
LINE
  5
CD
330
76
100
AcDbEntity
  8
1
  6
Continuous
 62
     2
100
AcDbLine
 10
131.7431072854638
 20
-45.79362749516849
 30
0.0
 11
126.7431072854663
 21
-45.79362749516849
 31
0.0
  0
LINE
  5
CE
330
76
100
AcDbEntity
  8
1
  6
Continuous
 62
     2
100
AcDbLine
 10
131.7431072854638
 20
-40.79362749516849
 30
0.0
 11
131.7431072854638
 21
-45.79362749516849
 31
0.0
  0
LINE
  5
CF
330
76
100
AcDbEntity
  8
1
  6
Continuous
 62
     2
100
AcDbLine
 10
131.7431072854638
 20
-40.79362749516849
 30
0.0
 11
131.7431072854638
 21
16.60637250483163
 31
0.0
  0
LINE
  5
D0
330
76
100
AcDbEntity
  8
1
  6
Continuous
 62
     2
100
AcDbLine
 10
131.7431072854638
 20
251.2063725048315
 30
0.0
 11
126.7431072854638
 21
251.2063725048315
 31
0.0
  0
LINE
  5
D1
330
76
100
AcDbEntity
  8
1
  6
Continuous
 62
     6
100
AcDbLine
 10
126.7431072854638
 20
246.2063725048315
 30
0.0
 11
126.7431072854643
 21
188.8063725048314
 31
0.0
  0
LINE
  5
D2
330
76
100
AcDbEntity
  8
1
  6
Continuous
 62
     2
100
AcDbLine
 10
131.7431072854638
 20
251.2063725048315
 30
0.0
 11
131.7431072854638
 21
246.2063725048315
 31
0.0
  0
LINE
  5
D3
330
76
100
AcDbEntity
  8
1
  6
Continuous
 62
     2
100
AcDbLine
 10
126.7431072854638
 20
246.2063725048315
 30
0.0
 11
126.7431072854638
 21
251.2063725048315
 31
0.0
  0
LINE
  5
D4
330
76
100
AcDbEntity
  8
1
  6
Continuous
 62
     2
100
AcDbLine
 10
126.7431072854638
 20
246.2063725048315
 30
0.0
 11
131.7431072854638
 21
246.2063725048315
 31
0.0
  0
LINE
  5
D5
330
76
100
AcDbEntity
  8
1
  6
Continuous
 62
     2
100
AcDbLine
 10
131.7431072854638
 20
246.2063725048315
 30
0.0
 11
131.7431072854638
 21
188.8063725048314
 31
0.0
  0
LINE
  5
D6
330
76
100
AcDbEntity
  8
1
  6
Continuous
 62
     2
100
AcDbLine
 10
126.7431072854643
 20
188.8063725048314
 30
0.0
 11
131.7431072854638
 21
188.8063725048314
 31
0.0
  0
LINE
  5
D7
330
76
100
AcDbEntity
  8
1
  6
Continuous
 62
     6
100
AcDbLine
 10
126.7431072854643
 20
188.8063725048314
 30
0.0
 11
126.7431072854663
 21
131.4063725048315
 31
0.0
  0
LINE
  5
D8
330
76
100
AcDbEntity
  8
1
  6
Continuous
 62
     2
100
AcDbLine
 10
131.7431072854638
 20
188.8063725048314
 30
0.0
 11
131.7431072854638
 21
131.4063725048315
 31
0.0
  0
LINE
  5
D9
330
76
100
AcDbEntity
  8
1
  6
Continuous
 62
     2
100
AcDbLine
 10
126.7431072854663
 20
131.4063725048315
 30
0.0
 11
131.7431072854638
 21
131.4063725048315
 31
0.0
  0
LINE
  5
DA
330
76
100
AcDbEntity
  8
1
  6
Continuous
 62
     6
100
AcDbLine
 10
126.7431072854663
 20
131.4063725048315
 30
0.0
 11
126.7431072854663
 21
74.00637250483172
 31
0.0
  0
LINE
  5
DB
330
76
100
AcDbEntity
  8
1
  6
Continuous
 62
     2
100
AcDbLine
 10
131.7431072854638
 20
131.4063725048315
 30
0.0
 11
131.7431072854638
 21
74.00637250483172
 31
0.0
  0
LINE
  5
DC
330
76
100
AcDbEntity
  8
1
  6
Continuous
 62
     2
100
AcDbLine
 10
126.7431072854663
 20
74.00637250483172
 30
0.0
 11
131.7431072854638
 21
74.00637250483172
 31
0.0
  0
LINE
  5
DD
330
76
100
AcDbEntity
  8
1
  6
Continuous
 62
     6
100
AcDbLine
 10
126.7431072854663
 20
74.00637250483172
 30
0.0
 11
126.7431072854663
 21
16.60637250483163
 31
0.0
  0
LINE
  5
DE
330
76
100
AcDbEntity
  8
1
  6
Continuous
 62
     6
100
AcDbLine
 10
-268.2568927145344
 20
246.2063725048317
 30
0.0
 11
-214.9235593812003
 21
246.2063725048317
 31
0.0
  0
LINE
  5
DF
330
76
100
AcDbEntity
  8
1
  6
Continuous
 62
     2
100
AcDbLine
 10
126.7431072854638
 20
251.2063725048315
 30
0.0
 11
58.40977395213291
 21
251.2063725048315
 31
0.0
  0
LINE
  5
E0
330
76
100
AcDbEntity
  8
1
  6
Continuous
 62
     2
100
AcDbLine
 10
58.40977395213291
 20
246.2063725048315
 30
0.0
 11
58.40977395213291
 21
251.2063725048315
 31
0.0
  0
LINE
  5
E1
330
76
100
AcDbEntity
  8
1
  6
Continuous
 62
     6
100
AcDbLine
 10
58.40977395213291
 20
246.2063725048315
 30
0.0
 11
126.7431072854638
 21
246.2063725048315
 31
0.0
  0
LINE
  5
E2
330
76
100
AcDbEntity
  8
1
  6
Continuous
 62
     2
100
AcDbLine
 10
58.40977395213291
 20
251.2063725048315
 30
0.0
 11
-9.92355938120028
 21
251.2063725048315
 31
0.0
  0
LINE
  5
E3
330
76
100
AcDbEntity
  8
1
  6
Continuous
 62
     2
100
AcDbLine
 10
-9.92355938120028
 20
246.2063725048315
 30
0.0
 11
-9.92355938120028
 21
251.2063725048315
 31
0.0
  0
LINE
  5
E4
330
76
100
AcDbEntity
  8
1
  6
Continuous
 62
     6
100
AcDbLine
 10
-9.92355938120028
 20
246.2063725048315
 30
0.0
 11
58.40977395213291
 21
246.2063725048315
 31
0.0
  0
LINE
  5
E5
330
76
100
AcDbEntity
  8
1
  6
Continuous
 62
     2
100
AcDbLine
 10
-9.92355938120028
 20
251.2063725048315
 30
0.0
 11
-58.25689271453649
 21
251.2063725048315
 31
0.0
  0
LINE
  5
E6
330
76
100
AcDbEntity
  8
1
  6
Continuous
 62
     2
100
AcDbLine
 10
-78.25689271453368
 20
246.2063725048315
 30
0.0
 11
-78.25689271453368
 21
251.2063725048315
 31
0.0
  0
LINE
  5
E7
330
76
100
AcDbEntity
  8
1
  6
Continuous
 62
     6
100
AcDbLine
 10
-78.25689271453368
 20
246.2063725048315
 30
0.0
 11
-9.92355938120028
 21
246.2063725048315
 31
0.0
  0
LINE
  5
E8
330
76
100
AcDbEntity
  8
1
  6
Continuous
 62
     2
100
AcDbLine
 10
-78.25689271453368
 20
251.2063725048315
 30
0.0
 11
-146.5902260478668
 21
251.2063725048315
 31
0.0
  0
LINE
  5
E9
330
76
100
AcDbEntity
  8
1
  6
Continuous
 62
     2
100
AcDbLine
 10
-146.5902260478668
 20
246.2063725048315
 30
0.0
 11
-146.5902260478668
 21
251.2063725048315
 31
0.0
  0
LINE
  5
EA
330
76
100
AcDbEntity
  8
1
  6
Continuous
 62
     6
100
AcDbLine
 10
-146.5902260478668
 20
246.2063725048315
 30
0.0
 11
-78.25689271453368
 21
246.2063725048315
 31
0.0
  0
LINE
  5
EB
330
76
100
AcDbEntity
  8
1
  6
Continuous
 62
     2
100
AcDbLine
 10
-146.5902260478668
 20
251.2063725048315
 30
0.0
 11
-214.9235593812003
 21
251.2063725048315
 31
0.0
  0
LINE
  5
EC
330
76
100
AcDbEntity
  8
1
  6
Continuous
 62
     2
100
AcDbLine
 10
-214.9235593812003
 20
246.2063725048317
 30
0.0
 11
-214.9235593812003
 21
251.2063725048315
 31
0.0
  0
LINE
  5
ED
330
76
100
AcDbEntity
  8
1
  6
Continuous
 62
     6
100
AcDbLine
 10
-214.9235593812003
 20
246.2063725048317
 30
0.0
 11
-146.5902260478668
 21
246.2063725048315
 31
0.0
  0
LINE
  5
EE
330
76
100
AcDbEntity
  8
1
  6
Continuous
 62
     2
100
AcDbLine
 10
-214.9235593812003
 20
251.2063725048315
 30
0.0
 11
-268.2568927145344
 21
251.2063725048315
 31
0.0
  0
LINE
  5
EF
330
76
100
AcDbEntity
  8
1
  6
Continuous
 62
     2
100
AcDbLine
 10
-268.2568927145344
 20
251.2063725048315
 30
0.0
 11
-268.2568927145344
 21
247.2063725048317
 31
0.0
  0
LINE
  5
F0
330
76
100
AcDbEntity
  8
1
  6
Continuous
 62
     2
100
AcDbLine
 10
-268.2568927145344
 20
251.2063725048315
 30
0.0
 11
-288.2568927145345
 21
251.2063725048315
 31
0.0
  0
LINE
  5
F1
330
76
100
AcDbEntity
  8
1
  6
Continuous
 62
     2
100
AcDbLine
 10
-58.25689271453649
 20
251.2063725048315
 30
0.0
 11
-58.25689271453649
 21
247.2063725048317
 31
0.0
  0
LINE
  5
F2
330
76
100
AcDbEntity
  8
1
  6
Continuous
 62
     2
100
AcDbLine
 10
-58.25689271453649
 20
251.2063725048315
 30
0.0
 11
-78.25689271453368
 21
251.2063725048315
 31
0.0
  0
LINE
  5
F3
330
76
100
AcDbEntity
  8
1
  6
Continuous
 62
     2
100
AcDbLine
 10
-288.2568927145345
 20
251.2063725048315
 30
0.0
 11
-288.2568927145345
 21
102.7063725048315
 31
0.0
  0
LINE
  5
F4
330
76
100
AcDbEntity
  8
1
  6
Continuous
 62
     2
100
AcDbLine
 10
-288.2568927145345
 20
102.7063725048315
 30
0.0
 11
-278.2568927145344
 21
102.7063725048315
 31
0.0
  0
LINE
  5
F5
330
76
100
AcDbEntity
  8
1
  6
Continuous
 62
     2
100
AcDbLine
 10
-288.2568927145345
 20
102.7063725048315
 30
0.0
 11
-288.2568927145345
 21
-45.79362749516849
 31
0.0
  0
LINE
  5
F6
330
76
100
AcDbEntity
  8
1
  6
Continuous
 62
     6
100
AcDbLine
 10
-268.2568927145334
 20
-40.79362749516849
 30
0.0
 11
-268.2568927145344
 21
246.2063725048317
 31
0.0
  0
LINE
  5
F7
330
76
100
AcDbEntity
  8
1
  6
Continuous
 62
     6
100
AcDbLine
 10
126.7431072854663
 20
-40.79362749516901
 30
0.0
 11
126.7431072854659
 21
-32.29362749516906
 31
0.0
  0
LINE
  5
F8
330
76
100
AcDbEntity
  8
1
  6
Continuous
 62
     6
100
AcDbLine
 10
-146.5902260478668
 20
-40.79362749516849
 30
0.0
 11
-2.80169724128359
 21
-40.79362749517156
 31
0.0
  0
LINE
  5
F9
330
76
100
AcDbEntity
  8
1
  6
Continuous
 62
     2
100
AcDbLine
 10
-9.92355938120028
 20
-40.79362749517139
 30
0.0
 11
-9.92355938120028
 21
-40.79362749516849
 31
0.0
  0
LINE
  5
FA
330
76
100
AcDbEntity
  8
1
  6
Continuous
 62
     6
100
AcDbLine
 10
126.7431072854681
 20
-23.79362749516906
 30
0.0
 11
126.7431072854681
 21
-15.29362749516906
 31
0.0
  0
LINE
  5
FB
330
76
100
AcDbEntity
  8
1
  6
Continuous
 62
     7
100
AcDbLine
 10
61.49830275871632
 20
-32.29362749516906
 30
0.0
 11
61.49830275871632
 21
-23.79362749516906
 31
0.0
  0
LINE
  5
FC
330
76
100
AcDbEntity
  8
1
  6
Continuous
 62
     6
100
AcDbLine
 10
33.59830275871633
 20
-23.79362749516906
 30
0.0
 11
126.7431072854681
 21
-23.79362749516906
 31
0.0
  0
LINE
  5
FD
330
76
100
AcDbEntity
  8
1
  6
Continuous
 62
     7
100
AcDbLine
 10
-2.80169724128359
 20
-23.79362749516906
 30
0.0
 11
-2.80169724128359
 21
-15.29362749516906
 31
0.0
  0
LINE
  5
FE
330
76
100
AcDbEntity
  8
1
  6
Continuous
 62
     7
100
AcDbLine
 10
33.59830275871633
 20
-23.79362749516906
 30
0.0
 11
33.59830275871633
 21
-15.29362749516906
 31
0.0
  0
LINE
  5
FF
330
76
100
AcDbEntity
  8
1
  6
Continuous
 62
     7
100
AcDbLine
 10
91.32469900378929
 20
-15.29362749516906
 30
0.0
 11
91.32469900378929
 21
-23.79362749516906
 31
0.0
  0
LINE
  5
100
330
76
100
AcDbEntity
  8
1
  6
Continuous
 62
     7
100
AcDbLine
 10
117.8246990037889
 20
-15.29362749516906
 30
0.0
 11
117.8246990037889
 21
-23.79362749516906
 31
0.0
  0
LINE
  5
101
330
76
100
AcDbEntity
  8
1
  6
Continuous
 62
     7
100
AcDbLine
 10
126.7431072854676
 20
-32.29362749516906
 30
0.0
 11
33.59830275871633
 21
-32.29362749516906
 31
0.0
  0
LINE
  5
102
102
{ACAD_REACTORS
330
1E8
330
1E9
102
}
330
76
100
AcDbEntity
  8
0
  6
Continuous
 62
     2
100
AcDbLine
 10
10.90573170048381
 20
-31.49333837950576
 30
0.0
 11
10.90573170048381
 21
-30.62082137270249
 31
0.0
  0
LINE
  5
103
102
{ACAD_REACTORS
330
1E8
330
1E9
102
}
330
76
100
AcDbEntity
  8
0
  6
Continuous
 62
     2
100
AcDbLine
 10
10.90573170048381
 20
-32.45310708698855
 30
0.0
 11
10.90573170048381
 21
-33.32562409379187
 31
0.0
  0
LINE
  5
104
102
{ACAD_REACTORS
330
1EA
330
1EB
102
}
330
76
100
AcDbEntity
  8
0
  6
Continuous
 62
     2
100
AcDbLine
 10
26.23877583677421
 20
-31.23158327746529
 30
0.0
 11
27.34241513634231
 21
-31.23158327746529
 31
0.0
  0
LINE
  5
105
102
{ACAD_REACTORS
330
1EA
330
1EB
102
}
330
76
100
AcDbEntity
  8
0
  6
Continuous
 62
     2
100
AcDbLine
 10
27.00843317973562
 20
-32.45310708698906
 30
0.0
 11
27.00843317973562
 21
-33.32562409379239
 31
0.0
  0
LINE
  5
106
102
{ACAD_REACTORS
330
1F4
330
1F5
102
}
330
76
100
AcDbEntity
  8
0
  6
Continuous
 62
     2
100
AcDbLine
 10
25.14767656435581
 20
-30.14093701897838
 30
0.0
 11
26.54562961129611
 21
-28.5600780252035
 31
0.0
  0
LINE
  5
107
102
{ACAD_REACTORS
330
1F4
330
1F5
102
}
330
76
100
AcDbEntity
  8
0
  6
Continuous
 62
     2
100
AcDbLine
 10
25.24309998052863
 20
-27.08712749516729
 30
0.0
 11
26.54562961129611
 21
-28.5600780252035
 31
0.0
  0
LINE
  5
108
102
{ACAD_REACTORS
330
1F4
330
1F5
102
}
330
76
100
AcDbEntity
  8
0
  6
Continuous
 62
     2
100
AcDbLine
 10
27.84815924206251
 20
-27.08712749516729
 30
0.0
 11
29.25088345980973
 21
-27.08712749516729
 31
0.0
  0
LINE
  5
109
102
{ACAD_REACTORS
330
1F4
330
1F5
102
}
330
76
100
AcDbEntity
  8
0
  6
Continuous
 62
     2
100
AcDbLine
 10
26.55040078210391
 20
-30.14093701897838
 30
0.0
 11
27.24699172016972
 21
-29.35320523368466
 31
0.0
  0
LINE
  5
10A
102
{ACAD_REACTORS
330
1F4
330
1F5
102
}
330
76
100
AcDbEntity
  8
0
  6
Continuous
 62
     2
100
AcDbLine
 10
26.55040078210391
 20
-30.14093701897838
 30
0.0
 11
25.14767656435581
 21
-30.14093701897838
 31
0.0
  0
LINE
  5
10B
102
{ACAD_REACTORS
330
1F6
330
1F7
102
}
330
76
100
AcDbEntity
  8
0
  6
Continuous
 62
     2
100
AcDbLine
 10
25.02839729413893
 20
-30.14093701897838
 30
0.0
 11
23.787892883886
 21
-30.14093701897838
 31
0.0
  0
LINE
  5
10C
102
{ACAD_REACTORS
330
1F8
330
1F9
102
}
330
76
100
AcDbEntity
  8
0
  6
Continuous
 62
     2
100
AcDbLine
 10
22.91991327573092
 20
-32.2786036856283
 30
0.0
 11
22.61974803854071
 21
-31.5107887196416
 31
0.0
  0
LINE
  5
10D
102
{ACAD_REACTORS
330
1F8
330
1F9
102
}
330
76
100
AcDbEntity
  8
0
  6
Continuous
 62
     2
100
AcDbLine
 10
22.31958280134842
 20
-32.2786036856283
 30
0.0
 11
22.91991327573092
 21
-32.2786036856283
 31
0.0
  0
LINE
  5
10E
102
{ACAD_REACTORS
330
1F8
330
1F9
102
}
330
76
100
AcDbEntity
  8
0
  6
Continuous
 62
     2
100
AcDbLine
 10
20.60154278647462
 20
-33.5001274951527
 30
0.0
 11
21.84204719672752
 21
-33.5001274951527
 31
0.0
  0
LINE
  5
10F
102
{ACAD_REACTORS
330
1F8
330
1F9
102
}
330
76
100
AcDbEntity
  8
0
  6
Continuous
 62
     2
100
AcDbLine
 10
21.99949583341382
 20
-30.44631797134156
 30
0.0
 11
23.24000024366663
 21
-30.44631797134156
 31
0.0
  0
LINE
  5
110
102
{ACAD_REACTORS
330
1F8
330
1F9
102
}
330
76
100
AcDbEntity
  8
0
  6
Continuous
 62
     2
100
AcDbLine
 10
23.24000024366663
 20
-30.44631797134156
 30
0.0
 11
24.6379532906069
 21
-33.5001274951527
 31
0.0
  0
LINE
  5
111
102
{ACAD_REACTORS
330
1F8
330
1F9
102
}
330
76
100
AcDbEntity
  8
0
  6
Continuous
 62
     2
100
AcDbLine
 10
23.39744888035301
 20
-33.5001274951527
 30
0.0
 11
23.18596882687723
 21
-32.9591669509349
 31
0.0
  0
LINE
  5
112
102
{ACAD_REACTORS
330
1FA
330
1FB
102
}
330
76
100
AcDbEntity
  8
0
  6
Continuous
 62
     2
100
AcDbLine
 10
19.25512968476701
 20
-33.5001274951527
 30
0.0
 11
20.44792238693341
 21
-33.5001274951527
 31
0.0
  0
LINE
  5
113
102
{ACAD_REACTORS
330
1FA
330
1FB
102
}
330
76
100
AcDbEntity
  8
0
  6
Continuous
 62
     2
100
AcDbLine
 10
19.25512968476701
 20
-31.23158327746529
 30
0.0
 11
19.25512968476701
 21
-33.5001274951527
 31
0.0
  0
LINE
  5
114
102
{ACAD_REACTORS
330
1FA
330
1FB
102
}
330
76
100
AcDbEntity
  8
0
  6
Continuous
 62
     2
100
AcDbLine
 10
18.44403064729232
 20
-30.44631797134156
 30
0.0
 11
18.44403064729232
 21
-31.23158327746529
 31
0.0
  0
LINE
  5
115
102
{ACAD_REACTORS
330
1FC
330
1FD
102
}
330
76
100
AcDbEntity
  8
0
  6
Continuous
 62
     2
100
AcDbLine
 10
19.92324452886501
 20
-30.14093701897838
 30
0.0
 11
21.11603723103141
 21
-30.14093701897838
 31
0.0
  0
LINE
  5
116
102
{ACAD_REACTORS
330
1FC
330
1FD
102
}
330
76
100
AcDbEntity
  8
0
  6
Continuous
 62
     2
100
AcDbLine
 10
22.3565416412855
 20
-28.39590300537236
 30
0.0
 11
21.11603723103141
 21
-27.08712749516729
 31
0.0
  0
LINE
  5
117
102
{ACAD_REACTORS
330
1FC
330
1FD
102
}
330
76
100
AcDbEntity
  8
0
  6
Continuous
 62
     2
100
AcDbLine
 10
23.5493343434521
 20
-27.08712749516729
 30
0.0
 11
22.3565416412855
 21
-27.08712749516729
 31
0.0
  0
LINE
  5
118
102
{ACAD_REACTORS
330
1FC
330
1FD
102
}
330
76
100
AcDbEntity
  8
0
  6
Continuous
 62
     2
100
AcDbLine
 10
23.5493343434521
 20
-30.14093701897838
 30
0.0
 11
23.5493343434521
 21
-27.08712749516729
 31
0.0
  0
LINE
  5
119
102
{ACAD_REACTORS
330
1FC
330
1FD
102
}
330
76
100
AcDbEntity
  8
0
  6
Continuous
 62
     2
100
AcDbLine
 10
22.3565416412855
 20
-30.14093701897838
 30
0.0
 11
23.5493343434521
 21
-30.14093701897838
 31
0.0
  0
LINE
  5
11A
102
{ACAD_REACTORS
330
1FC
330
1FD
102
}
330
76
100
AcDbEntity
  8
0
  6
Continuous
 62
     2
100
AcDbLine
 10
21.11603723103141
 20
-28.83216150877365
 30
0.0
 11
22.3565416412855
 21
-30.14093701897838
 31
0.0
  0
LINE
  5
11B
102
{ACAD_REACTORS
330
1FE
330
1FF
102
}
330
76
100
AcDbEntity
  8
0
  6
Continuous
 62
     2
100
AcDbLine
 10
17.10810282086581
 20
-31.75509348154679
 30
0.0
 11
15.86759841061283
 21
-30.44631797134156
 31
0.0
  0
LINE
  5
11C
102
{ACAD_REACTORS
330
1FE
330
1FF
102
}
330
76
100
AcDbEntity
  8
0
  6
Continuous
 62
     2
100
AcDbLine
 10
17.10810282086581
 20
-30.44631797134156
 30
0.0
 11
17.10810282086581
 21
-31.75509348154679
 31
0.0
  0
LINE
  5
11D
102
{ACAD_REACTORS
330
1FE
330
1FF
102
}
330
76
100
AcDbEntity
  8
0
  6
Continuous
 62
     2
100
AcDbLine
 10
18.30089552303221
 20
-30.44631797134156
 30
0.0
 11
17.10810282086581
 21
-30.44631797134156
 31
0.0
  0
LINE
  5
11E
102
{ACAD_REACTORS
330
1FE
330
1FF
102
}
330
76
100
AcDbEntity
  8
0
  6
Continuous
 62
     2
100
AcDbLine
 10
18.30089552303221
 20
-33.5001274951527
 30
0.0
 11
18.30089552303221
 21
-30.44631797134156
 31
0.0
  0
LINE
  5
11F
102
{ACAD_REACTORS
330
1FE
330
1FF
102
}
330
76
100
AcDbEntity
  8
0
  6
Continuous
 62
     2
100
AcDbLine
 10
15.86759841061283
 20
-32.1913519849482
 30
0.0
 11
17.10810282086581
 21
-33.5001274951527
 31
0.0
  0
LINE
  5
120
102
{ACAD_REACTORS
330
1FE
330
1FF
102
}
330
76
100
AcDbEntity
  8
0
  6
Continuous
 62
     2
100
AcDbLine
 10
15.86759841061283
 20
-33.5001274951527
 30
0.0
 11
15.86759841061283
 21
-32.1913519849482
 31
0.0
  0
LINE
  5
121
102
{ACAD_REACTORS
330
1EE
330
1EF
102
}
330
76
100
AcDbEntity
  8
0
  6
Continuous
 62
     2
100
AcDbLine
 10
18.3487581620044
 20
-27.78514110061019
 30
0.0
 11
19.68468598843202
 21
-27.78514110061019
 31
0.0
  0
LINE
  5
122
102
{ACAD_REACTORS
330
1EE
330
1EF
102
}
330
76
100
AcDbEntity
  8
0
  6
Continuous
 62
     2
100
AcDbLine
 10
18.3487581620044
 20
-29.44292341353599
 30
0.0
 11
18.3487581620044
 21
-28.96303905979426
 31
0.0
  0
LINE
  5
123
102
{ACAD_REACTORS
330
1EE
330
1EF
102
}
330
76
100
AcDbEntity
  8
0
  6
Continuous
 62
     2
100
AcDbLine
 10
19.68468598843202
 20
-29.44292341353599
 30
0.0
 11
18.3487581620044
 21
-29.44292341353599
 31
0.0
  0
LINE
  5
124
102
{ACAD_REACTORS
330
1EE
330
1EF
102
}
330
76
100
AcDbEntity
  8
0
  6
Continuous
 62
     2
100
AcDbLine
 10
19.68468598843202
 20
-30.14093701897838
 30
0.0
 11
19.68468598843202
 21
-29.44292341353599
 31
0.0
  0
LINE
  5
125
102
{ACAD_REACTORS
330
1EE
330
1EF
102
}
330
76
100
AcDbEntity
  8
0
  6
Continuous
 62
     2
100
AcDbLine
 10
16.53436626465111
 20
-30.14093701897838
 30
0.0
 11
19.68468598843202
 21
-30.14093701897838
 31
0.0
  0
LINE
  5
126
102
{ACAD_REACTORS
330
1EE
330
1EF
102
}
330
76
100
AcDbEntity
  8
0
  6
Continuous
 62
     2
100
AcDbLine
 10
16.53436626465111
 20
-27.08712749516729
 30
0.0
 11
19.68468598843202
 21
-27.08712749516729
 31
0.0
  0
LINE
  5
127
102
{ACAD_REACTORS
330
1EE
330
1EF
102
}
330
76
100
AcDbEntity
  8
0
  6
Continuous
 62
     2
100
AcDbLine
 10
19.68468598843202
 20
-27.78514110061019
 30
0.0
 11
19.68468598843202
 21
-27.08712749516729
 31
0.0
  0
LINE
  5
128
102
{ACAD_REACTORS
330
200
330
201
102
}
330
76
100
AcDbEntity
  8
0
  6
Continuous
 62
     2
100
AcDbLine
 10
13.67301076951102
 20
-28.15596082850186
 30
0.0
 11
13.67301076951102
 21
-27.08712749516729
 31
0.0
  0
LINE
  5
129
102
{ACAD_REACTORS
330
200
330
201
102
}
330
76
100
AcDbEntity
  8
0
  6
Continuous
 62
     2
100
AcDbLine
 10
13.67301076951102
 20
-27.08712749516729
 30
0.0
 11
14.86580347167751
 21
-27.08712749516729
 31
0.0
  0
LINE
  5
12A
102
{ACAD_REACTORS
330
200
330
201
102
}
330
76
100
AcDbEntity
  8
0
  6
Continuous
 62
     2
100
AcDbLine
 10
13.67301076951102
 20
-29.0066649101347
 30
0.0
 11
12.62335319160363
 21
-29.0066649101347
 31
0.0
  0
LINE
  5
12B
102
{ACAD_REACTORS
330
200
330
201
102
}
330
76
100
AcDbEntity
  8
0
  6
Continuous
 62
     2
100
AcDbLine
 10
12.62335319160363
 20
-29.0066649101347
 30
0.0
 11
12.62335319160363
 21
-30.14093701897838
 31
0.0
  0
LINE
  5
12C
102
{ACAD_REACTORS
330
200
330
201
102
}
330
76
100
AcDbEntity
  8
0
  6
Continuous
 62
     2
100
AcDbLine
 10
11.43056048943703
 20
-27.08712749516729
 30
0.0
 11
11.43056048943703
 21
-30.14093701897838
 31
0.0
  0
LINE
  5
12D
102
{ACAD_REACTORS
330
1F2
330
1F3
102
}
330
76
100
AcDbEntity
  8
0
  6
Continuous
 62
     2
100
AcDbLine
 10
9.47438045788331
 20
-28.45596098994957
 30
0.0
 11
9.47438045788331
 21
-27.75023334060728
 31
0.0
  0
LINE
  5
12E
102
{ACAD_REACTORS
330
1F2
330
1F3
102
}
330
76
100
AcDbEntity
  8
0
  6
Continuous
 62
     2
100
AcDbLine
 10
8.23387604762931
 20
-30.14093701897838
 30
0.0
 11
9.47438045788331
 21
-30.14093701897838
 31
0.0
  0
LINE
  5
12F
102
{ACAD_REACTORS
330
1F2
330
1F3
102
}
330
76
100
AcDbEntity
  8
0
  6
Continuous
 62
     2
100
AcDbLine
 10
9.47438045788331
 20
-30.14093701897838
 30
0.0
 11
9.47438045788331
 21
-29.19785877783465
 31
0.0
  0
LINE
  5
130
102
{ACAD_REACTORS
330
1EC
330
1ED
102
}
330
76
100
AcDbEntity
  8
0
  6
Continuous
 62
     2
100
AcDbLine
 10
3.92893019841782
 20
-32.78757193959581
 30
0.0
 11
2.45309693740822
 21
-32.78757193959581
 31
0.0
  0
LINE
  5
131
102
{ACAD_REACTORS
330
1EC
330
1ED
102
}
330
76
100
AcDbEntity
  8
0
  6
Continuous
 62
     2
100
AcDbLine
 10
1.43495764527893
 20
-27.51137211056926
 30
0.0
 11
1.43495764527893
 21
-33.0758828797695
 31
0.0
  0
LINE
  5
132
102
{ACAD_REACTORS
330
1EC
330
1ED
102
}
330
76
100
AcDbEntity
  8
0
  6
Continuous
 62
     2
100
AcDbLine
 10
1.8592022606617
 20
-27.08712749518537
 30
0.0
 11
7.33251435137862
 21
-27.08712749518537
 31
0.0
  0
LINE
  5
133
102
{ACAD_REACTORS
330
1EC
330
1ED
102
}
330
76
100
AcDbEntity
  8
0
  6
Continuous
 62
     2
100
AcDbLine
 10
7.7567589667625
 20
-27.51137211056926
 30
0.0
 11
7.7567589667625
 21
-33.0758828797695
 31
0.0
  0
LINE
  5
134
102
{ACAD_REACTORS
330
1EC
330
1ED
102
}
330
76
100
AcDbEntity
  8
0
  6
Continuous
 62
     2
100
AcDbLine
 10
7.33251435137862
 20
-33.5001274951527
 30
0.0
 11
1.8592022606617
 21
-33.5001274951527
 31
0.0
  0
LINE
  5
135
102
{ACAD_REACTORS
330
1EC
330
1ED
102
}
330
76
100
AcDbEntity
  8
0
  6
Continuous
 62
     2
100
AcDbLine
 10
4.24464712149441
 20
-32.4718550165191
 30
0.0
 11
4.24464712149441
 21
-30.94108408498749
 31
0.0
  0
LINE
  5
136
102
{ACAD_REACTORS
330
1EC
330
1ED
102
}
330
76
100
AcDbEntity
  8
0
  6
Continuous
 62
     2
100
AcDbLine
 10
4.24464712149441
 20
-28.7194245928626
 30
0.0
 11
4.24464712149441
 21
-28.11539997380197
 31
0.0
  0
LINE
  5
137
102
{ACAD_REACTORS
330
1EC
330
1ED
102
}
330
76
100
AcDbEntity
  8
0
  6
Continuous
 62
     2
100
AcDbLine
 10
2.45309693740822
 20
-27.79968305072589
 30
0.0
 11
3.92893019841782
 21
-27.79968305072589
 31
0.0
  0
LINE
  5
138
102
{ACAD_REACTORS
330
1EC
330
1ED
102
}
330
76
100
AcDbEntity
  8
0
  6
Continuous
 62
     2
100
AcDbLine
 10
2.13738001433262
 20
-28.11539997380197
 30
0.0
 11
2.13738001433262
 21
-32.4718550165191
 31
0.0
  0
LINE
  5
139
102
{ACAD_REACTORS
330
1F2
330
1F3
102
}
330
76
100
AcDbEntity
  8
0
  6
Continuous
 62
     2
100
AcDbLine
 10
9.47438045788331
 20
-29.19785877783465
 30
0.0
 11
10.23314804566371
 21
-29.19785877783465
 31
0.0
  0
LINE
  5
13A
102
{ACAD_REACTORS
330
1F2
330
1F3
102
}
330
76
100
AcDbEntity
  8
0
  6
Continuous
 62
     2
100
AcDbLine
 10
8.23387604762931
 20
-27.08712749516729
 30
0.0
 11
10.23314804566371
 21
-27.08712749516729
 31
0.0
  0
LINE
  5
13B
102
{ACAD_REACTORS
330
1F2
330
1F3
102
}
330
76
100
AcDbEntity
  8
0
  6
Continuous
 62
     2
100
AcDbLine
 10
8.23387604762931
 20
-27.08712749516729
 30
0.0
 11
8.23387604762931
 21
-30.14093701897838
 31
0.0
  0
LINE
  5
13C
102
{ACAD_REACTORS
330
1F2
330
1F3
102
}
330
76
100
AcDbEntity
  8
0
  6
Continuous
 62
     2
100
AcDbLine
 10
9.47438045788331
 20
-28.45596098994957
 30
0.0
 11
9.79167551942533
 21
-28.45596098994957
 31
0.0
  0
LINE
  5
13D
102
{ACAD_REACTORS
330
1F2
330
1F3
102
}
330
76
100
AcDbEntity
  8
0
  6
Continuous
 62
     2
100
AcDbLine
 10
9.47438045788331
 20
-27.75023334060728
 30
0.0
 11
9.79167551942533
 21
-27.75023334060728
 31
0.0
  0
LINE
  5
13E
102
{ACAD_REACTORS
330
200
330
201
102
}
330
76
100
AcDbEntity
  8
0
  6
Continuous
 62
     2
100
AcDbLine
 10
12.62335319160363
 20
-28.15596082850186
 30
0.0
 11
13.67301076951102
 21
-28.15596082850186
 31
0.0
  0
LINE
  5
13F
102
{ACAD_REACTORS
330
200
330
201
102
}
330
76
100
AcDbEntity
  8
0
  6
Continuous
 62
     2
100
AcDbLine
 10
12.62335319160363
 20
-27.08712749516729
 30
0.0
 11
12.62335319160363
 21
-28.15596082850186
 31
0.0
  0
LINE
  5
140
102
{ACAD_REACTORS
330
200
330
201
102
}
330
76
100
AcDbEntity
  8
0
  6
Continuous
 62
     2
100
AcDbLine
 10
11.43056048943703
 20
-27.08712749516729
 30
0.0
 11
12.62335319160363
 21
-27.08712749516729
 31
0.0
  0
LINE
  5
141
102
{ACAD_REACTORS
330
200
330
201
102
}
330
76
100
AcDbEntity
  8
0
  6
Continuous
 62
     2
100
AcDbLine
 10
12.62335319160363
 20
-30.14093701897838
 30
0.0
 11
11.43056048943703
 21
-30.14093701897838
 31
0.0
  0
LINE
  5
142
102
{ACAD_REACTORS
330
200
330
201
102
}
330
76
100
AcDbEntity
  8
0
  6
Continuous
 62
     2
100
AcDbLine
 10
13.67301076951102
 20
-30.14093701897838
 30
0.0
 11
13.67301076951102
 21
-29.0066649101347
 31
0.0
  0
LINE
  5
143
102
{ACAD_REACTORS
330
200
330
201
102
}
330
76
100
AcDbEntity
  8
0
  6
Continuous
 62
     2
100
AcDbLine
 10
14.86580347167751
 20
-30.14093701897838
 30
0.0
 11
13.67301076951102
 21
-30.14093701897838
 31
0.0
  0
LINE
  5
144
102
{ACAD_REACTORS
330
200
330
201
102
}
330
76
100
AcDbEntity
  8
0
  6
Continuous
 62
     2
100
AcDbLine
 10
14.86580347167751
 20
-27.08712749516729
 30
0.0
 11
14.86580347167751
 21
-30.14093701897838
 31
0.0
  0
LINE
  5
145
102
{ACAD_REACTORS
330
1EE
330
1EF
102
}
330
76
100
AcDbEntity
  8
0
  6
Continuous
 62
     2
100
AcDbLine
 10
18.3487581620044
 20
-28.96303905979426
 30
0.0
 11
19.68468598843202
 21
-28.96303905979426
 31
0.0
  0
LINE
  5
146
102
{ACAD_REACTORS
330
1EE
330
1EF
102
}
330
76
100
AcDbEntity
  8
0
  6
Continuous
 62
     2
100
AcDbLine
 10
19.68468598843202
 20
-28.96303905979426
 30
0.0
 11
19.68468598843202
 21
-28.26502545435187
 31
0.0
  0
LINE
  5
147
102
{ACAD_REACTORS
330
1EE
330
1EF
102
}
330
76
100
AcDbEntity
  8
0
  6
Continuous
 62
     2
100
AcDbLine
 10
19.68468598843202
 20
-28.26502545435187
 30
0.0
 11
18.3487581620044
 21
-28.26502545435187
 31
0.0
  0
LINE
  5
148
102
{ACAD_REACTORS
330
1EE
330
1EF
102
}
330
76
100
AcDbEntity
  8
0
  6
Continuous
 62
     2
100
AcDbLine
 10
18.3487581620044
 20
-28.26502545435187
 30
0.0
 11
18.3487581620044
 21
-27.78514110061019
 31
0.0
  0
LINE
  5
149
102
{ACAD_REACTORS
330
1FE
330
1FF
102
}
330
76
100
AcDbEntity
  8
0
  6
Continuous
 62
     2
100
AcDbLine
 10
14.67480570844532
 20
-33.5001274951527
 30
0.0
 11
15.86759841061283
 21
-33.5001274951527
 31
0.0
  0
LINE
  5
14A
102
{ACAD_REACTORS
330
1FE
330
1FF
102
}
330
76
100
AcDbEntity
  8
0
  6
Continuous
 62
     2
100
AcDbLine
 10
17.10810282086581
 20
-33.5001274951527
 30
0.0
 11
18.30089552303221
 21
-33.5001274951527
 31
0.0
  0
LINE
  5
14B
102
{ACAD_REACTORS
330
1FE
330
1FF
102
}
330
76
100
AcDbEntity
  8
0
  6
Continuous
 62
     2
100
AcDbLine
 10
15.86759841061283
 20
-30.44631797134156
 30
0.0
 11
14.67480570844532
 21
-30.44631797134156
 31
0.0
  0
LINE
  5
14C
102
{ACAD_REACTORS
330
1FE
330
1FF
102
}
330
76
100
AcDbEntity
  8
0
  6
Continuous
 62
     2
100
AcDbLine
 10
14.67480570844532
 20
-30.44631797134156
 30
0.0
 11
14.67480570844532
 21
-33.5001274951527
 31
0.0
  0
LINE
  5
14D
102
{ACAD_REACTORS
330
1FC
330
1FD
102
}
330
76
100
AcDbEntity
  8
0
  6
Continuous
 62
     2
100
AcDbLine
 10
22.3565416412855
 20
-27.08712749516729
 30
0.0
 11
22.3565416412855
 21
-28.39590300537236
 31
0.0
  0
LINE
  5
14E
102
{ACAD_REACTORS
330
1FC
330
1FD
102
}
330
76
100
AcDbEntity
  8
0
  6
Continuous
 62
     2
100
AcDbLine
 10
21.11603723103141
 20
-27.08712749516729
 30
0.0
 11
19.92324452886501
 21
-27.08712749516729
 31
0.0
  0
LINE
  5
14F
102
{ACAD_REACTORS
330
1FC
330
1FD
102
}
330
76
100
AcDbEntity
  8
0
  6
Continuous
 62
     2
100
AcDbLine
 10
19.92324452886501
 20
-27.08712749516729
 30
0.0
 11
19.92324452886501
 21
-30.14093701897838
 31
0.0
  0
LINE
  5
150
102
{ACAD_REACTORS
330
1FC
330
1FD
102
}
330
76
100
AcDbEntity
  8
0
  6
Continuous
 62
     2
100
AcDbLine
 10
21.11603723103141
 20
-30.14093701897838
 30
0.0
 11
21.11603723103141
 21
-28.83216150877365
 31
0.0
  0
LINE
  5
151
102
{ACAD_REACTORS
330
1FA
330
1FB
102
}
330
76
100
AcDbEntity
  8
0
  6
Continuous
 62
     2
100
AcDbLine
 10
20.44792238693341
 20
-33.5001274951527
 30
0.0
 11
20.44792238693341
 21
-31.23158327746529
 31
0.0
  0
LINE
  5
152
102
{ACAD_REACTORS
330
1FA
330
1FB
102
}
330
76
100
AcDbEntity
  8
0
  6
Continuous
 62
     2
100
AcDbLine
 10
20.44792238693341
 20
-31.23158327746529
 30
0.0
 11
21.25902142440603
 21
-31.23158327746529
 31
0.0
  0
LINE
  5
153
102
{ACAD_REACTORS
330
1FA
330
1FB
102
}
330
76
100
AcDbEntity
  8
0
  6
Continuous
 62
     2
100
AcDbLine
 10
21.25902142440603
 20
-31.23158327746529
 30
0.0
 11
21.25902142440603
 21
-30.44631797134156
 31
0.0
  0
LINE
  5
154
102
{ACAD_REACTORS
330
1FA
330
1FB
102
}
330
76
100
AcDbEntity
  8
0
  6
Continuous
 62
     2
100
AcDbLine
 10
21.25902142440603
 20
-30.44631797134156
 30
0.0
 11
18.44403064729232
 21
-30.44631797134156
 31
0.0
  0
LINE
  5
155
102
{ACAD_REACTORS
330
1FA
330
1FB
102
}
330
76
100
AcDbEntity
  8
0
  6
Continuous
 62
     2
100
AcDbLine
 10
18.44403064729232
 20
-31.23158327746529
 30
0.0
 11
19.25512968476701
 21
-31.23158327746529
 31
0.0
  0
LINE
  5
156
102
{ACAD_REACTORS
330
1F8
330
1F9
102
}
330
76
100
AcDbEntity
  8
0
  6
Continuous
 62
     2
100
AcDbLine
 10
22.0535272502033
 20
-32.9591669509349
 30
0.0
 11
23.18596882687723
 21
-32.9591669509349
 31
0.0
  0
LINE
  5
157
102
{ACAD_REACTORS
330
1F8
330
1F9
102
}
330
76
100
AcDbEntity
  8
0
  6
Continuous
 62
     2
100
AcDbLine
 10
24.6379532906069
 20
-33.5001274951527
 30
0.0
 11
23.39744888035301
 21
-33.5001274951527
 31
0.0
  0
LINE
  5
158
102
{ACAD_REACTORS
330
1F8
330
1F9
102
}
330
76
100
AcDbEntity
  8
0
  6
Continuous
 62
     2
100
AcDbLine
 10
21.99949583341382
 20
-30.44631797134156
 30
0.0
 11
20.60154278647462
 21
-33.5001274951527
 31
0.0
  0
LINE
  5
159
102
{ACAD_REACTORS
330
1F8
330
1F9
102
}
330
76
100
AcDbEntity
  8
0
  6
Continuous
 62
     2
100
AcDbLine
 10
21.84204719672752
 20
-33.5001274951527
 30
0.0
 11
22.0535272502033
 21
-32.9591669509349
 31
0.0
  0
LINE
  5
15A
102
{ACAD_REACTORS
330
1F8
330
1F9
102
}
330
76
100
AcDbEntity
  8
0
  6
Continuous
 62
     2
100
AcDbLine
 10
22.31958280134842
 20
-32.2786036856283
 30
0.0
 11
22.61974803854071
 21
-31.5107887196416
 31
0.0
  0
LINE
  5
15B
102
{ACAD_REACTORS
330
1F6
330
1F7
102
}
330
76
100
AcDbEntity
  8
0
  6
Continuous
 62
     2
100
AcDbLine
 10
23.787892883886
 20
-30.14093701897838
 30
0.0
 11
23.787892883886
 21
-27.08712749516729
 31
0.0
  0
LINE
  5
15C
102
{ACAD_REACTORS
330
1F6
330
1F7
102
}
330
76
100
AcDbEntity
  8
0
  6
Continuous
 62
     2
100
AcDbLine
 10
25.02839729413893
 20
-27.08712749516729
 30
0.0
 11
25.02839729413893
 21
-30.14093701897838
 31
0.0
  0
LINE
  5
15D
102
{ACAD_REACTORS
330
1F6
330
1F7
102
}
330
76
100
AcDbEntity
  8
0
  6
Continuous
 62
     2
100
AcDbLine
 10
23.787892883886
 20
-27.08712749516729
 30
0.0
 11
25.02839729413893
 21
-27.08712749516729
 31
0.0
  0
LINE
  5
15E
102
{ACAD_REACTORS
330
1F4
330
1F5
102
}
330
76
100
AcDbEntity
  8
0
  6
Continuous
 62
     2
100
AcDbLine
 10
27.24699172016972
 20
-29.35320523368466
 30
0.0
 11
27.9435826582351
 21
-30.14093701897838
 31
0.0
  0
LINE
  5
15F
102
{ACAD_REACTORS
330
1F4
330
1F5
102
}
330
76
100
AcDbEntity
  8
0
  6
Continuous
 62
     2
100
AcDbLine
 10
27.9435826582351
 20
-30.14093701897838
 30
0.0
 11
29.3463068759834
 21
-30.14093701897838
 31
0.0
  0
LINE
  5
160
102
{ACAD_REACTORS
330
1F4
330
1F5
102
}
330
76
100
AcDbEntity
  8
0
  6
Continuous
 62
     2
100
AcDbLine
 10
27.94835382904313
 20
-28.5600780252035
 30
0.0
 11
29.3463068759834
 21
-30.14093701897838
 31
0.0
  0
LINE
  5
161
102
{ACAD_REACTORS
330
1F4
330
1F5
102
}
330
76
100
AcDbEntity
  8
0
  6
Continuous
 62
     2
100
AcDbLine
 10
27.94835382904313
 20
-28.5600780252035
 30
0.0
 11
29.25088345980973
 21
-27.08712749516729
 31
0.0
  0
LINE
  5
162
102
{ACAD_REACTORS
330
1F4
330
1F5
102
}
330
76
100
AcDbEntity
  8
0
  6
Continuous
 62
     2
100
AcDbLine
 10
27.24699172016972
 20
-27.76695081672278
 30
0.0
 11
27.84815924206251
 21
-27.08712749516729
 31
0.0
  0
LINE
  5
163
102
{ACAD_REACTORS
330
1F4
330
1F5
102
}
330
76
100
AcDbEntity
  8
0
  6
Continuous
 62
     2
100
AcDbLine
 10
26.64582419827781
 20
-27.08712749516729
 30
0.0
 11
27.24699172016972
 21
-27.76695081672278
 31
0.0
  0
LINE
  5
164
102
{ACAD_REACTORS
330
1F4
330
1F5
102
}
330
76
100
AcDbEntity
  8
0
  6
Continuous
 62
     2
100
AcDbLine
 10
26.64582419827781
 20
-27.08712749516729
 30
0.0
 11
25.24309998052863
 21
-27.08712749516729
 31
0.0
  0
LINE
  5
165
102
{ACAD_REACTORS
330
1EA
330
1EB
102
}
330
76
100
AcDbEntity
  8
0
  6
Continuous
 62
     2
100
AcDbLine
 10
27.34241513634231
 20
-33.5001274951527
 30
0.0
 11
28.53520783851002
 21
-33.5001274951527
 31
0.0
  0
LINE
  5
166
102
{ACAD_REACTORS
330
1EA
330
1EB
102
}
330
76
100
AcDbEntity
  8
0
  6
Continuous
 62
     2
100
AcDbLine
 10
28.53520783851002
 20
-33.5001274951527
 30
0.0
 11
28.53520783851002
 21
-31.23158327746529
 31
0.0
  0
LINE
  5
167
102
{ACAD_REACTORS
330
1EA
330
1EB
102
}
330
76
100
AcDbEntity
  8
0
  6
Continuous
 62
     2
100
AcDbLine
 10
28.53520783851002
 20
-31.23158327746529
 30
0.0
 11
29.3463068759834
 21
-31.23158327746529
 31
0.0
  0
LINE
  5
168
102
{ACAD_REACTORS
330
1EA
330
1EB
102
}
330
76
100
AcDbEntity
  8
0
  6
Continuous
 62
     2
100
AcDbLine
 10
29.3463068759834
 20
-31.23158327746529
 30
0.0
 11
29.3463068759834
 21
-30.44631797134156
 31
0.0
  0
LINE
  5
169
102
{ACAD_REACTORS
330
1EA
330
1EB
102
}
330
76
100
AcDbEntity
  8
0
  6
Continuous
 62
     2
100
AcDbLine
 10
25.9613613573548
 20
-30.44631797134218
 30
0.0
 11
29.3463068759834
 21
-30.44631797134156
 31
0.0
  0
LINE
  5
16A
102
{ACAD_REACTORS
330
1EA
330
1EB
102
}
330
76
100
AcDbEntity
  8
0
  6
Continuous
 62
     2
100
AcDbLine
 10
27.34241513634231
 20
-31.23158327746529
 30
0.0
 11
27.34241513634231
 21
-33.5001274951527
 31
0.0
  0
LINE
  5
16B
102
{ACAD_REACTORS
330
1EC
330
1ED
102
}
330
76
100
AcDbEntity
  8
0
  6
Continuous
 62
     2
100
AcDbLine
 10
4.71292870086322
 20
-31.52124734558817
 30
0.0
 11
4.71292870086322
 21
-30.93939593889309
 31
0.0
  0
LINE
  5
16C
102
{ACAD_REACTORS
330
1EC
330
1ED
102
}
330
76
100
AcDbEntity
  8
0
  6
Continuous
 62
     2
100
AcDbLine
 10
4.71292870086322
 20
-28.721112738957
 30
0.0
 11
4.71292870086322
 21
-28.11557745045019
 31
0.0
  0
LINE
  5
16D
330
76
100
AcDbEntity
  8
1
  6
Continuous
 62
     6
100
AcDbLine
 10
83.24310728546632
 20
-40.79362749516901
 30
0.0
 11
126.7431072854663
 21
-40.79362749516901
 31
0.0
  0
LINE
  5
16E
330
76
100
AcDbEntity
  8
1
  6
Continuous
 62
     6
100
AcDbLine
 10
33.24310728546632
 20
-40.79362749516901
 30
0.0
 11
15.39830275871631
 21
-40.79362749516901
 31
0.0
  0
LINE
  5
16F
330
76
100
AcDbEntity
  8
1
  6
Continuous
 62
     6
100
AcDbLine
 10
-2.80169724128359
 20
-23.79362749516906
 30
0.0
 11
33.59830275871633
 21
-23.79362749516906
 31
0.0
  0
LINE
  5
170
330
76
100
AcDbEntity
  8
1
  6
Continuous
 62
     6
100
AcDbLine
 10
126.7431072854663
 20
-40.79362749516901
 30
0.0
 11
126.7431072854676
 21
-32.29362749516906
 31
0.0
  0
LINE
  5
171
330
76
100
AcDbEntity
  8
1
  6
Continuous
 62
     6
100
AcDbLine
 10
33.59830275871633
 20
-40.79362749516906
 30
0.0
 11
83.24310728546632
 21
-40.79362749516901
 31
0.0
  0
LINE
  5
172
330
76
100
AcDbEntity
  8
1
  6
Continuous
 62
     7
100
AcDbLine
 10
-2.80169724128359
 20
-23.79362749516906
 30
0.0
 11
-2.80169724128359
 21
-36.54362749516906
 31
0.0
  0
LINE
  5
173
330
76
100
AcDbEntity
  8
1
  6
Continuous
 62
     7
100
AcDbLine
 10
33.59830275871633
 20
-23.79362749516906
 30
0.0
 11
33.59830275871633
 21
-36.54362749516901
 31
0.0
  0
LINE
  5
174
330
76
100
AcDbEntity
  8
1
  6
Continuous
 62
     6
100
AcDbLine
 10
33.59830275871633
 20
-40.79362749516906
 30
0.0
 11
33.24310728546632
 21
-40.79362749516901
 31
0.0
  0
LINE
  5
175
330
76
100
AcDbEntity
  8
1
  6
Continuous
 62
     6
100
AcDbLine
 10
126.7431072854681
 20
-23.79362749516906
 30
0.0
 11
126.7431072854676
 21
-32.29362749516906
 31
0.0
  0
LINE
  5
176
330
76
100
AcDbEntity
  8
1
  6
Continuous
 62
     2
100
AcDbLine
 10
1.43495764527893
 20
-18.41862749516918
 30
0.0
 11
6.43495764527893
 21
-17.16862749516918
 31
0.0
  0
LINE
  5
177
330
76
100
AcDbEntity
  8
1
  6
Continuous
 62
     2
100
AcDbLine
 10
1.43495764527893
 20
-20.91862749516918
 30
0.0
 11
1.43495764527893
 21
-18.41862749516918
 31
0.0
  0
LINE
  5
178
330
76
100
AcDbEntity
  8
1
  6
Continuous
 62
     2
100
AcDbLine
 10
6.43495764527893
 20
-22.16862749516918
 30
0.0
 11
1.43495764527893
 21
-20.91862749516918
 31
0.0
  0
LINE
  5
179
330
76
100
AcDbEntity
  8
1
  6
Continuous
 62
     2
100
AcDbLine
 10
6.43495764527893
 20
-17.16862749516918
 30
0.0
 11
6.43495764527893
 21
-22.16862749516918
 31
0.0
  0
LINE
  5
17A
330
76
100
AcDbEntity
  8
1
  6
Continuous
 62
     7
100
AcDbLine
 10
-2.80169724128359
 20
-36.54362749516906
 30
0.0
 11
15.39830275871631
 21
-36.54362749516901
 31
0.0
  0
LINE
  5
17B
330
76
100
AcDbEntity
  8
1
  6
Continuous
 62
     7
100
AcDbLine
 10
-2.80169724128359
 20
-36.54362749516906
 30
0.0
 11
-2.80169724128359
 21
-40.79362749516906
 31
0.0
  0
LINE
  5
17C
330
76
100
AcDbEntity
  8
1
  6
Continuous
 62
     7
100
AcDbLine
 10
33.59830275871633
 20
-36.54362749516901
 30
0.0
 11
33.59830275871633
 21
-40.79362749516906
 31
0.0
  0
LINE
  5
17D
330
76
100
AcDbEntity
  8
1
  6
Continuous
 62
     7
100
AcDbLine
 10
15.39830275871631
 20
-36.54362749516901
 30
0.0
 11
15.39830275871631
 21
-40.79362749516901
 31
0.0
  0
LINE
  5
17E
330
76
100
AcDbEntity
  8
1
  6
Continuous
 62
     6
100
AcDbLine
 10
15.39830275871631
 20
-40.79362749516901
 30
0.0
 11
-2.80169724128359
 21
-40.79362749516906
 31
0.0
  0
LINE
  5
17F
330
76
100
AcDbEntity
  8
1
  6
Continuous
 62
     7
100
AcDbLine
 10
15.39830275871631
 20
-36.54362749516901
 30
0.0
 11
33.59830275871633
 21
-36.54362749516901
 31
0.0
  0
LINE
  5
180
330
76
100
AcDbEntity
  8
1
  6
Continuous
 62
     6
100
AcDbLine
 10
-2.80169724128359
 20
-15.29362749516906
 30
0.0
 11
126.7431072854681
 21
-15.29362749516906
 31
0.0
  0
LINE
  5
181
330
76
100
AcDbEntity
  8
1
  6
PHANTOM
 62
     2
100
AcDbLine
 10
12.68495764527893
 20
-19.66862749516918
 30
0.0
 11
7.18495764527893
 21
-19.66862749516918
 31
0.0
  0
LINE
  5
182
330
76
100
AcDbEntity
  8
1
  6
PHANTOM
 62
     2
100
AcDbLine
 10
9.93495764527893
 20
-16.91862749516906
 30
0.0
 11
9.93495764527893
 21
-22.41862749516906
 31
0.0
  0
LINE
  5
183
330
76
100
AcDbEntity
  8
1
  6
DOT_CENTER
 62
     2
100
AcDbLine
 10
1.18495764527893
 20
-19.66862749516918
 30
0.0
 11
6.68495764527893
 21
-19.66862749516918
 31
0.0
  0
ARC
  5
184
102
{ACAD_REACTORS
330
1F0
330
1F1
102
}
330
76
100
AcDbEntity
  8
0
  6
Continuous
 62
     2
100
AcDbCircle
 10
12.58995075767641
 20
-31.9732227332475
 30
0.0
 40
0.7717997786795288
100
AcDbArc
 50
321.8795802028432
 51
38.12041979716724
  0
ARC
  5
185
102
{ACAD_REACTORS
330
1F0
330
1F1
102
}
330
76
100
AcDbEntity
  8
0
  6
Continuous
 62
     2
100
AcDbCircle
 10
12.78969079402282
 20
-32.12995391136735
 30
0.0
 40
0.5179085730138452
100
AcDbArc
 50
218.1204197971876
 51
321.8795802027906
  0
ARC
  5
186
102
{ACAD_REACTORS
330
1F0
330
1F1
102
}
330
76
100
AcDbEntity
  8
0
  6
Continuous
 62
     2
100
AcDbCircle
 10
12.9894308303688
 20
-31.9732227332475
 30
0.0
 40
0.7717997786795517
100
AcDbArc
 50
141.8795802028277
 51
218.1204197971619
  0
ARC
  5
187
102
{ACAD_REACTORS
330
1F0
330
1F1
102
}
330
76
100
AcDbEntity
  8
0
  6
Continuous
 62
     2
100
AcDbCircle
 10
12.78969079402282
 20
-31.81649155512696
 30
0.0
 40
0.5179085730132792
100
AcDbArc
 50
38.12041979716481
 51
141.8795802028569
  0
ARC
  5
188
102
{ACAD_REACTORS
330
1E8
330
1E9
102
}
330
76
100
AcDbEntity
  8
0
  6
Continuous
 62
     2
100
AcDbCircle
 10
9.72767665845882
 20
-33.38368909865557
 30
0.0
 40
2.227384008973467
100
AcDbArc
 50
58.06909105003717
 51
71.55192388186678
  0
ARC
  5
189
102
{ACAD_REACTORS
330
1E8
330
1E9
102
}
330
76
100
AcDbEntity
  8
0
  6
Continuous
 62
     2
100
AcDbCircle
 10
9.98940435941762
 20
-31.76815130390838
 30
0.0
 40
0.5115800601948293
100
AcDbArc
 50
113.3722778881945
 51
151.4785267423163
  0
ARC
  5
18A
102
{ACAD_REACTORS
330
1E8
330
1E9
102
}
330
76
100
AcDbEntity
  8
0
  6
Continuous
 62
     2
100
AcDbCircle
 10
10.36676161749801
 20
-31.9732227332475
 30
0.0
 40
0.9410597353333263
100
AcDbArc
 50
151.4785267422693
 51
208.5214732576971
  0
ARC
  5
18B
102
{ACAD_REACTORS
330
1E8
330
1E9
102
}
330
76
100
AcDbEntity
  8
0
  6
Continuous
 62
     2
100
AcDbCircle
 10
9.56980378336601
 20
-28.66054178799095
 30
0.0
 40
4.852596863498279
100
AcDbArc
 50
275.1581447696238
 51
285.9799912583525
  0
ARC
  5
18C
102
{ACAD_REACTORS
330
1E8
330
1E9
102
}
330
76
100
AcDbEntity
  8
0
  6
Continuous
 62
     2
100
AcDbCircle
 10
9.85865987810192
 20
-31.8604323712126
 30
0.0
 40
1.639695123939436
100
AcDbArc
 50
195.0618917770921
 51
275.1581447696363
  0
ARC
  5
18D
102
{ACAD_REACTORS
330
1E8
330
1E9
102
}
330
76
100
AcDbEntity
  8
0
  6
Continuous
 62
     2
100
AcDbCircle
 10
9.43953203463911
 20
-31.9732227332475
 30
0.0
 40
1.205656168390973
100
AcDbArc
 50
164.9381082228765
 51
195.0618917770944
  0
ARC
  5
18E
102
{ACAD_REACTORS
330
1E8
330
1E9
102
}
330
76
100
AcDbEntity
  8
0
  6
Continuous
 62
     2
100
AcDbCircle
 10
9.85865987810192
 20
-32.08601309528228
 30
0.0
 40
1.639695123940499
100
AcDbArc
 50
84.84185523036533
 51
164.9381082228904
  0
ARC
  5
18F
102
{ACAD_REACTORS
330
1EC
330
1ED
102
}
330
76
100
AcDbEntity
  8
0
  6
Continuous
 62
     2
100
AcDbCircle
 10
5.02864562394001
 20
-30.93939593889309
 30
0.0
 40
0.3157169230765328
100
AcDbArc
 50
115.3740086783519
 51
180.0
  0
ARC
  5
190
102
{ACAD_REACTORS
330
1EC
330
1ED
102
}
330
76
100
AcDbEntity
  8
0
  6
Continuous
 62
     2
100
AcDbCircle
 10
5.02864562394001
 20
-28.721112738957
 30
0.0
 40
0.315716923076792
100
AcDbArc
 50
180.0
 51
244.6259913216349
  0
ARC
  5
191
102
{ACAD_REACTORS
330
1EC
330
1ED
102
}
330
76
100
AcDbEntity
  8
0
  6
Continuous
 62
     2
100
AcDbCircle
 10
5.03426175925003
 20
-29.81841239801918
 30
0.0
 40
2.018561131933266
100
AcDbArc
 50
269.8110329575827
 51
90.18896704241737
  0
ARC
  5
192
102
{ACAD_REACTORS
330
1EC
330
1ED
102
}
330
76
100
AcDbEntity
  8
0
  6
Continuous
 62
     2
100
AcDbCircle
 10
5.02864562394001
 20
-31.52124734558817
 30
0.0
 40
0.315716923076792
100
AcDbArc
 50
180.0
 51
269.8110329574335
  0
ARC
  5
193
102
{ACAD_REACTORS
330
1EA
330
1EB
102
}
330
76
100
AcDbEntity
  8
0
  6
Continuous
 62
     2
100
AcDbCircle
 10
26.09210583867051
 20
-31.76815130390838
 30
0.0
 40
0.5115800601943982
100
AcDbArc
 50
109.3371432194825
 51
151.4785267424185
  0
ARC
  5
194
102
{ACAD_REACTORS
330
1EA
330
1EB
102
}
330
76
100
AcDbEntity
  8
0
  6
Continuous
 62
     2
100
AcDbCircle
 10
26.09210583867051
 20
-32.17829416258599
 30
0.0
 40
0.5115800601959967
100
AcDbArc
 50
208.5214732576881
 51
246.6277221118388
  0
ARC
  5
195
102
{ACAD_REACTORS
330
1EA
330
1EB
102
}
330
76
100
AcDbEntity
  8
0
  6
Continuous
 62
     2
100
AcDbCircle
 10
25.54223351389311
 20
-31.9732227332475
 30
0.0
 40
1.20565616839298
100
AcDbArc
 50
164.9381082229021
 51
195.0618917770925
  0
ARC
  5
196
102
{ACAD_REACTORS
330
1EA
330
1EB
102
}
330
76
100
AcDbEntity
  8
0
  6
Continuous
 62
     2
100
AcDbCircle
 10
25.9613613573548
 20
-32.08601309528228
 30
0.0
 40
1.639695123940104
100
AcDbArc
 50
90.0
 51
164.9381082228992
  0
ARC
  5
197
102
{ACAD_REACTORS
330
1EE
330
1EF
102
}
330
76
100
AcDbEntity
  8
0
  6
Continuous
 62
     2
100
AcDbCircle
 10
16.53436626465111
 20
-28.61403225707306
 30
0.0
 40
1.526904761905769
100
AcDbArc
 50
90.0
 51
270.0
  0
ARC
  5
198
102
{ACAD_REACTORS
330
1F2
330
1F3
102
}
330
76
100
AcDbEntity
  8
0
  6
Continuous
 62
     2
100
AcDbCircle
 10
9.79167551942533
 20
-28.10309716527848
 30
0.0
 40
0.3528638246710898
100
AcDbArc
 50
270.0
 51
90.0
  0
ARC
  5
199
102
{ACAD_REACTORS
330
1EC
330
1ED
102
}
330
76
100
AcDbEntity
  8
0
  6
Continuous
 62
     2
100
AcDbCircle
 10
2.45309693740822
 20
-28.11539997380197
 30
0.0
 40
0.3157169230760815
100
AcDbArc
 50
90.0
 51
180.0
  0
ARC
  5
19A
102
{ACAD_REACTORS
330
1EC
330
1ED
102
}
330
76
100
AcDbEntity
  8
0
  6
Continuous
 62
     2
100
AcDbCircle
 10
4.4515146459928
 20
-29.83025433892476
 30
0.0
 40
0.911897523557643
100
AcDbArc
 50
115.1944106485195
 51
244.8055893514913
  0
ARC
  5
19B
102
{ACAD_REACTORS
330
1EC
330
1ED
102
}
330
76
100
AcDbEntity
  8
0
  6
Continuous
 62
     2
100
AcDbCircle
 10
3.92893019841782
 20
-30.94108408498749
 30
0.0
 40
0.3157169230765926
100
AcDbArc
 50
0.0
 51
64.80558935144538
  0
ARC
  5
19C
102
{ACAD_REACTORS
330
1EC
330
1ED
102
}
330
76
100
AcDbEntity
  8
0
  6
Continuous
 62
     2
100
AcDbCircle
 10
1.8592022606617
 20
-33.0758828797695
 30
0.0
 40
0.4242446153827759
100
AcDbArc
 50
180.0
 51
270.0
  0
ARC
  5
19D
102
{ACAD_REACTORS
330
1EE
330
1EF
102
}
330
76
100
AcDbEntity
  8
0
  6
Continuous
 62
     2
100
AcDbCircle
 10
16.75063827481631
 20
-28.45730107895258
 30
0.0
 40
0.5179085730133598
100
AcDbArc
 50
38.12041979714083
 51
141.8795802028669
  0
ARC
  5
19E
102
{ACAD_REACTORS
330
1EE
330
1EF
102
}
330
76
100
AcDbEntity
  8
0
  6
Continuous
 62
     2
100
AcDbCircle
 10
16.95037831116252
 20
-28.61403225707306
 30
0.0
 40
0.7717997786796146
100
AcDbArc
 50
141.8795802028485
 51
218.1204197971557
  0
ARC
  5
19F
102
{ACAD_REACTORS
330
1F0
330
1F1
102
}
330
76
100
AcDbEntity
  8
0
  6
Continuous
 62
     2
100
AcDbCircle
 10
12.78969079402282
 20
-31.43464772294408
 30
0.0
 40
2.065479772208633
100
AcDbArc
 50
242.4518518243384
 51
297.5481481756859
  0
ARC
  5
1A0
102
{ACAD_REACTORS
330
1F0
330
1F1
102
}
330
76
100
AcDbEntity
  8
0
  6
Continuous
 62
     2
100
AcDbCircle
 10
12.78969079402282
 20
-32.51179774355029
 30
0.0
 40
2.065479772208688
100
AcDbArc
 50
62.45185182430828
 51
117.5481481756674
  0
ARC
  5
1A1
102
{ACAD_REACTORS
330
1F0
330
1F1
102
}
330
76
100
AcDbEntity
  8
0
  6
Continuous
 62
     2
100
AcDbCircle
 10
12.50875090218941
 20
-31.9732227332475
 30
0.0
 40
1.458034083651617
100
AcDbArc
 50
117.5481481756599
 51
242.4518518243369
  0
ARC
  5
1A2
102
{ACAD_REACTORS
330
1F0
330
1F1
102
}
330
76
100
AcDbEntity
  8
0
  6
Continuous
 62
     2
100
AcDbCircle
 10
13.070630685856
 20
-31.9732227332475
 30
0.0
 40
1.458034083652026
100
AcDbArc
 50
297.5481481757055
 51
62.45185182429763
  0
ARC
  5
1A3
102
{ACAD_REACTORS
330
1EE
330
1EF
102
}
330
76
100
AcDbEntity
  8
0
  6
Continuous
 62
     2
100
AcDbCircle
 10
16.75063827481631
 20
-28.7707634351936
 30
0.0
 40
0.5179085730134558
100
AcDbArc
 50
218.120419797134
 51
321.8795802028582
  0
ARC
  5
1A4
102
{ACAD_REACTORS
330
1EE
330
1EF
102
}
330
76
100
AcDbEntity
  8
0
  6
Continuous
 62
     2
100
AcDbCircle
 10
16.55089823847013
 20
-28.61403225707306
 30
0.0
 40
0.7717997786795467
100
AcDbArc
 50
321.8795802028378
 51
38.12041979715805
  0
ARC
  5
1A5
102
{ACAD_REACTORS
330
1EC
330
1ED
102
}
330
76
100
AcDbEntity
  8
0
  6
Continuous
 62
     2
100
AcDbCircle
 10
7.33251435137862
 20
-33.0758828797695
 30
0.0
 40
0.4242446153831949
100
AcDbArc
 50
270.0
 51
0.0
  0
ARC
  5
1A6
102
{ACAD_REACTORS
330
1EC
330
1ED
102
}
330
76
100
AcDbEntity
  8
0
  6
Continuous
 62
     2
100
AcDbCircle
 10
7.33251435137862
 20
-27.51137211056926
 30
0.0
 40
0.4242446153838841
100
AcDbArc
 50
0.0
 51
90.0
  0
ARC
  5
1A7
102
{ACAD_REACTORS
330
1EC
330
1ED
102
}
330
76
100
AcDbEntity
  8
0
  6
Continuous
 62
     2
100
AcDbCircle
 10
1.8592022606617
 20
-27.51137211056926
 30
0.0
 40
0.4242446153838877
100
AcDbArc
 50
90.0
 51
180.0
  0
ARC
  5
1A8
102
{ACAD_REACTORS
330
1EC
330
1ED
102
}
330
76
100
AcDbEntity
  8
0
  6
Continuous
 62
     2
100
AcDbCircle
 10
3.92893019841782
 20
-32.4718550165191
 30
0.0
 40
0.3157169230767067
100
AcDbArc
 50
270.0
 51
0.0
  0
ARC
  5
1A9
102
{ACAD_REACTORS
330
1EC
330
1ED
102
}
330
76
100
AcDbEntity
  8
0
  6
Continuous
 62
     2
100
AcDbCircle
 10
3.92893019841782
 20
-28.7194245928626
 30
0.0
 40
0.3157169230760595
100
AcDbArc
 50
295.1944106485678
 51
0.0
  0
ARC
  5
1AA
102
{ACAD_REACTORS
330
1EC
330
1ED
102
}
330
76
100
AcDbEntity
  8
0
  6
Continuous
 62
     2
100
AcDbCircle
 10
3.92893019841782
 20
-28.11539997380197
 30
0.0
 40
0.3157169230765926
100
AcDbArc
 50
0.0
 51
90.0
  0
ARC
  5
1AB
102
{ACAD_REACTORS
330
1EC
330
1ED
102
}
330
76
100
AcDbEntity
  8
0
  6
Continuous
 62
     2
100
AcDbCircle
 10
2.45309693740822
 20
-32.4718550165191
 30
0.0
 40
0.3157169230755978
100
AcDbArc
 50
180.0
 51
270.0
  0
ARC
  5
1AC
102
{ACAD_REACTORS
330
1F2
330
1F3
102
}
330
76
100
AcDbEntity
  8
0
  6
Continuous
 62
     2
100
AcDbCircle
 10
10.23314804566371
 20
-28.142493136501
 30
0.0
 40
1.055365641333651
100
AcDbArc
 50
270.0
 51
90.0
  0
ARC
  5
1AD
102
{ACAD_REACTORS
330
1EA
330
1EB
102
}
330
76
100
AcDbEntity
  8
0
  6
Continuous
 62
     2
100
AcDbCircle
 10
25.9613613573548
 20
-31.8604323712126
 30
0.0
 40
1.639695123940504
100
AcDbArc
 50
195.0618917771008
 51
275.1581447696774
  0
ARC
  5
1AE
102
{ACAD_REACTORS
330
1EA
330
1EB
102
}
330
76
100
AcDbEntity
  8
0
  6
Continuous
 62
     2
100
AcDbCircle
 10
25.67250526261893
 20
-28.66054178799095
 30
0.0
 40
4.852596863498889
100
AcDbArc
 50
275.1581447696373
 51
285.9799912583382
  0
ARC
  5
1AF
102
{ACAD_REACTORS
330
1EA
330
1EB
102
}
330
76
100
AcDbEntity
  8
0
  6
Continuous
 62
     2
100
AcDbCircle
 10
25.83037813771171
 20
-30.56275636783926
 30
0.0
 40
2.227384008972763
100
AcDbArc
 50
288.4480761181334
 51
301.9309089499394
  0
ARC
  5
1B0
102
{ACAD_REACTORS
330
1EA
330
1EB
102
}
330
76
100
AcDbEntity
  8
0
  6
Continuous
 62
     2
100
AcDbCircle
 10
26.24854587137372
 20
-31.81630214387599
 30
0.0
 40
0.9059297849852189
100
AcDbArc
 50
246.6277221118085
 51
288.4480761180776
  0
ARC
  5
1B1
102
{ACAD_REACTORS
330
1EA
330
1EB
102
}
330
76
100
AcDbEntity
  8
0
  6
Continuous
 62
     2
100
AcDbCircle
 10
26.46946309675201
 20
-31.9732227332475
 30
0.0
 40
0.9410597353350337
100
AcDbArc
 50
151.478526742357
 51
208.5214732576673
  0
ARC
  5
1B2
102
{ACAD_REACTORS
330
1EA
330
1EB
102
}
330
76
100
AcDbEntity
  8
0
  6
Continuous
 62
     2
100
AcDbCircle
 10
26.23877583677421
 20
-32.18610628429138
 30
0.0
 40
0.9545230068260864
100
AcDbArc
 50
90.0
 51
109.3371432194281
  0
ARC
  5
1B3
102
{ACAD_REACTORS
330
1EC
330
1ED
102
}
330
76
100
AcDbEntity
  8
0
  6
Continuous
 62
     2
100
AcDbCircle
 10
5.02864562394001
 20
-28.11557745045019
 30
0.0
 40
0.3157169230761815
100
AcDbArc
 50
90.1889670425665
 51
180.0
  0
ARC
  5
1B4
102
{ACAD_REACTORS
330
1EC
330
1ED
102
}
330
76
100
AcDbEntity
  8
0
  6
Continuous
 62
     2
100
AcDbCircle
 10
4.5026029258521
 20
-29.83025433892476
 30
0.0
 40
0.9118481501443972
100
AcDbArc
 50
295.3740086781803
 51
64.62599132180901
  0
ARC
  5
1B5
102
{ACAD_REACTORS
330
1E8
330
1E9
102
}
330
76
100
AcDbEntity
  8
0
  6
Continuous
 62
     2
100
AcDbCircle
 10
9.72767665845882
 20
-30.5627563678388
 30
0.0
 40
2.227384008972719
100
AcDbArc
 50
288.4480761181337
 51
301.9309089499637
  0
ARC
  5
1B6
102
{ACAD_REACTORS
330
1E8
330
1E9
102
}
330
76
100
AcDbEntity
  8
0
  6
Continuous
 62
     2
100
AcDbCircle
 10
10.14584439211973
 20
-31.81630214387599
 30
0.0
 40
0.9059297849848243
100
AcDbArc
 50
246.6277221118663
 51
288.4480761181538
  0
ARC
  5
1B7
102
{ACAD_REACTORS
330
1E8
330
1E9
102
}
330
76
100
AcDbEntity
  8
0
  6
Continuous
 62
     2
100
AcDbCircle
 10
9.98940435941762
 20
-32.17829416258599
 30
0.0
 40
0.5115800601947458
100
AcDbArc
 50
208.5214732576837
 51
246.6277221118279
  0
ARC
  5
1B8
102
{ACAD_REACTORS
330
1E8
330
1E9
102
}
330
76
100
AcDbEntity
  8
0
  6
Continuous
 62
     2
100
AcDbCircle
 10
10.14584439211973
 20
-32.13014332261901
 30
0.0
 40
0.905929784985352
100
AcDbArc
 50
71.55192388186002
 51
113.3722778881305
  0
ARC
  5
1B9
102
{ACAD_REACTORS
330
1E8
330
1E9
102
}
330
76
100
AcDbEntity
  8
0
  6
Continuous
 62
     2
100
AcDbCircle
 10
9.56980378336601
 20
-35.2859036785033
 30
0.0
 40
4.852596863497989
100
AcDbArc
 50
74.02000874164715
 51
84.84185523037608
  0
CIRCLE
  5
1BA
102
{ACAD_REACTORS
330
1EC
330
1ED
102
}
330
76
100
AcDbEntity
  8
0
  6
Continuous
 62
     2
100
AcDbCircle
 10
4.47878791117933
 20
-29.83025433892476
 30
0.0
 40
0.470978932778479
  0
CIRCLE
  5
1BB
330
76
100
AcDbEntity
  8
1
  6
Continuous
 62
     2
100
AcDbCircle
 10
9.93495764527893
 20
-19.66862749516918
 30
0.0
 40
1.250000000000002
  0
CIRCLE
  5
1BC
330
76
100
AcDbEntity
  8
1
  6
Continuous
 62
     2
100
AcDbCircle
 10
9.93495764527893
 20
-19.66862749516918
 30
0.0
 40
2.500000000000002
  0
TEXT
  5
1BE
330
76
100
AcDbEntity
  8
1
 62
     7
100
AcDbText
 10
91.40977395213295
 20
-44.79362749516849
 30
0.0
 40
2.5
  1
6
 41
0.9
  7
CONVERTER_11
100
AcDbText
  0
TEXT
  5
1BF
330
76
100
AcDbEntity
  8
1
 62
     7
100
AcDbText
 10
23.07644061879952
 20
-44.79362749516849
 30
0.0
 40
2.5
  1
5
 41
0.9
  7
CONVERTER_11
100
AcDbText
  0
TEXT
  5
1C0
330
76
100
AcDbEntity
  8
1
 62
     7
100
AcDbText
 10
-45.25689271453368
 20
-44.79362749516849
 30
0.0
 40
2.5
  1
4
 41
0.9
  7
CONVERTER_11
100
AcDbText
  0
TEXT
  5
1C1
330
76
100
AcDbEntity
  8
1
 62
     7
100
AcDbText
 10
-113.5902260478668
 20
-44.79362749516849
 30
0.0
 40
2.5
  1
3
 41
0.9
  7
CONVERTER_11
100
AcDbText
  0
TEXT
  5
1C2
330
76
100
AcDbEntity
  8
1
 62
     7
100
AcDbText
 10
127.7431072854663
 20
-13.29362749516849
 30
0.0
 40
2.5
  1
E
 41
0.9
  7
CONVERTER_11
100
AcDbText
  0
TEXT
  5
1C3
330
76
100
AcDbEntity
  8
1
 62
     7
100
AcDbText
 10
-250.2568927145334
 20
-44.79362749516849
 30
0.0
 40
2.5
  1
1
 41
0.9
  7
CONVERTER_11
100
AcDbText
  0
TEXT
  5
1C4
330
76
100
AcDbEntity
  8
1
 62
     7
100
AcDbText
 10
-181.9235593812003
 20
-44.79362749516849
 30
0.0
 40
2.5
  1
2
 41
0.9
  7
CONVERTER_11
100
AcDbText
  0
TEXT
  5
1C5
330
76
100
AcDbEntity
  8
1
 62
     7
100
AcDbText
 10
127.7431072854663
 20
44.10637250483163
 30
0.0
 40
2.5
  1
D
 41
0.9
  7
CONVERTER_11
100
AcDbText
  0
TEXT
  5
1C6
330
76
100
AcDbEntity
  8
1
 62
     7
100
AcDbText
 10
127.7431072854663
 20
101.5063725048317
 30
0.0
 40
2.5
  1
C
 41
0.9
  7
CONVERTER_11
100
AcDbText
  0
TEXT
  5
1C7
330
76
100
AcDbEntity
  8
1
 62
     7
100
AcDbText
 10
127.7431072854663
 20
158.9063725048315
 30
0.0
 40
2.5
  1
B
 41
0.9
  7
CONVERTER_11
100
AcDbText
  0
TEXT
  5
1C8
330
76
100
AcDbEntity
  8
1
 62
     7
100
AcDbText
 10
127.7431072854663
 20
216.3063725048314
 30
0.0
 40
2.5
  1
A
 41
0.9
  7
CONVERTER_11
100
AcDbText
  0
TEXT
  5
1C9
330
76
100
AcDbEntity
  8
1
 62
     7
100
AcDbText
 10
91.40977395213295
 20
247.2063725048317
 30
0.0
 40
2.5
  1
6
 41
0.9
  7
CONVERTER_11
100
AcDbText
  0
TEXT
  5
1CA
330
76
100
AcDbEntity
  8
1
 62
     7
100
AcDbText
 10
23.07644061879972
 20
247.2063725048317
 30
0.0
 40
2.5
  1
5
 41
0.9
  7
CONVERTER_11
100
AcDbText
  0
TEXT
  5
1CB
330
76
100
AcDbEntity
  8
1
 62
     7
100
AcDbText
 10
-45.25689271453368
 20
247.2063725048317
 30
0.0
 40
2.5
  1
4
 41
0.9
  7
CONVERTER_11
100
AcDbText
  0
TEXT
  5
1CC
330
76
100
AcDbEntity
  8
1
 62
     7
100
AcDbText
 10
-113.5902260478668
 20
247.2063725048317
 30
0.0
 40
2.5
  1
3
 41
0.9
  7
CONVERTER_11
100
AcDbText
  0
TEXT
  5
1CD
330
76
100
AcDbEntity
  8
1
 62
     7
100
AcDbText
 10
-181.9235593812003
 20
247.2063725048317
 30
0.0
 40
2.5
  1
2
 41
0.9
  7
CONVERTER_11
100
AcDbText
  0
TEXT
  5
1CE
330
76
100
AcDbEntity
  8
1
 62
     7
100
AcDbText
 10
-250.2568927145334
 20
247.2063725048317
 30
0.0
 40
2.5
  1
1
 41
0.9
  7
CONVERTER_11
100
AcDbText
  0
TEXT
  5
1CF
330
76
100
AcDbEntity
  8
1
 62
     7
100
AcDbText
 10
52.57185048073012
 20
-22.49362749516905
 30
0.0
 40
2.5
  1
/
 41
0.9
  7
CONVERTER_11
100
AcDbText
  0
TEXT
  5
1D1
330
76
100
AcDbEntity
  8
1
 62
     7
100
AcDbText
 10
54.72821497777211
 20
-22.49362749516905
 30
0.0
 40
2.5
  1
01
 41
0.81
  7
CONVERTER_12
100
AcDbText
  0
TEXT
  5
1D2
330
76
100
AcDbEntity
  8
1
 62
     3
100
AcDbText
 10
92.32469900378929
 20
-22.49362749516905
 30
0.0
 40
2.5
  1
01.04.2021
 41
0.81
  7
CONVERTER_12
100
AcDbText
  0
MTEXT
  5
1D3
330
76
100
AcDbEntity
  8
1
 62
     2
100
AcDbMText
 10
92.32469900378929
 20
-16.29362749516906
 30
0.0
 40
1.8
 41
0.0
 71
     1
 72
     1
  1
date
  7
CONVERTER_11
 73
     1
 44
1.32052821128451
  0
MTEXT
  5
1D4
330
76
100
AcDbEntity
  8
1
 62
     2
100
AcDbMText
 10
62.49830275871632
 20
-24.79362749516906
 30
0.0
 40
1.8
 41
0.0
 71
     1
 72
     1
  1
document-type
  7
CONVERTER_11
 73
     1
 44
1.20048019207683
  0
TEXT
  5
1D5
330
76
100
AcDbEntity
  8
1
 62
     3
100
AcDbText
 10
62.49830275871632
 20
-30.99362749516905
 30
0.0
 40
2.5
  1
TECDOC 2D_Productdrawing
 41
0.81
  7
CONVERTER_12
100
AcDbText
  0
MTEXT
  5
1D7
330
76
100
AcDbEntity
  8
1
 62
     2
100
AcDbMText
 10
34.69830275871632
 20
-16.29362749516906
 30
0.0
 40
1.8
 41
0.0
 71
     1
 72
     1
  1
document-No. / RI
  7
CONVERTER_13
 73
     1
 44
1.32052821128451
  0
TEXT
  5
1D8
330
76
100
AcDbEntity
  8
1
 62
     7
100
AcDbText
 10
34.69830275871632
 20
-22.49362749516905
 30
0.0
 40
2.5
  1
00648660
 41
0.81
  7
CONVERTER_12
100
AcDbText
  0
MTEXT
  5
1DA
330
76
100
AcDbEntity
  8
1
 62
     3
100
AcDbMText
 10
122.2839031446286
 20
-22.49362749516899
 30
0.0
 40
2.5
 41
0.0
 71
     8
 72
     1
  1
2:1
  7
CONVERTER_14
 73
     1
 44
1.32052821128451
  0
MTEXT
  5
1DB
330
76
100
AcDbEntity
  8
1
 62
     2
100
AcDbMText
 10
118.9246990037891
 20
-16.29362749516906
 30
0.0
 40
1.8
 41
0.0
 71
     1
 72
     1
  1
scale
  7
CONVERTER_11
 73
     1
 44
1.20048019207683
  0
MTEXT
  5
1DC
330
76
100
AcDbEntity
  8
1
 62
     2
100
AcDbMText
 10
34.69830275871632
 20
-24.79362749516906
 30
0.0
 40
1.8
 41
0.0
 71
     1
 72
     1
  1
ident.-No.
  7
CONVERTER_11
 73
     1
 44
1.20048019207683
  0
TEXT
  5
1DD
330
76
100
AcDbEntity
  8
1
 62
     7
100
AcDbText
 10
35.0983027587161
 20
-30.99362749516905
 30
0.0
 40
2.5
  1
0801677
 41
0.81
  7
CONVERTER_12
100
AcDbText
  0
MTEXT
  5
1DE
330
76
100
AcDbEntity
  8
1
 62
     2
100
AcDbMText
 10
-37.2127205104932
 20
-28.04362749517026
 30
0.0
 40
2.0
 41
0.0
 71
     5
 72
     1
  1
General Information\P- Simplified representation\P- Document excluded from change process\P- Linear dimensions [mm]
  7
CONVERTER_11
 73
     1
 44
1.20048019207683
  0
MTEXT
  5
1DF
330
76
100
AcDbEntity
  8
1
 62
     3
100
AcDbMText
 10
23.39830275871631
 20
-19.66862749516906
 30
0.0
 40
2.5
 41
0.0
 71
     5
 72
     1
  1
DIN A3
  7
CONVERTER_11
 73
     1
 44
1.20048019207683
  0
MTEXT
  5
1E0
330
76
100
AcDbEntity
  8
1
 62
     2
100
AcDbMText
 10
34.59830275871633
 20
-33.29362749516906
 30
0.0
 40
1.8
 41
0.0
 71
     1
 72
     1
  1
description
  7
CONVERTER_11
 73
     1
 44
1.20048019207683
  0
MTEXT
  5
1E1
330
76
100
AcDbEntity
  8
1
 62
     7
100
AcDbMText
 10
80.17070502209182
 20
-37.54362749516889
 30
0.0
 40
3.0
 41
0.0
 71
     5
 72
     1
  1
CES-STPG-GY-7
  7
CONVERTER_12
 73
     1
 44
1.20048019207683
  0
TEXT
  5
1E2
330
76
100
AcDbEntity
  8
1
 62
     2
100
AcDbText
 10
21.63361156852992
 20
-39.54362749516906
 30
0.0
 40
1.8
  1
1
 41
0.9
  7
CONVERTER_11
100
AcDbText
  0
TEXT
  5
1E3
330
76
100
AcDbEntity
  8
1
 62
     2
100
AcDbText
 10
6.84456772905841
 20
-39.59287614897096
 30
0.0
 40
1.8
  1
1
 41
0.9
  7
CONVERTER_11
100
AcDbText
  0
TEXT
  5
1E4
330
76
100
AcDbEntity
  8
1
 62
     2
100
AcDbText
 10
-1.80169724128359
 20
-39.55264471016079
 30
0.0
 40
1.8
  1
page
 41
0.9
  7
CONVERTER_11
100
AcDbText
  0
TEXT
  5
1E5
330
76
100
AcDbEntity
  8
1
 62
     2
100
AcDbText
 10
16.39830275871623
 20
-39.55264471016056
 30
0.0
 40
1.8
  1
of
 41
0.9
  7
CONVERTER_11
100
AcDbText
  0
MTEXT
  5
1E6
330
76
100
AcDbEntity
  8
1
 62
     3
100
AcDbMText
 10
-269.9884257142744
 20
132.1926566184852
 30
0.0
 40
1.8
 41
0.0
 71
     7
 72
     1
  3
Transfer or duplication of this document as well as the utilisation or\Pcommunication of its content are not permitted unless express consent\Pis granted. Violations give rise to claims for damages. All rights reserved\Pin case of patent, utility mo
  1
del or design patent registrations.
  7
CONVERTER_11
 11
0.0
 21
1.0
 31
0.0
 73
     1
 44
0.99639855942377
  0
MTEXT
  5
1E7
330
76
100
AcDbEntity
  8
1
 62
     3
100
AcDbMText
 10
-269.8342194031804
 20
-40.76671339566786
 30
0.0
 40
1.8
 41
0.0
 71
     7
 72
     1
  3
Weitergabe sowie Vervielfältigung dieses Dokuments, Verwertung und \PMitteilung seines Inhalts sind verboten, soweit nicht ausdrücklich gestattet. \PZuwiderhandlungen verpflichten zu Schadenersatz. Alle Rechte für den Fall\Pder Patent-, Gebrauchsmus
  1
ter- oder Designeintragung vorbehalten.
  7
CONVERTER_11
 11
0.0
 21
1.0
 31
0.0
 73
     1
 44
0.99639855942377
  0
HATCH
  5
1E8
330
76
100
AcDbEntity
  8
1
  6
Continuous
 62
     2
100
AcDbHatch
 10
0.0
 20
0.0
 30
0.0
210
0.0
220
0.0
230
1.0
  2
CUSTOM0
 70
     0
 71
     1
 91
        1
 92
        1
 93
       14
 72
     2
 10
9.439532034639114
 20
-31.9732227332475
 40
1.205656168390973
 50
164.9381082228765
 51
195.0618917770944
 73
     1
 72
     2
 10
9.858659878101918
 20
-31.8604323712126
 40
1.639695123939436
 50
195.0618917770921
 51
275.1581447696363
 73
     1
 72
     2
 10
9.569803783366012
 20
-28.66054178799095
 40
4.852596863498279
 50
275.1581447696238
 51
285.9799912583525
 73
     1
 72
     1
 10
10.90573170048381
 20
-33.32562409379187
 11
10.90573170048381
 21
-32.45310708698855
 72
     2
 10
9.727676658458819
 20
-30.5627563678388
 40
2.227384008972719
 50
58.06909105003633
 51
71.55192388186632
 73
     0
 72
     2
 10
10.14584439211973
 20
-31.81630214387599
 40
0.9059297849848243
 50
71.55192388184622
 51
113.3722778881338
 73
     0
 72
     2
 10
9.98940435941762
 20
-32.17829416258599
 40
0.5115800601947458
 50
113.3722778881721
 51
151.4785267423163
 73
     0
 72
     2
 10
10.36676161749801
 20
-31.9732227332475
 40
0.9410597353333263
 50
151.4785267423029
 51
208.5214732577307
 73
     0
 72
     2
 10
9.98940435941762
 20
-31.76815130390838
 40
0.5115800601948293
 50
208.5214732576837
 51
246.6277221118054
 73
     0
 72
     2
 10
10.14584439211973
 20
-32.13014332261901
 40
0.905929784985352
 50
246.6277221118694
 51
288.44807611814
 73
     0
 72
     2
 10
9.727676658458819
 20
-33.38368909865557
 40
2.227384008973467
 50
288.4480761181333
 51
301.9309089499628
 73
     0
 72
     1
 10
10.90573170048381
 20
-31.49333837950576
 11
10.90573170048381
 21
-30.62082137270249
 72
     2
 10
9.569803783366012
 20
-35.2859036785033
 40
4.852596863497989
 50
74.02000874164715
 51
84.84185523037608
 73
     1
 72
     2
 10
9.858659878101918
 20
-32.08601309528228
 40
1.639695123940499
 50
84.84185523036533
 51
164.9381082228904
 73
     1
 97
       14
330
1B9
330
102
330
188
330
1B8
330
189
330
18A
330
1B7
330
1B6
330
1B5
330
103
330
18B
330
18C
330
18D
330
18E
 75
     1
 76
     2
 52
45.0
 41
0.1
 77
     0
 78
     1
 53
45.0
 43
62.7811309658083
 44
-72.3161373035813
 45
-0.1414213562373095
 46
0.0
 79
     0
 98
        1
 10
0.0
 20
0.0
  0
HATCH
  5
1E9
330
76
100
AcDbEntity
  8
1
  6
Continuous
 62
     2
100
AcDbHatch
 10
0.0
 20
0.0
 30
0.0
210
0.0
220
0.0
230
1.0
  2
CUSTOM1
 70
     0
 71
     1
 91
        1
 92
        1
 93
       14
 72
     2
 10
9.439532034639114
 20
-31.9732227332475
 40
1.205656168390973
 50
164.9381082228765
 51
195.0618917770944
 73
     1
 72
     2
 10
9.858659878101918
 20
-31.8604323712126
 40
1.639695123939436
 50
195.0618917770921
 51
275.1581447696363
 73
     1
 72
     2
 10
9.569803783366012
 20
-28.66054178799095
 40
4.852596863498279
 50
275.1581447696238
 51
285.9799912583525
 73
     1
 72
     1
 10
10.90573170048381
 20
-33.32562409379187
 11
10.90573170048381
 21
-32.45310708698855
 72
     2
 10
9.727676658458819
 20
-30.5627563678388
 40
2.227384008972719
 50
58.06909105003633
 51
71.55192388186632
 73
     0
 72
     2
 10
10.14584439211973
 20
-31.81630214387599
 40
0.9059297849848243
 50
71.55192388184622
 51
113.3722778881338
 73
     0
 72
     2
 10
9.98940435941762
 20
-32.17829416258599
 40
0.5115800601947458
 50
113.3722778881721
 51
151.4785267423163
 73
     0
 72
     2
 10
10.36676161749801
 20
-31.9732227332475
 40
0.9410597353333263
 50
151.4785267423029
 51
208.5214732577307
 73
     0
 72
     2
 10
9.98940435941762
 20
-31.76815130390838
 40
0.5115800601948293
 50
208.5214732576837
 51
246.6277221118054
 73
     0
 72
     2
 10
10.14584439211973
 20
-32.13014332261901
 40
0.905929784985352
 50
246.6277221118694
 51
288.44807611814
 73
     0
 72
     2
 10
9.727676658458819
 20
-33.38368909865557
 40
2.227384008973467
 50
288.4480761181333
 51
301.9309089499628
 73
     0
 72
     1
 10
10.90573170048381
 20
-31.49333837950576
 11
10.90573170048381
 21
-30.62082137270249
 72
     2
 10
9.569803783366012
 20
-35.2859036785033
 40
4.852596863497989
 50
74.02000874164715
 51
84.84185523037608
 73
     1
 72
     2
 10
9.858659878101918
 20
-32.08601309528228
 40
1.639695123940499
 50
84.84185523036533
 51
164.9381082228904
 73
     1
 97
       14
330
1B9
330
102
330
188
330
1B8
330
189
330
18A
330
1B7
330
1B6
330
1B5
330
103
330
18B
330
18C
330
18D
330
18E
 75
     1
 76
     2
 52
45.0
 41
0.1
 77
     0
 78
     1
 53
45.0
 43
62.7811309658083
 44
-72.3161373035813
 45
-0.1414213562373095
 46
0.0
 79
     0
 98
        1
 10
0.0
 20
0.0
  0
HATCH
  5
1EA
330
76
100
AcDbEntity
  8
1
  6
Continuous
 62
     2
100
AcDbHatch
 10
0.0
 20
0.0
 30
0.0
210
0.0
220
0.0
230
1.0
  2
CUSTOM2
 70
     0
 71
     1
 91
        1
 92
        1
 93
       18
 72
     2
 10
25.9613613573548
 20
-32.08601309528228
 40
1.639695123940104
 50
90.0
 51
164.9381082228992
 73
     1
 72
     2
 10
25.54223351389311
 20
-31.9732227332475
 40
1.20565616839298
 50
164.9381082229021
 51
195.0618917770925
 73
     1
 72
     2
 10
25.9613613573548
 20
-31.8604323712126
 40
1.639695123940504
 50
195.0618917771008
 51
275.1581447696774
 73
     1
 72
     2
 10
25.67250526261893
 20
-28.66054178799095
 40
4.852596863498889
 50
275.1581447696373
 51
285.9799912583382
 73
     1
 72
     1
 10
27.00843317973562
 20
-33.32562409379239
 11
27.00843317973562
 21
-32.45310708698906
 72
     2
 10
25.83037813771171
 20
-30.56275636783926
 40
2.227384008972763
 50
58.06909105006061
 51
71.55192388186667
 73
     0
 72
     2
 10
26.24854587137372
 20
-31.81630214387599
 40
0.9059297849852189
 50
71.55192388192239
 51
113.3722778881915
 73
     0
 72
     2
 10
26.09210583867051
 20
-32.17829416258599
 40
0.5115800601959967
 50
113.3722778881612
 51
151.4785267423119
 73
     0
 72
     2
 10
26.46946309675201
 20
-31.9732227332475
 40
0.9410597353350337
 50
151.4785267423327
 51
208.521473257643
 73
     0
 72
     2
 10
26.09210583867051
 20
-31.76815130390838
 40
0.5115800601943982
 50
208.5214732575815
 51
250.6628567805175
 73
     0
 72
     2
 10
26.23877583677421
 20
-32.18610628429138
 40
0.9545230068260864
 50
250.6628567805719
 51
270.0
 73
     0
 72
     1
 10
26.23877583677421
 20
-31.23158327746529
 11
27.34241513634231
 21
-31.23158327746529
 72
     1
 10
27.34241513634231
 20
-31.23158327746529
 11
27.34241513634231
 21
-33.5001274951527
 72
     1
 10
27.34241513634231
 20
-33.5001274951527
 11
28.53520783851002
 21
-33.5001274951527
 72
     1
 10
28.53520783851002
 20
-33.5001274951527
 11
28.53520783851002
 21
-31.23158327746529
 72
     1
 10
28.53520783851002
 20
-31.23158327746529
 11
29.3463068759834
 21
-31.23158327746529
 72
     1
 10
29.3463068759834
 20
-31.23158327746529
 11
29.3463068759834
 21
-30.44631797134156
 72
     1
 10
29.3463068759834
 20
-30.44631797134156
 11
25.9613613573548
 21
-30.44631797134218
 97
       18
330
168
330
167
330
166
330
165
330
16A
330
104
330
1B2
330
193
330
1B1
330
194
330
1B0
330
1AF
330
105
330
1AE
330
1AD
330
195
330
196
330
169
 75
     1
 76
     2
 52
45.0
 41
0.1
 77
     0
 78
     1
 53
45.0
 43
62.7811309658083
 44
-72.3161373035813
 45
-0.1414213562373095
 46
0.0
 79
     0
 98
        1
 10
0.0
 20
0.0
  0
HATCH
  5
1EB
330
76
100
AcDbEntity
  8
1
  6
Continuous
 62
     2
100
AcDbHatch
 10
0.0
 20
0.0
 30
0.0
210
0.0
220
0.0
230
1.0
  2
CUSTOM3
 70
     0
 71
     1
 91
        1
 92
        1
 93
       18
 72
     2
 10
25.9613613573548
 20
-32.08601309528228
 40
1.639695123940104
 50
90.0
 51
164.9381082228992
 73
     1
 72
     2
 10
25.54223351389311
 20
-31.9732227332475
 40
1.20565616839298
 50
164.9381082229021
 51
195.0618917770925
 73
     1
 72
     2
 10
25.9613613573548
 20
-31.8604323712126
 40
1.639695123940504
 50
195.0618917771008
 51
275.1581447696774
 73
     1
 72
     2
 10
25.67250526261893
 20
-28.66054178799095
 40
4.852596863498889
 50
275.1581447696373
 51
285.9799912583382
 73
     1
 72
     1
 10
27.00843317973562
 20
-33.32562409379239
 11
27.00843317973562
 21
-32.45310708698906
 72
     2
 10
25.83037813771171
 20
-30.56275636783926
 40
2.227384008972763
 50
58.06909105006061
 51
71.55192388186667
 73
     0
 72
     2
 10
26.24854587137372
 20
-31.81630214387599
 40
0.9059297849852189
 50
71.55192388192239
 51
113.3722778881915
 73
     0
 72
     2
 10
26.09210583867051
 20
-32.17829416258599
 40
0.5115800601959967
 50
113.3722778881612
 51
151.4785267423119
 73
     0
 72
     2
 10
26.46946309675201
 20
-31.9732227332475
 40
0.9410597353350337
 50
151.4785267423327
 51
208.521473257643
 73
     0
 72
     2
 10
26.09210583867051
 20
-31.76815130390838
 40
0.5115800601943982
 50
208.5214732575815
 51
250.6628567805175
 73
     0
 72
     2
 10
26.23877583677421
 20
-32.18610628429138
 40
0.9545230068260864
 50
250.6628567805719
 51
270.0
 73
     0
 72
     1
 10
26.23877583677421
 20
-31.23158327746529
 11
27.34241513634231
 21
-31.23158327746529
 72
     1
 10
27.34241513634231
 20
-31.23158327746529
 11
27.34241513634231
 21
-33.5001274951527
 72
     1
 10
27.34241513634231
 20
-33.5001274951527
 11
28.53520783851002
 21
-33.5001274951527
 72
     1
 10
28.53520783851002
 20
-33.5001274951527
 11
28.53520783851002
 21
-31.23158327746529
 72
     1
 10
28.53520783851002
 20
-31.23158327746529
 11
29.3463068759834
 21
-31.23158327746529
 72
     1
 10
29.3463068759834
 20
-31.23158327746529
 11
29.3463068759834
 21
-30.44631797134156
 72
     1
 10
29.3463068759834
 20
-30.44631797134156
 11
25.9613613573548
 21
-30.44631797134218
 97
       18
330
168
330
167
330
166
330
165
330
16A
330
104
330
1B2
330
193
330
1B1
330
194
330
1B0
330
1AF
330
105
330
1AE
330
1AD
330
195
330
196
330
169
 75
     1
 76
     2
 52
45.0
 41
0.1
 77
     0
 78
     1
 53
45.0
 43
62.7811309658083
 44
-72.3161373035813
 45
-0.1414213562373095
 46
0.0
 79
     0
 98
        1
 10
0.0
 20
0.0
  0
HATCH
  5
1EC
330
76
100
AcDbEntity
  8
1
  6
Continuous
 62
     2
100
AcDbHatch
 10
0.0
 20
0.0
 30
0.0
210
0.0
220
0.0
230
1.0
  2
CUSTOM4
 70
     0
 71
     1
 91
        4
 92
        1
 93
        8
 72
     2
 10
1.859202260661704
 20
-27.51137211056926
 40
0.4242446153838877
 50
90.0
 51
180.0
 73
     1
 72
     1
 10
1.434957645278928
 20
-27.51137211056926
 11
1.434957645278928
 21
-33.0758828797695
 72
     2
 10
1.859202260661704
 20
-33.0758828797695
 40
0.4242446153827759
 50
180.0
 51
270.0
 73
     1
 72
     1
 10
1.859202260661704
 20
-33.5001274951527
 11
7.33251435137862
 21
-33.5001274951527
 72
     2
 10
7.33251435137862
 20
-33.0758828797695
 40
0.4242446153831949
 50
270.0
 51
360.0
 73
     1
 72
     1
 10
7.756758966762504
 20
-33.0758828797695
 11
7.756758966762504
 21
-27.51137211056926
 72
     2
 10
7.33251435137862
 20
-27.51137211056926
 40
0.4242446153838841
 50
0.0
 51
90.0
 73
     1
 72
     1
 10
7.33251435137862
 20
-27.08712749518537
 11
1.859202260661704
 21
-27.08712749518537
 97
        8
330
1A6
330
133
330
1A5
330
134
330
19C
330
131
330
1A7
330
132
 92
       16
 93
       12
 72
     1
 10
2.453096937408219
 20
-32.78757193959581
 11
3.928930198417817
 21
-32.78757193959581
 72
     2
 10
3.928930198417817
 20
-32.4718550165191
 40
0.3157169230767067
 50
270.0
 51
360.0
 73
     1
 72
     1
 10
4.24464712149441
 20
-32.4718550165191
 11
4.24464712149441
 21
-30.94108408498749
 72
     2
 10
3.928930198417817
 20
-30.94108408498749
 40
0.3157169230765926
 50
0.0
 51
64.80558935144538
 73
     1
 72
     2
 10
4.451514645992802
 20
-29.83025433892476
 40
0.911897523557643
 50
115.1944106485087
 51
244.8055893514805
 73
     0
 72
     2
 10
3.928930198417817
 20
-28.7194245928626
 40
0.3157169230760595
 50
295.1944106485678
 51
360.0
 73
     1
 72
     1
 10
4.24464712149441
 20
-28.7194245928626
 11
4.24464712149441
 21
-28.11539997380197
 72
     2
 10
3.928930198417817
 20
-28.11539997380197
 40
0.3157169230765926
 50
0.0
 51
90.0
 73
     1
 72
     1
 10
3.928930198417817
 20
-27.79968305072589
 11
2.453096937408219
 21
-27.79968305072589
 72
     2
 10
2.453096937408219
 20
-28.11539997380197
 40
0.3157169230760815
 50
90.0
 51
180.0
 73
     1
 72
     1
 10
2.137380014332621
 20
-28.11539997380197
 11
2.137380014332621
 21
-32.4718550165191
 72
     2
 10
2.453096937408219
 20
-32.4718550165191
 40
0.3157169230755978
 50
180.0
 51
270.0
 73
     1
 97
       12
330
138
330
199
330
137
330
1AA
330
136
330
1A9
330
19A
330
19B
330
135
330
1A8
330
130
330
1AB
 92
       16
 93
        8
 72
     2
 10
4.502602925852102
 20
-29.83025433892476
 40
0.9118481501443972
 50
295.3740086781803
 51
424.6259913218091
 73
     1
 72
     2
 10
5.028645623940008
 20
-28.721112738957
 40
0.315716923076792
 50
115.3740086783651
 51
180.0
 73
     0
 72
     1
 10
4.712928700863216
 20
-28.721112738957
 11
4.712928700863216
 21
-28.11557745045019
 72
     2
 10
5.028645623940008
 20
-28.11557745045019
 40
0.3157169230761815
 50
180.0
 51
269.8110329574335
 73
     0
 72
     2
 10
5.034261759250029
 20
-29.81841239801918
 40
2.018561131933266
 50
269.8110329575827
 51
450.1889670424174
 73
     0
 72
     2
 10
5.028645623940008
 20
-31.52124734558817
 40
0.315716923076792
 50
90.18896704256652
 51
180.0
 73
     0
 72
     1
 10
4.712928700863216
 20
-31.52124734558817
 11
4.712928700863216
 21
-30.93939593889309
 72
     2
 10
5.028645623940008
 20
-30.93939593889309
 40
0.3157169230765328
 50
180.0
 51
244.6259913216482
 73
     0
 97
        8
330
1B4
330
190
330
16C
330
1B3
330
191
330
192
330
16B
330
18F
 92
       16
 93
        1
 72
     2
 10
4.478787911179325
 20
-29.83025433892476
 40
0.470978932778479
 50
0.0
 51
360.0
 73
     1
 97
        1
330
1BA
 75
     1
 76
     2
 52
45.0
 41
0.1
 77
     0
 78
     1
 53
45.0
 43
62.7811309658083
 44
-72.3161373035813
 45
-0.1414213562373095
 46
0.0
 79
     0
 98
        1
 10
0.0
 20
0.0
  0
HATCH
  5
1ED
330
76
100
AcDbEntity
  8
1
  6
Continuous
 62
     2
100
AcDbHatch
 10
0.0
 20
0.0
 30
0.0
210
0.0
220
0.0
230
1.0
  2
CUSTOM5
 70
     0
 71
     1
 91
        4
 92
        1
 93
        8
 72
     2
 10
1.859202260661704
 20
-27.51137211056926
 40
0.4242446153838877
 50
90.0
 51
180.0
 73
     1
 72
     1
 10
1.434957645278928
 20
-27.51137211056926
 11
1.434957645278928
 21
-33.0758828797695
 72
     2
 10
1.859202260661704
 20
-33.0758828797695
 40
0.4242446153827759
 50
180.0
 51
270.0
 73
     1
 72
     1
 10
1.859202260661704
 20
-33.5001274951527
 11
7.33251435137862
 21
-33.5001274951527
 72
     2
 10
7.33251435137862
 20
-33.0758828797695
 40
0.4242446153831949
 50
270.0
 51
360.0
 73
     1
 72
     1
 10
7.756758966762504
 20
-33.0758828797695
 11
7.756758966762504
 21
-27.51137211056926
 72
     2
 10
7.33251435137862
 20
-27.51137211056926
 40
0.4242446153838841
 50
0.0
 51
90.0
 73
     1
 72
     1
 10
7.33251435137862
 20
-27.08712749518537
 11
1.859202260661704
 21
-27.08712749518537
 97
        8
330
1A6
330
133
330
1A5
330
134
330
19C
330
131
330
1A7
330
132
 92
       16
 93
       12
 72
     1
 10
2.453096937408219
 20
-32.78757193959581
 11
3.928930198417817
 21
-32.78757193959581
 72
     2
 10
3.928930198417817
 20
-32.4718550165191
 40
0.3157169230767067
 50
270.0
 51
360.0
 73
     1
 72
     1
 10
4.24464712149441
 20
-32.4718550165191
 11
4.24464712149441
 21
-30.94108408498749
 72
     2
 10
3.928930198417817
 20
-30.94108408498749
 40
0.3157169230765926
 50
0.0
 51
64.80558935144538
 73
     1
 72
     2
 10
4.451514645992802
 20
-29.83025433892476
 40
0.911897523557643
 50
115.1944106485087
 51
244.8055893514805
 73
     0
 72
     2
 10
3.928930198417817
 20
-28.7194245928626
 40
0.3157169230760595
 50
295.1944106485678
 51
360.0
 73
     1
 72
     1
 10
4.24464712149441
 20
-28.7194245928626
 11
4.24464712149441
 21
-28.11539997380197
 72
     2
 10
3.928930198417817
 20
-28.11539997380197
 40
0.3157169230765926
 50
0.0
 51
90.0
 73
     1
 72
     1
 10
3.928930198417817
 20
-27.79968305072589
 11
2.453096937408219
 21
-27.79968305072589
 72
     2
 10
2.453096937408219
 20
-28.11539997380197
 40
0.3157169230760815
 50
90.0
 51
180.0
 73
     1
 72
     1
 10
2.137380014332621
 20
-28.11539997380197
 11
2.137380014332621
 21
-32.4718550165191
 72
     2
 10
2.453096937408219
 20
-32.4718550165191
 40
0.3157169230755978
 50
180.0
 51
270.0
 73
     1
 97
       12
330
138
330
199
330
137
330
1AA
330
136
330
1A9
330
19A
330
19B
330
135
330
1A8
330
130
330
1AB
 92
       16
 93
        8
 72
     2
 10
4.502602925852102
 20
-29.83025433892476
 40
0.9118481501443972
 50
295.3740086781803
 51
424.6259913218091
 73
     1
 72
     2
 10
5.028645623940008
 20
-28.721112738957
 40
0.315716923076792
 50
115.3740086783651
 51
180.0
 73
     0
 72
     1
 10
4.712928700863216
 20
-28.721112738957
 11
4.712928700863216
 21
-28.11557745045019
 72
     2
 10
5.028645623940008
 20
-28.11557745045019
 40
0.3157169230761815
 50
180.0
 51
269.8110329574335
 73
     0
 72
     2
 10
5.034261759250029
 20
-29.81841239801918
 40
2.018561131933266
 50
269.8110329575827
 51
450.1889670424174
 73
     0
 72
     2
 10
5.028645623940008
 20
-31.52124734558817
 40
0.315716923076792
 50
90.18896704256652
 51
180.0
 73
     0
 72
     1
 10
4.712928700863216
 20
-31.52124734558817
 11
4.712928700863216
 21
-30.93939593889309
 72
     2
 10
5.028645623940008
 20
-30.93939593889309
 40
0.3157169230765328
 50
180.0
 51
244.6259913216482
 73
     0
 97
        8
330
1B4
330
190
330
16C
330
1B3
330
191
330
192
330
16B
330
18F
 92
       16
 93
        1
 72
     2
 10
4.478787911179325
 20
-29.83025433892476
 40
0.470978932778479
 50
0.0
 51
360.0
 73
     1
 97
        1
330
1BA
 75
     1
 76
     2
 52
45.0
 41
0.1
 77
     0
 78
     1
 53
45.0
 43
62.7811309658083
 44
-72.3161373035813
 45
-0.1414213562373095
 46
0.0
 79
     0
 98
        1
 10
0.0
 20
0.0
  0
HATCH
  5
1EE
330
76
100
AcDbEntity
  8
1
  6
Continuous
 62
     2
100
AcDbHatch
 10
0.0
 20
0.0
 30
0.0
210
0.0
220
0.0
230
1.0
  2
CUSTOM6
 70
     0
 71
     1
 91
        2
 92
        1
 93
       12
 72
     2
 10
16.53436626465111
 20
-28.61403225707306
 40
1.526904761905769
 50
90.0
 51
270.0
 73
     1
 72
     1
 10
16.53436626465111
 20
-30.14093701897838
 11
19.68468598843202
 21
-30.14093701897838
 72
     1
 10
19.68468598843202
 20
-30.14093701897838
 11
19.68468598843202
 21
-29.44292341353599
 72
     1
 10
19.68468598843202
 20
-29.44292341353599
 11
18.3487581620044
 21
-29.44292341353599
 72
     1
 10
18.3487581620044
 20
-29.44292341353599
 11
18.3487581620044
 21
-28.96303905979426
 72
     1
 10
18.3487581620044
 20
-28.96303905979426
 11
19.68468598843202
 21
-28.96303905979426
 72
     1
 10
19.68468598843202
 20
-28.96303905979426
 11
19.68468598843202
 21
-28.26502545435187
 72
     1
 10
19.68468598843202
 20
-28.26502545435187
 11
18.3487581620044
 21
-28.26502545435187
 72
     1
 10
18.3487581620044
 20
-28.26502545435187
 11
18.3487581620044
 21
-27.78514110061019
 72
     1
 10
18.3487581620044
 20
-27.78514110061019
 11
19.68468598843202
 21
-27.78514110061019
 72
     1
 10
19.68468598843202
 20
-27.78514110061019
 11
19.68468598843202
 21
-27.08712749516729
 72
     1
 10
19.68468598843202
 20
-27.08712749516729
 11
16.53436626465111
 21
-27.08712749516729
 97
       12
330
127
330
121
330
148
330
147
330
146
330
145
330
122
330
123
330
124
330
125
330
197
330
126
 92
       16
 93
        4
 72
     2
 10
16.95037831116252
 20
-28.61403225707306
 40
0.7717997786796146
 50
141.8795802028485
 51
218.1204197971557
 73
     1
 72
     2
 10
16.75063827481631
 20
-28.7707634351936
 40
0.5179085730134558
 50
218.120419797134
 51
321.8795802028582
 73
     1
 72
     2
 10
16.55089823847013
 20
-28.61403225707306
 40
0.7717997786795467
 50
321.8795802028378
 51
398.1204197971581
 73
     1
 72
     2
 10
16.75063827481631
 20
-28.45730107895258
 40
0.5179085730133598
 50
38.12041979714083
 51
141.8795802028669
 73
     1
 97
        4
330
1A4
330
1A3
330
19E
330
19D
 75
     1
 76
     2
 52
45.0
 41
0.1
 77
     0
 78
     1
 53
45.0
 43
62.7811309658083
 44
-72.3161373035813
 45
-0.1414213562373095
 46
0.0
 79
     0
 98
        1
 10
0.0
 20
0.0
  0
HATCH
  5
1EF
330
76
100
AcDbEntity
  8
1
  6
Continuous
 62
     2
100
AcDbHatch
 10
0.0
 20
0.0
 30
0.0
210
0.0
220
0.0
230
1.0
  2
CUSTOM7
 70
     0
 71
     1
 91
        2
 92
        1
 93
       12
 72
     2
 10
16.53436626465111
 20
-28.61403225707306
 40
1.526904761905769
 50
90.0
 51
270.0
 73
     1
 72
     1
 10
16.53436626465111
 20
-30.14093701897838
 11
19.68468598843202
 21
-30.14093701897838
 72
     1
 10
19.68468598843202
 20
-30.14093701897838
 11
19.68468598843202
 21
-29.44292341353599
 72
     1
 10
19.68468598843202
 20
-29.44292341353599
 11
18.3487581620044
 21
-29.44292341353599
 72
     1
 10
18.3487581620044
 20
-29.44292341353599
 11
18.3487581620044
 21
-28.96303905979426
 72
     1
 10
18.3487581620044
 20
-28.96303905979426
 11
19.68468598843202
 21
-28.96303905979426
 72
     1
 10
19.68468598843202
 20
-28.96303905979426
 11
19.68468598843202
 21
-28.26502545435187
 72
     1
 10
19.68468598843202
 20
-28.26502545435187
 11
18.3487581620044
 21
-28.26502545435187
 72
     1
 10
18.3487581620044
 20
-28.26502545435187
 11
18.3487581620044
 21
-27.78514110061019
 72
     1
 10
18.3487581620044
 20
-27.78514110061019
 11
19.68468598843202
 21
-27.78514110061019
 72
     1
 10
19.68468598843202
 20
-27.78514110061019
 11
19.68468598843202
 21
-27.08712749516729
 72
     1
 10
19.68468598843202
 20
-27.08712749516729
 11
16.53436626465111
 21
-27.08712749516729
 97
       12
330
127
330
121
330
148
330
147
330
146
330
145
330
122
330
123
330
124
330
125
330
197
330
126
 92
       16
 93
        4
 72
     2
 10
16.95037831116252
 20
-28.61403225707306
 40
0.7717997786796146
 50
141.8795802028485
 51
218.1204197971557
 73
     1
 72
     2
 10
16.75063827481631
 20
-28.7707634351936
 40
0.5179085730134558
 50
218.120419797134
 51
321.8795802028582
 73
     1
 72
     2
 10
16.55089823847013
 20
-28.61403225707306
 40
0.7717997786795467
 50
321.8795802028378
 51
398.1204197971581
 73
     1
 72
     2
 10
16.75063827481631
 20
-28.45730107895258
 40
0.5179085730133598
 50
38.12041979714083
 51
141.8795802028669
 73
     1
 97
        4
330
1A4
330
1A3
330
19E
330
19D
 75
     1
 76
     2
 52
45.0
 41
0.1
 77
     0
 78
     1
 53
45.0
 43
62.7811309658083
 44
-72.3161373035813
 45
-0.1414213562373095
 46
0.0
 79
     0
 98
        1
 10
0.0
 20
0.0
  0
HATCH
  5
1F0
330
76
100
AcDbEntity
  8
1
  6
Continuous
 62
     2
100
AcDbHatch
 10
0.0
 20
0.0
 30
0.0
210
0.0
220
0.0
230
1.0
  2
CUSTOM8
 70
     0
 71
     1
 91
        2
 92
        1
 93
        4
 72
     2
 10
12.50875090218941
 20
-31.9732227332475
 40
1.458034083651617
 50
117.5481481756599
 51
242.4518518243369
 73
     1
 72
     2
 10
12.78969079402282
 20
-31.43464772294408
 40
2.065479772208633
 50
242.4518518243384
 51
297.5481481756859
 73
     1
 72
     2
 10
13.070630685856
 20
-31.9732227332475
 40
1.458034083652026
 50
297.5481481757055
 51
422.4518518242976
 73
     1
 72
     2
 10
12.78969079402282
 20
-32.51179774355029
 40
2.065479772208688
 50
62.45185182430828
 51
117.5481481756674
 73
     1
 97
        4
330
1A2
330
19F
330
1A1
330
1A0
 92
       16
 93
        4
 72
     2
 10
12.78969079402282
 20
-31.81649155512696
 40
0.5179085730132792
 50
38.12041979716481
 51
141.8795802028569
 73
     1
 72
     2
 10
12.9894308303688
 20
-31.9732227332475
 40
0.7717997786795517
 50
141.8795802028277
 51
218.1204197971619
 73
     1
 72
     2
 10
12.78969079402282
 20
-32.12995391136735
 40
0.5179085730138452
 50
218.1204197971876
 51
321.8795802027906
 73
     1
 72
     2
 10
12.58995075767641
 20
-31.9732227332475
 40
0.7717997786795288
 50
321.8795802028432
 51
398.1204197971672
 73
     1
 97
        4
330
185
330
186
330
187
330
184
 75
     1
 76
     2
 52
45.0
 41
0.1
 77
     0
 78
     1
 53
45.0
 43
62.7811309658083
 44
-72.3161373035813
 45
-0.1414213562373095
 46
0.0
 79
     0
 98
        1
 10
0.0
 20
0.0
  0
HATCH
  5
1F1
330
76
100
AcDbEntity
  8
1
  6
Continuous
 62
     2
100
AcDbHatch
 10
0.0
 20
0.0
 30
0.0
210
0.0
220
0.0
230
1.0
  2
CUSTOM9
 70
     0
 71
     1
 91
        2
 92
        1
 93
        4
 72
     2
 10
12.50875090218941
 20
-31.9732227332475
 40
1.458034083651617
 50
117.5481481756599
 51
242.4518518243369
 73
     1
 72
     2
 10
12.78969079402282
 20
-31.43464772294408
 40
2.065479772208633
 50
242.4518518243384
 51
297.5481481756859
 73
     1
 72
     2
 10
13.070630685856
 20
-31.9732227332475
 40
1.458034083652026
 50
297.5481481757055
 51
422.4518518242976
 73
     1
 72
     2
 10
12.78969079402282
 20
-32.51179774355029
 40
2.065479772208688
 50
62.45185182430828
 51
117.5481481756674
 73
     1
 97
        4
330
1A2
330
19F
330
1A1
330
1A0
 92
       16
 93
        4
 72
     2
 10
12.78969079402282
 20
-31.81649155512696
 40
0.5179085730132792
 50
38.12041979716481
 51
141.8795802028569
 73
     1
 72
     2
 10
12.9894308303688
 20
-31.9732227332475
 40
0.7717997786795517
 50
141.8795802028277
 51
218.1204197971619
 73
     1
 72
     2
 10
12.78969079402282
 20
-32.12995391136735
 40
0.5179085730138452
 50
218.1204197971876
 51
321.8795802027906
 73
     1
 72
     2
 10
12.58995075767641
 20
-31.9732227332475
 40
0.7717997786795288
 50
321.8795802028432
 51
398.1204197971672
 73
     1
 97
        4
330
185
330
186
330
187
330
184
 75
     1
 76
     2
 52
45.0
 41
0.1
 77
     0
 78
     1
 53
45.0
 43
62.7811309658083
 44
-72.3161373035813
 45
-0.1414213562373095
 46
0.0
 79
     0
 98
        1
 10
0.0
 20
0.0
  0
HATCH
  5
1F2
330
76
100
AcDbEntity
  8
1
  6
Continuous
 62
     2
100
AcDbHatch
 10
0.0
 20
0.0
 30
0.0
210
0.0
220
0.0
230
1.0
  2
CUSTOM10
 70
     0
 71
     1
 91
        2
 92
        1
 93
        6
 72
     1
 10
8.233876047629309
 20
-27.08712749516729
 11
8.233876047629309
 21
-30.14093701897838
 72
     1
 10
8.233876047629309
 20
-30.14093701897838
 11
9.474380457883314
 21
-30.14093701897838
 72
     1
 10
9.474380457883314
 20
-30.14093701897838
 11
9.474380457883314
 21
-29.19785877783465
 72
     1
 10
9.474380457883314
 20
-29.19785877783465
 11
10.23314804566371
 21
-29.19785877783465
 72
     2
 10
10.23314804566371
 20
-28.142493136501
 40
1.055365641333651
 50
270.0
 51
450.0
 73
     1
 72
     1
 10
10.23314804566371
 20
-27.08712749516729
 11
8.233876047629309
 21
-27.08712749516729
 97
        6
330
1AC
330
139
330
12F
330
12E
330
13B
330
13A
 92
       16
 93
        4
 72
     1
 10
9.791675519425326
 20
-27.75023334060728
 11
9.474380457883314
 21
-27.75023334060728
 72
     1
 10
9.474380457883314
 20
-27.75023334060728
 11
9.474380457883314
 21
-28.45596098994957
 72
     1
 10
9.474380457883314
 20
-28.45596098994957
 11
9.791675519425326
 21
-28.45596098994957
 72
     2
 10
9.791675519425326
 20
-28.10309716527848
 40
0.3528638246710898
 50
270.0
 51
450.0
 73
     1
 97
        4
330
13C
330
12D
330
13D
330
198
 75
     1
 76
     2
 52
45.0
 41
0.1
 77
     0
 78
     1
 53
45.0
 43
62.7811309658083
 44
-72.3161373035813
 45
-0.1414213562373095
 46
0.0
 79
     0
 98
        1
 10
0.0
 20
0.0
  0
HATCH
  5
1F3
330
76
100
AcDbEntity
  8
1
  6
Continuous
 62
     2
100
AcDbHatch
 10
0.0
 20
0.0
 30
0.0
210
0.0
220
0.0
230
1.0
  2
CUSTOM11
 70
     0
 71
     1
 91
        2
 92
        1
 93
        6
 72
     1
 10
8.233876047629309
 20
-27.08712749516729
 11
8.233876047629309
 21
-30.14093701897838
 72
     1
 10
8.233876047629309
 20
-30.14093701897838
 11
9.474380457883314
 21
-30.14093701897838
 72
     1
 10
9.474380457883314
 20
-30.14093701897838
 11
9.474380457883314
 21
-29.19785877783465
 72
     1
 10
9.474380457883314
 20
-29.19785877783465
 11
10.23314804566371
 21
-29.19785877783465
 72
     2
 10
10.23314804566371
 20
-28.142493136501
 40
1.055365641333651
 50
270.0
 51
450.0
 73
     1
 72
     1
 10
10.23314804566371
 20
-27.08712749516729
 11
8.233876047629309
 21
-27.08712749516729
 97
        6
330
1AC
330
139
330
12F
330
12E
330
13B
330
13A
 92
       16
 93
        4
 72
     1
 10
9.791675519425326
 20
-27.75023334060728
 11
9.474380457883314
 21
-27.75023334060728
 72
     1
 10
9.474380457883314
 20
-27.75023334060728
 11
9.474380457883314
 21
-28.45596098994957
 72
     1
 10
9.474380457883314
 20
-28.45596098994957
 11
9.791675519425326
 21
-28.45596098994957
 72
     2
 10
9.791675519425326
 20
-28.10309716527848
 40
0.3528638246710898
 50
270.0
 51
450.0
 73
     1
 97
        4
330
13C
330
12D
330
13D
330
198
 75
     1
 76
     2
 52
45.0
 41
0.1
 77
     0
 78
     1
 53
45.0
 43
62.7811309658083
 44
-72.3161373035813
 45
-0.1414213562373095
 46
0.0
 79
     0
 98
        1
 10
0.0
 20
0.0
  0
HATCH
  5
1F4
330
76
100
AcDbEntity
  8
1
  6
Continuous
 62
     2
100
AcDbHatch
 10
0.0
 20
0.0
 30
0.0
210
0.0
220
0.0
230
1.0
  2
CUSTOM12
 70
     0
 71
     1
 91
        1
 92
        1
 93
       12
 72
     1
 10
27.84815924206251
 20
-27.08712749516729
 11
29.25088345980973
 21
-27.08712749516729
 72
     1
 10
29.25088345980973
 20
-27.08712749516729
 11
27.94835382904313
 21
-28.5600780252035
 72
     1
 10
27.94835382904313
 20
-28.5600780252035
 11
29.3463068759834
 21
-30.14093701897838
 72
     1
 10
29.3463068759834
 20
-30.14093701897838
 11
27.9435826582351
 21
-30.14093701897838
 72
     1
 10
27.9435826582351
 20
-30.14093701897838
 11
27.24699172016972
 21
-29.35320523368466
 72
     1
 10
27.24699172016972
 20
-29.35320523368466
 11
26.55040078210391
 21
-30.14093701897838
 72
     1
 10
26.55040078210391
 20
-30.14093701897838
 11
25.14767656435581
 21
-30.14093701897838
 72
     1
 10
25.14767656435581
 20
-30.14093701897838
 11
26.54562961129611
 21
-28.5600780252035
 72
     1
 10
26.54562961129611
 20
-28.5600780252035
 11
25.24309998052863
 21
-27.08712749516729
 72
     1
 10
25.24309998052863
 20
-27.08712749516729
 11
26.64582419827781
 21
-27.08712749516729
 72
     1
 10
26.64582419827781
 20
-27.08712749516729
 11
27.24699172016972
 21
-27.76695081672278
 72
     1
 10
27.24699172016972
 20
-27.76695081672278
 11
27.84815924206251
 21
-27.08712749516729
 97
       12
330
108
330
161
330
160
330
15F
330
15E
330
109
330
10A
330
106
330
107
330
164
330
163
330
162
 75
     1
 76
     2
 52
45.0
 41
0.1
 77
     0
 78
     1
 53
45.0
 43
62.7811309658083
 44
-72.3161373035813
 45
-0.1414213562373095
 46
0.0
 79
     0
 98
        1
 10
0.0
 20
0.0
  0
HATCH
  5
1F5
330
76
100
AcDbEntity
  8
1
  6
Continuous
 62
     2
100
AcDbHatch
 10
0.0
 20
0.0
 30
0.0
210
0.0
220
0.0
230
1.0
  2
CUSTOM13
 70
     0
 71
     1
 91
        1
 92
        1
 93
       12
 72
     1
 10
27.84815924206251
 20
-27.08712749516729
 11
29.25088345980973
 21
-27.08712749516729
 72
     1
 10
29.25088345980973
 20
-27.08712749516729
 11
27.94835382904313
 21
-28.5600780252035
 72
     1
 10
27.94835382904313
 20
-28.5600780252035
 11
29.3463068759834
 21
-30.14093701897838
 72
     1
 10
29.3463068759834
 20
-30.14093701897838
 11
27.9435826582351
 21
-30.14093701897838
 72
     1
 10
27.9435826582351
 20
-30.14093701897838
 11
27.24699172016972
 21
-29.35320523368466
 72
     1
 10
27.24699172016972
 20
-29.35320523368466
 11
26.55040078210391
 21
-30.14093701897838
 72
     1
 10
26.55040078210391
 20
-30.14093701897838
 11
25.14767656435581
 21
-30.14093701897838
 72
     1
 10
25.14767656435581
 20
-30.14093701897838
 11
26.54562961129611
 21
-28.5600780252035
 72
     1
 10
26.54562961129611
 20
-28.5600780252035
 11
25.24309998052863
 21
-27.08712749516729
 72
     1
 10
25.24309998052863
 20
-27.08712749516729
 11
26.64582419827781
 21
-27.08712749516729
 72
     1
 10
26.64582419827781
 20
-27.08712749516729
 11
27.24699172016972
 21
-27.76695081672278
 72
     1
 10
27.24699172016972
 20
-27.76695081672278
 11
27.84815924206251
 21
-27.08712749516729
 97
       12
330
108
330
161
330
160
330
15F
330
15E
330
109
330
10A
330
106
330
107
330
164
330
163
330
162
 75
     1
 76
     2
 52
45.0
 41
0.1
 77
     0
 78
     1
 53
45.0
 43
62.7811309658083
 44
-72.3161373035813
 45
-0.1414213562373095
 46
0.0
 79
     0
 98
        1
 10
0.0
 20
0.0
  0
HATCH
  5
1F6
330
76
100
AcDbEntity
  8
1
  6
Continuous
 62
     2
100
AcDbHatch
 10
0.0
 20
0.0
 30
0.0
210
0.0
220
0.0
230
1.0
  2
CUSTOM14
 70
     0
 71
     1
 91
        1
 92
        1
 93
        4
 72
     1
 10
25.02839729413893
 20
-27.08712749516729
 11
25.02839729413893
 21
-30.14093701897838
 72
     1
 10
25.02839729413893
 20
-30.14093701897838
 11
23.787892883886
 21
-30.14093701897838
 72
     1
 10
23.787892883886
 20
-30.14093701897838
 11
23.787892883886
 21
-27.08712749516729
 72
     1
 10
23.787892883886
 20
-27.08712749516729
 11
25.02839729413893
 21
-27.08712749516729
 97
        4
330
15C
330
10B
330
15B
330
15D
 75
     1
 76
     2
 52
45.0
 41
0.1
 77
     0
 78
     1
 53
45.0
 43
62.7811309658083
 44
-72.3161373035813
 45
-0.1414213562373095
 46
0.0
 79
     0
 98
        1
 10
0.0
 20
0.0
  0
HATCH
  5
1F7
330
76
100
AcDbEntity
  8
1
  6
Continuous
 62
     2
100
AcDbHatch
 10
0.0
 20
0.0
 30
0.0
210
0.0
220
0.0
230
1.0
  2
CUSTOM15
 70
     0
 71
     1
 91
        1
 92
        1
 93
        4
 72
     1
 10
25.02839729413893
 20
-27.08712749516729
 11
25.02839729413893
 21
-30.14093701897838
 72
     1
 10
25.02839729413893
 20
-30.14093701897838
 11
23.787892883886
 21
-30.14093701897838
 72
     1
 10
23.787892883886
 20
-30.14093701897838
 11
23.787892883886
 21
-27.08712749516729
 72
     1
 10
23.787892883886
 20
-27.08712749516729
 11
25.02839729413893
 21
-27.08712749516729
 97
        4
330
15C
330
10B
330
15B
330
15D
 75
     1
 76
     2
 52
45.0
 41
0.1
 77
     0
 78
     1
 53
45.0
 43
62.7811309658083
 44
-72.3161373035813
 45
-0.1414213562373095
 46
0.0
 79
     0
 98
        1
 10
0.0
 20
0.0
  0
HATCH
  5
1F8
330
76
100
AcDbEntity
  8
1
  6
Continuous
 62
     2
100
AcDbHatch
 10
0.0
 20
0.0
 30
0.0
210
0.0
220
0.0
230
1.0
  2
CUSTOM16
 70
     0
 71
     1
 91
        2
 92
        1
 93
        8
 72
     1
 10
24.6379532906069
 20
-33.5001274951527
 11
23.39744888035301
 21
-33.5001274951527
 72
     1
 10
23.39744888035301
 20
-33.5001274951527
 11
23.18596882687723
 21
-32.9591669509349
 72
     1
 10
23.18596882687723
 20
-32.9591669509349
 11
22.0535272502033
 21
-32.9591669509349
 72
     1
 10
22.0535272502033
 20
-32.9591669509349
 11
21.84204719672752
 21
-33.5001274951527
 72
     1
 10
21.84204719672752
 20
-33.5001274951527
 11
20.60154278647462
 21
-33.5001274951527
 72
     1
 10
20.60154278647462
 20
-33.5001274951527
 11
21.99949583341382
 21
-30.44631797134156
 72
     1
 10
21.99949583341382
 20
-30.44631797134156
 11
23.24000024366663
 21
-30.44631797134156
 72
     1
 10
23.24000024366663
 20
-30.44631797134156
 11
24.6379532906069
 21
-33.5001274951527
 97
        8
330
157
330
111
330
156
330
159
330
10E
330
158
330
10F
330
110
 92
       16
 93
        3
 72
     1
 10
22.31958280134842
 20
-32.2786036856283
 11
22.91991327573092
 21
-32.2786036856283
 72
     1
 10
22.91991327573092
 20
-32.2786036856283
 11
22.61974803854071
 21
-31.5107887196416
 72
     1
 10
22.61974803854071
 20
-31.5107887196416
 11
22.31958280134842
 21
-32.2786036856283
 97
        3
330
10D
330
10C
330
15A
 75
     1
 76
     2
 52
45.0
 41
0.1
 77
     0
 78
     1
 53
45.0
 43
62.7811309658083
 44
-72.3161373035813
 45
-0.1414213562373095
 46
0.0
 79
     0
 98
        1
 10
0.0
 20
0.0
  0
HATCH
  5
1F9
330
76
100
AcDbEntity
  8
1
  6
Continuous
 62
     2
100
AcDbHatch
 10
0.0
 20
0.0
 30
0.0
210
0.0
220
0.0
230
1.0
  2
CUSTOM17
 70
     0
 71
     1
 91
        2
 92
        1
 93
        8
 72
     1
 10
24.6379532906069
 20
-33.5001274951527
 11
23.39744888035301
 21
-33.5001274951527
 72
     1
 10
23.39744888035301
 20
-33.5001274951527
 11
23.18596882687723
 21
-32.9591669509349
 72
     1
 10
23.18596882687723
 20
-32.9591669509349
 11
22.0535272502033
 21
-32.9591669509349
 72
     1
 10
22.0535272502033
 20
-32.9591669509349
 11
21.84204719672752
 21
-33.5001274951527
 72
     1
 10
21.84204719672752
 20
-33.5001274951527
 11
20.60154278647462
 21
-33.5001274951527
 72
     1
 10
20.60154278647462
 20
-33.5001274951527
 11
21.99949583341382
 21
-30.44631797134156
 72
     1
 10
21.99949583341382
 20
-30.44631797134156
 11
23.24000024366663
 21
-30.44631797134156
 72
     1
 10
23.24000024366663
 20
-30.44631797134156
 11
24.6379532906069
 21
-33.5001274951527
 97
        8
330
157
330
111
330
156
330
159
330
10E
330
158
330
10F
330
110
 92
       16
 93
        3
 72
     1
 10
22.31958280134842
 20
-32.2786036856283
 11
22.91991327573092
 21
-32.2786036856283
 72
     1
 10
22.91991327573092
 20
-32.2786036856283
 11
22.61974803854071
 21
-31.5107887196416
 72
     1
 10
22.61974803854071
 20
-31.5107887196416
 11
22.31958280134842
 21
-32.2786036856283
 97
        3
330
10D
330
10C
330
15A
 75
     1
 76
     2
 52
45.0
 41
0.1
 77
     0
 78
     1
 53
45.0
 43
62.7811309658083
 44
-72.3161373035813
 45
-0.1414213562373095
 46
0.0
 79
     0
 98
        1
 10
0.0
 20
0.0
  0
HATCH
  5
1FA
330
76
100
AcDbEntity
  8
1
  6
Continuous
 62
     2
100
AcDbHatch
 10
0.0
 20
0.0
 30
0.0
210
0.0
220
0.0
230
1.0
  2
CUSTOM18
 70
     0
 71
     1
 91
        1
 92
        1
 93
        8
 72
     1
 10
18.44403064729232
 20
-30.44631797134156
 11
18.44403064729232
 21
-31.23158327746529
 72
     1
 10
18.44403064729232
 20
-31.23158327746529
 11
19.25512968476701
 21
-31.23158327746529
 72
     1
 10
19.25512968476701
 20
-31.23158327746529
 11
19.25512968476701
 21
-33.5001274951527
 72
     1
 10
19.25512968476701
 20
-33.5001274951527
 11
20.44792238693341
 21
-33.5001274951527
 72
     1
 10
20.44792238693341
 20
-33.5001274951527
 11
20.44792238693341
 21
-31.23158327746529
 72
     1
 10
20.44792238693341
 20
-31.23158327746529
 11
21.25902142440603
 21
-31.23158327746529
 72
     1
 10
21.25902142440603
 20
-31.23158327746529
 11
21.25902142440603
 21
-30.44631797134156
 72
     1
 10
21.25902142440603
 20
-30.44631797134156
 11
18.44403064729232
 21
-30.44631797134156
 97
        8
330
153
330
152
330
151
330
112
330
113
330
155
330
114
330
154
 75
     1
 76
     2
 52
45.0
 41
0.1
 77
     0
 78
     1
 53
45.0
 43
62.7811309658083
 44
-72.3161373035813
 45
-0.1414213562373095
 46
0.0
 79
     0
 98
        1
 10
0.0
 20
0.0
  0
HATCH
  5
1FB
330
76
100
AcDbEntity
  8
1
  6
Continuous
 62
     2
100
AcDbHatch
 10
0.0
 20
0.0
 30
0.0
210
0.0
220
0.0
230
1.0
  2
CUSTOM19
 70
     0
 71
     1
 91
        1
 92
        1
 93
        8
 72
     1
 10
18.44403064729232
 20
-30.44631797134156
 11
18.44403064729232
 21
-31.23158327746529
 72
     1
 10
18.44403064729232
 20
-31.23158327746529
 11
19.25512968476701
 21
-31.23158327746529
 72
     1
 10
19.25512968476701
 20
-31.23158327746529
 11
19.25512968476701
 21
-33.5001274951527
 72
     1
 10
19.25512968476701
 20
-33.5001274951527
 11
20.44792238693341
 21
-33.5001274951527
 72
     1
 10
20.44792238693341
 20
-33.5001274951527
 11
20.44792238693341
 21
-31.23158327746529
 72
     1
 10
20.44792238693341
 20
-31.23158327746529
 11
21.25902142440603
 21
-31.23158327746529
 72
     1
 10
21.25902142440603
 20
-31.23158327746529
 11
21.25902142440603
 21
-30.44631797134156
 72
     1
 10
21.25902142440603
 20
-30.44631797134156
 11
18.44403064729232
 21
-30.44631797134156
 97
        8
330
153
330
152
330
151
330
112
330
113
330
155
330
114
330
154
 75
     1
 76
     2
 52
45.0
 41
0.1
 77
     0
 78
     1
 53
45.0
 43
62.7811309658083
 44
-72.3161373035813
 45
-0.1414213562373095
 46
0.0
 79
     0
 98
        1
 10
0.0
 20
0.0
  0
HATCH
  5
1FC
330
76
100
AcDbEntity
  8
1
  6
Continuous
 62
     2
100
AcDbHatch
 10
0.0
 20
0.0
 30
0.0
210
0.0
220
0.0
230
1.0
  2
CUSTOM20
 70
     0
 71
     1
 91
        1
 92
        1
 93
       10
 72
     1
 10
21.11603723103141
 20
-27.08712749516729
 11
19.92324452886501
 21
-27.08712749516729
 72
     1
 10
19.92324452886501
 20
-27.08712749516729
 11
19.92324452886501
 21
-30.14093701897838
 72
     1
 10
19.92324452886501
 20
-30.14093701897838
 11
21.11603723103141
 21
-30.14093701897838
 72
     1
 10
21.11603723103141
 20
-30.14093701897838
 11
21.11603723103141
 21
-28.83216150877365
 72
     1
 10
21.11603723103141
 20
-28.83216150877365
 11
22.3565416412855
 21
-30.14093701897838
 72
     1
 10
22.3565416412855
 20
-30.14093701897838
 11
23.5493343434521
 21
-30.14093701897838
 72
     1
 10
23.5493343434521
 20
-30.14093701897838
 11
23.5493343434521
 21
-27.08712749516729
 72
     1
 10
23.5493343434521
 20
-27.08712749516729
 11
22.3565416412855
 21
-27.08712749516729
 72
     1
 10
22.3565416412855
 20
-27.08712749516729
 11
22.3565416412855
 21
-28.39590300537236
 72
     1
 10
22.3565416412855
 20
-28.39590300537236
 11
21.11603723103141
 21
-27.08712749516729
 97
       10
330
14D
330
117
330
118
330
119
330
11A
330
150
330
115
330
14F
330
14E
330
116
 75
     1
 76
     2
 52
45.0
 41
0.1
 77
     0
 78
     1
 53
45.0
 43
62.7811309658083
 44
-72.3161373035813
 45
-0.1414213562373095
 46
0.0
 79
     0
 98
        1
 10
0.0
 20
0.0
  0
HATCH
  5
1FD
330
76
100
AcDbEntity
  8
1
  6
Continuous
 62
     2
100
AcDbHatch
 10
0.0
 20
0.0
 30
0.0
210
0.0
220
0.0
230
1.0
  2
CUSTOM21
 70
     0
 71
     1
 91
        1
 92
        1
 93
       10
 72
     1
 10
21.11603723103141
 20
-27.08712749516729
 11
19.92324452886501
 21
-27.08712749516729
 72
     1
 10
19.92324452886501
 20
-27.08712749516729
 11
19.92324452886501
 21
-30.14093701897838
 72
     1
 10
19.92324452886501
 20
-30.14093701897838
 11
21.11603723103141
 21
-30.14093701897838
 72
     1
 10
21.11603723103141
 20
-30.14093701897838
 11
21.11603723103141
 21
-28.83216150877365
 72
     1
 10
21.11603723103141
 20
-28.83216150877365
 11
22.3565416412855
 21
-30.14093701897838
 72
     1
 10
22.3565416412855
 20
-30.14093701897838
 11
23.5493343434521
 21
-30.14093701897838
 72
     1
 10
23.5493343434521
 20
-30.14093701897838
 11
23.5493343434521
 21
-27.08712749516729
 72
     1
 10
23.5493343434521
 20
-27.08712749516729
 11
22.3565416412855
 21
-27.08712749516729
 72
     1
 10
22.3565416412855
 20
-27.08712749516729
 11
22.3565416412855
 21
-28.39590300537236
 72
     1
 10
22.3565416412855
 20
-28.39590300537236
 11
21.11603723103141
 21
-27.08712749516729
 97
       10
330
14D
330
117
330
118
330
119
330
11A
330
150
330
115
330
14F
330
14E
330
116
 75
     1
 76
     2
 52
45.0
 41
0.1
 77
     0
 78
     1
 53
45.0
 43
62.7811309658083
 44
-72.3161373035813
 45
-0.1414213562373095
 46
0.0
 79
     0
 98
        1
 10
0.0
 20
0.0
  0
HATCH
  5
1FE
330
76
100
AcDbEntity
  8
1
  6
Continuous
 62
     2
100
AcDbHatch
 10
0.0
 20
0.0
 30
0.0
210
0.0
220
0.0
230
1.0
  2
CUSTOM22
 70
     0
 71
     1
 91
        1
 92
        1
 93
       10
 72
     1
 10
15.86759841061283
 20
-30.44631797134156
 11
14.67480570844532
 21
-30.44631797134156
 72
     1
 10
14.67480570844532
 20
-30.44631797134156
 11
14.67480570844532
 21
-33.5001274951527
 72
     1
 10
14.67480570844532
 20
-33.5001274951527
 11
15.86759841061283
 21
-33.5001274951527
 72
     1
 10
15.86759841061283
 20
-33.5001274951527
 11
15.86759841061283
 21
-32.1913519849482
 72
     1
 10
15.86759841061283
 20
-32.1913519849482
 11
17.10810282086581
 21
-33.5001274951527
 72
     1
 10
17.10810282086581
 20
-33.5001274951527
 11
18.30089552303221
 21
-33.5001274951527
 72
     1
 10
18.30089552303221
 20
-33.5001274951527
 11
18.30089552303221
 21
-30.44631797134156
 72
     1
 10
18.30089552303221
 20
-30.44631797134156
 11
17.10810282086581
 21
-30.44631797134156
 72
     1
 10
17.10810282086581
 20
-30.44631797134156
 11
17.10810282086581
 21
-31.75509348154679
 72
     1
 10
17.10810282086581
 20
-31.75509348154679
 11
15.86759841061283
 21
-30.44631797134156
 97
       10
330
11C
330
11D
330
11E
330
14A
330
11F
330
120
330
149
330
14C
330
14B
330
11B
 75
     1
 76
     2
 52
45.0
 41
0.1
 77
     0
 78
     1
 53
45.0
 43
62.7811309658083
 44
-72.3161373035813
 45
-0.1414213562373095
 46
0.0
 79
     0
 98
        1
 10
0.0
 20
0.0
  0
HATCH
  5
1FF
330
76
100
AcDbEntity
  8
1
  6
Continuous
 62
     2
100
AcDbHatch
 10
0.0
 20
0.0
 30
0.0
210
0.0
220
0.0
230
1.0
  2
CUSTOM23
 70
     0
 71
     1
 91
        1
 92
        1
 93
       10
 72
     1
 10
15.86759841061283
 20
-30.44631797134156
 11
14.67480570844532
 21
-30.44631797134156
 72
     1
 10
14.67480570844532
 20
-30.44631797134156
 11
14.67480570844532
 21
-33.5001274951527
 72
     1
 10
14.67480570844532
 20
-33.5001274951527
 11
15.86759841061283
 21
-33.5001274951527
 72
     1
 10
15.86759841061283
 20
-33.5001274951527
 11
15.86759841061283
 21
-32.1913519849482
 72
     1
 10
15.86759841061283
 20
-32.1913519849482
 11
17.10810282086581
 21
-33.5001274951527
 72
     1
 10
17.10810282086581
 20
-33.5001274951527
 11
18.30089552303221
 21
-33.5001274951527
 72
     1
 10
18.30089552303221
 20
-33.5001274951527
 11
18.30089552303221
 21
-30.44631797134156
 72
     1
 10
18.30089552303221
 20
-30.44631797134156
 11
17.10810282086581
 21
-30.44631797134156
 72
     1
 10
17.10810282086581
 20
-30.44631797134156
 11
17.10810282086581
 21
-31.75509348154679
 72
     1
 10
17.10810282086581
 20
-31.75509348154679
 11
15.86759841061283
 21
-30.44631797134156
 97
       10
330
11C
330
11D
330
11E
330
14A
330
11F
330
120
330
149
330
14C
330
14B
330
11B
 75
     1
 76
     2
 52
45.0
 41
0.1
 77
     0
 78
     1
 53
45.0
 43
62.7811309658083
 44
-72.3161373035813
 45
-0.1414213562373095
 46
0.0
 79
     0
 98
        1
 10
0.0
 20
0.0
  0
HATCH
  5
200
330
76
100
AcDbEntity
  8
1
  6
Continuous
 62
     2
100
AcDbHatch
 10
0.0
 20
0.0
 30
0.0
210
0.0
220
0.0
230
1.0
  2
CUSTOM24
 70
     0
 71
     1
 91
        1
 92
        1
 93
       12
 72
     1
 10
14.86580347167751
 20
-27.08712749516729
 11
14.86580347167751
 21
-30.14093701897838
 72
     1
 10
14.86580347167751
 20
-30.14093701897838
 11
13.67301076951102
 21
-30.14093701897838
 72
     1
 10
13.67301076951102
 20
-30.14093701897838
 11
13.67301076951102
 21
-29.0066649101347
 72
     1
 10
13.67301076951102
 20
-29.0066649101347
 11
12.62335319160363
 21
-29.0066649101347
 72
     1
 10
12.62335319160363
 20
-29.0066649101347
 11
12.62335319160363
 21
-30.14093701897838
 72
     1
 10
12.62335319160363
 20
-30.14093701897838
 11
11.43056048943703
 21
-30.14093701897838
 72
     1
 10
11.43056048943703
 20
-30.14093701897838
 11
11.43056048943703
 21
-27.08712749516729
 72
     1
 10
11.43056048943703
 20
-27.08712749516729
 11
12.62335319160363
 21
-27.08712749516729
 72
     1
 10
12.62335319160363
 20
-27.08712749516729
 11
12.62335319160363
 21
-28.15596082850186
 72
     1
 10
12.62335319160363
 20
-28.15596082850186
 11
13.67301076951102
 21
-28.15596082850186
 72
     1
 10
13.67301076951102
 20
-28.15596082850186
 11
13.67301076951102
 21
-27.08712749516729
 72
     1
 10
13.67301076951102
 20
-27.08712749516729
 11
14.86580347167751
 21
-27.08712749516729
 97
       12
330
144
330
143
330
142
330
12A
330
12B
330
141
330
12C
330
140
330
13F
330
13E
330
128
330
129
 75
     1
 76
     2
 52
45.0
 41
0.1
 77
     0
 78
     1
 53
45.0
 43
62.7811309658083
 44
-72.3161373035813
 45
-0.1414213562373095
 46
0.0
 79
     0
 98
        1
 10
0.0
 20
0.0
  0
HATCH
  5
201
330
76
100
AcDbEntity
  8
1
  6
Continuous
 62
     2
100
AcDbHatch
 10
0.0
 20
0.0
 30
0.0
210
0.0
220
0.0
230
1.0
  2
CUSTOM25
 70
     0
 71
     1
 91
        1
 92
        1
 93
       12
 72
     1
 10
14.86580347167751
 20
-27.08712749516729
 11
14.86580347167751
 21
-30.14093701897838
 72
     1
 10
14.86580347167751
 20
-30.14093701897838
 11
13.67301076951102
 21
-30.14093701897838
 72
     1
 10
13.67301076951102
 20
-30.14093701897838
 11
13.67301076951102
 21
-29.0066649101347
 72
     1
 10
13.67301076951102
 20
-29.0066649101347
 11
12.62335319160363
 21
-29.0066649101347
 72
     1
 10
12.62335319160363
 20
-29.0066649101347
 11
12.62335319160363
 21
-30.14093701897838
 72
     1
 10
12.62335319160363
 20
-30.14093701897838
 11
11.43056048943703
 21
-30.14093701897838
 72
     1
 10
11.43056048943703
 20
-30.14093701897838
 11
11.43056048943703
 21
-27.08712749516729
 72
     1
 10
11.43056048943703
 20
-27.08712749516729
 11
12.62335319160363
 21
-27.08712749516729
 72
     1
 10
12.62335319160363
 20
-27.08712749516729
 11
12.62335319160363
 21
-28.15596082850186
 72
     1
 10
12.62335319160363
 20
-28.15596082850186
 11
13.67301076951102
 21
-28.15596082850186
 72
     1
 10
13.67301076951102
 20
-28.15596082850186
 11
13.67301076951102
 21
-27.08712749516729
 72
     1
 10
13.67301076951102
 20
-27.08712749516729
 11
14.86580347167751
 21
-27.08712749516729
 97
       12
330
144
330
143
330
142
330
12A
330
12B
330
141
330
12C
330
140
330
13F
330
13E
330
128
330
129
 75
     1
 76
     2
 52
45.0
 41
0.1
 77
     0
 78
     1
 53
45.0
 43
62.7811309658083
 44
-72.3161373035813
 45
-0.1414213562373095
 46
0.0
 79
     0
 98
        1
 10
0.0
 20
0.0
  0
ENDBLK
  5
78
330
76
100
AcDbEntity
  8
0
100
AcDbBlockEnd
  0
BLOCK
  5
7A
330
79
100
AcDbEntity
  8
0
100
AcDbBlockBegin
  2
_punkt
 70
     0
 10
126.7431072854663
 20
-40.79362749516901
 30
0.0
  3
_punkt
  1

  0
LINE
  5
202
330
79
100
AcDbEntity
  8
1
  6
Continuous
 62
     2
100
AcDbLine
 10
126.7431072854663
 20
-40.79362749516901
 30
0.0
 11
126.7431072854663
 21
-45.79362749516849
 31
0.0
  0
LINE
  5
203
330
79
100
AcDbEntity
  8
1
  6
Continuous
 62
     2
100
AcDbLine
 10
126.7431072854663
 20
-40.79362749516901
 30
0.0
 11
131.7431072854639
 21
-40.79362749516901
 31
0.0
  0
ENDBLK
  5
7B
330
79
100
AcDbEntity
  8
0
100
AcDbBlockEnd
  0
BLOCK
  5
7F
330
7C
100
AcDbEntity
  8
0
100
AcDbBlockBegin
  2
A3I_CS
 70
     0
 10
126.7431072854663
 20
-45.79362749516849
 30
0.0
  3
A3I_CS
  1

  0
INSERT
  5
7D
330
7C
100
AcDbEntity
  8
1
100
AcDbBlockReference
  2
_rahmen
 10
126.7431072854663
 20
-45.79362749516849
 30
0.0
  0
INSERT
  5
7E
330
7C
100
AcDbEntity
  8
1
100
AcDbBlockReference
  2
_punkt
 10
126.7431072854663
 20
-40.79362749516901
 30
0.0
  0
ENDBLK
  5
80
330
7C
100
AcDbEntity
  8
0
100
AcDbBlockEnd
  0
BLOCK
  5
82
330
81
100
AcDbEntity
  8
0
100
AcDbBlockBegin
  2
CES_STPG_GY_7-select__1
 70
     0
 10
32.26378361410513
 20
0.75343023510884
 30
0.0
  3
CES_STPG_GY_7-select__1
  1

  0
LINE
  5
204
330
81
100
AcDbEntity
  8
0
  6
Continuous
 62
     7
100
AcDbLine
 10
35.72788522924715
 20
21.75695101269133
 30
0.0
 11
35.72788522924839
 21
26.95310343539759
 31
0.0
  0
LINE
  5
205
330
81
100
AcDbEntity
  8
0
  6
Continuous
 62
     7
100
AcDbLine
 10
35.72788522924715
 20
21.75695101269133
 30
0.0
 11
39.85113919077249
 21
25.32779368962709
 31
0.0
  0
LINE
  5
206
330
81
100
AcDbEntity
  8
0
  6
Continuous
 62
     7
100
AcDbLine
 10
44.25823545652386
 20
19.29445101268931
 30
0.0
 11
35.72788522924715
 21
21.75695101269133
 31
0.0
  0
LINE
  5
207
330
81
100
AcDbEntity
  8
0
  6
Continuous
 62
     7
100
AcDbLine
 10
36.91817749754048
 20
2.75620698484438
 30
0.0
 11
36.60706510498223
 21
3.74963286614918
 31
0.0
  0
LINE
  5
208
330
81
100
AcDbEntity
  8
0
  6
Continuous
 62
     7
100
AcDbLine
 10
56.73621547844051
 20
9.1971779220071
 30
0.0
 11
46.98621547844051
 21
0.75343023510884
 31
0.0
  0
LINE
  5
209
330
81
100
AcDbEntity
  8
0
  6
Continuous
 62
     7
100
AcDbLine
 10
44.25823545651964
 20
1.54093023510946
 30
0.0
 11
32.26378361410513
 21
5.0034302351123
 31
0.0
  0
LINE
  5
20A
330
81
100
AcDbEntity
  8
0
  6
Continuous
 62
     7
100
AcDbLine
 10
47.50323730700522
 20
29.90470505053527
 30
0.0
 11
46.82022460511303
 21
29.81319869958927
 31
0.0
  0
LINE
  5
20B
330
81
100
AcDbEntity
  8
0
  6
Continuous
 62
     7
100
AcDbLine
 10
45.58374784578029
 20
28.04539831638408
 30
0.0
 11
44.83374784578029
 21
27.39587926354575
 31
0.0
  0
LINE
  5
20C
330
81
100
AcDbEntity
  8
0
  6
Continuous
 62
     7
100
AcDbLine
 10
32.26378361411062
 20
27.95310343539842
 30
0.0
 11
35.72788522924839
 21
26.95310343539759
 31
0.0
  0
LINE
  5
20D
330
81
100
AcDbEntity
  8
0
  6
Continuous
 62
     7
100
AcDbLine
 10
47.68625000889745
 20
29.56319869958907
 30
0.0
 11
56.73621547844476
 21
26.95069869958695
 31
0.0
  0
LINE
  5
20E
330
81
100
AcDbEntity
  8
0
  6
Continuous
 62
     7
100
AcDbLine
 10
39.10113919077358
 20
28.5784131811685
 30
0.0
 11
42.72343092374782
 21
27.49141652049357
 31
0.0
  0
LINE
  5
20F
330
81
100
AcDbEntity
  8
0
  6
Continuous
 62
     7
100
AcDbLine
 10
42.72343092374782
 20
27.49141652049357
 30
0.0
 11
45.58374784578082
 21
29.96852363784866
 31
0.0
  0
LINE
  5
210
330
81
100
AcDbEntity
  8
0
  6
Continuous
 62
     7
100
AcDbLine
 10
42.10463126772275
 20
31.17951361987177
 30
0.0
 11
45.58374784578082
 21
29.96852363784866
 31
0.0
  0
LINE
  5
211
330
81
100
AcDbEntity
  8
0
  6
Continuous
 62
     7
100
AcDbLine
 10
45.58374784578082
 20
29.96852363784866
 30
0.0
 11
45.58374784578029
 21
28.04539831638408
 31
0.0
  0
LINE
  5
212
330
81
100
AcDbEntity
  8
0
  6
Continuous
 62
     7
100
AcDbLine
 10
44.44124815841612
 20
18.95294466174309
 30
0.0
 11
44.44124815841188
 21
1.19942388416324
 31
0.0
  0
LINE
  5
213
330
81
100
AcDbEntity
  8
0
  6
Continuous
 62
     7
100
AcDbLine
 10
45.1242608603083
 20
19.04445101268911
 30
0.0
 11
45.12426086030408
 21
1.29093023510926
 31
0.0
  0
LINE
  5
214
330
81
100
AcDbEntity
  8
0
  6
Continuous
 62
     7
100
AcDbLine
 10
46.98621547844476
 20
18.50695101268869
 30
0.0
 11
45.1242608603083
 21
19.04445101268911
 31
0.0
  0
LINE
  5
215
330
81
100
AcDbEntity
  8
0
  6
Continuous
 62
     7
100
AcDbLine
 10
44.44124815841612
 20
18.95294466174309
 30
0.0
 11
45.1242608603083
 21
19.04445101268911
 31
0.0
  0
LINE
  5
216
330
81
100
AcDbEntity
  8
0
  6
Continuous
 62
     7
100
AcDbLine
 10
44.25823545651964
 20
1.54093023510946
 30
0.0
 11
44.25823545652386
 21
19.29445101268931
 31
0.0
  0
LINE
  5
217
330
81
100
AcDbEntity
  8
0
  6
Continuous
 62
     7
100
AcDbLine
 10
44.25823545652386
 20
19.29445101268931
 30
0.0
 11
44.44124815841612
 21
18.95294466174309
 31
0.0
  0
LINE
  5
218
330
81
100
AcDbEntity
  8
0
  6
Continuous
 62
     7
100
AcDbLine
 10
45.47788522924715
 20
30.20069869958958
 30
0.0
 11
46.82022460511303
 21
29.81319869958927
 31
0.0
  0
LINE
  5
219
330
81
100
AcDbEntity
  8
0
  6
Continuous
 62
     7
100
AcDbLine
 10
47.68625000889745
 20
29.56319869958907
 30
0.0
 11
47.50323730700522
 21
29.90470505053527
 31
0.0
  0
LINE
  5
21A
330
81
100
AcDbEntity
  8
0
  6
Continuous
 62
     7
100
AcDbLine
 10
43.47343092374678
 20
24.36479035030034
 30
0.0
 11
43.47343092374729
 21
26.21781025186732
 31
0.0
  0
LINE
  5
21B
330
81
100
AcDbEntity
  8
0
  6
Continuous
 62
     7
100
AcDbLine
 10
43.47343092374729
 20
26.21781025186732
 30
0.0
 11
42.72343092374728
 21
25.56829119902899
 31
0.0
  0
LINE
  5
21C
330
81
100
AcDbEntity
  8
0
  6
Continuous
 62
     7
100
AcDbLine
 10
42.72343092374728
 20
25.56829119902899
 30
0.0
 11
42.72343092374782
 21
27.49141652049357
 31
0.0
  0
LINE
  5
21D
330
81
100
AcDbEntity
  8
0
  6
Continuous
 62
     7
100
AcDbLine
 10
39.10113919077298
 20
26.40730121700759
 30
0.0
 11
42.72343092374728
 21
25.56829119902899
 31
0.0
  0
LINE
  5
21E
330
81
100
AcDbEntity
  8
0
  6
Continuous
 62
     7
100
AcDbLine
 10
44.83374784578029
 20
27.39587926354575
 30
0.0
 11
44.83374784577978
 21
25.54285936197877
 31
0.0
  0
LINE
  5
21F
330
81
100
AcDbEntity
  8
0
  6
Continuous
 62
     7
100
AcDbLine
 10
39.85113919077249
 20
25.32779368962709
 30
0.0
 11
43.47343092374678
 21
24.36479035030034
 31
0.0
  0
LINE
  5
220
330
81
100
AcDbEntity
  8
0
  6
Continuous
 62
     7
100
AcDbLine
 10
44.83374784577978
 20
25.54285936197877
 30
0.0
 11
43.47343092374678
 21
24.36479035030034
 31
0.0
  0
LINE
  5
221
330
81
100
AcDbEntity
  8
0
  6
Continuous
 62
     7
100
AcDbLine
 10
42.10463126772275
 20
31.17951361987177
 30
0.0
 11
39.10113919077358
 21
28.5784131811685
 31
0.0
  0
LINE
  5
222
330
81
100
AcDbEntity
  8
0
  6
Continuous
 62
     7
100
AcDbLine
 10
39.85113919077276
 20
26.23358315124398
 30
0.0
 11
39.85113919077249
 21
25.32779368962709
 31
0.0
  0
LINE
  5
223
330
81
100
AcDbEntity
  8
0
  6
Continuous
 62
     7
100
AcDbLine
 10
45.47788522924839
 20
35.39685112229584
 30
0.0
 11
45.47788522924715
 21
30.20069869958958
 31
0.0
  0
LINE
  5
224
330
81
100
AcDbEntity
  8
0
  6
Continuous
 62
     7
100
AcDbLine
 10
45.31700298192284
 20
30.06137058638882
 30
0.0
 11
45.47788522924715
 21
30.20069869958958
 31
0.0
  0
LINE
  5
225
330
81
100
AcDbEntity
  8
0
  6
Continuous
 62
     7
100
AcDbLine
 10
39.10113919077358
 20
28.5784131811685
 30
0.0
 11
39.10113919077298
 21
26.40730121700759
 31
0.0
  0
LINE
  5
226
330
81
100
AcDbEntity
  8
0
  6
Continuous
 62
     7
100
AcDbLine
 10
35.72788522924839
 20
26.95310343539759
 30
0.0
 11
45.47788522924839
 21
35.39685112229584
 31
0.0
  0
LINE
  5
227
330
81
100
AcDbEntity
  8
0
  6
Continuous
 62
     7
100
AcDbLine
 10
45.47788522924839
 20
35.39685112229584
 30
0.0
 11
42.01378361411062
 21
36.39685112229668
 31
0.0
  0
LINE
  5
228
330
81
100
AcDbEntity
  8
0
  6
Continuous
 62
     7
100
AcDbLine
 10
32.26378361411062
 20
27.95310343539842
 30
0.0
 11
42.01378361411062
 21
36.39685112229668
 31
0.0
  0
LINE
  5
229
330
81
100
AcDbEntity
  8
0
  6
Continuous
 62
     7
100
AcDbLine
 10
32.26378361410513
 20
5.0034302351123
 30
0.0
 11
32.26378361411062
 21
27.95310343539842
 31
0.0
  0
LINE
  5
22A
330
81
100
AcDbEntity
  8
0
  6
Continuous
 62
     7
100
AcDbLine
 10
56.73621547844051
 20
9.1971779220071
 30
0.0
 11
56.73621547844476
 21
26.95069869958695
 31
0.0
  0
LINE
  5
22B
330
81
100
AcDbEntity
  8
0
  6
Continuous
 62
     7
100
AcDbLine
 10
44.25823545651964
 20
1.54093023510946
 30
0.0
 11
44.44124815841188
 21
1.19942388416324
 31
0.0
  0
LINE
  5
22C
330
81
100
AcDbEntity
  8
0
  6
Continuous
 62
     7
100
AcDbLine
 10
46.98621547844476
 20
18.50695101268869
 30
0.0
 11
46.98621547844051
 21
0.75343023510884
 31
0.0
  0
LINE
  5
22D
330
81
100
AcDbEntity
  8
0
  6
Continuous
 62
     7
100
AcDbLine
 10
46.98621547844051
 20
0.75343023510884
 30
0.0
 11
45.12426086030408
 21
1.29093023510926
 31
0.0
  0
LINE
  5
22E
330
81
100
AcDbEntity
  8
0
  6
Continuous
 62
     7
100
AcDbLine
 10
44.44124815841188
 20
1.19942388416324
 30
0.0
 11
45.12426086030408
 21
1.29093023510926
 31
0.0
  0
LINE
  5
22F
330
81
100
AcDbEntity
  8
0
  6
Continuous
 62
     7
100
AcDbLine
 10
46.98621547844476
 20
18.50695101268869
 30
0.0
 11
56.73621547844476
 21
26.95069869958695
 31
0.0
  0
SPLINE
  5
230
330
81
100
AcDbEntity
  8
0
  6
Continuous
 62
     7
100
AcDbSpline
210
0.0
220
0.0
230
1.0
 70
  1064
 71
     3
 72
    15
 73
    11
 74
     9
 42
0.000000001
 43
0.0000000001
 44
0.00000001
 40
0.0
 40
0.0
 40
0.0
 40
0.0
 40
0.3709889422314707
 40
0.8164574638741813
 40
1.370100871309277
 40
2.031765538018501
 40
2.782131160816044
 40
3.591064742829874
 40
4.422593684216599
 40
5.238678441390076
 40
5.238678441390076
 40
5.238678441390076
 40
5.238678441390076
 10
52.83194082183752
 20
17.21475569725452
 30
0.0
 10
52.70647359902757
 20
17.22750941773321
 30
0.0
 10
52.43035040995867
 20
17.25557727907269
 30
0.0
 10
52.01117595669359
 20
17.02612347652672
 30
0.0
 10
51.60234907940954
 20
16.65487950781332
 30
0.0
 10
51.20704476779708
 20
16.12636814261859
 30
0.0
 10
50.84677687000777
 20
15.47820009610126
 30
0.0
 10
50.54205368889715
 20
14.74030959071688
 30
0.0
 10
50.3017360263495
 20
13.95524346260413
 30
0.0
 10
50.21165874682183
 20
13.41296124765057
 30
0.0
 10
50.16704228454381
 20
13.14436172688471
 30
0.0
 11
52.83194082183752
 21
17.21475569725452
 31
0.0
 11
52.460976040021
 21
17.21899039687661
 31
0.0
 11
52.05614448523801
 21
17.03310436606888
 31
0.0
 11
51.64030572933046
 21
16.66759219071719
 31
0.0
 11
51.23694111860442
 21
16.14309517325245
 31
0.0
 11
50.86882787220123
 21
15.48922882191079
 31
0.0
 11
50.55675193119684
 21
14.74291645618153
 31
0.0
 11
50.31833610297008
 21
13.94629968899605
 31
0.0
 11
50.16704228454381
 21
13.14436172688471
 31
0.0
  0
SPLINE
  5
231
330
81
100
AcDbEntity
  8
0
  6
Continuous
 62
     7
100
AcDbSpline
210
0.0
220
0.0
230
1.0
 70
  1064
 71
     3
 72
    21
 73
    17
 74
    15
 42
0.000000001
 43
0.0000000001
 44
0.00000001
 40
0.0
 40
0.0
 40
0.0
 40
0.0
 40
0.3484703247378348
 40
0.7603170675656539
 40
1.266722956835262
 40
1.870643694145675
 40
2.558389635361439
 40
3.306602807699338
 40
4.086352455985759
 40
4.866102104272181
 40
5.614315276610074
 40
6.302061217825838
 40
6.905981955136253
 40
7.412387844405851
 40
7.824234587233669
 40
8.172704911971522
 40
8.172704911971522
 40
8.172704911971522
 40
8.172704911971522
 10
50.89049013504774
 20
10.48937323744127
 30
0.0
 10
51.00800487374687
 20
10.47597389105873
 30
0.0
 10
51.26440679509045
 20
10.44673827069953
 30
0.0
 10
51.65830450111056
 20
10.64369810281241
 30
0.0
 10
52.04506575116835
 20
10.97112117619318
 30
0.0
 10
52.42282632265137
 20
11.4418596413925
 30
0.0
 10
52.7732092772675
 20
12.02585584668381
 30
0.0
 10
53.08047587563155
 20
12.69915671067879
 30
0.0
 10
53.3292459285299
 20
13.42828057957932
 30
0.0
 10
53.50732652559992
 20
14.17781073665555
 30
0.0
 10
53.60615980551353
 20
14.91128111690831
 30
0.0
 10
53.62091610514386
 20
15.59216439200133
 30
0.0
 10
53.55214729505914
 20
16.19180478652534
 30
0.0
 10
53.39938420613844
 20
16.67497512107805
 30
0.0
 10
53.17105366605077
 20
17.05155677588496
 30
0.0
 10
52.93851740034376
 20
17.16346545248122
 30
0.0
 10
52.83194082183752
 20
17.21475569725452
 30
0.0
 11
50.89049013504774
 21
10.48937323744127
 31
0.0
 11
51.23883837693133
 21
10.48014963454305
 31
0.0
 11
51.61839507723178
 21
10.64000722629223
 31
0.0
 11
52.01012785642448
 21
10.9609314425034
 31
0.0
 11
52.39439357787242
 21
11.42682854503112
 31
0.0
 11
52.75192341316785
 21
12.01433760345386
 31
0.0
 11
53.06478961692073
 21
12.69399758175152
 31
0.0
 11
53.31730333962295
 21
13.43172810803945
 31
0.0
 11
53.49680303697532
 21
14.19053596792257
 31
0.0
 11
53.59428720742558
 21
14.93237138367322
 31
0.0
 11
53.60486828189748
 21
15.62003592232428
 31
0.0
 11
53.52801496457322
 21
16.2190466254339
 31
0.0
 11
53.36758170459716
 21
16.69936744732094
 31
0.0
 11
53.13161264153852
 21
17.03691202165452
 31
0.0
 11
52.83194082183752
 21
17.21475569725452
 31
0.0
  0
SPLINE
  5
232
330
81
100
AcDbEntity
  8
0
  6
Continuous
 62
     7
100
AcDbSpline
210
0.0
220
0.0
230
1.0
 70
  1064
 71
     3
 72
    17
 73
    13
 74
    11
 42
0.000000001
 43
0.0000000001
 44
0.00000001
 40
0.0
 40
0.0
 40
0.0
 40
0.0
 40
0.261145811319032
 40
0.5806503526263727
 40
0.9629386800357688
 40
1.395689917896182
 40
1.857467596866832
 40
2.322564778821795
 40
2.764819070973956
 40
3.161334733372743
 40
3.496942824021343
 40
3.770946873225354
 40
3.770946873225354
 40
3.770946873225354
 40
3.770946873225354
 10
36.91817749754048
 20
2.756206984844376
 30
0.0
 10
36.95808981254947
 20
2.677555852943533
 30
0.0
 10
37.04683373721382
 20
2.502677290184143
 30
0.0
 10
37.31964892542423
 20
2.314705538904435
 30
0.0
 10
37.66617583995684
 20
2.164342588301342
 30
0.0
 10
38.08354307544692
 20
2.067863693641712
 30
0.0
 10
38.53629023784423
 20
2.029297229845596
 30
0.0
 10
38.99328945066918
 20
2.052607930978705
 30
0.0
 10
39.42261905524247
 20
2.134841059446248
 30
0.0
 10
39.78846225462196
 20
2.273379413216311
 30
0.0
 10
40.08392217586116
 20
2.450020924207826
 30
0.0
 10
40.19680909643355
 20
2.621597000426587
 30
0.0
 10
40.24754868494378
 20
2.698715778712703
 30
0.0
 11
36.91817749754048
 21
2.756206984844376
 31
0.0
 11
37.05323925031008
 21
2.532699807213602
 31
0.0
 11
37.30507855558989
 21
2.336078041386862
 31
0.0
 11
37.65460868982044
 21
2.181245715840909
 31
0.0
 11
38.07533465674198
 21
2.079937804465509
 31
0.0
 11
38.5353676194189
 21
2.039834238159921
 31
0.0
 11
38.99983793968056
 21
2.063973586053962
 31
0.0
 11
39.43353980237899
 21
2.15052733404164
 31
0.0
 11
39.80360068328658
 21
2.292933843103587
 31
0.0
 11
40.08196953863691
 21
2.48040003421675
 31
0.0
 11
40.24754868494378
 21
2.698715778712703
 31
0.0
  0
SPLINE
  5
233
330
81
100
AcDbEntity
  8
0
  6
Continuous
 62
     7
100
AcDbSpline
210
0.0
220
0.0
230
1.0
 70
  1064
 71
     3
 72
    13
 73
     9
 74
     7
 42
0.000000001
 43
0.0000000001
 44
0.00000001
 40
0.0
 40
0.0
 40
0.0
 40
0.0
 40
0.6651483136728429
 40
1.270477868377588
 40
1.800174763723083
 40
2.246555879104045
 40
2.615427248870619
 40
2.934152422175305
 40
2.934152422175305
 40
2.934152422175305
 40
2.934152422175305
 10
50.16704228454381
 20
13.14436172688471
 30
0.0
 10
50.14381128470792
 20
12.92362554380156
 30
0.0
 10
50.09943851894423
 20
12.50200463679411
 30
0.0
 10
50.1183463410453
 20
11.90069821027845
 30
0.0
 10
50.2039312625386
 20
11.37720017397785
 30
0.0
 10
50.36052111940783
 20
10.95694243200402
 30
0.0
 10
50.58104556395084
 20
10.63225533552202
 30
0.0
 10
50.79248193774598
 20
10.53462727166002
 30
0.0
 10
50.89049013504774
 20
10.48937323744127
 30
0.0
 11
50.16704228454381
 21
13.14436172688471
 31
0.0
 11
50.11316929082528
 21
12.48139870646087
 31
0.0
 11
50.13322145883684
 21
11.87640136724688
 31
0.0
 11
50.22635120719362
 21
11.35495563602146
 31
0.0
 11
50.38861963536046
 21
10.93911304933602
 31
0.0
 11
50.61316474956781
 21
10.64646038048374
 31
0.0
 11
50.89049013504774
 21
10.48937323744127
 31
0.0
  0
SPLINE
  5
234
330
81
100
AcDbEntity
  8
0
  6
Continuous
 62
     7
100
AcDbSpline
210
0.0
220
0.0
230
1.0
 70
  1064
 71
     3
 72
    11
 73
     7
 74
     5
 42
0.000000001
 43
0.0000000001
 44
0.00000001
 40
0.0
 40
0.0
 40
0.0
 40
0.0
 40
0.3766024589415607
 40
0.6915266369969131
 40
0.9435619909941899
 40
1.151652787050259
 40
1.151652787050259
 40
1.151652787050259
 40
1.151652787050259
 10
44.42788522924765
 20
31.45643553507647
 30
0.0
 10
44.42341258161456
 20
31.58249400986701
 30
0.0
 10
44.41519978917267
 20
31.81396566021157
 30
0.0
 10
44.33446543687259
 20
32.11758428985871
 30
0.0
 10
44.20785524832343
 20
32.35671604545293
 30
0.0
 10
44.06806856543852
 20
32.42726623143086
 30
0.0
 10
44.00485041566203
 20
32.45917235485914
 30
0.0
 11
44.42788522924765
 21
31.45643553507647
 31
0.0
 11
44.39935435698298
 21
31.83195570152036
 31
0.0
 11
44.31547609807741
 21
32.13550417779216
 31
0.0
 11
44.18128794845875
 21
32.34884747960273
 31
0.0
 11
44.00485041566203
 21
32.45917235485914
 31
0.0
  0
SPLINE
  5
235
330
81
100
AcDbEntity
  8
0
  6
Continuous
 62
     7
100
AcDbSpline
210
0.0
220
0.0
230
1.0
 70
  1064
 71
     3
 72
     9
 73
     5
 74
     3
 42
0.000000001
 43
0.0000000001
 44
0.00000001
 40
0.0
 40
0.0
 40
0.0
 40
0.0
 40
0.5415267026532551
 40
1.045780652216668
 40
1.045780652216668
 40
1.045780652216668
 40
1.045780652216668
 10
44.27376209484592
 20
30.4244956023928
 30
0.0
 10
44.31828010818926
 20
30.59998406337702
 30
0.0
 10
44.40425198394578
 20
30.93888228979874
 30
0.0
 10
44.42019691875936
 20
31.28806621684267
 30
0.0
 10
44.42788522924765
 20
31.45643553507647
 30
0.0
 11
44.27376209484592
 21
30.4244956023928
 31
0.0
 11
44.38853923268955
 21
30.95371897588262
 31
0.0
 11
44.42788522924765
 21
31.45643553507647
 31
0.0
  0
SPLINE
  5
236
330
81
100
AcDbEntity
  8
0
  6
Continuous
 62
     7
100
AcDbSpline
210
0.0
220
0.0
230
1.0
 70
  1064
 71
     3
 72
    13
 73
     9
 74
     7
 42
0.000000001
 43
0.0000000001
 44
0.00000001
 40
0.0
 40
0.0
 40
0.0
 40
0.0
 40
0.2139874779891242
 40
0.4751337361676532
 40
0.8028943691586099
 40
1.194942496085147
 40
1.637084715653243
 40
2.108651799284234
 40
2.108651799284234
 40
2.108651799284234
 40
2.108651799284234
 10
44.00485041566203
 20
32.45917235485914
 30
0.0
 10
43.93228249422416
 20
32.46561922596185
 30
0.0
 10
43.77115406022723
 20
32.47993372076098
 30
0.0
 10
43.52984838992034
 20
32.33611022387512
 30
0.0
 10
43.29598098984578
 20
32.1092514367033
 30
0.0
 10
43.07302882676232
 20
31.78913112486716
 30
0.0
 10
42.87141521942168
 20
31.40216663363731
 30
0.0
 10
42.77075890708993
 20
31.11430164230087
 30
0.0
 10
42.71880999551603
 20
30.96573398074726
 30
0.0
 11
44.00485041566203
 21
32.45917235485914
 31
0.0
 11
43.7908645270873
 21
32.45834583045124
 31
0.0
 11
43.55706463714851
 21
32.34200588610128
 31
0.0
 11
43.31825201506788
 21
32.11751632434682
 31
0.0
 11
43.08954540557446
 21
31.79909047681056
 31
0.0
 11
42.88542402054398
 21
31.40688618986422
 31
0.0
 11
42.71880999551603
 21
30.96573398074726
 31
0.0
  0
SPLINE
  5
237
330
81
100
AcDbEntity
  8
0
  6
Continuous
 62
     7
100
AcDbSpline
210
0.0
220
0.0
230
1.0
 70
  1064
 71
     3
 72
    11
 73
     7
 74
     5
 42
0.000000001
 43
0.0000000001
 44
0.00000001
 40
0.0
 40
0.0
 40
0.0
 40
0.0
 40
0.3766024589415637
 40
0.6915266369969197
 40
0.9435619909941966
 40
1.151652787050264
 40
1.151652787050264
 40
1.151652787050264
 40
1.151652787050264
 10
38.67788522924766
 20
26.47678946331669
 30
0.0
 10
38.67341258161456
 20
26.60284793810722
 30
0.0
 10
38.6651997891727
 20
26.83431958845181
 30
0.0
 10
38.58446543687258
 20
27.13793821809892
 30
0.0
 10
38.45785524832343
 20
27.37706997369315
 30
0.0
 10
38.31806856543852
 20
27.44762015967109
 30
0.0
 10
38.25485041566203
 20
27.47952628309936
 30
0.0
 11
38.67788522924766
 21
26.47678946331669
 31
0.0
 11
38.64935435698299
 21
26.85230962976058
 31
0.0
 11
38.56547609807741
 21
27.15585810603238
 31
0.0
 11
38.43128794845875
 21
27.36920140784296
 31
0.0
 11
38.25485041566203
 21
27.47952628309936
 31
0.0
  0
SPLINE
  5
238
330
81
100
AcDbEntity
  8
0
  6
Continuous
 62
     7
100
AcDbSpline
210
0.0
220
0.0
230
1.0
 70
  1064
 71
     3
 72
    15
 73
    11
 74
     9
 42
0.000000001
 43
0.0000000001
 44
0.00000001
 40
0.0
 40
0.0
 40
0.0
 40
0.0
 40
0.2298529119742937
 40
0.5160607998329342
 40
0.8791221737909918
 40
1.313105872362603
 40
1.79831918163052
 40
2.307922958140868
 40
2.812142237556456
 40
3.28183061708454
 40
3.28183061708454
 40
3.28183061708454
 40
3.28183061708454
 10
37.2009200428333
 20
23.82860437634361
 30
0.0
 10
37.2791075256663
 20
23.82292491895778
 30
0.0
 10
37.45465237319439
 20
23.81017353342138
 30
0.0
 10
37.71274435904302
 20
23.97968941978898
 30
0.0
 10
37.96064780731293
 20
24.23958064744876
 30
0.0
 10
38.19377239215878
 20
24.6019093832815
 30
0.0
 10
38.39560468391154
 20
25.03417339340954
 30
0.0
 10
38.55072514290458
 20
25.51011234464864
 30
0.0
 10
38.65543313771165
 20
25.99541352745148
 30
0.0
 10
38.67058021790856
 20
26.32016899791845
 30
0.0
 10
38.67788522924766
 20
26.47678946331669
 30
0.0
 11
37.2009200428333
 21
23.82860437634361
 31
0.0
 11
37.43071341347425
 21
23.83383623059774
 31
0.0
 11
37.68201534370966
 21
23.97081175627699
 31
0.0
 11
37.93663727913391
 21
24.22961907927656
 31
0.0
 11
38.1761502585027
 21
24.59152429191634
 31
0.0
 11
38.3832183733237
 21
25.03033490158284
 31
0.0
 11
38.54285509917905
 21
25.51428957395117
 31
0.0
 11
38.64350532081301
 21
26.00836104144529
 31
0.0
 11
38.67788522924766
 21
26.47678946331669
 31
0.0
  0
SPLINE
  5
239
330
81
100
AcDbEntity
  8
0
  6
Continuous
 62
     7
100
AcDbSpline
210
0.0
220
0.0
230
1.0
 70
  1064
 71
     3
 72
    19
 73
    15
 74
    13
 42
0.000000001
 43
0.0000000001
 44
0.00000001
 40
0.0
 40
0.0
 40
0.0
 40
0.0
 40
0.2225611229058494
 40
0.4971528408223577
 40
0.8438580853671716
 40
1.258513177648496
 40
1.724069573307508
 40
2.216624054942613
 40
2.709178536577719
 40
3.174734932236738
 40
3.589390024518061
 40
3.936095269062878
 40
4.210686986979384
 40
4.433248109885239
 40
4.433248109885239
 40
4.433248109885239
 40
4.433248109885239
 10
38.25485041566203
 20
27.47952628309936
 30
0.0
 10
38.17924669188506
 20
27.48558120172704
 30
0.0
 10
38.01036452184243
 20
27.49910654447257
 30
0.0
 10
37.7598910805805
 20
27.34159234229233
 30
0.0
 10
37.51839200919606
 20
27.09699786677188
 30
0.0
 10
37.28943601037439
 20
26.75423097910774
 30
0.0
 10
37.08867738987672
 20
26.34230050748087
 30
0.0
 10
36.92868959502355
 20
25.88477323699891
 30
0.0
 10
36.82022988964582
 20
25.41237108835219
 30
0.0
 10
36.77056887436105
 20
24.9568224952035
 30
0.0
 10
36.78162713041412
 20
24.54476946020866
 30
0.0
 10
36.85561863424631
 20
24.20910070042409
 30
0.0
 10
36.98361228420943
 20
23.94233245974467
 30
0.0
 10
37.13372076065316
 20
23.86377313468117
 30
0.0
 10
37.2009200428333
 20
23.82860437634361
 30
0.0
 11
38.25485041566203
 21
27.47952628309936
 31
0.0
 11
38.03231149167388
 21
27.47638273123416
 31
0.0
 11
37.78902657778217
 21
27.34905219854947
 31
0.0
 11
37.54157495053827
 21
27.10621023886161
 31
0.0
 11
37.30681996493833
 21
26.76440775131575
 31
0.0
 11
37.10076009812447
 21
26.34693669079199
 31
0.0
 11
36.93743744962698
 21
25.88224794889384
 31
0.0
 11
36.82798291814836
 21
25.40200882106489
 31
0.0
 11
36.77985477852396
 21
24.93894679793788
 31
0.0
 11
36.79633383569824
 21
24.52461928927932
 31
0.0
 11
36.87629610109248
 21
24.18726108006586
 31
0.0
 11
37.01429319685776
 21
23.94986391192476
 31
0.0
 11
37.2009200428333
 21
23.82860437634361
 31
0.0
  0
ENDBLK
  5
83
330
81
100
AcDbEntity
  8
0
100
AcDbBlockEnd
  0
BLOCK
  5
86
330
84
100
AcDbEntity
  8
0
100
AcDbBlockBegin
  2
AllgSicht1
 70
     0
 10
44.50000000001008
 20
17.27610340159507
 30
0.0
  3
AllgSicht1
  1

  0
INSERT
  5
85
330
84
100
AcDbEntity
  8
0
100
AcDbBlockReference
  2
CES_STPG_GY_7-select__1
 10
32.26378361410513
 20
0.75343023510884
 30
0.0
  0
MTEXT
  5
23A
330
84
100
AcDbEntity
  8
1
 62
     6
100
AcDbMText
 10
44.49999954627495
 20
-1.74656976489116
 30
0.0
 40
2.5
 41
0.0
 71
     2
 72
     1
  1
 
  7
CONVERTER_11
 73
     1
 44
1.32052821128451
  0
ENDBLK
  5
87
330
84
100
AcDbEntity
  8
0
100
AcDbBlockEnd
  0
BLOCK
  5
89
330
88
100
AcDbEntity
  8
0
100
AcDbBlockBegin
  2
CES_STPG_GY_7-select__2
 70
     0
 10
-57.37499999996257
 20
36.24999861560174
 30
0.0
  3
CES_STPG_GY_7-select__2
  1

  0
LINE
  5
23B
330
88
100
AcDbEntity
  8
0
  6
Continuous
 62
     7
100
AcDbLine
 10
-53.3749999999629
 20
43.49650653865277
 30
0.0
 11
-53.3749999999629
 21
49.5034906925511
 31
0.0
  0
LINE
  5
23C
330
88
100
AcDbEntity
  8
0
  6
Continuous
 62
     7
100
AcDbLine
 10
-53.37499999996398
 20
36.74999861560175
 30
0.0
 11
-53.3749999999629
 21
43.49650653865277
 31
0.0
  0
LINE
  5
23D
330
88
100
AcDbEntity
  8
0
  6
Continuous
 62
     7
100
AcDbLine
 10
-53.3749999999629
 20
49.5034906925511
 30
0.0
 11
-53.37499999996398
 21
56.24999861560175
 31
0.0
  0
LINE
  5
23E
330
88
100
AcDbEntity
  8
0
  6
Continuous
 62
     7
100
AcDbLine
 10
-57.37499999996257
 20
36.74999861560175
 30
0.0
 11
-53.37499999996398
 21
36.74999861560175
 31
0.0
  0
LINE
  5
23F
330
88
100
AcDbEntity
  8
0
  6
Continuous
 62
     7
100
AcDbLine
 10
-53.37499999996398
 20
56.24999861560175
 30
0.0
 11
-51.82499999996398
 21
56.24999861560175
 31
0.0
  0
LINE
  5
240
330
88
100
AcDbEntity
  8
0
  6
Continuous
 62
     7
100
AcDbLine
 10
-53.37499999996398
 20
56.24999861560175
 30
0.0
 11
-57.37499999996257
 21
56.24999861560175
 31
0.0
  0
LINE
  5
241
330
88
100
AcDbEntity
  8
0
  6
Continuous
 62
     7
100
AcDbLine
 10
-57.37499999996257
 20
36.74999861560175
 30
0.0
 11
-57.37499999996257
 21
56.24999861560175
 31
0.0
  0
LINE
  5
242
330
88
100
AcDbEntity
  8
0
  6
Continuous
 62
     7
100
AcDbLine
 10
-43.524999999964
 20
36.74999861560174
 30
0.0
 11
-43.02499999996395
 21
36.24999861560174
 31
0.0
  0
LINE
  5
243
330
88
100
AcDbEntity
  8
0
  6
Continuous
 62
     7
100
AcDbLine
 10
-40.37499999996408
 20
36.74999861560175
 30
0.0
 11
-40.37499999996409
 21
56.24999861560175
 31
0.0
  0
LINE
  5
244
330
88
100
AcDbEntity
  8
0
  6
Continuous
 62
     7
100
AcDbLine
 10
-40.37499999996408
 20
36.74999861560175
 30
0.0
 11
-42.52499999996398
 21
36.74999861560175
 31
0.0
  0
LINE
  5
245
330
88
100
AcDbEntity
  8
0
  6
Continuous
 62
     7
100
AcDbLine
 10
-43.02499999996395
 20
36.24999861560174
 30
0.0
 11
-42.52499999996398
 21
36.74999861560175
 31
0.0
  0
LINE
  5
246
330
88
100
AcDbEntity
  8
0
  6
Continuous
 62
     7
100
AcDbLine
 10
-50.82499999996401
 20
56.24999861560175
 30
0.0
 11
-51.32499999996401
 21
56.74999861560171
 31
0.0
  0
LINE
  5
247
330
88
100
AcDbEntity
  8
0
  6
Continuous
 62
     7
100
AcDbLine
 10
-43.524999999964
 20
36.74999861560174
 30
0.0
 11
-53.37499999996398
 21
36.74999861560175
 31
0.0
  0
LINE
  5
248
330
88
100
AcDbEntity
  8
0
  6
Continuous
 62
     7
100
AcDbLine
 10
-49.27499999996293
 20
43.63968169356892
 30
0.0
 11
-49.27499999996293
 21
49.3603155376349
 31
0.0
  0
LINE
  5
249
330
88
100
AcDbEntity
  8
0
  6
Continuous
 62
     7
100
AcDbLine
 10
-53.3749999999629
 20
49.5034906925511
 30
0.0
 11
-49.27499999996293
 21
49.3603155376349
 31
0.0
  0
LINE
  5
24A
330
88
100
AcDbEntity
  8
0
  6
Continuous
 62
     7
100
AcDbLine
 10
-51.32499999996401
 20
56.74999861560171
 30
0.0
 11
-51.82499999996398
 21
56.24999861560175
 31
0.0
  0
LINE
  5
24B
330
88
100
AcDbEntity
  8
0
  6
Continuous
 62
     7
100
AcDbLine
 10
-50.82499999996401
 20
56.24999861560175
 30
0.0
 11
-40.37499999996409
 21
56.24999861560175
 31
0.0
  0
LINE
  5
24C
330
88
100
AcDbEntity
  8
0
  6
Continuous
 62
     7
100
AcDbLine
 10
-53.3749999999629
 20
43.49650653865277
 30
0.0
 11
-49.27499999996293
 21
43.63968169356892
 31
0.0
  0
ENDBLK
  5
8A
330
88
100
AcDbEntity
  8
0
100
AcDbBlockEnd
  0
BLOCK
  5
8D
330
8B
100
AcDbEntity
  8
0
100
AcDbBlockBegin
  2
Drfsicht1
 70
     0
 10
-48.8749999999965
 20
46.49999952312402
 30
0.0
  3
Drfsicht1
  1

  0
INSERT
  5
8C
330
8B
100
AcDbEntity
  8
0
100
AcDbBlockReference
  2
CES_STPG_GY_7-select__2
 10
-57.37499999996257
 20
36.24999861560174
 30
0.0
  0
MTEXT
  5
24D
330
8B
100
AcDbEntity
  8
1
 62
     6
100
AcDbMText
 10
-48.87499999996332
 20
33.74999861560174
 30
0.0
 40
2.5
 41
0.0
 71
     2
 72
     1
  1
 
  7
CONVERTER_11
 73
     1
 44
1.32052821128451
  0
DIMENSION
  5
258
330
8B
100
AcDbEntity
  8
1
100
AcDbDimension
  2
*D17
 10
-63.29665144753645
 20
56.74999861560173
 30
0.0
 11
-65.00915144753645
 21
46.66146236551811
 31
0.0
 70
    32
  1
<>
 71
     5
 42
-1.0
 53
90.0
  3
ME10_DIM_10
100
AcDbAlignedDimension
 13
-43.02499999996395
 23
36.24999861560174
 33
0.0
 14
-51.32499999996401
 24
56.74999861560171
 34
0.0
 50
90.0
100
AcDbRotatedDimension
  0
ENDBLK
  5
8E
330
8B
100
AcDbEntity
  8
0
100
AcDbBlockEnd
  0
BLOCK
  5
90
330
8F
100
AcDbEntity
  8
0
100
AcDbBlockBegin
  2
CES_STPG_GY_7-select__3
 70
     0
 10
13.37499999996396
 20
78.24999949698051
 30
0.0
  3
CES_STPG_GY_7-select__3
  1

  0
LINE
  5
259
330
8F
100
AcDbEntity
  8
0
  6
Continuous
 62
     7
100
AcDbLine
 10
30.37499999996875
 20
81.24999949698204
 30
0.0
 11
27.87499999996875
 21
81.2499994969815
 31
0.0
  0
LINE
  5
25A
330
8F
100
AcDbEntity
  8
0
  6
Continuous
 62
     7
100
AcDbLine
 10
23.82499999996875
 20
81.24999949698051
 30
0.0
 11
24.32499999996873
 21
81.24999949698062
 31
0.0
  0
LINE
  5
25B
330
8F
100
AcDbEntity
  8
0
  6
Continuous
 62
     7
100
AcDbLine
 10
24.32499999996873
 20
81.24999949698062
 30
0.0
 11
24.8249999999687
 21
81.24999949698076
 31
0.0
  0
LINE
  5
25C
330
8F
100
AcDbEntity
  8
0
  6
Continuous
 62
     7
100
AcDbLine
 10
26.37499999996278
 20
106.2534915739303
 30
0.0
 11
22.27499999996282
 21
106.1103164190132
 31
0.0
  0
LINE
  5
25D
330
8F
100
AcDbEntity
  8
0
  6
Continuous
 62
     7
100
AcDbLine
 10
22.27499999996334
 20
103.8896825749471
 30
0.0
 11
22.27499999996385
 21
101.7499994969802
 31
0.0
  0
LINE
  5
25E
330
8F
100
AcDbEntity
  8
0
  6
Continuous
 62
     7
100
AcDbLine
 10
22.27499999996282
 20
106.1103164190132
 30
0.0
 11
22.27499999996334
 21
103.8896825749471
 31
0.0
  0
LINE
  5
25F
330
8F
100
AcDbEntity
  8
0
  6
Continuous
 62
     7
100
AcDbLine
 10
26.37499999996243
 20
107.7499994969812
 30
0.0
 11
26.37499999996278
 21
106.2534915739303
 31
0.0
  0
LINE
  5
260
330
8F
100
AcDbEntity
  8
0
  6
Continuous
 62
     7
100
AcDbLine
 10
26.37499999996339
 20
103.746507420032
 30
0.0
 11
26.37499999996386
 21
101.7499994969812
 31
0.0
  0
LINE
  5
261
330
8F
100
AcDbEntity
  8
0
  6
Continuous
 62
     7
100
AcDbLine
 10
26.37499999996278
 20
106.2534915739303
 30
0.0
 11
26.37499999996339
 21
103.746507420032
 31
0.0
  0
LINE
  5
262
330
8F
100
AcDbEntity
  8
0
  6
Continuous
 62
     7
100
AcDbLine
 10
26.37499999996339
 20
103.746507420032
 30
0.0
 11
22.27499999996334
 21
103.8896825749471
 31
0.0
  0
LINE
  5
263
330
8F
100
AcDbEntity
  8
0
  6
Continuous
 62
     7
100
AcDbLine
 10
23.82499999996875
 20
81.24999949698051
 30
0.0
 11
22.87499999996875
 21
81.24999949698031
 31
0.0
  0
LINE
  5
264
330
8F
100
AcDbEntity
  8
0
  6
Continuous
 62
     7
100
AcDbLine
 10
27.87499999996875
 20
81.2499994969815
 30
0.0
 11
24.8249999999687
 21
81.24999949698076
 31
0.0
  0
LINE
  5
265
330
8F
100
AcDbEntity
  8
0
  6
Continuous
 62
     7
100
AcDbLine
 10
22.87499999996875
 20
81.24999949698031
 30
0.0
 11
13.37499999996886
 21
81.24999949697803
 31
0.0
  0
LINE
  5
266
330
8F
100
AcDbEntity
  8
0
  6
Continuous
 62
     7
100
AcDbLine
 10
26.37499999996386
 20
101.7499994969812
 30
0.0
 11
24.82499999996385
 21
101.7499994969808
 31
0.0
  0
LINE
  5
267
330
8F
100
AcDbEntity
  8
0
  6
Continuous
 62
     7
100
AcDbLine
 10
22.27499999996385
 20
101.7499994969802
 30
0.0
 11
13.37499999996396
 21
101.7499994969781
 31
0.0
  0
LINE
  5
268
330
8F
100
AcDbEntity
  8
0
  6
Continuous
 62
     7
100
AcDbLine
 10
24.32499999996387
 20
101.7499994969807
 30
0.0
 11
24.82499999996385
 21
101.7499994969808
 31
0.0
  0
LINE
  5
269
330
8F
100
AcDbEntity
  8
0
  6
Continuous
 62
     7
100
AcDbLine
 10
13.37499999996886
 20
81.24999949697803
 30
0.0
 11
13.37499999996396
 21
101.7499994969781
 31
0.0
  0
LINE
  5
26A
330
8F
100
AcDbEntity
  8
0
  6
Continuous
 62
     7
100
AcDbLine
 10
23.82499999996387
 20
101.7499994969806
 30
0.0
 11
22.27499999996385
 21
101.7499994969802
 31
0.0
  0
LINE
  5
26B
330
8F
100
AcDbEntity
  8
0
  6
Continuous
 62
     7
100
AcDbLine
 10
23.82499999996387
 20
101.7499994969806
 30
0.0
 11
24.32499999996387
 21
101.7499994969807
 31
0.0
  0
LINE
  5
26C
330
8F
100
AcDbEntity
  8
0
  6
Continuous
 62
     7
100
AcDbLine
 10
24.82499999996385
 20
101.7499994969808
 30
0.0
 11
24.8249999999687
 21
81.24999949698076
 31
0.0
  0
LINE
  5
26D
330
8F
100
AcDbEntity
  8
0
  6
Continuous
 62
     7
100
AcDbLine
 10
23.82499999996875
 20
81.24999949698051
 30
0.0
 11
23.82499999996387
 21
101.7499994969806
 31
0.0
  0
LINE
  5
26E
330
8F
100
AcDbEntity
  8
0
  6
Continuous
 62
     7
100
AcDbLine
 10
24.32499999996873
 20
81.24999949698062
 30
0.0
 11
24.32499999996387
 21
101.7499994969807
 31
0.0
  0
LINE
  5
26F
330
8F
100
AcDbEntity
  8
0
  6
Continuous
 62
     7
100
AcDbLine
 10
26.37499999996243
 20
107.7499994969812
 30
0.0
 11
30.37499999996244
 21
107.7499994969821
 31
0.0
  0
LINE
  5
270
330
8F
100
AcDbEntity
  8
0
  6
Continuous
 62
     7
100
AcDbLine
 10
30.37499999996244
 20
107.7499994969821
 30
0.0
 11
30.37499999996875
 21
81.24999949698204
 31
0.0
  0
LINE
  5
271
330
8F
100
AcDbEntity
  8
0
  6
Continuous
 62
     7
100
AcDbLine
 10
23.67884757726284
 20
78.24999949698051
 30
0.0
 11
22.87499999996875
 21
81.24999949698031
 31
0.0
  0
LINE
  5
272
330
8F
100
AcDbEntity
  8
0
  6
Continuous
 62
     7
100
AcDbLine
 10
25.37499999996946
 20
78.2499994969809
 30
0.0
 11
27.07115242267611
 21
78.24999949698133
 31
0.0
  0
LINE
  5
273
330
8F
100
AcDbEntity
  8
0
  6
Continuous
 62
     7
100
AcDbLine
 10
23.67884757726284
 20
78.24999949698051
 30
0.0
 11
25.37499999996946
 21
78.2499994969809
 31
0.0
  0
LINE
  5
274
330
8F
100
AcDbEntity
  8
0
  6
Continuous
 62
     7
100
AcDbLine
 10
27.07115242267611
 20
78.24999949698133
 30
0.0
 11
27.87499999996875
 21
81.2499994969815
 31
0.0
  0
LINE
  5
275
330
8F
100
AcDbEntity
  8
1
  6
DOT_CENTER
 62
     2
100
AcDbLine
 10
25.37499999996946
 20
78.2499994969809
 30
0.0
 11
25.37499999996875
 21
81.2499994969809
 31
0.0
  0
ENDBLK
  5
91
330
8F
100
AcDbEntity
  8
0
100
AcDbBlockEnd
  0
BLOCK
  5
94
330
92
100
AcDbEntity
  8
0
100
AcDbBlockBegin
  2
Rckans1
 70
     0
 10
21.87499999999639
 20
92.9999999999591
 30
0.0
  3
Rckans1
  1

  0
INSERT
  5
93
330
92
100
AcDbEntity
  8
0
100
AcDbBlockReference
  2
CES_STPG_GY_7-select__3
 10
13.37499999996396
 20
78.24999949698051
 30
0.0
  0
MTEXT
  5
276
330
92
100
AcDbEntity
  8
1
 62
     6
100
AcDbMText
 10
21.87499999996636
 20
75.74999949698051
 30
0.0
 40
2.5
 41
0.0
 71
     2
 72
     1
  1
 
  7
CONVERTER_11
 73
     1
 44
1.32052821128451
  0
ENDBLK
  5
95
330
92
100
AcDbEntity
  8
0
100
AcDbBlockEnd
  0
BLOCK
  5
97
330
96
100
AcDbEntity
  8
0
100
AcDbBlockBegin
  2
CES_STPG_GY_7-select__4
 70
     0
 10
-23.74999909241767
 20
78.24999949693989
 30
0.0
  3
CES_STPG_GY_7-select__4
  1

  0
LINE
  5
277
330
96
100
AcDbEntity
  8
0
  6
Continuous
 62
     7
100
AcDbLine
 10
-9.44615151512433
 20
78.24999949693989
 30
0.0
 11
-6.05384666971106
 21
78.24999949693989
 31
0.0
  0
LINE
  5
278
330
96
100
AcDbEntity
  8
0
  6
Continuous
 62
     7
100
AcDbLine
 10
-3.74999909241768
 20
81.24999949694109
 30
0.0
 11
-3.24999909241768
 21
81.24999949693768
 31
0.0
  0
LINE
  5
279
330
96
100
AcDbEntity
  8
0
  6
Continuous
 62
     7
100
AcDbLine
 10
-6.05384666971106
 20
78.24999949693989
 30
0.0
 11
-5.2499990924177
 21
81.24999949693989
 31
0.0
  0
LINE
  5
27A
330
96
100
AcDbEntity
  8
0
  6
Continuous
 62
     7
100
AcDbLine
 10
-9.44615151512433
 20
78.24999949693989
 30
0.0
 11
-10.2499990924177
 21
81.24999949693989
 31
0.0
  0
LINE
  5
27B
330
96
100
AcDbEntity
  8
0
  6
Continuous
 62
     7
100
AcDbLine
 10
-3.7499990924177
 20
101.7499994969379
 30
0.0
 11
-3.2499990924177
 21
101.7499994969377
 31
0.0
  0
LINE
  5
27C
330
96
100
AcDbEntity
  8
0
  6
Continuous
 62
     7
100
AcDbLine
 10
-3.2499990924177
 20
101.7499994969377
 30
0.0
 11
-3.24999909241768
 21
81.24999949693768
 31
0.0
  0
LINE
  5
27D
330
96
100
AcDbEntity
  8
0
  6
Continuous
 62
     7
100
AcDbLine
 10
-23.74999909241765
 20
81.24999949693961
 30
0.0
 11
-23.24999909241768
 21
81.24999949694106
 31
0.0
  0
LINE
  5
27E
330
96
100
AcDbEntity
  8
0
  6
Continuous
 62
     7
100
AcDbLine
 10
-3.74999909241768
 20
81.24999949694109
 30
0.0
 11
-5.2499990924177
 21
81.24999949693989
 31
0.0
  0
LINE
  5
27F
330
96
100
AcDbEntity
  8
0
  6
Continuous
 62
     7
100
AcDbLine
 10
-10.2499990924177
 20
81.24999949693989
 30
0.0
 11
-23.24999909241768
 21
81.24999949694106
 31
0.0
  0
LINE
  5
280
330
96
100
AcDbEntity
  8
0
  6
Continuous
 62
     7
100
AcDbLine
 10
-5.2499990924177
 20
81.24999949693989
 30
0.0
 11
-10.2499990924177
 21
81.24999949693989
 31
0.0
  0
LINE
  5
281
330
96
100
AcDbEntity
  8
0
  6
Continuous
 62
     7
100
AcDbLine
 10
-23.74999909241767
 20
101.7499994969397
 30
0.0
 11
-23.24999909241771
 21
101.7499994969398
 31
0.0
  0
LINE
  5
282
330
96
100
AcDbEntity
  8
0
  6
Continuous
 62
     7
100
AcDbLine
 10
-23.74999909241765
 20
81.24999949693961
 30
0.0
 11
-23.74999909241767
 21
101.7499994969397
 31
0.0
  0
LINE
  5
283
330
96
100
AcDbEntity
  8
0
  6
Continuous
 62
     7
100
AcDbLine
 10
-23.24999909241771
 20
107.7499994969411
 30
0.0
 11
-23.24999909241771
 21
101.7499994969398
 31
0.0
  0
LINE
  5
284
330
96
100
AcDbEntity
  8
0
  6
Continuous
 62
     7
100
AcDbLine
 10
-23.24999909241771
 20
101.7499994969398
 30
0.0
 11
-23.24999909241768
 21
81.24999949694106
 31
0.0
  0
LINE
  5
285
330
96
100
AcDbEntity
  8
0
  6
Continuous
 62
     7
100
AcDbLine
 10
-3.74999909241771
 20
107.7499994969411
 30
0.0
 11
-23.24999909241771
 21
107.7499994969411
 31
0.0
  0
LINE
  5
286
330
96
100
AcDbEntity
  8
0
  6
Continuous
 62
     7
100
AcDbLine
 10
-3.7499990924177
 20
101.7499994969379
 30
0.0
 11
-3.74999909241771
 21
107.7499994969411
 31
0.0
  0
LINE
  5
287
330
96
100
AcDbEntity
  8
0
  6
Continuous
 62
     7
100
AcDbLine
 10
-3.74999909241768
 20
81.24999949694109
 30
0.0
 11
-3.7499990924177
 21
101.7499994969379
 31
0.0
  0
LINE
  5
288
330
96
100
AcDbEntity
  8
1
  6
DOT_CENTER
 62
     2
100
AcDbLine
 10
-17.15999909241769
 20
104.2499994969407
 30
0.0
 11
-21.3399990924177
 21
104.2499994969407
 31
0.0
  0
LINE
  5
289
330
96
100
AcDbEntity
  8
1
  6
DOT_CENTER
 62
     2
100
AcDbLine
 10
-19.2499990924177
 20
106.3399994969407
 30
0.0
 11
-19.2499990924177
 21
102.1599994969407
 31
0.0
  0
LINE
  5
28A
330
96
100
AcDbEntity
  8
1
  6
DOT_CENTER
 62
     2
100
AcDbLine
 10
-5.65999909241771
 20
104.2499994969415
 30
0.0
 11
-9.8399990924177
 21
104.2499994969415
 31
0.0
  0
LINE
  5
28B
330
96
100
AcDbEntity
  8
1
  6
DOT_CENTER
 62
     2
100
AcDbLine
 10
-7.7499990924177
 20
106.3399994969415
 30
0.0
 11
-7.7499990924177
 21
102.1599994969415
 31
0.0
  0
LINE
  5
28C
330
96
100
AcDbEntity
  8
1
  6
DOT_CENTER
 62
     2
100
AcDbLine
 10
-9.6499990924177
 20
91.49999949694109
 30
0.0
 11
-17.34999909241765
 21
91.49999949694109
 31
0.0
  0
LINE
  5
28D
330
96
100
AcDbEntity
  8
1
  6
DOT_CENTER
 62
     2
100
AcDbLine
 10
-13.49999909241768
 20
95.34999949694105
 30
0.0
 11
-13.49999909241768
 21
87.64999949694112
 31
0.0
  0
LINE
  5
28E
330
96
100
AcDbEntity
  8
1
  6
DOT_CENTER
 62
     2
100
AcDbLine
 10
-7.7499990924177
 20
78.24999949693989
 30
0.0
 11
-7.7499990924177
 21
81.24999949693989
 31
0.0
  0
CIRCLE
  5
28F
330
96
100
AcDbEntity
  8
0
  6
Continuous
 62
     7
100
AcDbCircle
 10
-7.7499990924177
 20
104.2499994969415
 30
0.0
 40
1.899999999999999
  0
CIRCLE
  5
290
330
96
100
AcDbEntity
  8
0
  6
Continuous
 62
     7
100
AcDbCircle
 10
-19.2499990924177
 20
104.2499994969407
 30
0.0
 40
1.900000000000002
  0
CIRCLE
  5
291
330
96
100
AcDbEntity
  8
0
  6
Continuous
 62
     7
100
AcDbCircle
 10
-13.49999909241768
 20
91.49999949694109
 30
0.0
 40
3.500000000000001
  0
ENDBLK
  5
98
330
96
100
AcDbEntity
  8
0
100
AcDbBlockEnd
  0
BLOCK
  5
9B
330
99
100
AcDbEntity
  8
0
100
AcDbBlockBegin
  2
SA_Links1
 70
     0
 10
-13.49999999993997
 20
92.99999999991809
 30
0.0
  3
SA_Links1
  1

  0
INSERT
  5
9A
330
99
100
AcDbEntity
  8
0
100
AcDbBlockReference
  2
CES_STPG_GY_7-select__4
 10
-23.74999909241767
 20
78.24999949693989
 30
0.0
  0
MTEXT
  5
292
330
99
100
AcDbEntity
  8
1
 62
     6
100
AcDbMText
 10
-13.49999909241767
 20
63.58560823487896
 30
0.0
 40
2.5
 41
0.0
 71
     2
 72
     1
  1
 
  7
CONVERTER_11
 73
     1
 44
1.32052821128451
  0
ENDBLK
  5
9C
330
99
100
AcDbEntity
  8
0
100
AcDbBlockEnd
  0
BLOCK
  5
9E
330
9D
100
AcDbEntity
  8
0
100
AcDbBlockBegin
  2
CES_STPG_GY_7-select__5
 70
     0
 10
-100.5000009075153
 20
78.2499994969809
 30
0.0
  3
CES_STPG_GY_7-select__5
  1

  0
LINE
  5
293
330
9D
100
AcDbEntity
  8
0
  6
Continuous
 62
     7
100
AcDbLine
 10
-80.50000090751527
 20
101.7499994969781
 30
0.0
 11
-80.0000009075153
 21
101.7499994969807
 31
0.0
  0
LINE
  5
294
330
9D
100
AcDbEntity
  8
0
  6
Continuous
 62
     7
100
AcDbLine
 10
-80.5000009075153
 20
81.24999949697803
 30
0.0
 11
-80.50000090751527
 21
101.7499994969781
 31
0.0
  0
LINE
  5
295
330
9D
100
AcDbEntity
  8
0
  6
Continuous
 62
     7
100
AcDbLine
 10
-80.50000090751527
 20
107.7499994969812
 30
0.0
 11
-80.50000090751527
 21
101.7499994969781
 31
0.0
  0
LINE
  5
296
330
9D
100
AcDbEntity
  8
0
  6
Continuous
 62
     7
100
AcDbLine
 10
-80.00000090751533
 20
81.24999949698062
 30
0.0
 11
-80.0000009075153
 21
101.7499994969807
 31
0.0
  0
LINE
  5
297
330
9D
100
AcDbEntity
  8
0
  6
Continuous
 62
     7
100
AcDbLine
 10
-91.75349298446446
 20
103.746507420032
 30
0.0
 11
-91.7534929844646
 21
101.7499994969812
 31
0.0
  0
LINE
  5
298
330
9D
100
AcDbEntity
  8
0
  6
Continuous
 62
     7
100
AcDbLine
 10
-93.25349298446446
 20
103.746507420032
 30
0.0
 11
-91.75349298446446
 21
103.746507420032
 31
0.0
  0
LINE
  5
299
330
9D
100
AcDbEntity
  8
0
  6
Continuous
 62
     7
100
AcDbLine
 10
-93.25349298446426
 20
106.2534915739303
 30
0.0
 11
-93.25349298446446
 21
103.746507420032
 31
0.0
  0
LINE
  5
29A
330
9D
100
AcDbEntity
  8
0
  6
Continuous
 62
     7
100
AcDbLine
 10
-91.61031782954842
 20
101.7499994969802
 30
0.0
 11
-91.61031782954828
 21
103.8896825749471
 31
0.0
  0
LINE
  5
29B
330
9D
100
AcDbEntity
  8
0
  6
Continuous
 62
     7
100
AcDbLine
 10
-88.88968398548226
 20
103.8896825749471
 30
0.0
 11
-88.8896839854824
 21
101.7499994969802
 31
0.0
  0
LINE
  5
29C
330
9D
100
AcDbEntity
  8
0
  6
Continuous
 62
     7
100
AcDbLine
 10
-100.0000009075153
 20
101.7499994969781
 30
0.0
 11
-100.0000009075153
 21
107.7499994969812
 31
0.0
  0
LINE
  5
29D
330
9D
100
AcDbEntity
  8
0
  6
Continuous
 62
     7
100
AcDbLine
 10
-100.5000009075153
 20
101.7499994969788
 30
0.0
 11
-100.0000009075153
 21
101.7499994969781
 31
0.0
  0
LINE
  5
29E
330
9D
100
AcDbEntity
  8
0
  6
Continuous
 62
     7
100
AcDbLine
 10
-94.30384848480867
 20
78.2499994969809
 30
0.0
 11
-93.5000009075153
 21
81.2499994969809
 31
0.0
  0
LINE
  5
29F
330
9D
100
AcDbEntity
  8
0
  6
Continuous
 62
     7
100
AcDbLine
 10
-97.69615333022193
 20
78.2499994969809
 30
0.0
 11
-94.30384848480867
 21
78.2499994969809
 31
0.0
  0
LINE
  5
2A0
330
9D
100
AcDbEntity
  8
0
  6
Continuous
 62
     7
100
AcDbLine
 10
-97.69615333022193
 20
78.2499994969809
 30
0.0
 11
-98.5000009075153
 21
81.2499994969809
 31
0.0
  0
LINE
  5
2A1
330
9D
100
AcDbEntity
  8
0
  6
Continuous
 62
     7
100
AcDbLine
 10
-93.25349298446426
 20
106.2534915739303
 30
0.0
 11
-93.11031782954811
 21
106.1103164190132
 31
0.0
  0
LINE
  5
2A2
330
9D
100
AcDbEntity
  8
0
  6
Continuous
 62
     7
100
AcDbLine
 10
-93.25349298446446
 20
103.746507420032
 30
0.0
 11
-93.11031782954828
 21
103.8896825749472
 31
0.0
  0
LINE
  5
2A3
330
9D
100
AcDbEntity
  8
0
  6
Continuous
 62
     7
100
AcDbLine
 10
-100.0000009075153
 20
107.7499994969812
 30
0.0
 11
-80.50000090751527
 21
107.7499994969812
 31
0.0
  0
LINE
  5
2A4
330
9D
100
AcDbEntity
  8
0
  6
Continuous
 62
     7
100
AcDbLine
 10
-87.38968398548226
 20
103.8896825749471
 30
0.0
 11
-88.88968398548226
 21
103.8896825749471
 31
0.0
  0
LINE
  5
2A5
330
9D
100
AcDbEntity
  8
0
  6
Continuous
 62
     7
100
AcDbLine
 10
-91.61031782954828
 20
103.8896825749471
 30
0.0
 11
-93.11031782954828
 21
103.8896825749472
 31
0.0
  0
LINE
  5
2A6
330
9D
100
AcDbEntity
  8
0
  6
Continuous
 62
     7
100
AcDbLine
 10
-93.11031782954811
 20
106.1103164190132
 30
0.0
 11
-87.38968398548212
 21
106.1103164190132
 31
0.0
  0
LINE
  5
2A7
330
9D
100
AcDbEntity
  8
0
  6
Continuous
 62
     7
100
AcDbLine
 10
-88.88968398548226
 20
103.8896825749471
 30
0.0
 11
-88.74650883056611
 21
103.746507420032
 31
0.0
  0
LINE
  5
2A8
330
9D
100
AcDbEntity
  8
0
  6
Continuous
 62
     7
100
AcDbLine
 10
-87.24650883056611
 20
103.746507420032
 30
0.0
 11
-87.38968398548226
 21
103.8896825749471
 31
0.0
  0
LINE
  5
2A9
330
9D
100
AcDbEntity
  8
0
  6
Continuous
 62
     7
100
AcDbLine
 10
-87.38968398548212
 20
106.1103164190132
 30
0.0
 11
-87.38968398548226
 21
103.8896825749471
 31
0.0
  0
LINE
  5
2AA
330
9D
100
AcDbEntity
  8
0
  6
Continuous
 62
     7
100
AcDbLine
 10
-93.11031782954828
 20
103.8896825749472
 30
0.0
 11
-93.11031782954811
 21
106.1103164190132
 31
0.0
  0
LINE
  5
2AB
330
9D
100
AcDbEntity
  8
0
  6
Continuous
 62
     7
100
AcDbLine
 10
-87.24650883056594
 20
106.2534915739303
 30
0.0
 11
-93.25349298446426
 21
106.2534915739303
 31
0.0
  0
LINE
  5
2AC
330
9D
100
AcDbEntity
  8
0
  6
Continuous
 62
     7
100
AcDbLine
 10
-88.74650883056611
 20
103.746507420032
 30
0.0
 11
-87.24650883056611
 21
103.746507420032
 31
0.0
  0
LINE
  5
2AD
330
9D
100
AcDbEntity
  8
0
  6
Continuous
 62
     7
100
AcDbLine
 10
-87.24650883056611
 20
103.746507420032
 30
0.0
 11
-87.24650883056594
 21
106.2534915739303
 31
0.0
  0
LINE
  5
2AE
330
9D
100
AcDbEntity
  8
0
  6
Continuous
 62
     7
100
AcDbLine
 10
-91.61031782954828
 20
103.8896825749471
 30
0.0
 11
-91.75349298446446
 21
103.746507420032
 31
0.0
  0
LINE
  5
2AF
330
9D
100
AcDbEntity
  8
0
  6
Continuous
 62
     7
100
AcDbLine
 10
-87.24650883056594
 20
106.2534915739303
 30
0.0
 11
-87.38968398548212
 21
106.1103164190132
 31
0.0
  0
LINE
  5
2B0
330
9D
100
AcDbEntity
  8
0
  6
Continuous
 62
     7
100
AcDbLine
 10
-93.5000009075153
 20
81.2499994969809
 30
0.0
 11
-98.5000009075153
 21
81.2499994969809
 31
0.0
  0
LINE
  5
2B1
330
9D
100
AcDbEntity
  8
0
  6
Continuous
 62
     7
100
AcDbLine
 10
-98.5000009075153
 20
81.2499994969809
 30
0.0
 11
-100.0000009075153
 21
81.24999949697806
 31
0.0
  0
LINE
  5
2B2
330
9D
100
AcDbEntity
  8
0
  6
Continuous
 62
     7
100
AcDbLine
 10
-80.5000009075153
 20
81.24999949697803
 30
0.0
 11
-93.5000009075153
 21
81.2499994969809
 31
0.0
  0
LINE
  5
2B3
330
9D
100
AcDbEntity
  8
0
  6
Continuous
 62
     7
100
AcDbLine
 10
-100.5000009075153
 20
81.24999949697869
 30
0.0
 11
-100.0000009075153
 21
81.24999949697806
 31
0.0
  0
LINE
  5
2B4
330
9D
100
AcDbEntity
  8
0
  6
Continuous
 62
     7
100
AcDbLine
 10
-80.5000009075153
 20
81.24999949697803
 30
0.0
 11
-80.00000090751533
 21
81.24999949698062
 31
0.0
  0
LINE
  5
2B5
330
9D
100
AcDbEntity
  8
0
  6
Continuous
 62
     7
100
AcDbLine
 10
-88.74650883056626
 20
101.7499994969812
 30
0.0
 11
-88.74650883056611
 21
103.746507420032
 31
0.0
  0
LINE
  5
2B6
330
9D
100
AcDbEntity
  8
0
  6
Continuous
 62
     7
100
AcDbLine
 10
-88.8896839854824
 20
101.7499994969802
 30
0.0
 11
-88.74650883056626
 21
101.7499994969812
 31
0.0
  0
LINE
  5
2B7
330
9D
100
AcDbEntity
  8
0
  6
Continuous
 62
     7
100
AcDbLine
 10
-91.7534929844646
 20
101.7499994969812
 30
0.0
 11
-91.61031782954842
 21
101.7499994969802
 31
0.0
  0
LINE
  5
2B8
330
9D
100
AcDbEntity
  8
0
  6
Continuous
 62
     7
100
AcDbLine
 10
-100.0000009075153
 20
101.7499994969781
 30
0.0
 11
-91.7534929844646
 21
101.7499994969812
 31
0.0
  0
LINE
  5
2B9
330
9D
100
AcDbEntity
  8
0
  6
Continuous
 62
     7
100
AcDbLine
 10
-88.74650883056626
 20
101.7499994969812
 30
0.0
 11
-80.50000090751527
 21
101.7499994969781
 31
0.0
  0
LINE
  5
2BA
330
9D
100
AcDbEntity
  8
0
  6
Continuous
 62
     7
100
AcDbLine
 10
-91.61031782954842
 20
101.7499994969802
 30
0.0
 11
-88.8896839854824
 21
101.7499994969802
 31
0.0
  0
LINE
  5
2BB
330
9D
100
AcDbEntity
  8
0
  6
Continuous
 62
     7
100
AcDbLine
 10
-100.0000009075153
 20
101.7499994969781
 30
0.0
 11
-100.0000009075153
 21
81.24999949697806
 31
0.0
  0
LINE
  5
2BC
330
9D
100
AcDbEntity
  8
0
  6
Continuous
 62
     7
100
AcDbLine
 10
-100.5000009075153
 20
101.7499994969788
 30
0.0
 11
-100.5000009075153
 21
81.24999949697869
 31
0.0
  0
LINE
  5
2BD
330
9D
100
AcDbEntity
  8
1
  6
DOT_CENTER
 62
     2
100
AcDbLine
 10
-82.41000090751527
 20
104.2499994969807
 30
0.0
 11
-86.59000090751528
 21
104.2499994969807
 31
0.0
  0
LINE
  5
2BE
330
9D
100
AcDbEntity
  8
1
  6
DOT_CENTER
 62
     2
100
AcDbLine
 10
-84.50000090751527
 20
106.3399994969807
 30
0.0
 11
-84.50000090751527
 21
102.1599994969807
 31
0.0
  0
LINE
  5
2BF
330
9D
100
AcDbEntity
  8
1
  6
DOT_CENTER
 62
     2
100
AcDbLine
 10
-93.91000090751527
 20
104.2499994969816
 30
0.0
 11
-98.09000090751528
 21
104.2499994969816
 31
0.0
  0
LINE
  5
2C0
330
9D
100
AcDbEntity
  8
1
  6
DOT_CENTER
 62
     2
100
AcDbLine
 10
-96.00000090751527
 20
106.3399994969816
 30
0.0
 11
-96.00000090751527
 21
102.1599994969816
 31
0.0
  0
LINE
  5
2C1
330
9D
100
AcDbEntity
  8
1
  6
DOT_CENTER
 62
     2
100
AcDbLine
 10
-86.40000090751516
 20
91.49999949697806
 30
0.0
 11
-94.10000090751544
 21
91.49999949697806
 31
0.0
  0
LINE
  5
2C2
330
9D
100
AcDbEntity
  8
1
  6
DOT_CENTER
 62
     2
100
AcDbLine
 10
-90.2500009075153
 20
95.3499994969782
 30
0.0
 11
-90.2500009075153
 21
87.64999949697793
 31
0.0
  0
LINE
  5
2C3
330
9D
100
AcDbEntity
  8
1
  6
DOT_CENTER
 62
     2
100
AcDbLine
 10
-96.0000009075153
 20
78.2499994969809
 30
0.0
 11
-96.0000009075153
 21
81.2499994969809
 31
0.0
  0
CIRCLE
  5
2C4
330
9D
100
AcDbEntity
  8
0
  6
Continuous
 62
     7
100
AcDbCircle
 10
-96.00000090751527
 20
104.2499994969816
 30
0.0
 40
1.900000000000006
  0
CIRCLE
  5
2C5
330
9D
100
AcDbEntity
  8
0
  6
Continuous
 62
     7
100
AcDbCircle
 10
-84.50000090751527
 20
104.2499994969807
 30
0.0
 40
1.900000000000006
  0
CIRCLE
  5
2C6
330
9D
100
AcDbEntity
  8
0
  6
Continuous
 62
     7
100
AcDbCircle
 10
-90.2500009075153
 20
91.49999949697806
 30
0.0
 40
3.5
  0
ENDBLK
  5
9F
330
9D
100
AcDbEntity
  8
0
100
AcDbBlockEnd
  0
BLOCK
  5
A2
330
A0
100
AcDbEntity
  8
0
100
AcDbBlockBegin
  2
SA_Rechts1
 70
     0
 10
-90.24999999999301
 20
92.9999999999591
 30
0.0
  3
SA_Rechts1
  1

  0
INSERT
  5
A1
330
A0
100
AcDbEntity
  8
0
100
AcDbBlockReference
  2
CES_STPG_GY_7-select__5
 10
-100.5000009075153
 20
78.2499994969809
 30
0.0
  0
MTEXT
  5
2C7
330
A0
100
AcDbEntity
  8
1
 62
     6
100
AcDbMText
 10
-90.2500009075153
 20
75.7499994969809
 30
0.0
 40
2.5
 41
0.0
 71
     2
 72
     1
  1
 
  7
CONVERTER_11
 73
     1
 44
1.32052821128451
  0
ENDBLK
  5
A3
330
A0
100
AcDbEntity
  8
0
100
AcDbBlockEnd
  0
BLOCK
  5
A5
330
A4
100
AcDbEntity
  8
0
100
AcDbBlockBegin
  2
CES_STPG_GY_7-select__6
 70
     0
 10
-57.37499999996888
 20
78.24999949698051
 30
0.0
  3
CES_STPG_GY_7-select__6
  1

  0
LINE
  5
2C8
330
A4
100
AcDbEntity
  8
0
  6
Continuous
 62
     7
100
AcDbLine
 10
-40.37499999996896
 20
81.24999949697806
 30
0.0
 11
-42.52499999996884
 21
81.24999949697857
 31
0.0
  0
LINE
  5
2C9
330
A4
100
AcDbEntity
  8
0
  6
Continuous
 62
     7
100
AcDbLine
 10
-54.07115242267622
 20
78.2499994969813
 30
0.0
 11
-50.67884757726296
 21
78.24999949698051
 31
0.0
  0
LINE
  5
2CA
330
A4
100
AcDbEntity
  8
0
  6
Continuous
 62
     7
100
AcDbLine
 10
-50.67884757726296
 20
78.24999949698051
 30
0.0
 11
-49.87499999996888
 21
81.24999949698031
 31
0.0
  0
LINE
  5
2CB
330
A4
100
AcDbEntity
  8
0
  6
Continuous
 62
     7
100
AcDbLine
 10
-43.02499999996395
 20
101.7499994969788
 30
0.0
 11
-42.52499999996398
 21
101.7499994969786
 31
0.0
  0
LINE
  5
2CC
330
A4
100
AcDbEntity
  8
0
  6
Continuous
 62
     7
100
AcDbLine
 10
-49.27499999996397
 20
101.7499994969802
 30
0.0
 11
-49.27499999996346
 21
103.8896825749472
 31
0.0
  0
LINE
  5
2CD
330
A4
100
AcDbEntity
  8
0
  6
Continuous
 62
     7
100
AcDbLine
 10
-49.27499999996346
 20
103.8896825749472
 30
0.0
 11
-49.27499999996293
 21
106.1103164190132
 31
0.0
  0
LINE
  5
2CE
330
A4
100
AcDbEntity
  8
0
  6
Continuous
 62
     7
100
AcDbLine
 10
-43.02499999996883
 20
81.24999949697869
 30
0.0
 11
-42.52499999996884
 21
81.24999949697857
 31
0.0
  0
LINE
  5
2CF
330
A4
100
AcDbEntity
  8
0
  6
Continuous
 62
     7
100
AcDbLine
 10
-42.52499999996398
 20
101.7499994969786
 30
0.0
 11
-42.52499999996884
 21
81.24999949697857
 31
0.0
  0
LINE
  5
2D0
330
A4
100
AcDbEntity
  8
0
  6
Continuous
 62
     7
100
AcDbLine
 10
-43.52499999996886
 20
81.2499994969788
 30
0.0
 11
-43.524999999964
 21
101.7499994969789
 31
0.0
  0
LINE
  5
2D1
330
A4
100
AcDbEntity
  8
0
  6
Continuous
 62
     7
100
AcDbLine
 10
-49.87499999996888
 20
81.24999949698031
 30
0.0
 11
-54.87499999996888
 21
81.2499994969815
 31
0.0
  0
LINE
  5
2D2
330
A4
100
AcDbEntity
  8
0
  6
Continuous
 62
     7
100
AcDbLine
 10
-54.87499999996888
 20
81.2499994969815
 30
0.0
 11
-57.37499999996888
 21
81.24999949698207
 31
0.0
  0
LINE
  5
2D3
330
A4
100
AcDbEntity
  8
0
  6
Continuous
 62
     7
100
AcDbLine
 10
-43.52499999996886
 20
81.2499994969788
 30
0.0
 11
-43.02499999996883
 21
81.24999949697869
 31
0.0
  0
LINE
  5
2D4
330
A4
100
AcDbEntity
  8
0
  6
Continuous
 62
     7
100
AcDbLine
 10
-43.52499999996886
 20
81.2499994969788
 30
0.0
 11
-49.87499999996888
 21
81.24999949698031
 31
0.0
  0
LINE
  5
2D5
330
A4
100
AcDbEntity
  8
0
  6
Continuous
 62
     7
100
AcDbLine
 10
-53.3749999999629
 20
106.2534915739303
 30
0.0
 11
-53.37499999996255
 21
107.7499994969812
 31
0.0
  0
LINE
  5
2D6
330
A4
100
AcDbEntity
  8
0
  6
Continuous
 62
     7
100
AcDbLine
 10
-53.37499999996398
 20
101.7499994969812
 30
0.0
 11
-53.37499999996351
 21
103.746507420032
 31
0.0
  0
LINE
  5
2D7
330
A4
100
AcDbEntity
  8
0
  6
Continuous
 62
     7
100
AcDbLine
 10
-53.37499999996351
 20
103.746507420032
 30
0.0
 11
-53.3749999999629
 21
106.2534915739303
 31
0.0
  0
LINE
  5
2D8
330
A4
100
AcDbEntity
  8
0
  6
Continuous
 62
     7
100
AcDbLine
 10
-57.37499999996257
 20
107.7499994969821
 30
0.0
 11
-53.37499999996255
 21
107.7499994969812
 31
0.0
  0
LINE
  5
2D9
330
A4
100
AcDbEntity
  8
0
  6
Continuous
 62
     7
100
AcDbLine
 10
-57.37499999996888
 20
81.24999949698207
 30
0.0
 11
-57.37499999996257
 21
107.7499994969821
 31
0.0
  0
LINE
  5
2DA
330
A4
100
AcDbEntity
  8
0
  6
Continuous
 62
     7
100
AcDbLine
 10
-43.02499999996395
 20
101.7499994969788
 30
0.0
 11
-43.02499999996883
 21
81.24999949697869
 31
0.0
  0
LINE
  5
2DB
330
A4
100
AcDbEntity
  8
0
  6
Continuous
 62
     7
100
AcDbLine
 10
-40.37499999996409
 20
101.7499994969781
 30
0.0
 11
-42.52499999996398
 21
101.7499994969786
 31
0.0
  0
LINE
  5
2DC
330
A4
100
AcDbEntity
  8
0
  6
Continuous
 62
     7
100
AcDbLine
 10
-40.37499999996409
 20
101.7499994969781
 30
0.0
 11
-40.37499999996896
 21
81.24999949697806
 31
0.0
  0
LINE
  5
2DD
330
A4
100
AcDbEntity
  8
0
  6
Continuous
 62
     7
100
AcDbLine
 10
-49.27499999996397
 20
101.7499994969802
 30
0.0
 11
-53.37499999996398
 21
101.7499994969812
 31
0.0
  0
LINE
  5
2DE
330
A4
100
AcDbEntity
  8
0
  6
Continuous
 62
     7
100
AcDbLine
 10
-43.524999999964
 20
101.7499994969789
 30
0.0
 11
-43.02499999996395
 21
101.7499994969788
 31
0.0
  0
LINE
  5
2DF
330
A4
100
AcDbEntity
  8
0
  6
Continuous
 62
     7
100
AcDbLine
 10
-43.524999999964
 20
101.7499994969789
 30
0.0
 11
-49.27499999996397
 21
101.7499994969802
 31
0.0
  0
LINE
  5
2E0
330
A4
100
AcDbEntity
  8
0
  6
Continuous
 62
     7
100
AcDbLine
 10
-53.37499999996351
 20
103.746507420032
 30
0.0
 11
-49.27499999996346
 21
103.8896825749472
 31
0.0
  0
LINE
  5
2E1
330
A4
100
AcDbEntity
  8
0
  6
Continuous
 62
     7
100
AcDbLine
 10
-53.3749999999629
 20
106.2534915739303
 30
0.0
 11
-49.27499999996293
 21
106.1103164190132
 31
0.0
  0
LINE
  5
2E2
330
A4
100
AcDbEntity
  8
0
  6
Continuous
 62
     7
100
AcDbLine
 10
-54.07115242267622
 20
78.2499994969813
 30
0.0
 11
-54.87499999996888
 21
81.2499994969815
 31
0.0
  0
LINE
  5
2E3
330
A4
100
AcDbEntity
  8
1
  6
DOT_CENTER
 62
     2
100
AcDbLine
 10
-52.37499999996959
 20
78.2499994969809
 30
0.0
 11
-52.37499999996888
 21
81.2499994969809
 31
0.0
  0
ENDBLK
  5
A6
330
A4
100
AcDbEntity
  8
0
100
AcDbBlockEnd
  0
BLOCK
  5
A9
330
A7
100
AcDbEntity
  8
0
100
AcDbBlockBegin
  2
Vordans1
 70
     0
 10
-48.8749999999965
 20
92.9999999999591
 30
0.0
  3
Vordans1
  1

  0
INSERT
  5
A8
330
A7
100
AcDbEntity
  8
0
100
AcDbBlockReference
  2
CES_STPG_GY_7-select__6
 10
-57.37499999996888
 20
78.24999949698051
 30
0.0
  0
MTEXT
  5
2E4
330
A7
100
AcDbEntity
  8
1
 62
     6
100
AcDbMText
 10
-42.33582572375266
 20
63.58560823487906
 30
0.0
 40
2.5
 41
0.0
 71
     2
 72
     1
  1
 
  7
CONVERTER_11
 73
     1
 44
1.32052821128451
  0
DIMENSION
  5
2EF
330
A7
100
AcDbEntity
  8
1
100
AcDbDimension
  2
*D18
 10
-63.29665144753645
 20
78.24999949698048
 30
0.0
 11
-65.25915144753645
 21
93.45767713607304
 31
0.0
 70
    32
  1
<>
 71
     5
 42
-1.0
 53
90.0
  3
ME10_DIM_11
100
AcDbAlignedDimension
 13
-53.37499999996255
 23
107.7499994969812
 33
0.0
 14
-50.67884757726296
 24
78.24999949698051
 34
0.0
 50
90.0
100
AcDbRotatedDimension
  0
DIMENSION
  5
2FA
330
A7
100
AcDbEntity
  8
1
100
AcDbDimension
  2
*D19
 10
-40.37499999996895
 20
71.58560823487906
 30
0.0
 11
-48.82712027835396
 21
73.46060823487906
 31
0.0
 70
    32
  1
<>
 71
     5
 42
-1.0
 53
0.00013888888889
  3
ME10_DIM_12
100
AcDbAlignedDimension
 13
-57.37499999996888
 23
81.24999949698207
 33
0.0
 14
-40.37499999996896
 24
81.24999949697806
 34
0.0
100
AcDbRotatedDimension
  0
ENDBLK
  5
AA
330
A7
100
AcDbEntity
  8
0
100
AcDbBlockEnd
  0
BLOCK
  5
B3
330
AB
100
AcDbEntity
  8
0
100
AcDbBlockBegin
  2
1
 70
     0
 10
0.0
 20
0.0
 30
0.0
  3
1
  1

  0
INSERT
  5
AC
330
AB
100
AcDbEntity
  8
0
100
AcDbBlockReference
  2
A3I_CS
 10
126.7431072854663
 20
-45.79362749516849
 30
0.0
  0
INSERT
  5
AD
330
AB
100
AcDbEntity
  8
0
100
AcDbBlockReference
  2
AllgSicht1
 10
89.00000000002017
 20
34.55220680319014
 30
0.0
 41
2.0
 42
2.0
 43
2.0
  0
INSERT
  5
AE
330
AB
100
AcDbEntity
  8
0
100
AcDbBlockReference
  2
Drfsicht1
 10
-97.749999999993
 20
92.99999904624804
 30
0.0
 41
2.0
 42
2.0
 43
2.0
  0
INSERT
  5
AF
330
AB
100
AcDbEntity
  8
0
100
AcDbBlockReference
  2
Rckans1
 10
43.74999999999278
 20
185.9999999999182
 30
0.0
 41
2.0
 42
2.0
 43
2.0
  0
INSERT
  5
B0
330
AB
100
AcDbEntity
  8
0
100
AcDbBlockReference
  2
SA_Links1
 10
-26.99999999987994
 20
185.9999999998362
 30
0.0
 41
2.0
 42
2.0
 43
2.0
  0
INSERT
  5
B1
330
AB
100
AcDbEntity
  8
0
100
AcDbBlockReference
  2
SA_Rechts1
 10
-180.499999999986
 20
185.9999999999182
 30
0.0
 41
2.0
 42
2.0
 43
2.0
  0
INSERT
  5
B2
330
AB
100
AcDbEntity
  8
0
100
AcDbBlockReference
  2
Vordans1
 10
-97.749999999993
 20
185.9999999999182
 30
0.0
 41
2.0
 42
2.0
 43
2.0
  0
ENDBLK
  5
B4
330
AB
100
AcDbEntity
  8
0
100
AcDbBlockEnd
  0
BLOCK
  5
255
330
24E
100
AcDbEntity
  8
0
100
AcDbBlockBegin
  2
*D17
 70
     1
 10
0.0
 20
0.0
 30
0.0
  3
*D17
  1

  0
LINE
  5
24F
330
24E
100
AcDbEntity
  8
1
  6
Continuous
 62
     2
100
AcDbLine
 10
-63.29665144753645
 20
56.74999861560173
 30
0.0
 11
-63.29665144753645
 21
36.24999861560175
 31
0.0
  0
LINE
  5
250
330
24E
100
AcDbEntity
  8
1
  6
Continuous
 62
     2
100
AcDbLine
 10
-51.32499999996401
 20
56.74999861560173
 30
0.0
 11
-64.04665144753645
 21
56.74999861560173
 31
0.0
  0
LINE
  5
251
330
24E
100
AcDbEntity
  8
1
  6
Continuous
 62
     2
100
AcDbLine
 10
-43.02499999996395
 20
36.24999861560175
 30
0.0
 11
-64.04665144753645
 21
36.24999861560175
 31
0.0
  0
SOLID
  5
252
330
24E
100
AcDbEntity
  8
1
 62
     2
100
AcDbTrace
 10
-63.0662595767585
 20
54.99999861560173
 30
0.0
 11
-63.52704331831439
 21
54.99999861560173
 31
0.0
 12
-63.29665144753645
 22
56.74999861560173
 32
0.0
 13
-63.29665144753645
 23
56.74999861560173
 33
0.0
  0
SOLID
  5
253
330
24E
100
AcDbEntity
  8
1
 62
     2
100
AcDbTrace
 10
-63.52704331831439
 20
37.99999861560175
 30
0.0
 11
-63.0662595767585
 21
37.99999861560175
 31
0.0
 12
-63.29665144753645
 22
36.24999861560175
 32
0.0
 13
-63.29665144753645
 23
36.24999861560175
 33
0.0
  0
MTEXT
  5
254
330
24E
100
AcDbEntity
  8
1
 62
     3
100
AcDbMText
 10
-64.22165144753646
 20
44.25521236551811
 30
0.0
 40
1.75
 41
0.0
 71
     7
 72
     1
  1
20,5
  7
CONVERTER_11
 11
0.0
 21
1.0
 31
0.0
 73
     1
 44
0.60024009603842
  0
ENDBLK
  5
256
330
24E
100
AcDbEntity
  8
0
100
AcDbBlockEnd
  0
BLOCK
  5
2EC
330
2E5
100
AcDbEntity
  8
0
100
AcDbBlockBegin
  2
*D18
 70
     1
 10
0.0
 20
0.0
 30
0.0
  3
*D18
  1

  0
LINE
  5
2E6
330
2E5
100
AcDbEntity
  8
1
  6
Continuous
 62
     2
100
AcDbLine
 10
-63.29665144753645
 20
78.24999949698048
 30
0.0
 11
-63.29665144753645
 21
107.7499994969812
 31
0.0
  0
LINE
  5
2E7
330
2E5
100
AcDbEntity
  8
1
  6
Continuous
 62
     2
100
AcDbLine
 10
-50.678847577263
 20
78.24999949698048
 30
0.0
 11
-64.29665144753645
 21
78.24999949698048
 31
0.0
  0
LINE
  5
2E8
330
2E5
100
AcDbEntity
  8
1
  6
Continuous
 62
     2
100
AcDbLine
 10
-53.37499999996258
 20
107.7499994969812
 30
0.0
 11
-64.29665144753645
 21
107.7499994969812
 31
0.0
  0
SOLID
  5
2E9
330
2E5
100
AcDbEntity
  8
1
 62
     2
100
AcDbTrace
 10
-63.52704331831439
 20
79.99999949698048
 30
0.0
 11
-63.0662595767585
 21
79.99999949698048
 31
0.0
 12
-63.29665144753645
 22
78.24999949698048
 32
0.0
 13
-63.29665144753645
 23
78.24999949698048
 33
0.0
  0
SOLID
  5
2EA
330
2E5
100
AcDbEntity
  8
1
 62
     2
100
AcDbTrace
 10
-63.0662595767585
 20
105.9999994969812
 30
0.0
 11
-63.52704331831439
 21
105.9999994969812
 31
0.0
 12
-63.29665144753645
 22
107.7499994969812
 32
0.0
 13
-63.29665144753645
 23
107.7499994969812
 33
0.0
  0
MTEXT
  5
2EB
330
2E5
100
AcDbEntity
  8
1
 62
     3
100
AcDbMText
 10
-64.47165144753646
 20
91.05142713607304
 30
0.0
 40
1.75
 41
0.0
 71
     7
 72
     1
  1
29,5
  7
CONVERTER_11
 11
0.0
 21
1.0
 31
0.0
 73
     1
 44
0.60024009603842
  0
ENDBLK
  5
2ED
330
2E5
100
AcDbEntity
  8
0
100
AcDbBlockEnd
  0
BLOCK
  5
2F7
330
2F0
100
AcDbEntity
  8
0
100
AcDbBlockBegin
  2
*D19
 70
     1
 10
0.0
 20
0.0
 30
0.0
  3
*D19
  1

  0
LINE
  5
2F1
330
2F0
100
AcDbEntity
  8
1
  6
Continuous
 62
     2
100
AcDbLine
 10
-40.37499999996895
 20
71.58560823487906
 30
0.0
 11
-57.37499999996888
 21
71.58560823487906
 31
0.0
  0
LINE
  5
2F2
330
2F0
100
AcDbEntity
  8
1
  6
Continuous
 62
     2
100
AcDbLine
 10
-40.37499999996895
 20
81.24999949697806
 30
0.0
 11
-40.37499999996895
 21
70.58560823487906
 31
0.0
  0
LINE
  5
2F3
330
2F0
100
AcDbEntity
  8
1
  6
Continuous
 62
     2
100
AcDbLine
 10
-57.37499999996888
 20
81.2499994969821
 30
0.0
 11
-57.37499999996888
 21
70.58560823487906
 31
0.0
  0
SOLID
  5
2F4
330
2F0
100
AcDbEntity
  8
1
 62
     2
100
AcDbTrace
 10
-42.12499999996895
 20
71.35521636410112
 30
0.0
 11
-42.12499999996895
 21
71.816000105657
 31
0.0
 12
-40.37499999996895
 22
71.58560823487906
 32
0.0
 13
-40.37499999996895
 23
71.58560823487906
 33
0.0
  0
SOLID
  5
2F5
330
2F0
100
AcDbEntity
  8
1
 62
     2
100
AcDbTrace
 10
-55.62499999996888
 20
71.816000105657
 30
0.0
 11
-55.62499999996888
 21
71.35521636410112
 31
0.0
 12
-57.37499999996888
 22
71.58560823487906
 32
0.0
 13
-57.37499999996888
 23
71.58560823487906
 33
0.0
  0
MTEXT
  5
2F6
330
2F0
100
AcDbEntity
  8
1
 62
     3
100
AcDbMText
 10
-49.87712027835396
 20
72.58560823487906
 30
0.0
 40
1.75
 41
0.0
 71
     7
 72
     1
  1
17
  7
CONVERTER_11
 11
0.9999999999970619
 21
2.424068405545306E-6
 31
0.0
 73
     1
 44
0.60024009603842
  0
ENDBLK
  5
2F8
330
2F0
100
AcDbEntity
  8
0
100
AcDbBlockEnd
  0
ENDSEC
  0
SECTION
  2
ENTITIES
  0
INSERT
  5
B5
330
1F
100
AcDbEntity
  8
1
100
AcDbBlockReference
  2
1
 10
0.0
 20
0.0
 30
0.0
  0
ENDSEC
  0
SECTION
  2
OBJECTS
  0
DICTIONARY
  5
C
330
0
100
AcDbDictionary
281
     1
  3
ACAD_DETAILVIEWSTYLE
350
340
  3
ACAD_GROUP
350
D
  3
ACAD_LAYOUT
350
1A
  3
ACAD_MATERIAL
350
43
  3
ACAD_MLEADERSTYLE
350
6B
  3
ACAD_MLINESTYLE
350
17
  3
ACAD_PLOTSETTINGS
350
19
  3
ACAD_PLOTSTYLENAME
350
E
  3
ACAD_SCALELIST
350
47
  3
ACAD_SECTIONVIEWSTYLE
350
341
  3
ACAD_TABLESTYLE
350
69
  3
ACAD_VISUALSTYLE
350
2A
  3
ACDB_RECOMPOSE_DATA
350
33D
  3
AcDbVariableDictionary
350
2FD
  0
DICTIONARY
  5
2FB
330
8
100
AcDbDictionary
280
     1
281
     1
  3
ACAD_XREC_ROUNDTRIP
360
2FC
  0
DICTIONARY
  5
340
102
{ACAD_REACTORS
330
C
102
}
330
C
100
AcDbDictionary
281
     1
  0
DICTIONARY
  5
D
102
{ACAD_REACTORS
330
C
102
}
330
C
100
AcDbDictionary
281
     1
  0
DICTIONARY
  5
1A
102
{ACAD_REACTORS
330
C
102
}
330
C
100
AcDbDictionary
281
     1
  3
Layout1
350
1E
  3
Layout2
350
26
  3
Model
350
22
  0
DICTIONARY
  5
43
102
{ACAD_REACTORS
330
C
102
}
330
C
100
AcDbDictionary
281
     1
  3
ByBlock
350
45
  3
ByLayer
350
44
  3
Global
350
46
  0
DICTIONARY
  5
6B
102
{ACAD_REACTORS
330
C
102
}
330
C
100
AcDbDictionary
281
     1
  3
Standard
350
6C
  0
DICTIONARY
  5
17
102
{ACAD_REACTORS
330
C
102
}
330
C
100
AcDbDictionary
281
     1
  3
Standard
350
18
  0
DICTIONARY
  5
19
102
{ACAD_REACTORS
330
C
102
}
330
C
100
AcDbDictionary
281
     1
  0
ACDBDICTIONARYWDFLT
  5
E
102
{ACAD_REACTORS
330
C
102
}
330
C
100
AcDbDictionary
281
     1
  3
Normal
350
F
100
AcDbDictionaryWithDefault
340
F
  0
DICTIONARY
  5
47
102
{ACAD_REACTORS
330
C
102
}
330
C
100
AcDbDictionary
281
     1
  3
A0
350
48
  3
A1
350
49
  3
A2
350
4A
  3
A3
350
4B
  3
A4
350
4C
  3
A5
350
4D
  3
A6
350
4E
  3
A7
350
4F
  3
A8
350
50
  3
A9
350
51
  3
B0
350
52
  3
B1
350
53
  3
B2
350
54
  3
B3
350
55
  3
B4
350
56
  3
B5
350
57
  3
B6
350
58
  3
B7
350
59
  3
B8
350
5A
  3
B9
350
5B
  3
C0
350
5C
  3
C1
350
5D
  3
C2
350
5E
  3
C3
350
5F
  3
C4
350
60
  3
C5
350
61
  3
C6
350
62
  3
C7
350
63
  3
C8
350
64
  3
C9
350
65
  3
D0
350
66
  3
D1
350
67
  3
D2
350
68
  0
DICTIONARY
  5
341
102
{ACAD_REACTORS
330
C
102
}
330
C
100
AcDbDictionary
281
     1
  0
DICTIONARY
  5
69
102
{ACAD_REACTORS
330
C
102
}
330
C
100
AcDbDictionary
281
     1
  3
Standard
350
6A
  0
DICTIONARY
  5
2A
102
{ACAD_REACTORS
330
C
102
}
330
C
100
AcDbDictionary
281
     1
  3
2dWireframe
350
2F
  3
Basic
350
32
  3
Brighten
350
36
  3
ColorChange
350
3A
  3
Conceptual
350
34
  3
Dim
350
35
  3
EdgeColorOff
350
3D
  3
Facepattern
350
39
  3
Flat
350
2B
  3
FlatWithEdges
350
2C
  3
Gouraud
350
2D
  3
GouraudWithEdges
350
2E
  3
Hidden
350
31
  3
JitterOff
350
3B
  3
Linepattern
350
38
  3
OverhangOff
350
3C
  3
Realistic
350
33
  3
Shaded
350
42
  3
Shaded with edges
350
41
  3
Shades of Gray
350
3E
  3
Sketchy
350
3F
  3
Thicken
350
37
  3
Wireframe
350
30
  3
X-Ray
350
40
  0
XRECORD
  5
33D
102
{ACAD_REACTORS
330
C
102
}
330
C
100
AcDbXrecord
280
     1
 90
        1
330
6A
  0
DICTIONARY
  5
2FD
102
{ACAD_REACTORS
330
C
102
}
330
C
100
AcDbDictionary
281
     1
  3
CANNOSCALE
350
2FE
  3
CMLEADERSTYLE
350
33F
  3
CTABLESTYLE
350
33E
  3
MSLTSCALE
350
2FF
  3
XCLIPFRAME
350
300
  0
XRECORD
  5
2FC
102
{ACAD_REACTORS
330
2FB
102
}
330
2FB
100
AcDbXrecord
280
     1
102
VTR_0.000_0.000_1.000_1.000_VISUALSTYLE
340
2F
102
VTR_0.000_0.000_1.000_1.000_GRIDDISPLAY
 70
     3
102
VTR_0.000_0.000_1.000_1.000_GRIDMAJOR
 70
     5
102
VTR_0.000_0.000_1.000_1.000_DEFAULTLIGHTING
280
     1
102
VTR_0.000_0.000_1.000_1.000_DEFAULTLIGHTINGTYPE
 70
     1
102
VTR_0.000_0.000_1.000_1.000_BRIGHTNESS
141
0.0
102
VTR_0.000_0.000_1.000_1.000_CONTRAST
142
0.0
  0
LAYOUT
  5
1E
102
{ACAD_REACTORS
330
1A
102
}
330
1A
100
AcDbPlotSettings
  1

  2
none_device
  4

  6

 40
0.0
 41
0.0
 42
0.0
 43
0.0
 44
0.0
 45
0.0
 46
0.0
 47
0.0
 48
0.0
 49
0.0
140
0.0
141
0.0
142
1.0
143
1.0
 70
   688
 72
     0
 73
     0
 74
     5
  7

 75
    16
 76
     0
 77
     2
 78
   300
147
1.0
148
0.0
149
0.0
100
AcDbLayout
  1
Layout1
 70
     1
 71
     1
 10
0.0
 20
0.0
 11
12.0
 21
9.0
 12
0.0
 22
0.0
 32
0.0
 14
1.00000000000000E+20
 24
1.00000000000000E+20
 34
1.00000000000000E+20
 15
-1.00000000000000E+20
 25
-1.00000000000000E+20
 35
-1.00000000000000E+20
146
0.0
 13
0.0
 23
0.0
 33
0.0
 16
1.0
 26
0.0
 36
0.0
 17
0.0
 27
1.0
 37
0.0
 76
     0
330
1B
  0
LAYOUT
  5
26
102
{ACAD_REACTORS
330
1A
102
}
330
1A
100
AcDbPlotSettings
  1

  2
none_device
  4

  6

 40
0.0
 41
0.0
 42
0.0
 43
0.0
 44
0.0
 45
0.0
 46
0.0
 47
0.0
 48
0.0
 49
0.0
140
0.0
141
0.0
142
1.0
143
1.0
 70
   688
 72
     0
 73
     0
 74
     5
  7

 75
    16
 76
     0
 77
     2
 78
   300
147
1.0
148
0.0
149
0.0
100
AcDbLayout
  1
Layout2
 70
     1
 71
     2
 10
0.0
 20
0.0
 11
0.0
 21
0.0
 12
0.0
 22
0.0
 32
0.0
 14
0.0
 24
0.0
 34
0.0
 15
0.0
 25
0.0
 35
0.0
146
0.0
 13
0.0
 23
0.0
 33
0.0
 16
1.0
 26
0.0
 36
0.0
 17
0.0
 27
1.0
 37
0.0
 76
     0
330
23
  0
LAYOUT
  5
22
102
{ACAD_REACTORS
330
1A
102
}
330
1A
100
AcDbPlotSettings
  1

  2
none_device
  4
Letter_(8.50_x_11.00_Inches)
  6

 40
6.35
 41
6.35
 42
6.35000508
 43
6.35000508
 44
215.9
 45
279.4
 46
0.0
 47
0.0
 48
0.0
 49
0.0
140
0.0
141
0.0
142
1.0
143
1.0
 70
  1712
 72
     0
 73
     0
 74
     0
  7

 75
     0
 76
     0
 77
     2
 78
   300
147
1.0
148
0.0
149
0.0
100
AcDbLayout
  1
Model
 70
     1
 71
     0
 10
0.0
 20
0.0
 11
12.0
 21
9.0
 12
0.0
 22
0.0
 32
0.0
 14
-288.2568927145345
 24
-45.79362749516849
 34
0.0
 15
131.7431072854639
 25
251.2063725048315
 35
0.0
146
0.0
 13
0.0
 23
0.0
 33
0.0
 16
1.0
 26
0.0
 36
0.0
 17
0.0
 27
1.0
 37
0.0
 76
     0
330
1F
331
29
  0
MATERIAL
  5
45
102
{ACAD_REACTORS
330
43
102
}
102
{ACAD_XDICTIONARY
360
333
102
}
330
43
100
AcDbMaterial
  1
ByBlock
  0
MATERIAL
  5
44
102
{ACAD_REACTORS
330
43
102
}
102
{ACAD_XDICTIONARY
360
331
102
}
330
43
100
AcDbMaterial
  1
ByLayer
  0
MATERIAL
  5
46
102
{ACAD_REACTORS
330
43
102
}
102
{ACAD_XDICTIONARY
360
335
102
}
330
43
100
AcDbMaterial
  1
Global
  0
MLEADERSTYLE
  5
6C
102
{ACAD_REACTORS
330
6B
102
}
102
{ACAD_XDICTIONARY
360
33B
102
}
330
6B
100
AcDbMLeaderStyle
170
     2
171
     1
172
     0
 90
        2
 40
0.0
 41
0.0
173
     1
 91
-1056964608
340
14
 92
       -2
290
     1
 42
0.09
291
     1
 43
0.36
  3
Standard
341
0
 44
0.18
300

342
11
174
     1
178
     6
175
     1
176
     0
 93
-1056964608
 45
0.18
292
     0
297
     0
 46
0.18
343
0
 94
-1056964608
 47
1.0
 49
1.0
140
1.0
293
     1
141
0.0
294
     1
177
     0
142
1.0
295
     0
296
     0
143
0.125
1001
ACAD_MLEADERVER
1070
     2
  0
MLINESTYLE
  5
18
102
{ACAD_REACTORS
330
17
102
}
330
17
100
AcDbMlineStyle
  2
Standard
 70
     0
  3

 62
   256
 51
90.0
 52
90.0
 71
     2
 49
0.5
 62
   256
  6
BYLAYER
 49
-0.5
 62
   256
  6
BYLAYER
  0
ACDBPLACEHOLDER
  5
F
102
{ACAD_REACTORS
330
E
102
}
330
E
  0
SCALE
  5
48
102
{ACAD_REACTORS
330
47
102
}
330
47
100
AcDbScale
 70
     0
300
1:1
140
1.0
141
1.0
290
     1
  0
SCALE
  5
49
102
{ACAD_REACTORS
330
47
102
}
330
47
100
AcDbScale
 70
     0
300
1:2
140
1.0
141
2.0
290
     0
  0
SCALE
  5
4A
102
{ACAD_REACTORS
330
47
102
}
330
47
100
AcDbScale
 70
     0
300
1:4
140
1.0
141
4.0
290
     0
  0
SCALE
  5
4B
102
{ACAD_REACTORS
330
47
102
}
330
47
100
AcDbScale
 70
     0
300
1:5
140
1.0
141
5.0
290
     0
  0
SCALE
  5
4C
102
{ACAD_REACTORS
330
47
102
}
330
47
100
AcDbScale
 70
     0
300
1:8
140
1.0
141
8.0
290
     0
  0
SCALE
  5
4D
102
{ACAD_REACTORS
330
47
102
}
330
47
100
AcDbScale
 70
     0
300
1:10
140
1.0
141
10.0
290
     0
  0
SCALE
  5
4E
102
{ACAD_REACTORS
330
47
102
}
330
47
100
AcDbScale
 70
     0
300
1:16
140
1.0
141
16.0
290
     0
  0
SCALE
  5
4F
102
{ACAD_REACTORS
330
47
102
}
330
47
100
AcDbScale
 70
     0
300
1:20
140
1.0
141
20.0
290
     0
  0
SCALE
  5
50
102
{ACAD_REACTORS
330
47
102
}
330
47
100
AcDbScale
 70
     0
300
1:30
140
1.0
141
30.0
290
     0
  0
SCALE
  5
51
102
{ACAD_REACTORS
330
47
102
}
330
47
100
AcDbScale
 70
     0
300
1:40
140
1.0
141
40.0
290
     0
  0
SCALE
  5
52
102
{ACAD_REACTORS
330
47
102
}
330
47
100
AcDbScale
 70
     0
300
1:50
140
1.0
141
50.0
290
     0
  0
SCALE
  5
53
102
{ACAD_REACTORS
330
47
102
}
330
47
100
AcDbScale
 70
     0
300
1:100
140
1.0
141
100.0
290
     0
  0
SCALE
  5
54
102
{ACAD_REACTORS
330
47
102
}
330
47
100
AcDbScale
 70
     0
300
2:1
140
2.0
141
1.0
290
     0
  0
SCALE
  5
55
102
{ACAD_REACTORS
330
47
102
}
330
47
100
AcDbScale
 70
     0
300
4:1
140
4.0
141
1.0
290
     0
  0
SCALE
  5
56
102
{ACAD_REACTORS
330
47
102
}
330
47
100
AcDbScale
 70
     0
300
8:1
140
8.0
141
1.0
290
     0
  0
SCALE
  5
57
102
{ACAD_REACTORS
330
47
102
}
330
47
100
AcDbScale
 70
     0
300
10:1
140
10.0
141
1.0
290
     0
  0
SCALE
  5
58
102
{ACAD_REACTORS
330
47
102
}
330
47
100
AcDbScale
 70
     0
300
100:1
140
100.0
141
1.0
290
     0
  0
SCALE
  5
59
102
{ACAD_REACTORS
330
47
102
}
330
47
100
AcDbScale
 70
     0
300
1/128" = 1'-0"
140
0.0078125
141
12.0
290
     0
  0
SCALE
  5
5A
102
{ACAD_REACTORS
330
47
102
}
330
47
100
AcDbScale
 70
     0
300
1/64" = 1'-0"
140
0.015625
141
12.0
290
     0
  0
SCALE
  5
5B
102
{ACAD_REACTORS
330
47
102
}
330
47
100
AcDbScale
 70
     0
300
1/32" = 1'-0"
140
0.03125
141
12.0
290
     0
  0
SCALE
  5
5C
102
{ACAD_REACTORS
330
47
102
}
330
47
100
AcDbScale
 70
     0
300
1/16" = 1'-0"
140
0.0625
141
12.0
290
     0
  0
SCALE
  5
5D
102
{ACAD_REACTORS
330
47
102
}
330
47
100
AcDbScale
 70
     0
300
3/32" = 1'-0"
140
0.09375
141
12.0
290
     0
  0
SCALE
  5
5E
102
{ACAD_REACTORS
330
47
102
}
330
47
100
AcDbScale
 70
     0
300
1/8" = 1'-0"
140
0.125
141
12.0
290
     0
  0
SCALE
  5
5F
102
{ACAD_REACTORS
330
47
102
}
330
47
100
AcDbScale
 70
     0
300
3/16" = 1'-0"
140
0.1875
141
12.0
290
     0
  0
SCALE
  5
60
102
{ACAD_REACTORS
330
47
102
}
330
47
100
AcDbScale
 70
     0
300
1/4" = 1'-0"
140
0.25
141
12.0
290
     0
  0
SCALE
  5
61
102
{ACAD_REACTORS
330
47
102
}
330
47
100
AcDbScale
 70
     0
300
3/8" = 1'-0"
140
0.375
141
12.0
290
     0
  0
SCALE
  5
62
102
{ACAD_REACTORS
330
47
102
}
330
47
100
AcDbScale
 70
     0
300
1/2" = 1'-0"
140
0.5
141
12.0
290
     0
  0
SCALE
  5
63
102
{ACAD_REACTORS
330
47
102
}
330
47
100
AcDbScale
 70
     0
300
3/4" = 1'-0"
140
0.75
141
12.0
290
     0
  0
SCALE
  5
64
102
{ACAD_REACTORS
330
47
102
}
330
47
100
AcDbScale
 70
     0
300
1" = 1'-0"
140
1.0
141
12.0
290
     0
  0
SCALE
  5
65
102
{ACAD_REACTORS
330
47
102
}
330
47
100
AcDbScale
 70
     0
300
1-1/2" = 1'-0"
140
1.5
141
12.0
290
     0
  0
SCALE
  5
66
102
{ACAD_REACTORS
330
47
102
}
330
47
100
AcDbScale
 70
     0
300
3" = 1'-0"
140
3.0
141
12.0
290
     0
  0
SCALE
  5
67
102
{ACAD_REACTORS
330
47
102
}
330
47
100
AcDbScale
 70
     0
300
6" = 1'-0"
140
6.0
141
12.0
290
     0
  0
SCALE
  5
68
102
{ACAD_REACTORS
330
47
102
}
330
47
100
AcDbScale
 70
     0
300
1'-0" = 1'-0"
140
12.0
141
12.0
290
     0
  0
TABLESTYLE
  5
6A
102
{ACAD_REACTORS
330
69
102
}
102
{ACAD_XDICTIONARY
360
337
102
}
330
69
100
AcDbTableStyle
  3
Standard
 70
     0
 71
     0
 40
0.06
 41
0.06
280
     0
281
     0
  7
Standard
140
0.18
170
     2
 62
     0
 63
   257
283
     0
274
    -2
284
     1
 64
     0
275
    -2
285
     1
 65
     0
276
    -2
286
     1
 66
     0
277
    -2
287
     1
 67
     0
278
    -2
288
     1
 68
     0
279
    -2
289
     1
 69
     0
  7
Standard
140
0.25
170
     5
 62
     0
 63
   257
283
     0
274
    -2
284
     1
 64
     0
275
    -2
285
     1
 65
     0
276
    -2
286
     1
 66
     0
277
    -2
287
     1
 67
     0
278
    -2
288
     1
 68
     0
279
    -2
289
     1
 69
     0
  7
Standard
140
0.18
170
     5
 62
     0
 63
   257
283
     0
274
    -2
284
     1
 64
     0
275
    -2
285
     1
 65
     0
276
    -2
286
     1
 66
     0
277
    -2
287
     1
 67
     0
278
    -2
288
     1
 68
     0
279
    -2
289
     1
 69
     0
  0
VISUALSTYLE
  5
2F
102
{ACAD_REACTORS
330
2A
102
}
102
{ACAD_XDICTIONARY
360
309
102
}
330
2A
100
AcDbVisualStyle
  2
2dWireframe
 70
     4
 71
     0
 72
     2
 73
     0
 90
        0
 40
0.6
 41
30.0
 62
     5
 63
     7
421
 16777215
 74
     1
 91
        4
 64
     7
 65
   257
 75
     1
175
     1
 42
1.0
 92
        0
 66
   257
 43
1.0
 76
     1
 77
     6
 78
     2
 67
     7
 79
     5
170
     0
171
     0
290
     0
174
     0
 93
        1
 44
0.0
173
     0
291
     0
 45
0.0
1001
ACAD
1000
AcDbSavedByObjectVersion
1070
     0
  0
VISUALSTYLE
  5
32
102
{ACAD_REACTORS
330
2A
102
}
102
{ACAD_XDICTIONARY
360
30F
102
}
330
2A
100
AcDbVisualStyle
  2
Basic
 70
     7
 71
     1
 72
     0
 73
     1
 90
        0
 40
0.6
 41
30.0
 62
     5
 63
     7
421
 16777215
 74
     0
 91
        4
 64
     7
 65
   257
 75
     1
175
     1
 42
1.0
 92
        8
 66
     7
 43
1.0
 76
     1
 77
     6
 78
     2
 67
     7
 79
     5
170
     0
171
     0
290
     0
174
     0
 93
        1
 44
0.0
173
     0
291
     1
 45
0.0
1001
ACAD
1000
AcDbSavedByObjectVersion
1070
     0
  0
VISUALSTYLE
  5
36
102
{ACAD_REACTORS
330
2A
102
}
102
{ACAD_XDICTIONARY
360
317
102
}
330
2A
100
AcDbVisualStyle
  2
Brighten
 70
    12
 71
     2
 72
     2
 73
     0
 90
        0
 40
0.6
 41
30.0
 62
     5
 63
     7
421
 16777215
 74
     1
 91
        4
 64
     7
 65
   257
 75
     1
175
     1
 42
1.0
 92
        8
 66
     7
 43
1.0
 76
     1
 77
     6
 78
     2
 67
     7
 79
     5
170
     0
171
     0
290
     0
174
     0
 93
        1
 44
50.0
173
     0
291
     1
 45
0.0
1001
ACAD
1000
AcDbSavedByObjectVersion
1070
     0
  0
VISUALSTYLE
  5
3A
102
{ACAD_REACTORS
330
2A
102
}
102
{ACAD_XDICTIONARY
360
31F
102
}
330
2A
100
AcDbVisualStyle
  2
ColorChange
 70
    16
 71
     2
 72
     2
 73
     3
 90
        0
 40
0.6
 41
30.0
 62
     5
 63
     8
421
  8421504
 74
     1
 91
        4
 64
     7
 65
   257
 75
     1
175
     1
 42
1.0
 92
        8
 66
     8
424
  8421504
 43
1.0
 76
     1
 77
     6
 78
     2
 67
     7
 79
     5
170
     0
171
     0
290
     0
174
     0
 93
        1
 44
0.0
173
     0
291
     1
 45
0.0
1001
ACAD
1000
AcDbSavedByObjectVersion
1070
     0
  0
VISUALSTYLE
  5
34
102
{ACAD_REACTORS
330
2A
102
}
102
{ACAD_XDICTIONARY
360
313
102
}
330
2A
100
AcDbVisualStyle
  2
Conceptual
 70
     9
 71
     3
 72
     2
 73
     0
 90
        0
 40
0.6
 41
30.0
 62
     5
 63
     7
421
 16777215
 74
     2
 91
        2
 64
     7
 65
   257
 75
     1
175
     1
 42
179.0
 92
        8
 66
     7
 43
1.0
 76
     1
 77
     6
 78
     2
 67
     7
 79
     3
170
     0
171
     0
290
     0
174
     0
 93
        1
 44
0.0
173
     0
291
     0
 45
0.0
1001
ACAD
1000
AcDbSavedByObjectVersion
1070
     0
  0
VISUALSTYLE
  5
35
102
{ACAD_REACTORS
330
2A
102
}
102
{ACAD_XDICTIONARY
360
315
102
}
330
2A
100
AcDbVisualStyle
  2
Dim
 70
    11
 71
     2
 72
     2
 73
     0
 90
        0
 40
0.6
 41
30.0
 62
     5
 63
     7
421
 16777215
 74
     1
 91
        4
 64
     7
 65
   257
 75
     1
175
     1
 42
1.0
 92
        8
 66
     7
 43
1.0
 76
     1
 77
     6
 78
     2
 67
     7
 79
     5
170
     0
171
     0
290
     0
174
     0
 93
        1
 44
-50.0
173
     0
291
     1
 45
0.0
1001
ACAD
1000
AcDbSavedByObjectVersion
1070
     0
  0
VISUALSTYLE
  5
3D
102
{ACAD_REACTORS
330
2A
102
}
102
{ACAD_XDICTIONARY
360
325
102
}
330
2A
100
AcDbVisualStyle
  2
EdgeColorOff
 70
    22
 71
     2
 72
     2
 73
     0
 90
        0
 40
0.6
 41
30.0
 62
     5
 63
     7
421
 16777215
 74
     1
 91
        4
 64
     7
 65
   257
 75
     1
175
     1
 42
1.0
 92
        8
 66
     7
 43
1.0
 76
     1
 77
     6
 78
     2
 67
     7
 79
     5
170
     0
171
     0
290
     0
174
     0
 93
        1
 44
0.0
173
     0
291
     1
 45
0.0
1001
ACAD
1000
AcDbSavedByObjectVersion
1070
     0
  0
VISUALSTYLE
  5
39
102
{ACAD_REACTORS
330
2A
102
}
102
{ACAD_XDICTIONARY
360
31D
102
}
330
2A
100
AcDbVisualStyle
  2
Facepattern
 70
    15
 71
     2
 72
     2
 73
     0
 90
        0
 40
0.6
 41
30.0
 62
     5
 63
     7
421
 16777215
 74
     1
 91
        4
 64
     7
 65
   257
 75
     1
175
     1
 42
1.0
 92
        8
 66
     7
 43
1.0
 76
     1
 77
     6
 78
     2
 67
     7
 79
     5
170
     0
171
     0
290
     0
174
     0
 93
        1
 44
0.0
173
     0
291
     1
 45
0.0
1001
ACAD
1000
AcDbSavedByObjectVersion
1070
     0
  0
VISUALSTYLE
  5
2B
102
{ACAD_REACTORS
330
2A
102
}
102
{ACAD_XDICTIONARY
360
301
102
}
330
2A
100
AcDbVisualStyle
  2
Flat
 70
     0
 71
     2
 72
     1
 73
     1
 90
        2
 40
0.6
 41
30.0
 62
     5
 63
     7
421
 16777215
 74
     0
 91
        0
 64
     7
 65
   257
 75
     1
175
     1
 42
1.0
 92
        8
 66
     7
 43
1.0
 76
     1
 77
     6
 78
     2
 67
     7
 79
     5
170
     0
171
     0
290
     0
174
     0
 93
       13
 44
0.0
173
     0
291
     1
 45
0.0
1001
ACAD
1000
AcDbSavedByObjectVersion
1070
     0
  0
VISUALSTYLE
  5
2C
102
{ACAD_REACTORS
330
2A
102
}
102
{ACAD_XDICTIONARY
360
303
102
}
330
2A
100
AcDbVisualStyle
  2
FlatWithEdges
 70
     1
 71
     2
 72
     1
 73
     1
 90
        2
 40
0.6
 41
30.0
 62
     5
 63
     7
421
 16777215
 74
     1
 91
        0
 64
     7
 65
   257
 75
     1
175
     1
 42
1.0
 92
        0
 66
   257
 43
1.0
 76
     1
 77
     6
 78
     2
 67
     7
 79
     5
170
     0
171
     0
290
     0
174
     0
 93
       13
 44
0.0
173
     0
291
     1
 45
0.0
1001
ACAD
1000
AcDbSavedByObjectVersion
1070
     0
  0
VISUALSTYLE
  5
2D
102
{ACAD_REACTORS
330
2A
102
}
102
{ACAD_XDICTIONARY
360
305
102
}
330
2A
100
AcDbVisualStyle
  2
Gouraud
 70
     2
 71
     2
 72
     2
 73
     1
 90
        2
 40
0.6
 41
30.0
 62
     5
 63
     7
421
 16777215
 74
     0
 91
        0
 64
     7
 65
   257
 75
     1
175
     1
 42
1.0
 92
        0
 66
     7
 43
1.0
 76
     1
 77
     6
 78
     2
 67
     7
 79
     5
170
     0
171
     0
290
     0
174
     0
 93
       13
 44
0.0
173
     0
291
     1
 45
0.0
1001
ACAD
1000
AcDbSavedByObjectVersion
1070
     0
  0
VISUALSTYLE
  5
2E
102
{ACAD_REACTORS
330
2A
102
}
102
{ACAD_XDICTIONARY
360
307
102
}
330
2A
100
AcDbVisualStyle
  2
GouraudWithEdges
 70
     3
 71
     2
 72
     2
 73
     1
 90
        2
 40
0.6
 41
30.0
 62
     5
 63
     7
421
 16777215
 74
     1
 91
        0
 64
     7
 65
   257
 75
     1
175
     1
 42
1.0
 92
        0
 66
   257
 43
1.0
 76
     1
 77
     6
 78
     2
 67
     7
 79
     5
170
     0
171
     0
290
     0
174
     0
 93
       13
 44
0.0
173
     0
291
     1
 45
0.0
1001
ACAD
1000
AcDbSavedByObjectVersion
1070
     0
  0
VISUALSTYLE
  5
31
102
{ACAD_REACTORS
330
2A
102
}
102
{ACAD_XDICTIONARY
360
30D
102
}
330
2A
100
AcDbVisualStyle
  2
Hidden
 70
     6
 71
     1
 72
     2
 73
     2
 90
        0
 40
0.6
 41
30.0
 62
     5
 63
     7
421
 16777215
 74
     2
 91
        2
 64
     7
 65
   257
 75
     2
175
     1
 42
40.0
 92
        0
 66
   257
 43
1.0
 76
     1
 77
     6
 78
     2
 67
     7
 79
     3
170
     0
171
     0
290
     0
174
     0
 93
        1
 44
0.0
173
     0
291
     0
 45
0.0
1001
ACAD
1000
AcDbSavedByObjectVersion
1070
     0
  0
VISUALSTYLE
  5
3B
102
{ACAD_REACTORS
330
2A
102
}
102
{ACAD_XDICTIONARY
360
321
102
}
330
2A
100
AcDbVisualStyle
  2
JitterOff
 70
    20
 71
     2
 72
     2
 73
     0
 90
        0
 40
0.6
 41
30.0
 62
     5
 63
     7
421
 16777215
 74
     1
 91
        4
 64
     7
 65
   257
 75
     1
175
     1
 42
1.0
 92
       10
 66
     7
 43
1.0
 76
     1
 77
     6
 78
     2
 67
     7
 79
     5
170
     0
171
     0
290
     0
174
     0
 93
        1
 44
0.0
173
     0
291
     1
 45
0.0
1001
ACAD
1000
AcDbSavedByObjectVersion
1070
     0
  0
VISUALSTYLE
  5
38
102
{ACAD_REACTORS
330
2A
102
}
102
{ACAD_XDICTIONARY
360
31B
102
}
330
2A
100
AcDbVisualStyle
  2
Linepattern
 70
    14
 71
     2
 72
     2
 73
     0
 90
        0
 40
0.6
 41
30.0
 62
     5
 63
     7
421
 16777215
 74
     1
 91
        4
 64
     7
 65
   257
 75
     7
175
     7
 42
1.0
 92
        8
 66
     7
 43
1.0
 76
     1
 77
     6
 78
     2
 67
     7
 79
     5
170
     0
171
     0
290
     0
174
     0
 93
        1
 44
0.0
173
     0
291
     1
 45
0.0
1001
ACAD
1000
AcDbSavedByObjectVersion
1070
     0
  0
VISUALSTYLE
  5
3C
102
{ACAD_REACTORS
330
2A
102
}
102
{ACAD_XDICTIONARY
360
323
102
}
330
2A
100
AcDbVisualStyle
  2
OverhangOff
 70
    21
 71
     2
 72
     2
 73
     0
 90
        0
 40
0.6
 41
30.0
 62
     5
 63
     7
421
 16777215
 74
     1
 91
        4
 64
     7
 65
   257
 75
     1
175
     1
 42
1.0
 92
        9
 66
     7
 43
1.0
 76
     1
 77
     6
 78
     2
 67
     7
 79
     5
170
     0
171
     0
290
     0
174
     0
 93
        1
 44
0.0
173
     0
291
     1
 45
0.0
1001
ACAD
1000
AcDbSavedByObjectVersion
1070
     0
  0
VISUALSTYLE
  5
33
102
{ACAD_REACTORS
330
2A
102
}
102
{ACAD_XDICTIONARY
360
311
102
}
330
2A
100
AcDbVisualStyle
  2
Realistic
 70
     8
 71
     2
 72
     3
 73
     0
 90
        2
 40
0.6
 41
30.0
 62
     5
 63
     7
421
 16777215
 74
     0
 91
        0
 64
     7
 65
   257
 75
     1
175
     1
 42
1.0
 92
        8
 66
   257
 43
1.0
 76
     1
 77
     6
 78
     2
 67
     7
 79
     3
170
     0
171
     0
290
     0
174
     0
 93
       13
 44
0.0
173
     0
291
     0
 45
0.0
1001
ACAD
1000
AcDbSavedByObjectVersion
1070
     0
  0
VISUALSTYLE
  5
42
102
{ACAD_REACTORS
330
2A
102
}
102
{ACAD_XDICTIONARY
360
32F
102
}
330
2A
100
AcDbVisualStyle
  2
Shaded
 70
    27
 71
     2
 72
     2
 73
     1
 90
        2
 40
0.6
 41
30.0
 62
     5
 63
     7
421
 16777215
 74
     0
 91
        4
 64
     7
 65
   257
 75
     1
175
     1
 42
1.0
 92
        8
 66
   257
 43
1.0
 76
     1
 77
     6
 78
     2
 67
     8
425
  7895160
 79
     3
170
     0
171
     0
290
     0
174
     0
 93
        5
 44
0.0
173
     0
291
     0
 45
0.0
1001
ACAD
1000
AcDbSavedByObjectVersion
1070
     0
  0
VISUALSTYLE
  5
41
102
{ACAD_REACTORS
330
2A
102
}
102
{ACAD_XDICTIONARY
360
32D
102
}
330
2A
100
AcDbVisualStyle
  2
Shaded with edges
 70
    26
 71
     2
 72
     2
 73
     1
 90
        2
 40
0.6
 41
30.0
 62
     5
 63
     7
421
 16777215
 74
     1
 91
       10
 64
     7
 65
   257
 75
     2
175
     1
 42
1.0
 92
        8
 66
   257
 43
1.0
 76
     1
 77
     6
 78
     2
 67
     7
 79
     3
170
     0
171
     0
290
     0
174
     0
 93
        5
 44
0.0
173
     0
291
     0
 45
0.0
1001
ACAD
1000
AcDbSavedByObjectVersion
1070
     0
  0
VISUALSTYLE
  5
3E
102
{ACAD_REACTORS
330
2A
102
}
102
{ACAD_XDICTIONARY
360
327
102
}
330
2A
100
AcDbVisualStyle
  2
Shades of Gray
 70
    23
 71
     2
 72
     2
 73
     3
 90
        0
 40
0.6
 41
30.0
 62
     5
 63
     7
421
 16777215
 74
     2
 91
        2
 64
     7
 65
     7
 75
     1
175
     1
 42
40.0
 92
        8
 66
     7
 43
1.0
 76
     1
 77
     6
 78
     2
 67
     7
 79
     3
170
     0
171
     0
290
     0
174
     0
 93
        1
 44
0.0
173
     0
291
     0
 45
0.0
1001
ACAD
1000
AcDbSavedByObjectVersion
1070
     0
  0
VISUALSTYLE
  5
3F
102
{ACAD_REACTORS
330
2A
102
}
102
{ACAD_XDICTIONARY
360
329
102
}
330
2A
100
AcDbVisualStyle
  2
Sketchy
 70
    24
 71
     1
 72
     2
 73
     2
 90
        0
 40
0.6
 41
30.0
 62
     5
 63
     7
421
 16777215
 74
     2
 91
        2
 64
     7
 65
     7
 75
     1
175
     1
 42
40.0
 92
       11
 66
     7
 43
1.0
 76
     1
 77
     6
 78
     2
 67
     7
 79
     6
170
     0
171
     0
290
     0
174
     0
 93
        1
 44
0.0
173
     0
291
     0
 45
0.0
1001
ACAD
1000
AcDbSavedByObjectVersion
1070
     0
  0
VISUALSTYLE
  5
37
102
{ACAD_REACTORS
330
2A
102
}
102
{ACAD_XDICTIONARY
360
319
102
}
330
2A
100
AcDbVisualStyle
  2
Thicken
 70
    13
 71
     2
 72
     2
 73
     0
 90
        0
 40
0.6
 41
30.0
 62
     5
 63
     7
421
 16777215
 74
     1
 91
        4
 64
     7
 65
   257
 75
     1
175
     1
 42
1.0
 92
       12
 66
     7
 43
1.0
 76
     1
 77
     6
 78
     2
 67
     7
 79
     5
170
     0
171
     0
290
     0
174
     0
 93
        1
 44
0.0
173
     0
291
     1
 45
0.0
1001
ACAD
1000
AcDbSavedByObjectVersion
1070
     0
  0
VISUALSTYLE
  5
30
102
{ACAD_REACTORS
330
2A
102
}
102
{ACAD_XDICTIONARY
360
30B
102
}
330
2A
100
AcDbVisualStyle
  2
Wireframe
 70
     5
 71
     0
 72
     2
 73
     0
 90
        0
 40
0.6
 41
30.0
 62
     5
 63
     7
421
 16777215
 74
     1
 91
        4
 64
     7
 65
   257
 75
     1
175
     1
 42
1.0
 92
        0
 66
   257
 43
1.0
 76
     1
 77
     6
 78
     2
 67
     7
 79
     3
170
     0
171
     0
290
     0
174
     0
 93
        1
 44
0.0
173
     0
291
     0
 45
0.0
1001
ACAD
1000
AcDbSavedByObjectVersion
1070
     0
  0
VISUALSTYLE
  5
40
102
{ACAD_REACTORS
330
2A
102
}
102
{ACAD_XDICTIONARY
360
32B
102
}
330
2A
100
AcDbVisualStyle
  2
X-Ray
 70
    25
 71
     2
 72
     2
 73
     1
 90
        1
 40
0.5
 41
30.0
 62
     5
 63
     7
421
 16777215
 74
     1
 91
        0
 64
     7
 65
   257
 75
     1
175
     1
 42
1.0
 92
        8
 66
     7
 43
1.0
 76
     1
 77
     6
 78
     2
 67
     7
 79
     3
170
     0
171
     0
290
     0
174
     0
 93
       13
 44
0.0
173
     0
291
     0
 45
0.0
1001
ACAD
1000
AcDbSavedByObjectVersion
1070
     0
  0
DICTIONARYVAR
  5
2FE
102
{ACAD_REACTORS
330
2FD
102
}
330
2FD
100
DictionaryVariables
280
     0
  1
1:1
  0
DICTIONARYVAR
  5
33F
102
{ACAD_REACTORS
330
2FD
102
}
330
2FD
100
DictionaryVariables
280
     0
  1
Standard
  0
DICTIONARYVAR
  5
33E
102
{ACAD_REACTORS
330
2FD
102
}
330
2FD
100
DictionaryVariables
280
     0
  1
Standard
  0
DICTIONARYVAR
  5
2FF
102
{ACAD_REACTORS
330
2FD
102
}
330
2FD
100
DictionaryVariables
280
     0
  1
1
  0
DICTIONARYVAR
  5
300
102
{ACAD_REACTORS
330
2FD
102
}
330
2FD
100
DictionaryVariables
280
     0
  1
2
  0
DICTIONARY
  5
333
330
45
100
AcDbDictionary
280
     1
281
     1
  3
ACAD_XREC_ROUNDTRIP
360
334
  0
DICTIONARY
  5
331
330
44
100
AcDbDictionary
280
     1
281
     1
  3
ACAD_XREC_ROUNDTRIP
360
332
  0
DICTIONARY
  5
335
330
46
100
AcDbDictionary
280
     1
281
     1
  3
ACAD_XREC_ROUNDTRIP
360
336
  0
DICTIONARY
  5
33B
330
6C
100
AcDbDictionary
280
     1
281
     1
  3
ACAD_XREC_ROUNDTRIP
360
33C
  0
DICTIONARY
  5
337
330
6A
100
AcDbDictionary
280
     1
281
     1
  3
ACAD_ROUNDTRIP_2008_TABLESTYLE_CELLSTYLEMAP
360
339
  3
ACAD_XREC_ROUNDTRIP
360
338
  0
DICTIONARY
  5
309
330
2F
100
AcDbDictionary
280
     1
281
     1
  3
ACAD_XREC_ROUNDTRIP
360
30A
  0
DICTIONARY
  5
30F
330
32
100
AcDbDictionary
280
     1
281
     1
  3
ACAD_XREC_ROUNDTRIP
360
310
  0
DICTIONARY
  5
317
330
36
100
AcDbDictionary
280
     1
281
     1
  3
ACAD_XREC_ROUNDTRIP
360
318
  0
DICTIONARY
  5
31F
330
3A
100
AcDbDictionary
280
     1
281
     1
  3
ACAD_XREC_ROUNDTRIP
360
320
  0
DICTIONARY
  5
313
330
34
100
AcDbDictionary
280
     1
281
     1
  3
ACAD_XREC_ROUNDTRIP
360
314
  0
DICTIONARY
  5
315
330
35
100
AcDbDictionary
280
     1
281
     1
  3
ACAD_XREC_ROUNDTRIP
360
316
  0
DICTIONARY
  5
325
330
3D
100
AcDbDictionary
280
     1
281
     1
  3
ACAD_XREC_ROUNDTRIP
360
326
  0
DICTIONARY
  5
31D
330
39
100
AcDbDictionary
280
     1
281
     1
  3
ACAD_XREC_ROUNDTRIP
360
31E
  0
DICTIONARY
  5
301
330
2B
100
AcDbDictionary
280
     1
281
     1
  3
ACAD_XREC_ROUNDTRIP
360
302
  0
DICTIONARY
  5
303
330
2C
100
AcDbDictionary
280
     1
281
     1
  3
ACAD_XREC_ROUNDTRIP
360
304
  0
DICTIONARY
  5
305
330
2D
100
AcDbDictionary
280
     1
281
     1
  3
ACAD_XREC_ROUNDTRIP
360
306
  0
DICTIONARY
  5
307
330
2E
100
AcDbDictionary
280
     1
281
     1
  3
ACAD_XREC_ROUNDTRIP
360
308
  0
DICTIONARY
  5
30D
330
31
100
AcDbDictionary
280
     1
281
     1
  3
ACAD_XREC_ROUNDTRIP
360
30E
  0
DICTIONARY
  5
321
330
3B
100
AcDbDictionary
280
     1
281
     1
  3
ACAD_XREC_ROUNDTRIP
360
322
  0
DICTIONARY
  5
31B
330
38
100
AcDbDictionary
280
     1
281
     1
  3
ACAD_XREC_ROUNDTRIP
360
31C
  0
DICTIONARY
  5
323
330
3C
100
AcDbDictionary
280
     1
281
     1
  3
ACAD_XREC_ROUNDTRIP
360
324
  0
DICTIONARY
  5
311
330
33
100
AcDbDictionary
280
     1
281
     1
  3
ACAD_XREC_ROUNDTRIP
360
312
  0
DICTIONARY
  5
32F
330
42
100
AcDbDictionary
280
     1
281
     1
  3
ACAD_XREC_ROUNDTRIP
360
330
  0
DICTIONARY
  5
32D
330
41
100
AcDbDictionary
280
     1
281
     1
  3
ACAD_XREC_ROUNDTRIP
360
32E
  0
DICTIONARY
  5
327
330
3E
100
AcDbDictionary
280
     1
281
     1
  3
ACAD_XREC_ROUNDTRIP
360
328
  0
DICTIONARY
  5
329
330
3F
100
AcDbDictionary
280
     1
281
     1
  3
ACAD_XREC_ROUNDTRIP
360
32A
  0
DICTIONARY
  5
319
330
37
100
AcDbDictionary
280
     1
281
     1
  3
ACAD_XREC_ROUNDTRIP
360
31A
  0
DICTIONARY
  5
30B
330
30
100
AcDbDictionary
280
     1
281
     1
  3
ACAD_XREC_ROUNDTRIP
360
30C
  0
DICTIONARY
  5
32B
330
40
100
AcDbDictionary
280
     1
281
     1
  3
ACAD_XREC_ROUNDTRIP
360
32C
  0
XRECORD
  5
334
102
{ACAD_REACTORS
330
333
102
}
330
333
100
AcDbXrecord
280
     1
102
MATERIAL
148
0.0
149
0.0
149
0.0
 93
        0
 94
      127
282
     0
 72
     1
 77
     1
171
     1
175
     1
179
     1
273
     0
  0
XRECORD
  5
332
102
{ACAD_REACTORS
330
331
102
}
330
331
100
AcDbXrecord
280
     1
102
MATERIAL
148
0.0
149
0.0
149
0.0
 93
        0
 94
      127
282
     0
 72
     1
 77
     1
171
     1
175
     1
179
     1
273
     0
  0
XRECORD
  5
336
102
{ACAD_REACTORS
330
335
102
}
330
335
100
AcDbXrecord
280
     1
102
MATERIAL
148
0.0
149
0.0
149
0.0
 93
        0
 94
      127
282
     0
 72
     1
 77
     1
171
     1
175
     1
179
     1
273
     0
  0
XRECORD
  5
33C
102
{ACAD_REACTORS
330
33B
102
}
330
33B
100
AcDbXrecord
280
     1
102
ACAD_ROUNDTRIP_2010_MLEADER_STYLE
  0
CELLSTYLEMAP
  5
339
102
{ACAD_REACTORS
330
337
102
}
330
337
100
AcDbCellStyleMap
 90
        3
300
CELLSTYLE
  1
TABLEFORMAT_BEGIN
 90
        5
170
     1
 91
        0
 92
    32768
 62
   257
 93
        1
300
CONTENTFORMAT
  1
CONTENTFORMAT_BEGIN
 90
        0
 91
        0
 92
        4
 93
        0
300

 40
0.0
140
1.0
 94
        5
 62
     0
340
11
144
0.25
309
CONTENTFORMAT_END
171
     1
301
MARGIN
  1
CELLMARGIN_BEGIN
 40
0.06
 40
0.06
 40
0.06
 40
0.06
 40
0.06
 40
0.06
309
CELLMARGIN_END
 94
        6
 95
        1
302
GRIDFORMAT
  1
GRIDFORMAT_BEGIN
 90
        0
 91
        1
 62
     0
 92
       -2
340
14
 93
        0
 40
0.045
309
GRIDFORMAT_END
 95
        2
302
GRIDFORMAT
  1
GRIDFORMAT_BEGIN
 90
        0
 91
        1
 62
     0
 92
       -2
340
14
 93
        0
 40
0.045
309
GRIDFORMAT_END
 95
        4
302
GRIDFORMAT
  1
GRIDFORMAT_BEGIN
 90
        0
 91
        1
 62
     0
 92
       -2
340
14
 93
        0
 40
0.045
309
GRIDFORMAT_END
 95
        8
302
GRIDFORMAT
  1
GRIDFORMAT_BEGIN
 90
        0
 91
        1
 62
     0
 92
       -2
340
14
 93
        0
 40
0.045
309
GRIDFORMAT_END
 95
       16
302
GRIDFORMAT
  1
GRIDFORMAT_BEGIN
 90
        0
 91
        1
 62
     0
 92
       -2
340
14
 93
        0
 40
0.045
309
GRIDFORMAT_END
 95
       32
302
GRIDFORMAT
  1
GRIDFORMAT_BEGIN
 90
        0
 91
        1
 62
     0
 92
       -2
340
14
 93
        0
 40
0.045
309
GRIDFORMAT_END
309
TABLEFORMAT_END
  1
CELLSTYLE_BEGIN
 90
        1
 91
        1
300
_TITLE
309
CELLSTYLE_END
300
CELLSTYLE
  1
TABLEFORMAT_BEGIN
 90
        5
170
     1
 91
        0
 92
        0
 62
   257
 93
        1
300
CONTENTFORMAT
  1
CONTENTFORMAT_BEGIN
 90
        0
 91
        0
 92
        4
 93
        0
300

 40
0.0
140
1.0
 94
        5
 62
     0
340
11
144
0.18
309
CONTENTFORMAT_END
171
     1
301
MARGIN
  1
CELLMARGIN_BEGIN
 40
0.06
 40
0.06
 40
0.06
 40
0.06
 40
0.06
 40
0.06
309
CELLMARGIN_END
 94
        6
 95
        1
302
GRIDFORMAT
  1
GRIDFORMAT_BEGIN
 90
        0
 91
        1
 62
     0
 92
       -2
340
14
 93
        0
 40
0.045
309
GRIDFORMAT_END
 95
        2
302
GRIDFORMAT
  1
GRIDFORMAT_BEGIN
 90
        0
 91
        1
 62
     0
 92
       -2
340
14
 93
        0
 40
0.045
309
GRIDFORMAT_END
 95
        4
302
GRIDFORMAT
  1
GRIDFORMAT_BEGIN
 90
        0
 91
        1
 62
     0
 92
       -2
340
14
 93
        0
 40
0.045
309
GRIDFORMAT_END
 95
        8
302
GRIDFORMAT
  1
GRIDFORMAT_BEGIN
 90
        0
 91
        1
 62
     0
 92
       -2
340
14
 93
        0
 40
0.045
309
GRIDFORMAT_END
 95
       16
302
GRIDFORMAT
  1
GRIDFORMAT_BEGIN
 90
        0
 91
        1
 62
     0
 92
       -2
340
14
 93
        0
 40
0.045
309
GRIDFORMAT_END
 95
       32
302
GRIDFORMAT
  1
GRIDFORMAT_BEGIN
 90
        0
 91
        1
 62
     0
 92
       -2
340
14
 93
        0
 40
0.045
309
GRIDFORMAT_END
309
TABLEFORMAT_END
  1
CELLSTYLE_BEGIN
 90
        2
 91
        1
300
_HEADER
309
CELLSTYLE_END
300
CELLSTYLE
  1
TABLEFORMAT_BEGIN
 90
        5
170
     1
 91
        0
 92
        0
 62
   257
 93
        1
300
CONTENTFORMAT
  1
CONTENTFORMAT_BEGIN
 90
        0
 91
        0
 92
        4
 93
        0
300

 40
0.0
140
1.0
 94
        2
 62
     0
340
11
144
0.18
309
CONTENTFORMAT_END
171
     1
301
MARGIN
  1
CELLMARGIN_BEGIN
 40
0.06
 40
0.06
 40
0.06
 40
0.06
 40
0.06
 40
0.06
309
CELLMARGIN_END
 94
        6
 95
        1
302
GRIDFORMAT
  1
GRIDFORMAT_BEGIN
 90
        0
 91
        1
 62
     0
 92
       -2
340
14
 93
        0
 40
0.045
309
GRIDFORMAT_END
 95
        2
302
GRIDFORMAT
  1
GRIDFORMAT_BEGIN
 90
        0
 91
        1
 62
     0
 92
       -2
340
14
 93
        0
 40
0.045
309
GRIDFORMAT_END
 95
        4
302
GRIDFORMAT
  1
GRIDFORMAT_BEGIN
 90
        0
 91
        1
 62
     0
 92
       -2
340
14
 93
        0
 40
0.045
309
GRIDFORMAT_END
 95
        8
302
GRIDFORMAT
  1
GRIDFORMAT_BEGIN
 90
        0
 91
        1
 62
     0
 92
       -2
340
14
 93
        0
 40
0.045
309
GRIDFORMAT_END
 95
       16
302
GRIDFORMAT
  1
GRIDFORMAT_BEGIN
 90
        0
 91
        1
 62
     0
 92
       -2
340
14
 93
        0
 40
0.045
309
GRIDFORMAT_END
 95
       32
302
GRIDFORMAT
  1
GRIDFORMAT_BEGIN
 90
        0
 91
        1
 62
     0
 92
       -2
340
14
 93
        0
 40
0.045
309
GRIDFORMAT_END
309
TABLEFORMAT_END
  1
CELLSTYLE_BEGIN
 90
        3
 91
        2
300
_DATA
309
CELLSTYLE_END
  0
XRECORD
  5
338
102
{ACAD_REACTORS
330
337
102
}
330
337
100
AcDbXrecord
280
     1
102
ACAD_ROUNDTRIP_PRE2007_TABLESTYLE
 90
        4
 91
        0
  1

 92
        4
 93
        0
  2

 94
        4
 95
        0
  3

  0
XRECORD
  5
30A
102
{ACAD_REACTORS
330
309
102
}
330
309
100
AcDbXrecord
280
     1
102
RTVSPropertyOp0
 70
     1
102
RTVSPropertyOp1
 70
     1
102
RTVSPropertyOp2
 70
     1
102
RTVSPropertyOp3
 70
     1
102
RTVSPropertyOp4
 70
     1
102
RTVSPropertyOp5
 70
     1
102
RTVSPropertyOp6
 70
     1
102
RTVSPropertyOp7
 70
     1
102
RTVSPropertyOp8
 70
     1
102
RTVSPropertyOp9
 70
     1
102
RTVSPropertyOp10
 70
     1
102
RTVSPropertyOp11
 70
     1
102
RTVSPropertyOp12
 70
     1
102
RTVSPropertyOp13
 70
     1
102
RTVSPropertyOp14
 70
     1
102
RTVSPropertyOp15
 70
     1
102
RTVSPropertyOp16
 70
     1
102
RTVSPropertyOp17
 70
     1
102
RTVSPropertyOp18
 70
     1
102
RTVSPropertyOp19
 70
     1
102
RTVSPropertyOp20
 70
     1
102
RTVSPropertyOp21
 70
     1
102
RTVSPropertyOp22
 70
     1
102
RTVSPropertyOp23
 70
     1
102
RTVSPropertyOp24
 70
     1
102
RTVSPropertyOp25
 70
     1
102
RTVSPropertyOp26
 70
     1
102
RTVSPropertyOp27
 70
     1
102
RTVSPropertyOp28
 70
     1
102
RTVSPropertyOp29
 70
     1
102
RTVSPropertyOp30
 70
     1
102
RTVSPropertyOp31
 70
     1
102
RTVSPropertyOp32
 70
     1
102
RTVSPropertyOp33
 70
     1
102
RTVSPropertyOp34
 70
     1
102
RTVSPropertyOp35
 70
     1
102
RTVSPropertyOp36
 70
     1
102
RTVSPropertyOp37
 70
     1
102
RTVSPropertyOp38
 70
     1
102
RTVSPropertyOp39
 70
     1
102
RTVSPropertyOp40
 70
     1
102
RTVSPropertyOp41
 70
     1
102
RTVSPropertyOp42
 70
     1
102
RTVSPropertyOp43
 70
     1
102
RTVSPropertyOp44
 70
     1
102
RTVSPropertyOp45
 70
     1
102
RTVSPropertyOp46
 70
     1
102
RTVSPropertyOp47
 70
     1
102
RTVSPropertyOp48
 70
     1
102
RTVSPropertyOp49
 70
     1
102
RTVSPropertyOp50
 70
     1
102
RTVSPropertyOp51
 70
     0
102
RTVSPropertyOp52
 70
     0
102
RTVSPropertyOp53
 70
     1
102
RTVSPropertyOp54
 70
     1
102
RTVSPropertyOp55
 70
     1
102
RTVSPropertyOp56
 70
     1
102
RTVSPropertyOp57
 70
     1
102
RTVSPost2010Prop28
280
     1
102
RTVSPost2010PropOp28
 70
     1
102
RTVSPost2010Prop29
280
     1
102
RTVSPost2010PropOp29
 70
     1
102
RTVSPost2010Prop30
280
     0
102
RTVSPost2010PropOp30
 70
     1
102
RTVSPost2010Prop31
280
     0
102
RTVSPost2010PropOp31
 70
     1
102
RTVSPost2010Prop32
280
     0
102
RTVSPost2010PropOp32
 70
     1
102
RTVSPost2010Prop33
280
     0
102
RTVSPost2010PropOp33
 70
     1
102
RTVSPost2010Prop34
280
     0
102
RTVSPost2010PropOp34
 70
     1
102
RTVSPost2010Prop35
280
     0
102
RTVSPost2010PropOp35
 70
     1
102
RTVSPost2010Prop36
280
     0
102
RTVSPost2010PropOp36
 70
     1
102
RTVSPost2010Prop37
 90
       50
102
RTVSPost2010PropOp37
 70
     1
102
RTVSPost2010Prop38
140
0.0
102
RTVSPost2010PropOp38
 70
     1
102
RTVSPost2010Prop39
140
1.0
102
RTVSPost2010PropOp39
 70
     1
102
RTVSPost2010Prop40
 90
        0
102
RTVSPost2010PropOp40
 70
     1
102
RTVSPost2010Prop41ColorIndex
 90
       18
102
RTVSPost2010Prop41ColorRGB
 90
        0
102
RTVSPost2010PropOp41
 70
     1
102
RTVSPost2010Prop42
 90
       50
102
RTVSPost2010PropOp42
 70
     1
102
RTVSPost2010Prop43
 90
        3
102
RTVSPost2010PropOp43
 70
     1
102
RTVSPost2010Prop44ColorIndex
 90
        5
102
RTVSPost2010Prop44ColorRGB
 90
      255
102
RTVSPost2010PropOp44
 70
     1
102
RTVSPost2010Prop45
280
     0
102
RTVSPost2010PropOp45
 70
     1
102
RTVSPost2010Prop46
 90
       50
102
RTVSPost2010PropOp46
 70
     1
102
RTVSPost2010Prop47
 90
       50
102
RTVSPost2010PropOp47
 70
     1
102
RTVSPost2010Prop48
 90
       50
102
RTVSPost2010PropOp48
 70
     1
102
RTVSPost2010Prop49
280
     0
102
RTVSPost2010PropOp49
 70
     1
102
RTVSPost2010Prop50
 90
       50
102
RTVSPost2010PropOp50
 70
     1
102
RTVSPost2010Prop51ColorIndex
 90
      256
102
RTVSPost2010Prop51ColorRGB
 90
-16777216
102
RTVSPost2010PropOp51
 70
     0
102
RTVSPost2010Prop52
140
1.0
102
RTVSPost2010PropOp52
 70
     0
102
RTVSPost2010Prop53
 90
        2
102
RTVSPost2010PropOp53
 70
     1
102
RTVSPost2010Prop54
  1
strokes_ogs.tif
102
RTVSPost2010PropOp54
 70
     1
102
RTVSPost2010Prop55
280
     0
102
RTVSPost2010PropOp55
 70
     1
102
RTVSPost2010Prop56
140
1.0
102
RTVSPost2010PropOp56
 70
     1
102
RTVSPost2010Prop57
140
1.0
102
RTVSPost2010PropOp57
 70
     1
  0
XRECORD
  5
310
102
{ACAD_REACTORS
330
30F
102
}
330
30F
100
AcDbXrecord
280
     1
102
RTVSPropertyOp0
 70
     1
102
RTVSPropertyOp1
 70
     1
102
RTVSPropertyOp2
 70
     1
102
RTVSPropertyOp3
 70
     1
102
RTVSPropertyOp4
 70
     1
102
RTVSPropertyOp5
 70
     1
102
RTVSPropertyOp6
 70
     1
102
RTVSPropertyOp7
 70
     1
102
RTVSPropertyOp8
 70
     1
102
RTVSPropertyOp9
 70
     1
102
RTVSPropertyOp10
 70
     1
102
RTVSPropertyOp11
 70
     1
102
RTVSPropertyOp12
 70
     1
102
RTVSPropertyOp13
 70
     1
102
RTVSPropertyOp14
 70
     1
102
RTVSPropertyOp15
 70
     1
102
RTVSPropertyOp16
 70
     1
102
RTVSPropertyOp17
 70
     1
102
RTVSPropertyOp18
 70
     1
102
RTVSPropertyOp19
 70
     1
102
RTVSPropertyOp20
 70
     1
102
RTVSPropertyOp21
 70
     1
102
RTVSPropertyOp22
 70
     1
102
RTVSPropertyOp23
 70
     1
102
RTVSPropertyOp24
 70
     1
102
RTVSPropertyOp25
 70
     1
102
RTVSPropertyOp26
 70
     1
102
RTVSPropertyOp27
 70
     1
102
RTVSPropertyOp28
 70
     1
102
RTVSPropertyOp29
 70
     1
102
RTVSPropertyOp30
 70
     1
102
RTVSPropertyOp31
 70
     1
102
RTVSPropertyOp32
 70
     1
102
RTVSPropertyOp33
 70
     1
102
RTVSPropertyOp34
 70
     1
102
RTVSPropertyOp35
 70
     1
102
RTVSPropertyOp36
 70
     1
102
RTVSPropertyOp37
 70
     1
102
RTVSPropertyOp38
 70
     1
102
RTVSPropertyOp39
 70
     1
102
RTVSPropertyOp40
 70
     1
102
RTVSPropertyOp41
 70
     1
102
RTVSPropertyOp42
 70
     1
102
RTVSPropertyOp43
 70
     1
102
RTVSPropertyOp44
 70
     1
102
RTVSPropertyOp45
 70
     1
102
RTVSPropertyOp46
 70
     1
102
RTVSPropertyOp47
 70
     1
102
RTVSPropertyOp48
 70
     1
102
RTVSPropertyOp49
 70
     1
102
RTVSPropertyOp50
 70
     1
102
RTVSPropertyOp51
 70
     0
102
RTVSPropertyOp52
 70
     0
102
RTVSPropertyOp53
 70
     1
102
RTVSPropertyOp54
 70
     1
102
RTVSPropertyOp55
 70
     1
102
RTVSPropertyOp56
 70
     1
102
RTVSPropertyOp57
 70
     1
102
RTVSPost2010Prop28
280
     0
102
RTVSPost2010PropOp28
 70
     1
102
RTVSPost2010Prop29
280
     1
102
RTVSPost2010PropOp29
 70
     1
102
RTVSPost2010Prop30
280
     1
102
RTVSPost2010PropOp30
 70
     1
102
RTVSPost2010Prop31
280
     0
102
RTVSPost2010PropOp31
 70
     1
102
RTVSPost2010Prop32
280
     0
102
RTVSPost2010PropOp32
 70
     1
102
RTVSPost2010Prop33
280
     0
102
RTVSPost2010PropOp33
 70
     1
102
RTVSPost2010Prop34
280
     0
102
RTVSPost2010PropOp34
 70
     1
102
RTVSPost2010Prop35
280
     0
102
RTVSPost2010PropOp35
 70
     1
102
RTVSPost2010Prop36
280
     0
102
RTVSPost2010PropOp36
 70
     1
102
RTVSPost2010Prop37
 90
       50
102
RTVSPost2010PropOp37
 70
     1
102
RTVSPost2010Prop38
140
0.0
102
RTVSPost2010PropOp38
 70
     1
102
RTVSPost2010Prop39
140
1.0
102
RTVSPost2010PropOp39
 70
     1
102
RTVSPost2010Prop40
 90
        0
102
RTVSPost2010PropOp40
 70
     1
102
RTVSPost2010Prop41ColorIndex
 90
       18
102
RTVSPost2010Prop41ColorRGB
 90
        0
102
RTVSPost2010PropOp41
 70
     1
102
RTVSPost2010Prop42
 90
       50
102
RTVSPost2010PropOp42
 70
     1
102
RTVSPost2010Prop43
 90
        3
102
RTVSPost2010PropOp43
 70
     1
102
RTVSPost2010Prop44ColorIndex
 90
        5
102
RTVSPost2010Prop44ColorRGB
 90
      255
102
RTVSPost2010PropOp44
 70
     1
102
RTVSPost2010Prop45
280
     0
102
RTVSPost2010PropOp45
 70
     1
102
RTVSPost2010Prop46
 90
       50
102
RTVSPost2010PropOp46
 70
     1
102
RTVSPost2010Prop47
 90
       50
102
RTVSPost2010PropOp47
 70
     1
102
RTVSPost2010Prop48
 90
       50
102
RTVSPost2010PropOp48
 70
     1
102
RTVSPost2010Prop49
280
     0
102
RTVSPost2010PropOp49
 70
     1
102
RTVSPost2010Prop50
 90
       50
102
RTVSPost2010PropOp50
 70
     1
102
RTVSPost2010Prop51ColorIndex
 90
      256
102
RTVSPost2010Prop51ColorRGB
 90
-16777216
102
RTVSPost2010PropOp51
 70
     0
102
RTVSPost2010Prop52
140
1.0
102
RTVSPost2010PropOp52
 70
     0
102
RTVSPost2010Prop53
 90
        2
102
RTVSPost2010PropOp53
 70
     1
102
RTVSPost2010Prop54
  1
strokes_ogs.tif
102
RTVSPost2010PropOp54
 70
     1
102
RTVSPost2010Prop55
280
     0
102
RTVSPost2010PropOp55
 70
     1
102
RTVSPost2010Prop56
140
1.0
102
RTVSPost2010PropOp56
 70
     1
102
RTVSPost2010Prop57
140
1.0
102
RTVSPost2010PropOp57
 70
     1
  0
XRECORD
  5
318
102
{ACAD_REACTORS
330
317
102
}
330
317
100
AcDbXrecord
280
     1
102
RTVSPropertyOp0
 70
     1
102
RTVSPropertyOp1
 70
     1
102
RTVSPropertyOp2
 70
     1
102
RTVSPropertyOp3
 70
     1
102
RTVSPropertyOp4
 70
     1
102
RTVSPropertyOp5
 70
     1
102
RTVSPropertyOp6
 70
     1
102
RTVSPropertyOp7
 70
     1
102
RTVSPropertyOp8
 70
     1
102
RTVSPropertyOp9
 70
     1
102
RTVSPropertyOp10
 70
     1
102
RTVSPropertyOp11
 70
     1
102
RTVSPropertyOp12
 70
     1
102
RTVSPropertyOp13
 70
     1
102
RTVSPropertyOp14
 70
     1
102
RTVSPropertyOp15
 70
     1
102
RTVSPropertyOp16
 70
     1
102
RTVSPropertyOp17
 70
     1
102
RTVSPropertyOp18
 70
     1
102
RTVSPropertyOp19
 70
     1
102
RTVSPropertyOp20
 70
     1
102
RTVSPropertyOp21
 70
     1
102
RTVSPropertyOp22
 70
     1
102
RTVSPropertyOp23
 70
     1
102
RTVSPropertyOp24
 70
     1
102
RTVSPropertyOp25
 70
     1
102
RTVSPropertyOp26
 70
     1
102
RTVSPropertyOp27
 70
     1
102
RTVSPropertyOp28
 70
     1
102
RTVSPropertyOp29
 70
     1
102
RTVSPropertyOp30
 70
     1
102
RTVSPropertyOp31
 70
     1
102
RTVSPropertyOp32
 70
     1
102
RTVSPropertyOp33
 70
     1
102
RTVSPropertyOp34
 70
     1
102
RTVSPropertyOp35
 70
     1
102
RTVSPropertyOp36
 70
     1
102
RTVSPropertyOp37
 70
     1
102
RTVSPropertyOp38
 70
     1
102
RTVSPropertyOp39
 70
     1
102
RTVSPropertyOp40
 70
     1
102
RTVSPropertyOp41
 70
     1
102
RTVSPropertyOp42
 70
     1
102
RTVSPropertyOp43
 70
     1
102
RTVSPropertyOp44
 70
     1
102
RTVSPropertyOp45
 70
     1
102
RTVSPropertyOp46
 70
     1
102
RTVSPropertyOp47
 70
     1
102
RTVSPropertyOp48
 70
     1
102
RTVSPropertyOp49
 70
     1
102
RTVSPropertyOp50
 70
     1
102
RTVSPropertyOp51
 70
     0
102
RTVSPropertyOp52
 70
     0
102
RTVSPropertyOp53
 70
     1
102
RTVSPropertyOp54
 70
     1
102
RTVSPropertyOp55
 70
     1
102
RTVSPropertyOp56
 70
     1
102
RTVSPropertyOp57
 70
     1
102
RTVSPost2010Prop28
280
     0
102
RTVSPost2010PropOp28
 70
     1
102
RTVSPost2010Prop29
280
     1
102
RTVSPost2010PropOp29
 70
     1
102
RTVSPost2010Prop30
280
     1
102
RTVSPost2010PropOp30
 70
     1
102
RTVSPost2010Prop31
280
     0
102
RTVSPost2010PropOp31
 70
     1
102
RTVSPost2010Prop32
280
     0
102
RTVSPost2010PropOp32
 70
     1
102
RTVSPost2010Prop33
280
     0
102
RTVSPost2010PropOp33
 70
     1
102
RTVSPost2010Prop34
280
     0
102
RTVSPost2010PropOp34
 70
     1
102
RTVSPost2010Prop35
280
     0
102
RTVSPost2010PropOp35
 70
     1
102
RTVSPost2010Prop36
280
     0
102
RTVSPost2010PropOp36
 70
     1
102
RTVSPost2010Prop37
 90
       50
102
RTVSPost2010PropOp37
 70
     1
102
RTVSPost2010Prop38
140
0.0
102
RTVSPost2010PropOp38
 70
     1
102
RTVSPost2010Prop39
140
1.0
102
RTVSPost2010PropOp39
 70
     1
102
RTVSPost2010Prop40
 90
        0
102
RTVSPost2010PropOp40
 70
     1
102
RTVSPost2010Prop41ColorIndex
 90
       18
102
RTVSPost2010Prop41ColorRGB
 90
        0
102
RTVSPost2010PropOp41
 70
     1
102
RTVSPost2010Prop42
 90
       50
102
RTVSPost2010PropOp42
 70
     1
102
RTVSPost2010Prop43
 90
        3
102
RTVSPost2010PropOp43
 70
     1
102
RTVSPost2010Prop44ColorIndex
 90
        5
102
RTVSPost2010Prop44ColorRGB
 90
      255
102
RTVSPost2010PropOp44
 70
     1
102
RTVSPost2010Prop45
280
     0
102
RTVSPost2010PropOp45
 70
     1
102
RTVSPost2010Prop46
 90
       50
102
RTVSPost2010PropOp46
 70
     1
102
RTVSPost2010Prop47
 90
       50
102
RTVSPost2010PropOp47
 70
     1
102
RTVSPost2010Prop48
 90
       50
102
RTVSPost2010PropOp48
 70
     1
102
RTVSPost2010Prop49
280
     0
102
RTVSPost2010PropOp49
 70
     1
102
RTVSPost2010Prop50
 90
       50
102
RTVSPost2010PropOp50
 70
     1
102
RTVSPost2010Prop51ColorIndex
 90
      256
102
RTVSPost2010Prop51ColorRGB
 90
-16777216
102
RTVSPost2010PropOp51
 70
     0
102
RTVSPost2010Prop52
140
1.0
102
RTVSPost2010PropOp52
 70
     0
102
RTVSPost2010Prop53
 90
        2
102
RTVSPost2010PropOp53
 70
     1
102
RTVSPost2010Prop54
  1
strokes_ogs.tif
102
RTVSPost2010PropOp54
 70
     1
102
RTVSPost2010Prop55
280
     0
102
RTVSPost2010PropOp55
 70
     1
102
RTVSPost2010Prop56
140
1.0
102
RTVSPost2010PropOp56
 70
     1
102
RTVSPost2010Prop57
140
1.0
102
RTVSPost2010PropOp57
 70
     1
  0
XRECORD
  5
320
102
{ACAD_REACTORS
330
31F
102
}
330
31F
100
AcDbXrecord
280
     1
102
RTVSPropertyOp0
 70
     1
102
RTVSPropertyOp1
 70
     1
102
RTVSPropertyOp2
 70
     1
102
RTVSPropertyOp3
 70
     1
102
RTVSPropertyOp4
 70
     1
102
RTVSPropertyOp5
 70
     1
102
RTVSPropertyOp6
 70
     1
102
RTVSPropertyOp7
 70
     1
102
RTVSPropertyOp8
 70
     1
102
RTVSPropertyOp9
 70
     1
102
RTVSPropertyOp10
 70
     1
102
RTVSPropertyOp11
 70
     1
102
RTVSPropertyOp12
 70
     1
102
RTVSPropertyOp13
 70
     1
102
RTVSPropertyOp14
 70
     1
102
RTVSPropertyOp15
 70
     1
102
RTVSPropertyOp16
 70
     1
102
RTVSPropertyOp17
 70
     1
102
RTVSPropertyOp18
 70
     1
102
RTVSPropertyOp19
 70
     1
102
RTVSPropertyOp20
 70
     1
102
RTVSPropertyOp21
 70
     1
102
RTVSPropertyOp22
 70
     1
102
RTVSPropertyOp23
 70
     1
102
RTVSPropertyOp24
 70
     1
102
RTVSPropertyOp25
 70
     1
102
RTVSPropertyOp26
 70
     1
102
RTVSPropertyOp27
 70
     1
102
RTVSPropertyOp28
 70
     1
102
RTVSPropertyOp29
 70
     1
102
RTVSPropertyOp30
 70
     1
102
RTVSPropertyOp31
 70
     1
102
RTVSPropertyOp32
 70
     1
102
RTVSPropertyOp33
 70
     1
102
RTVSPropertyOp34
 70
     1
102
RTVSPropertyOp35
 70
     1
102
RTVSPropertyOp36
 70
     1
102
RTVSPropertyOp37
 70
     1
102
RTVSPropertyOp38
 70
     1
102
RTVSPropertyOp39
 70
     1
102
RTVSPropertyOp40
 70
     1
102
RTVSPropertyOp41
 70
     1
102
RTVSPropertyOp42
 70
     1
102
RTVSPropertyOp43
 70
     1
102
RTVSPropertyOp44
 70
     1
102
RTVSPropertyOp45
 70
     1
102
RTVSPropertyOp46
 70
     1
102
RTVSPropertyOp47
 70
     1
102
RTVSPropertyOp48
 70
     1
102
RTVSPropertyOp49
 70
     1
102
RTVSPropertyOp50
 70
     1
102
RTVSPropertyOp51
 70
     0
102
RTVSPropertyOp52
 70
     0
102
RTVSPropertyOp53
 70
     1
102
RTVSPropertyOp54
 70
     1
102
RTVSPropertyOp55
 70
     1
102
RTVSPropertyOp56
 70
     1
102
RTVSPropertyOp57
 70
     1
102
RTVSPost2010Prop28
280
     0
102
RTVSPost2010PropOp28
 70
     1
102
RTVSPost2010Prop29
280
     1
102
RTVSPost2010PropOp29
 70
     1
102
RTVSPost2010Prop30
280
     1
102
RTVSPost2010PropOp30
 70
     1
102
RTVSPost2010Prop31
280
     0
102
RTVSPost2010PropOp31
 70
     1
102
RTVSPost2010Prop32
280
     0
102
RTVSPost2010PropOp32
 70
     1
102
RTVSPost2010Prop33
280
     0
102
RTVSPost2010PropOp33
 70
     1
102
RTVSPost2010Prop34
280
     0
102
RTVSPost2010PropOp34
 70
     1
102
RTVSPost2010Prop35
280
     0
102
RTVSPost2010PropOp35
 70
     1
102
RTVSPost2010Prop36
280
     0
102
RTVSPost2010PropOp36
 70
     1
102
RTVSPost2010Prop37
 90
       50
102
RTVSPost2010PropOp37
 70
     1
102
RTVSPost2010Prop38
140
0.0
102
RTVSPost2010PropOp38
 70
     1
102
RTVSPost2010Prop39
140
1.0
102
RTVSPost2010PropOp39
 70
     1
102
RTVSPost2010Prop40
 90
        0
102
RTVSPost2010PropOp40
 70
     1
102
RTVSPost2010Prop41ColorIndex
 90
       18
102
RTVSPost2010Prop41ColorRGB
 90
        0
102
RTVSPost2010PropOp41
 70
     1
102
RTVSPost2010Prop42
 90
       50
102
RTVSPost2010PropOp42
 70
     1
102
RTVSPost2010Prop43
 90
        3
102
RTVSPost2010PropOp43
 70
     1
102
RTVSPost2010Prop44ColorIndex
 90
        5
102
RTVSPost2010Prop44ColorRGB
 90
      255
102
RTVSPost2010PropOp44
 70
     1
102
RTVSPost2010Prop45
280
     0
102
RTVSPost2010PropOp45
 70
     1
102
RTVSPost2010Prop46
 90
       50
102
RTVSPost2010PropOp46
 70
     1
102
RTVSPost2010Prop47
 90
       50
102
RTVSPost2010PropOp47
 70
     1
102
RTVSPost2010Prop48
 90
       50
102
RTVSPost2010PropOp48
 70
     1
102
RTVSPost2010Prop49
280
     0
102
RTVSPost2010PropOp49
 70
     1
102
RTVSPost2010Prop50
 90
       50
102
RTVSPost2010PropOp50
 70
     1
102
RTVSPost2010Prop51ColorIndex
 90
      256
102
RTVSPost2010Prop51ColorRGB
 90
-16777216
102
RTVSPost2010PropOp51
 70
     0
102
RTVSPost2010Prop52
140
1.0
102
RTVSPost2010PropOp52
 70
     0
102
RTVSPost2010Prop53
 90
        2
102
RTVSPost2010PropOp53
 70
     1
102
RTVSPost2010Prop54
  1
strokes_ogs.tif
102
RTVSPost2010PropOp54
 70
     1
102
RTVSPost2010Prop55
280
     0
102
RTVSPost2010PropOp55
 70
     1
102
RTVSPost2010Prop56
140
1.0
102
RTVSPost2010PropOp56
 70
     1
102
RTVSPost2010Prop57
140
1.0
102
RTVSPost2010PropOp57
 70
     1
  0
XRECORD
  5
314
102
{ACAD_REACTORS
330
313
102
}
330
313
100
AcDbXrecord
280
     1
102
RTVSPropertyOp0
 70
     1
102
RTVSPropertyOp1
 70
     1
102
RTVSPropertyOp2
 70
     1
102
RTVSPropertyOp3
 70
     1
102
RTVSPropertyOp4
 70
     1
102
RTVSPropertyOp5
 70
     1
102
RTVSPropertyOp6
 70
     1
102
RTVSPropertyOp7
 70
     1
102
RTVSPropertyOp8
 70
     1
102
RTVSPropertyOp9
 70
     1
102
RTVSPropertyOp10
 70
     1
102
RTVSPropertyOp11
 70
     1
102
RTVSPropertyOp12
 70
     1
102
RTVSPropertyOp13
 70
     1
102
RTVSPropertyOp14
 70
     1
102
RTVSPropertyOp15
 70
     1
102
RTVSPropertyOp16
 70
     1
102
RTVSPropertyOp17
 70
     1
102
RTVSPropertyOp18
 70
     1
102
RTVSPropertyOp19
 70
     1
102
RTVSPropertyOp20
 70
     1
102
RTVSPropertyOp21
 70
     1
102
RTVSPropertyOp22
 70
     1
102
RTVSPropertyOp23
 70
     1
102
RTVSPropertyOp24
 70
     1
102
RTVSPropertyOp25
 70
     1
102
RTVSPropertyOp26
 70
     1
102
RTVSPropertyOp27
 70
     1
102
RTVSPropertyOp28
 70
     1
102
RTVSPropertyOp29
 70
     1
102
RTVSPropertyOp30
 70
     1
102
RTVSPropertyOp31
 70
     1
102
RTVSPropertyOp32
 70
     1
102
RTVSPropertyOp33
 70
     1
102
RTVSPropertyOp34
 70
     1
102
RTVSPropertyOp35
 70
     1
102
RTVSPropertyOp36
 70
     1
102
RTVSPropertyOp37
 70
     1
102
RTVSPropertyOp38
 70
     1
102
RTVSPropertyOp39
 70
     1
102
RTVSPropertyOp40
 70
     1
102
RTVSPropertyOp41
 70
     1
102
RTVSPropertyOp42
 70
     1
102
RTVSPropertyOp43
 70
     1
102
RTVSPropertyOp44
 70
     1
102
RTVSPropertyOp45
 70
     1
102
RTVSPropertyOp46
 70
     1
102
RTVSPropertyOp47
 70
     1
102
RTVSPropertyOp48
 70
     1
102
RTVSPropertyOp49
 70
     1
102
RTVSPropertyOp50
 70
     1
102
RTVSPropertyOp51
 70
     0
102
RTVSPropertyOp52
 70
     0
102
RTVSPropertyOp53
 70
     1
102
RTVSPropertyOp54
 70
     1
102
RTVSPropertyOp55
 70
     1
102
RTVSPropertyOp56
 70
     1
102
RTVSPropertyOp57
 70
     1
102
RTVSPost2010Prop28
280
     0
102
RTVSPost2010PropOp28
 70
     1
102
RTVSPost2010Prop29
280
     1
102
RTVSPost2010PropOp29
 70
     1
102
RTVSPost2010Prop30
280
     1
102
RTVSPost2010PropOp30
 70
     1
102
RTVSPost2010Prop31
280
     0
102
RTVSPost2010PropOp31
 70
     1
102
RTVSPost2010Prop32
280
     0
102
RTVSPost2010PropOp32
 70
     1
102
RTVSPost2010Prop33
280
     0
102
RTVSPost2010PropOp33
 70
     1
102
RTVSPost2010Prop34
280
     0
102
RTVSPost2010PropOp34
 70
     1
102
RTVSPost2010Prop35
280
     0
102
RTVSPost2010PropOp35
 70
     1
102
RTVSPost2010Prop36
280
     0
102
RTVSPost2010PropOp36
 70
     1
102
RTVSPost2010Prop37
 90
       50
102
RTVSPost2010PropOp37
 70
     1
102
RTVSPost2010Prop38
140
0.0
102
RTVSPost2010PropOp38
 70
     1
102
RTVSPost2010Prop39
140
1.0
102
RTVSPost2010PropOp39
 70
     1
102
RTVSPost2010Prop40
 90
        0
102
RTVSPost2010PropOp40
 70
     1
102
RTVSPost2010Prop41ColorIndex
 90
       18
102
RTVSPost2010Prop41ColorRGB
 90
        0
102
RTVSPost2010PropOp41
 70
     1
102
RTVSPost2010Prop42
 90
       50
102
RTVSPost2010PropOp42
 70
     1
102
RTVSPost2010Prop43
 90
        3
102
RTVSPost2010PropOp43
 70
     1
102
RTVSPost2010Prop44ColorIndex
 90
        5
102
RTVSPost2010Prop44ColorRGB
 90
      255
102
RTVSPost2010PropOp44
 70
     1
102
RTVSPost2010Prop45
280
     0
102
RTVSPost2010PropOp45
 70
     1
102
RTVSPost2010Prop46
 90
       50
102
RTVSPost2010PropOp46
 70
     1
102
RTVSPost2010Prop47
 90
       50
102
RTVSPost2010PropOp47
 70
     1
102
RTVSPost2010Prop48
 90
       50
102
RTVSPost2010PropOp48
 70
     1
102
RTVSPost2010Prop49
280
     0
102
RTVSPost2010PropOp49
 70
     1
102
RTVSPost2010Prop50
 90
       50
102
RTVSPost2010PropOp50
 70
     1
102
RTVSPost2010Prop51ColorIndex
 90
      256
102
RTVSPost2010Prop51ColorRGB
 90
-16777216
102
RTVSPost2010PropOp51
 70
     0
102
RTVSPost2010Prop52
140
1.0
102
RTVSPost2010PropOp52
 70
     0
102
RTVSPost2010Prop53
 90
        2
102
RTVSPost2010PropOp53
 70
     1
102
RTVSPost2010Prop54
  1
strokes_ogs.tif
102
RTVSPost2010PropOp54
 70
     1
102
RTVSPost2010Prop55
280
     0
102
RTVSPost2010PropOp55
 70
     1
102
RTVSPost2010Prop56
140
1.0
102
RTVSPost2010PropOp56
 70
     1
102
RTVSPost2010Prop57
140
1.0
102
RTVSPost2010PropOp57
 70
     1
  0
XRECORD
  5
316
102
{ACAD_REACTORS
330
315
102
}
330
315
100
AcDbXrecord
280
     1
102
RTVSPropertyOp0
 70
     1
102
RTVSPropertyOp1
 70
     1
102
RTVSPropertyOp2
 70
     1
102
RTVSPropertyOp3
 70
     1
102
RTVSPropertyOp4
 70
     1
102
RTVSPropertyOp5
 70
     1
102
RTVSPropertyOp6
 70
     1
102
RTVSPropertyOp7
 70
     1
102
RTVSPropertyOp8
 70
     1
102
RTVSPropertyOp9
 70
     1
102
RTVSPropertyOp10
 70
     1
102
RTVSPropertyOp11
 70
     1
102
RTVSPropertyOp12
 70
     1
102
RTVSPropertyOp13
 70
     1
102
RTVSPropertyOp14
 70
     1
102
RTVSPropertyOp15
 70
     1
102
RTVSPropertyOp16
 70
     1
102
RTVSPropertyOp17
 70
     1
102
RTVSPropertyOp18
 70
     1
102
RTVSPropertyOp19
 70
     1
102
RTVSPropertyOp20
 70
     1
102
RTVSPropertyOp21
 70
     1
102
RTVSPropertyOp22
 70
     1
102
RTVSPropertyOp23
 70
     1
102
RTVSPropertyOp24
 70
     1
102
RTVSPropertyOp25
 70
     1
102
RTVSPropertyOp26
 70
     1
102
RTVSPropertyOp27
 70
     1
102
RTVSPropertyOp28
 70
     1
102
RTVSPropertyOp29
 70
     1
102
RTVSPropertyOp30
 70
     1
102
RTVSPropertyOp31
 70
     1
102
RTVSPropertyOp32
 70
     1
102
RTVSPropertyOp33
 70
     1
102
RTVSPropertyOp34
 70
     1
102
RTVSPropertyOp35
 70
     1
102
RTVSPropertyOp36
 70
     1
102
RTVSPropertyOp37
 70
     1
102
RTVSPropertyOp38
 70
     1
102
RTVSPropertyOp39
 70
     1
102
RTVSPropertyOp40
 70
     1
102
RTVSPropertyOp41
 70
     1
102
RTVSPropertyOp42
 70
     1
102
RTVSPropertyOp43
 70
     1
102
RTVSPropertyOp44
 70
     1
102
RTVSPropertyOp45
 70
     1
102
RTVSPropertyOp46
 70
     1
102
RTVSPropertyOp47
 70
     1
102
RTVSPropertyOp48
 70
     1
102
RTVSPropertyOp49
 70
     1
102
RTVSPropertyOp50
 70
     1
102
RTVSPropertyOp51
 70
     0
102
RTVSPropertyOp52
 70
     0
102
RTVSPropertyOp53
 70
     1
102
RTVSPropertyOp54
 70
     1
102
RTVSPropertyOp55
 70
     1
102
RTVSPropertyOp56
 70
     1
102
RTVSPropertyOp57
 70
     1
102
RTVSPost2010Prop28
280
     0
102
RTVSPost2010PropOp28
 70
     1
102
RTVSPost2010Prop29
280
     1
102
RTVSPost2010PropOp29
 70
     1
102
RTVSPost2010Prop30
280
     1
102
RTVSPost2010PropOp30
 70
     1
102
RTVSPost2010Prop31
280
     0
102
RTVSPost2010PropOp31
 70
     1
102
RTVSPost2010Prop32
280
     0
102
RTVSPost2010PropOp32
 70
     1
102
RTVSPost2010Prop33
280
     0
102
RTVSPost2010PropOp33
 70
     1
102
RTVSPost2010Prop34
280
     0
102
RTVSPost2010PropOp34
 70
     1
102
RTVSPost2010Prop35
280
     0
102
RTVSPost2010PropOp35
 70
     1
102
RTVSPost2010Prop36
280
     0
102
RTVSPost2010PropOp36
 70
     1
102
RTVSPost2010Prop37
 90
       50
102
RTVSPost2010PropOp37
 70
     1
102
RTVSPost2010Prop38
140
0.0
102
RTVSPost2010PropOp38
 70
     1
102
RTVSPost2010Prop39
140
1.0
102
RTVSPost2010PropOp39
 70
     1
102
RTVSPost2010Prop40
 90
        0
102
RTVSPost2010PropOp40
 70
     1
102
RTVSPost2010Prop41ColorIndex
 90
       18
102
RTVSPost2010Prop41ColorRGB
 90
        0
102
RTVSPost2010PropOp41
 70
     1
102
RTVSPost2010Prop42
 90
       50
102
RTVSPost2010PropOp42
 70
     1
102
RTVSPost2010Prop43
 90
        3
102
RTVSPost2010PropOp43
 70
     1
102
RTVSPost2010Prop44ColorIndex
 90
        5
102
RTVSPost2010Prop44ColorRGB
 90
      255
102
RTVSPost2010PropOp44
 70
     1
102
RTVSPost2010Prop45
280
     0
102
RTVSPost2010PropOp45
 70
     1
102
RTVSPost2010Prop46
 90
       50
102
RTVSPost2010PropOp46
 70
     1
102
RTVSPost2010Prop47
 90
       50
102
RTVSPost2010PropOp47
 70
     1
102
RTVSPost2010Prop48
 90
       50
102
RTVSPost2010PropOp48
 70
     1
102
RTVSPost2010Prop49
280
     0
102
RTVSPost2010PropOp49
 70
     1
102
RTVSPost2010Prop50
 90
       50
102
RTVSPost2010PropOp50
 70
     1
102
RTVSPost2010Prop51ColorIndex
 90
      256
102
RTVSPost2010Prop51ColorRGB
 90
-16777216
102
RTVSPost2010PropOp51
 70
     0
102
RTVSPost2010Prop52
140
1.0
102
RTVSPost2010PropOp52
 70
     0
102
RTVSPost2010Prop53
 90
        2
102
RTVSPost2010PropOp53
 70
     1
102
RTVSPost2010Prop54
  1
strokes_ogs.tif
102
RTVSPost2010PropOp54
 70
     1
102
RTVSPost2010Prop55
280
     0
102
RTVSPost2010PropOp55
 70
     1
102
RTVSPost2010Prop56
140
1.0
102
RTVSPost2010PropOp56
 70
     1
102
RTVSPost2010Prop57
140
1.0
102
RTVSPost2010PropOp57
 70
     1
  0
XRECORD
  5
326
102
{ACAD_REACTORS
330
325
102
}
330
325
100
AcDbXrecord
280
     1
102
RTVSPropertyOp0
 70
     0
102
RTVSPropertyOp1
 70
     0
102
RTVSPropertyOp2
 70
     0
102
RTVSPropertyOp3
 70
     0
102
RTVSPropertyOp4
 70
     0
102
RTVSPropertyOp5
 70
     0
102
RTVSPropertyOp6
 70
     0
102
RTVSPropertyOp7
 70
     0
102
RTVSPropertyOp8
 70
     0
102
RTVSPropertyOp9
 70
     0
102
RTVSPropertyOp10
 70
     0
102
RTVSPropertyOp11
 70
     0
102
RTVSPropertyOp12
 70
     0
102
RTVSPropertyOp13
 70
     0
102
RTVSPropertyOp14
 70
     2
102
RTVSPropertyOp15
 70
     0
102
RTVSPropertyOp16
 70
     0
102
RTVSPropertyOp17
 70
     0
102
RTVSPropertyOp18
 70
     0
102
RTVSPropertyOp19
 70
     0
102
RTVSPropertyOp20
 70
     0
102
RTVSPropertyOp21
 70
     0
102
RTVSPropertyOp22
 70
     0
102
RTVSPropertyOp23
 70
     0
102
RTVSPropertyOp24
 70
     0
102
RTVSPropertyOp25
 70
     0
102
RTVSPropertyOp26
 70
     0
102
RTVSPropertyOp27
 70
     0
102
RTVSPropertyOp28
 70
     0
102
RTVSPropertyOp29
 70
     0
102
RTVSPropertyOp30
 70
     0
102
RTVSPropertyOp31
 70
     0
102
RTVSPropertyOp32
 70
     0
102
RTVSPropertyOp33
 70
     0
102
RTVSPropertyOp34
 70
     0
102
RTVSPropertyOp35
 70
     0
102
RTVSPropertyOp36
 70
     0
102
RTVSPropertyOp37
 70
     0
102
RTVSPropertyOp38
 70
     0
102
RTVSPropertyOp39
 70
     0
102
RTVSPropertyOp40
 70
     0
102
RTVSPropertyOp41
 70
     0
102
RTVSPropertyOp42
 70
     0
102
RTVSPropertyOp43
 70
     0
102
RTVSPropertyOp44
 70
     0
102
RTVSPropertyOp45
 70
     0
102
RTVSPropertyOp46
 70
     0
102
RTVSPropertyOp47
 70
     0
102
RTVSPropertyOp48
 70
     0
102
RTVSPropertyOp49
 70
     0
102
RTVSPropertyOp50
 70
     0
102
RTVSPropertyOp51
 70
     0
102
RTVSPropertyOp52
 70
     0
102
RTVSPropertyOp53
 70
     0
102
RTVSPropertyOp54
 70
     0
102
RTVSPropertyOp55
 70
     0
102
RTVSPropertyOp56
 70
     0
102
RTVSPropertyOp57
 70
     0
102
RTVSPost2010Prop28
280
     0
102
RTVSPost2010PropOp28
 70
     0
102
RTVSPost2010Prop29
280
     1
102
RTVSPost2010PropOp29
 70
     0
102
RTVSPost2010Prop30
280
     1
102
RTVSPost2010PropOp30
 70
     0
102
RTVSPost2010Prop31
280
     0
102
RTVSPost2010PropOp31
 70
     0
102
RTVSPost2010Prop32
280
     0
102
RTVSPost2010PropOp32
 70
     0
102
RTVSPost2010Prop33
280
     0
102
RTVSPost2010PropOp33
 70
     0
102
RTVSPost2010Prop34
280
     0
102
RTVSPost2010PropOp34
 70
     0
102
RTVSPost2010Prop35
280
     0
102
RTVSPost2010PropOp35
 70
     0
102
RTVSPost2010Prop36
280
     0
102
RTVSPost2010PropOp36
 70
     0
102
RTVSPost2010Prop37
 90
       50
102
RTVSPost2010PropOp37
 70
     0
102
RTVSPost2010Prop38
140
0.0
102
RTVSPost2010PropOp38
 70
     0
102
RTVSPost2010Prop39
140
1.0
102
RTVSPost2010PropOp39
 70
     0
102
RTVSPost2010Prop40
 90
        0
102
RTVSPost2010PropOp40
 70
     0
102
RTVSPost2010Prop41ColorIndex
 90
       18
102
RTVSPost2010Prop41ColorRGB
 90
        0
102
RTVSPost2010PropOp41
 70
     0
102
RTVSPost2010Prop42
 90
       50
102
RTVSPost2010PropOp42
 70
     0
102
RTVSPost2010Prop43
 90
        3
102
RTVSPost2010PropOp43
 70
     0
102
RTVSPost2010Prop44ColorIndex
 90
        5
102
RTVSPost2010Prop44ColorRGB
 90
      255
102
RTVSPost2010PropOp44
 70
     0
102
RTVSPost2010Prop45
280
     0
102
RTVSPost2010PropOp45
 70
     0
102
RTVSPost2010Prop46
 90
       50
102
RTVSPost2010PropOp46
 70
     0
102
RTVSPost2010Prop47
 90
       50
102
RTVSPost2010PropOp47
 70
     0
102
RTVSPost2010Prop48
 90
       50
102
RTVSPost2010PropOp48
 70
     0
102
RTVSPost2010Prop49
280
     0
102
RTVSPost2010PropOp49
 70
     0
102
RTVSPost2010Prop50
 90
       50
102
RTVSPost2010PropOp50
 70
     0
102
RTVSPost2010Prop51ColorIndex
 90
      256
102
RTVSPost2010Prop51ColorRGB
 90
-16777216
102
RTVSPost2010PropOp51
 70
     0
102
RTVSPost2010Prop52
140
1.0
102
RTVSPost2010PropOp52
 70
     0
102
RTVSPost2010Prop53
 90
        2
102
RTVSPost2010PropOp53
 70
     0
102
RTVSPost2010Prop54
  1
strokes_ogs.tif
102
RTVSPost2010PropOp54
 70
     0
102
RTVSPost2010Prop55
280
     0
102
RTVSPost2010PropOp55
 70
     0
102
RTVSPost2010Prop56
140
1.0
102
RTVSPost2010PropOp56
 70
     0
102
RTVSPost2010Prop57
140
1.0
102
RTVSPost2010PropOp57
 70
     0
  0
XRECORD
  5
31E
102
{ACAD_REACTORS
330
31D
102
}
330
31D
100
AcDbXrecord
280
     1
102
RTVSPropertyOp0
 70
     1
102
RTVSPropertyOp1
 70
     1
102
RTVSPropertyOp2
 70
     1
102
RTVSPropertyOp3
 70
     1
102
RTVSPropertyOp4
 70
     1
102
RTVSPropertyOp5
 70
     1
102
RTVSPropertyOp6
 70
     1
102
RTVSPropertyOp7
 70
     1
102
RTVSPropertyOp8
 70
     1
102
RTVSPropertyOp9
 70
     1
102
RTVSPropertyOp10
 70
     1
102
RTVSPropertyOp11
 70
     1
102
RTVSPropertyOp12
 70
     1
102
RTVSPropertyOp13
 70
     1
102
RTVSPropertyOp14
 70
     1
102
RTVSPropertyOp15
 70
     1
102
RTVSPropertyOp16
 70
     1
102
RTVSPropertyOp17
 70
     1
102
RTVSPropertyOp18
 70
     1
102
RTVSPropertyOp19
 70
     1
102
RTVSPropertyOp20
 70
     1
102
RTVSPropertyOp21
 70
     1
102
RTVSPropertyOp22
 70
     1
102
RTVSPropertyOp23
 70
     1
102
RTVSPropertyOp24
 70
     1
102
RTVSPropertyOp25
 70
     1
102
RTVSPropertyOp26
 70
     1
102
RTVSPropertyOp27
 70
     1
102
RTVSPropertyOp28
 70
     1
102
RTVSPropertyOp29
 70
     1
102
RTVSPropertyOp30
 70
     1
102
RTVSPropertyOp31
 70
     1
102
RTVSPropertyOp32
 70
     1
102
RTVSPropertyOp33
 70
     1
102
RTVSPropertyOp34
 70
     1
102
RTVSPropertyOp35
 70
     1
102
RTVSPropertyOp36
 70
     1
102
RTVSPropertyOp37
 70
     1
102
RTVSPropertyOp38
 70
     1
102
RTVSPropertyOp39
 70
     1
102
RTVSPropertyOp40
 70
     1
102
RTVSPropertyOp41
 70
     1
102
RTVSPropertyOp42
 70
     1
102
RTVSPropertyOp43
 70
     1
102
RTVSPropertyOp44
 70
     1
102
RTVSPropertyOp45
 70
     1
102
RTVSPropertyOp46
 70
     1
102
RTVSPropertyOp47
 70
     1
102
RTVSPropertyOp48
 70
     1
102
RTVSPropertyOp49
 70
     1
102
RTVSPropertyOp50
 70
     1
102
RTVSPropertyOp51
 70
     0
102
RTVSPropertyOp52
 70
     0
102
RTVSPropertyOp53
 70
     1
102
RTVSPropertyOp54
 70
     1
102
RTVSPropertyOp55
 70
     1
102
RTVSPropertyOp56
 70
     1
102
RTVSPropertyOp57
 70
     1
102
RTVSPost2010Prop28
280
     0
102
RTVSPost2010PropOp28
 70
     1
102
RTVSPost2010Prop29
280
     1
102
RTVSPost2010PropOp29
 70
     1
102
RTVSPost2010Prop30
280
     1
102
RTVSPost2010PropOp30
 70
     1
102
RTVSPost2010Prop31
280
     0
102
RTVSPost2010PropOp31
 70
     1
102
RTVSPost2010Prop32
280
     0
102
RTVSPost2010PropOp32
 70
     1
102
RTVSPost2010Prop33
280
     0
102
RTVSPost2010PropOp33
 70
     1
102
RTVSPost2010Prop34
280
     0
102
RTVSPost2010PropOp34
 70
     1
102
RTVSPost2010Prop35
280
     0
102
RTVSPost2010PropOp35
 70
     1
102
RTVSPost2010Prop36
280
     0
102
RTVSPost2010PropOp36
 70
     1
102
RTVSPost2010Prop37
 90
       50
102
RTVSPost2010PropOp37
 70
     1
102
RTVSPost2010Prop38
140
0.0
102
RTVSPost2010PropOp38
 70
     1
102
RTVSPost2010Prop39
140
1.0
102
RTVSPost2010PropOp39
 70
     1
102
RTVSPost2010Prop40
 90
        0
102
RTVSPost2010PropOp40
 70
     1
102
RTVSPost2010Prop41ColorIndex
 90
       18
102
RTVSPost2010Prop41ColorRGB
 90
        0
102
RTVSPost2010PropOp41
 70
     1
102
RTVSPost2010Prop42
 90
       50
102
RTVSPost2010PropOp42
 70
     1
102
RTVSPost2010Prop43
 90
        3
102
RTVSPost2010PropOp43
 70
     1
102
RTVSPost2010Prop44ColorIndex
 90
        5
102
RTVSPost2010Prop44ColorRGB
 90
      255
102
RTVSPost2010PropOp44
 70
     1
102
RTVSPost2010Prop45
280
     0
102
RTVSPost2010PropOp45
 70
     1
102
RTVSPost2010Prop46
 90
       50
102
RTVSPost2010PropOp46
 70
     1
102
RTVSPost2010Prop47
 90
       50
102
RTVSPost2010PropOp47
 70
     1
102
RTVSPost2010Prop48
 90
       50
102
RTVSPost2010PropOp48
 70
     1
102
RTVSPost2010Prop49
280
     0
102
RTVSPost2010PropOp49
 70
     1
102
RTVSPost2010Prop50
 90
       50
102
RTVSPost2010PropOp50
 70
     1
102
RTVSPost2010Prop51ColorIndex
 90
      256
102
RTVSPost2010Prop51ColorRGB
 90
-16777216
102
RTVSPost2010PropOp51
 70
     0
102
RTVSPost2010Prop52
140
1.0
102
RTVSPost2010PropOp52
 70
     0
102
RTVSPost2010Prop53
 90
        2
102
RTVSPost2010PropOp53
 70
     1
102
RTVSPost2010Prop54
  1
strokes_ogs.tif
102
RTVSPost2010PropOp54
 70
     1
102
RTVSPost2010Prop55
280
     0
102
RTVSPost2010PropOp55
 70
     1
102
RTVSPost2010Prop56
140
1.0
102
RTVSPost2010PropOp56
 70
     1
102
RTVSPost2010Prop57
140
1.0
102
RTVSPost2010PropOp57
 70
     1
  0
XRECORD
  5
302
102
{ACAD_REACTORS
330
301
102
}
330
301
100
AcDbXrecord
280
     1
102
RTVSPropertyOp0
 70
     1
102
RTVSPropertyOp1
 70
     1
102
RTVSPropertyOp2
 70
     1
102
RTVSPropertyOp3
 70
     1
102
RTVSPropertyOp4
 70
     1
102
RTVSPropertyOp5
 70
     1
102
RTVSPropertyOp6
 70
     1
102
RTVSPropertyOp7
 70
     1
102
RTVSPropertyOp8
 70
     1
102
RTVSPropertyOp9
 70
     1
102
RTVSPropertyOp10
 70
     1
102
RTVSPropertyOp11
 70
     1
102
RTVSPropertyOp12
 70
     1
102
RTVSPropertyOp13
 70
     1
102
RTVSPropertyOp14
 70
     1
102
RTVSPropertyOp15
 70
     1
102
RTVSPropertyOp16
 70
     1
102
RTVSPropertyOp17
 70
     1
102
RTVSPropertyOp18
 70
     1
102
RTVSPropertyOp19
 70
     1
102
RTVSPropertyOp20
 70
     1
102
RTVSPropertyOp21
 70
     1
102
RTVSPropertyOp22
 70
     1
102
RTVSPropertyOp23
 70
     1
102
RTVSPropertyOp24
 70
     1
102
RTVSPropertyOp25
 70
     1
102
RTVSPropertyOp26
 70
     1
102
RTVSPropertyOp27
 70
     1
102
RTVSPropertyOp28
 70
     1
102
RTVSPropertyOp29
 70
     1
102
RTVSPropertyOp30
 70
     1
102
RTVSPropertyOp31
 70
     1
102
RTVSPropertyOp32
 70
     1
102
RTVSPropertyOp33
 70
     1
102
RTVSPropertyOp34
 70
     1
102
RTVSPropertyOp35
 70
     1
102
RTVSPropertyOp36
 70
     1
102
RTVSPropertyOp37
 70
     1
102
RTVSPropertyOp38
 70
     1
102
RTVSPropertyOp39
 70
     1
102
RTVSPropertyOp40
 70
     1
102
RTVSPropertyOp41
 70
     1
102
RTVSPropertyOp42
 70
     1
102
RTVSPropertyOp43
 70
     1
102
RTVSPropertyOp44
 70
     1
102
RTVSPropertyOp45
 70
     1
102
RTVSPropertyOp46
 70
     1
102
RTVSPropertyOp47
 70
     1
102
RTVSPropertyOp48
 70
     1
102
RTVSPropertyOp49
 70
     1
102
RTVSPropertyOp50
 70
     1
102
RTVSPropertyOp51
 70
     0
102
RTVSPropertyOp52
 70
     0
102
RTVSPropertyOp53
 70
     1
102
RTVSPropertyOp54
 70
     1
102
RTVSPropertyOp55
 70
     1
102
RTVSPropertyOp56
 70
     1
102
RTVSPropertyOp57
 70
     1
102
RTVSPost2010Prop28
280
     0
102
RTVSPost2010PropOp28
 70
     1
102
RTVSPost2010Prop29
280
     1
102
RTVSPost2010PropOp29
 70
     1
102
RTVSPost2010Prop30
280
     1
102
RTVSPost2010PropOp30
 70
     1
102
RTVSPost2010Prop31
280
     0
102
RTVSPost2010PropOp31
 70
     1
102
RTVSPost2010Prop32
280
     0
102
RTVSPost2010PropOp32
 70
     1
102
RTVSPost2010Prop33
280
     0
102
RTVSPost2010PropOp33
 70
     1
102
RTVSPost2010Prop34
280
     0
102
RTVSPost2010PropOp34
 70
     1
102
RTVSPost2010Prop35
280
     0
102
RTVSPost2010PropOp35
 70
     1
102
RTVSPost2010Prop36
280
     0
102
RTVSPost2010PropOp36
 70
     1
102
RTVSPost2010Prop37
 90
       50
102
RTVSPost2010PropOp37
 70
     1
102
RTVSPost2010Prop38
140
0.0
102
RTVSPost2010PropOp38
 70
     1
102
RTVSPost2010Prop39
140
1.0
102
RTVSPost2010PropOp39
 70
     1
102
RTVSPost2010Prop40
 90
        0
102
RTVSPost2010PropOp40
 70
     1
102
RTVSPost2010Prop41ColorIndex
 90
       18
102
RTVSPost2010Prop41ColorRGB
 90
        0
102
RTVSPost2010PropOp41
 70
     1
102
RTVSPost2010Prop42
 90
       50
102
RTVSPost2010PropOp42
 70
     1
102
RTVSPost2010Prop43
 90
        3
102
RTVSPost2010PropOp43
 70
     1
102
RTVSPost2010Prop44ColorIndex
 90
        5
102
RTVSPost2010Prop44ColorRGB
 90
      255
102
RTVSPost2010PropOp44
 70
     1
102
RTVSPost2010Prop45
280
     0
102
RTVSPost2010PropOp45
 70
     1
102
RTVSPost2010Prop46
 90
       50
102
RTVSPost2010PropOp46
 70
     1
102
RTVSPost2010Prop47
 90
       50
102
RTVSPost2010PropOp47
 70
     1
102
RTVSPost2010Prop48
 90
       50
102
RTVSPost2010PropOp48
 70
     1
102
RTVSPost2010Prop49
280
     0
102
RTVSPost2010PropOp49
 70
     1
102
RTVSPost2010Prop50
 90
       50
102
RTVSPost2010PropOp50
 70
     1
102
RTVSPost2010Prop51ColorIndex
 90
      256
102
RTVSPost2010Prop51ColorRGB
 90
-16777216
102
RTVSPost2010PropOp51
 70
     0
102
RTVSPost2010Prop52
140
1.0
102
RTVSPost2010PropOp52
 70
     0
102
RTVSPost2010Prop53
 90
        2
102
RTVSPost2010PropOp53
 70
     1
102
RTVSPost2010Prop54
  1
strokes_ogs.tif
102
RTVSPost2010PropOp54
 70
     1
102
RTVSPost2010Prop55
280
     0
102
RTVSPost2010PropOp55
 70
     1
102
RTVSPost2010Prop56
140
1.0
102
RTVSPost2010PropOp56
 70
     1
102
RTVSPost2010Prop57
140
1.0
102
RTVSPost2010PropOp57
 70
     1
  0
XRECORD
  5
304
102
{ACAD_REACTORS
330
303
102
}
330
303
100
AcDbXrecord
280
     1
102
RTVSPropertyOp0
 70
     1
102
RTVSPropertyOp1
 70
     1
102
RTVSPropertyOp2
 70
     1
102
RTVSPropertyOp3
 70
     1
102
RTVSPropertyOp4
 70
     1
102
RTVSPropertyOp5
 70
     1
102
RTVSPropertyOp6
 70
     1
102
RTVSPropertyOp7
 70
     1
102
RTVSPropertyOp8
 70
     1
102
RTVSPropertyOp9
 70
     1
102
RTVSPropertyOp10
 70
     1
102
RTVSPropertyOp11
 70
     1
102
RTVSPropertyOp12
 70
     1
102
RTVSPropertyOp13
 70
     1
102
RTVSPropertyOp14
 70
     1
102
RTVSPropertyOp15
 70
     1
102
RTVSPropertyOp16
 70
     1
102
RTVSPropertyOp17
 70
     1
102
RTVSPropertyOp18
 70
     1
102
RTVSPropertyOp19
 70
     1
102
RTVSPropertyOp20
 70
     1
102
RTVSPropertyOp21
 70
     1
102
RTVSPropertyOp22
 70
     1
102
RTVSPropertyOp23
 70
     1
102
RTVSPropertyOp24
 70
     1
102
RTVSPropertyOp25
 70
     1
102
RTVSPropertyOp26
 70
     1
102
RTVSPropertyOp27
 70
     1
102
RTVSPropertyOp28
 70
     1
102
RTVSPropertyOp29
 70
     1
102
RTVSPropertyOp30
 70
     1
102
RTVSPropertyOp31
 70
     1
102
RTVSPropertyOp32
 70
     1
102
RTVSPropertyOp33
 70
     1
102
RTVSPropertyOp34
 70
     1
102
RTVSPropertyOp35
 70
     1
102
RTVSPropertyOp36
 70
     1
102
RTVSPropertyOp37
 70
     1
102
RTVSPropertyOp38
 70
     1
102
RTVSPropertyOp39
 70
     1
102
RTVSPropertyOp40
 70
     1
102
RTVSPropertyOp41
 70
     1
102
RTVSPropertyOp42
 70
     1
102
RTVSPropertyOp43
 70
     1
102
RTVSPropertyOp44
 70
     1
102
RTVSPropertyOp45
 70
     1
102
RTVSPropertyOp46
 70
     1
102
RTVSPropertyOp47
 70
     1
102
RTVSPropertyOp48
 70
     1
102
RTVSPropertyOp49
 70
     1
102
RTVSPropertyOp50
 70
     1
102
RTVSPropertyOp51
 70
     0
102
RTVSPropertyOp52
 70
     0
102
RTVSPropertyOp53
 70
     1
102
RTVSPropertyOp54
 70
     1
102
RTVSPropertyOp55
 70
     1
102
RTVSPropertyOp56
 70
     1
102
RTVSPropertyOp57
 70
     1
102
RTVSPost2010Prop28
280
     0
102
RTVSPost2010PropOp28
 70
     1
102
RTVSPost2010Prop29
280
     1
102
RTVSPost2010PropOp29
 70
     1
102
RTVSPost2010Prop30
280
     1
102
RTVSPost2010PropOp30
 70
     1
102
RTVSPost2010Prop31
280
     0
102
RTVSPost2010PropOp31
 70
     1
102
RTVSPost2010Prop32
280
     0
102
RTVSPost2010PropOp32
 70
     1
102
RTVSPost2010Prop33
280
     0
102
RTVSPost2010PropOp33
 70
     1
102
RTVSPost2010Prop34
280
     0
102
RTVSPost2010PropOp34
 70
     1
102
RTVSPost2010Prop35
280
     0
102
RTVSPost2010PropOp35
 70
     1
102
RTVSPost2010Prop36
280
     0
102
RTVSPost2010PropOp36
 70
     1
102
RTVSPost2010Prop37
 90
       50
102
RTVSPost2010PropOp37
 70
     1
102
RTVSPost2010Prop38
140
0.0
102
RTVSPost2010PropOp38
 70
     1
102
RTVSPost2010Prop39
140
1.0
102
RTVSPost2010PropOp39
 70
     1
102
RTVSPost2010Prop40
 90
        0
102
RTVSPost2010PropOp40
 70
     1
102
RTVSPost2010Prop41ColorIndex
 90
       18
102
RTVSPost2010Prop41ColorRGB
 90
        0
102
RTVSPost2010PropOp41
 70
     1
102
RTVSPost2010Prop42
 90
       50
102
RTVSPost2010PropOp42
 70
     1
102
RTVSPost2010Prop43
 90
        3
102
RTVSPost2010PropOp43
 70
     1
102
RTVSPost2010Prop44ColorIndex
 90
        5
102
RTVSPost2010Prop44ColorRGB
 90
      255
102
RTVSPost2010PropOp44
 70
     1
102
RTVSPost2010Prop45
280
     0
102
RTVSPost2010PropOp45
 70
     1
102
RTVSPost2010Prop46
 90
       50
102
RTVSPost2010PropOp46
 70
     1
102
RTVSPost2010Prop47
 90
       50
102
RTVSPost2010PropOp47
 70
     1
102
RTVSPost2010Prop48
 90
       50
102
RTVSPost2010PropOp48
 70
     1
102
RTVSPost2010Prop49
280
     0
102
RTVSPost2010PropOp49
 70
     1
102
RTVSPost2010Prop50
 90
       50
102
RTVSPost2010PropOp50
 70
     1
102
RTVSPost2010Prop51ColorIndex
 90
      256
102
RTVSPost2010Prop51ColorRGB
 90
-16777216
102
RTVSPost2010PropOp51
 70
     0
102
RTVSPost2010Prop52
140
1.0
102
RTVSPost2010PropOp52
 70
     0
102
RTVSPost2010Prop53
 90
        2
102
RTVSPost2010PropOp53
 70
     1
102
RTVSPost2010Prop54
  1
strokes_ogs.tif
102
RTVSPost2010PropOp54
 70
     1
102
RTVSPost2010Prop55
280
     0
102
RTVSPost2010PropOp55
 70
     1
102
RTVSPost2010Prop56
140
1.0
102
RTVSPost2010PropOp56
 70
     1
102
RTVSPost2010Prop57
140
1.0
102
RTVSPost2010PropOp57
 70
     1
  0
XRECORD
  5
306
102
{ACAD_REACTORS
330
305
102
}
330
305
100
AcDbXrecord
280
     1
102
RTVSPropertyOp0
 70
     1
102
RTVSPropertyOp1
 70
     1
102
RTVSPropertyOp2
 70
     1
102
RTVSPropertyOp3
 70
     1
102
RTVSPropertyOp4
 70
     1
102
RTVSPropertyOp5
 70
     1
102
RTVSPropertyOp6
 70
     1
102
RTVSPropertyOp7
 70
     1
102
RTVSPropertyOp8
 70
     1
102
RTVSPropertyOp9
 70
     1
102
RTVSPropertyOp10
 70
     1
102
RTVSPropertyOp11
 70
     1
102
RTVSPropertyOp12
 70
     1
102
RTVSPropertyOp13
 70
     1
102
RTVSPropertyOp14
 70
     1
102
RTVSPropertyOp15
 70
     1
102
RTVSPropertyOp16
 70
     1
102
RTVSPropertyOp17
 70
     1
102
RTVSPropertyOp18
 70
     1
102
RTVSPropertyOp19
 70
     1
102
RTVSPropertyOp20
 70
     1
102
RTVSPropertyOp21
 70
     1
102
RTVSPropertyOp22
 70
     1
102
RTVSPropertyOp23
 70
     1
102
RTVSPropertyOp24
 70
     1
102
RTVSPropertyOp25
 70
     1
102
RTVSPropertyOp26
 70
     1
102
RTVSPropertyOp27
 70
     1
102
RTVSPropertyOp28
 70
     1
102
RTVSPropertyOp29
 70
     1
102
RTVSPropertyOp30
 70
     1
102
RTVSPropertyOp31
 70
     1
102
RTVSPropertyOp32
 70
     1
102
RTVSPropertyOp33
 70
     1
102
RTVSPropertyOp34
 70
     1
102
RTVSPropertyOp35
 70
     1
102
RTVSPropertyOp36
 70
     1
102
RTVSPropertyOp37
 70
     1
102
RTVSPropertyOp38
 70
     1
102
RTVSPropertyOp39
 70
     1
102
RTVSPropertyOp40
 70
     1
102
RTVSPropertyOp41
 70
     1
102
RTVSPropertyOp42
 70
     1
102
RTVSPropertyOp43
 70
     1
102
RTVSPropertyOp44
 70
     1
102
RTVSPropertyOp45
 70
     1
102
RTVSPropertyOp46
 70
     1
102
RTVSPropertyOp47
 70
     1
102
RTVSPropertyOp48
 70
     1
102
RTVSPropertyOp49
 70
     1
102
RTVSPropertyOp50
 70
     1
102
RTVSPropertyOp51
 70
     0
102
RTVSPropertyOp52
 70
     0
102
RTVSPropertyOp53
 70
     1
102
RTVSPropertyOp54
 70
     1
102
RTVSPropertyOp55
 70
     1
102
RTVSPropertyOp56
 70
     1
102
RTVSPropertyOp57
 70
     1
102
RTVSPost2010Prop28
280
     0
102
RTVSPost2010PropOp28
 70
     1
102
RTVSPost2010Prop29
280
     1
102
RTVSPost2010PropOp29
 70
     1
102
RTVSPost2010Prop30
280
     1
102
RTVSPost2010PropOp30
 70
     1
102
RTVSPost2010Prop31
280
     0
102
RTVSPost2010PropOp31
 70
     1
102
RTVSPost2010Prop32
280
     0
102
RTVSPost2010PropOp32
 70
     1
102
RTVSPost2010Prop33
280
     0
102
RTVSPost2010PropOp33
 70
     1
102
RTVSPost2010Prop34
280
     0
102
RTVSPost2010PropOp34
 70
     1
102
RTVSPost2010Prop35
280
     0
102
RTVSPost2010PropOp35
 70
     1
102
RTVSPost2010Prop36
280
     0
102
RTVSPost2010PropOp36
 70
     1
102
RTVSPost2010Prop37
 90
       50
102
RTVSPost2010PropOp37
 70
     1
102
RTVSPost2010Prop38
140
0.0
102
RTVSPost2010PropOp38
 70
     1
102
RTVSPost2010Prop39
140
1.0
102
RTVSPost2010PropOp39
 70
     1
102
RTVSPost2010Prop40
 90
        0
102
RTVSPost2010PropOp40
 70
     1
102
RTVSPost2010Prop41ColorIndex
 90
       18
102
RTVSPost2010Prop41ColorRGB
 90
        0
102
RTVSPost2010PropOp41
 70
     1
102
RTVSPost2010Prop42
 90
       50
102
RTVSPost2010PropOp42
 70
     1
102
RTVSPost2010Prop43
 90
        3
102
RTVSPost2010PropOp43
 70
     1
102
RTVSPost2010Prop44ColorIndex
 90
        5
102
RTVSPost2010Prop44ColorRGB
 90
      255
102
RTVSPost2010PropOp44
 70
     1
102
RTVSPost2010Prop45
280
     0
102
RTVSPost2010PropOp45
 70
     1
102
RTVSPost2010Prop46
 90
       50
102
RTVSPost2010PropOp46
 70
     1
102
RTVSPost2010Prop47
 90
       50
102
RTVSPost2010PropOp47
 70
     1
102
RTVSPost2010Prop48
 90
       50
102
RTVSPost2010PropOp48
 70
     1
102
RTVSPost2010Prop49
280
     0
102
RTVSPost2010PropOp49
 70
     1
102
RTVSPost2010Prop50
 90
       50
102
RTVSPost2010PropOp50
 70
     1
102
RTVSPost2010Prop51ColorIndex
 90
      256
102
RTVSPost2010Prop51ColorRGB
 90
-16777216
102
RTVSPost2010PropOp51
 70
     0
102
RTVSPost2010Prop52
140
1.0
102
RTVSPost2010PropOp52
 70
     0
102
RTVSPost2010Prop53
 90
        2
102
RTVSPost2010PropOp53
 70
     1
102
RTVSPost2010Prop54
  1
strokes_ogs.tif
102
RTVSPost2010PropOp54
 70
     1
102
RTVSPost2010Prop55
280
     0
102
RTVSPost2010PropOp55
 70
     1
102
RTVSPost2010Prop56
140
1.0
102
RTVSPost2010PropOp56
 70
     1
102
RTVSPost2010Prop57
140
1.0
102
RTVSPost2010PropOp57
 70
     1
  0
XRECORD
  5
308
102
{ACAD_REACTORS
330
307
102
}
330
307
100
AcDbXrecord
280
     1
102
RTVSPropertyOp0
 70
     1
102
RTVSPropertyOp1
 70
     1
102
RTVSPropertyOp2
 70
     1
102
RTVSPropertyOp3
 70
     1
102
RTVSPropertyOp4
 70
     1
102
RTVSPropertyOp5
 70
     1
102
RTVSPropertyOp6
 70
     1
102
RTVSPropertyOp7
 70
     1
102
RTVSPropertyOp8
 70
     1
102
RTVSPropertyOp9
 70
     1
102
RTVSPropertyOp10
 70
     1
102
RTVSPropertyOp11
 70
     1
102
RTVSPropertyOp12
 70
     1
102
RTVSPropertyOp13
 70
     1
102
RTVSPropertyOp14
 70
     1
102
RTVSPropertyOp15
 70
     1
102
RTVSPropertyOp16
 70
     1
102
RTVSPropertyOp17
 70
     1
102
RTVSPropertyOp18
 70
     1
102
RTVSPropertyOp19
 70
     1
102
RTVSPropertyOp20
 70
     1
102
RTVSPropertyOp21
 70
     1
102
RTVSPropertyOp22
 70
     1
102
RTVSPropertyOp23
 70
     1
102
RTVSPropertyOp24
 70
     1
102
RTVSPropertyOp25
 70
     1
102
RTVSPropertyOp26
 70
     1
102
RTVSPropertyOp27
 70
     1
102
RTVSPropertyOp28
 70
     1
102
RTVSPropertyOp29
 70
     1
102
RTVSPropertyOp30
 70
     1
102
RTVSPropertyOp31
 70
     1
102
RTVSPropertyOp32
 70
     1
102
RTVSPropertyOp33
 70
     1
102
RTVSPropertyOp34
 70
     1
102
RTVSPropertyOp35
 70
     1
102
RTVSPropertyOp36
 70
     1
102
RTVSPropertyOp37
 70
     1
102
RTVSPropertyOp38
 70
     1
102
RTVSPropertyOp39
 70
     1
102
RTVSPropertyOp40
 70
     1
102
RTVSPropertyOp41
 70
     1
102
RTVSPropertyOp42
 70
     1
102
RTVSPropertyOp43
 70
     1
102
RTVSPropertyOp44
 70
     1
102
RTVSPropertyOp45
 70
     1
102
RTVSPropertyOp46
 70
     1
102
RTVSPropertyOp47
 70
     1
102
RTVSPropertyOp48
 70
     1
102
RTVSPropertyOp49
 70
     1
102
RTVSPropertyOp50
 70
     1
102
RTVSPropertyOp51
 70
     0
102
RTVSPropertyOp52
 70
     0
102
RTVSPropertyOp53
 70
     1
102
RTVSPropertyOp54
 70
     1
102
RTVSPropertyOp55
 70
     1
102
RTVSPropertyOp56
 70
     1
102
RTVSPropertyOp57
 70
     1
102
RTVSPost2010Prop28
280
     0
102
RTVSPost2010PropOp28
 70
     1
102
RTVSPost2010Prop29
280
     1
102
RTVSPost2010PropOp29
 70
     1
102
RTVSPost2010Prop30
280
     1
102
RTVSPost2010PropOp30
 70
     1
102
RTVSPost2010Prop31
280
     0
102
RTVSPost2010PropOp31
 70
     1
102
RTVSPost2010Prop32
280
     0
102
RTVSPost2010PropOp32
 70
     1
102
RTVSPost2010Prop33
280
     0
102
RTVSPost2010PropOp33
 70
     1
102
RTVSPost2010Prop34
280
     0
102
RTVSPost2010PropOp34
 70
     1
102
RTVSPost2010Prop35
280
     0
102
RTVSPost2010PropOp35
 70
     1
102
RTVSPost2010Prop36
280
     0
102
RTVSPost2010PropOp36
 70
     1
102
RTVSPost2010Prop37
 90
       50
102
RTVSPost2010PropOp37
 70
     1
102
RTVSPost2010Prop38
140
0.0
102
RTVSPost2010PropOp38
 70
     1
102
RTVSPost2010Prop39
140
1.0
102
RTVSPost2010PropOp39
 70
     1
102
RTVSPost2010Prop40
 90
        0
102
RTVSPost2010PropOp40
 70
     1
102
RTVSPost2010Prop41ColorIndex
 90
       18
102
RTVSPost2010Prop41ColorRGB
 90
        0
102
RTVSPost2010PropOp41
 70
     1
102
RTVSPost2010Prop42
 90
       50
102
RTVSPost2010PropOp42
 70
     1
102
RTVSPost2010Prop43
 90
        3
102
RTVSPost2010PropOp43
 70
     1
102
RTVSPost2010Prop44ColorIndex
 90
        5
102
RTVSPost2010Prop44ColorRGB
 90
      255
102
RTVSPost2010PropOp44
 70
     1
102
RTVSPost2010Prop45
280
     0
102
RTVSPost2010PropOp45
 70
     1
102
RTVSPost2010Prop46
 90
       50
102
RTVSPost2010PropOp46
 70
     1
102
RTVSPost2010Prop47
 90
       50
102
RTVSPost2010PropOp47
 70
     1
102
RTVSPost2010Prop48
 90
       50
102
RTVSPost2010PropOp48
 70
     1
102
RTVSPost2010Prop49
280
     0
102
RTVSPost2010PropOp49
 70
     1
102
RTVSPost2010Prop50
 90
       50
102
RTVSPost2010PropOp50
 70
     1
102
RTVSPost2010Prop51ColorIndex
 90
      256
102
RTVSPost2010Prop51ColorRGB
 90
-16777216
102
RTVSPost2010PropOp51
 70
     0
102
RTVSPost2010Prop52
140
1.0
102
RTVSPost2010PropOp52
 70
     0
102
RTVSPost2010Prop53
 90
        2
102
RTVSPost2010PropOp53
 70
     1
102
RTVSPost2010Prop54
  1
strokes_ogs.tif
102
RTVSPost2010PropOp54
 70
     1
102
RTVSPost2010Prop55
280
     0
102
RTVSPost2010PropOp55
 70
     1
102
RTVSPost2010Prop56
140
1.0
102
RTVSPost2010PropOp56
 70
     1
102
RTVSPost2010Prop57
140
1.0
102
RTVSPost2010PropOp57
 70
     1
  0
XRECORD
  5
30E
102
{ACAD_REACTORS
330
30D
102
}
330
30D
100
AcDbXrecord
280
     1
102
RTVSPropertyOp0
 70
     1
102
RTVSPropertyOp1
 70
     1
102
RTVSPropertyOp2
 70
     1
102
RTVSPropertyOp3
 70
     1
102
RTVSPropertyOp4
 70
     1
102
RTVSPropertyOp5
 70
     1
102
RTVSPropertyOp6
 70
     1
102
RTVSPropertyOp7
 70
     1
102
RTVSPropertyOp8
 70
     1
102
RTVSPropertyOp9
 70
     1
102
RTVSPropertyOp10
 70
     1
102
RTVSPropertyOp11
 70
     1
102
RTVSPropertyOp12
 70
     1
102
RTVSPropertyOp13
 70
     1
102
RTVSPropertyOp14
 70
     1
102
RTVSPropertyOp15
 70
     1
102
RTVSPropertyOp16
 70
     1
102
RTVSPropertyOp17
 70
     1
102
RTVSPropertyOp18
 70
     1
102
RTVSPropertyOp19
 70
     1
102
RTVSPropertyOp20
 70
     1
102
RTVSPropertyOp21
 70
     1
102
RTVSPropertyOp22
 70
     1
102
RTVSPropertyOp23
 70
     1
102
RTVSPropertyOp24
 70
     1
102
RTVSPropertyOp25
 70
     1
102
RTVSPropertyOp26
 70
     1
102
RTVSPropertyOp27
 70
     1
102
RTVSPropertyOp28
 70
     1
102
RTVSPropertyOp29
 70
     1
102
RTVSPropertyOp30
 70
     1
102
RTVSPropertyOp31
 70
     1
102
RTVSPropertyOp32
 70
     1
102
RTVSPropertyOp33
 70
     1
102
RTVSPropertyOp34
 70
     1
102
RTVSPropertyOp35
 70
     1
102
RTVSPropertyOp36
 70
     1
102
RTVSPropertyOp37
 70
     1
102
RTVSPropertyOp38
 70
     1
102
RTVSPropertyOp39
 70
     1
102
RTVSPropertyOp40
 70
     1
102
RTVSPropertyOp41
 70
     1
102
RTVSPropertyOp42
 70
     1
102
RTVSPropertyOp43
 70
     1
102
RTVSPropertyOp44
 70
     1
102
RTVSPropertyOp45
 70
     1
102
RTVSPropertyOp46
 70
     1
102
RTVSPropertyOp47
 70
     1
102
RTVSPropertyOp48
 70
     1
102
RTVSPropertyOp49
 70
     1
102
RTVSPropertyOp50
 70
     1
102
RTVSPropertyOp51
 70
     0
102
RTVSPropertyOp52
 70
     0
102
RTVSPropertyOp53
 70
     1
102
RTVSPropertyOp54
 70
     1
102
RTVSPropertyOp55
 70
     1
102
RTVSPropertyOp56
 70
     1
102
RTVSPropertyOp57
 70
     1
102
RTVSPost2010Prop28
280
     0
102
RTVSPost2010PropOp28
 70
     1
102
RTVSPost2010Prop29
280
     1
102
RTVSPost2010PropOp29
 70
     1
102
RTVSPost2010Prop30
280
     1
102
RTVSPost2010PropOp30
 70
     1
102
RTVSPost2010Prop31
280
     0
102
RTVSPost2010PropOp31
 70
     1
102
RTVSPost2010Prop32
280
     0
102
RTVSPost2010PropOp32
 70
     1
102
RTVSPost2010Prop33
280
     0
102
RTVSPost2010PropOp33
 70
     1
102
RTVSPost2010Prop34
280
     0
102
RTVSPost2010PropOp34
 70
     1
102
RTVSPost2010Prop35
280
     0
102
RTVSPost2010PropOp35
 70
     1
102
RTVSPost2010Prop36
280
     0
102
RTVSPost2010PropOp36
 70
     1
102
RTVSPost2010Prop37
 90
       50
102
RTVSPost2010PropOp37
 70
     1
102
RTVSPost2010Prop38
140
0.0
102
RTVSPost2010PropOp38
 70
     1
102
RTVSPost2010Prop39
140
1.0
102
RTVSPost2010PropOp39
 70
     1
102
RTVSPost2010Prop40
 90
        0
102
RTVSPost2010PropOp40
 70
     1
102
RTVSPost2010Prop41ColorIndex
 90
       18
102
RTVSPost2010Prop41ColorRGB
 90
        0
102
RTVSPost2010PropOp41
 70
     1
102
RTVSPost2010Prop42
 90
       50
102
RTVSPost2010PropOp42
 70
     1
102
RTVSPost2010Prop43
 90
        3
102
RTVSPost2010PropOp43
 70
     1
102
RTVSPost2010Prop44ColorIndex
 90
        5
102
RTVSPost2010Prop44ColorRGB
 90
      255
102
RTVSPost2010PropOp44
 70
     1
102
RTVSPost2010Prop45
280
     0
102
RTVSPost2010PropOp45
 70
     1
102
RTVSPost2010Prop46
 90
       50
102
RTVSPost2010PropOp46
 70
     1
102
RTVSPost2010Prop47
 90
       50
102
RTVSPost2010PropOp47
 70
     1
102
RTVSPost2010Prop48
 90
       50
102
RTVSPost2010PropOp48
 70
     1
102
RTVSPost2010Prop49
280
     0
102
RTVSPost2010PropOp49
 70
     1
102
RTVSPost2010Prop50
 90
       50
102
RTVSPost2010PropOp50
 70
     1
102
RTVSPost2010Prop51ColorIndex
 90
      256
102
RTVSPost2010Prop51ColorRGB
 90
-16777216
102
RTVSPost2010PropOp51
 70
     0
102
RTVSPost2010Prop52
140
1.0
102
RTVSPost2010PropOp52
 70
     0
102
RTVSPost2010Prop53
 90
        2
102
RTVSPost2010PropOp53
 70
     1
102
RTVSPost2010Prop54
  1
strokes_ogs.tif
102
RTVSPost2010PropOp54
 70
     1
102
RTVSPost2010Prop55
280
     0
102
RTVSPost2010PropOp55
 70
     1
102
RTVSPost2010Prop56
140
1.0
102
RTVSPost2010PropOp56
 70
     1
102
RTVSPost2010Prop57
140
1.0
102
RTVSPost2010PropOp57
 70
     1
  0
XRECORD
  5
322
102
{ACAD_REACTORS
330
321
102
}
330
321
100
AcDbXrecord
280
     1
102
RTVSPropertyOp0
 70
     0
102
RTVSPropertyOp1
 70
     0
102
RTVSPropertyOp2
 70
     0
102
RTVSPropertyOp3
 70
     0
102
RTVSPropertyOp4
 70
     0
102
RTVSPropertyOp5
 70
     0
102
RTVSPropertyOp6
 70
     0
102
RTVSPropertyOp7
 70
     0
102
RTVSPropertyOp8
 70
     0
102
RTVSPropertyOp9
 70
     0
102
RTVSPropertyOp10
 70
     0
102
RTVSPropertyOp11
 70
     0
102
RTVSPropertyOp12
 70
     0
102
RTVSPropertyOp13
 70
     0
102
RTVSPropertyOp14
 70
     2
102
RTVSPropertyOp15
 70
     0
102
RTVSPropertyOp16
 70
     0
102
RTVSPropertyOp17
 70
     0
102
RTVSPropertyOp18
 70
     0
102
RTVSPropertyOp19
 70
     0
102
RTVSPropertyOp20
 70
     0
102
RTVSPropertyOp21
 70
     0
102
RTVSPropertyOp22
 70
     0
102
RTVSPropertyOp23
 70
     0
102
RTVSPropertyOp24
 70
     0
102
RTVSPropertyOp25
 70
     0
102
RTVSPropertyOp26
 70
     0
102
RTVSPropertyOp27
 70
     0
102
RTVSPropertyOp28
 70
     0
102
RTVSPropertyOp29
 70
     0
102
RTVSPropertyOp30
 70
     0
102
RTVSPropertyOp31
 70
     0
102
RTVSPropertyOp32
 70
     0
102
RTVSPropertyOp33
 70
     0
102
RTVSPropertyOp34
 70
     0
102
RTVSPropertyOp35
 70
     0
102
RTVSPropertyOp36
 70
     0
102
RTVSPropertyOp37
 70
     0
102
RTVSPropertyOp38
 70
     0
102
RTVSPropertyOp39
 70
     0
102
RTVSPropertyOp40
 70
     0
102
RTVSPropertyOp41
 70
     0
102
RTVSPropertyOp42
 70
     0
102
RTVSPropertyOp43
 70
     0
102
RTVSPropertyOp44
 70
     0
102
RTVSPropertyOp45
 70
     0
102
RTVSPropertyOp46
 70
     0
102
RTVSPropertyOp47
 70
     0
102
RTVSPropertyOp48
 70
     0
102
RTVSPropertyOp49
 70
     0
102
RTVSPropertyOp50
 70
     0
102
RTVSPropertyOp51
 70
     0
102
RTVSPropertyOp52
 70
     0
102
RTVSPropertyOp53
 70
     0
102
RTVSPropertyOp54
 70
     0
102
RTVSPropertyOp55
 70
     0
102
RTVSPropertyOp56
 70
     0
102
RTVSPropertyOp57
 70
     0
102
RTVSPost2010Prop28
280
     0
102
RTVSPost2010PropOp28
 70
     0
102
RTVSPost2010Prop29
280
     1
102
RTVSPost2010PropOp29
 70
     0
102
RTVSPost2010Prop30
280
     1
102
RTVSPost2010PropOp30
 70
     0
102
RTVSPost2010Prop31
280
     0
102
RTVSPost2010PropOp31
 70
     0
102
RTVSPost2010Prop32
280
     0
102
RTVSPost2010PropOp32
 70
     0
102
RTVSPost2010Prop33
280
     0
102
RTVSPost2010PropOp33
 70
     0
102
RTVSPost2010Prop34
280
     0
102
RTVSPost2010PropOp34
 70
     0
102
RTVSPost2010Prop35
280
     0
102
RTVSPost2010PropOp35
 70
     0
102
RTVSPost2010Prop36
280
     0
102
RTVSPost2010PropOp36
 70
     0
102
RTVSPost2010Prop37
 90
       50
102
RTVSPost2010PropOp37
 70
     0
102
RTVSPost2010Prop38
140
0.0
102
RTVSPost2010PropOp38
 70
     0
102
RTVSPost2010Prop39
140
1.0
102
RTVSPost2010PropOp39
 70
     0
102
RTVSPost2010Prop40
 90
        0
102
RTVSPost2010PropOp40
 70
     0
102
RTVSPost2010Prop41ColorIndex
 90
       18
102
RTVSPost2010Prop41ColorRGB
 90
        0
102
RTVSPost2010PropOp41
 70
     0
102
RTVSPost2010Prop42
 90
       50
102
RTVSPost2010PropOp42
 70
     0
102
RTVSPost2010Prop43
 90
        3
102
RTVSPost2010PropOp43
 70
     0
102
RTVSPost2010Prop44ColorIndex
 90
        5
102
RTVSPost2010Prop44ColorRGB
 90
      255
102
RTVSPost2010PropOp44
 70
     0
102
RTVSPost2010Prop45
280
     0
102
RTVSPost2010PropOp45
 70
     0
102
RTVSPost2010Prop46
 90
       50
102
RTVSPost2010PropOp46
 70
     0
102
RTVSPost2010Prop47
 90
       50
102
RTVSPost2010PropOp47
 70
     0
102
RTVSPost2010Prop48
 90
       50
102
RTVSPost2010PropOp48
 70
     0
102
RTVSPost2010Prop49
280
     0
102
RTVSPost2010PropOp49
 70
     0
102
RTVSPost2010Prop50
 90
       50
102
RTVSPost2010PropOp50
 70
     0
102
RTVSPost2010Prop51ColorIndex
 90
      256
102
RTVSPost2010Prop51ColorRGB
 90
-16777216
102
RTVSPost2010PropOp51
 70
     0
102
RTVSPost2010Prop52
140
1.0
102
RTVSPost2010PropOp52
 70
     0
102
RTVSPost2010Prop53
 90
        2
102
RTVSPost2010PropOp53
 70
     0
102
RTVSPost2010Prop54
  1
strokes_ogs.tif
102
RTVSPost2010PropOp54
 70
     0
102
RTVSPost2010Prop55
280
     0
102
RTVSPost2010PropOp55
 70
     0
102
RTVSPost2010Prop56
140
1.0
102
RTVSPost2010PropOp56
 70
     0
102
RTVSPost2010Prop57
140
1.0
102
RTVSPost2010PropOp57
 70
     0
  0
XRECORD
  5
31C
102
{ACAD_REACTORS
330
31B
102
}
330
31B
100
AcDbXrecord
280
     1
102
RTVSPropertyOp0
 70
     1
102
RTVSPropertyOp1
 70
     1
102
RTVSPropertyOp2
 70
     1
102
RTVSPropertyOp3
 70
     1
102
RTVSPropertyOp4
 70
     1
102
RTVSPropertyOp5
 70
     1
102
RTVSPropertyOp6
 70
     1
102
RTVSPropertyOp7
 70
     1
102
RTVSPropertyOp8
 70
     1
102
RTVSPropertyOp9
 70
     1
102
RTVSPropertyOp10
 70
     1
102
RTVSPropertyOp11
 70
     1
102
RTVSPropertyOp12
 70
     1
102
RTVSPropertyOp13
 70
     1
102
RTVSPropertyOp14
 70
     1
102
RTVSPropertyOp15
 70
     1
102
RTVSPropertyOp16
 70
     1
102
RTVSPropertyOp17
 70
     1
102
RTVSPropertyOp18
 70
     1
102
RTVSPropertyOp19
 70
     1
102
RTVSPropertyOp20
 70
     1
102
RTVSPropertyOp21
 70
     1
102
RTVSPropertyOp22
 70
     1
102
RTVSPropertyOp23
 70
     1
102
RTVSPropertyOp24
 70
     1
102
RTVSPropertyOp25
 70
     1
102
RTVSPropertyOp26
 70
     1
102
RTVSPropertyOp27
 70
     1
102
RTVSPropertyOp28
 70
     1
102
RTVSPropertyOp29
 70
     1
102
RTVSPropertyOp30
 70
     1
102
RTVSPropertyOp31
 70
     1
102
RTVSPropertyOp32
 70
     1
102
RTVSPropertyOp33
 70
     1
102
RTVSPropertyOp34
 70
     1
102
RTVSPropertyOp35
 70
     1
102
RTVSPropertyOp36
 70
     1
102
RTVSPropertyOp37
 70
     1
102
RTVSPropertyOp38
 70
     1
102
RTVSPropertyOp39
 70
     1
102
RTVSPropertyOp40
 70
     1
102
RTVSPropertyOp41
 70
     1
102
RTVSPropertyOp42
 70
     1
102
RTVSPropertyOp43
 70
     1
102
RTVSPropertyOp44
 70
     1
102
RTVSPropertyOp45
 70
     1
102
RTVSPropertyOp46
 70
     1
102
RTVSPropertyOp47
 70
     1
102
RTVSPropertyOp48
 70
     1
102
RTVSPropertyOp49
 70
     1
102
RTVSPropertyOp50
 70
     1
102
RTVSPropertyOp51
 70
     0
102
RTVSPropertyOp52
 70
     0
102
RTVSPropertyOp53
 70
     1
102
RTVSPropertyOp54
 70
     1
102
RTVSPropertyOp55
 70
     1
102
RTVSPropertyOp56
 70
     1
102
RTVSPropertyOp57
 70
     1
102
RTVSPost2010Prop28
280
     0
102
RTVSPost2010PropOp28
 70
     1
102
RTVSPost2010Prop29
280
     1
102
RTVSPost2010PropOp29
 70
     1
102
RTVSPost2010Prop30
280
     1
102
RTVSPost2010PropOp30
 70
     1
102
RTVSPost2010Prop31
280
     0
102
RTVSPost2010PropOp31
 70
     1
102
RTVSPost2010Prop32
280
     0
102
RTVSPost2010PropOp32
 70
     1
102
RTVSPost2010Prop33
280
     0
102
RTVSPost2010PropOp33
 70
     1
102
RTVSPost2010Prop34
280
     0
102
RTVSPost2010PropOp34
 70
     1
102
RTVSPost2010Prop35
280
     0
102
RTVSPost2010PropOp35
 70
     1
102
RTVSPost2010Prop36
280
     0
102
RTVSPost2010PropOp36
 70
     1
102
RTVSPost2010Prop37
 90
       50
102
RTVSPost2010PropOp37
 70
     1
102
RTVSPost2010Prop38
140
0.0
102
RTVSPost2010PropOp38
 70
     1
102
RTVSPost2010Prop39
140
1.0
102
RTVSPost2010PropOp39
 70
     1
102
RTVSPost2010Prop40
 90
        0
102
RTVSPost2010PropOp40
 70
     1
102
RTVSPost2010Prop41ColorIndex
 90
       18
102
RTVSPost2010Prop41ColorRGB
 90
        0
102
RTVSPost2010PropOp41
 70
     1
102
RTVSPost2010Prop42
 90
       50
102
RTVSPost2010PropOp42
 70
     1
102
RTVSPost2010Prop43
 90
        3
102
RTVSPost2010PropOp43
 70
     1
102
RTVSPost2010Prop44ColorIndex
 90
        5
102
RTVSPost2010Prop44ColorRGB
 90
      255
102
RTVSPost2010PropOp44
 70
     1
102
RTVSPost2010Prop45
280
     0
102
RTVSPost2010PropOp45
 70
     1
102
RTVSPost2010Prop46
 90
       50
102
RTVSPost2010PropOp46
 70
     1
102
RTVSPost2010Prop47
 90
       50
102
RTVSPost2010PropOp47
 70
     1
102
RTVSPost2010Prop48
 90
       50
102
RTVSPost2010PropOp48
 70
     1
102
RTVSPost2010Prop49
280
     0
102
RTVSPost2010PropOp49
 70
     1
102
RTVSPost2010Prop50
 90
       50
102
RTVSPost2010PropOp50
 70
     1
102
RTVSPost2010Prop51ColorIndex
 90
      256
102
RTVSPost2010Prop51ColorRGB
 90
-16777216
102
RTVSPost2010PropOp51
 70
     0
102
RTVSPost2010Prop52
140
1.0
102
RTVSPost2010PropOp52
 70
     0
102
RTVSPost2010Prop53
 90
        2
102
RTVSPost2010PropOp53
 70
     1
102
RTVSPost2010Prop54
  1
strokes_ogs.tif
102
RTVSPost2010PropOp54
 70
     1
102
RTVSPost2010Prop55
280
     0
102
RTVSPost2010PropOp55
 70
     1
102
RTVSPost2010Prop56
140
1.0
102
RTVSPost2010PropOp56
 70
     1
102
RTVSPost2010Prop57
140
1.0
102
RTVSPost2010PropOp57
 70
     1
  0
XRECORD
  5
324
102
{ACAD_REACTORS
330
323
102
}
330
323
100
AcDbXrecord
280
     1
102
RTVSPropertyOp0
 70
     0
102
RTVSPropertyOp1
 70
     0
102
RTVSPropertyOp2
 70
     0
102
RTVSPropertyOp3
 70
     0
102
RTVSPropertyOp4
 70
     0
102
RTVSPropertyOp5
 70
     0
102
RTVSPropertyOp6
 70
     0
102
RTVSPropertyOp7
 70
     0
102
RTVSPropertyOp8
 70
     0
102
RTVSPropertyOp9
 70
     0
102
RTVSPropertyOp10
 70
     0
102
RTVSPropertyOp11
 70
     0
102
RTVSPropertyOp12
 70
     0
102
RTVSPropertyOp13
 70
     0
102
RTVSPropertyOp14
 70
     2
102
RTVSPropertyOp15
 70
     0
102
RTVSPropertyOp16
 70
     0
102
RTVSPropertyOp17
 70
     0
102
RTVSPropertyOp18
 70
     0
102
RTVSPropertyOp19
 70
     0
102
RTVSPropertyOp20
 70
     0
102
RTVSPropertyOp21
 70
     0
102
RTVSPropertyOp22
 70
     0
102
RTVSPropertyOp23
 70
     0
102
RTVSPropertyOp24
 70
     0
102
RTVSPropertyOp25
 70
     0
102
RTVSPropertyOp26
 70
     0
102
RTVSPropertyOp27
 70
     0
102
RTVSPropertyOp28
 70
     0
102
RTVSPropertyOp29
 70
     0
102
RTVSPropertyOp30
 70
     0
102
RTVSPropertyOp31
 70
     0
102
RTVSPropertyOp32
 70
     0
102
RTVSPropertyOp33
 70
     0
102
RTVSPropertyOp34
 70
     0
102
RTVSPropertyOp35
 70
     0
102
RTVSPropertyOp36
 70
     0
102
RTVSPropertyOp37
 70
     0
102
RTVSPropertyOp38
 70
     0
102
RTVSPropertyOp39
 70
     0
102
RTVSPropertyOp40
 70
     0
102
RTVSPropertyOp41
 70
     0
102
RTVSPropertyOp42
 70
     0
102
RTVSPropertyOp43
 70
     0
102
RTVSPropertyOp44
 70
     0
102
RTVSPropertyOp45
 70
     0
102
RTVSPropertyOp46
 70
     0
102
RTVSPropertyOp47
 70
     0
102
RTVSPropertyOp48
 70
     0
102
RTVSPropertyOp49
 70
     0
102
RTVSPropertyOp50
 70
     0
102
RTVSPropertyOp51
 70
     0
102
RTVSPropertyOp52
 70
     0
102
RTVSPropertyOp53
 70
     0
102
RTVSPropertyOp54
 70
     0
102
RTVSPropertyOp55
 70
     0
102
RTVSPropertyOp56
 70
     0
102
RTVSPropertyOp57
 70
     0
102
RTVSPost2010Prop28
280
     0
102
RTVSPost2010PropOp28
 70
     0
102
RTVSPost2010Prop29
280
     1
102
RTVSPost2010PropOp29
 70
     0
102
RTVSPost2010Prop30
280
     1
102
RTVSPost2010PropOp30
 70
     0
102
RTVSPost2010Prop31
280
     0
102
RTVSPost2010PropOp31
 70
     0
102
RTVSPost2010Prop32
280
     0
102
RTVSPost2010PropOp32
 70
     0
102
RTVSPost2010Prop33
280
     0
102
RTVSPost2010PropOp33
 70
     0
102
RTVSPost2010Prop34
280
     0
102
RTVSPost2010PropOp34
 70
     0
102
RTVSPost2010Prop35
280
     0
102
RTVSPost2010PropOp35
 70
     0
102
RTVSPost2010Prop36
280
     0
102
RTVSPost2010PropOp36
 70
     0
102
RTVSPost2010Prop37
 90
       50
102
RTVSPost2010PropOp37
 70
     0
102
RTVSPost2010Prop38
140
0.0
102
RTVSPost2010PropOp38
 70
     0
102
RTVSPost2010Prop39
140
1.0
102
RTVSPost2010PropOp39
 70
     0
102
RTVSPost2010Prop40
 90
        0
102
RTVSPost2010PropOp40
 70
     0
102
RTVSPost2010Prop41ColorIndex
 90
       18
102
RTVSPost2010Prop41ColorRGB
 90
        0
102
RTVSPost2010PropOp41
 70
     0
102
RTVSPost2010Prop42
 90
       50
102
RTVSPost2010PropOp42
 70
     0
102
RTVSPost2010Prop43
 90
        3
102
RTVSPost2010PropOp43
 70
     0
102
RTVSPost2010Prop44ColorIndex
 90
        5
102
RTVSPost2010Prop44ColorRGB
 90
      255
102
RTVSPost2010PropOp44
 70
     0
102
RTVSPost2010Prop45
280
     0
102
RTVSPost2010PropOp45
 70
     0
102
RTVSPost2010Prop46
 90
       50
102
RTVSPost2010PropOp46
 70
     0
102
RTVSPost2010Prop47
 90
       50
102
RTVSPost2010PropOp47
 70
     0
102
RTVSPost2010Prop48
 90
       50
102
RTVSPost2010PropOp48
 70
     0
102
RTVSPost2010Prop49
280
     0
102
RTVSPost2010PropOp49
 70
     0
102
RTVSPost2010Prop50
 90
       50
102
RTVSPost2010PropOp50
 70
     0
102
RTVSPost2010Prop51ColorIndex
 90
      256
102
RTVSPost2010Prop51ColorRGB
 90
-16777216
102
RTVSPost2010PropOp51
 70
     0
102
RTVSPost2010Prop52
140
1.0
102
RTVSPost2010PropOp52
 70
     0
102
RTVSPost2010Prop53
 90
        2
102
RTVSPost2010PropOp53
 70
     0
102
RTVSPost2010Prop54
  1
strokes_ogs.tif
102
RTVSPost2010PropOp54
 70
     0
102
RTVSPost2010Prop55
280
     0
102
RTVSPost2010PropOp55
 70
     0
102
RTVSPost2010Prop56
140
1.0
102
RTVSPost2010PropOp56
 70
     0
102
RTVSPost2010Prop57
140
1.0
102
RTVSPost2010PropOp57
 70
     0
  0
XRECORD
  5
312
102
{ACAD_REACTORS
330
311
102
}
330
311
100
AcDbXrecord
280
     1
102
RTVSPropertyOp0
 70
     1
102
RTVSPropertyOp1
 70
     1
102
RTVSPropertyOp2
 70
     1
102
RTVSPropertyOp3
 70
     1
102
RTVSPropertyOp4
 70
     1
102
RTVSPropertyOp5
 70
     1
102
RTVSPropertyOp6
 70
     1
102
RTVSPropertyOp7
 70
     1
102
RTVSPropertyOp8
 70
     1
102
RTVSPropertyOp9
 70
     1
102
RTVSPropertyOp10
 70
     1
102
RTVSPropertyOp11
 70
     1
102
RTVSPropertyOp12
 70
     1
102
RTVSPropertyOp13
 70
     1
102
RTVSPropertyOp14
 70
     1
102
RTVSPropertyOp15
 70
     1
102
RTVSPropertyOp16
 70
     1
102
RTVSPropertyOp17
 70
     1
102
RTVSPropertyOp18
 70
     1
102
RTVSPropertyOp19
 70
     1
102
RTVSPropertyOp20
 70
     1
102
RTVSPropertyOp21
 70
     1
102
RTVSPropertyOp22
 70
     1
102
RTVSPropertyOp23
 70
     1
102
RTVSPropertyOp24
 70
     1
102
RTVSPropertyOp25
 70
     1
102
RTVSPropertyOp26
 70
     1
102
RTVSPropertyOp27
 70
     1
102
RTVSPropertyOp28
 70
     1
102
RTVSPropertyOp29
 70
     1
102
RTVSPropertyOp30
 70
     1
102
RTVSPropertyOp31
 70
     1
102
RTVSPropertyOp32
 70
     1
102
RTVSPropertyOp33
 70
     1
102
RTVSPropertyOp34
 70
     1
102
RTVSPropertyOp35
 70
     1
102
RTVSPropertyOp36
 70
     1
102
RTVSPropertyOp37
 70
     1
102
RTVSPropertyOp38
 70
     1
102
RTVSPropertyOp39
 70
     1
102
RTVSPropertyOp40
 70
     1
102
RTVSPropertyOp41
 70
     1
102
RTVSPropertyOp42
 70
     1
102
RTVSPropertyOp43
 70
     1
102
RTVSPropertyOp44
 70
     1
102
RTVSPropertyOp45
 70
     1
102
RTVSPropertyOp46
 70
     1
102
RTVSPropertyOp47
 70
     1
102
RTVSPropertyOp48
 70
     1
102
RTVSPropertyOp49
 70
     1
102
RTVSPropertyOp50
 70
     1
102
RTVSPropertyOp51
 70
     0
102
RTVSPropertyOp52
 70
     0
102
RTVSPropertyOp53
 70
     1
102
RTVSPropertyOp54
 70
     1
102
RTVSPropertyOp55
 70
     1
102
RTVSPropertyOp56
 70
     1
102
RTVSPropertyOp57
 70
     1
102
RTVSPost2010Prop28
280
     0
102
RTVSPost2010PropOp28
 70
     1
102
RTVSPost2010Prop29
280
     1
102
RTVSPost2010PropOp29
 70
     1
102
RTVSPost2010Prop30
280
     1
102
RTVSPost2010PropOp30
 70
     1
102
RTVSPost2010Prop31
280
     0
102
RTVSPost2010PropOp31
 70
     1
102
RTVSPost2010Prop32
280
     0
102
RTVSPost2010PropOp32
 70
     1
102
RTVSPost2010Prop33
280
     0
102
RTVSPost2010PropOp33
 70
     1
102
RTVSPost2010Prop34
280
     0
102
RTVSPost2010PropOp34
 70
     1
102
RTVSPost2010Prop35
280
     0
102
RTVSPost2010PropOp35
 70
     1
102
RTVSPost2010Prop36
280
     0
102
RTVSPost2010PropOp36
 70
     1
102
RTVSPost2010Prop37
 90
       50
102
RTVSPost2010PropOp37
 70
     1
102
RTVSPost2010Prop38
140
0.0
102
RTVSPost2010PropOp38
 70
     1
102
RTVSPost2010Prop39
140
1.0
102
RTVSPost2010PropOp39
 70
     1
102
RTVSPost2010Prop40
 90
        0
102
RTVSPost2010PropOp40
 70
     1
102
RTVSPost2010Prop41ColorIndex
 90
       18
102
RTVSPost2010Prop41ColorRGB
 90
        0
102
RTVSPost2010PropOp41
 70
     1
102
RTVSPost2010Prop42
 90
       50
102
RTVSPost2010PropOp42
 70
     1
102
RTVSPost2010Prop43
 90
        3
102
RTVSPost2010PropOp43
 70
     1
102
RTVSPost2010Prop44ColorIndex
 90
        5
102
RTVSPost2010Prop44ColorRGB
 90
      255
102
RTVSPost2010PropOp44
 70
     1
102
RTVSPost2010Prop45
280
     0
102
RTVSPost2010PropOp45
 70
     1
102
RTVSPost2010Prop46
 90
       50
102
RTVSPost2010PropOp46
 70
     1
102
RTVSPost2010Prop47
 90
       50
102
RTVSPost2010PropOp47
 70
     1
102
RTVSPost2010Prop48
 90
       50
102
RTVSPost2010PropOp48
 70
     1
102
RTVSPost2010Prop49
280
     0
102
RTVSPost2010PropOp49
 70
     1
102
RTVSPost2010Prop50
 90
       50
102
RTVSPost2010PropOp50
 70
     1
102
RTVSPost2010Prop51ColorIndex
 90
      256
102
RTVSPost2010Prop51ColorRGB
 90
-16777216
102
RTVSPost2010PropOp51
 70
     0
102
RTVSPost2010Prop52
140
1.0
102
RTVSPost2010PropOp52
 70
     0
102
RTVSPost2010Prop53
 90
        2
102
RTVSPost2010PropOp53
 70
     1
102
RTVSPost2010Prop54
  1
strokes_ogs.tif
102
RTVSPost2010PropOp54
 70
     1
102
RTVSPost2010Prop55
280
     0
102
RTVSPost2010PropOp55
 70
     1
102
RTVSPost2010Prop56
140
1.0
102
RTVSPost2010PropOp56
 70
     1
102
RTVSPost2010Prop57
140
1.0
102
RTVSPost2010PropOp57
 70
     1
  0
XRECORD
  5
330
102
{ACAD_REACTORS
330
32F
102
}
330
32F
100
AcDbXrecord
280
     1
102
RTVSPropertyOp0
 70
     1
102
RTVSPropertyOp1
 70
     1
102
RTVSPropertyOp2
 70
     1
102
RTVSPropertyOp3
 70
     1
102
RTVSPropertyOp4
 70
     1
102
RTVSPropertyOp5
 70
     1
102
RTVSPropertyOp6
 70
     1
102
RTVSPropertyOp7
 70
     1
102
RTVSPropertyOp8
 70
     1
102
RTVSPropertyOp9
 70
     1
102
RTVSPropertyOp10
 70
     1
102
RTVSPropertyOp11
 70
     1
102
RTVSPropertyOp12
 70
     1
102
RTVSPropertyOp13
 70
     1
102
RTVSPropertyOp14
 70
     1
102
RTVSPropertyOp15
 70
     1
102
RTVSPropertyOp16
 70
     1
102
RTVSPropertyOp17
 70
     1
102
RTVSPropertyOp18
 70
     1
102
RTVSPropertyOp19
 70
     1
102
RTVSPropertyOp20
 70
     1
102
RTVSPropertyOp21
 70
     1
102
RTVSPropertyOp22
 70
     1
102
RTVSPropertyOp23
 70
     1
102
RTVSPropertyOp24
 70
     1
102
RTVSPropertyOp25
 70
     1
102
RTVSPropertyOp26
 70
     1
102
RTVSPropertyOp27
 70
     1
102
RTVSPropertyOp28
 70
     1
102
RTVSPropertyOp29
 70
     1
102
RTVSPropertyOp30
 70
     1
102
RTVSPropertyOp31
 70
     1
102
RTVSPropertyOp32
 70
     1
102
RTVSPropertyOp33
 70
     1
102
RTVSPropertyOp34
 70
     1
102
RTVSPropertyOp35
 70
     1
102
RTVSPropertyOp36
 70
     1
102
RTVSPropertyOp37
 70
     1
102
RTVSPropertyOp38
 70
     1
102
RTVSPropertyOp39
 70
     1
102
RTVSPropertyOp40
 70
     1
102
RTVSPropertyOp41
 70
     1
102
RTVSPropertyOp42
 70
     1
102
RTVSPropertyOp43
 70
     1
102
RTVSPropertyOp44
 70
     1
102
RTVSPropertyOp45
 70
     1
102
RTVSPropertyOp46
 70
     1
102
RTVSPropertyOp47
 70
     1
102
RTVSPropertyOp48
 70
     1
102
RTVSPropertyOp49
 70
     1
102
RTVSPropertyOp50
 70
     1
102
RTVSPropertyOp51
 70
     0
102
RTVSPropertyOp52
 70
     0
102
RTVSPropertyOp53
 70
     1
102
RTVSPropertyOp54
 70
     1
102
RTVSPropertyOp55
 70
     1
102
RTVSPropertyOp56
 70
     1
102
RTVSPropertyOp57
 70
     1
102
RTVSPost2010Prop28
280
     0
102
RTVSPost2010PropOp28
 70
     1
102
RTVSPost2010Prop29
280
     1
102
RTVSPost2010PropOp29
 70
     1
102
RTVSPost2010Prop30
280
     1
102
RTVSPost2010PropOp30
 70
     1
102
RTVSPost2010Prop31
280
     0
102
RTVSPost2010PropOp31
 70
     1
102
RTVSPost2010Prop32
280
     0
102
RTVSPost2010PropOp32
 70
     1
102
RTVSPost2010Prop33
280
     0
102
RTVSPost2010PropOp33
 70
     1
102
RTVSPost2010Prop34
280
     0
102
RTVSPost2010PropOp34
 70
     1
102
RTVSPost2010Prop35
280
     0
102
RTVSPost2010PropOp35
 70
     1
102
RTVSPost2010Prop36
280
     0
102
RTVSPost2010PropOp36
 70
     1
102
RTVSPost2010Prop37
 90
       50
102
RTVSPost2010PropOp37
 70
     1
102
RTVSPost2010Prop38
140
0.0
102
RTVSPost2010PropOp38
 70
     1
102
RTVSPost2010Prop39
140
1.0
102
RTVSPost2010PropOp39
 70
     1
102
RTVSPost2010Prop40
 90
        0
102
RTVSPost2010PropOp40
 70
     1
102
RTVSPost2010Prop41ColorIndex
 90
       18
102
RTVSPost2010Prop41ColorRGB
 90
        0
102
RTVSPost2010PropOp41
 70
     1
102
RTVSPost2010Prop42
 90
       50
102
RTVSPost2010PropOp42
 70
     1
102
RTVSPost2010Prop43
 90
        3
102
RTVSPost2010PropOp43
 70
     1
102
RTVSPost2010Prop44ColorIndex
 90
        5
102
RTVSPost2010Prop44ColorRGB
 90
      255
102
RTVSPost2010PropOp44
 70
     1
102
RTVSPost2010Prop45
280
     0
102
RTVSPost2010PropOp45
 70
     1
102
RTVSPost2010Prop46
 90
       50
102
RTVSPost2010PropOp46
 70
     1
102
RTVSPost2010Prop47
 90
       50
102
RTVSPost2010PropOp47
 70
     1
102
RTVSPost2010Prop48
 90
       50
102
RTVSPost2010PropOp48
 70
     1
102
RTVSPost2010Prop49
280
     0
102
RTVSPost2010PropOp49
 70
     1
102
RTVSPost2010Prop50
 90
       50
102
RTVSPost2010PropOp50
 70
     1
102
RTVSPost2010Prop51ColorIndex
 90
      256
102
RTVSPost2010Prop51ColorRGB
 90
-16777216
102
RTVSPost2010PropOp51
 70
     0
102
RTVSPost2010Prop52
140
1.0
102
RTVSPost2010PropOp52
 70
     0
102
RTVSPost2010Prop53
 90
        2
102
RTVSPost2010PropOp53
 70
     1
102
RTVSPost2010Prop54
  1
strokes_ogs.tif
102
RTVSPost2010PropOp54
 70
     1
102
RTVSPost2010Prop55
280
     0
102
RTVSPost2010PropOp55
 70
     1
102
RTVSPost2010Prop56
140
1.0
102
RTVSPost2010PropOp56
 70
     1
102
RTVSPost2010Prop57
140
1.0
102
RTVSPost2010PropOp57
 70
     1
  0
XRECORD
  5
32E
102
{ACAD_REACTORS
330
32D
102
}
330
32D
100
AcDbXrecord
280
     1
102
RTVSPropertyOp0
 70
     1
102
RTVSPropertyOp1
 70
     1
102
RTVSPropertyOp2
 70
     1
102
RTVSPropertyOp3
 70
     1
102
RTVSPropertyOp4
 70
     1
102
RTVSPropertyOp5
 70
     1
102
RTVSPropertyOp6
 70
     1
102
RTVSPropertyOp7
 70
     1
102
RTVSPropertyOp8
 70
     1
102
RTVSPropertyOp9
 70
     1
102
RTVSPropertyOp10
 70
     1
102
RTVSPropertyOp11
 70
     1
102
RTVSPropertyOp12
 70
     1
102
RTVSPropertyOp13
 70
     1
102
RTVSPropertyOp14
 70
     1
102
RTVSPropertyOp15
 70
     1
102
RTVSPropertyOp16
 70
     1
102
RTVSPropertyOp17
 70
     1
102
RTVSPropertyOp18
 70
     1
102
RTVSPropertyOp19
 70
     1
102
RTVSPropertyOp20
 70
     1
102
RTVSPropertyOp21
 70
     1
102
RTVSPropertyOp22
 70
     1
102
RTVSPropertyOp23
 70
     1
102
RTVSPropertyOp24
 70
     1
102
RTVSPropertyOp25
 70
     1
102
RTVSPropertyOp26
 70
     1
102
RTVSPropertyOp27
 70
     1
102
RTVSPropertyOp28
 70
     1
102
RTVSPropertyOp29
 70
     1
102
RTVSPropertyOp30
 70
     1
102
RTVSPropertyOp31
 70
     1
102
RTVSPropertyOp32
 70
     1
102
RTVSPropertyOp33
 70
     1
102
RTVSPropertyOp34
 70
     1
102
RTVSPropertyOp35
 70
     1
102
RTVSPropertyOp36
 70
     1
102
RTVSPropertyOp37
 70
     1
102
RTVSPropertyOp38
 70
     1
102
RTVSPropertyOp39
 70
     1
102
RTVSPropertyOp40
 70
     1
102
RTVSPropertyOp41
 70
     1
102
RTVSPropertyOp42
 70
     1
102
RTVSPropertyOp43
 70
     1
102
RTVSPropertyOp44
 70
     1
102
RTVSPropertyOp45
 70
     1
102
RTVSPropertyOp46
 70
     1
102
RTVSPropertyOp47
 70
     1
102
RTVSPropertyOp48
 70
     1
102
RTVSPropertyOp49
 70
     1
102
RTVSPropertyOp50
 70
     1
102
RTVSPropertyOp51
 70
     0
102
RTVSPropertyOp52
 70
     0
102
RTVSPropertyOp53
 70
     1
102
RTVSPropertyOp54
 70
     1
102
RTVSPropertyOp55
 70
     1
102
RTVSPropertyOp56
 70
     1
102
RTVSPropertyOp57
 70
     1
102
RTVSPost2010Prop28
280
     0
102
RTVSPost2010PropOp28
 70
     1
102
RTVSPost2010Prop29
280
     1
102
RTVSPost2010PropOp29
 70
     1
102
RTVSPost2010Prop30
280
     1
102
RTVSPost2010PropOp30
 70
     1
102
RTVSPost2010Prop31
280
     0
102
RTVSPost2010PropOp31
 70
     1
102
RTVSPost2010Prop32
280
     0
102
RTVSPost2010PropOp32
 70
     1
102
RTVSPost2010Prop33
280
     0
102
RTVSPost2010PropOp33
 70
     1
102
RTVSPost2010Prop34
280
     0
102
RTVSPost2010PropOp34
 70
     1
102
RTVSPost2010Prop35
280
     0
102
RTVSPost2010PropOp35
 70
     1
102
RTVSPost2010Prop36
280
     0
102
RTVSPost2010PropOp36
 70
     1
102
RTVSPost2010Prop37
 90
       50
102
RTVSPost2010PropOp37
 70
     1
102
RTVSPost2010Prop38
140
0.0
102
RTVSPost2010PropOp38
 70
     1
102
RTVSPost2010Prop39
140
1.0
102
RTVSPost2010PropOp39
 70
     1
102
RTVSPost2010Prop40
 90
        0
102
RTVSPost2010PropOp40
 70
     1
102
RTVSPost2010Prop41ColorIndex
 90
       18
102
RTVSPost2010Prop41ColorRGB
 90
        0
102
RTVSPost2010PropOp41
 70
     1
102
RTVSPost2010Prop42
 90
       50
102
RTVSPost2010PropOp42
 70
     1
102
RTVSPost2010Prop43
 90
        3
102
RTVSPost2010PropOp43
 70
     1
102
RTVSPost2010Prop44ColorIndex
 90
        5
102
RTVSPost2010Prop44ColorRGB
 90
      255
102
RTVSPost2010PropOp44
 70
     1
102
RTVSPost2010Prop45
280
     0
102
RTVSPost2010PropOp45
 70
     1
102
RTVSPost2010Prop46
 90
       50
102
RTVSPost2010PropOp46
 70
     1
102
RTVSPost2010Prop47
 90
       50
102
RTVSPost2010PropOp47
 70
     1
102
RTVSPost2010Prop48
 90
       50
102
RTVSPost2010PropOp48
 70
     1
102
RTVSPost2010Prop49
280
     0
102
RTVSPost2010PropOp49
 70
     1
102
RTVSPost2010Prop50
 90
       50
102
RTVSPost2010PropOp50
 70
     1
102
RTVSPost2010Prop51ColorIndex
 90
      256
102
RTVSPost2010Prop51ColorRGB
 90
-16777216
102
RTVSPost2010PropOp51
 70
     0
102
RTVSPost2010Prop52
140
1.0
102
RTVSPost2010PropOp52
 70
     0
102
RTVSPost2010Prop53
 90
        2
102
RTVSPost2010PropOp53
 70
     1
102
RTVSPost2010Prop54
  1
strokes_ogs.tif
102
RTVSPost2010PropOp54
 70
     1
102
RTVSPost2010Prop55
280
     0
102
RTVSPost2010PropOp55
 70
     1
102
RTVSPost2010Prop56
140
1.0
102
RTVSPost2010PropOp56
 70
     1
102
RTVSPost2010Prop57
140
1.0
102
RTVSPost2010PropOp57
 70
     1
  0
XRECORD
  5
328
102
{ACAD_REACTORS
330
327
102
}
330
327
100
AcDbXrecord
280
     1
102
RTVSPropertyOp0
 70
     1
102
RTVSPropertyOp1
 70
     1
102
RTVSPropertyOp2
 70
     1
102
RTVSPropertyOp3
 70
     1
102
RTVSPropertyOp4
 70
     1
102
RTVSPropertyOp5
 70
     1
102
RTVSPropertyOp6
 70
     1
102
RTVSPropertyOp7
 70
     1
102
RTVSPropertyOp8
 70
     1
102
RTVSPropertyOp9
 70
     1
102
RTVSPropertyOp10
 70
     1
102
RTVSPropertyOp11
 70
     1
102
RTVSPropertyOp12
 70
     1
102
RTVSPropertyOp13
 70
     1
102
RTVSPropertyOp14
 70
     1
102
RTVSPropertyOp15
 70
     1
102
RTVSPropertyOp16
 70
     1
102
RTVSPropertyOp17
 70
     1
102
RTVSPropertyOp18
 70
     1
102
RTVSPropertyOp19
 70
     1
102
RTVSPropertyOp20
 70
     1
102
RTVSPropertyOp21
 70
     1
102
RTVSPropertyOp22
 70
     1
102
RTVSPropertyOp23
 70
     1
102
RTVSPropertyOp24
 70
     1
102
RTVSPropertyOp25
 70
     1
102
RTVSPropertyOp26
 70
     1
102
RTVSPropertyOp27
 70
     1
102
RTVSPropertyOp28
 70
     1
102
RTVSPropertyOp29
 70
     1
102
RTVSPropertyOp30
 70
     1
102
RTVSPropertyOp31
 70
     1
102
RTVSPropertyOp32
 70
     1
102
RTVSPropertyOp33
 70
     1
102
RTVSPropertyOp34
 70
     1
102
RTVSPropertyOp35
 70
     1
102
RTVSPropertyOp36
 70
     1
102
RTVSPropertyOp37
 70
     1
102
RTVSPropertyOp38
 70
     1
102
RTVSPropertyOp39
 70
     1
102
RTVSPropertyOp40
 70
     1
102
RTVSPropertyOp41
 70
     1
102
RTVSPropertyOp42
 70
     1
102
RTVSPropertyOp43
 70
     1
102
RTVSPropertyOp44
 70
     1
102
RTVSPropertyOp45
 70
     1
102
RTVSPropertyOp46
 70
     1
102
RTVSPropertyOp47
 70
     1
102
RTVSPropertyOp48
 70
     1
102
RTVSPropertyOp49
 70
     1
102
RTVSPropertyOp50
 70
     1
102
RTVSPropertyOp51
 70
     0
102
RTVSPropertyOp52
 70
     0
102
RTVSPropertyOp53
 70
     1
102
RTVSPropertyOp54
 70
     1
102
RTVSPropertyOp55
 70
     1
102
RTVSPropertyOp56
 70
     1
102
RTVSPropertyOp57
 70
     1
102
RTVSPost2010Prop28
280
     0
102
RTVSPost2010PropOp28
 70
     1
102
RTVSPost2010Prop29
280
     1
102
RTVSPost2010PropOp29
 70
     1
102
RTVSPost2010Prop30
280
     1
102
RTVSPost2010PropOp30
 70
     1
102
RTVSPost2010Prop31
280
     0
102
RTVSPost2010PropOp31
 70
     1
102
RTVSPost2010Prop32
280
     0
102
RTVSPost2010PropOp32
 70
     1
102
RTVSPost2010Prop33
280
     0
102
RTVSPost2010PropOp33
 70
     1
102
RTVSPost2010Prop34
280
     0
102
RTVSPost2010PropOp34
 70
     1
102
RTVSPost2010Prop35
280
     0
102
RTVSPost2010PropOp35
 70
     1
102
RTVSPost2010Prop36
280
     0
102
RTVSPost2010PropOp36
 70
     1
102
RTVSPost2010Prop37
 90
       50
102
RTVSPost2010PropOp37
 70
     1
102
RTVSPost2010Prop38
140
0.0
102
RTVSPost2010PropOp38
 70
     1
102
RTVSPost2010Prop39
140
1.0
102
RTVSPost2010PropOp39
 70
     1
102
RTVSPost2010Prop40
 90
        0
102
RTVSPost2010PropOp40
 70
     1
102
RTVSPost2010Prop41ColorIndex
 90
       18
102
RTVSPost2010Prop41ColorRGB
 90
        0
102
RTVSPost2010PropOp41
 70
     1
102
RTVSPost2010Prop42
 90
       50
102
RTVSPost2010PropOp42
 70
     1
102
RTVSPost2010Prop43
 90
        3
102
RTVSPost2010PropOp43
 70
     1
102
RTVSPost2010Prop44ColorIndex
 90
        5
102
RTVSPost2010Prop44ColorRGB
 90
      255
102
RTVSPost2010PropOp44
 70
     1
102
RTVSPost2010Prop45
280
     0
102
RTVSPost2010PropOp45
 70
     1
102
RTVSPost2010Prop46
 90
       50
102
RTVSPost2010PropOp46
 70
     1
102
RTVSPost2010Prop47
 90
       50
102
RTVSPost2010PropOp47
 70
     1
102
RTVSPost2010Prop48
 90
       50
102
RTVSPost2010PropOp48
 70
     1
102
RTVSPost2010Prop49
280
     0
102
RTVSPost2010PropOp49
 70
     1
102
RTVSPost2010Prop50
 90
       50
102
RTVSPost2010PropOp50
 70
     1
102
RTVSPost2010Prop51ColorIndex
 90
      256
102
RTVSPost2010Prop51ColorRGB
 90
-16777216
102
RTVSPost2010PropOp51
 70
     0
102
RTVSPost2010Prop52
140
1.0
102
RTVSPost2010PropOp52
 70
     0
102
RTVSPost2010Prop53
 90
        2
102
RTVSPost2010PropOp53
 70
     1
102
RTVSPost2010Prop54
  1
strokes_ogs.tif
102
RTVSPost2010PropOp54
 70
     1
102
RTVSPost2010Prop55
280
     0
102
RTVSPost2010PropOp55
 70
     1
102
RTVSPost2010Prop56
140
1.0
102
RTVSPost2010PropOp56
 70
     1
102
RTVSPost2010Prop57
140
1.0
102
RTVSPost2010PropOp57
 70
     1
  0
XRECORD
  5
32A
102
{ACAD_REACTORS
330
329
102
}
330
329
100
AcDbXrecord
280
     1
102
RTVSPropertyOp0
 70
     1
102
RTVSPropertyOp1
 70
     1
102
RTVSPropertyOp2
 70
     1
102
RTVSPropertyOp3
 70
     1
102
RTVSPropertyOp4
 70
     1
102
RTVSPropertyOp5
 70
     1
102
RTVSPropertyOp6
 70
     1
102
RTVSPropertyOp7
 70
     1
102
RTVSPropertyOp8
 70
     1
102
RTVSPropertyOp9
 70
     1
102
RTVSPropertyOp10
 70
     1
102
RTVSPropertyOp11
 70
     1
102
RTVSPropertyOp12
 70
     1
102
RTVSPropertyOp13
 70
     1
102
RTVSPropertyOp14
 70
     1
102
RTVSPropertyOp15
 70
     1
102
RTVSPropertyOp16
 70
     1
102
RTVSPropertyOp17
 70
     1
102
RTVSPropertyOp18
 70
     1
102
RTVSPropertyOp19
 70
     1
102
RTVSPropertyOp20
 70
     1
102
RTVSPropertyOp21
 70
     1
102
RTVSPropertyOp22
 70
     1
102
RTVSPropertyOp23
 70
     1
102
RTVSPropertyOp24
 70
     1
102
RTVSPropertyOp25
 70
     1
102
RTVSPropertyOp26
 70
     1
102
RTVSPropertyOp27
 70
     1
102
RTVSPropertyOp28
 70
     1
102
RTVSPropertyOp29
 70
     1
102
RTVSPropertyOp30
 70
     1
102
RTVSPropertyOp31
 70
     1
102
RTVSPropertyOp32
 70
     1
102
RTVSPropertyOp33
 70
     1
102
RTVSPropertyOp34
 70
     1
102
RTVSPropertyOp35
 70
     1
102
RTVSPropertyOp36
 70
     1
102
RTVSPropertyOp37
 70
     1
102
RTVSPropertyOp38
 70
     1
102
RTVSPropertyOp39
 70
     1
102
RTVSPropertyOp40
 70
     1
102
RTVSPropertyOp41
 70
     1
102
RTVSPropertyOp42
 70
     1
102
RTVSPropertyOp43
 70
     1
102
RTVSPropertyOp44
 70
     1
102
RTVSPropertyOp45
 70
     1
102
RTVSPropertyOp46
 70
     1
102
RTVSPropertyOp47
 70
     1
102
RTVSPropertyOp48
 70
     1
102
RTVSPropertyOp49
 70
     1
102
RTVSPropertyOp50
 70
     1
102
RTVSPropertyOp51
 70
     0
102
RTVSPropertyOp52
 70
     0
102
RTVSPropertyOp53
 70
     1
102
RTVSPropertyOp54
 70
     1
102
RTVSPropertyOp55
 70
     1
102
RTVSPropertyOp56
 70
     1
102
RTVSPropertyOp57
 70
     1
102
RTVSPost2010Prop28
280
     0
102
RTVSPost2010PropOp28
 70
     1
102
RTVSPost2010Prop29
280
     1
102
RTVSPost2010PropOp29
 70
     1
102
RTVSPost2010Prop30
280
     1
102
RTVSPost2010PropOp30
 70
     1
102
RTVSPost2010Prop31
280
     0
102
RTVSPost2010PropOp31
 70
     1
102
RTVSPost2010Prop32
280
     0
102
RTVSPost2010PropOp32
 70
     1
102
RTVSPost2010Prop33
280
     0
102
RTVSPost2010PropOp33
 70
     1
102
RTVSPost2010Prop34
280
     0
102
RTVSPost2010PropOp34
 70
     1
102
RTVSPost2010Prop35
280
     0
102
RTVSPost2010PropOp35
 70
     1
102
RTVSPost2010Prop36
280
     0
102
RTVSPost2010PropOp36
 70
     1
102
RTVSPost2010Prop37
 90
       50
102
RTVSPost2010PropOp37
 70
     1
102
RTVSPost2010Prop38
140
0.0
102
RTVSPost2010PropOp38
 70
     1
102
RTVSPost2010Prop39
140
1.0
102
RTVSPost2010PropOp39
 70
     1
102
RTVSPost2010Prop40
 90
        0
102
RTVSPost2010PropOp40
 70
     1
102
RTVSPost2010Prop41ColorIndex
 90
       18
102
RTVSPost2010Prop41ColorRGB
 90
        0
102
RTVSPost2010PropOp41
 70
     1
102
RTVSPost2010Prop42
 90
       50
102
RTVSPost2010PropOp42
 70
     1
102
RTVSPost2010Prop43
 90
        3
102
RTVSPost2010PropOp43
 70
     1
102
RTVSPost2010Prop44ColorIndex
 90
        5
102
RTVSPost2010Prop44ColorRGB
 90
      255
102
RTVSPost2010PropOp44
 70
     1
102
RTVSPost2010Prop45
280
     0
102
RTVSPost2010PropOp45
 70
     1
102
RTVSPost2010Prop46
 90
       50
102
RTVSPost2010PropOp46
 70
     1
102
RTVSPost2010Prop47
 90
       50
102
RTVSPost2010PropOp47
 70
     1
102
RTVSPost2010Prop48
 90
       50
102
RTVSPost2010PropOp48
 70
     1
102
RTVSPost2010Prop49
280
     0
102
RTVSPost2010PropOp49
 70
     1
102
RTVSPost2010Prop50
 90
       50
102
RTVSPost2010PropOp50
 70
     1
102
RTVSPost2010Prop51ColorIndex
 90
      256
102
RTVSPost2010Prop51ColorRGB
 90
-16777216
102
RTVSPost2010PropOp51
 70
     0
102
RTVSPost2010Prop52
140
1.0
102
RTVSPost2010PropOp52
 70
     0
102
RTVSPost2010Prop53
 90
        2
102
RTVSPost2010PropOp53
 70
     1
102
RTVSPost2010Prop54
  1
strokes_ogs.tif
102
RTVSPost2010PropOp54
 70
     1
102
RTVSPost2010Prop55
280
     0
102
RTVSPost2010PropOp55
 70
     1
102
RTVSPost2010Prop56
140
1.0
102
RTVSPost2010PropOp56
 70
     1
102
RTVSPost2010Prop57
140
1.0
102
RTVSPost2010PropOp57
 70
     1
  0
XRECORD
  5
31A
102
{ACAD_REACTORS
330
319
102
}
330
319
100
AcDbXrecord
280
     1
102
RTVSPropertyOp0
 70
     1
102
RTVSPropertyOp1
 70
     1
102
RTVSPropertyOp2
 70
     1
102
RTVSPropertyOp3
 70
     1
102
RTVSPropertyOp4
 70
     1
102
RTVSPropertyOp5
 70
     1
102
RTVSPropertyOp6
 70
     1
102
RTVSPropertyOp7
 70
     1
102
RTVSPropertyOp8
 70
     1
102
RTVSPropertyOp9
 70
     1
102
RTVSPropertyOp10
 70
     1
102
RTVSPropertyOp11
 70
     1
102
RTVSPropertyOp12
 70
     1
102
RTVSPropertyOp13
 70
     1
102
RTVSPropertyOp14
 70
     1
102
RTVSPropertyOp15
 70
     1
102
RTVSPropertyOp16
 70
     1
102
RTVSPropertyOp17
 70
     1
102
RTVSPropertyOp18
 70
     1
102
RTVSPropertyOp19
 70
     1
102
RTVSPropertyOp20
 70
     1
102
RTVSPropertyOp21
 70
     1
102
RTVSPropertyOp22
 70
     1
102
RTVSPropertyOp23
 70
     1
102
RTVSPropertyOp24
 70
     1
102
RTVSPropertyOp25
 70
     1
102
RTVSPropertyOp26
 70
     1
102
RTVSPropertyOp27
 70
     1
102
RTVSPropertyOp28
 70
     1
102
RTVSPropertyOp29
 70
     1
102
RTVSPropertyOp30
 70
     1
102
RTVSPropertyOp31
 70
     1
102
RTVSPropertyOp32
 70
     1
102
RTVSPropertyOp33
 70
     1
102
RTVSPropertyOp34
 70
     1
102
RTVSPropertyOp35
 70
     1
102
RTVSPropertyOp36
 70
     1
102
RTVSPropertyOp37
 70
     1
102
RTVSPropertyOp38
 70
     1
102
RTVSPropertyOp39
 70
     1
102
RTVSPropertyOp40
 70
     1
102
RTVSPropertyOp41
 70
     1
102
RTVSPropertyOp42
 70
     1
102
RTVSPropertyOp43
 70
     1
102
RTVSPropertyOp44
 70
     1
102
RTVSPropertyOp45
 70
     1
102
RTVSPropertyOp46
 70
     1
102
RTVSPropertyOp47
 70
     1
102
RTVSPropertyOp48
 70
     1
102
RTVSPropertyOp49
 70
     1
102
RTVSPropertyOp50
 70
     1
102
RTVSPropertyOp51
 70
     0
102
RTVSPropertyOp52
 70
     0
102
RTVSPropertyOp53
 70
     1
102
RTVSPropertyOp54
 70
     1
102
RTVSPropertyOp55
 70
     1
102
RTVSPropertyOp56
 70
     1
102
RTVSPropertyOp57
 70
     1
102
RTVSPost2010Prop28
280
     0
102
RTVSPost2010PropOp28
 70
     1
102
RTVSPost2010Prop29
280
     1
102
RTVSPost2010PropOp29
 70
     1
102
RTVSPost2010Prop30
280
     1
102
RTVSPost2010PropOp30
 70
     1
102
RTVSPost2010Prop31
280
     0
102
RTVSPost2010PropOp31
 70
     1
102
RTVSPost2010Prop32
280
     0
102
RTVSPost2010PropOp32
 70
     1
102
RTVSPost2010Prop33
280
     0
102
RTVSPost2010PropOp33
 70
     1
102
RTVSPost2010Prop34
280
     0
102
RTVSPost2010PropOp34
 70
     1
102
RTVSPost2010Prop35
280
     0
102
RTVSPost2010PropOp35
 70
     1
102
RTVSPost2010Prop36
280
     0
102
RTVSPost2010PropOp36
 70
     1
102
RTVSPost2010Prop37
 90
       50
102
RTVSPost2010PropOp37
 70
     1
102
RTVSPost2010Prop38
140
0.0
102
RTVSPost2010PropOp38
 70
     1
102
RTVSPost2010Prop39
140
1.0
102
RTVSPost2010PropOp39
 70
     1
102
RTVSPost2010Prop40
 90
        0
102
RTVSPost2010PropOp40
 70
     1
102
RTVSPost2010Prop41ColorIndex
 90
       18
102
RTVSPost2010Prop41ColorRGB
 90
        0
102
RTVSPost2010PropOp41
 70
     1
102
RTVSPost2010Prop42
 90
       50
102
RTVSPost2010PropOp42
 70
     1
102
RTVSPost2010Prop43
 90
        3
102
RTVSPost2010PropOp43
 70
     1
102
RTVSPost2010Prop44ColorIndex
 90
        5
102
RTVSPost2010Prop44ColorRGB
 90
      255
102
RTVSPost2010PropOp44
 70
     1
102
RTVSPost2010Prop45
280
     0
102
RTVSPost2010PropOp45
 70
     1
102
RTVSPost2010Prop46
 90
       50
102
RTVSPost2010PropOp46
 70
     1
102
RTVSPost2010Prop47
 90
       50
102
RTVSPost2010PropOp47
 70
     1
102
RTVSPost2010Prop48
 90
       50
102
RTVSPost2010PropOp48
 70
     1
102
RTVSPost2010Prop49
280
     0
102
RTVSPost2010PropOp49
 70
     1
102
RTVSPost2010Prop50
 90
       50
102
RTVSPost2010PropOp50
 70
     1
102
RTVSPost2010Prop51ColorIndex
 90
      256
102
RTVSPost2010Prop51ColorRGB
 90
-16777216
102
RTVSPost2010PropOp51
 70
     0
102
RTVSPost2010Prop52
140
1.0
102
RTVSPost2010PropOp52
 70
     0
102
RTVSPost2010Prop53
 90
        2
102
RTVSPost2010PropOp53
 70
     1
102
RTVSPost2010Prop54
  1
strokes_ogs.tif
102
RTVSPost2010PropOp54
 70
     1
102
RTVSPost2010Prop55
280
     0
102
RTVSPost2010PropOp55
 70
     1
102
RTVSPost2010Prop56
140
1.0
102
RTVSPost2010PropOp56
 70
     1
102
RTVSPost2010Prop57
140
1.0
102
RTVSPost2010PropOp57
 70
     1
  0
XRECORD
  5
30C
102
{ACAD_REACTORS
330
30B
102
}
330
30B
100
AcDbXrecord
280
     1
102
RTVSPropertyOp0
 70
     1
102
RTVSPropertyOp1
 70
     1
102
RTVSPropertyOp2
 70
     1
102
RTVSPropertyOp3
 70
     1
102
RTVSPropertyOp4
 70
     1
102
RTVSPropertyOp5
 70
     1
102
RTVSPropertyOp6
 70
     1
102
RTVSPropertyOp7
 70
     1
102
RTVSPropertyOp8
 70
     1
102
RTVSPropertyOp9
 70
     1
102
RTVSPropertyOp10
 70
     1
102
RTVSPropertyOp11
 70
     1
102
RTVSPropertyOp12
 70
     1
102
RTVSPropertyOp13
 70
     1
102
RTVSPropertyOp14
 70
     1
102
RTVSPropertyOp15
 70
     1
102
RTVSPropertyOp16
 70
     1
102
RTVSPropertyOp17
 70
     1
102
RTVSPropertyOp18
 70
     1
102
RTVSPropertyOp19
 70
     1
102
RTVSPropertyOp20
 70
     1
102
RTVSPropertyOp21
 70
     1
102
RTVSPropertyOp22
 70
     1
102
RTVSPropertyOp23
 70
     1
102
RTVSPropertyOp24
 70
     1
102
RTVSPropertyOp25
 70
     1
102
RTVSPropertyOp26
 70
     1
102
RTVSPropertyOp27
 70
     1
102
RTVSPropertyOp28
 70
     1
102
RTVSPropertyOp29
 70
     1
102
RTVSPropertyOp30
 70
     1
102
RTVSPropertyOp31
 70
     1
102
RTVSPropertyOp32
 70
     1
102
RTVSPropertyOp33
 70
     1
102
RTVSPropertyOp34
 70
     1
102
RTVSPropertyOp35
 70
     1
102
RTVSPropertyOp36
 70
     1
102
RTVSPropertyOp37
 70
     1
102
RTVSPropertyOp38
 70
     1
102
RTVSPropertyOp39
 70
     1
102
RTVSPropertyOp40
 70
     1
102
RTVSPropertyOp41
 70
     1
102
RTVSPropertyOp42
 70
     1
102
RTVSPropertyOp43
 70
     1
102
RTVSPropertyOp44
 70
     1
102
RTVSPropertyOp45
 70
     1
102
RTVSPropertyOp46
 70
     1
102
RTVSPropertyOp47
 70
     1
102
RTVSPropertyOp48
 70
     1
102
RTVSPropertyOp49
 70
     1
102
RTVSPropertyOp50
 70
     1
102
RTVSPropertyOp51
 70
     0
102
RTVSPropertyOp52
 70
     0
102
RTVSPropertyOp53
 70
     1
102
RTVSPropertyOp54
 70
     1
102
RTVSPropertyOp55
 70
     1
102
RTVSPropertyOp56
 70
     1
102
RTVSPropertyOp57
 70
     1
102
RTVSPost2010Prop28
280
     0
102
RTVSPost2010PropOp28
 70
     1
102
RTVSPost2010Prop29
280
     1
102
RTVSPost2010PropOp29
 70
     1
102
RTVSPost2010Prop30
280
     1
102
RTVSPost2010PropOp30
 70
     1
102
RTVSPost2010Prop31
280
     0
102
RTVSPost2010PropOp31
 70
     1
102
RTVSPost2010Prop32
280
     0
102
RTVSPost2010PropOp32
 70
     1
102
RTVSPost2010Prop33
280
     0
102
RTVSPost2010PropOp33
 70
     1
102
RTVSPost2010Prop34
280
     0
102
RTVSPost2010PropOp34
 70
     1
102
RTVSPost2010Prop35
280
     0
102
RTVSPost2010PropOp35
 70
     1
102
RTVSPost2010Prop36
280
     0
102
RTVSPost2010PropOp36
 70
     1
102
RTVSPost2010Prop37
 90
       50
102
RTVSPost2010PropOp37
 70
     1
102
RTVSPost2010Prop38
140
0.0
102
RTVSPost2010PropOp38
 70
     1
102
RTVSPost2010Prop39
140
1.0
102
RTVSPost2010PropOp39
 70
     1
102
RTVSPost2010Prop40
 90
        0
102
RTVSPost2010PropOp40
 70
     1
102
RTVSPost2010Prop41ColorIndex
 90
       18
102
RTVSPost2010Prop41ColorRGB
 90
        0
102
RTVSPost2010PropOp41
 70
     1
102
RTVSPost2010Prop42
 90
       50
102
RTVSPost2010PropOp42
 70
     1
102
RTVSPost2010Prop43
 90
        3
102
RTVSPost2010PropOp43
 70
     1
102
RTVSPost2010Prop44ColorIndex
 90
        5
102
RTVSPost2010Prop44ColorRGB
 90
      255
102
RTVSPost2010PropOp44
 70
     1
102
RTVSPost2010Prop45
280
     0
102
RTVSPost2010PropOp45
 70
     1
102
RTVSPost2010Prop46
 90
       50
102
RTVSPost2010PropOp46
 70
     1
102
RTVSPost2010Prop47
 90
       50
102
RTVSPost2010PropOp47
 70
     1
102
RTVSPost2010Prop48
 90
       50
102
RTVSPost2010PropOp48
 70
     1
102
RTVSPost2010Prop49
280
     0
102
RTVSPost2010PropOp49
 70
     1
102
RTVSPost2010Prop50
 90
       50
102
RTVSPost2010PropOp50
 70
     1
102
RTVSPost2010Prop51ColorIndex
 90
      256
102
RTVSPost2010Prop51ColorRGB
 90
-16777216
102
RTVSPost2010PropOp51
 70
     0
102
RTVSPost2010Prop52
140
1.0
102
RTVSPost2010PropOp52
 70
     0
102
RTVSPost2010Prop53
 90
        2
102
RTVSPost2010PropOp53
 70
     1
102
RTVSPost2010Prop54
  1
strokes_ogs.tif
102
RTVSPost2010PropOp54
 70
     1
102
RTVSPost2010Prop55
280
     0
102
RTVSPost2010PropOp55
 70
     1
102
RTVSPost2010Prop56
140
1.0
102
RTVSPost2010PropOp56
 70
     1
102
RTVSPost2010Prop57
140
1.0
102
RTVSPost2010PropOp57
 70
     1
  0
XRECORD
  5
32C
102
{ACAD_REACTORS
330
32B
102
}
330
32B
100
AcDbXrecord
280
     1
102
RTVSPropertyOp0
 70
     1
102
RTVSPropertyOp1
 70
     1
102
RTVSPropertyOp2
 70
     1
102
RTVSPropertyOp3
 70
     1
102
RTVSPropertyOp4
 70
     1
102
RTVSPropertyOp5
 70
     1
102
RTVSPropertyOp6
 70
     1
102
RTVSPropertyOp7
 70
     1
102
RTVSPropertyOp8
 70
     1
102
RTVSPropertyOp9
 70
     1
102
RTVSPropertyOp10
 70
     1
102
RTVSPropertyOp11
 70
     1
102
RTVSPropertyOp12
 70
     1
102
RTVSPropertyOp13
 70
     1
102
RTVSPropertyOp14
 70
     1
102
RTVSPropertyOp15
 70
     1
102
RTVSPropertyOp16
 70
     1
102
RTVSPropertyOp17
 70
     1
102
RTVSPropertyOp18
 70
     1
102
RTVSPropertyOp19
 70
     1
102
RTVSPropertyOp20
 70
     1
102
RTVSPropertyOp21
 70
     1
102
RTVSPropertyOp22
 70
     1
102
RTVSPropertyOp23
 70
     1
102
RTVSPropertyOp24
 70
     1
102
RTVSPropertyOp25
 70
     1
102
RTVSPropertyOp26
 70
     1
102
RTVSPropertyOp27
 70
     1
102
RTVSPropertyOp28
 70
     1
102
RTVSPropertyOp29
 70
     1
102
RTVSPropertyOp30
 70
     1
102
RTVSPropertyOp31
 70
     1
102
RTVSPropertyOp32
 70
     1
102
RTVSPropertyOp33
 70
     1
102
RTVSPropertyOp34
 70
     1
102
RTVSPropertyOp35
 70
     1
102
RTVSPropertyOp36
 70
     1
102
RTVSPropertyOp37
 70
     1
102
RTVSPropertyOp38
 70
     1
102
RTVSPropertyOp39
 70
     1
102
RTVSPropertyOp40
 70
     1
102
RTVSPropertyOp41
 70
     1
102
RTVSPropertyOp42
 70
     1
102
RTVSPropertyOp43
 70
     1
102
RTVSPropertyOp44
 70
     1
102
RTVSPropertyOp45
 70
     1
102
RTVSPropertyOp46
 70
     1
102
RTVSPropertyOp47
 70
     1
102
RTVSPropertyOp48
 70
     1
102
RTVSPropertyOp49
 70
     1
102
RTVSPropertyOp50
 70
     1
102
RTVSPropertyOp51
 70
     0
102
RTVSPropertyOp52
 70
     0
102
RTVSPropertyOp53
 70
     1
102
RTVSPropertyOp54
 70
     1
102
RTVSPropertyOp55
 70
     1
102
RTVSPropertyOp56
 70
     1
102
RTVSPropertyOp57
 70
     1
102
RTVSPost2010Prop28
280
     0
102
RTVSPost2010PropOp28
 70
     1
102
RTVSPost2010Prop29
280
     1
102
RTVSPost2010PropOp29
 70
     1
102
RTVSPost2010Prop30
280
     1
102
RTVSPost2010PropOp30
 70
     1
102
RTVSPost2010Prop31
280
     0
102
RTVSPost2010PropOp31
 70
     1
102
RTVSPost2010Prop32
280
     0
102
RTVSPost2010PropOp32
 70
     1
102
RTVSPost2010Prop33
280
     0
102
RTVSPost2010PropOp33
 70
     1
102
RTVSPost2010Prop34
280
     0
102
RTVSPost2010PropOp34
 70
     1
102
RTVSPost2010Prop35
280
     0
102
RTVSPost2010PropOp35
 70
     1
102
RTVSPost2010Prop36
280
     0
102
RTVSPost2010PropOp36
 70
     1
102
RTVSPost2010Prop37
 90
       50
102
RTVSPost2010PropOp37
 70
     1
102
RTVSPost2010Prop38
140
0.0
102
RTVSPost2010PropOp38
 70
     1
102
RTVSPost2010Prop39
140
1.0
102
RTVSPost2010PropOp39
 70
     1
102
RTVSPost2010Prop40
 90
        0
102
RTVSPost2010PropOp40
 70
     1
102
RTVSPost2010Prop41ColorIndex
 90
       18
102
RTVSPost2010Prop41ColorRGB
 90
        0
102
RTVSPost2010PropOp41
 70
     1
102
RTVSPost2010Prop42
 90
       50
102
RTVSPost2010PropOp42
 70
     1
102
RTVSPost2010Prop43
 90
        3
102
RTVSPost2010PropOp43
 70
     1
102
RTVSPost2010Prop44ColorIndex
 90
        5
102
RTVSPost2010Prop44ColorRGB
 90
      255
102
RTVSPost2010PropOp44
 70
     1
102
RTVSPost2010Prop45
280
     0
102
RTVSPost2010PropOp45
 70
     1
102
RTVSPost2010Prop46
 90
       50
102
RTVSPost2010PropOp46
 70
     1
102
RTVSPost2010Prop47
 90
       50
102
RTVSPost2010PropOp47
 70
     1
102
RTVSPost2010Prop48
 90
       50
102
RTVSPost2010PropOp48
 70
     1
102
RTVSPost2010Prop49
280
     0
102
RTVSPost2010PropOp49
 70
     1
102
RTVSPost2010Prop50
 90
       50
102
RTVSPost2010PropOp50
 70
     1
102
RTVSPost2010Prop51ColorIndex
 90
      256
102
RTVSPost2010Prop51ColorRGB
 90
-16777216
102
RTVSPost2010PropOp51
 70
     0
102
RTVSPost2010Prop52
140
1.0
102
RTVSPost2010PropOp52
 70
     0
102
RTVSPost2010Prop53
 90
        2
102
RTVSPost2010PropOp53
 70
     1
102
RTVSPost2010Prop54
  1
strokes_ogs.tif
102
RTVSPost2010PropOp54
 70
     1
102
RTVSPost2010Prop55
280
     0
102
RTVSPost2010PropOp55
 70
     1
102
RTVSPost2010Prop56
140
1.0
102
RTVSPost2010PropOp56
 70
     1
102
RTVSPost2010Prop57
140
1.0
102
RTVSPost2010PropOp57
 70
     1
  0
ENDSEC
  0
EOF
