  0
SECTION
  2
HEADER
  9
$ACADVER
  1
AC1018
  9
$ACADMAINTVER
 70
     0
  9
$DWGCODEPAGE
  3
ANSI_1252
  9
$INSBASE
 10
0.0
 20
0.0
 30
0.0
  9
$EXTMIN
 10
-1199.756892714511
 20
-1188.293627495169
 30
0.0
  9
$EXTMAX
 10
-779.7568927145121
 20
-891.2936274951685
 30
0.0
  9
$LIMMIN
 10
0.0
 20
0.0
  9
$LIMMAX
 10
12.0
 20
9.0
  9
$ORTHOMODE
 70
     0
  9
$REGENMODE
 70
     1
  9
$FILLMODE
 70
     1
  9
$QTEXTMODE
 70
     0
  9
$MIRRTEXT
 70
     1
  9
$LTSCALE
 40
1.0
  9
$ATTMODE
 70
     1
  9
$TEXTSIZE
 40
0.2
  9
$TRACEWID
 40
0.05
  9
$TEXTSTYLE
  7
Standard
  9
$CLAYER
  8
0
  9
$CELTYPE
  6
ByLayer
  9
$CECOLOR
 62
   256
  9
$CELTSCALE
 40
1.0
  9
$DISPSILH
 70
     0
  9
$DIMSCALE
 40
1.0
  9
$DIMASZ
 40
0.18
  9
$DIMEXO
 40
0.0625
  9
$DIMDLI
 40
0.38
  9
$DIMRND
 40
0.0
  9
$DIMDLE
 40
0.0
  9
$DIMEXE
 40
0.18
  9
$DIMTP
 40
0.0
  9
$DIMTM
 40
0.0
  9
$DIMTXT
 40
0.18
  9
$DIMCEN
 40
0.09
  9
$DIMTSZ
 40
0.0
  9
$DIMTOL
 70
     0
  9
$DIMLIM
 70
     0
  9
$DIMTIH
 70
     1
  9
$DIMTOH
 70
     1
  9
$DIMSE1
 70
     0
  9
$DIMSE2
 70
     0
  9
$DIMTAD
 70
     0
  9
$DIMZIN
 70
     0
  9
$DIMBLK
  1

  9
$DIMASO
 70
     1
  9
$DIMSHO
 70
     1
  9
$DIMPOST
  1

  9
$DIMAPOST
  1

  9
$DIMALT
 70
     0
  9
$DIMALTD
 70
     2
  9
$DIMALTF
 40
25.4
  9
$DIMLFAC
 40
1.0
  9
$DIMTOFL
 70
     0
  9
$DIMTVP
 40
0.0
  9
$DIMTIX
 70
     0
  9
$DIMSOXD
 70
     0
  9
$DIMSAH
 70
     0
  9
$DIMBLK1
  1

  9
$DIMBLK2
  1

  9
$DIMSTYLE
  2
Standard
  9
$DIMCLRD
 70
     0
  9
$DIMCLRE
 70
     0
  9
$DIMCLRT
 70
     0
  9
$DIMTFAC
 40
1.0
  9
$DIMGAP
 40
0.09
  9
$DIMJUST
 70
     0
  9
$DIMSD1
 70
     0
  9
$DIMSD2
 70
     0
  9
$DIMTOLJ
 70
     1
  9
$DIMTZIN
 70
     0
  9
$DIMALTZ
 70
     0
  9
$DIMALTTZ
 70
     0
  9
$DIMUPT
 70
     0
  9
$DIMDEC
 70
     4
  9
$DIMTDEC
 70
     4
  9
$DIMALTU
 70
     2
  9
$DIMALTTD
 70
     2
  9
$DIMTXSTY
  7
Standard
  9
$DIMAUNIT
 70
     0
  9
$DIMADEC
 70
     0
  9
$DIMALTRND
 40
0.0
  9
$DIMAZIN
 70
     0
  9
$DIMDSEP
 70
    46
  9
$DIMATFIT
 70
     3
  9
$DIMFRAC
 70
     0
  9
$DIMLDRBLK
  1

  9
$DIMLUNIT
 70
     2
  9
$DIMLWD
 70
    -2
  9
$DIMLWE
 70
    -2
  9
$DIMTMOVE
 70
     0
  9
$LUNITS
 70
     2
  9
$LUPREC
 70
     4
  9
$SKETCHINC
 40
0.1
  9
$FILLETRAD
 40
0.5
  9
$AUNITS
 70
     0
  9
$AUPREC
 70
     0
  9
$MENU
  1
.
  9
$ELEVATION
 40
0.0
  9
$PELEVATION
 40
0.0
  9
$THICKNESS
 40
0.0
  9
$LIMCHECK
 70
     0
  9
$CHAMFERA
 40
0.0
  9
$CHAMFERB
 40
0.0
  9
$CHAMFERC
 40
0.0
  9
$CHAMFERD
 40
0.0
  9
$SKPOLY
 70
     0
  9
$TDCREATE
 40
2459306.464010243
  9
$TDUCREATE
 40
2459306.38067691
  9
$TDUPDATE
 40
2459306.464010428
  9
$TDUUPDATE
 40
2459306.380677095
  9
$TDINDWG
 40
0.0000000116
  9
$TDUSRTIMER
 40
0.0000000116
  9
$USRTIMER
 70
     1
  9
$ANGBASE
 50
0.0
  9
$ANGDIR
 70
     0
  9
$PDMODE
 70
     0
  9
$PDSIZE
 40
0.0
  9
$PLINEWID
 40
0.0
  9
$SPLFRAME
 70
     0
  9
$SPLINETYPE
 70
     6
  9
$SPLINESEGS
 70
     8
  9
$HANDSEED
  5
342
  9
$SURFTAB1
 70
     6
  9
$SURFTAB2
 70
     6
  9
$SURFTYPE
 70
     6
  9
$SURFU
 70
     6
  9
$SURFV
 70
     6
  9
$UCSBASE
  2

  9
$UCSNAME
  2

  9
$UCSORG
 10
0.0
 20
0.0
 30
0.0
  9
$UCSXDIR
 10
1.0
 20
0.0
 30
0.0
  9
$UCSYDIR
 10
0.0
 20
1.0
 30
0.0
  9
$UCSORTHOREF
  2

  9
$UCSORTHOVIEW
 70
     0
  9
$UCSORGTOP
 10
0.0
 20
0.0
 30
0.0
  9
$UCSORGBOTTOM
 10
0.0
 20
0.0
 30
0.0
  9
$UCSORGLEFT
 10
0.0
 20
0.0
 30
0.0
  9
$UCSORGRIGHT
 10
0.0
 20
0.0
 30
0.0
  9
$UCSORGFRONT
 10
0.0
 20
0.0
 30
0.0
  9
$UCSORGBACK
 10
0.0
 20
0.0
 30
0.0
  9
$PUCSBASE
  2

  9
$PUCSNAME
  2

  9
$PUCSORG
 10
0.0
 20
0.0
 30
0.0
  9
$PUCSXDIR
 10
1.0
 20
0.0
 30
0.0
  9
$PUCSYDIR
 10
0.0
 20
1.0
 30
0.0
  9
$PUCSORTHOREF
  2

  9
$PUCSORTHOVIEW
 70
     0
  9
$PUCSORGTOP
 10
0.0
 20
0.0
 30
0.0
  9
$PUCSORGBOTTOM
 10
0.0
 20
0.0
 30
0.0
  9
$PUCSORGLEFT
 10
0.0
 20
0.0
 30
0.0
  9
$PUCSORGRIGHT
 10
0.0
 20
0.0
 30
0.0
  9
$PUCSORGFRONT
 10
0.0
 20
0.0
 30
0.0
  9
$PUCSORGBACK
 10
0.0
 20
0.0
 30
0.0
  9
$USERI1
 70
     0
  9
$USERI2
 70
     0
  9
$USERI3
 70
     0
  9
$USERI4
 70
     0
  9
$USERI5
 70
     0
  9
$USERR1
 40
20.1
  9
$USERR2
 40
0.0
  9
$USERR3
 40
0.0
  9
$USERR4
 40
0.0
  9
$USERR5
 40
0.0
  9
$WORLDVIEW
 70
     1
  9
$SHADEDGE
 70
     3
  9
$SHADEDIF
 70
    70
  9
$TILEMODE
 70
     1
  9
$MAXACTVP
 70
    64
  9
$PINSBASE
 10
0.0
 20
0.0
 30
0.0
  9
$PLIMCHECK
 70
     0
  9
$PEXTMIN
 10
1.00000000000000E+20
 20
1.00000000000000E+20
 30
1.00000000000000E+20
  9
$PEXTMAX
 10
-1.00000000000000E+20
 20
-1.00000000000000E+20
 30
-1.00000000000000E+20
  9
$PLIMMIN
 10
0.0
 20
0.0
  9
$PLIMMAX
 10
12.0
 20
9.0
  9
$UNITMODE
 70
     0
  9
$VISRETAIN
 70
     1
  9
$PLINEGEN
 70
     0
  9
$PSLTSCALE
 70
     1
  9
$TREEDEPTH
 70
  3020
  9
$CMLSTYLE
  2
Standard
  9
$CMLJUST
 70
     0
  9
$CMLSCALE
 40
1.0
  9
$PROXYGRAPHICS
 70
     1
  9
$MEASUREMENT
 70
     1
  9
$CELWEIGHT
370
    -1
  9
$ENDCAPS
280
     0
  9
$JOINSTYLE
280
     0
  9
$LWDISPLAY
290
     0
  9
$INSUNITS
 70
     4
  9
$HYPERLINKBASE
  1

  9
$STYLESHEET
  1

  9
$XEDIT
290
     1
  9
$CEPSNTYPE
380
     0
  9
$PSTYLEMODE
290
     1
  9
$FINGERPRINTGUID
  2
{34d14341-60b1-4bb8-a4da-4aba798bcd9d}
  9
$VERSIONGUID
  2
{FAEB1C32-E019-11D5-929B-00C0DF256EC4}
  9
$EXTNAMES
290
     1
  9
$PSVPSCALE
 40
0.0
  9
$OLESTARTUP
290
     0
  9
$SORTENTS
280
   127
  9
$INDEXCTL
280
     0
  9
$HIDETEXT
280
     1
  9
$XCLIPFRAME
290
     0
  9
$HALOGAP
280
     0
  9
$OBSCOLOR
 70
   257
  9
$OBSLTYPE
280
     0
  9
$INTERSECTIONDISPLAY
280
     0
  9
$INTERSECTIONCOLOR
 70
   257
  9
$DIMASSOC
280
     2
  9
$PROJECTNAME
  1

  0
ENDSEC
  0
SECTION
  2
CLASSES
  0
CLASS
  1
ACDBDICTIONARYWDFLT
  2
AcDbDictionaryWithDefault
  3
ObjectDBX Classes
 90
        0
 91
        3
280
     0
281
     0
  0
CLASS
  1
VISUALSTYLE
  2
AcDbVisualStyle
  3
ObjectDBX Classes
 90
     4095
 91
        3
280
     0
281
     0
  0
CLASS
  1
MATERIAL
  2
AcDbMaterial
  3
ObjectDBX Classes
 90
     1153
 91
        3
280
     0
281
     0
  0
CLASS
  1
SCALE
  2
AcDbScale
  3
ObjectDBX Classes
 90
     1153
 91
        3
280
     0
281
     0
  0
CLASS
  1
TABLESTYLE
  2
AcDbTableStyle
  3
ObjectDBX Classes
 90
     4095
 91
        3
280
     0
281
     0
  0
CLASS
  1
MLEADERSTYLE
  2
AcDbMLeaderStyle
  3
ACDB_MLEADERSTYLE_CLASS
 90
     4095
 91
        3
280
     0
281
     0
  0
CLASS
  1
SUN
  2
AcDbSun
  3
SCENEOE
 90
     1153
 91
        3
280
     0
281
     0
  0
CLASS
  1
DICTIONARYVAR
  2
AcDbDictionaryVar
  3
ObjectDBX Classes
 90
        0
 91
        3
280
     0
281
     0
  0
CLASS
  1
CELLSTYLEMAP
  2
AcDbCellStyleMap
  3
ObjectDBX Classes
 90
     1152
 91
        3
280
     0
281
     0
  0
ENDSEC
  0
SECTION
  2
TABLES
  0
TABLE
  2
VPORT
  5
8
102
{ACAD_XDICTIONARY
360
2FB
102
}
330
0
100
AcDbSymbolTable
 70
     1
  0
VPORT
  5
29
330
8
100
AcDbSymbolTableRecord
100
AcDbViewportTableRecord
  2
*Active
 70
     0
 10
0.0
 20
0.0
 11
1.0
 21
1.0
 12
-989.7568927145115
 22
-1039.793627495169
 13
0.0
 23
0.0
 14
0.5
 24
0.5
 15
0.5
 25
0.5
 16
0.0
 26
0.0
 36
1.0
 17
0.0
 27
0.0
 37
0.0
 40
326.7000000000005
 41
1.60267857142857
 42
50.0
 43
0.0
 44
0.0
 50
0.0
 51
0.0
 71
     0
 72
   100
 73
     1
 74
     3
 75
     0
 76
     0
 77
     0
 78
     0
281
     0
 65
     1
110
0.0
120
0.0
130
0.0
111
1.0
121
0.0
131
0.0
112
0.0
122
1.0
132
0.0
 79
     0
146
0.0
  0
ENDTAB
  0
TABLE
  2
LTYPE
  5
5
330
0
100
AcDbSymbolTable
 70
     8
  0
LTYPE
  5
14
330
5
100
AcDbSymbolTableRecord
100
AcDbLinetypeTableRecord
  2
ByBlock
 70
     0
  3

 72
    65
 73
     0
 40
0.0
  0
LTYPE
  5
15
330
5
100
AcDbSymbolTableRecord
100
AcDbLinetypeTableRecord
  2
ByLayer
 70
     0
  3

 72
    65
 73
     0
 40
0.0
  0
LTYPE
  5
16
330
5
100
AcDbSymbolTableRecord
100
AcDbLinetypeTableRecord
  2
Continuous
 70
     0
  3
Solid line
 72
    65
 73
     0
 40
0.0
  0
LTYPE
  5
6E
330
5
100
AcDbSymbolTableRecord
100
AcDbLinetypeTableRecord
  2
DASHED
 70
     0
  3
Dashed
 72
    65
 73
     2
 40
15.0
 49
7.0
 74
     0
 49
-8.0
 74
     0
  0
LTYPE
  5
6F
330
5
100
AcDbSymbolTableRecord
100
AcDbLinetypeTableRecord
  2
DOTTED
 70
     0
  3
Dotted
 72
    65
 73
     2
 40
1.0
 49
0.0
 74
     0
 49
-1.0
 74
     0
  0
LTYPE
  5
70
330
5
100
AcDbSymbolTableRecord
100
AcDbLinetypeTableRecord
  2
DOT_CENTER
 70
     0
  3
Dot_Center
 72
    65
 73
     4
 40
14.0
 49
12.0
 74
     0
 49
-1.0
 74
     0
 49
0.0
 74
     0
 49
-1.0
 74
     0
  0
LTYPE
  5
71
330
5
100
AcDbSymbolTableRecord
100
AcDbLinetypeTableRecord
  2
LONG_DASHED
 70
     0
  3
Long_Dashed
 72
    65
 73
     2
 40
15.0
 49
10.0
 74
     0
 49
-5.0
 74
     0
  0
LTYPE
  5
72
330
5
100
AcDbSymbolTableRecord
100
AcDbLinetypeTableRecord
  2
DASH_CENTER
 70
     0
  3
Dash_Center
 72
    65
 73
     4
 40
14.0
 49
11.0
 74
     0
 49
-1.0
 74
     0
 49
1.0
 74
     0
 49
-1.0
 74
     0
  0
LTYPE
  5
73
330
5
100
AcDbSymbolTableRecord
100
AcDbLinetypeTableRecord
  2
PHANTOM
 70
     0
  3
Phantom
 72
    65
 73
     6
 40
13.0
 49
10.0
 74
     0
 49
-1.0
 74
     0
 49
0.0
 74
     0
 49
-1.0
 74
     0
 49
0.0
 74
     0
 49
-1.0
 74
     0
  0
LTYPE
  5
74
330
5
100
AcDbSymbolTableRecord
100
AcDbLinetypeTableRecord
  2
CENTER_DASH_DASH
 70
     0
  3
Center_Dash_Dash
 72
    65
 73
     6
 40
14.0
 49
9.0
 74
     0
 49
-1.0
 74
     0
 49
1.0
 74
     0
 49
-1.0
 74
     0
 49
1.0
 74
     0
 49
-1.0
 74
     0
  0
ENDTAB
  0
TABLE
  2
LAYER
  5
2
330
0
100
AcDbSymbolTable
 70
     2
  0
LAYER
  5
10
330
2
100
AcDbSymbolTableRecord
100
AcDbLayerTableRecord
  2
0
 70
     0
 62
     7
  6
Continuous
370
    -3
390
F
  0
LAYER
  5
75
330
2
100
AcDbSymbolTableRecord
100
AcDbLayerTableRecord
  2
1
 70
     0
 62
     7
  6
Continuous
370
    -3
390
F
  0
ENDTAB
  0
TABLE
  2
STYLE
  5
3
330
0
100
AcDbSymbolTable
 70
     5
  0
STYLE
  5
11
330
3
100
AcDbSymbolTableRecord
100
AcDbTextStyleTableRecord
  2
Standard
 70
     0
 40
0.0
 41
1.0
 50
0.0
 71
     0
 42
0.2
  3
txt
  4

  0
STYLE
  5
1BD
330
3
100
AcDbSymbolTableRecord
100
AcDbTextStyleTableRecord
  2
CONVERTER_11
 70
     0
 40
0.0
 41
0.9
 50
0.0
 71
     0
 42
0.2
  3
txt.shx
  4

  0
STYLE
  5
1D0
330
3
100
AcDbSymbolTableRecord
100
AcDbTextStyleTableRecord
  2
CONVERTER_12
 70
     0
 40
0.0
 41
0.81
 50
0.0
 71
     0
 42
0.2
  3
txt.shx
  4

  0
STYLE
  5
1D6
330
3
100
AcDbSymbolTableRecord
100
AcDbTextStyleTableRecord
  2
CONVERTER_13
 70
     0
 40
0.0
 41
0.855
 50
0.0
 71
     0
 42
0.2
  3
txt.shx
  4

  0
STYLE
  5
1D9
330
3
100
AcDbSymbolTableRecord
100
AcDbTextStyleTableRecord
  2
CONVERTER_14
 70
     0
 40
0.0
 41
0.72
 50
0.0
 71
     0
 42
0.2
  3
txt.shx
  4

  0
ENDTAB
  0
TABLE
  2
VIEW
  5
6
330
0
100
AcDbSymbolTable
 70
     0
  0
ENDTAB
  0
TABLE
  2
UCS
  5
7
330
0
100
AcDbSymbolTable
 70
     0
  0
ENDTAB
  0
TABLE
  2
APPID
  5
9
330
0
100
AcDbSymbolTable
 70
     2
  0
APPID
  5
12
330
9
100
AcDbSymbolTableRecord
100
AcDbRegAppTableRecord
  2
ACAD
 70
     0
  0
APPID
  5
33A
330
9
100
AcDbSymbolTableRecord
100
AcDbRegAppTableRecord
  2
ACAD_MLEADERVER
 70
     0
  0
ENDTAB
  0
TABLE
  2
DIMSTYLE
  5
A
330
0
100
AcDbSymbolTable
 70
     4
100
AcDbDimStyleTable
  0
DIMSTYLE
105
27
330
A
100
AcDbSymbolTableRecord
100
AcDbDimStyleTableRecord
  2
Standard
 70
     0
178
     0
340
11
  0
DIMSTYLE
105
257
102
{ACAD_REACTORS
330
258
102
}
330
A
100
AcDbSymbolTableRecord
100
AcDbDimStyleTableRecord
  2
ME10_DIM_10
 70
     0
 41
1.75
 42
0.0
 44
0.75
 73
     0
 74
     0
 77
     1
 78
     8
140
1.75
147
0.75
172
     1
173
     1
174
     1
175
     1
176
     2
177
     2
178
     3
340
1BD
  0
DIMSTYLE
105
2EE
102
{ACAD_REACTORS
330
2EF
102
}
330
A
100
AcDbSymbolTableRecord
100
AcDbDimStyleTableRecord
  2
ME10_DIM_11
 70
     0
 41
1.75
 42
0.0
 44
1.0
 73
     0
 74
     0
 77
     1
 78
     8
140
1.75
147
1.0
172
     1
173
     1
174
     1
175
     1
176
     2
177
     2
178
     3
340
1BD
  0
DIMSTYLE
105
2F9
102
{ACAD_REACTORS
330
2FA
102
}
330
A
100
AcDbSymbolTableRecord
100
AcDbDimStyleTableRecord
  2
ME10_DIM_12
 70
     0
 41
1.75
 42
0.0
 44
1.0
 73
     0
 74
     0
 77
     1
 78
     8
140
1.75
147
1.0
172
     1
173
     1
174
     1
175
     1
176
     2
177
     2
178
     3
340
1BD
  0
ENDTAB
  0
TABLE
  2
BLOCK_RECORD
  5
1
330
0
100
AcDbSymbolTable
 70
    20
  0
BLOCK_RECORD
  5
1F
330
1
100
AcDbSymbolTableRecord
100
AcDbBlockTableRecord
  2
*Model_Space
340
22
  0
BLOCK_RECORD
  5
1B
330
1
100
AcDbSymbolTableRecord
100
AcDbBlockTableRecord
  2
*Paper_Space
340
1E
  0
BLOCK_RECORD
  5
23
330
1
100
AcDbSymbolTableRecord
100
AcDbBlockTableRecord
  2
*Paper_Space0
340
26
  0
BLOCK_RECORD
  5
76
330
1
100
AcDbSymbolTableRecord
100
AcDbBlockTableRecord
  2
_rahmen
340
0
102
{BLKREFS
331
7D
102
}
  0
BLOCK_RECORD
  5
79
330
1
100
AcDbSymbolTableRecord
100
AcDbBlockTableRecord
  2
_punkt
340
0
102
{BLKREFS
331
7E
102
}
  0
BLOCK_RECORD
  5
7C
330
1
100
AcDbSymbolTableRecord
100
AcDbBlockTableRecord
  2
A3I_CS
340
0
102
{BLKREFS
331
AC
102
}
  0
BLOCK_RECORD
  5
81
330
1
100
AcDbSymbolTableRecord
100
AcDbBlockTableRecord
  2
CES_STPG_GY_4-select__1
340
0
102
{BLKREFS
331
85
102
}
  0
BLOCK_RECORD
  5
84
330
1
100
AcDbSymbolTableRecord
100
AcDbBlockTableRecord
  2
AllgSicht1
340
0
102
{BLKREFS
331
AD
102
}
  0
BLOCK_RECORD
  5
88
330
1
100
AcDbSymbolTableRecord
100
AcDbBlockTableRecord
  2
CES_STPG_GY_4-select__2
340
0
102
{BLKREFS
331
8C
102
}
  0
BLOCK_RECORD
  5
8B
330
1
100
AcDbSymbolTableRecord
100
AcDbBlockTableRecord
  2
Drfsicht1
340
0
102
{BLKREFS
331
AE
102
}
  0
BLOCK_RECORD
  5
8F
330
1
100
AcDbSymbolTableRecord
100
AcDbBlockTableRecord
  2
CES_STPG_GY_4-select__3
340
0
102
{BLKREFS
331
93
102
}
  0
BLOCK_RECORD
  5
92
330
1
100
AcDbSymbolTableRecord
100
AcDbBlockTableRecord
  2
Rckans1
340
0
102
{BLKREFS
331
AF
102
}
  0
BLOCK_RECORD
  5
96
330
1
100
AcDbSymbolTableRecord
100
AcDbBlockTableRecord
  2
CES_STPG_GY_4-select__4
340
0
102
{BLKREFS
331
9A
102
}
  0
BLOCK_RECORD
  5
99
330
1
100
AcDbSymbolTableRecord
100
AcDbBlockTableRecord
  2
SA_Links1
340
0
102
{BLKREFS
331
B0
102
}
  0
BLOCK_RECORD
  5
9D
330
1
100
AcDbSymbolTableRecord
100
AcDbBlockTableRecord
  2
CES_STPG_GY_4-select__5
340
0
102
{BLKREFS
331
A1
102
}
  0
BLOCK_RECORD
  5
A0
330
1
100
AcDbSymbolTableRecord
100
AcDbBlockTableRecord
  2
SA_Rechts1
340
0
102
{BLKREFS
331
B1
102
}
  0
BLOCK_RECORD
  5
A4
330
1
100
AcDbSymbolTableRecord
100
AcDbBlockTableRecord
  2
CES_STPG_GY_4-select__6
340
0
102
{BLKREFS
331
A8
102
}
  0
BLOCK_RECORD
  5
A7
330
1
100
AcDbSymbolTableRecord
100
AcDbBlockTableRecord
  2
Vordans1
340
0
102
{BLKREFS
331
B2
102
}
  0
BLOCK_RECORD
  5
AB
330
1
100
AcDbSymbolTableRecord
100
AcDbBlockTableRecord
  2
1
340
0
102
{BLKREFS
331
B5
102
}
  0
BLOCK_RECORD
  5
24E
330
1
100
AcDbSymbolTableRecord
100
AcDbBlockTableRecord
  2
*D17
340
0
  0
BLOCK_RECORD
  5
2E5
330
1
100
AcDbSymbolTableRecord
100
AcDbBlockTableRecord
  2
*D18
340
0
  0
BLOCK_RECORD
  5
2F0
330
1
100
AcDbSymbolTableRecord
100
AcDbBlockTableRecord
  2
*D19
340
0
  0
ENDTAB
  0
ENDSEC
  0
SECTION
  2
BLOCKS
  0
BLOCK
  5
20
330
1F
100
AcDbEntity
  8
0
100
AcDbBlockBegin
  2
*Model_Space
 70
     0
 10
0.0
 20
0.0
 30
0.0
  3
*Model_Space
  1

  0
ENDBLK
  5
21
330
1F
100
AcDbEntity
  8
0
100
AcDbBlockEnd
  0
BLOCK
  5
1C
330
1B
100
AcDbEntity
 67
     1
  8
0
100
AcDbBlockBegin
  2
*Paper_Space
 70
     0
 10
0.0
 20
0.0
 30
0.0
  3
*Paper_Space
  1

  0
ENDBLK
  5
1D
330
1B
100
AcDbEntity
 67
     1
  8
0
100
AcDbBlockEnd
  0
BLOCK
  5
24
330
23
100
AcDbEntity
  8
0
100
AcDbBlockBegin
  2
*Paper_Space0
 70
     0
 10
0.0
 20
0.0
 30
0.0
  3
*Paper_Space0
  1

  0
ENDBLK
  5
25
330
23
100
AcDbEntity
  8
0
100
AcDbBlockEnd
  0
BLOCK
  5
77
330
76
100
AcDbEntity
  8
0
100
AcDbBlockBegin
  2
_rahmen
 70
     0
 10
-784.7568927145096
 20
-1188.293627495169
 30
0.0
  3
_rahmen
  1

  0
LINE
  5
B6
330
76
100
AcDbEntity
  8
1
  6
Continuous
 62
     6
100
AcDbLine
 10
-853.0902260478431
 20
-1183.293627495169
 30
0.0
 11
-784.7568927145097
 21
-1183.293627495169
 31
0.0
  0
LINE
  5
B7
330
76
100
AcDbEntity
  8
1
  6
Continuous
 62
     6
100
AcDbLine
 10
-784.7568927145101
 20
-1174.793627495169
 30
0.0
 11
-784.7568927145096
 21
-1166.293627495169
 31
0.0
  0
LINE
  5
B8
330
76
100
AcDbEntity
  8
1
  6
Continuous
 62
     6
100
AcDbLine
 10
-784.7568927145096
 20
-1166.293627495169
 30
0.0
 11
-784.7568927145106
 21
-1162.043627495169
 31
0.0
  0
LINE
  5
B9
330
76
100
AcDbEntity
  8
1
  6
Continuous
 62
     6
100
AcDbLine
 10
-784.7568927145106
 20
-1162.043627495169
 30
0.0
 11
-784.7568927145097
 21
-1125.893627495168
 31
0.0
  0
LINE
  5
BA
330
76
100
AcDbEntity
  8
1
  6
Continuous
 62
     2
100
AcDbLine
 10
-989.7568927145096
 20
-1188.293627495169
 30
0.0
 11
-1058.090226047843
 21
-1188.293627495169
 31
0.0
  0
LINE
  5
BB
330
76
100
AcDbEntity
  8
1
  6
Continuous
 62
     2
100
AcDbLine
 10
-853.0902260478431
 20
-1188.293627495169
 30
0.0
 11
-784.7568927145096
 21
-1188.293627495169
 31
0.0
  0
LINE
  5
BC
330
76
100
AcDbEntity
  8
1
  6
Continuous
 62
     2
100
AcDbLine
 10
-853.0902260478431
 20
-1188.293627495169
 30
0.0
 11
-853.0902260478431
 21
-1183.293627495169
 31
0.0
  0
LINE
  5
BD
330
76
100
AcDbEntity
  8
1
  6
Continuous
 62
     2
100
AcDbLine
 10
-921.4235593811762
 20
-1188.293627495169
 30
0.0
 11
-921.4235593811762
 21
-1183.293627495171
 31
0.0
  0
LINE
  5
BE
330
76
100
AcDbEntity
  8
1
  6
Continuous
 62
     2
100
AcDbLine
 10
-989.7568927145096
 20
-1188.293627495169
 30
0.0
 11
-989.7568927145096
 21
-1183.293627495169
 31
0.0
  0
LINE
  5
BF
330
76
100
AcDbEntity
  8
1
  6
Continuous
 62
     2
100
AcDbLine
 10
-779.7568927145121
 20
-1125.893627495168
 30
0.0
 11
-779.7568927145121
 21
-1068.493627495168
 31
0.0
  0
LINE
  5
C0
330
76
100
AcDbEntity
  8
1
  6
Continuous
 62
     2
100
AcDbLine
 10
-779.7568927145121
 20
-1125.893627495168
 30
0.0
 11
-784.7568927145097
 21
-1125.893627495168
 31
0.0
  0
LINE
  5
C1
330
76
100
AcDbEntity
  8
1
  6
Continuous
 62
     2
100
AcDbLine
 10
-1179.75689271451
 20
-1188.293627495169
 30
0.0
 11
-1199.756892714511
 21
-1188.293627495169
 31
0.0
  0
LINE
  5
C2
330
76
100
AcDbEntity
  8
1
  6
Continuous
 62
     2
100
AcDbLine
 10
-1126.423559381176
 20
-1188.293627495169
 30
0.0
 11
-1126.423559381176
 21
-1183.293627495169
 31
0.0
  0
LINE
  5
C3
330
76
100
AcDbEntity
  8
1
  6
Continuous
 62
     2
100
AcDbLine
 10
-1126.423559381176
 20
-1188.293627495169
 30
0.0
 11
-1058.090226047843
 21
-1188.293627495169
 31
0.0
  0
LINE
  5
C4
330
76
100
AcDbEntity
  8
1
  6
Continuous
 62
     6
100
AcDbLine
 10
-1126.423559381176
 20
-1183.293627495169
 30
0.0
 11
-1058.090226047843
 21
-1183.293627495169
 31
0.0
  0
LINE
  5
C5
330
76
100
AcDbEntity
  8
1
  6
Continuous
 62
     6
100
AcDbLine
 10
-1126.423559381176
 20
-1183.293627495169
 30
0.0
 11
-1179.756892714509
 21
-1183.293627495169
 31
0.0
  0
LINE
  5
C6
330
76
100
AcDbEntity
  8
1
  6
Continuous
 62
     2
100
AcDbLine
 10
-1058.090226047843
 20
-1188.293627495169
 30
0.0
 11
-1058.090226047843
 21
-1183.293627495169
 31
0.0
  0
LINE
  5
C7
330
76
100
AcDbEntity
  8
1
  6
Continuous
 62
     2
100
AcDbLine
 10
-1179.75689271451
 20
-1188.293627495169
 30
0.0
 11
-1179.75689271451
 21
-1184.293627495169
 31
0.0
  0
LINE
  5
C8
330
76
100
AcDbEntity
  8
1
  6
Continuous
 62
     2
100
AcDbLine
 10
-1179.75689271451
 20
-1188.293627495169
 30
0.0
 11
-1126.423559381176
 21
-1188.293627495169
 31
0.0
  0
LINE
  5
C9
330
76
100
AcDbEntity
  8
1
  6
Continuous
 62
     2
100
AcDbLine
 10
-969.7568927145124
 20
-1188.293627495169
 30
0.0
 11
-989.7568927145096
 21
-1188.293627495169
 31
0.0
  0
LINE
  5
CA
330
76
100
AcDbEntity
  8
1
  6
Continuous
 62
     2
100
AcDbLine
 10
-969.7568927145124
 20
-1188.293627495169
 30
0.0
 11
-969.7568927145124
 21
-1184.293627495169
 31
0.0
  0
LINE
  5
CB
330
76
100
AcDbEntity
  8
1
  6
Continuous
 62
     2
100
AcDbLine
 10
-969.7568927145124
 20
-1188.293627495169
 30
0.0
 11
-921.4235593811762
 21
-1188.293627495169
 31
0.0
  0
LINE
  5
CC
330
76
100
AcDbEntity
  8
1
  6
Continuous
 62
     2
100
AcDbLine
 10
-921.4235593811762
 20
-1188.293627495169
 30
0.0
 11
-853.0902260478431
 21
-1188.293627495169
 31
0.0
  0
LINE
  5
CD
330
76
100
AcDbEntity
  8
1
  6
Continuous
 62
     2
100
AcDbLine
 10
-779.7568927145121
 20
-1188.293627495169
 30
0.0
 11
-784.7568927145096
 21
-1188.293627495169
 31
0.0
  0
LINE
  5
CE
330
76
100
AcDbEntity
  8
1
  6
Continuous
 62
     2
100
AcDbLine
 10
-779.7568927145121
 20
-1183.293627495169
 30
0.0
 11
-779.7568927145121
 21
-1188.293627495169
 31
0.0
  0
LINE
  5
CF
330
76
100
AcDbEntity
  8
1
  6
Continuous
 62
     2
100
AcDbLine
 10
-779.7568927145121
 20
-1183.293627495169
 30
0.0
 11
-779.7568927145121
 21
-1125.893627495168
 31
0.0
  0
LINE
  5
D0
330
76
100
AcDbEntity
  8
1
  6
Continuous
 62
     2
100
AcDbLine
 10
-779.7568927145121
 20
-891.2936274951685
 30
0.0
 11
-784.7568927145121
 21
-891.2936274951685
 31
0.0
  0
LINE
  5
D1
330
76
100
AcDbEntity
  8
1
  6
Continuous
 62
     6
100
AcDbLine
 10
-784.7568927145121
 20
-896.2936274951685
 30
0.0
 11
-784.7568927145117
 21
-953.6936274951686
 31
0.0
  0
LINE
  5
D2
330
76
100
AcDbEntity
  8
1
  6
Continuous
 62
     2
100
AcDbLine
 10
-779.7568927145121
 20
-891.2936274951685
 30
0.0
 11
-779.7568927145121
 21
-896.2936274951685
 31
0.0
  0
LINE
  5
D3
330
76
100
AcDbEntity
  8
1
  6
Continuous
 62
     2
100
AcDbLine
 10
-784.7568927145121
 20
-896.2936274951685
 30
0.0
 11
-784.7568927145121
 21
-891.2936274951685
 31
0.0
  0
LINE
  5
D4
330
76
100
AcDbEntity
  8
1
  6
Continuous
 62
     2
100
AcDbLine
 10
-784.7568927145121
 20
-896.2936274951685
 30
0.0
 11
-779.7568927145121
 21
-896.2936274951685
 31
0.0
  0
LINE
  5
D5
330
76
100
AcDbEntity
  8
1
  6
Continuous
 62
     2
100
AcDbLine
 10
-779.7568927145121
 20
-896.2936274951685
 30
0.0
 11
-779.7568927145121
 21
-953.6936274951686
 31
0.0
  0
LINE
  5
D6
330
76
100
AcDbEntity
  8
1
  6
Continuous
 62
     2
100
AcDbLine
 10
-784.7568927145117
 20
-953.6936274951686
 30
0.0
 11
-779.7568927145121
 21
-953.6936274951686
 31
0.0
  0
LINE
  5
D7
330
76
100
AcDbEntity
  8
1
  6
Continuous
 62
     6
100
AcDbLine
 10
-784.7568927145117
 20
-953.6936274951686
 30
0.0
 11
-784.7568927145096
 21
-1011.093627495168
 31
0.0
  0
LINE
  5
D8
330
76
100
AcDbEntity
  8
1
  6
Continuous
 62
     2
100
AcDbLine
 10
-779.7568927145121
 20
-953.6936274951686
 30
0.0
 11
-779.7568927145121
 21
-1011.093627495168
 31
0.0
  0
LINE
  5
D9
330
76
100
AcDbEntity
  8
1
  6
Continuous
 62
     2
100
AcDbLine
 10
-784.7568927145096
 20
-1011.093627495168
 30
0.0
 11
-779.7568927145121
 21
-1011.093627495168
 31
0.0
  0
LINE
  5
DA
330
76
100
AcDbEntity
  8
1
  6
Continuous
 62
     6
100
AcDbLine
 10
-784.7568927145096
 20
-1011.093627495168
 30
0.0
 11
-784.7568927145096
 21
-1068.493627495168
 31
0.0
  0
LINE
  5
DB
330
76
100
AcDbEntity
  8
1
  6
Continuous
 62
     2
100
AcDbLine
 10
-779.7568927145121
 20
-1011.093627495168
 30
0.0
 11
-779.7568927145121
 21
-1068.493627495168
 31
0.0
  0
LINE
  5
DC
330
76
100
AcDbEntity
  8
1
  6
Continuous
 62
     2
100
AcDbLine
 10
-784.7568927145096
 20
-1068.493627495168
 30
0.0
 11
-779.7568927145121
 21
-1068.493627495168
 31
0.0
  0
LINE
  5
DD
330
76
100
AcDbEntity
  8
1
  6
Continuous
 62
     6
100
AcDbLine
 10
-784.7568927145096
 20
-1068.493627495168
 30
0.0
 11
-784.7568927145097
 21
-1125.893627495168
 31
0.0
  0
LINE
  5
DE
330
76
100
AcDbEntity
  8
1
  6
Continuous
 62
     6
100
AcDbLine
 10
-1179.75689271451
 20
-896.2936274951683
 30
0.0
 11
-1126.423559381176
 21
-896.2936274951683
 31
0.0
  0
LINE
  5
DF
330
76
100
AcDbEntity
  8
1
  6
Continuous
 62
     2
100
AcDbLine
 10
-784.7568927145121
 20
-891.2936274951685
 30
0.0
 11
-853.0902260478431
 21
-891.2936274951685
 31
0.0
  0
LINE
  5
E0
330
76
100
AcDbEntity
  8
1
  6
Continuous
 62
     2
100
AcDbLine
 10
-853.0902260478431
 20
-896.2936274951685
 30
0.0
 11
-853.0902260478431
 21
-891.2936274951685
 31
0.0
  0
LINE
  5
E1
330
76
100
AcDbEntity
  8
1
  6
Continuous
 62
     6
100
AcDbLine
 10
-853.0902260478431
 20
-896.2936274951685
 30
0.0
 11
-784.7568927145121
 21
-896.2936274951685
 31
0.0
  0
LINE
  5
E2
330
76
100
AcDbEntity
  8
1
  6
Continuous
 62
     2
100
AcDbLine
 10
-853.0902260478431
 20
-891.2936274951685
 30
0.0
 11
-921.4235593811762
 21
-891.2936274951685
 31
0.0
  0
LINE
  5
E3
330
76
100
AcDbEntity
  8
1
  6
Continuous
 62
     2
100
AcDbLine
 10
-921.4235593811762
 20
-896.2936274951685
 30
0.0
 11
-921.4235593811762
 21
-891.2936274951685
 31
0.0
  0
LINE
  5
E4
330
76
100
AcDbEntity
  8
1
  6
Continuous
 62
     6
100
AcDbLine
 10
-921.4235593811762
 20
-896.2936274951685
 30
0.0
 11
-853.0902260478431
 21
-896.2936274951685
 31
0.0
  0
LINE
  5
E5
330
76
100
AcDbEntity
  8
1
  6
Continuous
 62
     2
100
AcDbLine
 10
-921.4235593811762
 20
-891.2936274951685
 30
0.0
 11
-969.7568927145124
 21
-891.2936274951685
 31
0.0
  0
LINE
  5
E6
330
76
100
AcDbEntity
  8
1
  6
Continuous
 62
     2
100
AcDbLine
 10
-989.7568927145096
 20
-896.2936274951685
 30
0.0
 11
-989.7568927145096
 21
-891.2936274951685
 31
0.0
  0
LINE
  5
E7
330
76
100
AcDbEntity
  8
1
  6
Continuous
 62
     6
100
AcDbLine
 10
-989.7568927145096
 20
-896.2936274951685
 30
0.0
 11
-921.4235593811762
 21
-896.2936274951685
 31
0.0
  0
LINE
  5
E8
330
76
100
AcDbEntity
  8
1
  6
Continuous
 62
     2
100
AcDbLine
 10
-989.7568927145096
 20
-891.2936274951685
 30
0.0
 11
-1058.090226047843
 21
-891.2936274951685
 31
0.0
  0
LINE
  5
E9
330
76
100
AcDbEntity
  8
1
  6
Continuous
 62
     2
100
AcDbLine
 10
-1058.090226047843
 20
-896.2936274951685
 30
0.0
 11
-1058.090226047843
 21
-891.2936274951685
 31
0.0
  0
LINE
  5
EA
330
76
100
AcDbEntity
  8
1
  6
Continuous
 62
     6
100
AcDbLine
 10
-1058.090226047843
 20
-896.2936274951685
 30
0.0
 11
-989.7568927145096
 21
-896.2936274951685
 31
0.0
  0
LINE
  5
EB
330
76
100
AcDbEntity
  8
1
  6
Continuous
 62
     2
100
AcDbLine
 10
-1058.090226047843
 20
-891.2936274951685
 30
0.0
 11
-1126.423559381176
 21
-891.2936274951685
 31
0.0
  0
LINE
  5
EC
330
76
100
AcDbEntity
  8
1
  6
Continuous
 62
     2
100
AcDbLine
 10
-1126.423559381176
 20
-896.2936274951683
 30
0.0
 11
-1126.423559381176
 21
-891.2936274951685
 31
0.0
  0
LINE
  5
ED
330
76
100
AcDbEntity
  8
1
  6
Continuous
 62
     6
100
AcDbLine
 10
-1126.423559381176
 20
-896.2936274951683
 30
0.0
 11
-1058.090226047843
 21
-896.2936274951685
 31
0.0
  0
LINE
  5
EE
330
76
100
AcDbEntity
  8
1
  6
Continuous
 62
     2
100
AcDbLine
 10
-1126.423559381176
 20
-891.2936274951685
 30
0.0
 11
-1179.75689271451
 21
-891.2936274951685
 31
0.0
  0
LINE
  5
EF
330
76
100
AcDbEntity
  8
1
  6
Continuous
 62
     2
100
AcDbLine
 10
-1179.75689271451
 20
-891.2936274951685
 30
0.0
 11
-1179.75689271451
 21
-895.2936274951683
 31
0.0
  0
LINE
  5
F0
330
76
100
AcDbEntity
  8
1
  6
Continuous
 62
     2
100
AcDbLine
 10
-1179.75689271451
 20
-891.2936274951685
 30
0.0
 11
-1199.756892714511
 21
-891.2936274951685
 31
0.0
  0
LINE
  5
F1
330
76
100
AcDbEntity
  8
1
  6
Continuous
 62
     2
100
AcDbLine
 10
-969.7568927145124
 20
-891.2936274951685
 30
0.0
 11
-969.7568927145124
 21
-895.2936274951683
 31
0.0
  0
LINE
  5
F2
330
76
100
AcDbEntity
  8
1
  6
Continuous
 62
     2
100
AcDbLine
 10
-969.7568927145124
 20
-891.2936274951685
 30
0.0
 11
-989.7568927145096
 21
-891.2936274951685
 31
0.0
  0
LINE
  5
F3
330
76
100
AcDbEntity
  8
1
  6
Continuous
 62
     2
100
AcDbLine
 10
-1199.756892714511
 20
-891.2936274951685
 30
0.0
 11
-1199.756892714511
 21
-1039.793627495169
 31
0.0
  0
LINE
  5
F4
330
76
100
AcDbEntity
  8
1
  6
Continuous
 62
     2
100
AcDbLine
 10
-1199.756892714511
 20
-1039.793627495169
 30
0.0
 11
-1189.75689271451
 21
-1039.793627495169
 31
0.0
  0
LINE
  5
F5
330
76
100
AcDbEntity
  8
1
  6
Continuous
 62
     2
100
AcDbLine
 10
-1199.756892714511
 20
-1039.793627495169
 30
0.0
 11
-1199.756892714511
 21
-1188.293627495169
 31
0.0
  0
LINE
  5
F6
330
76
100
AcDbEntity
  8
1
  6
Continuous
 62
     6
100
AcDbLine
 10
-1179.756892714509
 20
-1183.293627495169
 30
0.0
 11
-1179.75689271451
 21
-896.2936274951683
 31
0.0
  0
LINE
  5
F7
330
76
100
AcDbEntity
  8
1
  6
Continuous
 62
     6
100
AcDbLine
 10
-784.7568927145097
 20
-1183.293627495169
 30
0.0
 11
-784.7568927145101
 21
-1174.793627495169
 31
0.0
  0
LINE
  5
F8
330
76
100
AcDbEntity
  8
1
  6
Continuous
 62
     6
100
AcDbLine
 10
-1058.090226047843
 20
-1183.293627495169
 30
0.0
 11
-914.3016972412596
 21
-1183.293627495172
 31
0.0
  0
LINE
  5
F9
330
76
100
AcDbEntity
  8
1
  6
Continuous
 62
     2
100
AcDbLine
 10
-921.4235593811762
 20
-1183.293627495171
 30
0.0
 11
-921.4235593811762
 21
-1183.293627495169
 31
0.0
  0
LINE
  5
FA
330
76
100
AcDbEntity
  8
1
  6
Continuous
 62
     6
100
AcDbLine
 10
-784.7568927145079
 20
-1166.293627495169
 30
0.0
 11
-784.7568927145079
 21
-1157.793627495169
 31
0.0
  0
LINE
  5
FB
330
76
100
AcDbEntity
  8
1
  6
Continuous
 62
     7
100
AcDbLine
 10
-850.0016972412596
 20
-1174.793627495169
 30
0.0
 11
-850.0016972412596
 21
-1166.293627495169
 31
0.0
  0
LINE
  5
FC
330
76
100
AcDbEntity
  8
1
  6
Continuous
 62
     6
100
AcDbLine
 10
-877.9016972412596
 20
-1166.293627495169
 30
0.0
 11
-784.7568927145079
 21
-1166.293627495169
 31
0.0
  0
LINE
  5
FD
330
76
100
AcDbEntity
  8
1
  6
Continuous
 62
     7
100
AcDbLine
 10
-914.3016972412596
 20
-1166.293627495169
 30
0.0
 11
-914.3016972412596
 21
-1157.793627495169
 31
0.0
  0
LINE
  5
FE
330
76
100
AcDbEntity
  8
1
  6
Continuous
 62
     7
100
AcDbLine
 10
-877.9016972412596
 20
-1166.293627495169
 30
0.0
 11
-877.9016972412596
 21
-1157.793627495169
 31
0.0
  0
LINE
  5
FF
330
76
100
AcDbEntity
  8
1
  6
Continuous
 62
     7
100
AcDbLine
 10
-820.1753009961867
 20
-1157.793627495169
 30
0.0
 11
-820.1753009961867
 21
-1166.293627495169
 31
0.0
  0
LINE
  5
100
330
76
100
AcDbEntity
  8
1
  6
Continuous
 62
     7
100
AcDbLine
 10
-793.675300996187
 20
-1157.793627495169
 30
0.0
 11
-793.675300996187
 21
-1166.293627495169
 31
0.0
  0
LINE
  5
101
330
76
100
AcDbEntity
  8
1
  6
Continuous
 62
     7
100
AcDbLine
 10
-784.7568927145084
 20
-1174.793627495169
 30
0.0
 11
-877.9016972412596
 21
-1174.793627495169
 31
0.0
  0
LINE
  5
102
102
{ACAD_REACTORS
330
1E8
330
1E9
102
}
330
76
100
AcDbEntity
  8
0
  6
Continuous
 62
     2
100
AcDbLine
 10
-900.5942682994921
 20
-1173.993338379506
 30
0.0
 11
-900.5942682994921
 21
-1173.120821372703
 31
0.0
  0
LINE
  5
103
102
{ACAD_REACTORS
330
1E8
330
1E9
102
}
330
76
100
AcDbEntity
  8
0
  6
Continuous
 62
     2
100
AcDbLine
 10
-900.5942682994921
 20
-1174.953107086988
 30
0.0
 11
-900.5942682994921
 21
-1175.825624093792
 31
0.0
  0
LINE
  5
104
102
{ACAD_REACTORS
330
1EA
330
1EB
102
}
330
76
100
AcDbEntity
  8
0
  6
Continuous
 62
     2
100
AcDbLine
 10
-885.2612241632017
 20
-1173.731583277465
 30
0.0
 11
-884.1575848636337
 21
-1173.731583277465
 31
0.0
  0
LINE
  5
105
102
{ACAD_REACTORS
330
1EA
330
1EB
102
}
330
76
100
AcDbEntity
  8
0
  6
Continuous
 62
     2
100
AcDbLine
 10
-884.4915668202403
 20
-1174.953107086989
 30
0.0
 11
-884.4915668202403
 21
-1175.825624093792
 31
0.0
  0
LINE
  5
106
102
{ACAD_REACTORS
330
1F4
330
1F5
102
}
330
76
100
AcDbEntity
  8
0
  6
Continuous
 62
     2
100
AcDbLine
 10
-886.3523234356202
 20
-1172.640937018978
 30
0.0
 11
-884.9543703886799
 21
-1171.060078025203
 31
0.0
  0
LINE
  5
107
102
{ACAD_REACTORS
330
1F4
330
1F5
102
}
330
76
100
AcDbEntity
  8
0
  6
Continuous
 62
     2
100
AcDbLine
 10
-886.2569000194474
 20
-1169.587127495167
 30
0.0
 11
-884.9543703886799
 21
-1171.060078025203
 31
0.0
  0
LINE
  5
108
102
{ACAD_REACTORS
330
1F4
330
1F5
102
}
330
76
100
AcDbEntity
  8
0
  6
Continuous
 62
     2
100
AcDbLine
 10
-883.6518407579135
 20
-1169.587127495167
 30
0.0
 11
-882.2491165401663
 21
-1169.587127495167
 31
0.0
  0
LINE
  5
109
102
{ACAD_REACTORS
330
1F4
330
1F5
102
}
330
76
100
AcDbEntity
  8
0
  6
Continuous
 62
     2
100
AcDbLine
 10
-884.9495992178721
 20
-1172.640937018978
 30
0.0
 11
-884.2530082798063
 21
-1171.853205233685
 31
0.0
  0
LINE
  5
10A
102
{ACAD_REACTORS
330
1F4
330
1F5
102
}
330
76
100
AcDbEntity
  8
0
  6
Continuous
 62
     2
100
AcDbLine
 10
-884.9495992178721
 20
-1172.640937018978
 30
0.0
 11
-886.3523234356202
 21
-1172.640937018978
 31
0.0
  0
LINE
  5
10B
102
{ACAD_REACTORS
330
1F6
330
1F7
102
}
330
76
100
AcDbEntity
  8
0
  6
Continuous
 62
     2
100
AcDbLine
 10
-886.4716027058371
 20
-1172.640937018978
 30
0.0
 11
-887.71210711609
 21
-1172.640937018978
 31
0.0
  0
LINE
  5
10C
102
{ACAD_REACTORS
330
1F8
330
1F9
102
}
330
76
100
AcDbEntity
  8
0
  6
Continuous
 62
     2
100
AcDbLine
 10
-888.5800867242451
 20
-1174.778603685628
 30
0.0
 11
-888.8802519614353
 21
-1174.010788719642
 31
0.0
  0
LINE
  5
10D
102
{ACAD_REACTORS
330
1F8
330
1F9
102
}
330
76
100
AcDbEntity
  8
0
  6
Continuous
 62
     2
100
AcDbLine
 10
-889.1804171986275
 20
-1174.778603685628
 30
0.0
 11
-888.5800867242451
 21
-1174.778603685628
 31
0.0
  0
LINE
  5
10E
102
{ACAD_REACTORS
330
1F8
330
1F9
102
}
330
76
100
AcDbEntity
  8
0
  6
Continuous
 62
     2
100
AcDbLine
 10
-890.8984572135014
 20
-1176.000127495153
 30
0.0
 11
-889.6579528032485
 21
-1176.000127495153
 31
0.0
  0
LINE
  5
10F
102
{ACAD_REACTORS
330
1F8
330
1F9
102
}
330
76
100
AcDbEntity
  8
0
  6
Continuous
 62
     2
100
AcDbLine
 10
-889.5005041665622
 20
-1172.946317971342
 30
0.0
 11
-888.2599997563093
 21
-1172.946317971342
 31
0.0
  0
LINE
  5
110
102
{ACAD_REACTORS
330
1F8
330
1F9
102
}
330
76
100
AcDbEntity
  8
0
  6
Continuous
 62
     2
100
AcDbLine
 10
-888.2599997563093
 20
-1172.946317971342
 30
0.0
 11
-886.8620467093691
 21
-1176.000127495153
 31
0.0
  0
LINE
  5
111
102
{ACAD_REACTORS
330
1F8
330
1F9
102
}
330
76
100
AcDbEntity
  8
0
  6
Continuous
 62
     2
100
AcDbLine
 10
-888.102551119623
 20
-1176.000127495153
 30
0.0
 11
-888.3140311730988
 21
-1175.459166950935
 31
0.0
  0
LINE
  5
112
102
{ACAD_REACTORS
330
1FA
330
1FB
102
}
330
76
100
AcDbEntity
  8
0
  6
Continuous
 62
     2
100
AcDbLine
 10
-892.244870315209
 20
-1176.000127495153
 30
0.0
 11
-891.0520776130426
 21
-1176.000127495153
 31
0.0
  0
LINE
  5
113
102
{ACAD_REACTORS
330
1FA
330
1FB
102
}
330
76
100
AcDbEntity
  8
0
  6
Continuous
 62
     2
100
AcDbLine
 10
-892.244870315209
 20
-1173.731583277465
 30
0.0
 11
-892.244870315209
 21
-1176.000127495153
 31
0.0
  0
LINE
  5
114
102
{ACAD_REACTORS
330
1FA
330
1FB
102
}
330
76
100
AcDbEntity
  8
0
  6
Continuous
 62
     2
100
AcDbLine
 10
-893.0559693526836
 20
-1172.946317971342
 30
0.0
 11
-893.0559693526836
 21
-1173.731583277465
 31
0.0
  0
LINE
  5
115
102
{ACAD_REACTORS
330
1FC
330
1FD
102
}
330
76
100
AcDbEntity
  8
0
  6
Continuous
 62
     2
100
AcDbLine
 10
-891.576755471111
 20
-1172.640937018978
 30
0.0
 11
-890.3839627689446
 21
-1172.640937018978
 31
0.0
  0
LINE
  5
116
102
{ACAD_REACTORS
330
1FC
330
1FD
102
}
330
76
100
AcDbEntity
  8
0
  6
Continuous
 62
     2
100
AcDbLine
 10
-889.1434583586905
 20
-1170.895903005373
 30
0.0
 11
-890.3839627689446
 21
-1169.587127495167
 31
0.0
  0
LINE
  5
117
102
{ACAD_REACTORS
330
1FC
330
1FD
102
}
330
76
100
AcDbEntity
  8
0
  6
Continuous
 62
     2
100
AcDbLine
 10
-887.9506656565238
 20
-1169.587127495167
 30
0.0
 11
-889.1434583586905
 21
-1169.587127495167
 31
0.0
  0
LINE
  5
118
102
{ACAD_REACTORS
330
1FC
330
1FD
102
}
330
76
100
AcDbEntity
  8
0
  6
Continuous
 62
     2
100
AcDbLine
 10
-887.9506656565238
 20
-1172.640937018978
 30
0.0
 11
-887.9506656565238
 21
-1169.587127495167
 31
0.0
  0
LINE
  5
119
102
{ACAD_REACTORS
330
1FC
330
1FD
102
}
330
76
100
AcDbEntity
  8
0
  6
Continuous
 62
     2
100
AcDbLine
 10
-889.1434583586905
 20
-1172.640937018978
 30
0.0
 11
-887.9506656565238
 21
-1172.640937018978
 31
0.0
  0
LINE
  5
11A
102
{ACAD_REACTORS
330
1FC
330
1FD
102
}
330
76
100
AcDbEntity
  8
0
  6
Continuous
 62
     2
100
AcDbLine
 10
-890.3839627689446
 20
-1171.332161508774
 30
0.0
 11
-889.1434583586905
 21
-1172.640937018978
 31
0.0
  0
LINE
  5
11B
102
{ACAD_REACTORS
330
1FE
330
1FF
102
}
330
76
100
AcDbEntity
  8
0
  6
Continuous
 62
     2
100
AcDbLine
 10
-894.3918971791102
 20
-1174.255093481547
 30
0.0
 11
-895.6324015893631
 21
-1172.946317971342
 31
0.0
  0
LINE
  5
11C
102
{ACAD_REACTORS
330
1FE
330
1FF
102
}
330
76
100
AcDbEntity
  8
0
  6
Continuous
 62
     2
100
AcDbLine
 10
-894.3918971791102
 20
-1172.946317971342
 30
0.0
 11
-894.3918971791102
 21
-1174.255093481547
 31
0.0
  0
LINE
  5
11D
102
{ACAD_REACTORS
330
1FE
330
1FF
102
}
330
76
100
AcDbEntity
  8
0
  6
Continuous
 62
     2
100
AcDbLine
 10
-893.1991044769438
 20
-1172.946317971342
 30
0.0
 11
-894.3918971791102
 21
-1172.946317971342
 31
0.0
  0
LINE
  5
11E
102
{ACAD_REACTORS
330
1FE
330
1FF
102
}
330
76
100
AcDbEntity
  8
0
  6
Continuous
 62
     2
100
AcDbLine
 10
-893.1991044769438
 20
-1176.000127495153
 30
0.0
 11
-893.1991044769438
 21
-1172.946317971342
 31
0.0
  0
LINE
  5
11F
102
{ACAD_REACTORS
330
1FE
330
1FF
102
}
330
76
100
AcDbEntity
  8
0
  6
Continuous
 62
     2
100
AcDbLine
 10
-895.6324015893631
 20
-1174.691351984948
 30
0.0
 11
-894.3918971791102
 21
-1176.000127495153
 31
0.0
  0
LINE
  5
120
102
{ACAD_REACTORS
330
1FE
330
1FF
102
}
330
76
100
AcDbEntity
  8
0
  6
Continuous
 62
     2
100
AcDbLine
 10
-895.6324015893631
 20
-1176.000127495153
 30
0.0
 11
-895.6324015893631
 21
-1174.691351984948
 31
0.0
  0
LINE
  5
121
102
{ACAD_REACTORS
330
1EE
330
1EF
102
}
330
76
100
AcDbEntity
  8
0
  6
Continuous
 62
     2
100
AcDbLine
 10
-893.1512418379716
 20
-1170.28514110061
 30
0.0
 11
-891.8153140115439
 21
-1170.28514110061
 31
0.0
  0
LINE
  5
122
102
{ACAD_REACTORS
330
1EE
330
1EF
102
}
330
76
100
AcDbEntity
  8
0
  6
Continuous
 62
     2
100
AcDbLine
 10
-893.1512418379716
 20
-1171.942923413536
 30
0.0
 11
-893.1512418379716
 21
-1171.463039059794
 31
0.0
  0
LINE
  5
123
102
{ACAD_REACTORS
330
1EE
330
1EF
102
}
330
76
100
AcDbEntity
  8
0
  6
Continuous
 62
     2
100
AcDbLine
 10
-891.8153140115439
 20
-1171.942923413536
 30
0.0
 11
-893.1512418379716
 21
-1171.942923413536
 31
0.0
  0
LINE
  5
124
102
{ACAD_REACTORS
330
1EE
330
1EF
102
}
330
76
100
AcDbEntity
  8
0
  6
Continuous
 62
     2
100
AcDbLine
 10
-891.8153140115439
 20
-1172.640937018978
 30
0.0
 11
-891.8153140115439
 21
-1171.942923413536
 31
0.0
  0
LINE
  5
125
102
{ACAD_REACTORS
330
1EE
330
1EF
102
}
330
76
100
AcDbEntity
  8
0
  6
Continuous
 62
     2
100
AcDbLine
 10
-894.9656337353249
 20
-1172.640937018978
 30
0.0
 11
-891.8153140115439
 21
-1172.640937018978
 31
0.0
  0
LINE
  5
126
102
{ACAD_REACTORS
330
1EE
330
1EF
102
}
330
76
100
AcDbEntity
  8
0
  6
Continuous
 62
     2
100
AcDbLine
 10
-894.9656337353249
 20
-1169.587127495167
 30
0.0
 11
-891.8153140115439
 21
-1169.587127495167
 31
0.0
  0
LINE
  5
127
102
{ACAD_REACTORS
330
1EE
330
1EF
102
}
330
76
100
AcDbEntity
  8
0
  6
Continuous
 62
     2
100
AcDbLine
 10
-891.8153140115439
 20
-1170.28514110061
 30
0.0
 11
-891.8153140115439
 21
-1169.587127495167
 31
0.0
  0
LINE
  5
128
102
{ACAD_REACTORS
330
200
330
201
102
}
330
76
100
AcDbEntity
  8
0
  6
Continuous
 62
     2
100
AcDbLine
 10
-897.826989230465
 20
-1170.655960828502
 30
0.0
 11
-897.826989230465
 21
-1169.587127495167
 31
0.0
  0
LINE
  5
129
102
{ACAD_REACTORS
330
200
330
201
102
}
330
76
100
AcDbEntity
  8
0
  6
Continuous
 62
     2
100
AcDbLine
 10
-897.826989230465
 20
-1169.587127495167
 30
0.0
 11
-896.6341965282985
 21
-1169.587127495167
 31
0.0
  0
LINE
  5
12A
102
{ACAD_REACTORS
330
200
330
201
102
}
330
76
100
AcDbEntity
  8
0
  6
Continuous
 62
     2
100
AcDbLine
 10
-897.826989230465
 20
-1171.506664910135
 30
0.0
 11
-898.8766468083724
 21
-1171.506664910135
 31
0.0
  0
LINE
  5
12B
102
{ACAD_REACTORS
330
200
330
201
102
}
330
76
100
AcDbEntity
  8
0
  6
Continuous
 62
     2
100
AcDbLine
 10
-898.8766468083724
 20
-1171.506664910135
 30
0.0
 11
-898.8766468083724
 21
-1172.640937018978
 31
0.0
  0
LINE
  5
12C
102
{ACAD_REACTORS
330
200
330
201
102
}
330
76
100
AcDbEntity
  8
0
  6
Continuous
 62
     2
100
AcDbLine
 10
-900.0694395105389
 20
-1169.587127495167
 30
0.0
 11
-900.0694395105389
 21
-1172.640937018978
 31
0.0
  0
LINE
  5
12D
102
{ACAD_REACTORS
330
1F2
330
1F3
102
}
330
76
100
AcDbEntity
  8
0
  6
Continuous
 62
     2
100
AcDbLine
 10
-902.0256195420927
 20
-1170.95596098995
 30
0.0
 11
-902.0256195420927
 21
-1170.250233340607
 31
0.0
  0
LINE
  5
12E
102
{ACAD_REACTORS
330
1F2
330
1F3
102
}
330
76
100
AcDbEntity
  8
0
  6
Continuous
 62
     2
100
AcDbLine
 10
-903.2661239523467
 20
-1172.640937018978
 30
0.0
 11
-902.0256195420927
 21
-1172.640937018978
 31
0.0
  0
LINE
  5
12F
102
{ACAD_REACTORS
330
1F2
330
1F3
102
}
330
76
100
AcDbEntity
  8
0
  6
Continuous
 62
     2
100
AcDbLine
 10
-902.0256195420927
 20
-1172.640937018978
 30
0.0
 11
-902.0256195420927
 21
-1171.697858777835
 31
0.0
  0
LINE
  5
130
102
{ACAD_REACTORS
330
1EC
330
1ED
102
}
330
76
100
AcDbEntity
  8
0
  6
Continuous
 62
     2
100
AcDbLine
 10
-907.5710698015582
 20
-1175.287571939596
 30
0.0
 11
-909.0469030625677
 21
-1175.287571939596
 31
0.0
  0
LINE
  5
131
102
{ACAD_REACTORS
330
1EC
330
1ED
102
}
330
76
100
AcDbEntity
  8
0
  6
Continuous
 62
     2
100
AcDbLine
 10
-910.0650423546971
 20
-1170.011372110569
 30
0.0
 11
-910.0650423546971
 21
-1175.57588287977
 31
0.0
  0
LINE
  5
132
102
{ACAD_REACTORS
330
1EC
330
1ED
102
}
330
76
100
AcDbEntity
  8
0
  6
Continuous
 62
     2
100
AcDbLine
 10
-909.6407977393143
 20
-1169.587127495185
 30
0.0
 11
-904.1674856485973
 21
-1169.587127495185
 31
0.0
  0
LINE
  5
133
102
{ACAD_REACTORS
330
1EC
330
1ED
102
}
330
76
100
AcDbEntity
  8
0
  6
Continuous
 62
     2
100
AcDbLine
 10
-903.7432410332135
 20
-1170.011372110569
 30
0.0
 11
-903.7432410332135
 21
-1175.57588287977
 31
0.0
  0
LINE
  5
134
102
{ACAD_REACTORS
330
1EC
330
1ED
102
}
330
76
100
AcDbEntity
  8
0
  6
Continuous
 62
     2
100
AcDbLine
 10
-904.1674856485973
 20
-1176.000127495153
 30
0.0
 11
-909.6407977393143
 21
-1176.000127495153
 31
0.0
  0
LINE
  5
135
102
{ACAD_REACTORS
330
1EC
330
1ED
102
}
330
76
100
AcDbEntity
  8
0
  6
Continuous
 62
     2
100
AcDbLine
 10
-907.2553528784815
 20
-1174.971855016519
 30
0.0
 11
-907.2553528784815
 21
-1173.441084084988
 31
0.0
  0
LINE
  5
136
102
{ACAD_REACTORS
330
1EC
330
1ED
102
}
330
76
100
AcDbEntity
  8
0
  6
Continuous
 62
     2
100
AcDbLine
 10
-907.2553528784815
 20
-1171.219424592863
 30
0.0
 11
-907.2553528784815
 21
-1170.615399973802
 31
0.0
  0
LINE
  5
137
102
{ACAD_REACTORS
330
1EC
330
1ED
102
}
330
76
100
AcDbEntity
  8
0
  6
Continuous
 62
     2
100
AcDbLine
 10
-909.0469030625677
 20
-1170.299683050726
 30
0.0
 11
-907.5710698015582
 21
-1170.299683050726
 31
0.0
  0
LINE
  5
138
102
{ACAD_REACTORS
330
1EC
330
1ED
102
}
330
76
100
AcDbEntity
  8
0
  6
Continuous
 62
     2
100
AcDbLine
 10
-909.3626199856434
 20
-1170.615399973802
 30
0.0
 11
-909.3626199856434
 21
-1174.971855016519
 31
0.0
  0
LINE
  5
139
102
{ACAD_REACTORS
330
1F2
330
1F3
102
}
330
76
100
AcDbEntity
  8
0
  6
Continuous
 62
     2
100
AcDbLine
 10
-902.0256195420927
 20
-1171.697858777835
 30
0.0
 11
-901.2668519543123
 21
-1171.697858777835
 31
0.0
  0
LINE
  5
13A
102
{ACAD_REACTORS
330
1F2
330
1F3
102
}
330
76
100
AcDbEntity
  8
0
  6
Continuous
 62
     2
100
AcDbLine
 10
-903.2661239523467
 20
-1169.587127495167
 30
0.0
 11
-901.2668519543123
 21
-1169.587127495167
 31
0.0
  0
LINE
  5
13B
102
{ACAD_REACTORS
330
1F2
330
1F3
102
}
330
76
100
AcDbEntity
  8
0
  6
Continuous
 62
     2
100
AcDbLine
 10
-903.2661239523467
 20
-1169.587127495167
 30
0.0
 11
-903.2661239523467
 21
-1172.640937018978
 31
0.0
  0
LINE
  5
13C
102
{ACAD_REACTORS
330
1F2
330
1F3
102
}
330
76
100
AcDbEntity
  8
0
  6
Continuous
 62
     2
100
AcDbLine
 10
-902.0256195420927
 20
-1170.95596098995
 30
0.0
 11
-901.7083244805507
 21
-1170.95596098995
 31
0.0
  0
LINE
  5
13D
102
{ACAD_REACTORS
330
1F2
330
1F3
102
}
330
76
100
AcDbEntity
  8
0
  6
Continuous
 62
     2
100
AcDbLine
 10
-902.0256195420927
 20
-1170.250233340607
 30
0.0
 11
-901.7083244805507
 21
-1170.250233340607
 31
0.0
  0
LINE
  5
13E
102
{ACAD_REACTORS
330
200
330
201
102
}
330
76
100
AcDbEntity
  8
0
  6
Continuous
 62
     2
100
AcDbLine
 10
-898.8766468083724
 20
-1170.655960828502
 30
0.0
 11
-897.826989230465
 21
-1170.655960828502
 31
0.0
  0
LINE
  5
13F
102
{ACAD_REACTORS
330
200
330
201
102
}
330
76
100
AcDbEntity
  8
0
  6
Continuous
 62
     2
100
AcDbLine
 10
-898.8766468083724
 20
-1169.587127495167
 30
0.0
 11
-898.8766468083724
 21
-1170.655960828502
 31
0.0
  0
LINE
  5
140
102
{ACAD_REACTORS
330
200
330
201
102
}
330
76
100
AcDbEntity
  8
0
  6
Continuous
 62
     2
100
AcDbLine
 10
-900.0694395105389
 20
-1169.587127495167
 30
0.0
 11
-898.8766468083724
 21
-1169.587127495167
 31
0.0
  0
LINE
  5
141
102
{ACAD_REACTORS
330
200
330
201
102
}
330
76
100
AcDbEntity
  8
0
  6
Continuous
 62
     2
100
AcDbLine
 10
-898.8766468083724
 20
-1172.640937018978
 30
0.0
 11
-900.0694395105389
 21
-1172.640937018978
 31
0.0
  0
LINE
  5
142
102
{ACAD_REACTORS
330
200
330
201
102
}
330
76
100
AcDbEntity
  8
0
  6
Continuous
 62
     2
100
AcDbLine
 10
-897.826989230465
 20
-1172.640937018978
 30
0.0
 11
-897.826989230465
 21
-1171.506664910135
 31
0.0
  0
LINE
  5
143
102
{ACAD_REACTORS
330
200
330
201
102
}
330
76
100
AcDbEntity
  8
0
  6
Continuous
 62
     2
100
AcDbLine
 10
-896.6341965282985
 20
-1172.640937018978
 30
0.0
 11
-897.826989230465
 21
-1172.640937018978
 31
0.0
  0
LINE
  5
144
102
{ACAD_REACTORS
330
200
330
201
102
}
330
76
100
AcDbEntity
  8
0
  6
Continuous
 62
     2
100
AcDbLine
 10
-896.6341965282985
 20
-1169.587127495167
 30
0.0
 11
-896.6341965282985
 21
-1172.640937018978
 31
0.0
  0
LINE
  5
145
102
{ACAD_REACTORS
330
1EE
330
1EF
102
}
330
76
100
AcDbEntity
  8
0
  6
Continuous
 62
     2
100
AcDbLine
 10
-893.1512418379716
 20
-1171.463039059794
 30
0.0
 11
-891.8153140115439
 21
-1171.463039059794
 31
0.0
  0
LINE
  5
146
102
{ACAD_REACTORS
330
1EE
330
1EF
102
}
330
76
100
AcDbEntity
  8
0
  6
Continuous
 62
     2
100
AcDbLine
 10
-891.8153140115439
 20
-1171.463039059794
 30
0.0
 11
-891.8153140115439
 21
-1170.765025454352
 31
0.0
  0
LINE
  5
147
102
{ACAD_REACTORS
330
1EE
330
1EF
102
}
330
76
100
AcDbEntity
  8
0
  6
Continuous
 62
     2
100
AcDbLine
 10
-891.8153140115439
 20
-1170.765025454352
 30
0.0
 11
-893.1512418379716
 21
-1170.765025454352
 31
0.0
  0
LINE
  5
148
102
{ACAD_REACTORS
330
1EE
330
1EF
102
}
330
76
100
AcDbEntity
  8
0
  6
Continuous
 62
     2
100
AcDbLine
 10
-893.1512418379716
 20
-1170.765025454352
 30
0.0
 11
-893.1512418379716
 21
-1170.28514110061
 31
0.0
  0
LINE
  5
149
102
{ACAD_REACTORS
330
1FE
330
1FF
102
}
330
76
100
AcDbEntity
  8
0
  6
Continuous
 62
     2
100
AcDbLine
 10
-896.8251942915307
 20
-1176.000127495153
 30
0.0
 11
-895.6324015893631
 21
-1176.000127495153
 31
0.0
  0
LINE
  5
14A
102
{ACAD_REACTORS
330
1FE
330
1FF
102
}
330
76
100
AcDbEntity
  8
0
  6
Continuous
 62
     2
100
AcDbLine
 10
-894.3918971791102
 20
-1176.000127495153
 30
0.0
 11
-893.1991044769438
 21
-1176.000127495153
 31
0.0
  0
LINE
  5
14B
102
{ACAD_REACTORS
330
1FE
330
1FF
102
}
330
76
100
AcDbEntity
  8
0
  6
Continuous
 62
     2
100
AcDbLine
 10
-895.6324015893631
 20
-1172.946317971342
 30
0.0
 11
-896.8251942915307
 21
-1172.946317971342
 31
0.0
  0
LINE
  5
14C
102
{ACAD_REACTORS
330
1FE
330
1FF
102
}
330
76
100
AcDbEntity
  8
0
  6
Continuous
 62
     2
100
AcDbLine
 10
-896.8251942915307
 20
-1172.946317971342
 30
0.0
 11
-896.8251942915307
 21
-1176.000127495153
 31
0.0
  0
LINE
  5
14D
102
{ACAD_REACTORS
330
1FC
330
1FD
102
}
330
76
100
AcDbEntity
  8
0
  6
Continuous
 62
     2
100
AcDbLine
 10
-889.1434583586905
 20
-1169.587127495167
 30
0.0
 11
-889.1434583586905
 21
-1170.895903005373
 31
0.0
  0
LINE
  5
14E
102
{ACAD_REACTORS
330
1FC
330
1FD
102
}
330
76
100
AcDbEntity
  8
0
  6
Continuous
 62
     2
100
AcDbLine
 10
-890.3839627689446
 20
-1169.587127495167
 30
0.0
 11
-891.576755471111
 21
-1169.587127495167
 31
0.0
  0
LINE
  5
14F
102
{ACAD_REACTORS
330
1FC
330
1FD
102
}
330
76
100
AcDbEntity
  8
0
  6
Continuous
 62
     2
100
AcDbLine
 10
-891.576755471111
 20
-1169.587127495167
 30
0.0
 11
-891.576755471111
 21
-1172.640937018978
 31
0.0
  0
LINE
  5
150
102
{ACAD_REACTORS
330
1FC
330
1FD
102
}
330
76
100
AcDbEntity
  8
0
  6
Continuous
 62
     2
100
AcDbLine
 10
-890.3839627689446
 20
-1172.640937018978
 30
0.0
 11
-890.3839627689446
 21
-1171.332161508774
 31
0.0
  0
LINE
  5
151
102
{ACAD_REACTORS
330
1FA
330
1FB
102
}
330
76
100
AcDbEntity
  8
0
  6
Continuous
 62
     2
100
AcDbLine
 10
-891.0520776130426
 20
-1176.000127495153
 30
0.0
 11
-891.0520776130426
 21
-1173.731583277465
 31
0.0
  0
LINE
  5
152
102
{ACAD_REACTORS
330
1FA
330
1FB
102
}
330
76
100
AcDbEntity
  8
0
  6
Continuous
 62
     2
100
AcDbLine
 10
-891.0520776130426
 20
-1173.731583277465
 30
0.0
 11
-890.2409785755699
 21
-1173.731583277465
 31
0.0
  0
LINE
  5
153
102
{ACAD_REACTORS
330
1FA
330
1FB
102
}
330
76
100
AcDbEntity
  8
0
  6
Continuous
 62
     2
100
AcDbLine
 10
-890.2409785755699
 20
-1173.731583277465
 30
0.0
 11
-890.2409785755699
 21
-1172.946317971342
 31
0.0
  0
LINE
  5
154
102
{ACAD_REACTORS
330
1FA
330
1FB
102
}
330
76
100
AcDbEntity
  8
0
  6
Continuous
 62
     2
100
AcDbLine
 10
-890.2409785755699
 20
-1172.946317971342
 30
0.0
 11
-893.0559693526836
 21
-1172.946317971342
 31
0.0
  0
LINE
  5
155
102
{ACAD_REACTORS
330
1FA
330
1FB
102
}
330
76
100
AcDbEntity
  8
0
  6
Continuous
 62
     2
100
AcDbLine
 10
-893.0559693526836
 20
-1173.731583277465
 30
0.0
 11
-892.244870315209
 21
-1173.731583277465
 31
0.0
  0
LINE
  5
156
102
{ACAD_REACTORS
330
1F8
330
1F9
102
}
330
76
100
AcDbEntity
  8
0
  6
Continuous
 62
     2
100
AcDbLine
 10
-889.4464727497727
 20
-1175.459166950935
 30
0.0
 11
-888.3140311730988
 21
-1175.459166950935
 31
0.0
  0
LINE
  5
157
102
{ACAD_REACTORS
330
1F8
330
1F9
102
}
330
76
100
AcDbEntity
  8
0
  6
Continuous
 62
     2
100
AcDbLine
 10
-886.8620467093691
 20
-1176.000127495153
 30
0.0
 11
-888.102551119623
 21
-1176.000127495153
 31
0.0
  0
LINE
  5
158
102
{ACAD_REACTORS
330
1F8
330
1F9
102
}
330
76
100
AcDbEntity
  8
0
  6
Continuous
 62
     2
100
AcDbLine
 10
-889.5005041665622
 20
-1172.946317971342
 30
0.0
 11
-890.8984572135014
 21
-1176.000127495153
 31
0.0
  0
LINE
  5
159
102
{ACAD_REACTORS
330
1F8
330
1F9
102
}
330
76
100
AcDbEntity
  8
0
  6
Continuous
 62
     2
100
AcDbLine
 10
-889.6579528032485
 20
-1176.000127495153
 30
0.0
 11
-889.4464727497727
 21
-1175.459166950935
 31
0.0
  0
LINE
  5
15A
102
{ACAD_REACTORS
330
1F8
330
1F9
102
}
330
76
100
AcDbEntity
  8
0
  6
Continuous
 62
     2
100
AcDbLine
 10
-889.1804171986275
 20
-1174.778603685628
 30
0.0
 11
-888.8802519614353
 21
-1174.010788719642
 31
0.0
  0
LINE
  5
15B
102
{ACAD_REACTORS
330
1F6
330
1F7
102
}
330
76
100
AcDbEntity
  8
0
  6
Continuous
 62
     2
100
AcDbLine
 10
-887.71210711609
 20
-1172.640937018978
 30
0.0
 11
-887.71210711609
 21
-1169.587127495167
 31
0.0
  0
LINE
  5
15C
102
{ACAD_REACTORS
330
1F6
330
1F7
102
}
330
76
100
AcDbEntity
  8
0
  6
Continuous
 62
     2
100
AcDbLine
 10
-886.4716027058371
 20
-1169.587127495167
 30
0.0
 11
-886.4716027058371
 21
-1172.640937018978
 31
0.0
  0
LINE
  5
15D
102
{ACAD_REACTORS
330
1F6
330
1F7
102
}
330
76
100
AcDbEntity
  8
0
  6
Continuous
 62
     2
100
AcDbLine
 10
-887.71210711609
 20
-1169.587127495167
 30
0.0
 11
-886.4716027058371
 21
-1169.587127495167
 31
0.0
  0
LINE
  5
15E
102
{ACAD_REACTORS
330
1F4
330
1F5
102
}
330
76
100
AcDbEntity
  8
0
  6
Continuous
 62
     2
100
AcDbLine
 10
-884.2530082798063
 20
-1171.853205233685
 30
0.0
 11
-883.5564173417408
 21
-1172.640937018978
 31
0.0
  0
LINE
  5
15F
102
{ACAD_REACTORS
330
1F4
330
1F5
102
}
330
76
100
AcDbEntity
  8
0
  6
Continuous
 62
     2
100
AcDbLine
 10
-883.5564173417408
 20
-1172.640937018978
 30
0.0
 11
-882.1536931239925
 21
-1172.640937018978
 31
0.0
  0
LINE
  5
160
102
{ACAD_REACTORS
330
1F4
330
1F5
102
}
330
76
100
AcDbEntity
  8
0
  6
Continuous
 62
     2
100
AcDbLine
 10
-883.5516461709328
 20
-1171.060078025203
 30
0.0
 11
-882.1536931239925
 21
-1172.640937018978
 31
0.0
  0
LINE
  5
161
102
{ACAD_REACTORS
330
1F4
330
1F5
102
}
330
76
100
AcDbEntity
  8
0
  6
Continuous
 62
     2
100
AcDbLine
 10
-883.5516461709328
 20
-1171.060078025203
 30
0.0
 11
-882.2491165401663
 21
-1169.587127495167
 31
0.0
  0
LINE
  5
162
102
{ACAD_REACTORS
330
1F4
330
1F5
102
}
330
76
100
AcDbEntity
  8
0
  6
Continuous
 62
     2
100
AcDbLine
 10
-884.2530082798063
 20
-1170.266950816723
 30
0.0
 11
-883.6518407579135
 21
-1169.587127495167
 31
0.0
  0
LINE
  5
163
102
{ACAD_REACTORS
330
1F4
330
1F5
102
}
330
76
100
AcDbEntity
  8
0
  6
Continuous
 62
     2
100
AcDbLine
 10
-884.8541758016981
 20
-1169.587127495167
 30
0.0
 11
-884.2530082798063
 21
-1170.266950816723
 31
0.0
  0
LINE
  5
164
102
{ACAD_REACTORS
330
1F4
330
1F5
102
}
330
76
100
AcDbEntity
  8
0
  6
Continuous
 62
     2
100
AcDbLine
 10
-884.8541758016981
 20
-1169.587127495167
 30
0.0
 11
-886.2569000194474
 21
-1169.587127495167
 31
0.0
  0
LINE
  5
165
102
{ACAD_REACTORS
330
1EA
330
1EB
102
}
330
76
100
AcDbEntity
  8
0
  6
Continuous
 62
     2
100
AcDbLine
 10
-884.1575848636337
 20
-1176.000127495153
 30
0.0
 11
-882.964792161466
 21
-1176.000127495153
 31
0.0
  0
LINE
  5
166
102
{ACAD_REACTORS
330
1EA
330
1EB
102
}
330
76
100
AcDbEntity
  8
0
  6
Continuous
 62
     2
100
AcDbLine
 10
-882.964792161466
 20
-1176.000127495153
 30
0.0
 11
-882.964792161466
 21
-1173.731583277465
 31
0.0
  0
LINE
  5
167
102
{ACAD_REACTORS
330
1EA
330
1EB
102
}
330
76
100
AcDbEntity
  8
0
  6
Continuous
 62
     2
100
AcDbLine
 10
-882.964792161466
 20
-1173.731583277465
 30
0.0
 11
-882.1536931239925
 21
-1173.731583277465
 31
0.0
  0
LINE
  5
168
102
{ACAD_REACTORS
330
1EA
330
1EB
102
}
330
76
100
AcDbEntity
  8
0
  6
Continuous
 62
     2
100
AcDbLine
 10
-882.1536931239925
 20
-1173.731583277465
 30
0.0
 11
-882.1536931239925
 21
-1172.946317971342
 31
0.0
  0
LINE
  5
169
102
{ACAD_REACTORS
330
1EA
330
1EB
102
}
330
76
100
AcDbEntity
  8
0
  6
Continuous
 62
     2
100
AcDbLine
 10
-885.5386386426212
 20
-1172.946317971342
 30
0.0
 11
-882.1536931239925
 21
-1172.946317971342
 31
0.0
  0
LINE
  5
16A
102
{ACAD_REACTORS
330
1EA
330
1EB
102
}
330
76
100
AcDbEntity
  8
0
  6
Continuous
 62
     2
100
AcDbLine
 10
-884.1575848636337
 20
-1173.731583277465
 30
0.0
 11
-884.1575848636337
 21
-1176.000127495153
 31
0.0
  0
LINE
  5
16B
102
{ACAD_REACTORS
330
1EC
330
1ED
102
}
330
76
100
AcDbEntity
  8
0
  6
Continuous
 62
     2
100
AcDbLine
 10
-906.7870712991128
 20
-1174.021247345588
 30
0.0
 11
-906.7870712991128
 21
-1173.439395938893
 31
0.0
  0
LINE
  5
16C
102
{ACAD_REACTORS
330
1EC
330
1ED
102
}
330
76
100
AcDbEntity
  8
0
  6
Continuous
 62
     2
100
AcDbLine
 10
-906.7870712991128
 20
-1171.221112738957
 30
0.0
 11
-906.7870712991128
 21
-1170.61557745045
 31
0.0
  0
LINE
  5
16D
330
76
100
AcDbEntity
  8
1
  6
Continuous
 62
     6
100
AcDbLine
 10
-828.2568927145096
 20
-1183.293627495169
 30
0.0
 11
-784.7568927145097
 21
-1183.293627495169
 31
0.0
  0
LINE
  5
16E
330
76
100
AcDbEntity
  8
1
  6
Continuous
 62
     6
100
AcDbLine
 10
-878.2568927145096
 20
-1183.293627495169
 30
0.0
 11
-896.1016972412597
 21
-1183.293627495169
 31
0.0
  0
LINE
  5
16F
330
76
100
AcDbEntity
  8
1
  6
Continuous
 62
     6
100
AcDbLine
 10
-914.3016972412596
 20
-1166.293627495169
 30
0.0
 11
-877.9016972412596
 21
-1166.293627495169
 31
0.0
  0
LINE
  5
170
330
76
100
AcDbEntity
  8
1
  6
Continuous
 62
     6
100
AcDbLine
 10
-784.7568927145097
 20
-1183.293627495169
 30
0.0
 11
-784.7568927145084
 21
-1174.793627495169
 31
0.0
  0
LINE
  5
171
330
76
100
AcDbEntity
  8
1
  6
Continuous
 62
     6
100
AcDbLine
 10
-877.9016972412596
 20
-1183.293627495169
 30
0.0
 11
-828.2568927145096
 21
-1183.293627495169
 31
0.0
  0
LINE
  5
172
330
76
100
AcDbEntity
  8
1
  6
Continuous
 62
     7
100
AcDbLine
 10
-914.3016972412596
 20
-1166.293627495169
 30
0.0
 11
-914.3016972412596
 21
-1179.043627495169
 31
0.0
  0
LINE
  5
173
330
76
100
AcDbEntity
  8
1
  6
Continuous
 62
     7
100
AcDbLine
 10
-877.9016972412596
 20
-1166.293627495169
 30
0.0
 11
-877.9016972412596
 21
-1179.043627495169
 31
0.0
  0
LINE
  5
174
330
76
100
AcDbEntity
  8
1
  6
Continuous
 62
     6
100
AcDbLine
 10
-877.9016972412596
 20
-1183.293627495169
 30
0.0
 11
-878.2568927145096
 21
-1183.293627495169
 31
0.0
  0
LINE
  5
175
330
76
100
AcDbEntity
  8
1
  6
Continuous
 62
     6
100
AcDbLine
 10
-784.7568927145079
 20
-1166.293627495169
 30
0.0
 11
-784.7568927145084
 21
-1174.793627495169
 31
0.0
  0
LINE
  5
176
330
76
100
AcDbEntity
  8
1
  6
Continuous
 62
     2
100
AcDbLine
 10
-910.0650423546971
 20
-1160.918627495169
 30
0.0
 11
-905.0650423546971
 21
-1159.668627495169
 31
0.0
  0
LINE
  5
177
330
76
100
AcDbEntity
  8
1
  6
Continuous
 62
     2
100
AcDbLine
 10
-910.0650423546971
 20
-1163.418627495169
 30
0.0
 11
-910.0650423546971
 21
-1160.918627495169
 31
0.0
  0
LINE
  5
178
330
76
100
AcDbEntity
  8
1
  6
Continuous
 62
     2
100
AcDbLine
 10
-905.0650423546971
 20
-1164.668627495169
 30
0.0
 11
-910.0650423546971
 21
-1163.418627495169
 31
0.0
  0
LINE
  5
179
330
76
100
AcDbEntity
  8
1
  6
Continuous
 62
     2
100
AcDbLine
 10
-905.0650423546971
 20
-1159.668627495169
 30
0.0
 11
-905.0650423546971
 21
-1164.668627495169
 31
0.0
  0
LINE
  5
17A
330
76
100
AcDbEntity
  8
1
  6
Continuous
 62
     7
100
AcDbLine
 10
-914.3016972412596
 20
-1179.043627495169
 30
0.0
 11
-896.1016972412597
 21
-1179.043627495169
 31
0.0
  0
LINE
  5
17B
330
76
100
AcDbEntity
  8
1
  6
Continuous
 62
     7
100
AcDbLine
 10
-914.3016972412596
 20
-1179.043627495169
 30
0.0
 11
-914.3016972412596
 21
-1183.293627495169
 31
0.0
  0
LINE
  5
17C
330
76
100
AcDbEntity
  8
1
  6
Continuous
 62
     7
100
AcDbLine
 10
-877.9016972412596
 20
-1179.043627495169
 30
0.0
 11
-877.9016972412596
 21
-1183.293627495169
 31
0.0
  0
LINE
  5
17D
330
76
100
AcDbEntity
  8
1
  6
Continuous
 62
     7
100
AcDbLine
 10
-896.1016972412597
 20
-1179.043627495169
 30
0.0
 11
-896.1016972412597
 21
-1183.293627495169
 31
0.0
  0
LINE
  5
17E
330
76
100
AcDbEntity
  8
1
  6
Continuous
 62
     6
100
AcDbLine
 10
-896.1016972412597
 20
-1183.293627495169
 30
0.0
 11
-914.3016972412596
 21
-1183.293627495169
 31
0.0
  0
LINE
  5
17F
330
76
100
AcDbEntity
  8
1
  6
Continuous
 62
     7
100
AcDbLine
 10
-896.1016972412597
 20
-1179.043627495169
 30
0.0
 11
-877.9016972412596
 21
-1179.043627495169
 31
0.0
  0
LINE
  5
180
330
76
100
AcDbEntity
  8
1
  6
Continuous
 62
     6
100
AcDbLine
 10
-914.3016972412596
 20
-1157.793627495169
 30
0.0
 11
-784.7568927145079
 21
-1157.793627495169
 31
0.0
  0
LINE
  5
181
330
76
100
AcDbEntity
  8
1
  6
PHANTOM
 62
     2
100
AcDbLine
 10
-898.8150423546971
 20
-1162.168627495169
 30
0.0
 11
-904.3150423546971
 21
-1162.168627495169
 31
0.0
  0
LINE
  5
182
330
76
100
AcDbEntity
  8
1
  6
PHANTOM
 62
     2
100
AcDbLine
 10
-901.5650423546971
 20
-1159.418627495169
 30
0.0
 11
-901.5650423546971
 21
-1164.918627495169
 31
0.0
  0
LINE
  5
183
330
76
100
AcDbEntity
  8
1
  6
DOT_CENTER
 62
     2
100
AcDbLine
 10
-910.3150423546971
 20
-1162.168627495169
 30
0.0
 11
-904.8150423546971
 21
-1162.168627495169
 31
0.0
  0
ARC
  5
184
102
{ACAD_REACTORS
330
1F0
330
1F1
102
}
330
76
100
AcDbEntity
  8
0
  6
Continuous
 62
     2
100
AcDbCircle
 10
-898.9100492422996
 20
-1174.473222733247
 30
0.0
 40
0.7717997786801571
100
AcDbArc
 50
321.8795802027775
 51
38.1204197971694
  0
ARC
  5
185
102
{ACAD_REACTORS
330
1F0
330
1F1
102
}
330
76
100
AcDbEntity
  8
0
  6
Continuous
 62
     2
100
AcDbCircle
 10
-898.7103092059532
 20
-1174.629953911368
 30
0.0
 40
0.5179085730138424
100
AcDbArc
 50
218.1204197971879
 51
321.8795802027889
  0
ARC
  5
186
102
{ACAD_REACTORS
330
1F0
330
1F1
102
}
330
76
100
AcDbEntity
  8
0
  6
Continuous
 62
     2
100
AcDbCircle
 10
-898.5105691696072
 20
-1174.473222733247
 30
0.0
 40
0.7717997786795957
100
AcDbArc
 50
141.8795802028306
 51
218.1204197972225
  0
ARC
  5
187
102
{ACAD_REACTORS
330
1F0
330
1F1
102
}
330
76
100
AcDbEntity
  8
0
  6
Continuous
 62
     2
100
AcDbCircle
 10
-898.7103092059532
 20
-1174.316491555127
 30
0.0
 40
0.517908573013574
100
AcDbArc
 50
38.12041979721116
 51
141.8795802028121
  0
ARC
  5
188
102
{ACAD_REACTORS
330
1E8
330
1E9
102
}
330
76
100
AcDbEntity
  8
0
  6
Continuous
 62
     2
100
AcDbCircle
 10
-901.7723233415172
 20
-1175.883689098656
 30
0.0
 40
2.227384008973766
100
AcDbArc
 50
58.06909105003847
 51
71.55192388187184
  0
ARC
  5
189
102
{ACAD_REACTORS
330
1E8
330
1E9
102
}
330
76
100
AcDbEntity
  8
0
  6
Continuous
 62
     2
100
AcDbCircle
 10
-901.5105956405583
 20
-1174.268151303908
 30
0.0
 40
0.5115800601943187
100
AcDbArc
 50
113.3722778882227
 51
151.4785267423619
  0
ARC
  5
18A
102
{ACAD_REACTORS
330
1E8
330
1E9
102
}
330
76
100
AcDbEntity
  8
0
  6
Continuous
 62
     2
100
AcDbCircle
 10
-901.133238382478
 20
-1174.473222733247
 30
0.0
 40
0.9410597353329787
100
AcDbArc
 50
151.478526742305
 51
208.5214732577436
  0
ARC
  5
18B
102
{ACAD_REACTORS
330
1E8
330
1E9
102
}
330
76
100
AcDbEntity
  8
0
  6
Continuous
 62
     2
100
AcDbCircle
 10
-901.9301962166099
 20
-1171.160541787991
 30
0.0
 40
4.852596863497932
100
AcDbArc
 50
275.1581447696242
 51
285.9799912583526
  0
ARC
  5
18C
102
{ACAD_REACTORS
330
1E8
330
1E9
102
}
330
76
100
AcDbEntity
  8
0
  6
Continuous
 62
     2
100
AcDbCircle
 10
-901.641340121874
 20
-1174.360432371213
 30
0.0
 40
1.639695123939416
100
AcDbArc
 50
195.061891777078
 51
275.1581447696374
  0
ARC
  5
18D
102
{ACAD_REACTORS
330
1E8
330
1E9
102
}
330
76
100
AcDbEntity
  8
0
  6
Continuous
 62
     2
100
AcDbCircle
 10
-902.0604679653369
 20
-1174.473222733247
 30
0.0
 40
1.205656168390927
100
AcDbArc
 50
164.9381082228846
 51
195.0618917771153
  0
ARC
  5
18E
102
{ACAD_REACTORS
330
1E8
330
1E9
102
}
330
76
100
AcDbEntity
  8
0
  6
Continuous
 62
     2
100
AcDbCircle
 10
-901.641340121874
 20
-1174.586013095282
 30
0.0
 40
1.639695123940213
100
AcDbArc
 50
84.84185523036543
 51
164.9381082228913
  0
ARC
  5
18F
102
{ACAD_REACTORS
330
1EC
330
1ED
102
}
330
76
100
AcDbEntity
  8
0
  6
Continuous
 62
     2
100
AcDbCircle
 10
-906.471354376036
 20
-1173.439395938893
 30
0.0
 40
0.3157169230761855
100
AcDbArc
 50
115.3740086783875
 51
180.0
  0
ARC
  5
190
102
{ACAD_REACTORS
330
1EC
330
1ED
102
}
330
76
100
AcDbEntity
  8
0
  6
Continuous
 62
     2
100
AcDbCircle
 10
-906.471354376036
 20
-1171.221112738957
 30
0.0
 40
0.3157169230768204
100
AcDbArc
 50
180.0
 51
244.6259913216833
  0
ARC
  5
191
102
{ACAD_REACTORS
330
1EC
330
1ED
102
}
330
76
100
AcDbEntity
  8
0
  6
Continuous
 62
     2
100
AcDbCircle
 10
-906.465738240726
 20
-1172.318412398019
 30
0.0
 40
2.018561131933152
100
AcDbArc
 50
269.811032957581
 51
90.18896704241901
  0
ARC
  5
192
102
{ACAD_REACTORS
330
1EC
330
1ED
102
}
330
76
100
AcDbEntity
  8
0
  6
Continuous
 62
     2
100
AcDbCircle
 10
-906.471354376036
 20
-1174.021247345588
 30
0.0
 40
0.3157169230768204
100
AcDbArc
 50
180.0
 51
269.8110329574179
  0
ARC
  5
193
102
{ACAD_REACTORS
330
1EA
330
1EB
102
}
330
76
100
AcDbEntity
  8
0
  6
Continuous
 62
     2
100
AcDbCircle
 10
-885.4078941613054
 20
-1174.268151303908
 30
0.0
 40
0.5115800601937612
100
AcDbArc
 50
109.3371432195076
 51
151.4785267424227
  0
ARC
  5
194
102
{ACAD_REACTORS
330
1EA
330
1EB
102
}
330
76
100
AcDbEntity
  8
0
  6
Continuous
 62
     2
100
AcDbCircle
 10
-885.4078941613054
 20
-1174.678294162586
 30
0.0
 40
0.5115800601958815
100
AcDbArc
 50
208.5214732576444
 51
246.6277221118294
  0
ARC
  5
195
102
{ACAD_REACTORS
330
1EA
330
1EB
102
}
330
76
100
AcDbEntity
  8
0
  6
Continuous
 62
     2
100
AcDbCircle
 10
-885.9577664860828
 20
-1174.473222733247
 30
0.0
 40
1.205656168392903
100
AcDbArc
 50
164.9381082229099
 51
195.0618917771318
  0
ARC
  5
196
102
{ACAD_REACTORS
330
1EA
330
1EB
102
}
330
76
100
AcDbEntity
  8
0
  6
Continuous
 62
     2
100
AcDbCircle
 10
-885.5386386426212
 20
-1174.586013095282
 30
0.0
 40
1.639695123939873
100
AcDbArc
 50
90.0
 51
164.9381082228985
  0
ARC
  5
197
102
{ACAD_REACTORS
330
1EE
330
1EF
102
}
330
76
100
AcDbEntity
  8
0
  6
Continuous
 62
     2
100
AcDbCircle
 10
-894.9656337353249
 20
-1171.114032257073
 30
0.0
 40
1.526904761906053
100
AcDbArc
 50
90.0
 51
270.0
  0
ARC
  5
198
102
{ACAD_REACTORS
330
1F2
330
1F3
102
}
330
76
100
AcDbEntity
  8
0
  6
Continuous
 62
     2
100
AcDbCircle
 10
-901.7083244805507
 20
-1170.603097165279
 30
0.0
 40
0.3528638246709761
100
AcDbArc
 50
270.0
 51
90.0
  0
ARC
  5
199
102
{ACAD_REACTORS
330
1EC
330
1ED
102
}
330
76
100
AcDbEntity
  8
0
  6
Continuous
 62
     2
100
AcDbCircle
 10
-909.0469030625677
 20
-1170.615399973802
 30
0.0
 40
0.3157169230760246
100
AcDbArc
 50
90.0
 51
180.0
  0
ARC
  5
19A
102
{ACAD_REACTORS
330
1EC
330
1ED
102
}
330
76
100
AcDbEntity
  8
0
  6
Continuous
 62
     2
100
AcDbCircle
 10
-907.0484853539832
 20
-1172.330254338925
 30
0.0
 40
0.911897523557964
100
AcDbArc
 50
115.194410648512
 51
244.805589351488
  0
ARC
  5
19B
102
{ACAD_REACTORS
330
1EC
330
1ED
102
}
330
76
100
AcDbEntity
  8
0
  6
Continuous
 62
     2
100
AcDbCircle
 10
-907.5710698015582
 20
-1173.441084084988
 30
0.0
 40
0.3157169230767067
100
AcDbArc
 50
0.0
 51
64.80558935147235
  0
ARC
  5
19C
102
{ACAD_REACTORS
330
1EC
330
1ED
102
}
330
76
100
AcDbEntity
  8
0
  6
Continuous
 62
     2
100
AcDbCircle
 10
-909.6407977393143
 20
-1175.57588287977
 30
0.0
 40
0.4242446153828041
100
AcDbArc
 50
180.0
 51
270.0
  0
ARC
  5
19D
102
{ACAD_REACTORS
330
1EE
330
1EF
102
}
330
76
100
AcDbEntity
  8
0
  6
Continuous
 62
     2
100
AcDbCircle
 10
-894.7493617251597
 20
-1170.957301078953
 30
0.0
 40
0.5179085730137529
100
AcDbArc
 50
38.12041979719563
 51
141.8795802028121
  0
ARC
  5
19E
102
{ACAD_REACTORS
330
1EE
330
1EF
102
}
330
76
100
AcDbEntity
  8
0
  6
Continuous
 62
     2
100
AcDbCircle
 10
-894.5496216888134
 20
-1171.114032257073
 30
0.0
 40
0.7717997786797746
100
AcDbArc
 50
141.879580202841
 51
218.120419797159
  0
ARC
  5
19F
102
{ACAD_REACTORS
330
1F0
330
1F1
102
}
330
76
100
AcDbEntity
  8
0
  6
Continuous
 62
     2
100
AcDbCircle
 10
-898.7103092059532
 20
-1173.934647722944
 30
0.0
 40
2.065479772208775
100
AcDbArc
 50
242.4518518243414
 51
297.5481481756838
  0
ARC
  5
1A0
102
{ACAD_REACTORS
330
1F0
330
1F1
102
}
330
76
100
AcDbEntity
  8
0
  6
Continuous
 62
     2
100
AcDbCircle
 10
-898.7103092059532
 20
-1175.01179774355
 30
0.0
 40
2.06547977220824
100
AcDbArc
 50
62.45185182430162
 51
117.5481481756732
  0
ARC
  5
1A1
102
{ACAD_REACTORS
330
1F0
330
1F1
102
}
330
76
100
AcDbEntity
  8
0
  6
Continuous
 62
     2
100
AcDbCircle
 10
-898.9912490977865
 20
-1174.473222733247
 30
0.0
 40
1.458034083650987
100
AcDbArc
 50
117.5481481756753
 51
242.4518518243454
  0
ARC
  5
1A2
102
{ACAD_REACTORS
330
1F0
330
1F1
102
}
330
76
100
AcDbEntity
  8
0
  6
Continuous
 62
     2
100
AcDbCircle
 10
-898.42936931412
 20
-1174.473222733247
 30
0.0
 40
1.458034083652521
100
AcDbArc
 50
297.5481481756942
 51
62.45185182428514
  0
ARC
  5
1A3
102
{ACAD_REACTORS
330
1EE
330
1EF
102
}
330
76
100
AcDbEntity
  8
0
  6
Continuous
 62
     2
100
AcDbCircle
 10
-894.7493617251597
 20
-1171.270763435194
 30
0.0
 40
0.5179085730131405
100
AcDbArc
 50
218.1204197970889
 51
321.8795802029033
  0
ARC
  5
1A4
102
{ACAD_REACTORS
330
1EE
330
1EF
102
}
330
76
100
AcDbEntity
  8
0
  6
Continuous
 62
     2
100
AcDbCircle
 10
-894.9491017615059
 20
-1171.114032257073
 30
0.0
 40
0.7717997786795957
100
AcDbArc
 50
321.8795802028306
 51
38.1204197971694
  0
ARC
  5
1A5
102
{ACAD_REACTORS
330
1EC
330
1ED
102
}
330
76
100
AcDbEntity
  8
0
  6
Continuous
 62
     2
100
AcDbCircle
 10
-904.1674856485973
 20
-1175.57588287977
 30
0.0
 40
0.4242446153830315
100
AcDbArc
 50
270.0
 51
0.0
  0
ARC
  5
1A6
102
{ACAD_REACTORS
330
1EC
330
1ED
102
}
330
76
100
AcDbEntity
  8
0
  6
Continuous
 62
     2
100
AcDbCircle
 10
-904.1674856485973
 20
-1170.011372110569
 30
0.0
 40
0.4242446153838273
100
AcDbArc
 50
0.0
 51
90.0
  0
ARC
  5
1A7
102
{ACAD_REACTORS
330
1EC
330
1ED
102
}
330
76
100
AcDbEntity
  8
0
  6
Continuous
 62
     2
100
AcDbCircle
 10
-909.6407977393143
 20
-1170.011372110569
 30
0.0
 40
0.424244615383941
100
AcDbArc
 50
90.0
 51
180.0
  0
ARC
  5
1A8
102
{ACAD_REACTORS
330
1EC
330
1ED
102
}
330
76
100
AcDbEntity
  8
0
  6
Continuous
 62
     2
100
AcDbCircle
 10
-907.5710698015582
 20
-1174.971855016519
 30
0.0
 40
0.3157169230771615
100
AcDbArc
 50
270.0
 51
0.0
  0
ARC
  5
1A9
102
{ACAD_REACTORS
330
1EC
330
1ED
102
}
330
76
100
AcDbEntity
  8
0
  6
Continuous
 62
     2
100
AcDbCircle
 10
-907.5710698015582
 20
-1171.219424592863
 30
0.0
 40
0.3157169230755
100
AcDbArc
 50
295.1944106486155
 51
0.0
  0
ARC
  5
1AA
102
{ACAD_REACTORS
330
1EC
330
1ED
102
}
330
76
100
AcDbEntity
  8
0
  6
Continuous
 62
     2
100
AcDbCircle
 10
-907.5710698015582
 20
-1170.615399973802
 30
0.0
 40
0.3157169230767067
100
AcDbArc
 50
0.0
 51
90.0
  0
ARC
  5
1AB
102
{ACAD_REACTORS
330
1EC
330
1ED
102
}
330
76
100
AcDbEntity
  8
0
  6
Continuous
 62
     2
100
AcDbCircle
 10
-909.0469030625677
 20
-1174.971855016519
 30
0.0
 40
0.3157169230756836
100
AcDbArc
 50
180.0
 51
270.0
  0
ARC
  5
1AC
102
{ACAD_REACTORS
330
1F2
330
1F3
102
}
330
76
100
AcDbEntity
  8
0
  6
Continuous
 62
     2
100
AcDbCircle
 10
-901.2668519543123
 20
-1170.642493136501
 30
0.0
 40
1.05536564133422
100
AcDbArc
 50
270.0
 51
90.0
  0
ARC
  5
1AD
102
{ACAD_REACTORS
330
1EA
330
1EB
102
}
330
76
100
AcDbEntity
  8
0
  6
Continuous
 62
     2
100
AcDbCircle
 10
-885.5386386426212
 20
-1174.360432371213
 30
0.0
 40
1.639695123940421
100
AcDbArc
 50
195.0618917771015
 51
275.1581447696774
  0
ARC
  5
1AE
102
{ACAD_REACTORS
330
1EA
330
1EB
102
}
330
76
100
AcDbEntity
  8
0
  6
Continuous
 62
     2
100
AcDbCircle
 10
-885.827494737357
 20
-1171.160541787991
 30
0.0
 40
4.852596863499167
100
AcDbArc
 50
275.1581447696363
 51
285.9799912583397
  0
ARC
  5
1AF
102
{ACAD_REACTORS
330
1EA
330
1EB
102
}
330
76
100
AcDbEntity
  8
0
  6
Continuous
 62
     2
100
AcDbCircle
 10
-885.6696218622643
 20
-1173.062756367839
 30
0.0
 40
2.227384008973474
100
AcDbArc
 50
288.4480761181272
 51
301.9309089499398
  0
ARC
  5
1B0
102
{ACAD_REACTORS
330
1EA
330
1EB
102
}
330
76
100
AcDbEntity
  8
0
  6
Continuous
 62
     2
100
AcDbCircle
 10
-885.2514541286023
 20
-1174.316302143876
 30
0.0
 40
0.9059297849850417
100
AcDbArc
 50
246.6277221118078
 51
288.4480761180692
  0
ARC
  5
1B1
102
{ACAD_REACTORS
330
1EA
330
1EB
102
}
330
76
100
AcDbEntity
  8
0
  6
Continuous
 62
     2
100
AcDbCircle
 10
-885.030536903224
 20
-1174.473222733247
 30
0.0
 40
0.9410597353349766
100
AcDbArc
 50
151.4785267423711
 51
208.5214732576775
  0
ARC
  5
1B2
102
{ACAD_REACTORS
330
1EA
330
1EB
102
}
330
76
100
AcDbEntity
  8
0
  6
Continuous
 62
     2
100
AcDbCircle
 10
-885.2612241632017
 20
-1174.686106284291
 30
0.0
 40
0.9545230068260935
100
AcDbArc
 50
90.0
 51
109.3371432194401
  0
ARC
  5
1B3
102
{ACAD_REACTORS
330
1EC
330
1ED
102
}
330
76
100
AcDbEntity
  8
0
  6
Continuous
 62
     2
100
AcDbCircle
 10
-906.471354376036
 20
-1170.61557745045
 30
0.0
 40
0.3157169230760149
100
AcDbArc
 50
90.18896704258206
 51
180.0
  0
ARC
  5
1B4
102
{ACAD_REACTORS
330
1EC
330
1ED
102
}
330
76
100
AcDbEntity
  8
0
  6
Continuous
 62
     2
100
AcDbCircle
 10
-906.9973970741239
 20
-1172.330254338925
 30
0.0
 40
0.9118481501445603
100
AcDbArc
 50
295.3740086781774
 51
64.62599132179812
  0
ARC
  5
1B5
102
{ACAD_REACTORS
330
1E8
330
1E9
102
}
330
76
100
AcDbEntity
  8
0
  6
Continuous
 62
     2
100
AcDbCircle
 10
-901.7723233415172
 20
-1173.062756367839
 30
0.0
 40
2.227384008972647
100
AcDbArc
 50
288.4480761181374
 51
301.930908949977
  0
ARC
  5
1B6
102
{ACAD_REACTORS
330
1E8
330
1E9
102
}
330
76
100
AcDbEntity
  8
0
  6
Continuous
 62
     2
100
AcDbCircle
 10
-901.3541556078562
 20
-1174.316302143876
 30
0.0
 40
0.9059297849846808
100
AcDbArc
 50
246.6277221118606
 51
288.4480761181556
  0
ARC
  5
1B7
102
{ACAD_REACTORS
330
1E8
330
1E9
102
}
330
76
100
AcDbEntity
  8
0
  6
Continuous
 62
     2
100
AcDbCircle
 10
-901.5105956405583
 20
-1174.678294162586
 30
0.0
 40
0.5115800601948827
100
AcDbArc
 50
208.5214732577052
 51
246.6277221118177
  0
ARC
  5
1B8
102
{ACAD_REACTORS
330
1E8
330
1E9
102
}
330
76
100
AcDbEntity
  8
0
  6
Continuous
 62
     2
100
AcDbCircle
 10
-901.3541556078562
 20
-1174.630143322619
 30
0.0
 40
0.9059297849857901
100
AcDbArc
 50
71.55192388186713
 51
113.3722778881394
  0
ARC
  5
1B9
102
{ACAD_REACTORS
330
1E8
330
1E9
102
}
330
76
100
AcDbEntity
  8
0
  6
Continuous
 62
     2
100
AcDbCircle
 10
-901.9301962166099
 20
-1177.785903678503
 30
0.0
 40
4.852596863497284
100
AcDbArc
 50
74.02000874164439
 51
84.84185523037584
  0
CIRCLE
  5
1BA
102
{ACAD_REACTORS
330
1EC
330
1ED
102
}
330
76
100
AcDbEntity
  8
0
  6
Continuous
 62
     2
100
AcDbCircle
 10
-907.0212120887967
 20
-1172.330254338925
 30
0.0
 40
0.4709789327785074
  0
CIRCLE
  5
1BB
330
76
100
AcDbEntity
  8
1
  6
Continuous
 62
     2
100
AcDbCircle
 10
-901.5650423546971
 20
-1162.168627495169
 30
0.0
 40
1.25
  0
CIRCLE
  5
1BC
330
76
100
AcDbEntity
  8
1
  6
Continuous
 62
     2
100
AcDbCircle
 10
-901.5650423546971
 20
-1162.168627495169
 30
0.0
 40
2.5
  0
TEXT
  5
1BE
330
76
100
AcDbEntity
  8
1
 62
     7
100
AcDbText
 10
-820.0902260478431
 20
-1187.293627495169
 30
0.0
 40
2.5
  1
6
 41
0.9
  7
CONVERTER_11
100
AcDbText
  0
TEXT
  5
1BF
330
76
100
AcDbEntity
  8
1
 62
     7
100
AcDbText
 10
-888.4235593811765
 20
-1187.293627495169
 30
0.0
 40
2.5
  1
5
 41
0.9
  7
CONVERTER_11
100
AcDbText
  0
TEXT
  5
1C0
330
76
100
AcDbEntity
  8
1
 62
     7
100
AcDbText
 10
-956.7568927145096
 20
-1187.293627495169
 30
0.0
 40
2.5
  1
4
 41
0.9
  7
CONVERTER_11
100
AcDbText
  0
TEXT
  5
1C1
330
76
100
AcDbEntity
  8
1
 62
     7
100
AcDbText
 10
-1025.090226047843
 20
-1187.293627495169
 30
0.0
 40
2.5
  1
3
 41
0.9
  7
CONVERTER_11
100
AcDbText
  0
TEXT
  5
1C2
330
76
100
AcDbEntity
  8
1
 62
     7
100
AcDbText
 10
-783.7568927145096
 20
-1155.793627495169
 30
0.0
 40
2.5
  1
E
 41
0.9
  7
CONVERTER_11
100
AcDbText
  0
TEXT
  5
1C3
330
76
100
AcDbEntity
  8
1
 62
     7
100
AcDbText
 10
-1161.756892714509
 20
-1187.293627495169
 30
0.0
 40
2.5
  1
1
 41
0.9
  7
CONVERTER_11
100
AcDbText
  0
TEXT
  5
1C4
330
76
100
AcDbEntity
  8
1
 62
     7
100
AcDbText
 10
-1093.423559381176
 20
-1187.293627495169
 30
0.0
 40
2.5
  1
2
 41
0.9
  7
CONVERTER_11
100
AcDbText
  0
TEXT
  5
1C5
330
76
100
AcDbEntity
  8
1
 62
     7
100
AcDbText
 10
-783.7568927145096
 20
-1098.393627495168
 30
0.0
 40
2.5
  1
D
 41
0.9
  7
CONVERTER_11
100
AcDbText
  0
TEXT
  5
1C6
330
76
100
AcDbEntity
  8
1
 62
     7
100
AcDbText
 10
-783.7568927145096
 20
-1040.993627495168
 30
0.0
 40
2.5
  1
C
 41
0.9
  7
CONVERTER_11
100
AcDbText
  0
TEXT
  5
1C7
330
76
100
AcDbEntity
  8
1
 62
     7
100
AcDbText
 10
-783.7568927145096
 20
-983.5936274951684
 30
0.0
 40
2.5
  1
B
 41
0.9
  7
CONVERTER_11
100
AcDbText
  0
TEXT
  5
1C8
330
76
100
AcDbEntity
  8
1
 62
     7
100
AcDbText
 10
-783.7568927145096
 20
-926.1936274951686
 30
0.0
 40
2.5
  1
A
 41
0.9
  7
CONVERTER_11
100
AcDbText
  0
TEXT
  5
1C9
330
76
100
AcDbEntity
  8
1
 62
     7
100
AcDbText
 10
-820.0902260478431
 20
-895.2936274951683
 30
0.0
 40
2.5
  1
6
 41
0.9
  7
CONVERTER_11
100
AcDbText
  0
TEXT
  5
1CA
330
76
100
AcDbEntity
  8
1
 62
     7
100
AcDbText
 10
-888.4235593811762
 20
-895.2936274951683
 30
0.0
 40
2.5
  1
5
 41
0.9
  7
CONVERTER_11
100
AcDbText
  0
TEXT
  5
1CB
330
76
100
AcDbEntity
  8
1
 62
     7
100
AcDbText
 10
-956.7568927145096
 20
-895.2936274951683
 30
0.0
 40
2.5
  1
4
 41
0.9
  7
CONVERTER_11
100
AcDbText
  0
TEXT
  5
1CC
330
76
100
AcDbEntity
  8
1
 62
     7
100
AcDbText
 10
-1025.090226047843
 20
-895.2936274951683
 30
0.0
 40
2.5
  1
3
 41
0.9
  7
CONVERTER_11
100
AcDbText
  0
TEXT
  5
1CD
330
76
100
AcDbEntity
  8
1
 62
     7
100
AcDbText
 10
-1093.423559381176
 20
-895.2936274951683
 30
0.0
 40
2.5
  1
2
 41
0.9
  7
CONVERTER_11
100
AcDbText
  0
TEXT
  5
1CE
330
76
100
AcDbEntity
  8
1
 62
     7
100
AcDbText
 10
-1161.756892714509
 20
-895.2936274951683
 30
0.0
 40
2.5
  1
1
 41
0.9
  7
CONVERTER_11
100
AcDbText
  0
TEXT
  5
1CF
330
76
100
AcDbEntity
  8
1
 62
     7
100
AcDbText
 10
-858.9281495192458
 20
-1164.993627495169
 30
0.0
 40
2.5
  1
/
 41
0.9
  7
CONVERTER_11
100
AcDbText
  0
TEXT
  5
1D1
330
76
100
AcDbEntity
  8
1
 62
     7
100
AcDbText
 10
-856.7717850222039
 20
-1164.993627495169
 30
0.0
 40
2.5
  1
01
 41
0.81
  7
CONVERTER_12
100
AcDbText
  0
TEXT
  5
1D2
330
76
100
AcDbEntity
  8
1
 62
     3
100
AcDbText
 10
-819.1753009961867
 20
-1164.993627495169
 30
0.0
 40
2.5
  1
01.04.2021
 41
0.81
  7
CONVERTER_12
100
AcDbText
  0
MTEXT
  5
1D3
330
76
100
AcDbEntity
  8
1
 62
     2
100
AcDbMText
 10
-819.1753009961867
 20
-1158.793627495169
 30
0.0
 40
1.8
 41
0.0
 71
     1
 72
     1
  1
date
  7
CONVERTER_11
 73
     1
 44
1.32052821128451
  0
MTEXT
  5
1D4
330
76
100
AcDbEntity
  8
1
 62
     2
100
AcDbMText
 10
-849.0016972412596
 20
-1167.293627495169
 30
0.0
 40
1.8
 41
0.0
 71
     1
 72
     1
  1
document-type
  7
CONVERTER_11
 73
     1
 44
1.20048019207683
  0
TEXT
  5
1D5
330
76
100
AcDbEntity
  8
1
 62
     3
100
AcDbText
 10
-849.0016972412596
 20
-1173.493627495169
 30
0.0
 40
2.5
  1
TECDOC 2D_Productdrawing
 41
0.81
  7
CONVERTER_12
100
AcDbText
  0
MTEXT
  5
1D7
330
76
100
AcDbEntity
  8
1
 62
     2
100
AcDbMText
 10
-876.8016972412597
 20
-1158.793627495169
 30
0.0
 40
1.8
 41
0.0
 71
     1
 72
     1
  1
document-No. / RI
  7
CONVERTER_13
 73
     1
 44
1.32052821128451
  0
TEXT
  5
1D8
330
76
100
AcDbEntity
  8
1
 62
     7
100
AcDbText
 10
-876.8016972412597
 20
-1164.993627495169
 30
0.0
 40
2.5
  1
00648597
 41
0.81
  7
CONVERTER_12
100
AcDbText
  0
MTEXT
  5
1DA
330
76
100
AcDbEntity
  8
1
 62
     3
100
AcDbMText
 10
-789.2160968553474
 20
-1164.993627495169
 30
0.0
 40
2.5
 41
0.0
 71
     8
 72
     1
  1
2:1
  7
CONVERTER_14
 73
     1
 44
1.32052821128451
  0
MTEXT
  5
1DB
330
76
100
AcDbEntity
  8
1
 62
     2
100
AcDbMText
 10
-792.5753009961869
 20
-1158.793627495169
 30
0.0
 40
1.8
 41
0.0
 71
     1
 72
     1
  1
scale
  7
CONVERTER_11
 73
     1
 44
1.20048019207683
  0
MTEXT
  5
1DC
330
76
100
AcDbEntity
  8
1
 62
     2
100
AcDbMText
 10
-876.8016972412597
 20
-1167.293627495169
 30
0.0
 40
1.8
 41
0.0
 71
     1
 72
     1
  1
ident.-No.
  7
CONVERTER_11
 73
     1
 44
1.20048019207683
  0
TEXT
  5
1DD
330
76
100
AcDbEntity
  8
1
 62
     7
100
AcDbText
 10
-876.4016972412599
 20
-1173.493627495169
 30
0.0
 40
2.5
  1
0801674
 41
0.81
  7
CONVERTER_12
100
AcDbText
  0
MTEXT
  5
1DE
330
76
100
AcDbEntity
  8
1
 62
     2
100
AcDbMText
 10
-948.7127205104691
 20
-1170.54362749517
 30
0.0
 40
2.0
 41
0.0
 71
     5
 72
     1
  1
General Information\P- Simplified representation\P- Document excluded from change process\P- Linear dimensions [mm]
  7
CONVERTER_11
 73
     1
 44
1.20048019207683
  0
MTEXT
  5
1DF
330
76
100
AcDbEntity
  8
1
 62
     3
100
AcDbMText
 10
-888.1016972412597
 20
-1162.168627495169
 30
0.0
 40
2.5
 41
0.0
 71
     5
 72
     1
  1
DIN A3
  7
CONVERTER_11
 73
     1
 44
1.20048019207683
  0
MTEXT
  5
1E0
330
76
100
AcDbEntity
  8
1
 62
     2
100
AcDbMText
 10
-876.9016972412596
 20
-1175.793627495169
 30
0.0
 40
1.8
 41
0.0
 71
     1
 72
     1
  1
description
  7
CONVERTER_11
 73
     1
 44
1.20048019207683
  0
MTEXT
  5
1E1
330
76
100
AcDbEntity
  8
1
 62
     7
100
AcDbMText
 10
-831.3292949778842
 20
-1180.043627495169
 30
0.0
 40
3.0
 41
0.0
 71
     5
 72
     1
  1
CES-STPG-GY-4
  7
CONVERTER_12
 73
     1
 44
1.20048019207683
  0
TEXT
  5
1E2
330
76
100
AcDbEntity
  8
1
 62
     2
100
AcDbText
 10
-889.866388431446
 20
-1182.043627495169
 30
0.0
 40
1.8
  1
1
 41
0.9
  7
CONVERTER_11
100
AcDbText
  0
TEXT
  5
1E3
330
76
100
AcDbEntity
  8
1
 62
     2
100
AcDbText
 10
-904.6554322709176
 20
-1182.092876148971
 30
0.0
 40
1.8
  1
1
 41
0.9
  7
CONVERTER_11
100
AcDbText
  0
TEXT
  5
1E4
330
76
100
AcDbEntity
  8
1
 62
     2
100
AcDbText
 10
-913.3016972412596
 20
-1182.052644710161
 30
0.0
 40
1.8
  1
page
 41
0.9
  7
CONVERTER_11
100
AcDbText
  0
TEXT
  5
1E5
330
76
100
AcDbEntity
  8
1
 62
     2
100
AcDbText
 10
-895.1016972412598
 20
-1182.052644710161
 30
0.0
 40
1.8
  1
of
 41
0.9
  7
CONVERTER_11
100
AcDbText
  0
MTEXT
  5
1E6
330
76
100
AcDbEntity
  8
1
 62
     3
100
AcDbMText
 10
-1181.48842571425
 20
-1010.307343381515
 30
0.0
 40
1.8
 41
0.0
 71
     7
 72
     1
  3
Transfer or duplication of this document as well as the utilisation or\Pcommunication of its content are not permitted unless express consent\Pis granted. Violations give rise to claims for damages. All rights reserved\Pin case of patent, utility mo
  1
del or design patent registrations.
  7
CONVERTER_11
 11
0.0
 21
1.0
 31
0.0
 73
     1
 44
0.99639855942377
  0
MTEXT
  5
1E7
330
76
100
AcDbEntity
  8
1
 62
     3
100
AcDbMText
 10
-1181.334219403157
 20
-1183.266713395668
 30
0.0
 40
1.8
 41
0.0
 71
     7
 72
     1
  3
Weitergabe sowie Vervielfältigung dieses Dokuments, Verwertung und \PMitteilung seines Inhalts sind verboten, soweit nicht ausdrücklich gestattet. \PZuwiderhandlungen verpflichten zu Schadenersatz. Alle Rechte für den Fall\Pder Patent-, Gebrauchsmus
  1
ter- oder Designeintragung vorbehalten.
  7
CONVERTER_11
 11
0.0
 21
1.0
 31
0.0
 73
     1
 44
0.99639855942377
  0
HATCH
  5
1E8
330
76
100
AcDbEntity
  8
1
  6
Continuous
 62
     2
100
AcDbHatch
 10
0.0
 20
0.0
 30
0.0
210
0.0
220
0.0
230
1.0
  2
CUSTOM0
 70
     0
 71
     1
 91
        1
 92
        1
 93
       14
 72
     2
 10
-902.0604679653369
 20
-1174.473222733247
 40
1.205656168390927
 50
164.9381082228846
 51
195.0618917771153
 73
     1
 72
     2
 10
-901.641340121874
 20
-1174.360432371213
 40
1.639695123939416
 50
195.061891777078
 51
275.1581447696374
 73
     1
 72
     2
 10
-901.9301962166099
 20
-1171.160541787991
 40
4.852596863497932
 50
275.1581447696242
 51
285.9799912583526
 73
     1
 72
     1
 10
-900.5942682994921
 20
-1175.825624093792
 11
-900.5942682994921
 21
-1174.953107086988
 72
     2
 10
-901.7723233415172
 20
-1173.062756367839
 40
2.227384008972647
 50
58.069091050023
 51
71.5519238818626
 73
     0
 72
     2
 10
-901.3541556078562
 20
-1174.316302143876
 40
0.9059297849846808
 50
71.55192388184437
 51
113.3722778881394
 73
     0
 72
     2
 10
-901.5105956405583
 20
-1174.678294162586
 40
0.5115800601948827
 50
113.3722778881823
 51
151.4785267422948
 73
     0
 72
     2
 10
-901.133238382478
 20
-1174.473222733247
 40
0.9410597353329787
 50
151.4785267422564
 51
208.521473257695
 73
     0
 72
     2
 10
-901.5105956405583
 20
-1174.268151303908
 40
0.5115800601943187
 50
208.5214732576381
 51
246.6277221117773
 73
     0
 72
     2
 10
-901.3541556078562
 20
-1174.630143322619
 40
0.9059297849857901
 50
246.6277221118606
 51
288.4480761181329
 73
     0
 72
     2
 10
-901.7723233415172
 20
-1175.883689098656
 40
2.227384008973766
 50
288.4480761181281
 51
301.9309089499615
 73
     0
 72
     1
 10
-900.5942682994921
 20
-1173.993338379506
 11
-900.5942682994921
 21
-1173.120821372703
 72
     2
 10
-901.9301962166099
 20
-1177.785903678503
 40
4.852596863497284
 50
74.02000874164439
 51
84.84185523037584
 73
     1
 72
     2
 10
-901.641340121874
 20
-1174.586013095282
 40
1.639695123940213
 50
84.84185523036543
 51
164.9381082228913
 73
     1
 97
       14
330
1B9
330
102
330
188
330
1B8
330
189
330
18A
330
1B7
330
1B6
330
1B5
330
103
330
18B
330
18C
330
18D
330
18E
 75
     1
 76
     2
 52
45.0
 41
0.1
 77
     0
 78
     1
 53
45.0
 43
62.7811309658083
 44
-72.3161373035813
 45
-0.1414213562373095
 46
0.0
 79
     0
 98
        1
 10
0.0
 20
0.0
  0
HATCH
  5
1E9
330
76
100
AcDbEntity
  8
1
  6
Continuous
 62
     2
100
AcDbHatch
 10
0.0
 20
0.0
 30
0.0
210
0.0
220
0.0
230
1.0
  2
CUSTOM1
 70
     0
 71
     1
 91
        1
 92
        1
 93
       14
 72
     2
 10
-902.0604679653369
 20
-1174.473222733247
 40
1.205656168390927
 50
164.9381082228846
 51
195.0618917771153
 73
     1
 72
     2
 10
-901.641340121874
 20
-1174.360432371213
 40
1.639695123939416
 50
195.061891777078
 51
275.1581447696374
 73
     1
 72
     2
 10
-901.9301962166099
 20
-1171.160541787991
 40
4.852596863497932
 50
275.1581447696242
 51
285.9799912583526
 73
     1
 72
     1
 10
-900.5942682994921
 20
-1175.825624093792
 11
-900.5942682994921
 21
-1174.953107086988
 72
     2
 10
-901.7723233415172
 20
-1173.062756367839
 40
2.227384008972647
 50
58.069091050023
 51
71.5519238818626
 73
     0
 72
     2
 10
-901.3541556078562
 20
-1174.316302143876
 40
0.9059297849846808
 50
71.55192388184437
 51
113.3722778881394
 73
     0
 72
     2
 10
-901.5105956405583
 20
-1174.678294162586
 40
0.5115800601948827
 50
113.3722778881823
 51
151.4785267422948
 73
     0
 72
     2
 10
-901.133238382478
 20
-1174.473222733247
 40
0.9410597353329787
 50
151.4785267422564
 51
208.521473257695
 73
     0
 72
     2
 10
-901.5105956405583
 20
-1174.268151303908
 40
0.5115800601943187
 50
208.5214732576381
 51
246.6277221117773
 73
     0
 72
     2
 10
-901.3541556078562
 20
-1174.630143322619
 40
0.9059297849857901
 50
246.6277221118606
 51
288.4480761181329
 73
     0
 72
     2
 10
-901.7723233415172
 20
-1175.883689098656
 40
2.227384008973766
 50
288.4480761181281
 51
301.9309089499615
 73
     0
 72
     1
 10
-900.5942682994921
 20
-1173.993338379506
 11
-900.5942682994921
 21
-1173.120821372703
 72
     2
 10
-901.9301962166099
 20
-1177.785903678503
 40
4.852596863497284
 50
74.02000874164439
 51
84.84185523037584
 73
     1
 72
     2
 10
-901.641340121874
 20
-1174.586013095282
 40
1.639695123940213
 50
84.84185523036543
 51
164.9381082228913
 73
     1
 97
       14
330
1B9
330
102
330
188
330
1B8
330
189
330
18A
330
1B7
330
1B6
330
1B5
330
103
330
18B
330
18C
330
18D
330
18E
 75
     1
 76
     2
 52
45.0
 41
0.1
 77
     0
 78
     1
 53
45.0
 43
62.7811309658083
 44
-72.3161373035813
 45
-0.1414213562373095
 46
0.0
 79
     0
 98
        1
 10
0.0
 20
0.0
  0
HATCH
  5
1EA
330
76
100
AcDbEntity
  8
1
  6
Continuous
 62
     2
100
AcDbHatch
 10
0.0
 20
0.0
 30
0.0
210
0.0
220
0.0
230
1.0
  2
CUSTOM2
 70
     0
 71
     1
 91
        1
 92
        1
 93
       18
 72
     2
 10
-885.5386386426212
 20
-1174.586013095282
 40
1.639695123939873
 50
90.0
 51
164.9381082228985
 73
     1
 72
     2
 10
-885.9577664860828
 20
-1174.473222733247
 40
1.205656168392903
 50
164.9381082229099
 51
195.0618917771318
 73
     1
 72
     2
 10
-885.5386386426212
 20
-1174.360432371213
 40
1.639695123940421
 50
195.0618917771015
 51
275.1581447696774
 73
     1
 72
     2
 10
-885.827494737357
 20
-1171.160541787991
 40
4.852596863499167
 50
275.1581447696363
 51
285.9799912583397
 73
     1
 72
     1
 10
-884.4915668202403
 20
-1175.825624093792
 11
-884.4915668202403
 21
-1174.953107086989
 72
     2
 10
-885.6696218622643
 20
-1173.062756367839
 40
2.227384008973474
 50
58.06909105006019
 51
71.55192388187278
 73
     0
 72
     2
 10
-885.2514541286023
 20
-1174.316302143876
 40
0.9059297849850417
 50
71.55192388193079
 51
113.3722778881922
 73
     0
 72
     2
 10
-885.4078941613054
 20
-1174.678294162586
 40
0.5115800601958815
 50
113.3722778881707
 51
151.4785267423556
 73
     0
 72
     2
 10
-885.030536903224
 20
-1174.473222733247
 40
0.9410597353349766
 50
151.4785267423225
 51
208.5214732576289
 73
     0
 72
     2
 10
-885.4078941613054
 20
-1174.268151303908
 40
0.5115800601937612
 50
208.5214732575773
 51
250.6628567804924
 73
     0
 72
     2
 10
-885.2612241632017
 20
-1174.686106284291
 40
0.9545230068260935
 50
250.6628567805599
 51
270.0
 73
     0
 72
     1
 10
-885.2612241632017
 20
-1173.731583277465
 11
-884.1575848636337
 21
-1173.731583277465
 72
     1
 10
-884.1575848636337
 20
-1173.731583277465
 11
-884.1575848636337
 21
-1176.000127495153
 72
     1
 10
-884.1575848636337
 20
-1176.000127495153
 11
-882.964792161466
 21
-1176.000127495153
 72
     1
 10
-882.964792161466
 20
-1176.000127495153
 11
-882.964792161466
 21
-1173.731583277465
 72
     1
 10
-882.964792161466
 20
-1173.731583277465
 11
-882.1536931239925
 21
-1173.731583277465
 72
     1
 10
-882.1536931239925
 20
-1173.731583277465
 11
-882.1536931239925
 21
-1172.946317971342
 72
     1
 10
-882.1536931239925
 20
-1172.946317971342
 11
-885.5386386426212
 21
-1172.946317971342
 97
       18
330
168
330
167
330
166
330
165
330
16A
330
104
330
1B2
330
193
330
1B1
330
194
330
1B0
330
1AF
330
105
330
1AE
330
1AD
330
195
330
196
330
169
 75
     1
 76
     2
 52
45.0
 41
0.1
 77
     0
 78
     1
 53
45.0
 43
62.7811309658083
 44
-72.3161373035813
 45
-0.1414213562373095
 46
0.0
 79
     0
 98
        1
 10
0.0
 20
0.0
  0
HATCH
  5
1EB
330
76
100
AcDbEntity
  8
1
  6
Continuous
 62
     2
100
AcDbHatch
 10
0.0
 20
0.0
 30
0.0
210
0.0
220
0.0
230
1.0
  2
CUSTOM3
 70
     0
 71
     1
 91
        1
 92
        1
 93
       18
 72
     2
 10
-885.5386386426212
 20
-1174.586013095282
 40
1.639695123939873
 50
90.0
 51
164.9381082228985
 73
     1
 72
     2
 10
-885.9577664860828
 20
-1174.473222733247
 40
1.205656168392903
 50
164.9381082229099
 51
195.0618917771318
 73
     1
 72
     2
 10
-885.5386386426212
 20
-1174.360432371213
 40
1.639695123940421
 50
195.0618917771015
 51
275.1581447696774
 73
     1
 72
     2
 10
-885.827494737357
 20
-1171.160541787991
 40
4.852596863499167
 50
275.1581447696363
 51
285.9799912583397
 73
     1
 72
     1
 10
-884.4915668202403
 20
-1175.825624093792
 11
-884.4915668202403
 21
-1174.953107086989
 72
     2
 10
-885.6696218622643
 20
-1173.062756367839
 40
2.227384008973474
 50
58.06909105006019
 51
71.55192388187278
 73
     0
 72
     2
 10
-885.2514541286023
 20
-1174.316302143876
 40
0.9059297849850417
 50
71.55192388193079
 51
113.3722778881922
 73
     0
 72
     2
 10
-885.4078941613054
 20
-1174.678294162586
 40
0.5115800601958815
 50
113.3722778881707
 51
151.4785267423556
 73
     0
 72
     2
 10
-885.030536903224
 20
-1174.473222733247
 40
0.9410597353349766
 50
151.4785267423225
 51
208.5214732576289
 73
     0
 72
     2
 10
-885.4078941613054
 20
-1174.268151303908
 40
0.5115800601937612
 50
208.5214732575773
 51
250.6628567804924
 73
     0
 72
     2
 10
-885.2612241632017
 20
-1174.686106284291
 40
0.9545230068260935
 50
250.6628567805599
 51
270.0
 73
     0
 72
     1
 10
-885.2612241632017
 20
-1173.731583277465
 11
-884.1575848636337
 21
-1173.731583277465
 72
     1
 10
-884.1575848636337
 20
-1173.731583277465
 11
-884.1575848636337
 21
-1176.000127495153
 72
     1
 10
-884.1575848636337
 20
-1176.000127495153
 11
-882.964792161466
 21
-1176.000127495153
 72
     1
 10
-882.964792161466
 20
-1176.000127495153
 11
-882.964792161466
 21
-1173.731583277465
 72
     1
 10
-882.964792161466
 20
-1173.731583277465
 11
-882.1536931239925
 21
-1173.731583277465
 72
     1
 10
-882.1536931239925
 20
-1173.731583277465
 11
-882.1536931239925
 21
-1172.946317971342
 72
     1
 10
-882.1536931239925
 20
-1172.946317971342
 11
-885.5386386426212
 21
-1172.946317971342
 97
       18
330
168
330
167
330
166
330
165
330
16A
330
104
330
1B2
330
193
330
1B1
330
194
330
1B0
330
1AF
330
105
330
1AE
330
1AD
330
195
330
196
330
169
 75
     1
 76
     2
 52
45.0
 41
0.1
 77
     0
 78
     1
 53
45.0
 43
62.7811309658083
 44
-72.3161373035813
 45
-0.1414213562373095
 46
0.0
 79
     0
 98
        1
 10
0.0
 20
0.0
  0
HATCH
  5
1EC
330
76
100
AcDbEntity
  8
1
  6
Continuous
 62
     2
100
AcDbHatch
 10
0.0
 20
0.0
 30
0.0
210
0.0
220
0.0
230
1.0
  2
CUSTOM4
 70
     0
 71
     1
 91
        4
 92
        1
 93
        8
 72
     2
 10
-909.6407977393143
 20
-1170.011372110569
 40
0.424244615383941
 50
90.0
 51
180.0
 73
     1
 72
     1
 10
-910.0650423546971
 20
-1170.011372110569
 11
-910.0650423546971
 21
-1175.57588287977
 72
     2
 10
-909.6407977393143
 20
-1175.57588287977
 40
0.4242446153828041
 50
180.0
 51
270.0
 73
     1
 72
     1
 10
-909.6407977393143
 20
-1176.000127495153
 11
-904.1674856485973
 21
-1176.000127495153
 72
     2
 10
-904.1674856485973
 20
-1175.57588287977
 40
0.4242446153830315
 50
270.0
 51
360.0
 73
     1
 72
     1
 10
-903.7432410332135
 20
-1175.57588287977
 11
-903.7432410332135
 21
-1170.011372110569
 72
     2
 10
-904.1674856485973
 20
-1170.011372110569
 40
0.4242446153838273
 50
0.0
 51
90.0
 73
     1
 72
     1
 10
-904.1674856485973
 20
-1169.587127495185
 11
-909.6407977393143
 21
-1169.587127495185
 97
        8
330
1A6
330
133
330
1A5
330
134
330
19C
330
131
330
1A7
330
132
 92
       16
 93
       12
 72
     1
 10
-909.0469030625677
 20
-1175.287571939596
 11
-907.5710698015582
 21
-1175.287571939596
 72
     2
 10
-907.5710698015582
 20
-1174.971855016519
 40
0.3157169230771615
 50
270.0
 51
360.0
 73
     1
 72
     1
 10
-907.2553528784815
 20
-1174.971855016519
 11
-907.2553528784815
 21
-1173.441084084988
 72
     2
 10
-907.5710698015582
 20
-1173.441084084988
 40
0.3157169230767067
 50
0.0
 51
64.80558935147235
 73
     1
 72
     2
 10
-907.0484853539832
 20
-1172.330254338925
 40
0.911897523557964
 50
115.194410648512
 51
244.805589351488
 73
     0
 72
     2
 10
-907.5710698015582
 20
-1171.219424592863
 40
0.3157169230755
 50
295.1944106486155
 51
360.0
 73
     1
 72
     1
 10
-907.2553528784815
 20
-1171.219424592863
 11
-907.2553528784815
 21
-1170.615399973802
 72
     2
 10
-907.5710698015582
 20
-1170.615399973802
 40
0.3157169230767067
 50
0.0
 51
90.0
 73
     1
 72
     1
 10
-907.5710698015582
 20
-1170.299683050726
 11
-909.0469030625677
 21
-1170.299683050726
 72
     2
 10
-909.0469030625677
 20
-1170.615399973802
 40
0.3157169230760246
 50
90.0
 51
180.0
 73
     1
 72
     1
 10
-909.3626199856434
 20
-1170.615399973802
 11
-909.3626199856434
 21
-1174.971855016519
 72
     2
 10
-909.0469030625677
 20
-1174.971855016519
 40
0.3157169230756836
 50
180.0
 51
270.0
 73
     1
 97
       12
330
138
330
199
330
137
330
1AA
330
136
330
1A9
330
19A
330
19B
330
135
330
1A8
330
130
330
1AB
 92
       16
 93
        8
 72
     2
 10
-906.9973970741239
 20
-1172.330254338925
 40
0.9118481501445603
 50
295.3740086781774
 51
424.6259913217981
 73
     1
 72
     2
 10
-906.471354376036
 20
-1171.221112738957
 40
0.3157169230768204
 50
115.3740086783167
 51
180.0
 73
     0
 72
     1
 10
-906.7870712991128
 20
-1171.221112738957
 11
-906.7870712991128
 21
-1170.61557745045
 72
     2
 10
-906.471354376036
 20
-1170.61557745045
 40
0.3157169230760149
 50
180.0
 51
269.8110329574179
 73
     0
 72
     2
 10
-906.465738240726
 20
-1172.318412398019
 40
2.018561131933152
 50
269.811032957581
 51
450.188967042419
 73
     0
 72
     2
 10
-906.471354376036
 20
-1174.021247345588
 40
0.3157169230768204
 50
90.18896704258208
 51
180.0
 73
     0
 72
     1
 10
-906.7870712991128
 20
-1174.021247345588
 11
-906.7870712991128
 21
-1173.439395938893
 72
     2
 10
-906.471354376036
 20
-1173.439395938893
 40
0.3157169230761855
 50
180.0
 51
244.6259913216126
 73
     0
 97
        8
330
1B4
330
190
330
16C
330
1B3
330
191
330
192
330
16B
330
18F
 92
       16
 93
        1
 72
     2
 10
-907.0212120887967
 20
-1172.330254338925
 40
0.4709789327785074
 50
0.0
 51
360.0
 73
     1
 97
        1
330
1BA
 75
     1
 76
     2
 52
45.0
 41
0.1
 77
     0
 78
     1
 53
45.0
 43
62.7811309658083
 44
-72.3161373035813
 45
-0.1414213562373095
 46
0.0
 79
     0
 98
        1
 10
0.0
 20
0.0
  0
HATCH
  5
1ED
330
76
100
AcDbEntity
  8
1
  6
Continuous
 62
     2
100
AcDbHatch
 10
0.0
 20
0.0
 30
0.0
210
0.0
220
0.0
230
1.0
  2
CUSTOM5
 70
     0
 71
     1
 91
        4
 92
        1
 93
        8
 72
     2
 10
-909.6407977393143
 20
-1170.011372110569
 40
0.424244615383941
 50
90.0
 51
180.0
 73
     1
 72
     1
 10
-910.0650423546971
 20
-1170.011372110569
 11
-910.0650423546971
 21
-1175.57588287977
 72
     2
 10
-909.6407977393143
 20
-1175.57588287977
 40
0.4242446153828041
 50
180.0
 51
270.0
 73
     1
 72
     1
 10
-909.6407977393143
 20
-1176.000127495153
 11
-904.1674856485973
 21
-1176.000127495153
 72
     2
 10
-904.1674856485973
 20
-1175.57588287977
 40
0.4242446153830315
 50
270.0
 51
360.0
 73
     1
 72
     1
 10
-903.7432410332135
 20
-1175.57588287977
 11
-903.7432410332135
 21
-1170.011372110569
 72
     2
 10
-904.1674856485973
 20
-1170.011372110569
 40
0.4242446153838273
 50
0.0
 51
90.0
 73
     1
 72
     1
 10
-904.1674856485973
 20
-1169.587127495185
 11
-909.6407977393143
 21
-1169.587127495185
 97
        8
330
1A6
330
133
330
1A5
330
134
330
19C
330
131
330
1A7
330
132
 92
       16
 93
       12
 72
     1
 10
-909.0469030625677
 20
-1175.287571939596
 11
-907.5710698015582
 21
-1175.287571939596
 72
     2
 10
-907.5710698015582
 20
-1174.971855016519
 40
0.3157169230771615
 50
270.0
 51
360.0
 73
     1
 72
     1
 10
-907.2553528784815
 20
-1174.971855016519
 11
-907.2553528784815
 21
-1173.441084084988
 72
     2
 10
-907.5710698015582
 20
-1173.441084084988
 40
0.3157169230767067
 50
0.0
 51
64.80558935147235
 73
     1
 72
     2
 10
-907.0484853539832
 20
-1172.330254338925
 40
0.911897523557964
 50
115.194410648512
 51
244.805589351488
 73
     0
 72
     2
 10
-907.5710698015582
 20
-1171.219424592863
 40
0.3157169230755
 50
295.1944106486155
 51
360.0
 73
     1
 72
     1
 10
-907.2553528784815
 20
-1171.219424592863
 11
-907.2553528784815
 21
-1170.615399973802
 72
     2
 10
-907.5710698015582
 20
-1170.615399973802
 40
0.3157169230767067
 50
0.0
 51
90.0
 73
     1
 72
     1
 10
-907.5710698015582
 20
-1170.299683050726
 11
-909.0469030625677
 21
-1170.299683050726
 72
     2
 10
-909.0469030625677
 20
-1170.615399973802
 40
0.3157169230760246
 50
90.0
 51
180.0
 73
     1
 72
     1
 10
-909.3626199856434
 20
-1170.615399973802
 11
-909.3626199856434
 21
-1174.971855016519
 72
     2
 10
-909.0469030625677
 20
-1174.971855016519
 40
0.3157169230756836
 50
180.0
 51
270.0
 73
     1
 97
       12
330
138
330
199
330
137
330
1AA
330
136
330
1A9
330
19A
330
19B
330
135
330
1A8
330
130
330
1AB
 92
       16
 93
        8
 72
     2
 10
-906.9973970741239
 20
-1172.330254338925
 40
0.9118481501445603
 50
295.3740086781774
 51
424.6259913217981
 73
     1
 72
     2
 10
-906.471354376036
 20
-1171.221112738957
 40
0.3157169230768204
 50
115.3740086783167
 51
180.0
 73
     0
 72
     1
 10
-906.7870712991128
 20
-1171.221112738957
 11
-906.7870712991128
 21
-1170.61557745045
 72
     2
 10
-906.471354376036
 20
-1170.61557745045
 40
0.3157169230760149
 50
180.0
 51
269.8110329574179
 73
     0
 72
     2
 10
-906.465738240726
 20
-1172.318412398019
 40
2.018561131933152
 50
269.811032957581
 51
450.188967042419
 73
     0
 72
     2
 10
-906.471354376036
 20
-1174.021247345588
 40
0.3157169230768204
 50
90.18896704258208
 51
180.0
 73
     0
 72
     1
 10
-906.7870712991128
 20
-1174.021247345588
 11
-906.7870712991128
 21
-1173.439395938893
 72
     2
 10
-906.471354376036
 20
-1173.439395938893
 40
0.3157169230761855
 50
180.0
 51
244.6259913216126
 73
     0
 97
        8
330
1B4
330
190
330
16C
330
1B3
330
191
330
192
330
16B
330
18F
 92
       16
 93
        1
 72
     2
 10
-907.0212120887967
 20
-1172.330254338925
 40
0.4709789327785074
 50
0.0
 51
360.0
 73
     1
 97
        1
330
1BA
 75
     1
 76
     2
 52
45.0
 41
0.1
 77
     0
 78
     1
 53
45.0
 43
62.7811309658083
 44
-72.3161373035813
 45
-0.1414213562373095
 46
0.0
 79
     0
 98
        1
 10
0.0
 20
0.0
  0
HATCH
  5
1EE
330
76
100
AcDbEntity
  8
1
  6
Continuous
 62
     2
100
AcDbHatch
 10
0.0
 20
0.0
 30
0.0
210
0.0
220
0.0
230
1.0
  2
CUSTOM6
 70
     0
 71
     1
 91
        2
 92
        1
 93
       12
 72
     2
 10
-894.9656337353249
 20
-1171.114032257073
 40
1.526904761906053
 50
90.0
 51
270.0
 73
     1
 72
     1
 10
-894.9656337353249
 20
-1172.640937018978
 11
-891.8153140115439
 21
-1172.640937018978
 72
     1
 10
-891.8153140115439
 20
-1172.640937018978
 11
-891.8153140115439
 21
-1171.942923413536
 72
     1
 10
-891.8153140115439
 20
-1171.942923413536
 11
-893.1512418379716
 21
-1171.942923413536
 72
     1
 10
-893.1512418379716
 20
-1171.942923413536
 11
-893.1512418379716
 21
-1171.463039059794
 72
     1
 10
-893.1512418379716
 20
-1171.463039059794
 11
-891.8153140115439
 21
-1171.463039059794
 72
     1
 10
-891.8153140115439
 20
-1171.463039059794
 11
-891.8153140115439
 21
-1170.765025454352
 72
     1
 10
-891.8153140115439
 20
-1170.765025454352
 11
-893.1512418379716
 21
-1170.765025454352
 72
     1
 10
-893.1512418379716
 20
-1170.765025454352
 11
-893.1512418379716
 21
-1170.28514110061
 72
     1
 10
-893.1512418379716
 20
-1170.28514110061
 11
-891.8153140115439
 21
-1170.28514110061
 72
     1
 10
-891.8153140115439
 20
-1170.28514110061
 11
-891.8153140115439
 21
-1169.587127495167
 72
     1
 10
-891.8153140115439
 20
-1169.587127495167
 11
-894.9656337353249
 21
-1169.587127495167
 97
       12
330
127
330
121
330
148
330
147
330
146
330
145
330
122
330
123
330
124
330
125
330
197
330
126
 92
       16
 93
        4
 72
     2
 10
-894.5496216888134
 20
-1171.114032257073
 40
0.7717997786797746
 50
141.879580202841
 51
218.120419797159
 73
     1
 72
     2
 10
-894.7493617251597
 20
-1171.270763435194
 40
0.5179085730131405
 50
218.1204197970889
 51
321.8795802029033
 73
     1
 72
     2
 10
-894.9491017615059
 20
-1171.114032257073
 40
0.7717997786795957
 50
321.8795802028306
 51
398.1204197971695
 73
     1
 72
     2
 10
-894.7493617251597
 20
-1170.957301078953
 40
0.5179085730137529
 50
38.12041979719563
 51
141.8795802028121
 73
     1
 97
        4
330
1A4
330
1A3
330
19E
330
19D
 75
     1
 76
     2
 52
45.0
 41
0.1
 77
     0
 78
     1
 53
45.0
 43
62.7811309658083
 44
-72.3161373035813
 45
-0.1414213562373095
 46
0.0
 79
     0
 98
        1
 10
0.0
 20
0.0
  0
HATCH
  5
1EF
330
76
100
AcDbEntity
  8
1
  6
Continuous
 62
     2
100
AcDbHatch
 10
0.0
 20
0.0
 30
0.0
210
0.0
220
0.0
230
1.0
  2
CUSTOM7
 70
     0
 71
     1
 91
        2
 92
        1
 93
       12
 72
     2
 10
-894.9656337353249
 20
-1171.114032257073
 40
1.526904761906053
 50
90.0
 51
270.0
 73
     1
 72
     1
 10
-894.9656337353249
 20
-1172.640937018978
 11
-891.8153140115439
 21
-1172.640937018978
 72
     1
 10
-891.8153140115439
 20
-1172.640937018978
 11
-891.8153140115439
 21
-1171.942923413536
 72
     1
 10
-891.8153140115439
 20
-1171.942923413536
 11
-893.1512418379716
 21
-1171.942923413536
 72
     1
 10
-893.1512418379716
 20
-1171.942923413536
 11
-893.1512418379716
 21
-1171.463039059794
 72
     1
 10
-893.1512418379716
 20
-1171.463039059794
 11
-891.8153140115439
 21
-1171.463039059794
 72
     1
 10
-891.8153140115439
 20
-1171.463039059794
 11
-891.8153140115439
 21
-1170.765025454352
 72
     1
 10
-891.8153140115439
 20
-1170.765025454352
 11
-893.1512418379716
 21
-1170.765025454352
 72
     1
 10
-893.1512418379716
 20
-1170.765025454352
 11
-893.1512418379716
 21
-1170.28514110061
 72
     1
 10
-893.1512418379716
 20
-1170.28514110061
 11
-891.8153140115439
 21
-1170.28514110061
 72
     1
 10
-891.8153140115439
 20
-1170.28514110061
 11
-891.8153140115439
 21
-1169.587127495167
 72
     1
 10
-891.8153140115439
 20
-1169.587127495167
 11
-894.9656337353249
 21
-1169.587127495167
 97
       12
330
127
330
121
330
148
330
147
330
146
330
145
330
122
330
123
330
124
330
125
330
197
330
126
 92
       16
 93
        4
 72
     2
 10
-894.5496216888134
 20
-1171.114032257073
 40
0.7717997786797746
 50
141.879580202841
 51
218.120419797159
 73
     1
 72
     2
 10
-894.7493617251597
 20
-1171.270763435194
 40
0.5179085730131405
 50
218.1204197970889
 51
321.8795802029033
 73
     1
 72
     2
 10
-894.9491017615059
 20
-1171.114032257073
 40
0.7717997786795957
 50
321.8795802028306
 51
398.1204197971695
 73
     1
 72
     2
 10
-894.7493617251597
 20
-1170.957301078953
 40
0.5179085730137529
 50
38.12041979719563
 51
141.8795802028121
 73
     1
 97
        4
330
1A4
330
1A3
330
19E
330
19D
 75
     1
 76
     2
 52
45.0
 41
0.1
 77
     0
 78
     1
 53
45.0
 43
62.7811309658083
 44
-72.3161373035813
 45
-0.1414213562373095
 46
0.0
 79
     0
 98
        1
 10
0.0
 20
0.0
  0
HATCH
  5
1F0
330
76
100
AcDbEntity
  8
1
  6
Continuous
 62
     2
100
AcDbHatch
 10
0.0
 20
0.0
 30
0.0
210
0.0
220
0.0
230
1.0
  2
CUSTOM8
 70
     0
 71
     1
 91
        2
 92
        1
 93
        4
 72
     2
 10
-898.9912490977865
 20
-1174.473222733247
 40
1.458034083650987
 50
117.5481481756753
 51
242.4518518243454
 73
     1
 72
     2
 10
-898.7103092059532
 20
-1173.934647722944
 40
2.065479772208775
 50
242.4518518243414
 51
297.5481481756838
 73
     1
 72
     2
 10
-898.42936931412
 20
-1174.473222733247
 40
1.458034083652521
 50
297.5481481756942
 51
422.4518518242851
 73
     1
 72
     2
 10
-898.7103092059532
 20
-1175.01179774355
 40
2.06547977220824
 50
62.45185182430162
 51
117.5481481756732
 73
     1
 97
        4
330
1A2
330
19F
330
1A1
330
1A0
 92
       16
 93
        4
 72
     2
 10
-898.7103092059532
 20
-1174.316491555127
 40
0.517908573013574
 50
38.12041979721116
 51
141.8795802028121
 73
     1
 72
     2
 10
-898.5105691696072
 20
-1174.473222733247
 40
0.7717997786795957
 50
141.8795802028306
 51
218.1204197972225
 73
     1
 72
     2
 10
-898.7103092059532
 20
-1174.629953911368
 40
0.5179085730138424
 50
218.1204197971879
 51
321.8795802027889
 73
     1
 72
     2
 10
-898.9100492422996
 20
-1174.473222733247
 40
0.7717997786801571
 50
321.8795802027775
 51
398.1204197971695
 73
     1
 97
        4
330
185
330
186
330
187
330
184
 75
     1
 76
     2
 52
45.0
 41
0.1
 77
     0
 78
     1
 53
45.0
 43
62.7811309658083
 44
-72.3161373035813
 45
-0.1414213562373095
 46
0.0
 79
     0
 98
        1
 10
0.0
 20
0.0
  0
HATCH
  5
1F1
330
76
100
AcDbEntity
  8
1
  6
Continuous
 62
     2
100
AcDbHatch
 10
0.0
 20
0.0
 30
0.0
210
0.0
220
0.0
230
1.0
  2
CUSTOM9
 70
     0
 71
     1
 91
        2
 92
        1
 93
        4
 72
     2
 10
-898.9912490977865
 20
-1174.473222733247
 40
1.458034083650987
 50
117.5481481756753
 51
242.4518518243454
 73
     1
 72
     2
 10
-898.7103092059532
 20
-1173.934647722944
 40
2.065479772208775
 50
242.4518518243414
 51
297.5481481756838
 73
     1
 72
     2
 10
-898.42936931412
 20
-1174.473222733247
 40
1.458034083652521
 50
297.5481481756942
 51
422.4518518242851
 73
     1
 72
     2
 10
-898.7103092059532
 20
-1175.01179774355
 40
2.06547977220824
 50
62.45185182430162
 51
117.5481481756732
 73
     1
 97
        4
330
1A2
330
19F
330
1A1
330
1A0
 92
       16
 93
        4
 72
     2
 10
-898.7103092059532
 20
-1174.316491555127
 40
0.517908573013574
 50
38.12041979721116
 51
141.8795802028121
 73
     1
 72
     2
 10
-898.5105691696072
 20
-1174.473222733247
 40
0.7717997786795957
 50
141.8795802028306
 51
218.1204197972225
 73
     1
 72
     2
 10
-898.7103092059532
 20
-1174.629953911368
 40
0.5179085730138424
 50
218.1204197971879
 51
321.8795802027889
 73
     1
 72
     2
 10
-898.9100492422996
 20
-1174.473222733247
 40
0.7717997786801571
 50
321.8795802027775
 51
398.1204197971695
 73
     1
 97
        4
330
185
330
186
330
187
330
184
 75
     1
 76
     2
 52
45.0
 41
0.1
 77
     0
 78
     1
 53
45.0
 43
62.7811309658083
 44
-72.3161373035813
 45
-0.1414213562373095
 46
0.0
 79
     0
 98
        1
 10
0.0
 20
0.0
  0
HATCH
  5
1F2
330
76
100
AcDbEntity
  8
1
  6
Continuous
 62
     2
100
AcDbHatch
 10
0.0
 20
0.0
 30
0.0
210
0.0
220
0.0
230
1.0
  2
CUSTOM10
 70
     0
 71
     1
 91
        2
 92
        1
 93
        6
 72
     1
 10
-903.2661239523467
 20
-1169.587127495167
 11
-903.2661239523467
 21
-1172.640937018978
 72
     1
 10
-903.2661239523467
 20
-1172.640937018978
 11
-902.0256195420927
 21
-1172.640937018978
 72
     1
 10
-902.0256195420927
 20
-1172.640937018978
 11
-902.0256195420927
 21
-1171.697858777835
 72
     1
 10
-902.0256195420927
 20
-1171.697858777835
 11
-901.2668519543123
 21
-1171.697858777835
 72
     2
 10
-901.2668519543123
 20
-1170.642493136501
 40
1.05536564133422
 50
270.0
 51
450.0
 73
     1
 72
     1
 10
-901.2668519543123
 20
-1169.587127495167
 11
-903.2661239523467
 21
-1169.587127495167
 97
        6
330
1AC
330
139
330
12F
330
12E
330
13B
330
13A
 92
       16
 93
        4
 72
     1
 10
-901.7083244805507
 20
-1170.250233340607
 11
-902.0256195420927
 21
-1170.250233340607
 72
     1
 10
-902.0256195420927
 20
-1170.250233340607
 11
-902.0256195420927
 21
-1170.95596098995
 72
     1
 10
-902.0256195420927
 20
-1170.95596098995
 11
-901.7083244805507
 21
-1170.95596098995
 72
     2
 10
-901.7083244805507
 20
-1170.603097165279
 40
0.3528638246709761
 50
270.0
 51
450.0
 73
     1
 97
        4
330
13C
330
12D
330
13D
330
198
 75
     1
 76
     2
 52
45.0
 41
0.1
 77
     0
 78
     1
 53
45.0
 43
62.7811309658083
 44
-72.3161373035813
 45
-0.1414213562373095
 46
0.0
 79
     0
 98
        1
 10
0.0
 20
0.0
  0
HATCH
  5
1F3
330
76
100
AcDbEntity
  8
1
  6
Continuous
 62
     2
100
AcDbHatch
 10
0.0
 20
0.0
 30
0.0
210
0.0
220
0.0
230
1.0
  2
CUSTOM11
 70
     0
 71
     1
 91
        2
 92
        1
 93
        6
 72
     1
 10
-903.2661239523467
 20
-1169.587127495167
 11
-903.2661239523467
 21
-1172.640937018978
 72
     1
 10
-903.2661239523467
 20
-1172.640937018978
 11
-902.0256195420927
 21
-1172.640937018978
 72
     1
 10
-902.0256195420927
 20
-1172.640937018978
 11
-902.0256195420927
 21
-1171.697858777835
 72
     1
 10
-902.0256195420927
 20
-1171.697858777835
 11
-901.2668519543123
 21
-1171.697858777835
 72
     2
 10
-901.2668519543123
 20
-1170.642493136501
 40
1.05536564133422
 50
270.0
 51
450.0
 73
     1
 72
     1
 10
-901.2668519543123
 20
-1169.587127495167
 11
-903.2661239523467
 21
-1169.587127495167
 97
        6
330
1AC
330
139
330
12F
330
12E
330
13B
330
13A
 92
       16
 93
        4
 72
     1
 10
-901.7083244805507
 20
-1170.250233340607
 11
-902.0256195420927
 21
-1170.250233340607
 72
     1
 10
-902.0256195420927
 20
-1170.250233340607
 11
-902.0256195420927
 21
-1170.95596098995
 72
     1
 10
-902.0256195420927
 20
-1170.95596098995
 11
-901.7083244805507
 21
-1170.95596098995
 72
     2
 10
-901.7083244805507
 20
-1170.603097165279
 40
0.3528638246709761
 50
270.0
 51
450.0
 73
     1
 97
        4
330
13C
330
12D
330
13D
330
198
 75
     1
 76
     2
 52
45.0
 41
0.1
 77
     0
 78
     1
 53
45.0
 43
62.7811309658083
 44
-72.3161373035813
 45
-0.1414213562373095
 46
0.0
 79
     0
 98
        1
 10
0.0
 20
0.0
  0
HATCH
  5
1F4
330
76
100
AcDbEntity
  8
1
  6
Continuous
 62
     2
100
AcDbHatch
 10
0.0
 20
0.0
 30
0.0
210
0.0
220
0.0
230
1.0
  2
CUSTOM12
 70
     0
 71
     1
 91
        1
 92
        1
 93
       12
 72
     1
 10
-883.6518407579135
 20
-1169.587127495167
 11
-882.2491165401663
 21
-1169.587127495167
 72
     1
 10
-882.2491165401663
 20
-1169.587127495167
 11
-883.5516461709328
 21
-1171.060078025203
 72
     1
 10
-883.5516461709328
 20
-1171.060078025203
 11
-882.1536931239925
 21
-1172.640937018978
 72
     1
 10
-882.1536931239925
 20
-1172.640937018978
 11
-883.5564173417408
 21
-1172.640937018978
 72
     1
 10
-883.5564173417408
 20
-1172.640937018978
 11
-884.2530082798063
 21
-1171.853205233685
 72
     1
 10
-884.2530082798063
 20
-1171.853205233685
 11
-884.9495992178721
 21
-1172.640937018978
 72
     1
 10
-884.9495992178721
 20
-1172.640937018978
 11
-886.3523234356202
 21
-1172.640937018978
 72
     1
 10
-886.3523234356202
 20
-1172.640937018978
 11
-884.9543703886799
 21
-1171.060078025203
 72
     1
 10
-884.9543703886799
 20
-1171.060078025203
 11
-886.2569000194474
 21
-1169.587127495167
 72
     1
 10
-886.2569000194474
 20
-1169.587127495167
 11
-884.8541758016981
 21
-1169.587127495167
 72
     1
 10
-884.8541758016981
 20
-1169.587127495167
 11
-884.2530082798063
 21
-1170.266950816723
 72
     1
 10
-884.2530082798063
 20
-1170.266950816723
 11
-883.6518407579135
 21
-1169.587127495167
 97
       12
330
108
330
161
330
160
330
15F
330
15E
330
109
330
10A
330
106
330
107
330
164
330
163
330
162
 75
     1
 76
     2
 52
45.0
 41
0.1
 77
     0
 78
     1
 53
45.0
 43
62.7811309658083
 44
-72.3161373035813
 45
-0.1414213562373095
 46
0.0
 79
     0
 98
        1
 10
0.0
 20
0.0
  0
HATCH
  5
1F5
330
76
100
AcDbEntity
  8
1
  6
Continuous
 62
     2
100
AcDbHatch
 10
0.0
 20
0.0
 30
0.0
210
0.0
220
0.0
230
1.0
  2
CUSTOM13
 70
     0
 71
     1
 91
        1
 92
        1
 93
       12
 72
     1
 10
-883.6518407579135
 20
-1169.587127495167
 11
-882.2491165401663
 21
-1169.587127495167
 72
     1
 10
-882.2491165401663
 20
-1169.587127495167
 11
-883.5516461709328
 21
-1171.060078025203
 72
     1
 10
-883.5516461709328
 20
-1171.060078025203
 11
-882.1536931239925
 21
-1172.640937018978
 72
     1
 10
-882.1536931239925
 20
-1172.640937018978
 11
-883.5564173417408
 21
-1172.640937018978
 72
     1
 10
-883.5564173417408
 20
-1172.640937018978
 11
-884.2530082798063
 21
-1171.853205233685
 72
     1
 10
-884.2530082798063
 20
-1171.853205233685
 11
-884.9495992178721
 21
-1172.640937018978
 72
     1
 10
-884.9495992178721
 20
-1172.640937018978
 11
-886.3523234356202
 21
-1172.640937018978
 72
     1
 10
-886.3523234356202
 20
-1172.640937018978
 11
-884.9543703886799
 21
-1171.060078025203
 72
     1
 10
-884.9543703886799
 20
-1171.060078025203
 11
-886.2569000194474
 21
-1169.587127495167
 72
     1
 10
-886.2569000194474
 20
-1169.587127495167
 11
-884.8541758016981
 21
-1169.587127495167
 72
     1
 10
-884.8541758016981
 20
-1169.587127495167
 11
-884.2530082798063
 21
-1170.266950816723
 72
     1
 10
-884.2530082798063
 20
-1170.266950816723
 11
-883.6518407579135
 21
-1169.587127495167
 97
       12
330
108
330
161
330
160
330
15F
330
15E
330
109
330
10A
330
106
330
107
330
164
330
163
330
162
 75
     1
 76
     2
 52
45.0
 41
0.1
 77
     0
 78
     1
 53
45.0
 43
62.7811309658083
 44
-72.3161373035813
 45
-0.1414213562373095
 46
0.0
 79
     0
 98
        1
 10
0.0
 20
0.0
  0
HATCH
  5
1F6
330
76
100
AcDbEntity
  8
1
  6
Continuous
 62
     2
100
AcDbHatch
 10
0.0
 20
0.0
 30
0.0
210
0.0
220
0.0
230
1.0
  2
CUSTOM14
 70
     0
 71
     1
 91
        1
 92
        1
 93
        4
 72
     1
 10
-886.4716027058371
 20
-1169.587127495167
 11
-886.4716027058371
 21
-1172.640937018978
 72
     1
 10
-886.4716027058371
 20
-1172.640937018978
 11
-887.71210711609
 21
-1172.640937018978
 72
     1
 10
-887.71210711609
 20
-1172.640937018978
 11
-887.71210711609
 21
-1169.587127495167
 72
     1
 10
-887.71210711609
 20
-1169.587127495167
 11
-886.4716027058371
 21
-1169.587127495167
 97
        4
330
15C
330
10B
330
15B
330
15D
 75
     1
 76
     2
 52
45.0
 41
0.1
 77
     0
 78
     1
 53
45.0
 43
62.7811309658083
 44
-72.3161373035813
 45
-0.1414213562373095
 46
0.0
 79
     0
 98
        1
 10
0.0
 20
0.0
  0
HATCH
  5
1F7
330
76
100
AcDbEntity
  8
1
  6
Continuous
 62
     2
100
AcDbHatch
 10
0.0
 20
0.0
 30
0.0
210
0.0
220
0.0
230
1.0
  2
CUSTOM15
 70
     0
 71
     1
 91
        1
 92
        1
 93
        4
 72
     1
 10
-886.4716027058371
 20
-1169.587127495167
 11
-886.4716027058371
 21
-1172.640937018978
 72
     1
 10
-886.4716027058371
 20
-1172.640937018978
 11
-887.71210711609
 21
-1172.640937018978
 72
     1
 10
-887.71210711609
 20
-1172.640937018978
 11
-887.71210711609
 21
-1169.587127495167
 72
     1
 10
-887.71210711609
 20
-1169.587127495167
 11
-886.4716027058371
 21
-1169.587127495167
 97
        4
330
15C
330
10B
330
15B
330
15D
 75
     1
 76
     2
 52
45.0
 41
0.1
 77
     0
 78
     1
 53
45.0
 43
62.7811309658083
 44
-72.3161373035813
 45
-0.1414213562373095
 46
0.0
 79
     0
 98
        1
 10
0.0
 20
0.0
  0
HATCH
  5
1F8
330
76
100
AcDbEntity
  8
1
  6
Continuous
 62
     2
100
AcDbHatch
 10
0.0
 20
0.0
 30
0.0
210
0.0
220
0.0
230
1.0
  2
CUSTOM16
 70
     0
 71
     1
 91
        2
 92
        1
 93
        8
 72
     1
 10
-886.8620467093691
 20
-1176.000127495153
 11
-888.102551119623
 21
-1176.000127495153
 72
     1
 10
-888.102551119623
 20
-1176.000127495153
 11
-888.3140311730988
 21
-1175.459166950935
 72
     1
 10
-888.3140311730988
 20
-1175.459166950935
 11
-889.4464727497727
 21
-1175.459166950935
 72
     1
 10
-889.4464727497727
 20
-1175.459166950935
 11
-889.6579528032485
 21
-1176.000127495153
 72
     1
 10
-889.6579528032485
 20
-1176.000127495153
 11
-890.8984572135014
 21
-1176.000127495153
 72
     1
 10
-890.8984572135014
 20
-1176.000127495153
 11
-889.5005041665622
 21
-1172.946317971342
 72
     1
 10
-889.5005041665622
 20
-1172.946317971342
 11
-888.2599997563093
 21
-1172.946317971342
 72
     1
 10
-888.2599997563093
 20
-1172.946317971342
 11
-886.8620467093691
 21
-1176.000127495153
 97
        8
330
157
330
111
330
156
330
159
330
10E
330
158
330
10F
330
110
 92
       16
 93
        3
 72
     1
 10
-889.1804171986275
 20
-1174.778603685628
 11
-888.5800867242451
 21
-1174.778603685628
 72
     1
 10
-888.5800867242451
 20
-1174.778603685628
 11
-888.8802519614353
 21
-1174.010788719642
 72
     1
 10
-888.8802519614353
 20
-1174.010788719642
 11
-889.1804171986275
 21
-1174.778603685628
 97
        3
330
10D
330
10C
330
15A
 75
     1
 76
     2
 52
45.0
 41
0.1
 77
     0
 78
     1
 53
45.0
 43
62.7811309658083
 44
-72.3161373035813
 45
-0.1414213562373095
 46
0.0
 79
     0
 98
        1
 10
0.0
 20
0.0
  0
HATCH
  5
1F9
330
76
100
AcDbEntity
  8
1
  6
Continuous
 62
     2
100
AcDbHatch
 10
0.0
 20
0.0
 30
0.0
210
0.0
220
0.0
230
1.0
  2
CUSTOM17
 70
     0
 71
     1
 91
        2
 92
        1
 93
        8
 72
     1
 10
-886.8620467093691
 20
-1176.000127495153
 11
-888.102551119623
 21
-1176.000127495153
 72
     1
 10
-888.102551119623
 20
-1176.000127495153
 11
-888.3140311730988
 21
-1175.459166950935
 72
     1
 10
-888.3140311730988
 20
-1175.459166950935
 11
-889.4464727497727
 21
-1175.459166950935
 72
     1
 10
-889.4464727497727
 20
-1175.459166950935
 11
-889.6579528032485
 21
-1176.000127495153
 72
     1
 10
-889.6579528032485
 20
-1176.000127495153
 11
-890.8984572135014
 21
-1176.000127495153
 72
     1
 10
-890.8984572135014
 20
-1176.000127495153
 11
-889.5005041665622
 21
-1172.946317971342
 72
     1
 10
-889.5005041665622
 20
-1172.946317971342
 11
-888.2599997563093
 21
-1172.946317971342
 72
     1
 10
-888.2599997563093
 20
-1172.946317971342
 11
-886.8620467093691
 21
-1176.000127495153
 97
        8
330
157
330
111
330
156
330
159
330
10E
330
158
330
10F
330
110
 92
       16
 93
        3
 72
     1
 10
-889.1804171986275
 20
-1174.778603685628
 11
-888.5800867242451
 21
-1174.778603685628
 72
     1
 10
-888.5800867242451
 20
-1174.778603685628
 11
-888.8802519614353
 21
-1174.010788719642
 72
     1
 10
-888.8802519614353
 20
-1174.010788719642
 11
-889.1804171986275
 21
-1174.778603685628
 97
        3
330
10D
330
10C
330
15A
 75
     1
 76
     2
 52
45.0
 41
0.1
 77
     0
 78
     1
 53
45.0
 43
62.7811309658083
 44
-72.3161373035813
 45
-0.1414213562373095
 46
0.0
 79
     0
 98
        1
 10
0.0
 20
0.0
  0
HATCH
  5
1FA
330
76
100
AcDbEntity
  8
1
  6
Continuous
 62
     2
100
AcDbHatch
 10
0.0
 20
0.0
 30
0.0
210
0.0
220
0.0
230
1.0
  2
CUSTOM18
 70
     0
 71
     1
 91
        1
 92
        1
 93
        8
 72
     1
 10
-893.0559693526836
 20
-1172.946317971342
 11
-893.0559693526836
 21
-1173.731583277465
 72
     1
 10
-893.0559693526836
 20
-1173.731583277465
 11
-892.244870315209
 21
-1173.731583277465
 72
     1
 10
-892.244870315209
 20
-1173.731583277465
 11
-892.244870315209
 21
-1176.000127495153
 72
     1
 10
-892.244870315209
 20
-1176.000127495153
 11
-891.0520776130426
 21
-1176.000127495153
 72
     1
 10
-891.0520776130426
 20
-1176.000127495153
 11
-891.0520776130426
 21
-1173.731583277465
 72
     1
 10
-891.0520776130426
 20
-1173.731583277465
 11
-890.2409785755699
 21
-1173.731583277465
 72
     1
 10
-890.2409785755699
 20
-1173.731583277465
 11
-890.2409785755699
 21
-1172.946317971342
 72
     1
 10
-890.2409785755699
 20
-1172.946317971342
 11
-893.0559693526836
 21
-1172.946317971342
 97
        8
330
153
330
152
330
151
330
112
330
113
330
155
330
114
330
154
 75
     1
 76
     2
 52
45.0
 41
0.1
 77
     0
 78
     1
 53
45.0
 43
62.7811309658083
 44
-72.3161373035813
 45
-0.1414213562373095
 46
0.0
 79
     0
 98
        1
 10
0.0
 20
0.0
  0
HATCH
  5
1FB
330
76
100
AcDbEntity
  8
1
  6
Continuous
 62
     2
100
AcDbHatch
 10
0.0
 20
0.0
 30
0.0
210
0.0
220
0.0
230
1.0
  2
CUSTOM19
 70
     0
 71
     1
 91
        1
 92
        1
 93
        8
 72
     1
 10
-893.0559693526836
 20
-1172.946317971342
 11
-893.0559693526836
 21
-1173.731583277465
 72
     1
 10
-893.0559693526836
 20
-1173.731583277465
 11
-892.244870315209
 21
-1173.731583277465
 72
     1
 10
-892.244870315209
 20
-1173.731583277465
 11
-892.244870315209
 21
-1176.000127495153
 72
     1
 10
-892.244870315209
 20
-1176.000127495153
 11
-891.0520776130426
 21
-1176.000127495153
 72
     1
 10
-891.0520776130426
 20
-1176.000127495153
 11
-891.0520776130426
 21
-1173.731583277465
 72
     1
 10
-891.0520776130426
 20
-1173.731583277465
 11
-890.2409785755699
 21
-1173.731583277465
 72
     1
 10
-890.2409785755699
 20
-1173.731583277465
 11
-890.2409785755699
 21
-1172.946317971342
 72
     1
 10
-890.2409785755699
 20
-1172.946317971342
 11
-893.0559693526836
 21
-1172.946317971342
 97
        8
330
153
330
152
330
151
330
112
330
113
330
155
330
114
330
154
 75
     1
 76
     2
 52
45.0
 41
0.1
 77
     0
 78
     1
 53
45.0
 43
62.7811309658083
 44
-72.3161373035813
 45
-0.1414213562373095
 46
0.0
 79
     0
 98
        1
 10
0.0
 20
0.0
  0
HATCH
  5
1FC
330
76
100
AcDbEntity
  8
1
  6
Continuous
 62
     2
100
AcDbHatch
 10
0.0
 20
0.0
 30
0.0
210
0.0
220
0.0
230
1.0
  2
CUSTOM20
 70
     0
 71
     1
 91
        1
 92
        1
 93
       10
 72
     1
 10
-890.3839627689446
 20
-1169.587127495167
 11
-891.576755471111
 21
-1169.587127495167
 72
     1
 10
-891.576755471111
 20
-1169.587127495167
 11
-891.576755471111
 21
-1172.640937018978
 72
     1
 10
-891.576755471111
 20
-1172.640937018978
 11
-890.3839627689446
 21
-1172.640937018978
 72
     1
 10
-890.3839627689446
 20
-1172.640937018978
 11
-890.3839627689446
 21
-1171.332161508774
 72
     1
 10
-890.3839627689446
 20
-1171.332161508774
 11
-889.1434583586905
 21
-1172.640937018978
 72
     1
 10
-889.1434583586905
 20
-1172.640937018978
 11
-887.9506656565238
 21
-1172.640937018978
 72
     1
 10
-887.9506656565238
 20
-1172.640937018978
 11
-887.9506656565238
 21
-1169.587127495167
 72
     1
 10
-887.9506656565238
 20
-1169.587127495167
 11
-889.1434583586905
 21
-1169.587127495167
 72
     1
 10
-889.1434583586905
 20
-1169.587127495167
 11
-889.1434583586905
 21
-1170.895903005373
 72
     1
 10
-889.1434583586905
 20
-1170.895903005373
 11
-890.3839627689446
 21
-1169.587127495167
 97
       10
330
14D
330
117
330
118
330
119
330
11A
330
150
330
115
330
14F
330
14E
330
116
 75
     1
 76
     2
 52
45.0
 41
0.1
 77
     0
 78
     1
 53
45.0
 43
62.7811309658083
 44
-72.3161373035813
 45
-0.1414213562373095
 46
0.0
 79
     0
 98
        1
 10
0.0
 20
0.0
  0
HATCH
  5
1FD
330
76
100
AcDbEntity
  8
1
  6
Continuous
 62
     2
100
AcDbHatch
 10
0.0
 20
0.0
 30
0.0
210
0.0
220
0.0
230
1.0
  2
CUSTOM21
 70
     0
 71
     1
 91
        1
 92
        1
 93
       10
 72
     1
 10
-890.3839627689446
 20
-1169.587127495167
 11
-891.576755471111
 21
-1169.587127495167
 72
     1
 10
-891.576755471111
 20
-1169.587127495167
 11
-891.576755471111
 21
-1172.640937018978
 72
     1
 10
-891.576755471111
 20
-1172.640937018978
 11
-890.3839627689446
 21
-1172.640937018978
 72
     1
 10
-890.3839627689446
 20
-1172.640937018978
 11
-890.3839627689446
 21
-1171.332161508774
 72
     1
 10
-890.3839627689446
 20
-1171.332161508774
 11
-889.1434583586905
 21
-1172.640937018978
 72
     1
 10
-889.1434583586905
 20
-1172.640937018978
 11
-887.9506656565238
 21
-1172.640937018978
 72
     1
 10
-887.9506656565238
 20
-1172.640937018978
 11
-887.9506656565238
 21
-1169.587127495167
 72
     1
 10
-887.9506656565238
 20
-1169.587127495167
 11
-889.1434583586905
 21
-1169.587127495167
 72
     1
 10
-889.1434583586905
 20
-1169.587127495167
 11
-889.1434583586905
 21
-1170.895903005373
 72
     1
 10
-889.1434583586905
 20
-1170.895903005373
 11
-890.3839627689446
 21
-1169.587127495167
 97
       10
330
14D
330
117
330
118
330
119
330
11A
330
150
330
115
330
14F
330
14E
330
116
 75
     1
 76
     2
 52
45.0
 41
0.1
 77
     0
 78
     1
 53
45.0
 43
62.7811309658083
 44
-72.3161373035813
 45
-0.1414213562373095
 46
0.0
 79
     0
 98
        1
 10
0.0
 20
0.0
  0
HATCH
  5
1FE
330
76
100
AcDbEntity
  8
1
  6
Continuous
 62
     2
100
AcDbHatch
 10
0.0
 20
0.0
 30
0.0
210
0.0
220
0.0
230
1.0
  2
CUSTOM22
 70
     0
 71
     1
 91
        1
 92
        1
 93
       10
 72
     1
 10
-895.6324015893631
 20
-1172.946317971342
 11
-896.8251942915307
 21
-1172.946317971342
 72
     1
 10
-896.8251942915307
 20
-1172.946317971342
 11
-896.8251942915307
 21
-1176.000127495153
 72
     1
 10
-896.8251942915307
 20
-1176.000127495153
 11
-895.6324015893631
 21
-1176.000127495153
 72
     1
 10
-895.6324015893631
 20
-1176.000127495153
 11
-895.6324015893631
 21
-1174.691351984948
 72
     1
 10
-895.6324015893631
 20
-1174.691351984948
 11
-894.3918971791102
 21
-1176.000127495153
 72
     1
 10
-894.3918971791102
 20
-1176.000127495153
 11
-893.1991044769438
 21
-1176.000127495153
 72
     1
 10
-893.1991044769438
 20
-1176.000127495153
 11
-893.1991044769438
 21
-1172.946317971342
 72
     1
 10
-893.1991044769438
 20
-1172.946317971342
 11
-894.3918971791102
 21
-1172.946317971342
 72
     1
 10
-894.3918971791102
 20
-1172.946317971342
 11
-894.3918971791102
 21
-1174.255093481547
 72
     1
 10
-894.3918971791102
 20
-1174.255093481547
 11
-895.6324015893631
 21
-1172.946317971342
 97
       10
330
11C
330
11D
330
11E
330
14A
330
11F
330
120
330
149
330
14C
330
14B
330
11B
 75
     1
 76
     2
 52
45.0
 41
0.1
 77
     0
 78
     1
 53
45.0
 43
62.7811309658083
 44
-72.3161373035813
 45
-0.1414213562373095
 46
0.0
 79
     0
 98
        1
 10
0.0
 20
0.0
  0
HATCH
  5
1FF
330
76
100
AcDbEntity
  8
1
  6
Continuous
 62
     2
100
AcDbHatch
 10
0.0
 20
0.0
 30
0.0
210
0.0
220
0.0
230
1.0
  2
CUSTOM23
 70
     0
 71
     1
 91
        1
 92
        1
 93
       10
 72
     1
 10
-895.6324015893631
 20
-1172.946317971342
 11
-896.8251942915307
 21
-1172.946317971342
 72
     1
 10
-896.8251942915307
 20
-1172.946317971342
 11
-896.8251942915307
 21
-1176.000127495153
 72
     1
 10
-896.8251942915307
 20
-1176.000127495153
 11
-895.6324015893631
 21
-1176.000127495153
 72
     1
 10
-895.6324015893631
 20
-1176.000127495153
 11
-895.6324015893631
 21
-1174.691351984948
 72
     1
 10
-895.6324015893631
 20
-1174.691351984948
 11
-894.3918971791102
 21
-1176.000127495153
 72
     1
 10
-894.3918971791102
 20
-1176.000127495153
 11
-893.1991044769438
 21
-1176.000127495153
 72
     1
 10
-893.1991044769438
 20
-1176.000127495153
 11
-893.1991044769438
 21
-1172.946317971342
 72
     1
 10
-893.1991044769438
 20
-1172.946317971342
 11
-894.3918971791102
 21
-1172.946317971342
 72
     1
 10
-894.3918971791102
 20
-1172.946317971342
 11
-894.3918971791102
 21
-1174.255093481547
 72
     1
 10
-894.3918971791102
 20
-1174.255093481547
 11
-895.6324015893631
 21
-1172.946317971342
 97
       10
330
11C
330
11D
330
11E
330
14A
330
11F
330
120
330
149
330
14C
330
14B
330
11B
 75
     1
 76
     2
 52
45.0
 41
0.1
 77
     0
 78
     1
 53
45.0
 43
62.7811309658083
 44
-72.3161373035813
 45
-0.1414213562373095
 46
0.0
 79
     0
 98
        1
 10
0.0
 20
0.0
  0
HATCH
  5
200
330
76
100
AcDbEntity
  8
1
  6
Continuous
 62
     2
100
AcDbHatch
 10
0.0
 20
0.0
 30
0.0
210
0.0
220
0.0
230
1.0
  2
CUSTOM24
 70
     0
 71
     1
 91
        1
 92
        1
 93
       12
 72
     1
 10
-896.6341965282985
 20
-1169.587127495167
 11
-896.6341965282985
 21
-1172.640937018978
 72
     1
 10
-896.6341965282985
 20
-1172.640937018978
 11
-897.826989230465
 21
-1172.640937018978
 72
     1
 10
-897.826989230465
 20
-1172.640937018978
 11
-897.826989230465
 21
-1171.506664910135
 72
     1
 10
-897.826989230465
 20
-1171.506664910135
 11
-898.8766468083724
 21
-1171.506664910135
 72
     1
 10
-898.8766468083724
 20
-1171.506664910135
 11
-898.8766468083724
 21
-1172.640937018978
 72
     1
 10
-898.8766468083724
 20
-1172.640937018978
 11
-900.0694395105389
 21
-1172.640937018978
 72
     1
 10
-900.0694395105389
 20
-1172.640937018978
 11
-900.0694395105389
 21
-1169.587127495167
 72
     1
 10
-900.0694395105389
 20
-1169.587127495167
 11
-898.8766468083724
 21
-1169.587127495167
 72
     1
 10
-898.8766468083724
 20
-1169.587127495167
 11
-898.8766468083724
 21
-1170.655960828502
 72
     1
 10
-898.8766468083724
 20
-1170.655960828502
 11
-897.826989230465
 21
-1170.655960828502
 72
     1
 10
-897.826989230465
 20
-1170.655960828502
 11
-897.826989230465
 21
-1169.587127495167
 72
     1
 10
-897.826989230465
 20
-1169.587127495167
 11
-896.6341965282985
 21
-1169.587127495167
 97
       12
330
144
330
143
330
142
330
12A
330
12B
330
141
330
12C
330
140
330
13F
330
13E
330
128
330
129
 75
     1
 76
     2
 52
45.0
 41
0.1
 77
     0
 78
     1
 53
45.0
 43
62.7811309658083
 44
-72.3161373035813
 45
-0.1414213562373095
 46
0.0
 79
     0
 98
        1
 10
0.0
 20
0.0
  0
HATCH
  5
201
330
76
100
AcDbEntity
  8
1
  6
Continuous
 62
     2
100
AcDbHatch
 10
0.0
 20
0.0
 30
0.0
210
0.0
220
0.0
230
1.0
  2
CUSTOM25
 70
     0
 71
     1
 91
        1
 92
        1
 93
       12
 72
     1
 10
-896.6341965282985
 20
-1169.587127495167
 11
-896.6341965282985
 21
-1172.640937018978
 72
     1
 10
-896.6341965282985
 20
-1172.640937018978
 11
-897.826989230465
 21
-1172.640937018978
 72
     1
 10
-897.826989230465
 20
-1172.640937018978
 11
-897.826989230465
 21
-1171.506664910135
 72
     1
 10
-897.826989230465
 20
-1171.506664910135
 11
-898.8766468083724
 21
-1171.506664910135
 72
     1
 10
-898.8766468083724
 20
-1171.506664910135
 11
-898.8766468083724
 21
-1172.640937018978
 72
     1
 10
-898.8766468083724
 20
-1172.640937018978
 11
-900.0694395105389
 21
-1172.640937018978
 72
     1
 10
-900.0694395105389
 20
-1172.640937018978
 11
-900.0694395105389
 21
-1169.587127495167
 72
     1
 10
-900.0694395105389
 20
-1169.587127495167
 11
-898.8766468083724
 21
-1169.587127495167
 72
     1
 10
-898.8766468083724
 20
-1169.587127495167
 11
-898.8766468083724
 21
-1170.655960828502
 72
     1
 10
-898.8766468083724
 20
-1170.655960828502
 11
-897.826989230465
 21
-1170.655960828502
 72
     1
 10
-897.826989230465
 20
-1170.655960828502
 11
-897.826989230465
 21
-1169.587127495167
 72
     1
 10
-897.826989230465
 20
-1169.587127495167
 11
-896.6341965282985
 21
-1169.587127495167
 97
       12
330
144
330
143
330
142
330
12A
330
12B
330
141
330
12C
330
140
330
13F
330
13E
330
128
330
129
 75
     1
 76
     2
 52
45.0
 41
0.1
 77
     0
 78
     1
 53
45.0
 43
62.7811309658083
 44
-72.3161373035813
 45
-0.1414213562373095
 46
0.0
 79
     0
 98
        1
 10
0.0
 20
0.0
  0
ENDBLK
  5
78
330
76
100
AcDbEntity
  8
0
100
AcDbBlockEnd
  0
BLOCK
  5
7A
330
79
100
AcDbEntity
  8
0
100
AcDbBlockBegin
  2
_punkt
 70
     0
 10
-784.7568927145097
 20
-1183.293627495169
 30
0.0
  3
_punkt
  1

  0
LINE
  5
202
330
79
100
AcDbEntity
  8
1
  6
Continuous
 62
     2
100
AcDbLine
 10
-784.7568927145096
 20
-1183.293627495169
 30
0.0
 11
-784.7568927145096
 21
-1188.293627495169
 31
0.0
  0
LINE
  5
203
330
79
100
AcDbEntity
  8
1
  6
Continuous
 62
     2
100
AcDbLine
 10
-784.7568927145096
 20
-1183.293627495169
 30
0.0
 11
-779.7568927145121
 21
-1183.293627495169
 31
0.0
  0
ENDBLK
  5
7B
330
79
100
AcDbEntity
  8
0
100
AcDbBlockEnd
  0
BLOCK
  5
7F
330
7C
100
AcDbEntity
  8
0
100
AcDbBlockBegin
  2
A3I_CS
 70
     0
 10
-784.7568927145096
 20
-1188.293627495169
 30
0.0
  3
A3I_CS
  1

  0
INSERT
  5
7D
330
7C
100
AcDbEntity
  8
1
100
AcDbBlockReference
  2
_rahmen
 10
-784.7568927145096
 20
-1188.293627495169
 30
0.0
  0
INSERT
  5
7E
330
7C
100
AcDbEntity
  8
1
100
AcDbBlockReference
  2
_punkt
 10
-784.7568927145097
 20
-1183.293627495169
 30
0.0
  0
ENDBLK
  5
80
330
7C
100
AcDbEntity
  8
0
100
AcDbBlockEnd
  0
BLOCK
  5
82
330
81
100
AcDbEntity
  8
0
100
AcDbBlockBegin
  2
CES_STPG_GY_4-select__1
 70
     0
 10
-426.736216385895
 20
-570.0226731665421
 30
0.0
  3
CES_STPG_GY_4-select__1
  1

  0
LINE
  5
204
330
81
100
AcDbEntity
  8
0
  6
Continuous
 62
     7
100
AcDbLine
 10
-416.8953687322775
 20
-539.5965897817791
 30
0.0
 11
-413.4162521542194
 21
-540.8075797638023
 31
0.0
  0
LINE
  5
205
330
81
100
AcDbEntity
  8
0
  6
Continuous
 62
     7
100
AcDbLine
 10
-413.5221147707517
 20
-535.3792522793551
 30
0.0
 11
-416.9862163858895
 21
-534.3792522793542
 31
0.0
  0
LINE
  5
206
330
81
100
AcDbEntity
  8
0
  6
Continuous
 62
     7
100
AcDbLine
 10
-413.4162521542194
 20
-540.8075797638023
 30
0.0
 11
-413.4162521542198
 21
-542.7307050852669
 31
0.0
  0
LINE
  5
207
330
81
100
AcDbEntity
  8
0
  6
Continuous
 62
     7
100
AcDbLine
 10
-413.522114770753
 20
-540.5754047020614
 30
0.0
 11
-412.1797753948871
 21
-540.9629047020617
 31
0.0
  0
LINE
  5
208
330
81
100
AcDbEntity
  8
0
  6
Continuous
 62
     7
100
AcDbLine
 10
-416.2765690762524
 20
-543.2846868811573
 30
0.0
 11
-413.4162521542194
 21
-540.8075797638023
 31
0.0
  0
LINE
  5
209
330
81
100
AcDbEntity
  8
0
  6
Continuous
 62
     7
100
AcDbLine
 10
-419.8988608092266
 20
-542.1976902204824
 30
0.0
 11
-416.2765690762524
 21
-543.2846868811573
 31
0.0
  0
LINE
  5
20A
330
81
100
AcDbEntity
  8
0
  6
Continuous
 62
     7
100
AcDbLine
 10
-416.2765690762528
 20
-545.2078122026221
 30
0.0
 11
-416.2765690762524
 21
-543.2846868811573
 31
0.0
  0
LINE
  5
20B
330
81
100
AcDbEntity
  8
0
  6
Continuous
 62
     7
100
AcDbLine
 10
-419.1488608092277
 20
-545.448309712024
 30
0.0
 11
-415.5265690762534
 21
-546.4113130513506
 31
0.0
  0
LINE
  5
20C
330
81
100
AcDbEntity
  8
0
  6
Continuous
 62
     7
100
AcDbLine
 10
-414.1662521542204
 20
-545.2332440396722
 30
0.0
 11
-415.5265690762534
 21
-546.4113130513506
 31
0.0
  0
LINE
  5
20D
330
81
100
AcDbEntity
  8
0
  6
Continuous
 62
     7
100
AcDbLine
 10
-416.8953687322775
 20
-539.5965897817791
 30
0.0
 11
-419.8988608092266
 21
-542.1976902204824
 31
0.0
  0
LINE
  5
20E
330
81
100
AcDbEntity
  8
0
  6
Continuous
 62
     7
100
AcDbLine
 10
-419.1488608092275
 20
-544.542520250407
 30
0.0
 11
-419.1488608092277
 21
-545.448309712024
 31
0.0
  0
LINE
  5
20F
330
81
100
AcDbEntity
  8
0
  6
Continuous
 62
     7
100
AcDbLine
 10
-413.5221147707517
 20
-535.3792522793551
 30
0.0
 11
-413.522114770753
 21
-540.5754047020614
 31
0.0
  0
LINE
  5
210
330
81
100
AcDbEntity
  8
0
  6
Continuous
 62
     7
100
AcDbLine
 10
-413.6829970180773
 20
-540.7147328152621
 30
0.0
 11
-413.522114770753
 21
-540.5754047020614
 31
0.0
  0
LINE
  5
211
330
81
100
AcDbEntity
  8
0
  6
Continuous
 62
     7
100
AcDbLine
 10
-419.8988608092266
 20
-542.1976902204824
 30
0.0
 11
-419.8988608092272
 21
-544.3688021846433
 31
0.0
  0
LINE
  5
212
330
81
100
AcDbEntity
  8
0
  6
Continuous
 62
     7
100
AcDbLine
 10
-423.2721147707517
 20
-543.8229999662533
 30
0.0
 11
-413.5221147707517
 21
-535.3792522793551
 31
0.0
  0
LINE
  5
213
330
81
100
AcDbEntity
  8
0
  6
Continuous
 62
     7
100
AcDbLine
 10
-426.7362163858895
 20
-542.8229999662526
 30
0.0
 11
-416.9862163858895
 21
-534.3792522793542
 31
0.0
  0
LINE
  5
214
330
81
100
AcDbEntity
  8
0
  6
Continuous
 62
     7
100
AcDbLine
 10
-414.7417645434806
 20
-569.2351731665415
 30
0.0
 11
-414.5587518415883
 21
-569.5766795174877
 31
0.0
  0
LINE
  5
215
330
81
100
AcDbEntity
  8
0
  6
Continuous
 62
     7
100
AcDbLine
 10
-414.7417645434806
 20
-569.2351731665415
 30
0.0
 11
-414.7417645434763
 21
-551.4816523889617
 31
0.0
  0
LINE
  5
216
330
81
100
AcDbEntity
  8
0
  6
Continuous
 62
     7
100
AcDbLine
 10
-414.1662521542198
 20
-543.3802241381052
 30
0.0
 11
-414.1662521542204
 21
-545.2332440396722
 31
0.0
  0
LINE
  5
217
330
81
100
AcDbEntity
  8
0
  6
Continuous
 62
     7
100
AcDbLine
 10
-413.8757391396919
 20
-551.731652388962
 30
0.0
 11
-413.8757391396961
 21
-569.4851731665417
 31
0.0
  0
LINE
  5
218
330
81
100
AcDbEntity
  8
0
  6
Continuous
 62
     7
100
AcDbLine
 10
-412.0137845215554
 20
-552.2691523889623
 30
0.0
 11
-412.0137845215596
 21
-570.0226731665421
 31
0.0
  0
LINE
  5
219
330
81
100
AcDbEntity
  8
0
  6
Continuous
 62
     7
100
AcDbLine
 10
-411.3137499911027
 20
-541.2129047020619
 30
0.0
 11
-411.4967626929949
 21
-540.8713983511157
 31
0.0
  0
LINE
  5
21A
330
81
100
AcDbEntity
  8
0
  6
Continuous
 62
     7
100
AcDbLine
 10
-411.4967626929949
 20
-540.8713983511157
 30
0.0
 11
-412.1797753948871
 21
-540.9629047020617
 31
0.0
  0
LINE
  5
21B
330
81
100
AcDbEntity
  8
0
  6
Continuous
 62
     7
100
AcDbLine
 10
-412.0137845215596
 20
-570.0226731665421
 30
0.0
 11
-413.8757391396961
 21
-569.4851731665417
 31
0.0
  0
LINE
  5
21C
330
81
100
AcDbEntity
  8
0
  6
Continuous
 62
     7
100
AcDbLine
 10
-414.558751841584
 20
-551.823158739908
 30
0.0
 11
-414.5587518415883
 21
-569.5766795174877
 31
0.0
  0
LINE
  5
21D
330
81
100
AcDbEntity
  8
0
  6
Continuous
 62
     7
100
AcDbLine
 10
-414.5587518415883
 20
-569.5766795174877
 30
0.0
 11
-413.8757391396961
 21
-569.4851731665417
 31
0.0
  0
LINE
  5
21E
330
81
100
AcDbEntity
  8
0
  6
Continuous
 62
     7
100
AcDbLine
 10
-413.4162521542198
 20
-542.7307050852669
 30
0.0
 11
-414.1662521542198
 21
-543.3802241381052
 31
0.0
  0
LINE
  5
21F
330
81
100
AcDbEntity
  8
0
  6
Continuous
 62
     7
100
AcDbLine
 10
-414.558751841584
 20
-551.823158739908
 30
0.0
 11
-413.8757391396919
 21
-551.731652388962
 31
0.0
  0
LINE
  5
220
330
81
100
AcDbEntity
  8
0
  6
Continuous
 62
     7
100
AcDbLine
 10
-414.7417645434763
 20
-551.4816523889617
 30
0.0
 11
-414.558751841584
 21
-551.823158739908
 31
0.0
  0
LINE
  5
221
330
81
100
AcDbEntity
  8
0
  6
Continuous
 62
     7
100
AcDbLine
 10
-412.0137845215554
 20
-552.2691523889623
 30
0.0
 11
-413.8757391396919
 21
-551.731652388962
 31
0.0
  0
LINE
  5
222
330
81
100
AcDbEntity
  8
0
  6
Continuous
 62
     7
100
AcDbLine
 10
-422.0818225024597
 20
-568.0198964168067
 30
0.0
 11
-422.3929348950179
 21
-567.0264705355019
 31
0.0
  0
LINE
  5
223
330
81
100
AcDbEntity
  8
0
  6
Continuous
 62
     7
100
AcDbLine
 10
-414.7417645434806
 20
-569.2351731665415
 30
0.0
 11
-426.736216385895
 21
-565.7726731665387
 31
0.0
  0
LINE
  5
224
330
81
100
AcDbEntity
  8
0
  6
Continuous
 62
     7
100
AcDbLine
 10
-412.0137845215554
 20
-552.2691523889623
 30
0.0
 11
-402.2637845215554
 21
-543.8254047020641
 31
0.0
  0
LINE
  5
225
330
81
100
AcDbEntity
  8
0
  6
Continuous
 62
     7
100
AcDbLine
 10
-402.2637845215596
 20
-561.5789254796439
 30
0.0
 11
-402.2637845215554
 21
-543.8254047020641
 31
0.0
  0
LINE
  5
226
330
81
100
AcDbEntity
  8
0
  6
Continuous
 62
     7
100
AcDbLine
 10
-426.7362163858895
 20
-542.8229999662526
 30
0.0
 11
-423.2721147707517
 21
-543.8229999662533
 31
0.0
  0
LINE
  5
227
330
81
100
AcDbEntity
  8
0
  6
Continuous
 62
     7
100
AcDbLine
 10
-426.736216385895
 20
-565.7726731665387
 30
0.0
 11
-426.7362163858895
 21
-542.8229999662526
 31
0.0
  0
LINE
  5
228
330
81
100
AcDbEntity
  8
0
  6
Continuous
 62
     7
100
AcDbLine
 10
-415.5265690762528
 20
-544.5582931497836
 30
0.0
 11
-416.2765690762528
 21
-545.2078122026221
 31
0.0
  0
LINE
  5
229
330
81
100
AcDbEntity
  8
0
  6
Continuous
 62
     7
100
AcDbLine
 10
-419.8988608092272
 20
-544.3688021846433
 30
0.0
 11
-416.2765690762528
 21
-545.2078122026221
 31
0.0
  0
LINE
  5
22A
330
81
100
AcDbEntity
  8
0
  6
Continuous
 62
     7
100
AcDbLine
 10
-415.5265690762534
 20
-546.4113130513506
 30
0.0
 11
-415.5265690762528
 21
-544.5582931497836
 31
0.0
  0
LINE
  5
22B
330
81
100
AcDbEntity
  8
0
  6
Continuous
 62
     7
100
AcDbLine
 10
-423.272114770753
 20
-549.0191523889596
 30
0.0
 11
-423.2721147707517
 21
-543.8229999662533
 31
0.0
  0
LINE
  5
22C
330
81
100
AcDbEntity
  8
0
  6
Continuous
 62
     7
100
AcDbLine
 10
-423.272114770753
 20
-549.0191523889596
 30
0.0
 11
-419.1488608092277
 21
-545.448309712024
 31
0.0
  0
LINE
  5
22D
330
81
100
AcDbEntity
  8
0
  6
Continuous
 62
     7
100
AcDbLine
 10
-414.7417645434763
 20
-551.4816523889617
 30
0.0
 11
-423.272114770753
 21
-549.0191523889596
 31
0.0
  0
LINE
  5
22E
330
81
100
AcDbEntity
  8
0
  6
Continuous
 62
     7
100
AcDbLine
 10
-411.3137499911027
 20
-541.2129047020619
 30
0.0
 11
-402.2637845215554
 21
-543.8254047020641
 31
0.0
  0
LINE
  5
22F
330
81
100
AcDbEntity
  8
0
  6
Continuous
 62
     7
100
AcDbLine
 10
-402.2637845215596
 20
-561.5789254796439
 30
0.0
 11
-412.0137845215596
 21
-570.0226731665421
 31
0.0
  0
SPLINE
  5
230
330
81
100
AcDbEntity
  8
0
  6
Continuous
 62
     7
100
AcDbSpline
210
0.0
220
0.0
230
1.0
 70
  1064
 71
     3
 72
    11
 73
     7
 74
     5
 42
0.000000001
 43
0.0000000001
 44
0.00000001
 40
0.0
 40
0.0
 40
0.0
 40
0.0
 40
0.376602458941526
 40
0.6915266369968109
 40
0.9435619909941568
 40
1.151652787050273
 40
1.151652787050273
 40
1.151652787050273
 40
1.151652787050273
 10
-414.5721147707525
 20
-539.3196678665745
 30
0.0
 10
-414.5765874183857
 20
-539.1936093917839
 30
0.0
 10
-414.5848002108276
 20
-538.9621377414396
 30
0.0
 10
-414.6655345631277
 20
-538.6585191117922
 30
0.0
 10
-414.7921447516768
 20
-538.4193873561982
 30
0.0
 10
-414.9319314345616
 20
-538.34883717022
 30
0.0
 10
-414.9951495843382
 20
-538.3169310467918
 30
0.0
 11
-414.5721147707525
 21
-539.3196678665745
 31
0.0
 11
-414.6006456430173
 21
-538.9441477001307
 31
0.0
 11
-414.6845239019228
 21
-538.6405992238589
 31
0.0
 11
-414.8187120515415
 21
-538.4272559220483
 31
0.0
 11
-414.9951495843382
 21
-538.3169310467918
 31
0.0
  0
SPLINE
  5
231
330
81
100
AcDbEntity
  8
0
  6
Continuous
 62
     7
100
AcDbSpline
210
0.0
220
0.0
230
1.0
 70
  1064
 71
     3
 72
     9
 73
     5
 74
     3
 42
0.000000001
 43
0.0000000001
 44
0.00000001
 40
0.0
 40
0.0
 40
0.0
 40
0.0
 40
0.5415267026531534
 40
1.045780652216597
 40
1.045780652216597
 40
1.045780652216597
 40
1.045780652216597
 10
-414.7262379051542
 20
-540.3516077992581
 30
0.0
 10
-414.6817198918108
 20
-540.1761193382738
 30
0.0
 10
-414.5957480160545
 20
-539.8372211118522
 30
0.0
 10
-414.5798030812409
 20
-539.4880371848083
 30
0.0
 10
-414.5721147707525
 20
-539.3196678665745
 30
0.0
 11
-414.7262379051542
 21
-540.3516077992581
 31
0.0
 11
-414.6114607673106
 21
-539.8223844257684
 31
0.0
 11
-414.5721147707525
 21
-539.3196678665745
 31
0.0
  0
SPLINE
  5
232
330
81
100
AcDbEntity
  8
0
  6
Continuous
 62
     7
100
AcDbSpline
210
0.0
220
0.0
230
1.0
 70
  1064
 71
     3
 72
    13
 73
     9
 74
     7
 42
0.000000001
 43
0.0000000001
 44
0.00000001
 40
0.0
 40
0.0
 40
0.0
 40
0.0
 40
0.2139874779890961
 40
0.4751337361675203
 40
0.802894369158462
 40
1.19494249608515
 40
1.63708471565331
 40
2.108651799284213
 40
2.108651799284213
 40
2.108651799284213
 40
2.108651799284213
 10
-414.9951495843382
 20
-538.3169310467918
 30
0.0
 10
-415.0677175057762
 20
-538.3104841756892
 30
0.0
 10
-415.2288459397729
 20
-538.29616968089
 30
0.0
 10
-415.4701516100799
 20
-538.4399931777759
 30
0.0
 10
-415.7040190101542
 20
-538.6668519649475
 30
0.0
 10
-415.9269711732379
 20
-538.986972276784
 30
0.0
 10
-416.1285847805784
 20
-539.3739367680137
 30
0.0
 10
-416.2292410929102
 20
-539.66180175935
 30
0.0
 10
-416.2811900044842
 20
-539.8103694209037
 30
0.0
 11
-414.9951495843382
 21
-538.3169310467918
 31
0.0
 11
-415.2091354729129
 21
-538.3177575711998
 31
0.0
 11
-415.4429353628516
 21
-538.4340975155496
 31
0.0
 11
-415.6817479849323
 21
-538.6585870773041
 31
0.0
 11
-415.9104545944257
 21
-538.9770129248404
 31
0.0
 11
-416.1145759794563
 21
-539.3692172117868
 31
0.0
 11
-416.2811900044842
 21
-539.8103694209037
 31
0.0
  0
SPLINE
  5
233
330
81
100
AcDbEntity
  8
0
  6
Continuous
 62
     7
100
AcDbSpline
210
0.0
220
0.0
230
1.0
 70
  1064
 71
     3
 72
    11
 73
     7
 74
     5
 42
0.000000001
 43
0.0000000001
 44
0.00000001
 40
0.0
 40
0.0
 40
0.0
 40
0.0
 40
0.3766024589416394
 40
0.6915266369969243
 40
0.9435619909942703
 40
1.151652787050327
 40
1.151652787050327
 40
1.151652787050327
 40
1.151652787050327
 10
-420.3221147707525
 20
-544.2993139383343
 30
0.0
 10
-420.3265874183856
 20
-544.1732554635437
 30
0.0
 10
-420.3348002108278
 20
-543.9417838131992
 30
0.0
 10
-420.4155345631276
 20
-543.6381651835519
 30
0.0
 10
-420.5421447516767
 20
-543.3990334279578
 30
0.0
 10
-420.6819314345618
 20
-543.3284832419798
 30
0.0
 10
-420.7451495843382
 20
-543.2965771185516
 30
0.0
 11
-420.3221147707525
 21
-544.2993139383343
 31
0.0
 11
-420.3506456430173
 21
-543.9237937718904
 31
0.0
 11
-420.4345239019228
 21
-543.6202452956186
 31
0.0
 11
-420.5687120515415
 21
-543.406901993808
 31
0.0
 11
-420.7451495843382
 21
-543.2965771185516
 31
0.0
  0
SPLINE
  5
234
330
81
100
AcDbEntity
  8
0
  6
Continuous
 62
     7
100
AcDbSpline
210
0.0
220
0.0
230
1.0
 70
  1064
 71
     3
 72
    15
 73
    11
 74
     9
 42
0.000000001
 43
0.0000000001
 44
0.00000001
 40
0.0
 40
0.0
 40
0.0
 40
0.0
 40
0.2298529119742819
 40
0.5160607998329088
 40
0.879122173791017
 40
1.313105872362671
 40
1.798319181630505
 40
2.307922958140904
 40
2.812142237556544
 40
3.281830617084585
 40
3.281830617084585
 40
3.281830617084585
 40
3.281830617084585
 10
-421.7990799571669
 20
-546.9474990253075
 30
0.0
 10
-421.720892474334
 20
-546.9531784826934
 30
0.0
 10
-421.5453476268058
 20
-546.9659298682295
 30
0.0
 10
-421.287255640957
 20
-546.7964139818621
 30
0.0
 10
-421.0393521926874
 20
-546.5365227542022
 30
0.0
 10
-420.8062276078412
 20
-546.1741940183695
 30
0.0
 10
-420.6043953160888
 20
-545.7419300082415
 30
0.0
 10
-420.4492748570954
 20
-545.2659910570023
 30
0.0
 10
-420.3445668622886
 20
-544.7806898741994
 30
0.0
 10
-420.3294197820915
 20
-544.4559344037325
 30
0.0
 10
-420.3221147707525
 20
-544.2993139383343
 30
0.0
 11
-421.7990799571669
 21
-546.9474990253075
 31
0.0
 11
-421.5692865865259
 21
-546.9422671710532
 31
0.0
 11
-421.3179846562905
 21
-546.805291645374
 31
0.0
 11
-421.0633627208663
 21
-546.5464843223745
 31
0.0
 11
-420.8238497414974
 21
-546.1845791097346
 31
0.0
 11
-420.6167816266765
 21
-545.7457685000682
 31
0.0
 11
-420.457144900821
 21
-545.2618138276998
 31
0.0
 11
-420.3564946791871
 21
-544.7677423602056
 31
0.0
 11
-420.3221147707525
 21
-544.2993139383343
 31
0.0
  0
SPLINE
  5
235
330
81
100
AcDbEntity
  8
0
  6
Continuous
 62
     7
100
AcDbSpline
210
0.0
220
0.0
230
1.0
 70
  1064
 71
     3
 72
    19
 73
    15
 74
    13
 42
0.000000001
 43
0.0000000001
 44
0.00000001
 40
0.0
 40
0.0
 40
0.0
 40
0.0
 40
0.2225611229057459
 40
0.4971528408221956
 40
0.8438580853671065
 40
1.258513177648271
 40
1.724069573307282
 40
2.216624054942453
 40
2.709178536577519
 40
3.174734932236504
 40
3.589390024517905
 40
3.936095269062686
 40
4.210686986979317
 40
4.433248109885164
 40
4.433248109885164
 40
4.433248109885164
 40
4.433248109885164
 10
-420.7451495843382
 20
-543.2965771185516
 30
0.0
 10
-420.8207533081152
 20
-543.290522199924
 30
0.0
 10
-420.9896354781577
 20
-543.2769968571787
 30
0.0
 10
-421.2401089194198
 20
-543.4345110593586
 30
0.0
 10
-421.4816079908039
 20
-543.6791055348792
 30
0.0
 10
-421.7105639896258
 20
-544.0218724225431
 30
0.0
 10
-421.9113226101234
 20
-544.4338028941703
 30
0.0
 10
-422.0713104049765
 20
-544.891330164652
 30
0.0
 10
-422.1797701103545
 20
-545.3637323132987
 30
0.0
 10
-422.2294311256394
 20
-545.8192809064476
 30
0.0
 10
-422.2183728695861
 20
-546.2313339414425
 30
0.0
 10
-422.1443813657539
 20
-546.5670027012269
 30
0.0
 10
-422.0163877157908
 20
-546.8337709419064
 30
0.0
 10
-421.8662792393471
 20
-546.9123302669699
 30
0.0
 10
-421.7990799571669
 20
-546.9474990253075
 30
0.0
 11
-420.7451495843382
 21
-543.2965771185516
 31
0.0
 11
-420.9676885083263
 21
-543.299720670417
 31
0.0
 11
-421.210973422218
 21
-543.4270512031015
 31
0.0
 11
-421.4584250494619
 21
-543.6698931627895
 31
0.0
 11
-421.6931800350618
 21
-544.0116956503352
 31
0.0
 11
-421.8992399018756
 21
-544.429166710859
 31
0.0
 11
-422.0625625503732
 21
-544.8938554527572
 31
0.0
 11
-422.1720170818519
 21
-545.3740945805861
 31
0.0
 11
-422.2201452214763
 21
-545.8371566037131
 31
0.0
 11
-422.2036661643019
 21
-546.2514841123717
 31
0.0
 11
-422.1237038989078
 21
-546.5888423215852
 31
0.0
 11
-421.9857068031424
 21
-546.8262394897263
 31
0.0
 11
-421.7990799571669
 21
-546.9474990253075
 31
0.0
  0
SPLINE
  5
236
330
81
100
AcDbEntity
  8
0
  6
Continuous
 62
     7
100
AcDbSpline
210
0.0
220
0.0
230
1.0
 70
  1064
 71
     3
 72
    11
 73
     7
 74
     5
 42
0.000000001
 43
0.0000000001
 44
0.00000001
 40
0.0
 40
0.0
 40
0.0
 40
0.0
 40
0.3964390001242986
 40
0.7279508589522636
 40
0.9932602649873843
 40
1.212309091025422
 40
1.212309091025422
 40
1.212309091025422
 40
1.212309091025422
 10
-408.138784521245
 20
-557.7900210365467
 30
0.0
 10
-408.1340782011076
 20
-557.9227193914019
 30
0.0
 10
-408.1254363349242
 20
-558.1663833117098
 30
0.0
 10
-408.0404543746565
 20
-558.4859948844293
 30
0.0
 10
-407.9071798692055
 20
-558.7377235674192
 30
0.0
 10
-407.7600317808985
 20
-558.8119900870869
 30
0.0
 10
-407.6934847177832
 20
-558.845576779964
 30
0.0
 11
-408.138784521245
 21
-557.7900210365467
 31
0.0
 11
-408.108756584873
 21
-558.1853211725671
 31
0.0
 11
-408.0204650184809
 21
-558.5048594547565
 31
0.0
 11
-407.8792126373559
 21
-558.7294409549803
 31
0.0
 11
-407.6934847177832
 21
-558.845576779964
 31
0.0
  0
SPLINE
  5
237
330
81
100
AcDbEntity
  8
0
  6
Continuous
 62
     7
100
AcDbSpline
210
0.0
220
0.0
230
1.0
 70
  1064
 71
     3
 72
    17
 73
    13
 74
    11
 42
0.000000001
 43
0.0000000001
 44
0.00000001
 40
0.0
 40
0.0
 40
0.0
 40
0.0
 40
0.2611458113189753
 40
0.5806503526263992
 40
0.9629386800357278
 40
1.395689917896272
 40
1.857467596866907
 40
2.322564778821881
 40
2.764819070974134
 40
3.16133473337286
 40
3.496942824021328
 40
3.770946873225459
 40
3.770946873225459
 40
3.770946873225459
 40
3.770946873225459
 10
-422.0818225024597
 20
-568.0198964168067
 30
0.0
 10
-422.0419101874509
 20
-568.0985475487074
 30
0.0
 10
-421.9531662627862
 20
-568.2734261114667
 30
0.0
 10
-421.680351074576
 20
-568.4613978627466
 30
0.0
 10
-421.3338241600433
 20
-568.6117608133496
 30
0.0
 10
-420.9164569245532
 20
-568.7082397080094
 30
0.0
 10
-420.4637097621559
 20
-568.7468061718055
 30
0.0
 10
-420.0067105493308
 20
-568.723495470672
 30
0.0
 10
-419.5773809447577
 20
-568.641262342205
 30
0.0
 10
-419.2115377453781
 20
-568.5027239884346
 30
0.0
 10
-418.9160778241389
 20
-568.3260824774432
 30
0.0
 10
-418.8031909035666
 20
-568.1545064012244
 30
0.0
 10
-418.7524513150564
 20
-568.0773876229382
 30
0.0
 11
-422.0818225024597
 21
-568.0198964168067
 31
0.0
 11
-421.9467607496902
 21
-568.2434035944374
 31
0.0
 11
-421.6949214444103
 21
-568.4400253602641
 31
0.0
 11
-421.3453913101798
 21
-568.5948576858101
 31
0.0
 11
-420.9246653432581
 21
-568.6961655971855
 31
0.0
 11
-420.4646323805812
 21
-568.7362691634911
 31
0.0
 11
-420.0001620603196
 21
-568.712129815597
 31
0.0
 11
-419.566460197621
 21
-568.6255760676094
 31
0.0
 11
-419.1963993167136
 21
-568.4831695585474
 31
0.0
 11
-418.9180304613633
 21
-568.2957033674343
 31
0.0
 11
-418.7524513150564
 21
-568.0773876229382
 31
0.0
  0
SPLINE
  5
238
330
81
100
AcDbEntity
  8
0
  6
Continuous
 62
     7
100
AcDbSpline
210
0.0
220
0.0
230
1.0
 70
  1064
 71
     3
 72
    15
 73
    11
 74
     9
 42
0.000000001
 43
0.0000000001
 44
0.00000001
 40
0.0
 40
0.0
 40
0.0
 40
0.0
 40
0.2419474467779694
 40
0.5432141151615253
 40
0.9253772380322449
 40
1.382194251123672
 40
1.892937106101729
 40
2.429355310017684
 40
2.960107949899858
 40
3.454515467752447
 40
3.454515467752447
 40
3.454515467752447
 40
3.454515467752447
 10
-406.5840843253319
 20
-555.0025010886422
 30
0.0
 10
-406.6663858804689
 20
-554.9965225506689
 30
0.0
 10
-406.8511671892854
 20
-554.9830997023714
 30
0.0
 10
-407.1228398715797
 20
-555.1615324982005
 30
0.0
 10
-407.3837882892349
 20
-555.4350959009557
 30
0.0
 10
-407.6291809311465
 20
-555.8164865365356
 30
0.0
 10
-407.8416357605719
 20
-556.2714929942028
 30
0.0
 10
-408.0049221596437
 20
-556.7724740234135
 30
0.0
 10
-408.1151444557766
 20
-557.2833122295667
 30
0.0
 10
-408.1310929750496
 20
-557.6251579325884
 30
0.0
 10
-408.138784521245
 20
-557.7900210365467
 30
0.0
 11
-406.5840843253319
 21
-555.0025010886422
 31
0.0
 11
-406.8259691157252
 21
-555.0080074262492
 31
0.0
 11
-407.0904941888082
 21
-555.1521881838989
 31
0.0
 11
-407.3585143755733
 21
-555.4246103399406
 31
0.0
 11
-407.6106314261199
 21
-555.8055549236379
 31
0.0
 11
-407.828597571544
 21
-556.267452123448
 31
0.0
 11
-407.9966379071666
 21
-556.7768703555694
 31
0.0
 11
-408.1025893124656
 21
-557.2969402209231
 31
0.0
 11
-408.138784521245
 21
-557.7900210365467
 31
0.0
  0
SPLINE
  5
239
330
81
100
AcDbEntity
  8
0
  6
Continuous
 62
     7
100
AcDbSpline
210
0.0
220
0.0
230
1.0
 70
  1064
 71
     3
 72
    19
 73
    15
 74
    13
 42
0.000000001
 43
0.0000000001
 44
0.00000001
 40
0.0
 40
0.0
 40
0.0
 40
0.0
 40
0.2342748663560817
 40
0.5233187801758725
 40
0.888271669065334
 40
1.324750713457906
 40
1.814810077170948
 40
2.33328847873072
 40
2.85176688029052
 40
3.341826244003396
 40
3.778305288395962
 40
4.143258177285467
 40
4.432302091105376
 40
4.666576957461479
 40
4.666576957461479
 40
4.666576957461479
 40
4.666576957461479
 10
-407.6934847177832
 20
-558.845576779964
 30
0.0
 10
-407.6139018506021
 20
-558.851950378523
 30
0.0
 10
-407.4361311450176
 20
-558.8661875824939
 30
0.0
 10
-407.1724748918272
 20
-558.7003831570754
 30
0.0
 10
-406.9182653427196
 20
-558.4429152888157
 30
0.0
 10
-406.6772590283848
 20
-558.0821080384596
 30
0.0
 10
-406.4659341647626
 20
-557.6484970158838
 30
0.0
 10
-406.2975259597374
 20
-557.1668893628658
 30
0.0
 10
-406.1833578488072
 20
-556.6696239433844
 30
0.0
 10
-406.1310830959263
 20
-556.1900991086832
 30
0.0
 10
-406.1427233651772
 20
-555.7563590718057
 30
0.0
 10
-406.2206091593008
 20
-555.4030235356397
 30
0.0
 10
-406.355339315402
 20
-555.1222148598987
 30
0.0
 10
-406.5133482387844
 20
-555.0395208342827
 30
0.0
 10
-406.5840843253319
 20
-555.0025010886422
 30
0.0
 11
-407.6934847177832
 21
-558.845576779964
 31
0.0
 11
-407.4592332188483
 21
-558.8422677780006
 31
0.0
 11
-407.2031438358044
 21
-558.7082356383326
 31
0.0
 11
-406.9426684387055
 21
-558.4526125228717
 31
0.0
 11
-406.6955579275477
 21
-558.0928204307181
 31
0.0
 11
-406.4786528045857
 21
-557.6533772091141
 31
0.0
 11
-406.30673422722
 21
-557.1642311650108
 31
0.0
 11
-406.1915189309267
 21
-556.658716293612
 31
0.0
 11
-406.1408577313221
 21
-556.1712825850573
 31
0.0
 11
-406.158204107295
 21
-555.7351483654166
 31
0.0
 11
-406.2423749129731
 21
-555.3800344609814
 31
0.0
 11
-406.3876350137787
 21
-555.1301427050435
 31
0.0
 11
-406.5840843253319
 21
-555.0025010886422
 31
0.0
  0
ENDBLK
  5
83
330
81
100
AcDbEntity
  8
0
100
AcDbBlockEnd
  0
BLOCK
  5
86
330
84
100
AcDbEntity
  8
0
100
AcDbBlockBegin
  2
AllgSicht1
 70
     0
 10
-414.49999999999
 20
-553.5000000000559
 30
0.0
  3
AllgSicht1
  1

  0
INSERT
  5
85
330
84
100
AcDbEntity
  8
0
100
AcDbBlockReference
  2
CES_STPG_GY_4-select__1
 10
-426.736216385895
 20
-570.0226731665421
 30
0.0
  0
MTEXT
  5
23A
330
84
100
AcDbEntity
  8
1
 62
     6
100
AcDbMText
 10
-414.5000004537252
 20
-572.5226731665421
 30
0.0
 40
2.5
 41
0.0
 71
     2
 72
     1
  1
 
  7
CONVERTER_11
 73
     1
 44
1.32052821128451
  0
ENDBLK
  5
87
330
84
100
AcDbEntity
  8
0
100
AcDbBlockEnd
  0
BLOCK
  5
89
330
88
100
AcDbEntity
  8
0
100
AcDbBlockBegin
  2
CES_STPG_GY_4-select__2
 70
     0
 10
-510.8749999999091
 20
-535.2500014307883
 30
0.0
  3
CES_STPG_GY_4-select__2
  1

  0
LINE
  5
23B
330
88
100
AcDbEntity
  8
0
  6
Continuous
 62
     7
100
AcDbLine
 10
-504.3249999999105
 20
-515.2500014307883
 30
0.0
 11
-504.8249999999105
 21
-514.7500014307883
 31
0.0
  0
LINE
  5
23C
330
88
100
AcDbEntity
  8
0
  6
Continuous
 62
     7
100
AcDbLine
 10
-502.7749999999094
 20
-527.8603183528211
 30
0.0
 11
-502.7749999999094
 21
-522.1396845087551
 31
0.0
  0
LINE
  5
23D
330
88
100
AcDbEntity
  8
0
  6
Continuous
 62
     7
100
AcDbLine
 10
-506.8749999999095
 20
-521.9965093538389
 30
0.0
 11
-502.7749999999094
 21
-522.1396845087551
 31
0.0
  0
LINE
  5
23E
330
88
100
AcDbEntity
  8
0
  6
Continuous
 62
     7
100
AcDbLine
 10
-510.8749999999091
 20
-534.7500014307883
 30
0.0
 11
-510.8749999999091
 21
-515.2500014307883
 31
0.0
  0
LINE
  5
23F
330
88
100
AcDbEntity
  8
0
  6
Continuous
 62
     7
100
AcDbLine
 10
-506.8749999999104
 20
-515.2500014307883
 30
0.0
 11
-505.3249999999105
 21
-515.2500014307883
 31
0.0
  0
LINE
  5
240
330
88
100
AcDbEntity
  8
0
  6
Continuous
 62
     7
100
AcDbLine
 10
-506.8749999999104
 20
-515.2500014307883
 30
0.0
 11
-510.8749999999091
 21
-515.2500014307883
 31
0.0
  0
LINE
  5
241
330
88
100
AcDbEntity
  8
0
  6
Continuous
 62
     7
100
AcDbLine
 10
-493.8749999999106
 20
-534.7500014307883
 30
0.0
 11
-496.0249999999105
 21
-534.7500014307883
 31
0.0
  0
LINE
  5
242
330
88
100
AcDbEntity
  8
0
  6
Continuous
 62
     7
100
AcDbLine
 10
-506.8749999999095
 20
-528.0034935077373
 30
0.0
 11
-506.8749999999095
 21
-521.9965093538389
 31
0.0
  0
LINE
  5
243
330
88
100
AcDbEntity
  8
0
  6
Continuous
 62
     7
100
AcDbLine
 10
-506.8749999999104
 20
-534.7500014307883
 30
0.0
 11
-506.8749999999095
 21
-528.0034935077373
 31
0.0
  0
LINE
  5
244
330
88
100
AcDbEntity
  8
0
  6
Continuous
 62
     7
100
AcDbLine
 10
-504.8249999999105
 20
-514.7500014307883
 30
0.0
 11
-505.3249999999105
 21
-515.2500014307883
 31
0.0
  0
LINE
  5
245
330
88
100
AcDbEntity
  8
0
  6
Continuous
 62
     7
100
AcDbLine
 10
-506.8749999999095
 20
-521.9965093538389
 30
0.0
 11
-506.8749999999104
 21
-515.2500014307883
 31
0.0
  0
LINE
  5
246
330
88
100
AcDbEntity
  8
0
  6
Continuous
 62
     7
100
AcDbLine
 10
-496.5249999999105
 20
-535.2500014307883
 30
0.0
 11
-496.0249999999105
 21
-534.7500014307883
 31
0.0
  0
LINE
  5
247
330
88
100
AcDbEntity
  8
0
  6
Continuous
 62
     7
100
AcDbLine
 10
-497.0249999999105
 20
-534.7500014307883
 30
0.0
 11
-496.5249999999105
 21
-535.2500014307883
 31
0.0
  0
LINE
  5
248
330
88
100
AcDbEntity
  8
0
  6
Continuous
 62
     7
100
AcDbLine
 10
-497.0249999999105
 20
-534.7500014307883
 30
0.0
 11
-506.8749999999104
 21
-534.7500014307883
 31
0.0
  0
LINE
  5
249
330
88
100
AcDbEntity
  8
0
  6
Continuous
 62
     7
100
AcDbLine
 10
-493.8749999999106
 20
-534.7500014307883
 30
0.0
 11
-493.8749999999106
 21
-515.2500014307883
 31
0.0
  0
LINE
  5
24A
330
88
100
AcDbEntity
  8
0
  6
Continuous
 62
     7
100
AcDbLine
 10
-510.8749999999091
 20
-534.7500014307883
 30
0.0
 11
-506.8749999999104
 21
-534.7500014307883
 31
0.0
  0
LINE
  5
24B
330
88
100
AcDbEntity
  8
0
  6
Continuous
 62
     7
100
AcDbLine
 10
-504.3249999999105
 20
-515.2500014307883
 30
0.0
 11
-493.8749999999106
 21
-515.2500014307883
 31
0.0
  0
LINE
  5
24C
330
88
100
AcDbEntity
  8
0
  6
Continuous
 62
     7
100
AcDbLine
 10
-506.8749999999095
 20
-528.0034935077373
 30
0.0
 11
-502.7749999999094
 21
-527.8603183528211
 31
0.0
  0
ENDBLK
  5
8A
330
88
100
AcDbEntity
  8
0
100
AcDbBlockEnd
  0
BLOCK
  5
8D
330
8B
100
AcDbEntity
  8
0
100
AcDbBlockBegin
  2
Drfsicht1
 70
     0
 10
-502.3749999999429
 20
-525.0000005232661
 30
0.0
  3
Drfsicht1
  1

  0
INSERT
  5
8C
330
8B
100
AcDbEntity
  8
0
100
AcDbBlockReference
  2
CES_STPG_GY_4-select__2
 10
-510.8749999999091
 20
-535.2500014307883
 30
0.0
  0
MTEXT
  5
24D
330
8B
100
AcDbEntity
  8
1
 62
     6
100
AcDbMText
 10
-502.37499999991
 20
-537.7500014307883
 30
0.0
 40
2.5
 41
0.0
 71
     2
 72
     1
  1
 
  7
CONVERTER_11
 73
     1
 44
1.32052821128451
  0
DIMENSION
  5
258
330
8B
100
AcDbEntity
  8
1
100
AcDbDimension
  2
*D17
 10
-516.8182485357707
 20
-514.7500014307883
 30
0.0
 11
-518.5307485357707
 21
-525.11968064348
 31
0.0
 70
    32
  1
<>
 71
     5
 42
-1.0
 53
90.0
  3
ME10_DIM_10
100
AcDbAlignedDimension
 13
-496.5249999999105
 23
-535.2500014307883
 33
0.0
 14
-504.8249999999105
 24
-514.7500014307883
 34
0.0
 50
90.0
100
AcDbRotatedDimension
  0
ENDBLK
  5
8E
330
8B
100
AcDbEntity
  8
0
100
AcDbBlockEnd
  0
BLOCK
  5
90
330
8F
100
AcDbEntity
  8
0
100
AcDbBlockBegin
  2
CES_STPG_GY_4-select__3
 70
     0
 10
-441.125000000036
 20
-492.2500005030197
 30
0.0
  3
CES_STPG_GY_4-select__3
  1

  0
LINE
  5
259
330
8F
100
AcDbEntity
  8
0
  6
Continuous
 62
     7
100
AcDbLine
 10
-428.1250000000372
 20
-464.2465084260699
 30
0.0
 11
-432.2250000000372
 21
-464.389683580987
 31
0.0
  0
LINE
  5
25A
330
8F
100
AcDbEntity
  8
0
  6
Continuous
 62
     7
100
AcDbLine
 10
-432.2250000000372
 20
-464.389683580987
 30
0.0
 11
-432.2250000000366
 21
-466.610317425053
 31
0.0
  0
LINE
  5
25B
330
8F
100
AcDbEntity
  8
0
  6
Continuous
 62
     7
100
AcDbLine
 10
-428.1250000000375
 20
-462.750000503019
 30
0.0
 11
-428.1250000000372
 21
-464.2465084260699
 31
0.0
  0
LINE
  5
25C
330
8F
100
AcDbEntity
  8
0
  6
Continuous
 62
     7
100
AcDbLine
 10
-428.1250000000366
 20
-466.7534925799682
 30
0.0
 11
-428.1250000000362
 21
-468.750000503019
 31
0.0
  0
LINE
  5
25D
330
8F
100
AcDbEntity
  8
0
  6
Continuous
 62
     7
100
AcDbLine
 10
-428.1250000000372
 20
-464.2465084260699
 30
0.0
 11
-428.1250000000366
 21
-466.7534925799682
 31
0.0
  0
LINE
  5
25E
330
8F
100
AcDbEntity
  8
0
  6
Continuous
 62
     7
100
AcDbLine
 10
-428.1250000000366
 20
-466.7534925799682
 30
0.0
 11
-432.2250000000366
 21
-466.610317425053
 31
0.0
  0
LINE
  5
25F
330
8F
100
AcDbEntity
  8
0
  6
Continuous
 62
     7
100
AcDbLine
 10
-430.6750000000312
 20
-489.2500005030197
 30
0.0
 11
-431.6250000000313
 21
-489.2500005030199
 31
0.0
  0
LINE
  5
260
330
8F
100
AcDbEntity
  8
0
  6
Continuous
 62
     7
100
AcDbLine
 10
-426.6250000000313
 20
-489.2500005030187
 30
0.0
 11
-429.6750000000313
 21
-489.2500005030195
 31
0.0
  0
LINE
  5
261
330
8F
100
AcDbEntity
  8
0
  6
Continuous
 62
     7
100
AcDbLine
 10
-424.1250000000313
 20
-489.2500005030181
 30
0.0
 11
-426.6250000000313
 21
-489.2500005030187
 31
0.0
  0
LINE
  5
262
330
8F
100
AcDbEntity
  8
0
  6
Continuous
 62
     7
100
AcDbLine
 10
-430.1750000000312
 20
-489.2500005030196
 30
0.0
 11
-429.6750000000313
 21
-489.2500005030195
 31
0.0
  0
LINE
  5
263
330
8F
100
AcDbEntity
  8
0
  6
Continuous
 62
     7
100
AcDbLine
 10
-430.6750000000312
 20
-489.2500005030197
 30
0.0
 11
-430.1750000000312
 21
-489.2500005030196
 31
0.0
  0
LINE
  5
264
330
8F
100
AcDbEntity
  8
0
  6
Continuous
 62
     7
100
AcDbLine
 10
-431.6250000000313
 20
-489.2500005030199
 30
0.0
 11
-441.1250000000312
 21
-489.2500005030222
 31
0.0
  0
LINE
  5
265
330
8F
100
AcDbEntity
  8
0
  6
Continuous
 62
     7
100
AcDbLine
 10
-430.6750000000361
 20
-468.7500005030196
 30
0.0
 11
-430.1750000000361
 21
-468.7500005030195
 31
0.0
  0
LINE
  5
266
330
8F
100
AcDbEntity
  8
0
  6
Continuous
 62
     7
100
AcDbLine
 10
-429.6750000000361
 20
-468.7500005030194
 30
0.0
 11
-429.6750000000313
 21
-489.2500005030195
 31
0.0
  0
LINE
  5
267
330
8F
100
AcDbEntity
  8
0
  6
Continuous
 62
     7
100
AcDbLine
 10
-430.1750000000312
 20
-489.2500005030196
 30
0.0
 11
-430.1750000000361
 21
-468.7500005030195
 31
0.0
  0
LINE
  5
268
330
8F
100
AcDbEntity
  8
0
  6
Continuous
 62
     7
100
AcDbLine
 10
-430.6750000000312
 20
-489.2500005030197
 30
0.0
 11
-430.6750000000361
 21
-468.7500005030196
 31
0.0
  0
LINE
  5
269
330
8F
100
AcDbEntity
  8
0
  6
Continuous
 62
     7
100
AcDbLine
 10
-432.2250000000366
 20
-466.610317425053
 30
0.0
 11
-432.2250000000362
 21
-468.7500005030199
 31
0.0
  0
LINE
  5
26A
330
8F
100
AcDbEntity
  8
0
  6
Continuous
 62
     7
100
AcDbLine
 10
-441.1250000000312
 20
-489.2500005030222
 30
0.0
 11
-441.125000000036
 21
-468.7500005030221
 31
0.0
  0
LINE
  5
26B
330
8F
100
AcDbEntity
  8
0
  6
Continuous
 62
     7
100
AcDbLine
 10
-428.1250000000375
 20
-462.750000503019
 30
0.0
 11
-424.1250000000375
 21
-462.7500005030181
 31
0.0
  0
LINE
  5
26C
330
8F
100
AcDbEntity
  8
0
  6
Continuous
 62
     7
100
AcDbLine
 10
-424.1250000000375
 20
-462.7500005030181
 30
0.0
 11
-424.1250000000313
 21
-489.2500005030181
 31
0.0
  0
LINE
  5
26D
330
8F
100
AcDbEntity
  8
0
  6
Continuous
 62
     7
100
AcDbLine
 10
-430.8211524227371
 20
-492.2500005030197
 30
0.0
 11
-431.6250000000313
 21
-489.2500005030199
 31
0.0
  0
LINE
  5
26E
330
8F
100
AcDbEntity
  8
0
  6
Continuous
 62
     7
100
AcDbLine
 10
-429.1250000000305
 20
-492.2500005030192
 30
0.0
 11
-427.4288475773238
 21
-492.2500005030189
 31
0.0
  0
LINE
  5
26F
330
8F
100
AcDbEntity
  8
0
  6
Continuous
 62
     7
100
AcDbLine
 10
-430.8211524227371
 20
-492.2500005030197
 30
0.0
 11
-429.1250000000305
 21
-492.2500005030192
 31
0.0
  0
LINE
  5
270
330
8F
100
AcDbEntity
  8
0
  6
Continuous
 62
     7
100
AcDbLine
 10
-430.6750000000361
 20
-468.7500005030196
 30
0.0
 11
-432.2250000000362
 21
-468.7500005030199
 31
0.0
  0
LINE
  5
271
330
8F
100
AcDbEntity
  8
0
  6
Continuous
 62
     7
100
AcDbLine
 10
-428.1250000000362
 20
-468.750000503019
 30
0.0
 11
-429.6750000000361
 21
-468.7500005030194
 31
0.0
  0
LINE
  5
272
330
8F
100
AcDbEntity
  8
0
  6
Continuous
 62
     7
100
AcDbLine
 10
-430.1750000000361
 20
-468.7500005030195
 30
0.0
 11
-429.6750000000361
 21
-468.7500005030194
 31
0.0
  0
LINE
  5
273
330
8F
100
AcDbEntity
  8
0
  6
Continuous
 62
     7
100
AcDbLine
 10
-432.2250000000362
 20
-468.7500005030199
 30
0.0
 11
-441.125000000036
 21
-468.7500005030221
 31
0.0
  0
LINE
  5
274
330
8F
100
AcDbEntity
  8
0
  6
Continuous
 62
     7
100
AcDbLine
 10
-427.4288475773238
 20
-492.2500005030189
 30
0.0
 11
-426.6250000000313
 21
-489.2500005030187
 31
0.0
  0
LINE
  5
275
330
8F
100
AcDbEntity
  8
1
  6
DOT_CENTER
 62
     2
100
AcDbLine
 10
-429.1250000000305
 20
-492.2500005030192
 30
0.0
 11
-429.1250000000313
 21
-489.2500005030192
 31
0.0
  0
ENDBLK
  5
91
330
8F
100
AcDbEntity
  8
0
100
AcDbBlockEnd
  0
BLOCK
  5
94
330
92
100
AcDbEntity
  8
0
100
AcDbBlockBegin
  2
Rckans1
 70
     0
 10
-432.6250000000036
 20
-477.500000000041
 30
0.0
  3
Rckans1
  1

  0
INSERT
  5
93
330
92
100
AcDbEntity
  8
0
100
AcDbBlockReference
  2
CES_STPG_GY_4-select__3
 10
-441.125000000036
 20
-492.2500005030197
 30
0.0
  0
MTEXT
  5
276
330
92
100
AcDbEntity
  8
1
 62
     6
100
AcDbMText
 10
-432.6250000000337
 20
-494.7500005030197
 30
0.0
 40
2.5
 41
0.0
 71
     2
 72
     1
  1
 
  7
CONVERTER_11
 73
     1
 44
1.32052821128451
  0
ENDBLK
  5
95
330
92
100
AcDbEntity
  8
0
100
AcDbBlockEnd
  0
BLOCK
  5
97
330
96
100
AcDbEntity
  8
0
100
AcDbBlockBegin
  2
CES_STPG_GY_4-select__4
 70
     0
 10
-477.863191292154
 20
-492.2500005031834
 30
0.0
  3
CES_STPG_GY_4-select__4
  1

  0
LINE
  5
277
330
96
100
AcDbEntity
  8
0
  6
Continuous
 62
     7
100
AcDbLine
 10
-463.5593437148606
 20
-492.2500005031834
 30
0.0
 11
-460.1670388694474
 21
-492.2500005031834
 31
0.0
  0
LINE
  5
278
330
96
100
AcDbEntity
  8
0
  6
Continuous
 62
     7
100
AcDbLine
 10
-457.863191292154
 20
-489.2500005031823
 30
0.0
 11
-457.363191292154
 21
-489.2500005031857
 31
0.0
  0
LINE
  5
279
330
96
100
AcDbEntity
  8
0
  6
Continuous
 62
     7
100
AcDbLine
 10
-460.1670388694474
 20
-492.2500005031834
 30
0.0
 11
-459.363191292154
 21
-489.2500005031834
 31
0.0
  0
LINE
  5
27A
330
96
100
AcDbEntity
  8
0
  6
Continuous
 62
     7
100
AcDbLine
 10
-463.5593437148606
 20
-492.2500005031834
 30
0.0
 11
-464.363191292154
 21
-489.2500005031834
 31
0.0
  0
LINE
  5
27B
330
96
100
AcDbEntity
  8
0
  6
Continuous
 62
     7
100
AcDbLine
 10
-457.863191292154
 20
-468.7500005031855
 30
0.0
 11
-457.363191292154
 21
-468.7500005031856
 31
0.0
  0
LINE
  5
27C
330
96
100
AcDbEntity
  8
0
  6
Continuous
 62
     7
100
AcDbLine
 10
-457.363191292154
 20
-468.7500005031856
 30
0.0
 11
-457.363191292154
 21
-489.2500005031857
 31
0.0
  0
LINE
  5
27D
330
96
100
AcDbEntity
  8
0
  6
Continuous
 62
     7
100
AcDbLine
 10
-477.8631912921539
 20
-489.2500005031837
 30
0.0
 11
-477.363191292154
 21
-489.2500005031823
 31
0.0
  0
LINE
  5
27E
330
96
100
AcDbEntity
  8
0
  6
Continuous
 62
     7
100
AcDbLine
 10
-457.863191292154
 20
-489.2500005031823
 30
0.0
 11
-459.363191292154
 21
-489.2500005031834
 31
0.0
  0
LINE
  5
27F
330
96
100
AcDbEntity
  8
0
  6
Continuous
 62
     7
100
AcDbLine
 10
-464.363191292154
 20
-489.2500005031834
 30
0.0
 11
-477.363191292154
 21
-489.2500005031823
 31
0.0
  0
LINE
  5
280
330
96
100
AcDbEntity
  8
0
  6
Continuous
 62
     7
100
AcDbLine
 10
-459.363191292154
 20
-489.2500005031834
 30
0.0
 11
-464.363191292154
 21
-489.2500005031834
 31
0.0
  0
LINE
  5
281
330
96
100
AcDbEntity
  8
0
  6
Continuous
 62
     7
100
AcDbLine
 10
-477.863191292154
 20
-468.7500005031836
 30
0.0
 11
-477.363191292154
 21
-468.7500005031835
 31
0.0
  0
LINE
  5
282
330
96
100
AcDbEntity
  8
0
  6
Continuous
 62
     7
100
AcDbLine
 10
-477.8631912921539
 20
-489.2500005031837
 30
0.0
 11
-477.863191292154
 21
-468.7500005031836
 31
0.0
  0
LINE
  5
283
330
96
100
AcDbEntity
  8
0
  6
Continuous
 62
     7
100
AcDbLine
 10
-477.363191292154
 20
-462.7500005031823
 30
0.0
 11
-477.363191292154
 21
-468.7500005031835
 31
0.0
  0
LINE
  5
284
330
96
100
AcDbEntity
  8
0
  6
Continuous
 62
     7
100
AcDbLine
 10
-477.363191292154
 20
-468.7500005031835
 30
0.0
 11
-477.363191292154
 21
-489.2500005031823
 31
0.0
  0
LINE
  5
285
330
96
100
AcDbEntity
  8
0
  6
Continuous
 62
     7
100
AcDbLine
 10
-457.863191292154
 20
-462.7500005031822
 30
0.0
 11
-477.363191292154
 21
-462.7500005031823
 31
0.0
  0
LINE
  5
286
330
96
100
AcDbEntity
  8
0
  6
Continuous
 62
     7
100
AcDbLine
 10
-457.863191292154
 20
-468.7500005031855
 30
0.0
 11
-457.863191292154
 21
-462.7500005031822
 31
0.0
  0
LINE
  5
287
330
96
100
AcDbEntity
  8
0
  6
Continuous
 62
     7
100
AcDbLine
 10
-457.863191292154
 20
-489.2500005031823
 30
0.0
 11
-457.863191292154
 21
-468.7500005031855
 31
0.0
  0
LINE
  5
288
330
96
100
AcDbEntity
  8
1
  6
DOT_CENTER
 62
     2
100
AcDbLine
 10
-465.413191292154
 20
-479.0000005031823
 30
0.0
 11
-469.813191292154
 21
-479.0000005031823
 31
0.0
  0
LINE
  5
289
330
96
100
AcDbEntity
  8
1
  6
DOT_CENTER
 62
     2
100
AcDbLine
 10
-467.613191292154
 20
-476.8000005031822
 30
0.0
 11
-467.613191292154
 21
-481.2000005031823
 31
0.0
  0
LINE
  5
28A
330
96
100
AcDbEntity
  8
1
  6
DOT_CENTER
 62
     2
100
AcDbLine
 10
-471.273191292154
 20
-466.2500005031827
 30
0.0
 11
-475.453191292154
 21
-466.2500005031827
 31
0.0
  0
LINE
  5
28B
330
96
100
AcDbEntity
  8
1
  6
DOT_CENTER
 62
     2
100
AcDbLine
 10
-473.363191292154
 20
-464.1600005031827
 30
0.0
 11
-473.363191292154
 21
-468.3400005031828
 31
0.0
  0
LINE
  5
28C
330
96
100
AcDbEntity
  8
1
  6
DOT_CENTER
 62
     2
100
AcDbLine
 10
-459.773191292154
 20
-466.2500005031818
 30
0.0
 11
-463.953191292154
 21
-466.2500005031818
 31
0.0
  0
LINE
  5
28D
330
96
100
AcDbEntity
  8
1
  6
DOT_CENTER
 62
     2
100
AcDbLine
 10
-461.863191292154
 20
-464.1600005031818
 30
0.0
 11
-461.863191292154
 21
-468.3400005031818
 31
0.0
  0
LINE
  5
28E
330
96
100
AcDbEntity
  8
1
  6
DOT_CENTER
 62
     2
100
AcDbLine
 10
-461.863191292154
 20
-492.2500005031834
 30
0.0
 11
-461.863191292154
 21
-489.2500005031834
 31
0.0
  0
CIRCLE
  5
28F
330
96
100
AcDbEntity
  8
0
  6
Continuous
 62
     7
100
AcDbCircle
 10
-461.863191292154
 20
-466.2500005031818
 30
0.0
 40
1.899999999999977
  0
CIRCLE
  5
290
330
96
100
AcDbEntity
  8
0
  6
Continuous
 62
     7
100
AcDbCircle
 10
-473.363191292154
 20
-466.2500005031827
 30
0.0
 40
1.899999999999977
  0
CIRCLE
  5
291
330
96
100
AcDbEntity
  8
0
  6
Continuous
 62
     7
100
AcDbCircle
 10
-467.613191292154
 20
-479.0000005031823
 30
0.0
 40
2.00000000000012
  0
ENDBLK
  5
98
330
96
100
AcDbEntity
  8
0
100
AcDbBlockEnd
  0
BLOCK
  5
9B
330
99
100
AcDbEntity
  8
0
100
AcDbBlockBegin
  2
SA_Links1
 70
     0
 10
-467.6131921996762
 20
-477.5000000002052
 30
0.0
  3
SA_Links1
  1

  0
INSERT
  5
9A
330
99
100
AcDbEntity
  8
0
100
AcDbBlockReference
  2
CES_STPG_GY_4-select__4
 10
-477.863191292154
 20
-492.2500005031834
 30
0.0
  0
MTEXT
  5
292
330
99
100
AcDbEntity
  8
1
 62
     6
100
AcDbMText
 10
-467.613191292154
 20
-507.3375531488496
 30
0.0
 40
2.5
 41
0.0
 71
     2
 72
     1
  1
 
  7
CONVERTER_11
 73
     1
 44
1.32052821128451
  0
ENDBLK
  5
9C
330
99
100
AcDbEntity
  8
0
100
AcDbBlockEnd
  0
BLOCK
  5
9E
330
9D
100
AcDbEntity
  8
0
100
AcDbBlockBegin
  2
CES_STPG_GY_4-select__5
 70
     0
 10
-556.0000009074672
 20
-492.2500005030191
 30
0.0
  3
CES_STPG_GY_4-select__5
  1

  0
LINE
  5
293
330
9D
100
AcDbEntity
  8
0
  6
Continuous
 62
     7
100
AcDbLine
 10
-544.2465088305182
 20
-468.7500005030189
 30
0.0
 11
-544.246508830518
 21
-466.7534925799681
 31
0.0
  0
LINE
  5
294
330
9D
100
AcDbEntity
  8
0
  6
Continuous
 62
     7
100
AcDbLine
 10
-547.2534929844164
 20
-466.7534925799681
 30
0.0
 11
-547.2534929844167
 21
-468.7500005030189
 31
0.0
  0
LINE
  5
295
330
9D
100
AcDbEntity
  8
0
  6
Continuous
 62
     7
100
AcDbLine
 10
-547.1103178295004
 20
-468.7500005030198
 30
0.0
 11
-547.1103178295002
 21
-466.6103174250529
 31
0.0
  0
LINE
  5
296
330
9D
100
AcDbEntity
  8
0
  6
Continuous
 62
     7
100
AcDbLine
 10
-536.0000009074672
 20
-468.750000503022
 30
0.0
 11
-535.5000009074672
 21
-468.7500005030194
 31
0.0
  0
LINE
  5
297
330
9D
100
AcDbEntity
  8
0
  6
Continuous
 62
     7
100
AcDbLine
 10
-536.0000009074672
 20
-489.250000503022
 30
0.0
 11
-536.0000009074672
 21
-468.750000503022
 31
0.0
  0
LINE
  5
298
330
9D
100
AcDbEntity
  8
0
  6
Continuous
 62
     7
100
AcDbLine
 10
-536.0000009074672
 20
-462.7500005030189
 30
0.0
 11
-536.0000009074672
 21
-468.750000503022
 31
0.0
  0
LINE
  5
299
330
9D
100
AcDbEntity
  8
0
  6
Continuous
 62
     7
100
AcDbLine
 10
-536.0000009074672
 20
-489.250000503022
 30
0.0
 11
-535.5000009074672
 21
-489.2500005030194
 31
0.0
  0
LINE
  5
29A
330
9D
100
AcDbEntity
  8
0
  6
Continuous
 62
     7
100
AcDbLine
 10
-535.5000009074672
 20
-489.2500005030194
 30
0.0
 11
-535.5000009074672
 21
-468.7500005030194
 31
0.0
  0
LINE
  5
29B
330
9D
100
AcDbEntity
  8
0
  6
Continuous
 62
     7
100
AcDbLine
 10
-555.5000009074672
 20
-468.750000503022
 30
0.0
 11
-555.5000009074672
 21
-462.7500005030189
 31
0.0
  0
LINE
  5
29C
330
9D
100
AcDbEntity
  8
0
  6
Continuous
 62
     7
100
AcDbLine
 10
-553.196153330174
 20
-492.2500005030191
 30
0.0
 11
-549.8038484847607
 21
-492.2500005030191
 31
0.0
  0
LINE
  5
29D
330
9D
100
AcDbEntity
  8
0
  6
Continuous
 62
     7
100
AcDbLine
 10
-556.0000009074672
 20
-489.2500005030214
 30
0.0
 11
-555.5000009074672
 21
-489.250000503022
 31
0.0
  0
LINE
  5
29E
330
9D
100
AcDbEntity
  8
0
  6
Continuous
 62
     7
100
AcDbLine
 10
-554.0000009074672
 20
-489.2500005030191
 30
0.0
 11
-555.5000009074672
 21
-489.250000503022
 31
0.0
  0
LINE
  5
29F
330
9D
100
AcDbEntity
  8
0
  6
Continuous
 62
     7
100
AcDbLine
 10
-549.0000009074672
 20
-489.2500005030191
 30
0.0
 11
-554.0000009074672
 21
-489.2500005030191
 31
0.0
  0
LINE
  5
2A0
330
9D
100
AcDbEntity
  8
0
  6
Continuous
 62
     7
100
AcDbLine
 10
-536.0000009074672
 20
-489.250000503022
 30
0.0
 11
-549.0000009074672
 21
-489.2500005030191
 31
0.0
  0
LINE
  5
2A1
330
9D
100
AcDbEntity
  8
0
  6
Continuous
 62
     7
100
AcDbLine
 10
-553.196153330174
 20
-492.2500005030191
 30
0.0
 11
-554.0000009074672
 21
-489.2500005030191
 31
0.0
  0
LINE
  5
2A2
330
9D
100
AcDbEntity
  8
0
  6
Continuous
 62
     7
100
AcDbLine
 10
-549.8038484847607
 20
-492.2500005030191
 30
0.0
 11
-549.0000009074672
 21
-489.2500005030191
 31
0.0
  0
LINE
  5
2A3
330
9D
100
AcDbEntity
  8
0
  6
Continuous
 62
     7
100
AcDbLine
 10
-555.5000009074672
 20
-462.7500005030189
 30
0.0
 11
-536.0000009074672
 21
-462.7500005030189
 31
0.0
  0
LINE
  5
2A4
330
9D
100
AcDbEntity
  8
0
  6
Continuous
 62
     7
100
AcDbLine
 10
-548.6103178295
 20
-464.3896835809869
 30
0.0
 11
-542.889683985434
 21
-464.3896835809869
 31
0.0
  0
LINE
  5
2A5
330
9D
100
AcDbEntity
  8
0
  6
Continuous
 62
     7
100
AcDbLine
 10
-542.746508830518
 20
-464.2465084260697
 30
0.0
 11
-548.7534929844162
 21
-464.2465084260697
 31
0.0
  0
LINE
  5
2A6
330
9D
100
AcDbEntity
  8
0
  6
Continuous
 62
     7
100
AcDbLine
 10
-548.7534929844162
 20
-464.2465084260697
 30
0.0
 11
-548.7534929844164
 21
-466.7534925799681
 31
0.0
  0
LINE
  5
2A7
330
9D
100
AcDbEntity
  8
0
  6
Continuous
 62
     7
100
AcDbLine
 10
-548.6103178295002
 20
-466.6103174250529
 30
0.0
 11
-548.6103178295
 21
-464.3896835809869
 31
0.0
  0
LINE
  5
2A8
330
9D
100
AcDbEntity
  8
0
  6
Continuous
 62
     7
100
AcDbLine
 10
-547.1103178295002
 20
-466.6103174250529
 30
0.0
 11
-548.6103178295002
 21
-466.6103174250529
 31
0.0
  0
LINE
  5
2A9
330
9D
100
AcDbEntity
  8
0
  6
Continuous
 62
     7
100
AcDbLine
 10
-544.3896839854342
 20
-466.6103174250529
 30
0.0
 11
-544.246508830518
 21
-466.7534925799681
 31
0.0
  0
LINE
  5
2AA
330
9D
100
AcDbEntity
  8
0
  6
Continuous
 62
     7
100
AcDbLine
 10
-548.7534929844164
 20
-466.7534925799681
 30
0.0
 11
-547.2534929844164
 21
-466.7534925799681
 31
0.0
  0
LINE
  5
2AB
330
9D
100
AcDbEntity
  8
0
  6
Continuous
 62
     7
100
AcDbLine
 10
-547.1103178295002
 20
-466.6103174250529
 30
0.0
 11
-547.2534929844164
 21
-466.7534925799681
 31
0.0
  0
LINE
  5
2AC
330
9D
100
AcDbEntity
  8
0
  6
Continuous
 62
     7
100
AcDbLine
 10
-548.7534929844164
 20
-466.7534925799681
 30
0.0
 11
-548.6103178295002
 21
-466.6103174250529
 31
0.0
  0
LINE
  5
2AD
330
9D
100
AcDbEntity
  8
0
  6
Continuous
 62
     7
100
AcDbLine
 10
-548.7534929844162
 20
-464.2465084260697
 30
0.0
 11
-548.6103178295
 21
-464.3896835809869
 31
0.0
  0
LINE
  5
2AE
330
9D
100
AcDbEntity
  8
0
  6
Continuous
 62
     7
100
AcDbLine
 10
-542.746508830518
 20
-466.7534925799681
 30
0.0
 11
-542.8896839854342
 21
-466.6103174250529
 31
0.0
  0
LINE
  5
2AF
330
9D
100
AcDbEntity
  8
0
  6
Continuous
 62
     7
100
AcDbLine
 10
-542.889683985434
 20
-464.3896835809869
 30
0.0
 11
-542.8896839854342
 21
-466.6103174250529
 31
0.0
  0
LINE
  5
2B0
330
9D
100
AcDbEntity
  8
0
  6
Continuous
 62
     7
100
AcDbLine
 10
-542.8896839854342
 20
-466.6103174250529
 30
0.0
 11
-544.3896839854342
 21
-466.6103174250529
 31
0.0
  0
LINE
  5
2B1
330
9D
100
AcDbEntity
  8
0
  6
Continuous
 62
     7
100
AcDbLine
 10
-542.746508830518
 20
-466.7534925799681
 30
0.0
 11
-542.746508830518
 21
-464.2465084260697
 31
0.0
  0
LINE
  5
2B2
330
9D
100
AcDbEntity
  8
0
  6
Continuous
 62
     7
100
AcDbLine
 10
-544.246508830518
 20
-466.7534925799681
 30
0.0
 11
-542.746508830518
 21
-466.7534925799681
 31
0.0
  0
LINE
  5
2B3
330
9D
100
AcDbEntity
  8
0
  6
Continuous
 62
     7
100
AcDbLine
 10
-544.3896839854342
 20
-466.6103174250529
 30
0.0
 11
-544.3896839854344
 21
-468.7500005030198
 31
0.0
  0
LINE
  5
2B4
330
9D
100
AcDbEntity
  8
0
  6
Continuous
 62
     7
100
AcDbLine
 10
-542.746508830518
 20
-464.2465084260697
 30
0.0
 11
-542.889683985434
 21
-464.3896835809869
 31
0.0
  0
LINE
  5
2B5
330
9D
100
AcDbEntity
  8
0
  6
Continuous
 62
     7
100
AcDbLine
 10
-555.5000009074672
 20
-468.750000503022
 30
0.0
 11
-555.5000009074672
 21
-489.250000503022
 31
0.0
  0
LINE
  5
2B6
330
9D
100
AcDbEntity
  8
0
  6
Continuous
 62
     7
100
AcDbLine
 10
-556.0000009074672
 20
-468.7500005030213
 30
0.0
 11
-556.0000009074672
 21
-489.2500005030214
 31
0.0
  0
LINE
  5
2B7
330
9D
100
AcDbEntity
  8
0
  6
Continuous
 62
     7
100
AcDbLine
 10
-547.2534929844167
 20
-468.7500005030189
 30
0.0
 11
-547.1103178295004
 21
-468.7500005030198
 31
0.0
  0
LINE
  5
2B8
330
9D
100
AcDbEntity
  8
0
  6
Continuous
 62
     7
100
AcDbLine
 10
-547.1103178295004
 20
-468.7500005030198
 30
0.0
 11
-544.3896839854344
 21
-468.7500005030198
 31
0.0
  0
LINE
  5
2B9
330
9D
100
AcDbEntity
  8
0
  6
Continuous
 62
     7
100
AcDbLine
 10
-544.3896839854344
 20
-468.7500005030198
 30
0.0
 11
-544.2465088305182
 21
-468.7500005030189
 31
0.0
  0
LINE
  5
2BA
330
9D
100
AcDbEntity
  8
0
  6
Continuous
 62
     7
100
AcDbLine
 10
-544.2465088305182
 20
-468.7500005030189
 30
0.0
 11
-536.0000009074672
 21
-468.750000503022
 31
0.0
  0
LINE
  5
2BB
330
9D
100
AcDbEntity
  8
0
  6
Continuous
 62
     7
100
AcDbLine
 10
-555.5000009074672
 20
-468.750000503022
 30
0.0
 11
-547.2534929844167
 21
-468.7500005030189
 31
0.0
  0
LINE
  5
2BC
330
9D
100
AcDbEntity
  8
0
  6
Continuous
 62
     7
100
AcDbLine
 10
-556.0000009074672
 20
-468.7500005030213
 30
0.0
 11
-555.5000009074672
 21
-468.750000503022
 31
0.0
  0
LINE
  5
2BD
330
9D
100
AcDbEntity
  8
1
  6
DOT_CENTER
 62
     2
100
AcDbLine
 10
-549.4100009074671
 20
-466.2500005030184
 30
0.0
 11
-553.5900009074674
 21
-466.2500005030184
 31
0.0
  0
LINE
  5
2BE
330
9D
100
AcDbEntity
  8
1
  6
DOT_CENTER
 62
     2
100
AcDbLine
 10
-551.5000009074672
 20
-464.1600005030183
 30
0.0
 11
-551.5000009074672
 21
-468.3400005030186
 31
0.0
  0
LINE
  5
2BF
330
9D
100
AcDbEntity
  8
1
  6
DOT_CENTER
 62
     2
100
AcDbLine
 10
-543.5500009074669
 20
-479.000000503022
 30
0.0
 11
-547.9500009074675
 21
-479.000000503022
 31
0.0
  0
LINE
  5
2C0
330
9D
100
AcDbEntity
  8
1
  6
DOT_CENTER
 62
     2
100
AcDbLine
 10
-545.7500009074672
 20
-476.8000005030217
 30
0.0
 11
-545.7500009074672
 21
-481.2000005030222
 31
0.0
  0
LINE
  5
2C1
330
9D
100
AcDbEntity
  8
1
  6
DOT_CENTER
 62
     2
100
AcDbLine
 10
-537.9100009074673
 20
-466.2500005030194
 30
0.0
 11
-542.0900009074671
 21
-466.2500005030194
 31
0.0
  0
LINE
  5
2C2
330
9D
100
AcDbEntity
  8
1
  6
DOT_CENTER
 62
     2
100
AcDbLine
 10
-540.0000009074672
 20
-464.1600005030196
 30
0.0
 11
-540.0000009074672
 21
-468.3400005030192
 31
0.0
  0
LINE
  5
2C3
330
9D
100
AcDbEntity
  8
1
  6
DOT_CENTER
 62
     2
100
AcDbLine
 10
-551.5000009074674
 20
-492.2500005030192
 30
0.0
 11
-551.5000009074674
 21
-489.250000503019
 31
0.0
  0
CIRCLE
  5
2C4
330
9D
100
AcDbEntity
  8
0
  6
Continuous
 62
     7
100
AcDbCircle
 10
-551.5000009074672
 20
-466.2500005030184
 30
0.0
 40
1.900000000000091
  0
CIRCLE
  5
2C5
330
9D
100
AcDbEntity
  8
0
  6
Continuous
 62
     7
100
AcDbCircle
 10
-540.0000009074672
 20
-466.2500005030194
 30
0.0
 40
1.899999999999864
  0
CIRCLE
  5
2C6
330
9D
100
AcDbEntity
  8
0
  6
Continuous
 62
     7
100
AcDbCircle
 10
-545.7500009074672
 20
-479.000000503022
 30
0.0
 40
1.99999999999995
  0
ENDBLK
  5
9F
330
9D
100
AcDbEntity
  8
0
100
AcDbBlockEnd
  0
BLOCK
  5
A2
330
A0
100
AcDbEntity
  8
0
100
AcDbBlockBegin
  2
SA_Rechts1
 70
     0
 10
-545.749999999945
 20
-477.5000000000409
 30
0.0
  3
SA_Rechts1
  1

  0
INSERT
  5
A1
330
A0
100
AcDbEntity
  8
0
100
AcDbBlockReference
  2
CES_STPG_GY_4-select__5
 10
-556.0000009074672
 20
-492.2500005030191
 30
0.0
  0
MTEXT
  5
2C7
330
A0
100
AcDbEntity
  8
1
 62
     6
100
AcDbMText
 10
-545.7500009074672
 20
-494.7500005030192
 30
0.0
 40
2.5
 41
0.0
 71
     2
 72
     1
  1
 
  7
CONVERTER_11
 73
     1
 44
1.32052821128451
  0
ENDBLK
  5
A3
330
A0
100
AcDbEntity
  8
0
100
AcDbBlockEnd
  0
BLOCK
  5
A5
330
A4
100
AcDbEntity
  8
0
100
AcDbBlockBegin
  2
CES_STPG_GY_4-select__6
 70
     0
 10
-510.8749999999216
 20
-492.2500005030195
 30
0.0
  3
CES_STPG_GY_4-select__6
  1

  0
LINE
  5
2C8
330
A4
100
AcDbEntity
  8
0
  6
Continuous
 62
     7
100
AcDbLine
 10
-493.8749999999217
 20
-489.250000503022
 30
0.0
 11
-496.0249999999215
 21
-489.2500005030215
 31
0.0
  0
LINE
  5
2C9
330
A4
100
AcDbEntity
  8
0
  6
Continuous
 62
     7
100
AcDbLine
 10
-507.571152422629
 20
-492.2500005030187
 30
0.0
 11
-504.1788475772157
 21
-492.2500005030195
 31
0.0
  0
LINE
  5
2CA
330
A4
100
AcDbEntity
  8
0
  6
Continuous
 62
     7
100
AcDbLine
 10
-504.1788475772157
 20
-492.2500005030195
 30
0.0
 11
-503.3749999999216
 21
-489.2500005030197
 31
0.0
  0
LINE
  5
2CB
330
A4
100
AcDbEntity
  8
0
  6
Continuous
 62
     7
100
AcDbLine
 10
-496.5249999999166
 20
-468.7500005030213
 30
0.0
 11
-496.0249999999166
 21
-468.7500005030214
 31
0.0
  0
LINE
  5
2CC
330
A4
100
AcDbEntity
  8
0
  6
Continuous
 62
     7
100
AcDbLine
 10
-502.7749999999166
 20
-468.7500005030198
 30
0.0
 11
-502.7749999999162
 21
-466.6103174250529
 31
0.0
  0
LINE
  5
2CD
330
A4
100
AcDbEntity
  8
0
  6
Continuous
 62
     7
100
AcDbLine
 10
-502.7749999999162
 20
-466.6103174250529
 30
0.0
 11
-502.7749999999155
 21
-464.3896835809869
 31
0.0
  0
LINE
  5
2CE
330
A4
100
AcDbEntity
  8
0
  6
Continuous
 62
     7
100
AcDbLine
 10
-496.5249999999215
 20
-489.2500005030214
 30
0.0
 11
-496.0249999999215
 21
-489.2500005030215
 31
0.0
  0
LINE
  5
2CF
330
A4
100
AcDbEntity
  8
0
  6
Continuous
 62
     7
100
AcDbLine
 10
-496.0249999999166
 20
-468.7500005030214
 30
0.0
 11
-496.0249999999215
 21
-489.2500005030215
 31
0.0
  0
LINE
  5
2D0
330
A4
100
AcDbEntity
  8
0
  6
Continuous
 62
     7
100
AcDbLine
 10
-497.0249999999215
 20
-489.2500005030213
 30
0.0
 11
-497.0249999999166
 21
-468.7500005030212
 31
0.0
  0
LINE
  5
2D1
330
A4
100
AcDbEntity
  8
0
  6
Continuous
 62
     7
100
AcDbLine
 10
-506.8749999999156
 20
-464.2465084260697
 30
0.0
 11
-506.8749999999152
 21
-462.7500005030189
 31
0.0
  0
LINE
  5
2D2
330
A4
100
AcDbEntity
  8
0
  6
Continuous
 62
     7
100
AcDbLine
 10
-506.8749999999166
 20
-468.7500005030188
 30
0.0
 11
-506.8749999999161
 21
-466.7534925799681
 31
0.0
  0
LINE
  5
2D3
330
A4
100
AcDbEntity
  8
0
  6
Continuous
 62
     7
100
AcDbLine
 10
-506.8749999999161
 20
-466.7534925799681
 30
0.0
 11
-506.8749999999156
 21
-464.2465084260697
 31
0.0
  0
LINE
  5
2D4
330
A4
100
AcDbEntity
  8
0
  6
Continuous
 62
     7
100
AcDbLine
 10
-510.8749999999152
 20
-462.7500005030179
 30
0.0
 11
-506.8749999999152
 21
-462.7500005030189
 31
0.0
  0
LINE
  5
2D5
330
A4
100
AcDbEntity
  8
0
  6
Continuous
 62
     7
100
AcDbLine
 10
-510.8749999999216
 20
-489.250000503018
 30
0.0
 11
-510.8749999999152
 21
-462.7500005030179
 31
0.0
  0
LINE
  5
2D6
330
A4
100
AcDbEntity
  8
0
  6
Continuous
 62
     7
100
AcDbLine
 10
-496.5249999999166
 20
-468.7500005030213
 30
0.0
 11
-496.5249999999215
 21
-489.2500005030214
 31
0.0
  0
LINE
  5
2D7
330
A4
100
AcDbEntity
  8
0
  6
Continuous
 62
     7
100
AcDbLine
 10
-503.3749999999216
 20
-489.2500005030197
 30
0.0
 11
-508.3749999999216
 21
-489.2500005030186
 31
0.0
  0
LINE
  5
2D8
330
A4
100
AcDbEntity
  8
0
  6
Continuous
 62
     7
100
AcDbLine
 10
-508.3749999999216
 20
-489.2500005030186
 30
0.0
 11
-510.8749999999216
 21
-489.250000503018
 31
0.0
  0
LINE
  5
2D9
330
A4
100
AcDbEntity
  8
0
  6
Continuous
 62
     7
100
AcDbLine
 10
-497.0249999999215
 20
-489.2500005030213
 30
0.0
 11
-496.5249999999215
 21
-489.2500005030214
 31
0.0
  0
LINE
  5
2DA
330
A4
100
AcDbEntity
  8
0
  6
Continuous
 62
     7
100
AcDbLine
 10
-497.0249999999215
 20
-489.2500005030213
 30
0.0
 11
-503.3749999999216
 21
-489.2500005030197
 31
0.0
  0
LINE
  5
2DB
330
A4
100
AcDbEntity
  8
0
  6
Continuous
 62
     7
100
AcDbLine
 10
-493.8749999999168
 20
-468.750000503022
 30
0.0
 11
-496.0249999999166
 21
-468.7500005030214
 31
0.0
  0
LINE
  5
2DC
330
A4
100
AcDbEntity
  8
0
  6
Continuous
 62
     7
100
AcDbLine
 10
-493.8749999999168
 20
-468.750000503022
 30
0.0
 11
-493.8749999999217
 21
-489.250000503022
 31
0.0
  0
LINE
  5
2DD
330
A4
100
AcDbEntity
  8
0
  6
Continuous
 62
     7
100
AcDbLine
 10
-502.7749999999166
 20
-468.7500005030198
 30
0.0
 11
-506.8749999999166
 21
-468.7500005030188
 31
0.0
  0
LINE
  5
2DE
330
A4
100
AcDbEntity
  8
0
  6
Continuous
 62
     7
100
AcDbLine
 10
-497.0249999999166
 20
-468.7500005030212
 30
0.0
 11
-496.5249999999166
 21
-468.7500005030213
 31
0.0
  0
LINE
  5
2DF
330
A4
100
AcDbEntity
  8
0
  6
Continuous
 62
     7
100
AcDbLine
 10
-497.0249999999166
 20
-468.7500005030212
 30
0.0
 11
-502.7749999999166
 21
-468.7500005030198
 31
0.0
  0
LINE
  5
2E0
330
A4
100
AcDbEntity
  8
0
  6
Continuous
 62
     7
100
AcDbLine
 10
-506.8749999999161
 20
-466.7534925799681
 30
0.0
 11
-502.7749999999162
 21
-466.6103174250529
 31
0.0
  0
LINE
  5
2E1
330
A4
100
AcDbEntity
  8
0
  6
Continuous
 62
     7
100
AcDbLine
 10
-506.8749999999156
 20
-464.2465084260697
 30
0.0
 11
-502.7749999999155
 21
-464.3896835809869
 31
0.0
  0
LINE
  5
2E2
330
A4
100
AcDbEntity
  8
0
  6
Continuous
 62
     7
100
AcDbLine
 10
-507.571152422629
 20
-492.2500005030187
 30
0.0
 11
-508.3749999999216
 21
-489.2500005030186
 31
0.0
  0
LINE
  5
2E3
330
A4
100
AcDbEntity
  8
1
  6
DOT_CENTER
 62
     2
100
AcDbLine
 10
-505.8749999999225
 20
-492.2500005030191
 30
0.0
 11
-505.8749999999216
 21
-489.250000503019
 31
0.0
  0
ENDBLK
  5
A6
330
A4
100
AcDbEntity
  8
0
100
AcDbBlockEnd
  0
BLOCK
  5
A9
330
A7
100
AcDbEntity
  8
0
100
AcDbBlockBegin
  2
Vordans1
 70
     0
 10
-502.3749999999491
 20
-477.5000000000409
 30
0.0
  3
Vordans1
  1

  0
INSERT
  5
A8
330
A7
100
AcDbEntity
  8
0
100
AcDbBlockReference
  2
CES_STPG_GY_4-select__6
 10
-510.8749999999216
 20
-492.2500005030195
 30
0.0
  0
MTEXT
  5
2E4
330
A7
100
AcDbEntity
  8
1
 62
     6
100
AcDbMText
 10
-496.0966242678462
 20
-507.33755314885
 30
0.0
 40
2.5
 41
0.0
 71
     2
 72
     1
  1
 
  7
CONVERTER_11
 73
     1
 44
1.32052821128451
  0
DIMENSION
  5
2EF
330
A7
100
AcDbEntity
  8
1
100
AcDbDimension
  2
*D18
 10
-516.8182485357707
 20
-492.250000503019
 30
0.0
 11
-518.7807485357707
 21
-477.6661949386397
 31
0.0
 70
    32
  1
<>
 71
     5
 42
-1.0
 53
90.0
  3
ME10_DIM_11
100
AcDbAlignedDimension
 13
-506.8749999999152
 23
-462.7500005030189
 33
0.0
 14
-504.1788475772157
 24
-492.2500005030195
 34
0.0
 50
90.0
100
AcDbRotatedDimension
  0
DIMENSION
  5
2FA
330
A7
100
AcDbEntity
  8
1
100
AcDbDimension
  2
*D19
 10
-493.8749999999216
 20
-498.83755314885
 30
0.0
 11
-502.4875753801505
 21
-496.96255314885
 31
0.0
 70
    32
  1
<>
 71
     5
 42
-1.0
 53
0.00013888888889
  3
ME10_DIM_12
100
AcDbAlignedDimension
 13
-510.8749999999216
 23
-489.250000503018
 33
0.0
 14
-493.8749999999217
 24
-489.250000503022
 34
0.0
100
AcDbRotatedDimension
  0
ENDBLK
  5
AA
330
A7
100
AcDbEntity
  8
0
100
AcDbBlockEnd
  0
BLOCK
  5
B3
330
AB
100
AcDbEntity
  8
0
100
AcDbBlockBegin
  2
1
 70
     0
 10
0.0
 20
0.0
 30
0.0
  3
1
  1

  0
INSERT
  5
AC
330
AB
100
AcDbEntity
  8
0
100
AcDbBlockReference
  2
A3I_CS
 10
-784.7568927145096
 20
-1188.293627495169
 30
0.0
  0
INSERT
  5
AD
330
AB
100
AcDbEntity
  8
0
100
AcDbBlockReference
  2
AllgSicht1
 10
-828.99999999998
 20
-1107.000000000112
 30
0.0
 41
2.0
 42
2.0
 43
2.0
  0
INSERT
  5
AE
330
AB
100
AcDbEntity
  8
0
100
AcDbBlockReference
  2
Drfsicht1
 10
-1004.749999999886
 20
-1050.000001046532
 30
0.0
 41
2.0
 42
2.0
 43
2.0
  0
INSERT
  5
AF
330
AB
100
AcDbEntity
  8
0
100
AcDbBlockReference
  2
Rckans1
 10
-865.2500000000072
 20
-955.000000000082
 30
0.0
 41
2.0
 42
2.0
 43
2.0
  0
INSERT
  5
B0
330
AB
100
AcDbEntity
  8
0
100
AcDbBlockReference
  2
SA_Links1
 10
-935.2263843993524
 20
-955.0000000004104
 30
0.0
 41
2.0
 42
2.0
 43
2.0
  0
INSERT
  5
B1
330
AB
100
AcDbEntity
  8
0
100
AcDbBlockReference
  2
SA_Rechts1
 10
-1091.49999999989
 20
-955.0000000000819
 30
0.0
 41
2.0
 42
2.0
 43
2.0
  0
INSERT
  5
B2
330
AB
100
AcDbEntity
  8
0
100
AcDbBlockReference
  2
Vordans1
 10
-1004.749999999898
 20
-955.0000000000819
 30
0.0
 41
2.0
 42
2.0
 43
2.0
  0
ENDBLK
  5
B4
330
AB
100
AcDbEntity
  8
0
100
AcDbBlockEnd
  0
BLOCK
  5
255
330
24E
100
AcDbEntity
  8
0
100
AcDbBlockBegin
  2
*D17
 70
     1
 10
0.0
 20
0.0
 30
0.0
  3
*D17
  1

  0
LINE
  5
24F
330
24E
100
AcDbEntity
  8
1
  6
Continuous
 62
     2
100
AcDbLine
 10
-516.8182485357707
 20
-514.7500014307883
 30
0.0
 11
-516.8182485357707
 21
-535.2500014307883
 31
0.0
  0
LINE
  5
250
330
24E
100
AcDbEntity
  8
1
  6
Continuous
 62
     2
100
AcDbLine
 10
-504.8249999999105
 20
-514.7500014307883
 30
0.0
 11
-517.5682485357707
 21
-514.7500014307883
 31
0.0
  0
LINE
  5
251
330
24E
100
AcDbEntity
  8
1
  6
Continuous
 62
     2
100
AcDbLine
 10
-496.5249999999105
 20
-535.2500014307883
 30
0.0
 11
-517.5682485357707
 21
-535.2500014307883
 31
0.0
  0
SOLID
  5
252
330
24E
100
AcDbEntity
  8
1
 62
     2
100
AcDbTrace
 10
-516.5878566649928
 20
-516.5000014307883
 30
0.0
 11
-517.0486404065487
 21
-516.5000014307883
 31
0.0
 12
-516.8182485357707
 22
-514.7500014307883
 32
0.0
 13
-516.8182485357707
 23
-514.7500014307883
 33
0.0
  0
SOLID
  5
253
330
24E
100
AcDbEntity
  8
1
 62
     2
100
AcDbTrace
 10
-517.0486404065487
 20
-533.5000014307883
 30
0.0
 11
-516.5878566649928
 21
-533.5000014307883
 31
0.0
 12
-516.8182485357707
 22
-535.2500014307883
 32
0.0
 13
-516.8182485357707
 23
-535.2500014307883
 33
0.0
  0
MTEXT
  5
254
330
24E
100
AcDbEntity
  8
1
 62
     3
100
AcDbMText
 10
-517.7432485357707
 20
-527.52593064348
 30
0.0
 40
1.75
 41
0.0
 71
     7
 72
     1
  1
20,5
  7
CONVERTER_11
 11
0.0
 21
1.0
 31
0.0
 73
     1
 44
0.60024009603842
  0
ENDBLK
  5
256
330
24E
100
AcDbEntity
  8
0
100
AcDbBlockEnd
  0
BLOCK
  5
2EC
330
2E5
100
AcDbEntity
  8
0
100
AcDbBlockBegin
  2
*D18
 70
     1
 10
0.0
 20
0.0
 30
0.0
  3
*D18
  1

  0
LINE
  5
2E6
330
2E5
100
AcDbEntity
  8
1
  6
Continuous
 62
     2
100
AcDbLine
 10
-516.8182485357707
 20
-492.250000503019
 30
0.0
 11
-516.8182485357707
 21
-462.7500005030189
 31
0.0
  0
LINE
  5
2E7
330
2E5
100
AcDbEntity
  8
1
  6
Continuous
 62
     2
100
AcDbLine
 10
-504.1788475772157
 20
-492.250000503019
 30
0.0
 11
-517.8182485357707
 21
-492.250000503019
 31
0.0
  0
LINE
  5
2E8
330
2E5
100
AcDbEntity
  8
1
  6
Continuous
 62
     2
100
AcDbLine
 10
-506.8749999999156
 20
-462.7500005030189
 30
0.0
 11
-517.8182485357707
 21
-462.7500005030189
 31
0.0
  0
SOLID
  5
2E9
330
2E5
100
AcDbEntity
  8
1
 62
     2
100
AcDbTrace
 10
-517.0486404065487
 20
-490.500000503019
 30
0.0
 11
-516.5878566649928
 21
-490.500000503019
 31
0.0
 12
-516.8182485357707
 22
-492.250000503019
 32
0.0
 13
-516.8182485357707
 23
-492.250000503019
 33
0.0
  0
SOLID
  5
2EA
330
2E5
100
AcDbEntity
  8
1
 62
     2
100
AcDbTrace
 10
-516.5878566649928
 20
-464.5000005030189
 30
0.0
 11
-517.0486404065487
 21
-464.5000005030189
 31
0.0
 12
-516.8182485357707
 22
-462.7500005030189
 32
0.0
 13
-516.8182485357707
 23
-462.7500005030189
 33
0.0
  0
MTEXT
  5
2EB
330
2E5
100
AcDbEntity
  8
1
 62
     3
100
AcDbMText
 10
-517.9932485357707
 20
-480.0724449386397
 30
0.0
 40
1.75
 41
0.0
 71
     7
 72
     1
  1
29,5
  7
CONVERTER_11
 11
0.0
 21
1.0
 31
0.0
 73
     1
 44
0.60024009603842
  0
ENDBLK
  5
2ED
330
2E5
100
AcDbEntity
  8
0
100
AcDbBlockEnd
  0
BLOCK
  5
2F7
330
2F0
100
AcDbEntity
  8
0
100
AcDbBlockBegin
  2
*D19
 70
     1
 10
0.0
 20
0.0
 30
0.0
  3
*D19
  1

  0
LINE
  5
2F1
330
2F0
100
AcDbEntity
  8
1
  6
Continuous
 62
     2
100
AcDbLine
 10
-493.8749999999216
 20
-498.83755314885
 30
0.0
 11
-510.8749999999213
 21
-498.83755314885
 31
0.0
  0
LINE
  5
2F2
330
2F0
100
AcDbEntity
  8
1
  6
Continuous
 62
     2
100
AcDbLine
 10
-493.8749999999216
 20
-489.250000503022
 30
0.0
 11
-493.8749999999216
 21
-499.83755314885
 31
0.0
  0
LINE
  5
2F3
330
2F0
100
AcDbEntity
  8
1
  6
Continuous
 62
     2
100
AcDbLine
 10
-510.8749999999213
 20
-489.250000503018
 30
0.0
 11
-510.8749999999213
 21
-499.83755314885
 31
0.0
  0
SOLID
  5
2F4
330
2F0
100
AcDbEntity
  8
1
 62
     2
100
AcDbTrace
 10
-495.6249999999216
 20
-499.067945019628
 30
0.0
 11
-495.6249999999216
 21
-498.6071612780721
 31
0.0
 12
-493.8749999999216
 22
-498.83755314885
 32
0.0
 13
-493.8749999999216
 23
-498.83755314885
 33
0.0
  0
SOLID
  5
2F5
330
2F0
100
AcDbEntity
  8
1
 62
     2
100
AcDbTrace
 10
-509.1249999999213
 20
-498.6071612780721
 30
0.0
 11
-509.1249999999213
 21
-499.067945019628
 31
0.0
 12
-510.8749999999213
 22
-498.83755314885
 32
0.0
 13
-510.8749999999213
 23
-498.83755314885
 33
0.0
  0
MTEXT
  5
2F6
330
2F0
100
AcDbEntity
  8
1
 62
     3
100
AcDbMText
 10
-503.5375753801505
 20
-497.83755314885
 30
0.0
 40
1.75
 41
0.0
 71
     7
 72
     1
  1
17
  7
CONVERTER_11
 11
0.9999999999970619
 21
2.424068405545306E-6
 31
0.0
 73
     1
 44
0.60024009603842
  0
ENDBLK
  5
2F8
330
2F0
100
AcDbEntity
  8
0
100
AcDbBlockEnd
  0
ENDSEC
  0
SECTION
  2
ENTITIES
  0
INSERT
  5
B5
330
1F
100
AcDbEntity
  8
1
100
AcDbBlockReference
  2
1
 10
0.0
 20
0.0
 30
0.0
  0
ENDSEC
  0
SECTION
  2
OBJECTS
  0
DICTIONARY
  5
C
330
0
100
AcDbDictionary
281
     1
  3
ACAD_DETAILVIEWSTYLE
350
340
  3
ACAD_GROUP
350
D
  3
ACAD_LAYOUT
350
1A
  3
ACAD_MATERIAL
350
43
  3
ACAD_MLEADERSTYLE
350
6B
  3
ACAD_MLINESTYLE
350
17
  3
ACAD_PLOTSETTINGS
350
19
  3
ACAD_PLOTSTYLENAME
350
E
  3
ACAD_SCALELIST
350
47
  3
ACAD_SECTIONVIEWSTYLE
350
341
  3
ACAD_TABLESTYLE
350
69
  3
ACAD_VISUALSTYLE
350
2A
  3
ACDB_RECOMPOSE_DATA
350
33D
  3
AcDbVariableDictionary
350
2FD
  0
DICTIONARY
  5
2FB
330
8
100
AcDbDictionary
280
     1
281
     1
  3
ACAD_XREC_ROUNDTRIP
360
2FC
  0
DICTIONARY
  5
340
102
{ACAD_REACTORS
330
C
102
}
330
C
100
AcDbDictionary
281
     1
  0
DICTIONARY
  5
D
102
{ACAD_REACTORS
330
C
102
}
330
C
100
AcDbDictionary
281
     1
  0
DICTIONARY
  5
1A
102
{ACAD_REACTORS
330
C
102
}
330
C
100
AcDbDictionary
281
     1
  3
Layout1
350
1E
  3
Layout2
350
26
  3
Model
350
22
  0
DICTIONARY
  5
43
102
{ACAD_REACTORS
330
C
102
}
330
C
100
AcDbDictionary
281
     1
  3
ByBlock
350
45
  3
ByLayer
350
44
  3
Global
350
46
  0
DICTIONARY
  5
6B
102
{ACAD_REACTORS
330
C
102
}
330
C
100
AcDbDictionary
281
     1
  3
Standard
350
6C
  0
DICTIONARY
  5
17
102
{ACAD_REACTORS
330
C
102
}
330
C
100
AcDbDictionary
281
     1
  3
Standard
350
18
  0
DICTIONARY
  5
19
102
{ACAD_REACTORS
330
C
102
}
330
C
100
AcDbDictionary
281
     1
  0
ACDBDICTIONARYWDFLT
  5
E
102
{ACAD_REACTORS
330
C
102
}
330
C
100
AcDbDictionary
281
     1
  3
Normal
350
F
100
AcDbDictionaryWithDefault
340
F
  0
DICTIONARY
  5
47
102
{ACAD_REACTORS
330
C
102
}
330
C
100
AcDbDictionary
281
     1
  3
A0
350
48
  3
A1
350
49
  3
A2
350
4A
  3
A3
350
4B
  3
A4
350
4C
  3
A5
350
4D
  3
A6
350
4E
  3
A7
350
4F
  3
A8
350
50
  3
A9
350
51
  3
B0
350
52
  3
B1
350
53
  3
B2
350
54
  3
B3
350
55
  3
B4
350
56
  3
B5
350
57
  3
B6
350
58
  3
B7
350
59
  3
B8
350
5A
  3
B9
350
5B
  3
C0
350
5C
  3
C1
350
5D
  3
C2
350
5E
  3
C3
350
5F
  3
C4
350
60
  3
C5
350
61
  3
C6
350
62
  3
C7
350
63
  3
C8
350
64
  3
C9
350
65
  3
D0
350
66
  3
D1
350
67
  3
D2
350
68
  0
DICTIONARY
  5
341
102
{ACAD_REACTORS
330
C
102
}
330
C
100
AcDbDictionary
281
     1
  0
DICTIONARY
  5
69
102
{ACAD_REACTORS
330
C
102
}
330
C
100
AcDbDictionary
281
     1
  3
Standard
350
6A
  0
DICTIONARY
  5
2A
102
{ACAD_REACTORS
330
C
102
}
330
C
100
AcDbDictionary
281
     1
  3
2dWireframe
350
2F
  3
Basic
350
32
  3
Brighten
350
36
  3
ColorChange
350
3A
  3
Conceptual
350
34
  3
Dim
350
35
  3
EdgeColorOff
350
3D
  3
Facepattern
350
39
  3
Flat
350
2B
  3
FlatWithEdges
350
2C
  3
Gouraud
350
2D
  3
GouraudWithEdges
350
2E
  3
Hidden
350
31
  3
JitterOff
350
3B
  3
Linepattern
350
38
  3
OverhangOff
350
3C
  3
Realistic
350
33
  3
Shaded
350
42
  3
Shaded with edges
350
41
  3
Shades of Gray
350
3E
  3
Sketchy
350
3F
  3
Thicken
350
37
  3
Wireframe
350
30
  3
X-Ray
350
40
  0
XRECORD
  5
33D
102
{ACAD_REACTORS
330
C
102
}
330
C
100
AcDbXrecord
280
     1
 90
        1
330
6A
  0
DICTIONARY
  5
2FD
102
{ACAD_REACTORS
330
C
102
}
330
C
100
AcDbDictionary
281
     1
  3
CANNOSCALE
350
2FE
  3
CMLEADERSTYLE
350
33F
  3
CTABLESTYLE
350
33E
  3
MSLTSCALE
350
2FF
  3
XCLIPFRAME
350
300
  0
XRECORD
  5
2FC
102
{ACAD_REACTORS
330
2FB
102
}
330
2FB
100
AcDbXrecord
280
     1
102
VTR_0.000_0.000_1.000_1.000_VISUALSTYLE
340
2F
102
VTR_0.000_0.000_1.000_1.000_GRIDDISPLAY
 70
     3
102
VTR_0.000_0.000_1.000_1.000_GRIDMAJOR
 70
     5
102
VTR_0.000_0.000_1.000_1.000_DEFAULTLIGHTING
280
     1
102
VTR_0.000_0.000_1.000_1.000_DEFAULTLIGHTINGTYPE
 70
     1
102
VTR_0.000_0.000_1.000_1.000_BRIGHTNESS
141
0.0
102
VTR_0.000_0.000_1.000_1.000_CONTRAST
142
0.0
  0
LAYOUT
  5
1E
102
{ACAD_REACTORS
330
1A
102
}
330
1A
100
AcDbPlotSettings
  1

  2
none_device
  4

  6

 40
0.0
 41
0.0
 42
0.0
 43
0.0
 44
0.0
 45
0.0
 46
0.0
 47
0.0
 48
0.0
 49
0.0
140
0.0
141
0.0
142
1.0
143
1.0
 70
   688
 72
     0
 73
     0
 74
     5
  7

 75
    16
 76
     0
 77
     2
 78
   300
147
1.0
148
0.0
149
0.0
100
AcDbLayout
  1
Layout1
 70
     1
 71
     1
 10
0.0
 20
0.0
 11
12.0
 21
9.0
 12
0.0
 22
0.0
 32
0.0
 14
1.00000000000000E+20
 24
1.00000000000000E+20
 34
1.00000000000000E+20
 15
-1.00000000000000E+20
 25
-1.00000000000000E+20
 35
-1.00000000000000E+20
146
0.0
 13
0.0
 23
0.0
 33
0.0
 16
1.0
 26
0.0
 36
0.0
 17
0.0
 27
1.0
 37
0.0
 76
     0
330
1B
  0
LAYOUT
  5
26
102
{ACAD_REACTORS
330
1A
102
}
330
1A
100
AcDbPlotSettings
  1

  2
none_device
  4

  6

 40
0.0
 41
0.0
 42
0.0
 43
0.0
 44
0.0
 45
0.0
 46
0.0
 47
0.0
 48
0.0
 49
0.0
140
0.0
141
0.0
142
1.0
143
1.0
 70
   688
 72
     0
 73
     0
 74
     5
  7

 75
    16
 76
     0
 77
     2
 78
   300
147
1.0
148
0.0
149
0.0
100
AcDbLayout
  1
Layout2
 70
     1
 71
     2
 10
0.0
 20
0.0
 11
0.0
 21
0.0
 12
0.0
 22
0.0
 32
0.0
 14
0.0
 24
0.0
 34
0.0
 15
0.0
 25
0.0
 35
0.0
146
0.0
 13
0.0
 23
0.0
 33
0.0
 16
1.0
 26
0.0
 36
0.0
 17
0.0
 27
1.0
 37
0.0
 76
     0
330
23
  0
LAYOUT
  5
22
102
{ACAD_REACTORS
330
1A
102
}
330
1A
100
AcDbPlotSettings
  1

  2
none_device
  4
Letter_(8.50_x_11.00_Inches)
  6

 40
6.35
 41
6.35
 42
6.35000508
 43
6.35000508
 44
215.9
 45
279.4
 46
0.0
 47
0.0
 48
0.0
 49
0.0
140
0.0
141
0.0
142
1.0
143
1.0
 70
  1712
 72
     0
 73
     0
 74
     0
  7

 75
     0
 76
     0
 77
     2
 78
   300
147
1.0
148
0.0
149
0.0
100
AcDbLayout
  1
Model
 70
     1
 71
     0
 10
0.0
 20
0.0
 11
12.0
 21
9.0
 12
0.0
 22
0.0
 32
0.0
 14
-1199.756892714511
 24
-1188.293627495169
 34
0.0
 15
-779.7568927145121
 25
-891.2936274951685
 35
0.0
146
0.0
 13
0.0
 23
0.0
 33
0.0
 16
1.0
 26
0.0
 36
0.0
 17
0.0
 27
1.0
 37
0.0
 76
     0
330
1F
331
29
  0
MATERIAL
  5
45
102
{ACAD_REACTORS
330
43
102
}
102
{ACAD_XDICTIONARY
360
333
102
}
330
43
100
AcDbMaterial
  1
ByBlock
  0
MATERIAL
  5
44
102
{ACAD_REACTORS
330
43
102
}
102
{ACAD_XDICTIONARY
360
331
102
}
330
43
100
AcDbMaterial
  1
ByLayer
  0
MATERIAL
  5
46
102
{ACAD_REACTORS
330
43
102
}
102
{ACAD_XDICTIONARY
360
335
102
}
330
43
100
AcDbMaterial
  1
Global
  0
MLEADERSTYLE
  5
6C
102
{ACAD_REACTORS
330
6B
102
}
102
{ACAD_XDICTIONARY
360
33B
102
}
330
6B
100
AcDbMLeaderStyle
170
     2
171
     1
172
     0
 90
        2
 40
0.0
 41
0.0
173
     1
 91
-1056964608
340
14
 92
       -2
290
     1
 42
0.09
291
     1
 43
0.36
  3
Standard
341
0
 44
0.18
300

342
11
174
     1
178
     6
175
     1
176
     0
 93
-1056964608
 45
0.18
292
     0
297
     0
 46
0.18
343
0
 94
-1056964608
 47
1.0
 49
1.0
140
1.0
293
     1
141
0.0
294
     1
177
     0
142
1.0
295
     0
296
     0
143
0.125
1001
ACAD_MLEADERVER
1070
     2
  0
MLINESTYLE
  5
18
102
{ACAD_REACTORS
330
17
102
}
330
17
100
AcDbMlineStyle
  2
Standard
 70
     0
  3

 62
   256
 51
90.0
 52
90.0
 71
     2
 49
0.5
 62
   256
  6
BYLAYER
 49
-0.5
 62
   256
  6
BYLAYER
  0
ACDBPLACEHOLDER
  5
F
102
{ACAD_REACTORS
330
E
102
}
330
E
  0
SCALE
  5
48
102
{ACAD_REACTORS
330
47
102
}
330
47
100
AcDbScale
 70
     0
300
1:1
140
1.0
141
1.0
290
     1
  0
SCALE
  5
49
102
{ACAD_REACTORS
330
47
102
}
330
47
100
AcDbScale
 70
     0
300
1:2
140
1.0
141
2.0
290
     0
  0
SCALE
  5
4A
102
{ACAD_REACTORS
330
47
102
}
330
47
100
AcDbScale
 70
     0
300
1:4
140
1.0
141
4.0
290
     0
  0
SCALE
  5
4B
102
{ACAD_REACTORS
330
47
102
}
330
47
100
AcDbScale
 70
     0
300
1:5
140
1.0
141
5.0
290
     0
  0
SCALE
  5
4C
102
{ACAD_REACTORS
330
47
102
}
330
47
100
AcDbScale
 70
     0
300
1:8
140
1.0
141
8.0
290
     0
  0
SCALE
  5
4D
102
{ACAD_REACTORS
330
47
102
}
330
47
100
AcDbScale
 70
     0
300
1:10
140
1.0
141
10.0
290
     0
  0
SCALE
  5
4E
102
{ACAD_REACTORS
330
47
102
}
330
47
100
AcDbScale
 70
     0
300
1:16
140
1.0
141
16.0
290
     0
  0
SCALE
  5
4F
102
{ACAD_REACTORS
330
47
102
}
330
47
100
AcDbScale
 70
     0
300
1:20
140
1.0
141
20.0
290
     0
  0
SCALE
  5
50
102
{ACAD_REACTORS
330
47
102
}
330
47
100
AcDbScale
 70
     0
300
1:30
140
1.0
141
30.0
290
     0
  0
SCALE
  5
51
102
{ACAD_REACTORS
330
47
102
}
330
47
100
AcDbScale
 70
     0
300
1:40
140
1.0
141
40.0
290
     0
  0
SCALE
  5
52
102
{ACAD_REACTORS
330
47
102
}
330
47
100
AcDbScale
 70
     0
300
1:50
140
1.0
141
50.0
290
     0
  0
SCALE
  5
53
102
{ACAD_REACTORS
330
47
102
}
330
47
100
AcDbScale
 70
     0
300
1:100
140
1.0
141
100.0
290
     0
  0
SCALE
  5
54
102
{ACAD_REACTORS
330
47
102
}
330
47
100
AcDbScale
 70
     0
300
2:1
140
2.0
141
1.0
290
     0
  0
SCALE
  5
55
102
{ACAD_REACTORS
330
47
102
}
330
47
100
AcDbScale
 70
     0
300
4:1
140
4.0
141
1.0
290
     0
  0
SCALE
  5
56
102
{ACAD_REACTORS
330
47
102
}
330
47
100
AcDbScale
 70
     0
300
8:1
140
8.0
141
1.0
290
     0
  0
SCALE
  5
57
102
{ACAD_REACTORS
330
47
102
}
330
47
100
AcDbScale
 70
     0
300
10:1
140
10.0
141
1.0
290
     0
  0
SCALE
  5
58
102
{ACAD_REACTORS
330
47
102
}
330
47
100
AcDbScale
 70
     0
300
100:1
140
100.0
141
1.0
290
     0
  0
SCALE
  5
59
102
{ACAD_REACTORS
330
47
102
}
330
47
100
AcDbScale
 70
     0
300
1/128" = 1'-0"
140
0.0078125
141
12.0
290
     0
  0
SCALE
  5
5A
102
{ACAD_REACTORS
330
47
102
}
330
47
100
AcDbScale
 70
     0
300
1/64" = 1'-0"
140
0.015625
141
12.0
290
     0
  0
SCALE
  5
5B
102
{ACAD_REACTORS
330
47
102
}
330
47
100
AcDbScale
 70
     0
300
1/32" = 1'-0"
140
0.03125
141
12.0
290
     0
  0
SCALE
  5
5C
102
{ACAD_REACTORS
330
47
102
}
330
47
100
AcDbScale
 70
     0
300
1/16" = 1'-0"
140
0.0625
141
12.0
290
     0
  0
SCALE
  5
5D
102
{ACAD_REACTORS
330
47
102
}
330
47
100
AcDbScale
 70
     0
300
3/32" = 1'-0"
140
0.09375
141
12.0
290
     0
  0
SCALE
  5
5E
102
{ACAD_REACTORS
330
47
102
}
330
47
100
AcDbScale
 70
     0
300
1/8" = 1'-0"
140
0.125
141
12.0
290
     0
  0
SCALE
  5
5F
102
{ACAD_REACTORS
330
47
102
}
330
47
100
AcDbScale
 70
     0
300
3/16" = 1'-0"
140
0.1875
141
12.0
290
     0
  0
SCALE
  5
60
102
{ACAD_REACTORS
330
47
102
}
330
47
100
AcDbScale
 70
     0
300
1/4" = 1'-0"
140
0.25
141
12.0
290
     0
  0
SCALE
  5
61
102
{ACAD_REACTORS
330
47
102
}
330
47
100
AcDbScale
 70
     0
300
3/8" = 1'-0"
140
0.375
141
12.0
290
     0
  0
SCALE
  5
62
102
{ACAD_REACTORS
330
47
102
}
330
47
100
AcDbScale
 70
     0
300
1/2" = 1'-0"
140
0.5
141
12.0
290
     0
  0
SCALE
  5
63
102
{ACAD_REACTORS
330
47
102
}
330
47
100
AcDbScale
 70
     0
300
3/4" = 1'-0"
140
0.75
141
12.0
290
     0
  0
SCALE
  5
64
102
{ACAD_REACTORS
330
47
102
}
330
47
100
AcDbScale
 70
     0
300
1" = 1'-0"
140
1.0
141
12.0
290
     0
  0
SCALE
  5
65
102
{ACAD_REACTORS
330
47
102
}
330
47
100
AcDbScale
 70
     0
300
1-1/2" = 1'-0"
140
1.5
141
12.0
290
     0
  0
SCALE
  5
66
102
{ACAD_REACTORS
330
47
102
}
330
47
100
AcDbScale
 70
     0
300
3" = 1'-0"
140
3.0
141
12.0
290
     0
  0
SCALE
  5
67
102
{ACAD_REACTORS
330
47
102
}
330
47
100
AcDbScale
 70
     0
300
6" = 1'-0"
140
6.0
141
12.0
290
     0
  0
SCALE
  5
68
102
{ACAD_REACTORS
330
47
102
}
330
47
100
AcDbScale
 70
     0
300
1'-0" = 1'-0"
140
12.0
141
12.0
290
     0
  0
TABLESTYLE
  5
6A
102
{ACAD_REACTORS
330
69
102
}
102
{ACAD_XDICTIONARY
360
337
102
}
330
69
100
AcDbTableStyle
  3
Standard
 70
     0
 71
     0
 40
0.06
 41
0.06
280
     0
281
     0
  7
Standard
140
0.18
170
     2
 62
     0
 63
   257
283
     0
274
    -2
284
     1
 64
     0
275
    -2
285
     1
 65
     0
276
    -2
286
     1
 66
     0
277
    -2
287
     1
 67
     0
278
    -2
288
     1
 68
     0
279
    -2
289
     1
 69
     0
  7
Standard
140
0.25
170
     5
 62
     0
 63
   257
283
     0
274
    -2
284
     1
 64
     0
275
    -2
285
     1
 65
     0
276
    -2
286
     1
 66
     0
277
    -2
287
     1
 67
     0
278
    -2
288
     1
 68
     0
279
    -2
289
     1
 69
     0
  7
Standard
140
0.18
170
     5
 62
     0
 63
   257
283
     0
274
    -2
284
     1
 64
     0
275
    -2
285
     1
 65
     0
276
    -2
286
     1
 66
     0
277
    -2
287
     1
 67
     0
278
    -2
288
     1
 68
     0
279
    -2
289
     1
 69
     0
  0
VISUALSTYLE
  5
2F
102
{ACAD_REACTORS
330
2A
102
}
102
{ACAD_XDICTIONARY
360
309
102
}
330
2A
100
AcDbVisualStyle
  2
2dWireframe
 70
     4
 71
     0
 72
     2
 73
     0
 90
        0
 40
0.6
 41
30.0
 62
     5
 63
     7
421
 16777215
 74
     1
 91
        4
 64
     7
 65
   257
 75
     1
175
     1
 42
1.0
 92
        0
 66
   257
 43
1.0
 76
     1
 77
     6
 78
     2
 67
     7
 79
     5
170
     0
171
     0
290
     0
174
     0
 93
        1
 44
0.0
173
     0
291
     0
 45
0.0
1001
ACAD
1000
AcDbSavedByObjectVersion
1070
     0
  0
VISUALSTYLE
  5
32
102
{ACAD_REACTORS
330
2A
102
}
102
{ACAD_XDICTIONARY
360
30F
102
}
330
2A
100
AcDbVisualStyle
  2
Basic
 70
     7
 71
     1
 72
     0
 73
     1
 90
        0
 40
0.6
 41
30.0
 62
     5
 63
     7
421
 16777215
 74
     0
 91
        4
 64
     7
 65
   257
 75
     1
175
     1
 42
1.0
 92
        8
 66
     7
 43
1.0
 76
     1
 77
     6
 78
     2
 67
     7
 79
     5
170
     0
171
     0
290
     0
174
     0
 93
        1
 44
0.0
173
     0
291
     1
 45
0.0
1001
ACAD
1000
AcDbSavedByObjectVersion
1070
     0
  0
VISUALSTYLE
  5
36
102
{ACAD_REACTORS
330
2A
102
}
102
{ACAD_XDICTIONARY
360
317
102
}
330
2A
100
AcDbVisualStyle
  2
Brighten
 70
    12
 71
     2
 72
     2
 73
     0
 90
        0
 40
0.6
 41
30.0
 62
     5
 63
     7
421
 16777215
 74
     1
 91
        4
 64
     7
 65
   257
 75
     1
175
     1
 42
1.0
 92
        8
 66
     7
 43
1.0
 76
     1
 77
     6
 78
     2
 67
     7
 79
     5
170
     0
171
     0
290
     0
174
     0
 93
        1
 44
50.0
173
     0
291
     1
 45
0.0
1001
ACAD
1000
AcDbSavedByObjectVersion
1070
     0
  0
VISUALSTYLE
  5
3A
102
{ACAD_REACTORS
330
2A
102
}
102
{ACAD_XDICTIONARY
360
31F
102
}
330
2A
100
AcDbVisualStyle
  2
ColorChange
 70
    16
 71
     2
 72
     2
 73
     3
 90
        0
 40
0.6
 41
30.0
 62
     5
 63
     8
421
  8421504
 74
     1
 91
        4
 64
     7
 65
   257
 75
     1
175
     1
 42
1.0
 92
        8
 66
     8
424
  8421504
 43
1.0
 76
     1
 77
     6
 78
     2
 67
     7
 79
     5
170
     0
171
     0
290
     0
174
     0
 93
        1
 44
0.0
173
     0
291
     1
 45
0.0
1001
ACAD
1000
AcDbSavedByObjectVersion
1070
     0
  0
VISUALSTYLE
  5
34
102
{ACAD_REACTORS
330
2A
102
}
102
{ACAD_XDICTIONARY
360
313
102
}
330
2A
100
AcDbVisualStyle
  2
Conceptual
 70
     9
 71
     3
 72
     2
 73
     0
 90
        0
 40
0.6
 41
30.0
 62
     5
 63
     7
421
 16777215
 74
     2
 91
        2
 64
     7
 65
   257
 75
     1
175
     1
 42
179.0
 92
        8
 66
     7
 43
1.0
 76
     1
 77
     6
 78
     2
 67
     7
 79
     3
170
     0
171
     0
290
     0
174
     0
 93
        1
 44
0.0
173
     0
291
     0
 45
0.0
1001
ACAD
1000
AcDbSavedByObjectVersion
1070
     0
  0
VISUALSTYLE
  5
35
102
{ACAD_REACTORS
330
2A
102
}
102
{ACAD_XDICTIONARY
360
315
102
}
330
2A
100
AcDbVisualStyle
  2
Dim
 70
    11
 71
     2
 72
     2
 73
     0
 90
        0
 40
0.6
 41
30.0
 62
     5
 63
     7
421
 16777215
 74
     1
 91
        4
 64
     7
 65
   257
 75
     1
175
     1
 42
1.0
 92
        8
 66
     7
 43
1.0
 76
     1
 77
     6
 78
     2
 67
     7
 79
     5
170
     0
171
     0
290
     0
174
     0
 93
        1
 44
-50.0
173
     0
291
     1
 45
0.0
1001
ACAD
1000
AcDbSavedByObjectVersion
1070
     0
  0
VISUALSTYLE
  5
3D
102
{ACAD_REACTORS
330
2A
102
}
102
{ACAD_XDICTIONARY
360
325
102
}
330
2A
100
AcDbVisualStyle
  2
EdgeColorOff
 70
    22
 71
     2
 72
     2
 73
     0
 90
        0
 40
0.6
 41
30.0
 62
     5
 63
     7
421
 16777215
 74
     1
 91
        4
 64
     7
 65
   257
 75
     1
175
     1
 42
1.0
 92
        8
 66
     7
 43
1.0
 76
     1
 77
     6
 78
     2
 67
     7
 79
     5
170
     0
171
     0
290
     0
174
     0
 93
        1
 44
0.0
173
     0
291
     1
 45
0.0
1001
ACAD
1000
AcDbSavedByObjectVersion
1070
     0
  0
VISUALSTYLE
  5
39
102
{ACAD_REACTORS
330
2A
102
}
102
{ACAD_XDICTIONARY
360
31D
102
}
330
2A
100
AcDbVisualStyle
  2
Facepattern
 70
    15
 71
     2
 72
     2
 73
     0
 90
        0
 40
0.6
 41
30.0
 62
     5
 63
     7
421
 16777215
 74
     1
 91
        4
 64
     7
 65
   257
 75
     1
175
     1
 42
1.0
 92
        8
 66
     7
 43
1.0
 76
     1
 77
     6
 78
     2
 67
     7
 79
     5
170
     0
171
     0
290
     0
174
     0
 93
        1
 44
0.0
173
     0
291
     1
 45
0.0
1001
ACAD
1000
AcDbSavedByObjectVersion
1070
     0
  0
VISUALSTYLE
  5
2B
102
{ACAD_REACTORS
330
2A
102
}
102
{ACAD_XDICTIONARY
360
301
102
}
330
2A
100
AcDbVisualStyle
  2
Flat
 70
     0
 71
     2
 72
     1
 73
     1
 90
        2
 40
0.6
 41
30.0
 62
     5
 63
     7
421
 16777215
 74
     0
 91
        0
 64
     7
 65
   257
 75
     1
175
     1
 42
1.0
 92
        8
 66
     7
 43
1.0
 76
     1
 77
     6
 78
     2
 67
     7
 79
     5
170
     0
171
     0
290
     0
174
     0
 93
       13
 44
0.0
173
     0
291
     1
 45
0.0
1001
ACAD
1000
AcDbSavedByObjectVersion
1070
     0
  0
VISUALSTYLE
  5
2C
102
{ACAD_REACTORS
330
2A
102
}
102
{ACAD_XDICTIONARY
360
303
102
}
330
2A
100
AcDbVisualStyle
  2
FlatWithEdges
 70
     1
 71
     2
 72
     1
 73
     1
 90
        2
 40
0.6
 41
30.0
 62
     5
 63
     7
421
 16777215
 74
     1
 91
        0
 64
     7
 65
   257
 75
     1
175
     1
 42
1.0
 92
        0
 66
   257
 43
1.0
 76
     1
 77
     6
 78
     2
 67
     7
 79
     5
170
     0
171
     0
290
     0
174
     0
 93
       13
 44
0.0
173
     0
291
     1
 45
0.0
1001
ACAD
1000
AcDbSavedByObjectVersion
1070
     0
  0
VISUALSTYLE
  5
2D
102
{ACAD_REACTORS
330
2A
102
}
102
{ACAD_XDICTIONARY
360
305
102
}
330
2A
100
AcDbVisualStyle
  2
Gouraud
 70
     2
 71
     2
 72
     2
 73
     1
 90
        2
 40
0.6
 41
30.0
 62
     5
 63
     7
421
 16777215
 74
     0
 91
        0
 64
     7
 65
   257
 75
     1
175
     1
 42
1.0
 92
        0
 66
     7
 43
1.0
 76
     1
 77
     6
 78
     2
 67
     7
 79
     5
170
     0
171
     0
290
     0
174
     0
 93
       13
 44
0.0
173
     0
291
     1
 45
0.0
1001
ACAD
1000
AcDbSavedByObjectVersion
1070
     0
  0
VISUALSTYLE
  5
2E
102
{ACAD_REACTORS
330
2A
102
}
102
{ACAD_XDICTIONARY
360
307
102
}
330
2A
100
AcDbVisualStyle
  2
GouraudWithEdges
 70
     3
 71
     2
 72
     2
 73
     1
 90
        2
 40
0.6
 41
30.0
 62
     5
 63
     7
421
 16777215
 74
     1
 91
        0
 64
     7
 65
   257
 75
     1
175
     1
 42
1.0
 92
        0
 66
   257
 43
1.0
 76
     1
 77
     6
 78
     2
 67
     7
 79
     5
170
     0
171
     0
290
     0
174
     0
 93
       13
 44
0.0
173
     0
291
     1
 45
0.0
1001
ACAD
1000
AcDbSavedByObjectVersion
1070
     0
  0
VISUALSTYLE
  5
31
102
{ACAD_REACTORS
330
2A
102
}
102
{ACAD_XDICTIONARY
360
30D
102
}
330
2A
100
AcDbVisualStyle
  2
Hidden
 70
     6
 71
     1
 72
     2
 73
     2
 90
        0
 40
0.6
 41
30.0
 62
     5
 63
     7
421
 16777215
 74
     2
 91
        2
 64
     7
 65
   257
 75
     2
175
     1
 42
40.0
 92
        0
 66
   257
 43
1.0
 76
     1
 77
     6
 78
     2
 67
     7
 79
     3
170
     0
171
     0
290
     0
174
     0
 93
        1
 44
0.0
173
     0
291
     0
 45
0.0
1001
ACAD
1000
AcDbSavedByObjectVersion
1070
     0
  0
VISUALSTYLE
  5
3B
102
{ACAD_REACTORS
330
2A
102
}
102
{ACAD_XDICTIONARY
360
321
102
}
330
2A
100
AcDbVisualStyle
  2
JitterOff
 70
    20
 71
     2
 72
     2
 73
     0
 90
        0
 40
0.6
 41
30.0
 62
     5
 63
     7
421
 16777215
 74
     1
 91
        4
 64
     7
 65
   257
 75
     1
175
     1
 42
1.0
 92
       10
 66
     7
 43
1.0
 76
     1
 77
     6
 78
     2
 67
     7
 79
     5
170
     0
171
     0
290
     0
174
     0
 93
        1
 44
0.0
173
     0
291
     1
 45
0.0
1001
ACAD
1000
AcDbSavedByObjectVersion
1070
     0
  0
VISUALSTYLE
  5
38
102
{ACAD_REACTORS
330
2A
102
}
102
{ACAD_XDICTIONARY
360
31B
102
}
330
2A
100
AcDbVisualStyle
  2
Linepattern
 70
    14
 71
     2
 72
     2
 73
     0
 90
        0
 40
0.6
 41
30.0
 62
     5
 63
     7
421
 16777215
 74
     1
 91
        4
 64
     7
 65
   257
 75
     7
175
     7
 42
1.0
 92
        8
 66
     7
 43
1.0
 76
     1
 77
     6
 78
     2
 67
     7
 79
     5
170
     0
171
     0
290
     0
174
     0
 93
        1
 44
0.0
173
     0
291
     1
 45
0.0
1001
ACAD
1000
AcDbSavedByObjectVersion
1070
     0
  0
VISUALSTYLE
  5
3C
102
{ACAD_REACTORS
330
2A
102
}
102
{ACAD_XDICTIONARY
360
323
102
}
330
2A
100
AcDbVisualStyle
  2
OverhangOff
 70
    21
 71
     2
 72
     2
 73
     0
 90
        0
 40
0.6
 41
30.0
 62
     5
 63
     7
421
 16777215
 74
     1
 91
        4
 64
     7
 65
   257
 75
     1
175
     1
 42
1.0
 92
        9
 66
     7
 43
1.0
 76
     1
 77
     6
 78
     2
 67
     7
 79
     5
170
     0
171
     0
290
     0
174
     0
 93
        1
 44
0.0
173
     0
291
     1
 45
0.0
1001
ACAD
1000
AcDbSavedByObjectVersion
1070
     0
  0
VISUALSTYLE
  5
33
102
{ACAD_REACTORS
330
2A
102
}
102
{ACAD_XDICTIONARY
360
311
102
}
330
2A
100
AcDbVisualStyle
  2
Realistic
 70
     8
 71
     2
 72
     3
 73
     0
 90
        2
 40
0.6
 41
30.0
 62
     5
 63
     7
421
 16777215
 74
     0
 91
        0
 64
     7
 65
   257
 75
     1
175
     1
 42
1.0
 92
        8
 66
   257
 43
1.0
 76
     1
 77
     6
 78
     2
 67
     7
 79
     3
170
     0
171
     0
290
     0
174
     0
 93
       13
 44
0.0
173
     0
291
     0
 45
0.0
1001
ACAD
1000
AcDbSavedByObjectVersion
1070
     0
  0
VISUALSTYLE
  5
42
102
{ACAD_REACTORS
330
2A
102
}
102
{ACAD_XDICTIONARY
360
32F
102
}
330
2A
100
AcDbVisualStyle
  2
Shaded
 70
    27
 71
     2
 72
     2
 73
     1
 90
        2
 40
0.6
 41
30.0
 62
     5
 63
     7
421
 16777215
 74
     0
 91
        4
 64
     7
 65
   257
 75
     1
175
     1
 42
1.0
 92
        8
 66
   257
 43
1.0
 76
     1
 77
     6
 78
     2
 67
     8
425
  7895160
 79
     3
170
     0
171
     0
290
     0
174
     0
 93
        5
 44
0.0
173
     0
291
     0
 45
0.0
1001
ACAD
1000
AcDbSavedByObjectVersion
1070
     0
  0
VISUALSTYLE
  5
41
102
{ACAD_REACTORS
330
2A
102
}
102
{ACAD_XDICTIONARY
360
32D
102
}
330
2A
100
AcDbVisualStyle
  2
Shaded with edges
 70
    26
 71
     2
 72
     2
 73
     1
 90
        2
 40
0.6
 41
30.0
 62
     5
 63
     7
421
 16777215
 74
     1
 91
       10
 64
     7
 65
   257
 75
     2
175
     1
 42
1.0
 92
        8
 66
   257
 43
1.0
 76
     1
 77
     6
 78
     2
 67
     7
 79
     3
170
     0
171
     0
290
     0
174
     0
 93
        5
 44
0.0
173
     0
291
     0
 45
0.0
1001
ACAD
1000
AcDbSavedByObjectVersion
1070
     0
  0
VISUALSTYLE
  5
3E
102
{ACAD_REACTORS
330
2A
102
}
102
{ACAD_XDICTIONARY
360
327
102
}
330
2A
100
AcDbVisualStyle
  2
Shades of Gray
 70
    23
 71
     2
 72
     2
 73
     3
 90
        0
 40
0.6
 41
30.0
 62
     5
 63
     7
421
 16777215
 74
     2
 91
        2
 64
     7
 65
     7
 75
     1
175
     1
 42
40.0
 92
        8
 66
     7
 43
1.0
 76
     1
 77
     6
 78
     2
 67
     7
 79
     3
170
     0
171
     0
290
     0
174
     0
 93
        1
 44
0.0
173
     0
291
     0
 45
0.0
1001
ACAD
1000
AcDbSavedByObjectVersion
1070
     0
  0
VISUALSTYLE
  5
3F
102
{ACAD_REACTORS
330
2A
102
}
102
{ACAD_XDICTIONARY
360
329
102
}
330
2A
100
AcDbVisualStyle
  2
Sketchy
 70
    24
 71
     1
 72
     2
 73
     2
 90
        0
 40
0.6
 41
30.0
 62
     5
 63
     7
421
 16777215
 74
     2
 91
        2
 64
     7
 65
     7
 75
     1
175
     1
 42
40.0
 92
       11
 66
     7
 43
1.0
 76
     1
 77
     6
 78
     2
 67
     7
 79
     6
170
     0
171
     0
290
     0
174
     0
 93
        1
 44
0.0
173
     0
291
     0
 45
0.0
1001
ACAD
1000
AcDbSavedByObjectVersion
1070
     0
  0
VISUALSTYLE
  5
37
102
{ACAD_REACTORS
330
2A
102
}
102
{ACAD_XDICTIONARY
360
319
102
}
330
2A
100
AcDbVisualStyle
  2
Thicken
 70
    13
 71
     2
 72
     2
 73
     0
 90
        0
 40
0.6
 41
30.0
 62
     5
 63
     7
421
 16777215
 74
     1
 91
        4
 64
     7
 65
   257
 75
     1
175
     1
 42
1.0
 92
       12
 66
     7
 43
1.0
 76
     1
 77
     6
 78
     2
 67
     7
 79
     5
170
     0
171
     0
290
     0
174
     0
 93
        1
 44
0.0
173
     0
291
     1
 45
0.0
1001
ACAD
1000
AcDbSavedByObjectVersion
1070
     0
  0
VISUALSTYLE
  5
30
102
{ACAD_REACTORS
330
2A
102
}
102
{ACAD_XDICTIONARY
360
30B
102
}
330
2A
100
AcDbVisualStyle
  2
Wireframe
 70
     5
 71
     0
 72
     2
 73
     0
 90
        0
 40
0.6
 41
30.0
 62
     5
 63
     7
421
 16777215
 74
     1
 91
        4
 64
     7
 65
   257
 75
     1
175
     1
 42
1.0
 92
        0
 66
   257
 43
1.0
 76
     1
 77
     6
 78
     2
 67
     7
 79
     3
170
     0
171
     0
290
     0
174
     0
 93
        1
 44
0.0
173
     0
291
     0
 45
0.0
1001
ACAD
1000
AcDbSavedByObjectVersion
1070
     0
  0
VISUALSTYLE
  5
40
102
{ACAD_REACTORS
330
2A
102
}
102
{ACAD_XDICTIONARY
360
32B
102
}
330
2A
100
AcDbVisualStyle
  2
X-Ray
 70
    25
 71
     2
 72
     2
 73
     1
 90
        1
 40
0.5
 41
30.0
 62
     5
 63
     7
421
 16777215
 74
     1
 91
        0
 64
     7
 65
   257
 75
     1
175
     1
 42
1.0
 92
        8
 66
     7
 43
1.0
 76
     1
 77
     6
 78
     2
 67
     7
 79
     3
170
     0
171
     0
290
     0
174
     0
 93
       13
 44
0.0
173
     0
291
     0
 45
0.0
1001
ACAD
1000
AcDbSavedByObjectVersion
1070
     0
  0
DICTIONARYVAR
  5
2FE
102
{ACAD_REACTORS
330
2FD
102
}
330
2FD
100
DictionaryVariables
280
     0
  1
1:1
  0
DICTIONARYVAR
  5
33F
102
{ACAD_REACTORS
330
2FD
102
}
330
2FD
100
DictionaryVariables
280
     0
  1
Standard
  0
DICTIONARYVAR
  5
33E
102
{ACAD_REACTORS
330
2FD
102
}
330
2FD
100
DictionaryVariables
280
     0
  1
Standard
  0
DICTIONARYVAR
  5
2FF
102
{ACAD_REACTORS
330
2FD
102
}
330
2FD
100
DictionaryVariables
280
     0
  1
1
  0
DICTIONARYVAR
  5
300
102
{ACAD_REACTORS
330
2FD
102
}
330
2FD
100
DictionaryVariables
280
     0
  1
2
  0
DICTIONARY
  5
333
330
45
100
AcDbDictionary
280
     1
281
     1
  3
ACAD_XREC_ROUNDTRIP
360
334
  0
DICTIONARY
  5
331
330
44
100
AcDbDictionary
280
     1
281
     1
  3
ACAD_XREC_ROUNDTRIP
360
332
  0
DICTIONARY
  5
335
330
46
100
AcDbDictionary
280
     1
281
     1
  3
ACAD_XREC_ROUNDTRIP
360
336
  0
DICTIONARY
  5
33B
330
6C
100
AcDbDictionary
280
     1
281
     1
  3
ACAD_XREC_ROUNDTRIP
360
33C
  0
DICTIONARY
  5
337
330
6A
100
AcDbDictionary
280
     1
281
     1
  3
ACAD_ROUNDTRIP_2008_TABLESTYLE_CELLSTYLEMAP
360
339
  3
ACAD_XREC_ROUNDTRIP
360
338
  0
DICTIONARY
  5
309
330
2F
100
AcDbDictionary
280
     1
281
     1
  3
ACAD_XREC_ROUNDTRIP
360
30A
  0
DICTIONARY
  5
30F
330
32
100
AcDbDictionary
280
     1
281
     1
  3
ACAD_XREC_ROUNDTRIP
360
310
  0
DICTIONARY
  5
317
330
36
100
AcDbDictionary
280
     1
281
     1
  3
ACAD_XREC_ROUNDTRIP
360
318
  0
DICTIONARY
  5
31F
330
3A
100
AcDbDictionary
280
     1
281
     1
  3
ACAD_XREC_ROUNDTRIP
360
320
  0
DICTIONARY
  5
313
330
34
100
AcDbDictionary
280
     1
281
     1
  3
ACAD_XREC_ROUNDTRIP
360
314
  0
DICTIONARY
  5
315
330
35
100
AcDbDictionary
280
     1
281
     1
  3
ACAD_XREC_ROUNDTRIP
360
316
  0
DICTIONARY
  5
325
330
3D
100
AcDbDictionary
280
     1
281
     1
  3
ACAD_XREC_ROUNDTRIP
360
326
  0
DICTIONARY
  5
31D
330
39
100
AcDbDictionary
280
     1
281
     1
  3
ACAD_XREC_ROUNDTRIP
360
31E
  0
DICTIONARY
  5
301
330
2B
100
AcDbDictionary
280
     1
281
     1
  3
ACAD_XREC_ROUNDTRIP
360
302
  0
DICTIONARY
  5
303
330
2C
100
AcDbDictionary
280
     1
281
     1
  3
ACAD_XREC_ROUNDTRIP
360
304
  0
DICTIONARY
  5
305
330
2D
100
AcDbDictionary
280
     1
281
     1
  3
ACAD_XREC_ROUNDTRIP
360
306
  0
DICTIONARY
  5
307
330
2E
100
AcDbDictionary
280
     1
281
     1
  3
ACAD_XREC_ROUNDTRIP
360
308
  0
DICTIONARY
  5
30D
330
31
100
AcDbDictionary
280
     1
281
     1
  3
ACAD_XREC_ROUNDTRIP
360
30E
  0
DICTIONARY
  5
321
330
3B
100
AcDbDictionary
280
     1
281
     1
  3
ACAD_XREC_ROUNDTRIP
360
322
  0
DICTIONARY
  5
31B
330
38
100
AcDbDictionary
280
     1
281
     1
  3
ACAD_XREC_ROUNDTRIP
360
31C
  0
DICTIONARY
  5
323
330
3C
100
AcDbDictionary
280
     1
281
     1
  3
ACAD_XREC_ROUNDTRIP
360
324
  0
DICTIONARY
  5
311
330
33
100
AcDbDictionary
280
     1
281
     1
  3
ACAD_XREC_ROUNDTRIP
360
312
  0
DICTIONARY
  5
32F
330
42
100
AcDbDictionary
280
     1
281
     1
  3
ACAD_XREC_ROUNDTRIP
360
330
  0
DICTIONARY
  5
32D
330
41
100
AcDbDictionary
280
     1
281
     1
  3
ACAD_XREC_ROUNDTRIP
360
32E
  0
DICTIONARY
  5
327
330
3E
100
AcDbDictionary
280
     1
281
     1
  3
ACAD_XREC_ROUNDTRIP
360
328
  0
DICTIONARY
  5
329
330
3F
100
AcDbDictionary
280
     1
281
     1
  3
ACAD_XREC_ROUNDTRIP
360
32A
  0
DICTIONARY
  5
319
330
37
100
AcDbDictionary
280
     1
281
     1
  3
ACAD_XREC_ROUNDTRIP
360
31A
  0
DICTIONARY
  5
30B
330
30
100
AcDbDictionary
280
     1
281
     1
  3
ACAD_XREC_ROUNDTRIP
360
30C
  0
DICTIONARY
  5
32B
330
40
100
AcDbDictionary
280
     1
281
     1
  3
ACAD_XREC_ROUNDTRIP
360
32C
  0
XRECORD
  5
334
102
{ACAD_REACTORS
330
333
102
}
330
333
100
AcDbXrecord
280
     1
102
MATERIAL
148
0.0
149
0.0
149
0.0
 93
        0
 94
      127
282
     0
 72
     1
 77
     1
171
     1
175
     1
179
     1
273
     0
  0
XRECORD
  5
332
102
{ACAD_REACTORS
330
331
102
}
330
331
100
AcDbXrecord
280
     1
102
MATERIAL
148
0.0
149
0.0
149
0.0
 93
        0
 94
      127
282
     0
 72
     1
 77
     1
171
     1
175
     1
179
     1
273
     0
  0
XRECORD
  5
336
102
{ACAD_REACTORS
330
335
102
}
330
335
100
AcDbXrecord
280
     1
102
MATERIAL
148
0.0
149
0.0
149
0.0
 93
        0
 94
      127
282
     0
 72
     1
 77
     1
171
     1
175
     1
179
     1
273
     0
  0
XRECORD
  5
33C
102
{ACAD_REACTORS
330
33B
102
}
330
33B
100
AcDbXrecord
280
     1
102
ACAD_ROUNDTRIP_2010_MLEADER_STYLE
  0
CELLSTYLEMAP
  5
339
102
{ACAD_REACTORS
330
337
102
}
330
337
100
AcDbCellStyleMap
 90
        3
300
CELLSTYLE
  1
TABLEFORMAT_BEGIN
 90
        5
170
     1
 91
        0
 92
    32768
 62
   257
 93
        1
300
CONTENTFORMAT
  1
CONTENTFORMAT_BEGIN
 90
        0
 91
        0
 92
        4
 93
        0
300

 40
0.0
140
1.0
 94
        5
 62
     0
340
11
144
0.25
309
CONTENTFORMAT_END
171
     1
301
MARGIN
  1
CELLMARGIN_BEGIN
 40
0.06
 40
0.06
 40
0.06
 40
0.06
 40
0.06
 40
0.06
309
CELLMARGIN_END
 94
        6
 95
        1
302
GRIDFORMAT
  1
GRIDFORMAT_BEGIN
 90
        0
 91
        1
 62
     0
 92
       -2
340
14
 93
        0
 40
0.045
309
GRIDFORMAT_END
 95
        2
302
GRIDFORMAT
  1
GRIDFORMAT_BEGIN
 90
        0
 91
        1
 62
     0
 92
       -2
340
14
 93
        0
 40
0.045
309
GRIDFORMAT_END
 95
        4
302
GRIDFORMAT
  1
GRIDFORMAT_BEGIN
 90
        0
 91
        1
 62
     0
 92
       -2
340
14
 93
        0
 40
0.045
309
GRIDFORMAT_END
 95
        8
302
GRIDFORMAT
  1
GRIDFORMAT_BEGIN
 90
        0
 91
        1
 62
     0
 92
       -2
340
14
 93
        0
 40
0.045
309
GRIDFORMAT_END
 95
       16
302
GRIDFORMAT
  1
GRIDFORMAT_BEGIN
 90
        0
 91
        1
 62
     0
 92
       -2
340
14
 93
        0
 40
0.045
309
GRIDFORMAT_END
 95
       32
302
GRIDFORMAT
  1
GRIDFORMAT_BEGIN
 90
        0
 91
        1
 62
     0
 92
       -2
340
14
 93
        0
 40
0.045
309
GRIDFORMAT_END
309
TABLEFORMAT_END
  1
CELLSTYLE_BEGIN
 90
        1
 91
        1
300
_TITLE
309
CELLSTYLE_END
300
CELLSTYLE
  1
TABLEFORMAT_BEGIN
 90
        5
170
     1
 91
        0
 92
        0
 62
   257
 93
        1
300
CONTENTFORMAT
  1
CONTENTFORMAT_BEGIN
 90
        0
 91
        0
 92
        4
 93
        0
300

 40
0.0
140
1.0
 94
        5
 62
     0
340
11
144
0.18
309
CONTENTFORMAT_END
171
     1
301
MARGIN
  1
CELLMARGIN_BEGIN
 40
0.06
 40
0.06
 40
0.06
 40
0.06
 40
0.06
 40
0.06
309
CELLMARGIN_END
 94
        6
 95
        1
302
GRIDFORMAT
  1
GRIDFORMAT_BEGIN
 90
        0
 91
        1
 62
     0
 92
       -2
340
14
 93
        0
 40
0.045
309
GRIDFORMAT_END
 95
        2
302
GRIDFORMAT
  1
GRIDFORMAT_BEGIN
 90
        0
 91
        1
 62
     0
 92
       -2
340
14
 93
        0
 40
0.045
309
GRIDFORMAT_END
 95
        4
302
GRIDFORMAT
  1
GRIDFORMAT_BEGIN
 90
        0
 91
        1
 62
     0
 92
       -2
340
14
 93
        0
 40
0.045
309
GRIDFORMAT_END
 95
        8
302
GRIDFORMAT
  1
GRIDFORMAT_BEGIN
 90
        0
 91
        1
 62
     0
 92
       -2
340
14
 93
        0
 40
0.045
309
GRIDFORMAT_END
 95
       16
302
GRIDFORMAT
  1
GRIDFORMAT_BEGIN
 90
        0
 91
        1
 62
     0
 92
       -2
340
14
 93
        0
 40
0.045
309
GRIDFORMAT_END
 95
       32
302
GRIDFORMAT
  1
GRIDFORMAT_BEGIN
 90
        0
 91
        1
 62
     0
 92
       -2
340
14
 93
        0
 40
0.045
309
GRIDFORMAT_END
309
TABLEFORMAT_END
  1
CELLSTYLE_BEGIN
 90
        2
 91
        1
300
_HEADER
309
CELLSTYLE_END
300
CELLSTYLE
  1
TABLEFORMAT_BEGIN
 90
        5
170
     1
 91
        0
 92
        0
 62
   257
 93
        1
300
CONTENTFORMAT
  1
CONTENTFORMAT_BEGIN
 90
        0
 91
        0
 92
        4
 93
        0
300

 40
0.0
140
1.0
 94
        2
 62
     0
340
11
144
0.18
309
CONTENTFORMAT_END
171
     1
301
MARGIN
  1
CELLMARGIN_BEGIN
 40
0.06
 40
0.06
 40
0.06
 40
0.06
 40
0.06
 40
0.06
309
CELLMARGIN_END
 94
        6
 95
        1
302
GRIDFORMAT
  1
GRIDFORMAT_BEGIN
 90
        0
 91
        1
 62
     0
 92
       -2
340
14
 93
        0
 40
0.045
309
GRIDFORMAT_END
 95
        2
302
GRIDFORMAT
  1
GRIDFORMAT_BEGIN
 90
        0
 91
        1
 62
     0
 92
       -2
340
14
 93
        0
 40
0.045
309
GRIDFORMAT_END
 95
        4
302
GRIDFORMAT
  1
GRIDFORMAT_BEGIN
 90
        0
 91
        1
 62
     0
 92
       -2
340
14
 93
        0
 40
0.045
309
GRIDFORMAT_END
 95
        8
302
GRIDFORMAT
  1
GRIDFORMAT_BEGIN
 90
        0
 91
        1
 62
     0
 92
       -2
340
14
 93
        0
 40
0.045
309
GRIDFORMAT_END
 95
       16
302
GRIDFORMAT
  1
GRIDFORMAT_BEGIN
 90
        0
 91
        1
 62
     0
 92
       -2
340
14
 93
        0
 40
0.045
309
GRIDFORMAT_END
 95
       32
302
GRIDFORMAT
  1
GRIDFORMAT_BEGIN
 90
        0
 91
        1
 62
     0
 92
       -2
340
14
 93
        0
 40
0.045
309
GRIDFORMAT_END
309
TABLEFORMAT_END
  1
CELLSTYLE_BEGIN
 90
        3
 91
        2
300
_DATA
309
CELLSTYLE_END
  0
XRECORD
  5
338
102
{ACAD_REACTORS
330
337
102
}
330
337
100
AcDbXrecord
280
     1
102
ACAD_ROUNDTRIP_PRE2007_TABLESTYLE
 90
        4
 91
        0
  1

 92
        4
 93
        0
  2

 94
        4
 95
        0
  3

  0
XRECORD
  5
30A
102
{ACAD_REACTORS
330
309
102
}
330
309
100
AcDbXrecord
280
     1
102
RTVSPropertyOp0
 70
     1
102
RTVSPropertyOp1
 70
     1
102
RTVSPropertyOp2
 70
     1
102
RTVSPropertyOp3
 70
     1
102
RTVSPropertyOp4
 70
     1
102
RTVSPropertyOp5
 70
     1
102
RTVSPropertyOp6
 70
     1
102
RTVSPropertyOp7
 70
     1
102
RTVSPropertyOp8
 70
     1
102
RTVSPropertyOp9
 70
     1
102
RTVSPropertyOp10
 70
     1
102
RTVSPropertyOp11
 70
     1
102
RTVSPropertyOp12
 70
     1
102
RTVSPropertyOp13
 70
     1
102
RTVSPropertyOp14
 70
     1
102
RTVSPropertyOp15
 70
     1
102
RTVSPropertyOp16
 70
     1
102
RTVSPropertyOp17
 70
     1
102
RTVSPropertyOp18
 70
     1
102
RTVSPropertyOp19
 70
     1
102
RTVSPropertyOp20
 70
     1
102
RTVSPropertyOp21
 70
     1
102
RTVSPropertyOp22
 70
     1
102
RTVSPropertyOp23
 70
     1
102
RTVSPropertyOp24
 70
     1
102
RTVSPropertyOp25
 70
     1
102
RTVSPropertyOp26
 70
     1
102
RTVSPropertyOp27
 70
     1
102
RTVSPropertyOp28
 70
     1
102
RTVSPropertyOp29
 70
     1
102
RTVSPropertyOp30
 70
     1
102
RTVSPropertyOp31
 70
     1
102
RTVSPropertyOp32
 70
     1
102
RTVSPropertyOp33
 70
     1
102
RTVSPropertyOp34
 70
     1
102
RTVSPropertyOp35
 70
     1
102
RTVSPropertyOp36
 70
     1
102
RTVSPropertyOp37
 70
     1
102
RTVSPropertyOp38
 70
     1
102
RTVSPropertyOp39
 70
     1
102
RTVSPropertyOp40
 70
     1
102
RTVSPropertyOp41
 70
     1
102
RTVSPropertyOp42
 70
     1
102
RTVSPropertyOp43
 70
     1
102
RTVSPropertyOp44
 70
     1
102
RTVSPropertyOp45
 70
     1
102
RTVSPropertyOp46
 70
     1
102
RTVSPropertyOp47
 70
     1
102
RTVSPropertyOp48
 70
     1
102
RTVSPropertyOp49
 70
     1
102
RTVSPropertyOp50
 70
     1
102
RTVSPropertyOp51
 70
     0
102
RTVSPropertyOp52
 70
     0
102
RTVSPropertyOp53
 70
     1
102
RTVSPropertyOp54
 70
     1
102
RTVSPropertyOp55
 70
     1
102
RTVSPropertyOp56
 70
     1
102
RTVSPropertyOp57
 70
     1
102
RTVSPost2010Prop28
280
     1
102
RTVSPost2010PropOp28
 70
     1
102
RTVSPost2010Prop29
280
     1
102
RTVSPost2010PropOp29
 70
     1
102
RTVSPost2010Prop30
280
     0
102
RTVSPost2010PropOp30
 70
     1
102
RTVSPost2010Prop31
280
     0
102
RTVSPost2010PropOp31
 70
     1
102
RTVSPost2010Prop32
280
     0
102
RTVSPost2010PropOp32
 70
     1
102
RTVSPost2010Prop33
280
     0
102
RTVSPost2010PropOp33
 70
     1
102
RTVSPost2010Prop34
280
     0
102
RTVSPost2010PropOp34
 70
     1
102
RTVSPost2010Prop35
280
     0
102
RTVSPost2010PropOp35
 70
     1
102
RTVSPost2010Prop36
280
     0
102
RTVSPost2010PropOp36
 70
     1
102
RTVSPost2010Prop37
 90
       50
102
RTVSPost2010PropOp37
 70
     1
102
RTVSPost2010Prop38
140
0.0
102
RTVSPost2010PropOp38
 70
     1
102
RTVSPost2010Prop39
140
1.0
102
RTVSPost2010PropOp39
 70
     1
102
RTVSPost2010Prop40
 90
        0
102
RTVSPost2010PropOp40
 70
     1
102
RTVSPost2010Prop41ColorIndex
 90
       18
102
RTVSPost2010Prop41ColorRGB
 90
        0
102
RTVSPost2010PropOp41
 70
     1
102
RTVSPost2010Prop42
 90
       50
102
RTVSPost2010PropOp42
 70
     1
102
RTVSPost2010Prop43
 90
        3
102
RTVSPost2010PropOp43
 70
     1
102
RTVSPost2010Prop44ColorIndex
 90
        5
102
RTVSPost2010Prop44ColorRGB
 90
      255
102
RTVSPost2010PropOp44
 70
     1
102
RTVSPost2010Prop45
280
     0
102
RTVSPost2010PropOp45
 70
     1
102
RTVSPost2010Prop46
 90
       50
102
RTVSPost2010PropOp46
 70
     1
102
RTVSPost2010Prop47
 90
       50
102
RTVSPost2010PropOp47
 70
     1
102
RTVSPost2010Prop48
 90
       50
102
RTVSPost2010PropOp48
 70
     1
102
RTVSPost2010Prop49
280
     0
102
RTVSPost2010PropOp49
 70
     1
102
RTVSPost2010Prop50
 90
       50
102
RTVSPost2010PropOp50
 70
     1
102
RTVSPost2010Prop51ColorIndex
 90
      256
102
RTVSPost2010Prop51ColorRGB
 90
-16777216
102
RTVSPost2010PropOp51
 70
     0
102
RTVSPost2010Prop52
140
1.0
102
RTVSPost2010PropOp52
 70
     0
102
RTVSPost2010Prop53
 90
        2
102
RTVSPost2010PropOp53
 70
     1
102
RTVSPost2010Prop54
  1
strokes_ogs.tif
102
RTVSPost2010PropOp54
 70
     1
102
RTVSPost2010Prop55
280
     0
102
RTVSPost2010PropOp55
 70
     1
102
RTVSPost2010Prop56
140
1.0
102
RTVSPost2010PropOp56
 70
     1
102
RTVSPost2010Prop57
140
1.0
102
RTVSPost2010PropOp57
 70
     1
  0
XRECORD
  5
310
102
{ACAD_REACTORS
330
30F
102
}
330
30F
100
AcDbXrecord
280
     1
102
RTVSPropertyOp0
 70
     1
102
RTVSPropertyOp1
 70
     1
102
RTVSPropertyOp2
 70
     1
102
RTVSPropertyOp3
 70
     1
102
RTVSPropertyOp4
 70
     1
102
RTVSPropertyOp5
 70
     1
102
RTVSPropertyOp6
 70
     1
102
RTVSPropertyOp7
 70
     1
102
RTVSPropertyOp8
 70
     1
102
RTVSPropertyOp9
 70
     1
102
RTVSPropertyOp10
 70
     1
102
RTVSPropertyOp11
 70
     1
102
RTVSPropertyOp12
 70
     1
102
RTVSPropertyOp13
 70
     1
102
RTVSPropertyOp14
 70
     1
102
RTVSPropertyOp15
 70
     1
102
RTVSPropertyOp16
 70
     1
102
RTVSPropertyOp17
 70
     1
102
RTVSPropertyOp18
 70
     1
102
RTVSPropertyOp19
 70
     1
102
RTVSPropertyOp20
 70
     1
102
RTVSPropertyOp21
 70
     1
102
RTVSPropertyOp22
 70
     1
102
RTVSPropertyOp23
 70
     1
102
RTVSPropertyOp24
 70
     1
102
RTVSPropertyOp25
 70
     1
102
RTVSPropertyOp26
 70
     1
102
RTVSPropertyOp27
 70
     1
102
RTVSPropertyOp28
 70
     1
102
RTVSPropertyOp29
 70
     1
102
RTVSPropertyOp30
 70
     1
102
RTVSPropertyOp31
 70
     1
102
RTVSPropertyOp32
 70
     1
102
RTVSPropertyOp33
 70
     1
102
RTVSPropertyOp34
 70
     1
102
RTVSPropertyOp35
 70
     1
102
RTVSPropertyOp36
 70
     1
102
RTVSPropertyOp37
 70
     1
102
RTVSPropertyOp38
 70
     1
102
RTVSPropertyOp39
 70
     1
102
RTVSPropertyOp40
 70
     1
102
RTVSPropertyOp41
 70
     1
102
RTVSPropertyOp42
 70
     1
102
RTVSPropertyOp43
 70
     1
102
RTVSPropertyOp44
 70
     1
102
RTVSPropertyOp45
 70
     1
102
RTVSPropertyOp46
 70
     1
102
RTVSPropertyOp47
 70
     1
102
RTVSPropertyOp48
 70
     1
102
RTVSPropertyOp49
 70
     1
102
RTVSPropertyOp50
 70
     1
102
RTVSPropertyOp51
 70
     0
102
RTVSPropertyOp52
 70
     0
102
RTVSPropertyOp53
 70
     1
102
RTVSPropertyOp54
 70
     1
102
RTVSPropertyOp55
 70
     1
102
RTVSPropertyOp56
 70
     1
102
RTVSPropertyOp57
 70
     1
102
RTVSPost2010Prop28
280
     0
102
RTVSPost2010PropOp28
 70
     1
102
RTVSPost2010Prop29
280
     1
102
RTVSPost2010PropOp29
 70
     1
102
RTVSPost2010Prop30
280
     1
102
RTVSPost2010PropOp30
 70
     1
102
RTVSPost2010Prop31
280
     0
102
RTVSPost2010PropOp31
 70
     1
102
RTVSPost2010Prop32
280
     0
102
RTVSPost2010PropOp32
 70
     1
102
RTVSPost2010Prop33
280
     0
102
RTVSPost2010PropOp33
 70
     1
102
RTVSPost2010Prop34
280
     0
102
RTVSPost2010PropOp34
 70
     1
102
RTVSPost2010Prop35
280
     0
102
RTVSPost2010PropOp35
 70
     1
102
RTVSPost2010Prop36
280
     0
102
RTVSPost2010PropOp36
 70
     1
102
RTVSPost2010Prop37
 90
       50
102
RTVSPost2010PropOp37
 70
     1
102
RTVSPost2010Prop38
140
0.0
102
RTVSPost2010PropOp38
 70
     1
102
RTVSPost2010Prop39
140
1.0
102
RTVSPost2010PropOp39
 70
     1
102
RTVSPost2010Prop40
 90
        0
102
RTVSPost2010PropOp40
 70
     1
102
RTVSPost2010Prop41ColorIndex
 90
       18
102
RTVSPost2010Prop41ColorRGB
 90
        0
102
RTVSPost2010PropOp41
 70
     1
102
RTVSPost2010Prop42
 90
       50
102
RTVSPost2010PropOp42
 70
     1
102
RTVSPost2010Prop43
 90
        3
102
RTVSPost2010PropOp43
 70
     1
102
RTVSPost2010Prop44ColorIndex
 90
        5
102
RTVSPost2010Prop44ColorRGB
 90
      255
102
RTVSPost2010PropOp44
 70
     1
102
RTVSPost2010Prop45
280
     0
102
RTVSPost2010PropOp45
 70
     1
102
RTVSPost2010Prop46
 90
       50
102
RTVSPost2010PropOp46
 70
     1
102
RTVSPost2010Prop47
 90
       50
102
RTVSPost2010PropOp47
 70
     1
102
RTVSPost2010Prop48
 90
       50
102
RTVSPost2010PropOp48
 70
     1
102
RTVSPost2010Prop49
280
     0
102
RTVSPost2010PropOp49
 70
     1
102
RTVSPost2010Prop50
 90
       50
102
RTVSPost2010PropOp50
 70
     1
102
RTVSPost2010Prop51ColorIndex
 90
      256
102
RTVSPost2010Prop51ColorRGB
 90
-16777216
102
RTVSPost2010PropOp51
 70
     0
102
RTVSPost2010Prop52
140
1.0
102
RTVSPost2010PropOp52
 70
     0
102
RTVSPost2010Prop53
 90
        2
102
RTVSPost2010PropOp53
 70
     1
102
RTVSPost2010Prop54
  1
strokes_ogs.tif
102
RTVSPost2010PropOp54
 70
     1
102
RTVSPost2010Prop55
280
     0
102
RTVSPost2010PropOp55
 70
     1
102
RTVSPost2010Prop56
140
1.0
102
RTVSPost2010PropOp56
 70
     1
102
RTVSPost2010Prop57
140
1.0
102
RTVSPost2010PropOp57
 70
     1
  0
XRECORD
  5
318
102
{ACAD_REACTORS
330
317
102
}
330
317
100
AcDbXrecord
280
     1
102
RTVSPropertyOp0
 70
     1
102
RTVSPropertyOp1
 70
     1
102
RTVSPropertyOp2
 70
     1
102
RTVSPropertyOp3
 70
     1
102
RTVSPropertyOp4
 70
     1
102
RTVSPropertyOp5
 70
     1
102
RTVSPropertyOp6
 70
     1
102
RTVSPropertyOp7
 70
     1
102
RTVSPropertyOp8
 70
     1
102
RTVSPropertyOp9
 70
     1
102
RTVSPropertyOp10
 70
     1
102
RTVSPropertyOp11
 70
     1
102
RTVSPropertyOp12
 70
     1
102
RTVSPropertyOp13
 70
     1
102
RTVSPropertyOp14
 70
     1
102
RTVSPropertyOp15
 70
     1
102
RTVSPropertyOp16
 70
     1
102
RTVSPropertyOp17
 70
     1
102
RTVSPropertyOp18
 70
     1
102
RTVSPropertyOp19
 70
     1
102
RTVSPropertyOp20
 70
     1
102
RTVSPropertyOp21
 70
     1
102
RTVSPropertyOp22
 70
     1
102
RTVSPropertyOp23
 70
     1
102
RTVSPropertyOp24
 70
     1
102
RTVSPropertyOp25
 70
     1
102
RTVSPropertyOp26
 70
     1
102
RTVSPropertyOp27
 70
     1
102
RTVSPropertyOp28
 70
     1
102
RTVSPropertyOp29
 70
     1
102
RTVSPropertyOp30
 70
     1
102
RTVSPropertyOp31
 70
     1
102
RTVSPropertyOp32
 70
     1
102
RTVSPropertyOp33
 70
     1
102
RTVSPropertyOp34
 70
     1
102
RTVSPropertyOp35
 70
     1
102
RTVSPropertyOp36
 70
     1
102
RTVSPropertyOp37
 70
     1
102
RTVSPropertyOp38
 70
     1
102
RTVSPropertyOp39
 70
     1
102
RTVSPropertyOp40
 70
     1
102
RTVSPropertyOp41
 70
     1
102
RTVSPropertyOp42
 70
     1
102
RTVSPropertyOp43
 70
     1
102
RTVSPropertyOp44
 70
     1
102
RTVSPropertyOp45
 70
     1
102
RTVSPropertyOp46
 70
     1
102
RTVSPropertyOp47
 70
     1
102
RTVSPropertyOp48
 70
     1
102
RTVSPropertyOp49
 70
     1
102
RTVSPropertyOp50
 70
     1
102
RTVSPropertyOp51
 70
     0
102
RTVSPropertyOp52
 70
     0
102
RTVSPropertyOp53
 70
     1
102
RTVSPropertyOp54
 70
     1
102
RTVSPropertyOp55
 70
     1
102
RTVSPropertyOp56
 70
     1
102
RTVSPropertyOp57
 70
     1
102
RTVSPost2010Prop28
280
     0
102
RTVSPost2010PropOp28
 70
     1
102
RTVSPost2010Prop29
280
     1
102
RTVSPost2010PropOp29
 70
     1
102
RTVSPost2010Prop30
280
     1
102
RTVSPost2010PropOp30
 70
     1
102
RTVSPost2010Prop31
280
     0
102
RTVSPost2010PropOp31
 70
     1
102
RTVSPost2010Prop32
280
     0
102
RTVSPost2010PropOp32
 70
     1
102
RTVSPost2010Prop33
280
     0
102
RTVSPost2010PropOp33
 70
     1
102
RTVSPost2010Prop34
280
     0
102
RTVSPost2010PropOp34
 70
     1
102
RTVSPost2010Prop35
280
     0
102
RTVSPost2010PropOp35
 70
     1
102
RTVSPost2010Prop36
280
     0
102
RTVSPost2010PropOp36
 70
     1
102
RTVSPost2010Prop37
 90
       50
102
RTVSPost2010PropOp37
 70
     1
102
RTVSPost2010Prop38
140
0.0
102
RTVSPost2010PropOp38
 70
     1
102
RTVSPost2010Prop39
140
1.0
102
RTVSPost2010PropOp39
 70
     1
102
RTVSPost2010Prop40
 90
        0
102
RTVSPost2010PropOp40
 70
     1
102
RTVSPost2010Prop41ColorIndex
 90
       18
102
RTVSPost2010Prop41ColorRGB
 90
        0
102
RTVSPost2010PropOp41
 70
     1
102
RTVSPost2010Prop42
 90
       50
102
RTVSPost2010PropOp42
 70
     1
102
RTVSPost2010Prop43
 90
        3
102
RTVSPost2010PropOp43
 70
     1
102
RTVSPost2010Prop44ColorIndex
 90
        5
102
RTVSPost2010Prop44ColorRGB
 90
      255
102
RTVSPost2010PropOp44
 70
     1
102
RTVSPost2010Prop45
280
     0
102
RTVSPost2010PropOp45
 70
     1
102
RTVSPost2010Prop46
 90
       50
102
RTVSPost2010PropOp46
 70
     1
102
RTVSPost2010Prop47
 90
       50
102
RTVSPost2010PropOp47
 70
     1
102
RTVSPost2010Prop48
 90
       50
102
RTVSPost2010PropOp48
 70
     1
102
RTVSPost2010Prop49
280
     0
102
RTVSPost2010PropOp49
 70
     1
102
RTVSPost2010Prop50
 90
       50
102
RTVSPost2010PropOp50
 70
     1
102
RTVSPost2010Prop51ColorIndex
 90
      256
102
RTVSPost2010Prop51ColorRGB
 90
-16777216
102
RTVSPost2010PropOp51
 70
     0
102
RTVSPost2010Prop52
140
1.0
102
RTVSPost2010PropOp52
 70
     0
102
RTVSPost2010Prop53
 90
        2
102
RTVSPost2010PropOp53
 70
     1
102
RTVSPost2010Prop54
  1
strokes_ogs.tif
102
RTVSPost2010PropOp54
 70
     1
102
RTVSPost2010Prop55
280
     0
102
RTVSPost2010PropOp55
 70
     1
102
RTVSPost2010Prop56
140
1.0
102
RTVSPost2010PropOp56
 70
     1
102
RTVSPost2010Prop57
140
1.0
102
RTVSPost2010PropOp57
 70
     1
  0
XRECORD
  5
320
102
{ACAD_REACTORS
330
31F
102
}
330
31F
100
AcDbXrecord
280
     1
102
RTVSPropertyOp0
 70
     1
102
RTVSPropertyOp1
 70
     1
102
RTVSPropertyOp2
 70
     1
102
RTVSPropertyOp3
 70
     1
102
RTVSPropertyOp4
 70
     1
102
RTVSPropertyOp5
 70
     1
102
RTVSPropertyOp6
 70
     1
102
RTVSPropertyOp7
 70
     1
102
RTVSPropertyOp8
 70
     1
102
RTVSPropertyOp9
 70
     1
102
RTVSPropertyOp10
 70
     1
102
RTVSPropertyOp11
 70
     1
102
RTVSPropertyOp12
 70
     1
102
RTVSPropertyOp13
 70
     1
102
RTVSPropertyOp14
 70
     1
102
RTVSPropertyOp15
 70
     1
102
RTVSPropertyOp16
 70
     1
102
RTVSPropertyOp17
 70
     1
102
RTVSPropertyOp18
 70
     1
102
RTVSPropertyOp19
 70
     1
102
RTVSPropertyOp20
 70
     1
102
RTVSPropertyOp21
 70
     1
102
RTVSPropertyOp22
 70
     1
102
RTVSPropertyOp23
 70
     1
102
RTVSPropertyOp24
 70
     1
102
RTVSPropertyOp25
 70
     1
102
RTVSPropertyOp26
 70
     1
102
RTVSPropertyOp27
 70
     1
102
RTVSPropertyOp28
 70
     1
102
RTVSPropertyOp29
 70
     1
102
RTVSPropertyOp30
 70
     1
102
RTVSPropertyOp31
 70
     1
102
RTVSPropertyOp32
 70
     1
102
RTVSPropertyOp33
 70
     1
102
RTVSPropertyOp34
 70
     1
102
RTVSPropertyOp35
 70
     1
102
RTVSPropertyOp36
 70
     1
102
RTVSPropertyOp37
 70
     1
102
RTVSPropertyOp38
 70
     1
102
RTVSPropertyOp39
 70
     1
102
RTVSPropertyOp40
 70
     1
102
RTVSPropertyOp41
 70
     1
102
RTVSPropertyOp42
 70
     1
102
RTVSPropertyOp43
 70
     1
102
RTVSPropertyOp44
 70
     1
102
RTVSPropertyOp45
 70
     1
102
RTVSPropertyOp46
 70
     1
102
RTVSPropertyOp47
 70
     1
102
RTVSPropertyOp48
 70
     1
102
RTVSPropertyOp49
 70
     1
102
RTVSPropertyOp50
 70
     1
102
RTVSPropertyOp51
 70
     0
102
RTVSPropertyOp52
 70
     0
102
RTVSPropertyOp53
 70
     1
102
RTVSPropertyOp54
 70
     1
102
RTVSPropertyOp55
 70
     1
102
RTVSPropertyOp56
 70
     1
102
RTVSPropertyOp57
 70
     1
102
RTVSPost2010Prop28
280
     0
102
RTVSPost2010PropOp28
 70
     1
102
RTVSPost2010Prop29
280
     1
102
RTVSPost2010PropOp29
 70
     1
102
RTVSPost2010Prop30
280
     1
102
RTVSPost2010PropOp30
 70
     1
102
RTVSPost2010Prop31
280
     0
102
RTVSPost2010PropOp31
 70
     1
102
RTVSPost2010Prop32
280
     0
102
RTVSPost2010PropOp32
 70
     1
102
RTVSPost2010Prop33
280
     0
102
RTVSPost2010PropOp33
 70
     1
102
RTVSPost2010Prop34
280
     0
102
RTVSPost2010PropOp34
 70
     1
102
RTVSPost2010Prop35
280
     0
102
RTVSPost2010PropOp35
 70
     1
102
RTVSPost2010Prop36
280
     0
102
RTVSPost2010PropOp36
 70
     1
102
RTVSPost2010Prop37
 90
       50
102
RTVSPost2010PropOp37
 70
     1
102
RTVSPost2010Prop38
140
0.0
102
RTVSPost2010PropOp38
 70
     1
102
RTVSPost2010Prop39
140
1.0
102
RTVSPost2010PropOp39
 70
     1
102
RTVSPost2010Prop40
 90
        0
102
RTVSPost2010PropOp40
 70
     1
102
RTVSPost2010Prop41ColorIndex
 90
       18
102
RTVSPost2010Prop41ColorRGB
 90
        0
102
RTVSPost2010PropOp41
 70
     1
102
RTVSPost2010Prop42
 90
       50
102
RTVSPost2010PropOp42
 70
     1
102
RTVSPost2010Prop43
 90
        3
102
RTVSPost2010PropOp43
 70
     1
102
RTVSPost2010Prop44ColorIndex
 90
        5
102
RTVSPost2010Prop44ColorRGB
 90
      255
102
RTVSPost2010PropOp44
 70
     1
102
RTVSPost2010Prop45
280
     0
102
RTVSPost2010PropOp45
 70
     1
102
RTVSPost2010Prop46
 90
       50
102
RTVSPost2010PropOp46
 70
     1
102
RTVSPost2010Prop47
 90
       50
102
RTVSPost2010PropOp47
 70
     1
102
RTVSPost2010Prop48
 90
       50
102
RTVSPost2010PropOp48
 70
     1
102
RTVSPost2010Prop49
280
     0
102
RTVSPost2010PropOp49
 70
     1
102
RTVSPost2010Prop50
 90
       50
102
RTVSPost2010PropOp50
 70
     1
102
RTVSPost2010Prop51ColorIndex
 90
      256
102
RTVSPost2010Prop51ColorRGB
 90
-16777216
102
RTVSPost2010PropOp51
 70
     0
102
RTVSPost2010Prop52
140
1.0
102
RTVSPost2010PropOp52
 70
     0
102
RTVSPost2010Prop53
 90
        2
102
RTVSPost2010PropOp53
 70
     1
102
RTVSPost2010Prop54
  1
strokes_ogs.tif
102
RTVSPost2010PropOp54
 70
     1
102
RTVSPost2010Prop55
280
     0
102
RTVSPost2010PropOp55
 70
     1
102
RTVSPost2010Prop56
140
1.0
102
RTVSPost2010PropOp56
 70
     1
102
RTVSPost2010Prop57
140
1.0
102
RTVSPost2010PropOp57
 70
     1
  0
XRECORD
  5
314
102
{ACAD_REACTORS
330
313
102
}
330
313
100
AcDbXrecord
280
     1
102
RTVSPropertyOp0
 70
     1
102
RTVSPropertyOp1
 70
     1
102
RTVSPropertyOp2
 70
     1
102
RTVSPropertyOp3
 70
     1
102
RTVSPropertyOp4
 70
     1
102
RTVSPropertyOp5
 70
     1
102
RTVSPropertyOp6
 70
     1
102
RTVSPropertyOp7
 70
     1
102
RTVSPropertyOp8
 70
     1
102
RTVSPropertyOp9
 70
     1
102
RTVSPropertyOp10
 70
     1
102
RTVSPropertyOp11
 70
     1
102
RTVSPropertyOp12
 70
     1
102
RTVSPropertyOp13
 70
     1
102
RTVSPropertyOp14
 70
     1
102
RTVSPropertyOp15
 70
     1
102
RTVSPropertyOp16
 70
     1
102
RTVSPropertyOp17
 70
     1
102
RTVSPropertyOp18
 70
     1
102
RTVSPropertyOp19
 70
     1
102
RTVSPropertyOp20
 70
     1
102
RTVSPropertyOp21
 70
     1
102
RTVSPropertyOp22
 70
     1
102
RTVSPropertyOp23
 70
     1
102
RTVSPropertyOp24
 70
     1
102
RTVSPropertyOp25
 70
     1
102
RTVSPropertyOp26
 70
     1
102
RTVSPropertyOp27
 70
     1
102
RTVSPropertyOp28
 70
     1
102
RTVSPropertyOp29
 70
     1
102
RTVSPropertyOp30
 70
     1
102
RTVSPropertyOp31
 70
     1
102
RTVSPropertyOp32
 70
     1
102
RTVSPropertyOp33
 70
     1
102
RTVSPropertyOp34
 70
     1
102
RTVSPropertyOp35
 70
     1
102
RTVSPropertyOp36
 70
     1
102
RTVSPropertyOp37
 70
     1
102
RTVSPropertyOp38
 70
     1
102
RTVSPropertyOp39
 70
     1
102
RTVSPropertyOp40
 70
     1
102
RTVSPropertyOp41
 70
     1
102
RTVSPropertyOp42
 70
     1
102
RTVSPropertyOp43
 70
     1
102
RTVSPropertyOp44
 70
     1
102
RTVSPropertyOp45
 70
     1
102
RTVSPropertyOp46
 70
     1
102
RTVSPropertyOp47
 70
     1
102
RTVSPropertyOp48
 70
     1
102
RTVSPropertyOp49
 70
     1
102
RTVSPropertyOp50
 70
     1
102
RTVSPropertyOp51
 70
     0
102
RTVSPropertyOp52
 70
     0
102
RTVSPropertyOp53
 70
     1
102
RTVSPropertyOp54
 70
     1
102
RTVSPropertyOp55
 70
     1
102
RTVSPropertyOp56
 70
     1
102
RTVSPropertyOp57
 70
     1
102
RTVSPost2010Prop28
280
     0
102
RTVSPost2010PropOp28
 70
     1
102
RTVSPost2010Prop29
280
     1
102
RTVSPost2010PropOp29
 70
     1
102
RTVSPost2010Prop30
280
     1
102
RTVSPost2010PropOp30
 70
     1
102
RTVSPost2010Prop31
280
     0
102
RTVSPost2010PropOp31
 70
     1
102
RTVSPost2010Prop32
280
     0
102
RTVSPost2010PropOp32
 70
     1
102
RTVSPost2010Prop33
280
     0
102
RTVSPost2010PropOp33
 70
     1
102
RTVSPost2010Prop34
280
     0
102
RTVSPost2010PropOp34
 70
     1
102
RTVSPost2010Prop35
280
     0
102
RTVSPost2010PropOp35
 70
     1
102
RTVSPost2010Prop36
280
     0
102
RTVSPost2010PropOp36
 70
     1
102
RTVSPost2010Prop37
 90
       50
102
RTVSPost2010PropOp37
 70
     1
102
RTVSPost2010Prop38
140
0.0
102
RTVSPost2010PropOp38
 70
     1
102
RTVSPost2010Prop39
140
1.0
102
RTVSPost2010PropOp39
 70
     1
102
RTVSPost2010Prop40
 90
        0
102
RTVSPost2010PropOp40
 70
     1
102
RTVSPost2010Prop41ColorIndex
 90
       18
102
RTVSPost2010Prop41ColorRGB
 90
        0
102
RTVSPost2010PropOp41
 70
     1
102
RTVSPost2010Prop42
 90
       50
102
RTVSPost2010PropOp42
 70
     1
102
RTVSPost2010Prop43
 90
        3
102
RTVSPost2010PropOp43
 70
     1
102
RTVSPost2010Prop44ColorIndex
 90
        5
102
RTVSPost2010Prop44ColorRGB
 90
      255
102
RTVSPost2010PropOp44
 70
     1
102
RTVSPost2010Prop45
280
     0
102
RTVSPost2010PropOp45
 70
     1
102
RTVSPost2010Prop46
 90
       50
102
RTVSPost2010PropOp46
 70
     1
102
RTVSPost2010Prop47
 90
       50
102
RTVSPost2010PropOp47
 70
     1
102
RTVSPost2010Prop48
 90
       50
102
RTVSPost2010PropOp48
 70
     1
102
RTVSPost2010Prop49
280
     0
102
RTVSPost2010PropOp49
 70
     1
102
RTVSPost2010Prop50
 90
       50
102
RTVSPost2010PropOp50
 70
     1
102
RTVSPost2010Prop51ColorIndex
 90
      256
102
RTVSPost2010Prop51ColorRGB
 90
-16777216
102
RTVSPost2010PropOp51
 70
     0
102
RTVSPost2010Prop52
140
1.0
102
RTVSPost2010PropOp52
 70
     0
102
RTVSPost2010Prop53
 90
        2
102
RTVSPost2010PropOp53
 70
     1
102
RTVSPost2010Prop54
  1
strokes_ogs.tif
102
RTVSPost2010PropOp54
 70
     1
102
RTVSPost2010Prop55
280
     0
102
RTVSPost2010PropOp55
 70
     1
102
RTVSPost2010Prop56
140
1.0
102
RTVSPost2010PropOp56
 70
     1
102
RTVSPost2010Prop57
140
1.0
102
RTVSPost2010PropOp57
 70
     1
  0
XRECORD
  5
316
102
{ACAD_REACTORS
330
315
102
}
330
315
100
AcDbXrecord
280
     1
102
RTVSPropertyOp0
 70
     1
102
RTVSPropertyOp1
 70
     1
102
RTVSPropertyOp2
 70
     1
102
RTVSPropertyOp3
 70
     1
102
RTVSPropertyOp4
 70
     1
102
RTVSPropertyOp5
 70
     1
102
RTVSPropertyOp6
 70
     1
102
RTVSPropertyOp7
 70
     1
102
RTVSPropertyOp8
 70
     1
102
RTVSPropertyOp9
 70
     1
102
RTVSPropertyOp10
 70
     1
102
RTVSPropertyOp11
 70
     1
102
RTVSPropertyOp12
 70
     1
102
RTVSPropertyOp13
 70
     1
102
RTVSPropertyOp14
 70
     1
102
RTVSPropertyOp15
 70
     1
102
RTVSPropertyOp16
 70
     1
102
RTVSPropertyOp17
 70
     1
102
RTVSPropertyOp18
 70
     1
102
RTVSPropertyOp19
 70
     1
102
RTVSPropertyOp20
 70
     1
102
RTVSPropertyOp21
 70
     1
102
RTVSPropertyOp22
 70
     1
102
RTVSPropertyOp23
 70
     1
102
RTVSPropertyOp24
 70
     1
102
RTVSPropertyOp25
 70
     1
102
RTVSPropertyOp26
 70
     1
102
RTVSPropertyOp27
 70
     1
102
RTVSPropertyOp28
 70
     1
102
RTVSPropertyOp29
 70
     1
102
RTVSPropertyOp30
 70
     1
102
RTVSPropertyOp31
 70
     1
102
RTVSPropertyOp32
 70
     1
102
RTVSPropertyOp33
 70
     1
102
RTVSPropertyOp34
 70
     1
102
RTVSPropertyOp35
 70
     1
102
RTVSPropertyOp36
 70
     1
102
RTVSPropertyOp37
 70
     1
102
RTVSPropertyOp38
 70
     1
102
RTVSPropertyOp39
 70
     1
102
RTVSPropertyOp40
 70
     1
102
RTVSPropertyOp41
 70
     1
102
RTVSPropertyOp42
 70
     1
102
RTVSPropertyOp43
 70
     1
102
RTVSPropertyOp44
 70
     1
102
RTVSPropertyOp45
 70
     1
102
RTVSPropertyOp46
 70
     1
102
RTVSPropertyOp47
 70
     1
102
RTVSPropertyOp48
 70
     1
102
RTVSPropertyOp49
 70
     1
102
RTVSPropertyOp50
 70
     1
102
RTVSPropertyOp51
 70
     0
102
RTVSPropertyOp52
 70
     0
102
RTVSPropertyOp53
 70
     1
102
RTVSPropertyOp54
 70
     1
102
RTVSPropertyOp55
 70
     1
102
RTVSPropertyOp56
 70
     1
102
RTVSPropertyOp57
 70
     1
102
RTVSPost2010Prop28
280
     0
102
RTVSPost2010PropOp28
 70
     1
102
RTVSPost2010Prop29
280
     1
102
RTVSPost2010PropOp29
 70
     1
102
RTVSPost2010Prop30
280
     1
102
RTVSPost2010PropOp30
 70
     1
102
RTVSPost2010Prop31
280
     0
102
RTVSPost2010PropOp31
 70
     1
102
RTVSPost2010Prop32
280
     0
102
RTVSPost2010PropOp32
 70
     1
102
RTVSPost2010Prop33
280
     0
102
RTVSPost2010PropOp33
 70
     1
102
RTVSPost2010Prop34
280
     0
102
RTVSPost2010PropOp34
 70
     1
102
RTVSPost2010Prop35
280
     0
102
RTVSPost2010PropOp35
 70
     1
102
RTVSPost2010Prop36
280
     0
102
RTVSPost2010PropOp36
 70
     1
102
RTVSPost2010Prop37
 90
       50
102
RTVSPost2010PropOp37
 70
     1
102
RTVSPost2010Prop38
140
0.0
102
RTVSPost2010PropOp38
 70
     1
102
RTVSPost2010Prop39
140
1.0
102
RTVSPost2010PropOp39
 70
     1
102
RTVSPost2010Prop40
 90
        0
102
RTVSPost2010PropOp40
 70
     1
102
RTVSPost2010Prop41ColorIndex
 90
       18
102
RTVSPost2010Prop41ColorRGB
 90
        0
102
RTVSPost2010PropOp41
 70
     1
102
RTVSPost2010Prop42
 90
       50
102
RTVSPost2010PropOp42
 70
     1
102
RTVSPost2010Prop43
 90
        3
102
RTVSPost2010PropOp43
 70
     1
102
RTVSPost2010Prop44ColorIndex
 90
        5
102
RTVSPost2010Prop44ColorRGB
 90
      255
102
RTVSPost2010PropOp44
 70
     1
102
RTVSPost2010Prop45
280
     0
102
RTVSPost2010PropOp45
 70
     1
102
RTVSPost2010Prop46
 90
       50
102
RTVSPost2010PropOp46
 70
     1
102
RTVSPost2010Prop47
 90
       50
102
RTVSPost2010PropOp47
 70
     1
102
RTVSPost2010Prop48
 90
       50
102
RTVSPost2010PropOp48
 70
     1
102
RTVSPost2010Prop49
280
     0
102
RTVSPost2010PropOp49
 70
     1
102
RTVSPost2010Prop50
 90
       50
102
RTVSPost2010PropOp50
 70
     1
102
RTVSPost2010Prop51ColorIndex
 90
      256
102
RTVSPost2010Prop51ColorRGB
 90
-16777216
102
RTVSPost2010PropOp51
 70
     0
102
RTVSPost2010Prop52
140
1.0
102
RTVSPost2010PropOp52
 70
     0
102
RTVSPost2010Prop53
 90
        2
102
RTVSPost2010PropOp53
 70
     1
102
RTVSPost2010Prop54
  1
strokes_ogs.tif
102
RTVSPost2010PropOp54
 70
     1
102
RTVSPost2010Prop55
280
     0
102
RTVSPost2010PropOp55
 70
     1
102
RTVSPost2010Prop56
140
1.0
102
RTVSPost2010PropOp56
 70
     1
102
RTVSPost2010Prop57
140
1.0
102
RTVSPost2010PropOp57
 70
     1
  0
XRECORD
  5
326
102
{ACAD_REACTORS
330
325
102
}
330
325
100
AcDbXrecord
280
     1
102
RTVSPropertyOp0
 70
     0
102
RTVSPropertyOp1
 70
     0
102
RTVSPropertyOp2
 70
     0
102
RTVSPropertyOp3
 70
     0
102
RTVSPropertyOp4
 70
     0
102
RTVSPropertyOp5
 70
     0
102
RTVSPropertyOp6
 70
     0
102
RTVSPropertyOp7
 70
     0
102
RTVSPropertyOp8
 70
     0
102
RTVSPropertyOp9
 70
     0
102
RTVSPropertyOp10
 70
     0
102
RTVSPropertyOp11
 70
     0
102
RTVSPropertyOp12
 70
     0
102
RTVSPropertyOp13
 70
     0
102
RTVSPropertyOp14
 70
     2
102
RTVSPropertyOp15
 70
     0
102
RTVSPropertyOp16
 70
     0
102
RTVSPropertyOp17
 70
     0
102
RTVSPropertyOp18
 70
     0
102
RTVSPropertyOp19
 70
     0
102
RTVSPropertyOp20
 70
     0
102
RTVSPropertyOp21
 70
     0
102
RTVSPropertyOp22
 70
     0
102
RTVSPropertyOp23
 70
     0
102
RTVSPropertyOp24
 70
     0
102
RTVSPropertyOp25
 70
     0
102
RTVSPropertyOp26
 70
     0
102
RTVSPropertyOp27
 70
     0
102
RTVSPropertyOp28
 70
     0
102
RTVSPropertyOp29
 70
     0
102
RTVSPropertyOp30
 70
     0
102
RTVSPropertyOp31
 70
     0
102
RTVSPropertyOp32
 70
     0
102
RTVSPropertyOp33
 70
     0
102
RTVSPropertyOp34
 70
     0
102
RTVSPropertyOp35
 70
     0
102
RTVSPropertyOp36
 70
     0
102
RTVSPropertyOp37
 70
     0
102
RTVSPropertyOp38
 70
     0
102
RTVSPropertyOp39
 70
     0
102
RTVSPropertyOp40
 70
     0
102
RTVSPropertyOp41
 70
     0
102
RTVSPropertyOp42
 70
     0
102
RTVSPropertyOp43
 70
     0
102
RTVSPropertyOp44
 70
     0
102
RTVSPropertyOp45
 70
     0
102
RTVSPropertyOp46
 70
     0
102
RTVSPropertyOp47
 70
     0
102
RTVSPropertyOp48
 70
     0
102
RTVSPropertyOp49
 70
     0
102
RTVSPropertyOp50
 70
     0
102
RTVSPropertyOp51
 70
     0
102
RTVSPropertyOp52
 70
     0
102
RTVSPropertyOp53
 70
     0
102
RTVSPropertyOp54
 70
     0
102
RTVSPropertyOp55
 70
     0
102
RTVSPropertyOp56
 70
     0
102
RTVSPropertyOp57
 70
     0
102
RTVSPost2010Prop28
280
     0
102
RTVSPost2010PropOp28
 70
     0
102
RTVSPost2010Prop29
280
     1
102
RTVSPost2010PropOp29
 70
     0
102
RTVSPost2010Prop30
280
     1
102
RTVSPost2010PropOp30
 70
     0
102
RTVSPost2010Prop31
280
     0
102
RTVSPost2010PropOp31
 70
     0
102
RTVSPost2010Prop32
280
     0
102
RTVSPost2010PropOp32
 70
     0
102
RTVSPost2010Prop33
280
     0
102
RTVSPost2010PropOp33
 70
     0
102
RTVSPost2010Prop34
280
     0
102
RTVSPost2010PropOp34
 70
     0
102
RTVSPost2010Prop35
280
     0
102
RTVSPost2010PropOp35
 70
     0
102
RTVSPost2010Prop36
280
     0
102
RTVSPost2010PropOp36
 70
     0
102
RTVSPost2010Prop37
 90
       50
102
RTVSPost2010PropOp37
 70
     0
102
RTVSPost2010Prop38
140
0.0
102
RTVSPost2010PropOp38
 70
     0
102
RTVSPost2010Prop39
140
1.0
102
RTVSPost2010PropOp39
 70
     0
102
RTVSPost2010Prop40
 90
        0
102
RTVSPost2010PropOp40
 70
     0
102
RTVSPost2010Prop41ColorIndex
 90
       18
102
RTVSPost2010Prop41ColorRGB
 90
        0
102
RTVSPost2010PropOp41
 70
     0
102
RTVSPost2010Prop42
 90
       50
102
RTVSPost2010PropOp42
 70
     0
102
RTVSPost2010Prop43
 90
        3
102
RTVSPost2010PropOp43
 70
     0
102
RTVSPost2010Prop44ColorIndex
 90
        5
102
RTVSPost2010Prop44ColorRGB
 90
      255
102
RTVSPost2010PropOp44
 70
     0
102
RTVSPost2010Prop45
280
     0
102
RTVSPost2010PropOp45
 70
     0
102
RTVSPost2010Prop46
 90
       50
102
RTVSPost2010PropOp46
 70
     0
102
RTVSPost2010Prop47
 90
       50
102
RTVSPost2010PropOp47
 70
     0
102
RTVSPost2010Prop48
 90
       50
102
RTVSPost2010PropOp48
 70
     0
102
RTVSPost2010Prop49
280
     0
102
RTVSPost2010PropOp49
 70
     0
102
RTVSPost2010Prop50
 90
       50
102
RTVSPost2010PropOp50
 70
     0
102
RTVSPost2010Prop51ColorIndex
 90
      256
102
RTVSPost2010Prop51ColorRGB
 90
-16777216
102
RTVSPost2010PropOp51
 70
     0
102
RTVSPost2010Prop52
140
1.0
102
RTVSPost2010PropOp52
 70
     0
102
RTVSPost2010Prop53
 90
        2
102
RTVSPost2010PropOp53
 70
     0
102
RTVSPost2010Prop54
  1
strokes_ogs.tif
102
RTVSPost2010PropOp54
 70
     0
102
RTVSPost2010Prop55
280
     0
102
RTVSPost2010PropOp55
 70
     0
102
RTVSPost2010Prop56
140
1.0
102
RTVSPost2010PropOp56
 70
     0
102
RTVSPost2010Prop57
140
1.0
102
RTVSPost2010PropOp57
 70
     0
  0
XRECORD
  5
31E
102
{ACAD_REACTORS
330
31D
102
}
330
31D
100
AcDbXrecord
280
     1
102
RTVSPropertyOp0
 70
     1
102
RTVSPropertyOp1
 70
     1
102
RTVSPropertyOp2
 70
     1
102
RTVSPropertyOp3
 70
     1
102
RTVSPropertyOp4
 70
     1
102
RTVSPropertyOp5
 70
     1
102
RTVSPropertyOp6
 70
     1
102
RTVSPropertyOp7
 70
     1
102
RTVSPropertyOp8
 70
     1
102
RTVSPropertyOp9
 70
     1
102
RTVSPropertyOp10
 70
     1
102
RTVSPropertyOp11
 70
     1
102
RTVSPropertyOp12
 70
     1
102
RTVSPropertyOp13
 70
     1
102
RTVSPropertyOp14
 70
     1
102
RTVSPropertyOp15
 70
     1
102
RTVSPropertyOp16
 70
     1
102
RTVSPropertyOp17
 70
     1
102
RTVSPropertyOp18
 70
     1
102
RTVSPropertyOp19
 70
     1
102
RTVSPropertyOp20
 70
     1
102
RTVSPropertyOp21
 70
     1
102
RTVSPropertyOp22
 70
     1
102
RTVSPropertyOp23
 70
     1
102
RTVSPropertyOp24
 70
     1
102
RTVSPropertyOp25
 70
     1
102
RTVSPropertyOp26
 70
     1
102
RTVSPropertyOp27
 70
     1
102
RTVSPropertyOp28
 70
     1
102
RTVSPropertyOp29
 70
     1
102
RTVSPropertyOp30
 70
     1
102
RTVSPropertyOp31
 70
     1
102
RTVSPropertyOp32
 70
     1
102
RTVSPropertyOp33
 70
     1
102
RTVSPropertyOp34
 70
     1
102
RTVSPropertyOp35
 70
     1
102
RTVSPropertyOp36
 70
     1
102
RTVSPropertyOp37
 70
     1
102
RTVSPropertyOp38
 70
     1
102
RTVSPropertyOp39
 70
     1
102
RTVSPropertyOp40
 70
     1
102
RTVSPropertyOp41
 70
     1
102
RTVSPropertyOp42
 70
     1
102
RTVSPropertyOp43
 70
     1
102
RTVSPropertyOp44
 70
     1
102
RTVSPropertyOp45
 70
     1
102
RTVSPropertyOp46
 70
     1
102
RTVSPropertyOp47
 70
     1
102
RTVSPropertyOp48
 70
     1
102
RTVSPropertyOp49
 70
     1
102
RTVSPropertyOp50
 70
     1
102
RTVSPropertyOp51
 70
     0
102
RTVSPropertyOp52
 70
     0
102
RTVSPropertyOp53
 70
     1
102
RTVSPropertyOp54
 70
     1
102
RTVSPropertyOp55
 70
     1
102
RTVSPropertyOp56
 70
     1
102
RTVSPropertyOp57
 70
     1
102
RTVSPost2010Prop28
280
     0
102
RTVSPost2010PropOp28
 70
     1
102
RTVSPost2010Prop29
280
     1
102
RTVSPost2010PropOp29
 70
     1
102
RTVSPost2010Prop30
280
     1
102
RTVSPost2010PropOp30
 70
     1
102
RTVSPost2010Prop31
280
     0
102
RTVSPost2010PropOp31
 70
     1
102
RTVSPost2010Prop32
280
     0
102
RTVSPost2010PropOp32
 70
     1
102
RTVSPost2010Prop33
280
     0
102
RTVSPost2010PropOp33
 70
     1
102
RTVSPost2010Prop34
280
     0
102
RTVSPost2010PropOp34
 70
     1
102
RTVSPost2010Prop35
280
     0
102
RTVSPost2010PropOp35
 70
     1
102
RTVSPost2010Prop36
280
     0
102
RTVSPost2010PropOp36
 70
     1
102
RTVSPost2010Prop37
 90
       50
102
RTVSPost2010PropOp37
 70
     1
102
RTVSPost2010Prop38
140
0.0
102
RTVSPost2010PropOp38
 70
     1
102
RTVSPost2010Prop39
140
1.0
102
RTVSPost2010PropOp39
 70
     1
102
RTVSPost2010Prop40
 90
        0
102
RTVSPost2010PropOp40
 70
     1
102
RTVSPost2010Prop41ColorIndex
 90
       18
102
RTVSPost2010Prop41ColorRGB
 90
        0
102
RTVSPost2010PropOp41
 70
     1
102
RTVSPost2010Prop42
 90
       50
102
RTVSPost2010PropOp42
 70
     1
102
RTVSPost2010Prop43
 90
        3
102
RTVSPost2010PropOp43
 70
     1
102
RTVSPost2010Prop44ColorIndex
 90
        5
102
RTVSPost2010Prop44ColorRGB
 90
      255
102
RTVSPost2010PropOp44
 70
     1
102
RTVSPost2010Prop45
280
     0
102
RTVSPost2010PropOp45
 70
     1
102
RTVSPost2010Prop46
 90
       50
102
RTVSPost2010PropOp46
 70
     1
102
RTVSPost2010Prop47
 90
       50
102
RTVSPost2010PropOp47
 70
     1
102
RTVSPost2010Prop48
 90
       50
102
RTVSPost2010PropOp48
 70
     1
102
RTVSPost2010Prop49
280
     0
102
RTVSPost2010PropOp49
 70
     1
102
RTVSPost2010Prop50
 90
       50
102
RTVSPost2010PropOp50
 70
     1
102
RTVSPost2010Prop51ColorIndex
 90
      256
102
RTVSPost2010Prop51ColorRGB
 90
-16777216
102
RTVSPost2010PropOp51
 70
     0
102
RTVSPost2010Prop52
140
1.0
102
RTVSPost2010PropOp52
 70
     0
102
RTVSPost2010Prop53
 90
        2
102
RTVSPost2010PropOp53
 70
     1
102
RTVSPost2010Prop54
  1
strokes_ogs.tif
102
RTVSPost2010PropOp54
 70
     1
102
RTVSPost2010Prop55
280
     0
102
RTVSPost2010PropOp55
 70
     1
102
RTVSPost2010Prop56
140
1.0
102
RTVSPost2010PropOp56
 70
     1
102
RTVSPost2010Prop57
140
1.0
102
RTVSPost2010PropOp57
 70
     1
  0
XRECORD
  5
302
102
{ACAD_REACTORS
330
301
102
}
330
301
100
AcDbXrecord
280
     1
102
RTVSPropertyOp0
 70
     1
102
RTVSPropertyOp1
 70
     1
102
RTVSPropertyOp2
 70
     1
102
RTVSPropertyOp3
 70
     1
102
RTVSPropertyOp4
 70
     1
102
RTVSPropertyOp5
 70
     1
102
RTVSPropertyOp6
 70
     1
102
RTVSPropertyOp7
 70
     1
102
RTVSPropertyOp8
 70
     1
102
RTVSPropertyOp9
 70
     1
102
RTVSPropertyOp10
 70
     1
102
RTVSPropertyOp11
 70
     1
102
RTVSPropertyOp12
 70
     1
102
RTVSPropertyOp13
 70
     1
102
RTVSPropertyOp14
 70
     1
102
RTVSPropertyOp15
 70
     1
102
RTVSPropertyOp16
 70
     1
102
RTVSPropertyOp17
 70
     1
102
RTVSPropertyOp18
 70
     1
102
RTVSPropertyOp19
 70
     1
102
RTVSPropertyOp20
 70
     1
102
RTVSPropertyOp21
 70
     1
102
RTVSPropertyOp22
 70
     1
102
RTVSPropertyOp23
 70
     1
102
RTVSPropertyOp24
 70
     1
102
RTVSPropertyOp25
 70
     1
102
RTVSPropertyOp26
 70
     1
102
RTVSPropertyOp27
 70
     1
102
RTVSPropertyOp28
 70
     1
102
RTVSPropertyOp29
 70
     1
102
RTVSPropertyOp30
 70
     1
102
RTVSPropertyOp31
 70
     1
102
RTVSPropertyOp32
 70
     1
102
RTVSPropertyOp33
 70
     1
102
RTVSPropertyOp34
 70
     1
102
RTVSPropertyOp35
 70
     1
102
RTVSPropertyOp36
 70
     1
102
RTVSPropertyOp37
 70
     1
102
RTVSPropertyOp38
 70
     1
102
RTVSPropertyOp39
 70
     1
102
RTVSPropertyOp40
 70
     1
102
RTVSPropertyOp41
 70
     1
102
RTVSPropertyOp42
 70
     1
102
RTVSPropertyOp43
 70
     1
102
RTVSPropertyOp44
 70
     1
102
RTVSPropertyOp45
 70
     1
102
RTVSPropertyOp46
 70
     1
102
RTVSPropertyOp47
 70
     1
102
RTVSPropertyOp48
 70
     1
102
RTVSPropertyOp49
 70
     1
102
RTVSPropertyOp50
 70
     1
102
RTVSPropertyOp51
 70
     0
102
RTVSPropertyOp52
 70
     0
102
RTVSPropertyOp53
 70
     1
102
RTVSPropertyOp54
 70
     1
102
RTVSPropertyOp55
 70
     1
102
RTVSPropertyOp56
 70
     1
102
RTVSPropertyOp57
 70
     1
102
RTVSPost2010Prop28
280
     0
102
RTVSPost2010PropOp28
 70
     1
102
RTVSPost2010Prop29
280
     1
102
RTVSPost2010PropOp29
 70
     1
102
RTVSPost2010Prop30
280
     1
102
RTVSPost2010PropOp30
 70
     1
102
RTVSPost2010Prop31
280
     0
102
RTVSPost2010PropOp31
 70
     1
102
RTVSPost2010Prop32
280
     0
102
RTVSPost2010PropOp32
 70
     1
102
RTVSPost2010Prop33
280
     0
102
RTVSPost2010PropOp33
 70
     1
102
RTVSPost2010Prop34
280
     0
102
RTVSPost2010PropOp34
 70
     1
102
RTVSPost2010Prop35
280
     0
102
RTVSPost2010PropOp35
 70
     1
102
RTVSPost2010Prop36
280
     0
102
RTVSPost2010PropOp36
 70
     1
102
RTVSPost2010Prop37
 90
       50
102
RTVSPost2010PropOp37
 70
     1
102
RTVSPost2010Prop38
140
0.0
102
RTVSPost2010PropOp38
 70
     1
102
RTVSPost2010Prop39
140
1.0
102
RTVSPost2010PropOp39
 70
     1
102
RTVSPost2010Prop40
 90
        0
102
RTVSPost2010PropOp40
 70
     1
102
RTVSPost2010Prop41ColorIndex
 90
       18
102
RTVSPost2010Prop41ColorRGB
 90
        0
102
RTVSPost2010PropOp41
 70
     1
102
RTVSPost2010Prop42
 90
       50
102
RTVSPost2010PropOp42
 70
     1
102
RTVSPost2010Prop43
 90
        3
102
RTVSPost2010PropOp43
 70
     1
102
RTVSPost2010Prop44ColorIndex
 90
        5
102
RTVSPost2010Prop44ColorRGB
 90
      255
102
RTVSPost2010PropOp44
 70
     1
102
RTVSPost2010Prop45
280
     0
102
RTVSPost2010PropOp45
 70
     1
102
RTVSPost2010Prop46
 90
       50
102
RTVSPost2010PropOp46
 70
     1
102
RTVSPost2010Prop47
 90
       50
102
RTVSPost2010PropOp47
 70
     1
102
RTVSPost2010Prop48
 90
       50
102
RTVSPost2010PropOp48
 70
     1
102
RTVSPost2010Prop49
280
     0
102
RTVSPost2010PropOp49
 70
     1
102
RTVSPost2010Prop50
 90
       50
102
RTVSPost2010PropOp50
 70
     1
102
RTVSPost2010Prop51ColorIndex
 90
      256
102
RTVSPost2010Prop51ColorRGB
 90
-16777216
102
RTVSPost2010PropOp51
 70
     0
102
RTVSPost2010Prop52
140
1.0
102
RTVSPost2010PropOp52
 70
     0
102
RTVSPost2010Prop53
 90
        2
102
RTVSPost2010PropOp53
 70
     1
102
RTVSPost2010Prop54
  1
strokes_ogs.tif
102
RTVSPost2010PropOp54
 70
     1
102
RTVSPost2010Prop55
280
     0
102
RTVSPost2010PropOp55
 70
     1
102
RTVSPost2010Prop56
140
1.0
102
RTVSPost2010PropOp56
 70
     1
102
RTVSPost2010Prop57
140
1.0
102
RTVSPost2010PropOp57
 70
     1
  0
XRECORD
  5
304
102
{ACAD_REACTORS
330
303
102
}
330
303
100
AcDbXrecord
280
     1
102
RTVSPropertyOp0
 70
     1
102
RTVSPropertyOp1
 70
     1
102
RTVSPropertyOp2
 70
     1
102
RTVSPropertyOp3
 70
     1
102
RTVSPropertyOp4
 70
     1
102
RTVSPropertyOp5
 70
     1
102
RTVSPropertyOp6
 70
     1
102
RTVSPropertyOp7
 70
     1
102
RTVSPropertyOp8
 70
     1
102
RTVSPropertyOp9
 70
     1
102
RTVSPropertyOp10
 70
     1
102
RTVSPropertyOp11
 70
     1
102
RTVSPropertyOp12
 70
     1
102
RTVSPropertyOp13
 70
     1
102
RTVSPropertyOp14
 70
     1
102
RTVSPropertyOp15
 70
     1
102
RTVSPropertyOp16
 70
     1
102
RTVSPropertyOp17
 70
     1
102
RTVSPropertyOp18
 70
     1
102
RTVSPropertyOp19
 70
     1
102
RTVSPropertyOp20
 70
     1
102
RTVSPropertyOp21
 70
     1
102
RTVSPropertyOp22
 70
     1
102
RTVSPropertyOp23
 70
     1
102
RTVSPropertyOp24
 70
     1
102
RTVSPropertyOp25
 70
     1
102
RTVSPropertyOp26
 70
     1
102
RTVSPropertyOp27
 70
     1
102
RTVSPropertyOp28
 70
     1
102
RTVSPropertyOp29
 70
     1
102
RTVSPropertyOp30
 70
     1
102
RTVSPropertyOp31
 70
     1
102
RTVSPropertyOp32
 70
     1
102
RTVSPropertyOp33
 70
     1
102
RTVSPropertyOp34
 70
     1
102
RTVSPropertyOp35
 70
     1
102
RTVSPropertyOp36
 70
     1
102
RTVSPropertyOp37
 70
     1
102
RTVSPropertyOp38
 70
     1
102
RTVSPropertyOp39
 70
     1
102
RTVSPropertyOp40
 70
     1
102
RTVSPropertyOp41
 70
     1
102
RTVSPropertyOp42
 70
     1
102
RTVSPropertyOp43
 70
     1
102
RTVSPropertyOp44
 70
     1
102
RTVSPropertyOp45
 70
     1
102
RTVSPropertyOp46
 70
     1
102
RTVSPropertyOp47
 70
     1
102
RTVSPropertyOp48
 70
     1
102
RTVSPropertyOp49
 70
     1
102
RTVSPropertyOp50
 70
     1
102
RTVSPropertyOp51
 70
     0
102
RTVSPropertyOp52
 70
     0
102
RTVSPropertyOp53
 70
     1
102
RTVSPropertyOp54
 70
     1
102
RTVSPropertyOp55
 70
     1
102
RTVSPropertyOp56
 70
     1
102
RTVSPropertyOp57
 70
     1
102
RTVSPost2010Prop28
280
     0
102
RTVSPost2010PropOp28
 70
     1
102
RTVSPost2010Prop29
280
     1
102
RTVSPost2010PropOp29
 70
     1
102
RTVSPost2010Prop30
280
     1
102
RTVSPost2010PropOp30
 70
     1
102
RTVSPost2010Prop31
280
     0
102
RTVSPost2010PropOp31
 70
     1
102
RTVSPost2010Prop32
280
     0
102
RTVSPost2010PropOp32
 70
     1
102
RTVSPost2010Prop33
280
     0
102
RTVSPost2010PropOp33
 70
     1
102
RTVSPost2010Prop34
280
     0
102
RTVSPost2010PropOp34
 70
     1
102
RTVSPost2010Prop35
280
     0
102
RTVSPost2010PropOp35
 70
     1
102
RTVSPost2010Prop36
280
     0
102
RTVSPost2010PropOp36
 70
     1
102
RTVSPost2010Prop37
 90
       50
102
RTVSPost2010PropOp37
 70
     1
102
RTVSPost2010Prop38
140
0.0
102
RTVSPost2010PropOp38
 70
     1
102
RTVSPost2010Prop39
140
1.0
102
RTVSPost2010PropOp39
 70
     1
102
RTVSPost2010Prop40
 90
        0
102
RTVSPost2010PropOp40
 70
     1
102
RTVSPost2010Prop41ColorIndex
 90
       18
102
RTVSPost2010Prop41ColorRGB
 90
        0
102
RTVSPost2010PropOp41
 70
     1
102
RTVSPost2010Prop42
 90
       50
102
RTVSPost2010PropOp42
 70
     1
102
RTVSPost2010Prop43
 90
        3
102
RTVSPost2010PropOp43
 70
     1
102
RTVSPost2010Prop44ColorIndex
 90
        5
102
RTVSPost2010Prop44ColorRGB
 90
      255
102
RTVSPost2010PropOp44
 70
     1
102
RTVSPost2010Prop45
280
     0
102
RTVSPost2010PropOp45
 70
     1
102
RTVSPost2010Prop46
 90
       50
102
RTVSPost2010PropOp46
 70
     1
102
RTVSPost2010Prop47
 90
       50
102
RTVSPost2010PropOp47
 70
     1
102
RTVSPost2010Prop48
 90
       50
102
RTVSPost2010PropOp48
 70
     1
102
RTVSPost2010Prop49
280
     0
102
RTVSPost2010PropOp49
 70
     1
102
RTVSPost2010Prop50
 90
       50
102
RTVSPost2010PropOp50
 70
     1
102
RTVSPost2010Prop51ColorIndex
 90
      256
102
RTVSPost2010Prop51ColorRGB
 90
-16777216
102
RTVSPost2010PropOp51
 70
     0
102
RTVSPost2010Prop52
140
1.0
102
RTVSPost2010PropOp52
 70
     0
102
RTVSPost2010Prop53
 90
        2
102
RTVSPost2010PropOp53
 70
     1
102
RTVSPost2010Prop54
  1
strokes_ogs.tif
102
RTVSPost2010PropOp54
 70
     1
102
RTVSPost2010Prop55
280
     0
102
RTVSPost2010PropOp55
 70
     1
102
RTVSPost2010Prop56
140
1.0
102
RTVSPost2010PropOp56
 70
     1
102
RTVSPost2010Prop57
140
1.0
102
RTVSPost2010PropOp57
 70
     1
  0
XRECORD
  5
306
102
{ACAD_REACTORS
330
305
102
}
330
305
100
AcDbXrecord
280
     1
102
RTVSPropertyOp0
 70
     1
102
RTVSPropertyOp1
 70
     1
102
RTVSPropertyOp2
 70
     1
102
RTVSPropertyOp3
 70
     1
102
RTVSPropertyOp4
 70
     1
102
RTVSPropertyOp5
 70
     1
102
RTVSPropertyOp6
 70
     1
102
RTVSPropertyOp7
 70
     1
102
RTVSPropertyOp8
 70
     1
102
RTVSPropertyOp9
 70
     1
102
RTVSPropertyOp10
 70
     1
102
RTVSPropertyOp11
 70
     1
102
RTVSPropertyOp12
 70
     1
102
RTVSPropertyOp13
 70
     1
102
RTVSPropertyOp14
 70
     1
102
RTVSPropertyOp15
 70
     1
102
RTVSPropertyOp16
 70
     1
102
RTVSPropertyOp17
 70
     1
102
RTVSPropertyOp18
 70
     1
102
RTVSPropertyOp19
 70
     1
102
RTVSPropertyOp20
 70
     1
102
RTVSPropertyOp21
 70
     1
102
RTVSPropertyOp22
 70
     1
102
RTVSPropertyOp23
 70
     1
102
RTVSPropertyOp24
 70
     1
102
RTVSPropertyOp25
 70
     1
102
RTVSPropertyOp26
 70
     1
102
RTVSPropertyOp27
 70
     1
102
RTVSPropertyOp28
 70
     1
102
RTVSPropertyOp29
 70
     1
102
RTVSPropertyOp30
 70
     1
102
RTVSPropertyOp31
 70
     1
102
RTVSPropertyOp32
 70
     1
102
RTVSPropertyOp33
 70
     1
102
RTVSPropertyOp34
 70
     1
102
RTVSPropertyOp35
 70
     1
102
RTVSPropertyOp36
 70
     1
102
RTVSPropertyOp37
 70
     1
102
RTVSPropertyOp38
 70
     1
102
RTVSPropertyOp39
 70
     1
102
RTVSPropertyOp40
 70
     1
102
RTVSPropertyOp41
 70
     1
102
RTVSPropertyOp42
 70
     1
102
RTVSPropertyOp43
 70
     1
102
RTVSPropertyOp44
 70
     1
102
RTVSPropertyOp45
 70
     1
102
RTVSPropertyOp46
 70
     1
102
RTVSPropertyOp47
 70
     1
102
RTVSPropertyOp48
 70
     1
102
RTVSPropertyOp49
 70
     1
102
RTVSPropertyOp50
 70
     1
102
RTVSPropertyOp51
 70
     0
102
RTVSPropertyOp52
 70
     0
102
RTVSPropertyOp53
 70
     1
102
RTVSPropertyOp54
 70
     1
102
RTVSPropertyOp55
 70
     1
102
RTVSPropertyOp56
 70
     1
102
RTVSPropertyOp57
 70
     1
102
RTVSPost2010Prop28
280
     0
102
RTVSPost2010PropOp28
 70
     1
102
RTVSPost2010Prop29
280
     1
102
RTVSPost2010PropOp29
 70
     1
102
RTVSPost2010Prop30
280
     1
102
RTVSPost2010PropOp30
 70
     1
102
RTVSPost2010Prop31
280
     0
102
RTVSPost2010PropOp31
 70
     1
102
RTVSPost2010Prop32
280
     0
102
RTVSPost2010PropOp32
 70
     1
102
RTVSPost2010Prop33
280
     0
102
RTVSPost2010PropOp33
 70
     1
102
RTVSPost2010Prop34
280
     0
102
RTVSPost2010PropOp34
 70
     1
102
RTVSPost2010Prop35
280
     0
102
RTVSPost2010PropOp35
 70
     1
102
RTVSPost2010Prop36
280
     0
102
RTVSPost2010PropOp36
 70
     1
102
RTVSPost2010Prop37
 90
       50
102
RTVSPost2010PropOp37
 70
     1
102
RTVSPost2010Prop38
140
0.0
102
RTVSPost2010PropOp38
 70
     1
102
RTVSPost2010Prop39
140
1.0
102
RTVSPost2010PropOp39
 70
     1
102
RTVSPost2010Prop40
 90
        0
102
RTVSPost2010PropOp40
 70
     1
102
RTVSPost2010Prop41ColorIndex
 90
       18
102
RTVSPost2010Prop41ColorRGB
 90
        0
102
RTVSPost2010PropOp41
 70
     1
102
RTVSPost2010Prop42
 90
       50
102
RTVSPost2010PropOp42
 70
     1
102
RTVSPost2010Prop43
 90
        3
102
RTVSPost2010PropOp43
 70
     1
102
RTVSPost2010Prop44ColorIndex
 90
        5
102
RTVSPost2010Prop44ColorRGB
 90
      255
102
RTVSPost2010PropOp44
 70
     1
102
RTVSPost2010Prop45
280
     0
102
RTVSPost2010PropOp45
 70
     1
102
RTVSPost2010Prop46
 90
       50
102
RTVSPost2010PropOp46
 70
     1
102
RTVSPost2010Prop47
 90
       50
102
RTVSPost2010PropOp47
 70
     1
102
RTVSPost2010Prop48
 90
       50
102
RTVSPost2010PropOp48
 70
     1
102
RTVSPost2010Prop49
280
     0
102
RTVSPost2010PropOp49
 70
     1
102
RTVSPost2010Prop50
 90
       50
102
RTVSPost2010PropOp50
 70
     1
102
RTVSPost2010Prop51ColorIndex
 90
      256
102
RTVSPost2010Prop51ColorRGB
 90
-16777216
102
RTVSPost2010PropOp51
 70
     0
102
RTVSPost2010Prop52
140
1.0
102
RTVSPost2010PropOp52
 70
     0
102
RTVSPost2010Prop53
 90
        2
102
RTVSPost2010PropOp53
 70
     1
102
RTVSPost2010Prop54
  1
strokes_ogs.tif
102
RTVSPost2010PropOp54
 70
     1
102
RTVSPost2010Prop55
280
     0
102
RTVSPost2010PropOp55
 70
     1
102
RTVSPost2010Prop56
140
1.0
102
RTVSPost2010PropOp56
 70
     1
102
RTVSPost2010Prop57
140
1.0
102
RTVSPost2010PropOp57
 70
     1
  0
XRECORD
  5
308
102
{ACAD_REACTORS
330
307
102
}
330
307
100
AcDbXrecord
280
     1
102
RTVSPropertyOp0
 70
     1
102
RTVSPropertyOp1
 70
     1
102
RTVSPropertyOp2
 70
     1
102
RTVSPropertyOp3
 70
     1
102
RTVSPropertyOp4
 70
     1
102
RTVSPropertyOp5
 70
     1
102
RTVSPropertyOp6
 70
     1
102
RTVSPropertyOp7
 70
     1
102
RTVSPropertyOp8
 70
     1
102
RTVSPropertyOp9
 70
     1
102
RTVSPropertyOp10
 70
     1
102
RTVSPropertyOp11
 70
     1
102
RTVSPropertyOp12
 70
     1
102
RTVSPropertyOp13
 70
     1
102
RTVSPropertyOp14
 70
     1
102
RTVSPropertyOp15
 70
     1
102
RTVSPropertyOp16
 70
     1
102
RTVSPropertyOp17
 70
     1
102
RTVSPropertyOp18
 70
     1
102
RTVSPropertyOp19
 70
     1
102
RTVSPropertyOp20
 70
     1
102
RTVSPropertyOp21
 70
     1
102
RTVSPropertyOp22
 70
     1
102
RTVSPropertyOp23
 70
     1
102
RTVSPropertyOp24
 70
     1
102
RTVSPropertyOp25
 70
     1
102
RTVSPropertyOp26
 70
     1
102
RTVSPropertyOp27
 70
     1
102
RTVSPropertyOp28
 70
     1
102
RTVSPropertyOp29
 70
     1
102
RTVSPropertyOp30
 70
     1
102
RTVSPropertyOp31
 70
     1
102
RTVSPropertyOp32
 70
     1
102
RTVSPropertyOp33
 70
     1
102
RTVSPropertyOp34
 70
     1
102
RTVSPropertyOp35
 70
     1
102
RTVSPropertyOp36
 70
     1
102
RTVSPropertyOp37
 70
     1
102
RTVSPropertyOp38
 70
     1
102
RTVSPropertyOp39
 70
     1
102
RTVSPropertyOp40
 70
     1
102
RTVSPropertyOp41
 70
     1
102
RTVSPropertyOp42
 70
     1
102
RTVSPropertyOp43
 70
     1
102
RTVSPropertyOp44
 70
     1
102
RTVSPropertyOp45
 70
     1
102
RTVSPropertyOp46
 70
     1
102
RTVSPropertyOp47
 70
     1
102
RTVSPropertyOp48
 70
     1
102
RTVSPropertyOp49
 70
     1
102
RTVSPropertyOp50
 70
     1
102
RTVSPropertyOp51
 70
     0
102
RTVSPropertyOp52
 70
     0
102
RTVSPropertyOp53
 70
     1
102
RTVSPropertyOp54
 70
     1
102
RTVSPropertyOp55
 70
     1
102
RTVSPropertyOp56
 70
     1
102
RTVSPropertyOp57
 70
     1
102
RTVSPost2010Prop28
280
     0
102
RTVSPost2010PropOp28
 70
     1
102
RTVSPost2010Prop29
280
     1
102
RTVSPost2010PropOp29
 70
     1
102
RTVSPost2010Prop30
280
     1
102
RTVSPost2010PropOp30
 70
     1
102
RTVSPost2010Prop31
280
     0
102
RTVSPost2010PropOp31
 70
     1
102
RTVSPost2010Prop32
280
     0
102
RTVSPost2010PropOp32
 70
     1
102
RTVSPost2010Prop33
280
     0
102
RTVSPost2010PropOp33
 70
     1
102
RTVSPost2010Prop34
280
     0
102
RTVSPost2010PropOp34
 70
     1
102
RTVSPost2010Prop35
280
     0
102
RTVSPost2010PropOp35
 70
     1
102
RTVSPost2010Prop36
280
     0
102
RTVSPost2010PropOp36
 70
     1
102
RTVSPost2010Prop37
 90
       50
102
RTVSPost2010PropOp37
 70
     1
102
RTVSPost2010Prop38
140
0.0
102
RTVSPost2010PropOp38
 70
     1
102
RTVSPost2010Prop39
140
1.0
102
RTVSPost2010PropOp39
 70
     1
102
RTVSPost2010Prop40
 90
        0
102
RTVSPost2010PropOp40
 70
     1
102
RTVSPost2010Prop41ColorIndex
 90
       18
102
RTVSPost2010Prop41ColorRGB
 90
        0
102
RTVSPost2010PropOp41
 70
     1
102
RTVSPost2010Prop42
 90
       50
102
RTVSPost2010PropOp42
 70
     1
102
RTVSPost2010Prop43
 90
        3
102
RTVSPost2010PropOp43
 70
     1
102
RTVSPost2010Prop44ColorIndex
 90
        5
102
RTVSPost2010Prop44ColorRGB
 90
      255
102
RTVSPost2010PropOp44
 70
     1
102
RTVSPost2010Prop45
280
     0
102
RTVSPost2010PropOp45
 70
     1
102
RTVSPost2010Prop46
 90
       50
102
RTVSPost2010PropOp46
 70
     1
102
RTVSPost2010Prop47
 90
       50
102
RTVSPost2010PropOp47
 70
     1
102
RTVSPost2010Prop48
 90
       50
102
RTVSPost2010PropOp48
 70
     1
102
RTVSPost2010Prop49
280
     0
102
RTVSPost2010PropOp49
 70
     1
102
RTVSPost2010Prop50
 90
       50
102
RTVSPost2010PropOp50
 70
     1
102
RTVSPost2010Prop51ColorIndex
 90
      256
102
RTVSPost2010Prop51ColorRGB
 90
-16777216
102
RTVSPost2010PropOp51
 70
     0
102
RTVSPost2010Prop52
140
1.0
102
RTVSPost2010PropOp52
 70
     0
102
RTVSPost2010Prop53
 90
        2
102
RTVSPost2010PropOp53
 70
     1
102
RTVSPost2010Prop54
  1
strokes_ogs.tif
102
RTVSPost2010PropOp54
 70
     1
102
RTVSPost2010Prop55
280
     0
102
RTVSPost2010PropOp55
 70
     1
102
RTVSPost2010Prop56
140
1.0
102
RTVSPost2010PropOp56
 70
     1
102
RTVSPost2010Prop57
140
1.0
102
RTVSPost2010PropOp57
 70
     1
  0
XRECORD
  5
30E
102
{ACAD_REACTORS
330
30D
102
}
330
30D
100
AcDbXrecord
280
     1
102
RTVSPropertyOp0
 70
     1
102
RTVSPropertyOp1
 70
     1
102
RTVSPropertyOp2
 70
     1
102
RTVSPropertyOp3
 70
     1
102
RTVSPropertyOp4
 70
     1
102
RTVSPropertyOp5
 70
     1
102
RTVSPropertyOp6
 70
     1
102
RTVSPropertyOp7
 70
     1
102
RTVSPropertyOp8
 70
     1
102
RTVSPropertyOp9
 70
     1
102
RTVSPropertyOp10
 70
     1
102
RTVSPropertyOp11
 70
     1
102
RTVSPropertyOp12
 70
     1
102
RTVSPropertyOp13
 70
     1
102
RTVSPropertyOp14
 70
     1
102
RTVSPropertyOp15
 70
     1
102
RTVSPropertyOp16
 70
     1
102
RTVSPropertyOp17
 70
     1
102
RTVSPropertyOp18
 70
     1
102
RTVSPropertyOp19
 70
     1
102
RTVSPropertyOp20
 70
     1
102
RTVSPropertyOp21
 70
     1
102
RTVSPropertyOp22
 70
     1
102
RTVSPropertyOp23
 70
     1
102
RTVSPropertyOp24
 70
     1
102
RTVSPropertyOp25
 70
     1
102
RTVSPropertyOp26
 70
     1
102
RTVSPropertyOp27
 70
     1
102
RTVSPropertyOp28
 70
     1
102
RTVSPropertyOp29
 70
     1
102
RTVSPropertyOp30
 70
     1
102
RTVSPropertyOp31
 70
     1
102
RTVSPropertyOp32
 70
     1
102
RTVSPropertyOp33
 70
     1
102
RTVSPropertyOp34
 70
     1
102
RTVSPropertyOp35
 70
     1
102
RTVSPropertyOp36
 70
     1
102
RTVSPropertyOp37
 70
     1
102
RTVSPropertyOp38
 70
     1
102
RTVSPropertyOp39
 70
     1
102
RTVSPropertyOp40
 70
     1
102
RTVSPropertyOp41
 70
     1
102
RTVSPropertyOp42
 70
     1
102
RTVSPropertyOp43
 70
     1
102
RTVSPropertyOp44
 70
     1
102
RTVSPropertyOp45
 70
     1
102
RTVSPropertyOp46
 70
     1
102
RTVSPropertyOp47
 70
     1
102
RTVSPropertyOp48
 70
     1
102
RTVSPropertyOp49
 70
     1
102
RTVSPropertyOp50
 70
     1
102
RTVSPropertyOp51
 70
     0
102
RTVSPropertyOp52
 70
     0
102
RTVSPropertyOp53
 70
     1
102
RTVSPropertyOp54
 70
     1
102
RTVSPropertyOp55
 70
     1
102
RTVSPropertyOp56
 70
     1
102
RTVSPropertyOp57
 70
     1
102
RTVSPost2010Prop28
280
     0
102
RTVSPost2010PropOp28
 70
     1
102
RTVSPost2010Prop29
280
     1
102
RTVSPost2010PropOp29
 70
     1
102
RTVSPost2010Prop30
280
     1
102
RTVSPost2010PropOp30
 70
     1
102
RTVSPost2010Prop31
280
     0
102
RTVSPost2010PropOp31
 70
     1
102
RTVSPost2010Prop32
280
     0
102
RTVSPost2010PropOp32
 70
     1
102
RTVSPost2010Prop33
280
     0
102
RTVSPost2010PropOp33
 70
     1
102
RTVSPost2010Prop34
280
     0
102
RTVSPost2010PropOp34
 70
     1
102
RTVSPost2010Prop35
280
     0
102
RTVSPost2010PropOp35
 70
     1
102
RTVSPost2010Prop36
280
     0
102
RTVSPost2010PropOp36
 70
     1
102
RTVSPost2010Prop37
 90
       50
102
RTVSPost2010PropOp37
 70
     1
102
RTVSPost2010Prop38
140
0.0
102
RTVSPost2010PropOp38
 70
     1
102
RTVSPost2010Prop39
140
1.0
102
RTVSPost2010PropOp39
 70
     1
102
RTVSPost2010Prop40
 90
        0
102
RTVSPost2010PropOp40
 70
     1
102
RTVSPost2010Prop41ColorIndex
 90
       18
102
RTVSPost2010Prop41ColorRGB
 90
        0
102
RTVSPost2010PropOp41
 70
     1
102
RTVSPost2010Prop42
 90
       50
102
RTVSPost2010PropOp42
 70
     1
102
RTVSPost2010Prop43
 90
        3
102
RTVSPost2010PropOp43
 70
     1
102
RTVSPost2010Prop44ColorIndex
 90
        5
102
RTVSPost2010Prop44ColorRGB
 90
      255
102
RTVSPost2010PropOp44
 70
     1
102
RTVSPost2010Prop45
280
     0
102
RTVSPost2010PropOp45
 70
     1
102
RTVSPost2010Prop46
 90
       50
102
RTVSPost2010PropOp46
 70
     1
102
RTVSPost2010Prop47
 90
       50
102
RTVSPost2010PropOp47
 70
     1
102
RTVSPost2010Prop48
 90
       50
102
RTVSPost2010PropOp48
 70
     1
102
RTVSPost2010Prop49
280
     0
102
RTVSPost2010PropOp49
 70
     1
102
RTVSPost2010Prop50
 90
       50
102
RTVSPost2010PropOp50
 70
     1
102
RTVSPost2010Prop51ColorIndex
 90
      256
102
RTVSPost2010Prop51ColorRGB
 90
-16777216
102
RTVSPost2010PropOp51
 70
     0
102
RTVSPost2010Prop52
140
1.0
102
RTVSPost2010PropOp52
 70
     0
102
RTVSPost2010Prop53
 90
        2
102
RTVSPost2010PropOp53
 70
     1
102
RTVSPost2010Prop54
  1
strokes_ogs.tif
102
RTVSPost2010PropOp54
 70
     1
102
RTVSPost2010Prop55
280
     0
102
RTVSPost2010PropOp55
 70
     1
102
RTVSPost2010Prop56
140
1.0
102
RTVSPost2010PropOp56
 70
     1
102
RTVSPost2010Prop57
140
1.0
102
RTVSPost2010PropOp57
 70
     1
  0
XRECORD
  5
322
102
{ACAD_REACTORS
330
321
102
}
330
321
100
AcDbXrecord
280
     1
102
RTVSPropertyOp0
 70
     0
102
RTVSPropertyOp1
 70
     0
102
RTVSPropertyOp2
 70
     0
102
RTVSPropertyOp3
 70
     0
102
RTVSPropertyOp4
 70
     0
102
RTVSPropertyOp5
 70
     0
102
RTVSPropertyOp6
 70
     0
102
RTVSPropertyOp7
 70
     0
102
RTVSPropertyOp8
 70
     0
102
RTVSPropertyOp9
 70
     0
102
RTVSPropertyOp10
 70
     0
102
RTVSPropertyOp11
 70
     0
102
RTVSPropertyOp12
 70
     0
102
RTVSPropertyOp13
 70
     0
102
RTVSPropertyOp14
 70
     2
102
RTVSPropertyOp15
 70
     0
102
RTVSPropertyOp16
 70
     0
102
RTVSPropertyOp17
 70
     0
102
RTVSPropertyOp18
 70
     0
102
RTVSPropertyOp19
 70
     0
102
RTVSPropertyOp20
 70
     0
102
RTVSPropertyOp21
 70
     0
102
RTVSPropertyOp22
 70
     0
102
RTVSPropertyOp23
 70
     0
102
RTVSPropertyOp24
 70
     0
102
RTVSPropertyOp25
 70
     0
102
RTVSPropertyOp26
 70
     0
102
RTVSPropertyOp27
 70
     0
102
RTVSPropertyOp28
 70
     0
102
RTVSPropertyOp29
 70
     0
102
RTVSPropertyOp30
 70
     0
102
RTVSPropertyOp31
 70
     0
102
RTVSPropertyOp32
 70
     0
102
RTVSPropertyOp33
 70
     0
102
RTVSPropertyOp34
 70
     0
102
RTVSPropertyOp35
 70
     0
102
RTVSPropertyOp36
 70
     0
102
RTVSPropertyOp37
 70
     0
102
RTVSPropertyOp38
 70
     0
102
RTVSPropertyOp39
 70
     0
102
RTVSPropertyOp40
 70
     0
102
RTVSPropertyOp41
 70
     0
102
RTVSPropertyOp42
 70
     0
102
RTVSPropertyOp43
 70
     0
102
RTVSPropertyOp44
 70
     0
102
RTVSPropertyOp45
 70
     0
102
RTVSPropertyOp46
 70
     0
102
RTVSPropertyOp47
 70
     0
102
RTVSPropertyOp48
 70
     0
102
RTVSPropertyOp49
 70
     0
102
RTVSPropertyOp50
 70
     0
102
RTVSPropertyOp51
 70
     0
102
RTVSPropertyOp52
 70
     0
102
RTVSPropertyOp53
 70
     0
102
RTVSPropertyOp54
 70
     0
102
RTVSPropertyOp55
 70
     0
102
RTVSPropertyOp56
 70
     0
102
RTVSPropertyOp57
 70
     0
102
RTVSPost2010Prop28
280
     0
102
RTVSPost2010PropOp28
 70
     0
102
RTVSPost2010Prop29
280
     1
102
RTVSPost2010PropOp29
 70
     0
102
RTVSPost2010Prop30
280
     1
102
RTVSPost2010PropOp30
 70
     0
102
RTVSPost2010Prop31
280
     0
102
RTVSPost2010PropOp31
 70
     0
102
RTVSPost2010Prop32
280
     0
102
RTVSPost2010PropOp32
 70
     0
102
RTVSPost2010Prop33
280
     0
102
RTVSPost2010PropOp33
 70
     0
102
RTVSPost2010Prop34
280
     0
102
RTVSPost2010PropOp34
 70
     0
102
RTVSPost2010Prop35
280
     0
102
RTVSPost2010PropOp35
 70
     0
102
RTVSPost2010Prop36
280
     0
102
RTVSPost2010PropOp36
 70
     0
102
RTVSPost2010Prop37
 90
       50
102
RTVSPost2010PropOp37
 70
     0
102
RTVSPost2010Prop38
140
0.0
102
RTVSPost2010PropOp38
 70
     0
102
RTVSPost2010Prop39
140
1.0
102
RTVSPost2010PropOp39
 70
     0
102
RTVSPost2010Prop40
 90
        0
102
RTVSPost2010PropOp40
 70
     0
102
RTVSPost2010Prop41ColorIndex
 90
       18
102
RTVSPost2010Prop41ColorRGB
 90
        0
102
RTVSPost2010PropOp41
 70
     0
102
RTVSPost2010Prop42
 90
       50
102
RTVSPost2010PropOp42
 70
     0
102
RTVSPost2010Prop43
 90
        3
102
RTVSPost2010PropOp43
 70
     0
102
RTVSPost2010Prop44ColorIndex
 90
        5
102
RTVSPost2010Prop44ColorRGB
 90
      255
102
RTVSPost2010PropOp44
 70
     0
102
RTVSPost2010Prop45
280
     0
102
RTVSPost2010PropOp45
 70
     0
102
RTVSPost2010Prop46
 90
       50
102
RTVSPost2010PropOp46
 70
     0
102
RTVSPost2010Prop47
 90
       50
102
RTVSPost2010PropOp47
 70
     0
102
RTVSPost2010Prop48
 90
       50
102
RTVSPost2010PropOp48
 70
     0
102
RTVSPost2010Prop49
280
     0
102
RTVSPost2010PropOp49
 70
     0
102
RTVSPost2010Prop50
 90
       50
102
RTVSPost2010PropOp50
 70
     0
102
RTVSPost2010Prop51ColorIndex
 90
      256
102
RTVSPost2010Prop51ColorRGB
 90
-16777216
102
RTVSPost2010PropOp51
 70
     0
102
RTVSPost2010Prop52
140
1.0
102
RTVSPost2010PropOp52
 70
     0
102
RTVSPost2010Prop53
 90
        2
102
RTVSPost2010PropOp53
 70
     0
102
RTVSPost2010Prop54
  1
strokes_ogs.tif
102
RTVSPost2010PropOp54
 70
     0
102
RTVSPost2010Prop55
280
     0
102
RTVSPost2010PropOp55
 70
     0
102
RTVSPost2010Prop56
140
1.0
102
RTVSPost2010PropOp56
 70
     0
102
RTVSPost2010Prop57
140
1.0
102
RTVSPost2010PropOp57
 70
     0
  0
XRECORD
  5
31C
102
{ACAD_REACTORS
330
31B
102
}
330
31B
100
AcDbXrecord
280
     1
102
RTVSPropertyOp0
 70
     1
102
RTVSPropertyOp1
 70
     1
102
RTVSPropertyOp2
 70
     1
102
RTVSPropertyOp3
 70
     1
102
RTVSPropertyOp4
 70
     1
102
RTVSPropertyOp5
 70
     1
102
RTVSPropertyOp6
 70
     1
102
RTVSPropertyOp7
 70
     1
102
RTVSPropertyOp8
 70
     1
102
RTVSPropertyOp9
 70
     1
102
RTVSPropertyOp10
 70
     1
102
RTVSPropertyOp11
 70
     1
102
RTVSPropertyOp12
 70
     1
102
RTVSPropertyOp13
 70
     1
102
RTVSPropertyOp14
 70
     1
102
RTVSPropertyOp15
 70
     1
102
RTVSPropertyOp16
 70
     1
102
RTVSPropertyOp17
 70
     1
102
RTVSPropertyOp18
 70
     1
102
RTVSPropertyOp19
 70
     1
102
RTVSPropertyOp20
 70
     1
102
RTVSPropertyOp21
 70
     1
102
RTVSPropertyOp22
 70
     1
102
RTVSPropertyOp23
 70
     1
102
RTVSPropertyOp24
 70
     1
102
RTVSPropertyOp25
 70
     1
102
RTVSPropertyOp26
 70
     1
102
RTVSPropertyOp27
 70
     1
102
RTVSPropertyOp28
 70
     1
102
RTVSPropertyOp29
 70
     1
102
RTVSPropertyOp30
 70
     1
102
RTVSPropertyOp31
 70
     1
102
RTVSPropertyOp32
 70
     1
102
RTVSPropertyOp33
 70
     1
102
RTVSPropertyOp34
 70
     1
102
RTVSPropertyOp35
 70
     1
102
RTVSPropertyOp36
 70
     1
102
RTVSPropertyOp37
 70
     1
102
RTVSPropertyOp38
 70
     1
102
RTVSPropertyOp39
 70
     1
102
RTVSPropertyOp40
 70
     1
102
RTVSPropertyOp41
 70
     1
102
RTVSPropertyOp42
 70
     1
102
RTVSPropertyOp43
 70
     1
102
RTVSPropertyOp44
 70
     1
102
RTVSPropertyOp45
 70
     1
102
RTVSPropertyOp46
 70
     1
102
RTVSPropertyOp47
 70
     1
102
RTVSPropertyOp48
 70
     1
102
RTVSPropertyOp49
 70
     1
102
RTVSPropertyOp50
 70
     1
102
RTVSPropertyOp51
 70
     0
102
RTVSPropertyOp52
 70
     0
102
RTVSPropertyOp53
 70
     1
102
RTVSPropertyOp54
 70
     1
102
RTVSPropertyOp55
 70
     1
102
RTVSPropertyOp56
 70
     1
102
RTVSPropertyOp57
 70
     1
102
RTVSPost2010Prop28
280
     0
102
RTVSPost2010PropOp28
 70
     1
102
RTVSPost2010Prop29
280
     1
102
RTVSPost2010PropOp29
 70
     1
102
RTVSPost2010Prop30
280
     1
102
RTVSPost2010PropOp30
 70
     1
102
RTVSPost2010Prop31
280
     0
102
RTVSPost2010PropOp31
 70
     1
102
RTVSPost2010Prop32
280
     0
102
RTVSPost2010PropOp32
 70
     1
102
RTVSPost2010Prop33
280
     0
102
RTVSPost2010PropOp33
 70
     1
102
RTVSPost2010Prop34
280
     0
102
RTVSPost2010PropOp34
 70
     1
102
RTVSPost2010Prop35
280
     0
102
RTVSPost2010PropOp35
 70
     1
102
RTVSPost2010Prop36
280
     0
102
RTVSPost2010PropOp36
 70
     1
102
RTVSPost2010Prop37
 90
       50
102
RTVSPost2010PropOp37
 70
     1
102
RTVSPost2010Prop38
140
0.0
102
RTVSPost2010PropOp38
 70
     1
102
RTVSPost2010Prop39
140
1.0
102
RTVSPost2010PropOp39
 70
     1
102
RTVSPost2010Prop40
 90
        0
102
RTVSPost2010PropOp40
 70
     1
102
RTVSPost2010Prop41ColorIndex
 90
       18
102
RTVSPost2010Prop41ColorRGB
 90
        0
102
RTVSPost2010PropOp41
 70
     1
102
RTVSPost2010Prop42
 90
       50
102
RTVSPost2010PropOp42
 70
     1
102
RTVSPost2010Prop43
 90
        3
102
RTVSPost2010PropOp43
 70
     1
102
RTVSPost2010Prop44ColorIndex
 90
        5
102
RTVSPost2010Prop44ColorRGB
 90
      255
102
RTVSPost2010PropOp44
 70
     1
102
RTVSPost2010Prop45
280
     0
102
RTVSPost2010PropOp45
 70
     1
102
RTVSPost2010Prop46
 90
       50
102
RTVSPost2010PropOp46
 70
     1
102
RTVSPost2010Prop47
 90
       50
102
RTVSPost2010PropOp47
 70
     1
102
RTVSPost2010Prop48
 90
       50
102
RTVSPost2010PropOp48
 70
     1
102
RTVSPost2010Prop49
280
     0
102
RTVSPost2010PropOp49
 70
     1
102
RTVSPost2010Prop50
 90
       50
102
RTVSPost2010PropOp50
 70
     1
102
RTVSPost2010Prop51ColorIndex
 90
      256
102
RTVSPost2010Prop51ColorRGB
 90
-16777216
102
RTVSPost2010PropOp51
 70
     0
102
RTVSPost2010Prop52
140
1.0
102
RTVSPost2010PropOp52
 70
     0
102
RTVSPost2010Prop53
 90
        2
102
RTVSPost2010PropOp53
 70
     1
102
RTVSPost2010Prop54
  1
strokes_ogs.tif
102
RTVSPost2010PropOp54
 70
     1
102
RTVSPost2010Prop55
280
     0
102
RTVSPost2010PropOp55
 70
     1
102
RTVSPost2010Prop56
140
1.0
102
RTVSPost2010PropOp56
 70
     1
102
RTVSPost2010Prop57
140
1.0
102
RTVSPost2010PropOp57
 70
     1
  0
XRECORD
  5
324
102
{ACAD_REACTORS
330
323
102
}
330
323
100
AcDbXrecord
280
     1
102
RTVSPropertyOp0
 70
     0
102
RTVSPropertyOp1
 70
     0
102
RTVSPropertyOp2
 70
     0
102
RTVSPropertyOp3
 70
     0
102
RTVSPropertyOp4
 70
     0
102
RTVSPropertyOp5
 70
     0
102
RTVSPropertyOp6
 70
     0
102
RTVSPropertyOp7
 70
     0
102
RTVSPropertyOp8
 70
     0
102
RTVSPropertyOp9
 70
     0
102
RTVSPropertyOp10
 70
     0
102
RTVSPropertyOp11
 70
     0
102
RTVSPropertyOp12
 70
     0
102
RTVSPropertyOp13
 70
     0
102
RTVSPropertyOp14
 70
     2
102
RTVSPropertyOp15
 70
     0
102
RTVSPropertyOp16
 70
     0
102
RTVSPropertyOp17
 70
     0
102
RTVSPropertyOp18
 70
     0
102
RTVSPropertyOp19
 70
     0
102
RTVSPropertyOp20
 70
     0
102
RTVSPropertyOp21
 70
     0
102
RTVSPropertyOp22
 70
     0
102
RTVSPropertyOp23
 70
     0
102
RTVSPropertyOp24
 70
     0
102
RTVSPropertyOp25
 70
     0
102
RTVSPropertyOp26
 70
     0
102
RTVSPropertyOp27
 70
     0
102
RTVSPropertyOp28
 70
     0
102
RTVSPropertyOp29
 70
     0
102
RTVSPropertyOp30
 70
     0
102
RTVSPropertyOp31
 70
     0
102
RTVSPropertyOp32
 70
     0
102
RTVSPropertyOp33
 70
     0
102
RTVSPropertyOp34
 70
     0
102
RTVSPropertyOp35
 70
     0
102
RTVSPropertyOp36
 70
     0
102
RTVSPropertyOp37
 70
     0
102
RTVSPropertyOp38
 70
     0
102
RTVSPropertyOp39
 70
     0
102
RTVSPropertyOp40
 70
     0
102
RTVSPropertyOp41
 70
     0
102
RTVSPropertyOp42
 70
     0
102
RTVSPropertyOp43
 70
     0
102
RTVSPropertyOp44
 70
     0
102
RTVSPropertyOp45
 70
     0
102
RTVSPropertyOp46
 70
     0
102
RTVSPropertyOp47
 70
     0
102
RTVSPropertyOp48
 70
     0
102
RTVSPropertyOp49
 70
     0
102
RTVSPropertyOp50
 70
     0
102
RTVSPropertyOp51
 70
     0
102
RTVSPropertyOp52
 70
     0
102
RTVSPropertyOp53
 70
     0
102
RTVSPropertyOp54
 70
     0
102
RTVSPropertyOp55
 70
     0
102
RTVSPropertyOp56
 70
     0
102
RTVSPropertyOp57
 70
     0
102
RTVSPost2010Prop28
280
     0
102
RTVSPost2010PropOp28
 70
     0
102
RTVSPost2010Prop29
280
     1
102
RTVSPost2010PropOp29
 70
     0
102
RTVSPost2010Prop30
280
     1
102
RTVSPost2010PropOp30
 70
     0
102
RTVSPost2010Prop31
280
     0
102
RTVSPost2010PropOp31
 70
     0
102
RTVSPost2010Prop32
280
     0
102
RTVSPost2010PropOp32
 70
     0
102
RTVSPost2010Prop33
280
     0
102
RTVSPost2010PropOp33
 70
     0
102
RTVSPost2010Prop34
280
     0
102
RTVSPost2010PropOp34
 70
     0
102
RTVSPost2010Prop35
280
     0
102
RTVSPost2010PropOp35
 70
     0
102
RTVSPost2010Prop36
280
     0
102
RTVSPost2010PropOp36
 70
     0
102
RTVSPost2010Prop37
 90
       50
102
RTVSPost2010PropOp37
 70
     0
102
RTVSPost2010Prop38
140
0.0
102
RTVSPost2010PropOp38
 70
     0
102
RTVSPost2010Prop39
140
1.0
102
RTVSPost2010PropOp39
 70
     0
102
RTVSPost2010Prop40
 90
        0
102
RTVSPost2010PropOp40
 70
     0
102
RTVSPost2010Prop41ColorIndex
 90
       18
102
RTVSPost2010Prop41ColorRGB
 90
        0
102
RTVSPost2010PropOp41
 70
     0
102
RTVSPost2010Prop42
 90
       50
102
RTVSPost2010PropOp42
 70
     0
102
RTVSPost2010Prop43
 90
        3
102
RTVSPost2010PropOp43
 70
     0
102
RTVSPost2010Prop44ColorIndex
 90
        5
102
RTVSPost2010Prop44ColorRGB
 90
      255
102
RTVSPost2010PropOp44
 70
     0
102
RTVSPost2010Prop45
280
     0
102
RTVSPost2010PropOp45
 70
     0
102
RTVSPost2010Prop46
 90
       50
102
RTVSPost2010PropOp46
 70
     0
102
RTVSPost2010Prop47
 90
       50
102
RTVSPost2010PropOp47
 70
     0
102
RTVSPost2010Prop48
 90
       50
102
RTVSPost2010PropOp48
 70
     0
102
RTVSPost2010Prop49
280
     0
102
RTVSPost2010PropOp49
 70
     0
102
RTVSPost2010Prop50
 90
       50
102
RTVSPost2010PropOp50
 70
     0
102
RTVSPost2010Prop51ColorIndex
 90
      256
102
RTVSPost2010Prop51ColorRGB
 90
-16777216
102
RTVSPost2010PropOp51
 70
     0
102
RTVSPost2010Prop52
140
1.0
102
RTVSPost2010PropOp52
 70
     0
102
RTVSPost2010Prop53
 90
        2
102
RTVSPost2010PropOp53
 70
     0
102
RTVSPost2010Prop54
  1
strokes_ogs.tif
102
RTVSPost2010PropOp54
 70
     0
102
RTVSPost2010Prop55
280
     0
102
RTVSPost2010PropOp55
 70
     0
102
RTVSPost2010Prop56
140
1.0
102
RTVSPost2010PropOp56
 70
     0
102
RTVSPost2010Prop57
140
1.0
102
RTVSPost2010PropOp57
 70
     0
  0
XRECORD
  5
312
102
{ACAD_REACTORS
330
311
102
}
330
311
100
AcDbXrecord
280
     1
102
RTVSPropertyOp0
 70
     1
102
RTVSPropertyOp1
 70
     1
102
RTVSPropertyOp2
 70
     1
102
RTVSPropertyOp3
 70
     1
102
RTVSPropertyOp4
 70
     1
102
RTVSPropertyOp5
 70
     1
102
RTVSPropertyOp6
 70
     1
102
RTVSPropertyOp7
 70
     1
102
RTVSPropertyOp8
 70
     1
102
RTVSPropertyOp9
 70
     1
102
RTVSPropertyOp10
 70
     1
102
RTVSPropertyOp11
 70
     1
102
RTVSPropertyOp12
 70
     1
102
RTVSPropertyOp13
 70
     1
102
RTVSPropertyOp14
 70
     1
102
RTVSPropertyOp15
 70
     1
102
RTVSPropertyOp16
 70
     1
102
RTVSPropertyOp17
 70
     1
102
RTVSPropertyOp18
 70
     1
102
RTVSPropertyOp19
 70
     1
102
RTVSPropertyOp20
 70
     1
102
RTVSPropertyOp21
 70
     1
102
RTVSPropertyOp22
 70
     1
102
RTVSPropertyOp23
 70
     1
102
RTVSPropertyOp24
 70
     1
102
RTVSPropertyOp25
 70
     1
102
RTVSPropertyOp26
 70
     1
102
RTVSPropertyOp27
 70
     1
102
RTVSPropertyOp28
 70
     1
102
RTVSPropertyOp29
 70
     1
102
RTVSPropertyOp30
 70
     1
102
RTVSPropertyOp31
 70
     1
102
RTVSPropertyOp32
 70
     1
102
RTVSPropertyOp33
 70
     1
102
RTVSPropertyOp34
 70
     1
102
RTVSPropertyOp35
 70
     1
102
RTVSPropertyOp36
 70
     1
102
RTVSPropertyOp37
 70
     1
102
RTVSPropertyOp38
 70
     1
102
RTVSPropertyOp39
 70
     1
102
RTVSPropertyOp40
 70
     1
102
RTVSPropertyOp41
 70
     1
102
RTVSPropertyOp42
 70
     1
102
RTVSPropertyOp43
 70
     1
102
RTVSPropertyOp44
 70
     1
102
RTVSPropertyOp45
 70
     1
102
RTVSPropertyOp46
 70
     1
102
RTVSPropertyOp47
 70
     1
102
RTVSPropertyOp48
 70
     1
102
RTVSPropertyOp49
 70
     1
102
RTVSPropertyOp50
 70
     1
102
RTVSPropertyOp51
 70
     0
102
RTVSPropertyOp52
 70
     0
102
RTVSPropertyOp53
 70
     1
102
RTVSPropertyOp54
 70
     1
102
RTVSPropertyOp55
 70
     1
102
RTVSPropertyOp56
 70
     1
102
RTVSPropertyOp57
 70
     1
102
RTVSPost2010Prop28
280
     0
102
RTVSPost2010PropOp28
 70
     1
102
RTVSPost2010Prop29
280
     1
102
RTVSPost2010PropOp29
 70
     1
102
RTVSPost2010Prop30
280
     1
102
RTVSPost2010PropOp30
 70
     1
102
RTVSPost2010Prop31
280
     0
102
RTVSPost2010PropOp31
 70
     1
102
RTVSPost2010Prop32
280
     0
102
RTVSPost2010PropOp32
 70
     1
102
RTVSPost2010Prop33
280
     0
102
RTVSPost2010PropOp33
 70
     1
102
RTVSPost2010Prop34
280
     0
102
RTVSPost2010PropOp34
 70
     1
102
RTVSPost2010Prop35
280
     0
102
RTVSPost2010PropOp35
 70
     1
102
RTVSPost2010Prop36
280
     0
102
RTVSPost2010PropOp36
 70
     1
102
RTVSPost2010Prop37
 90
       50
102
RTVSPost2010PropOp37
 70
     1
102
RTVSPost2010Prop38
140
0.0
102
RTVSPost2010PropOp38
 70
     1
102
RTVSPost2010Prop39
140
1.0
102
RTVSPost2010PropOp39
 70
     1
102
RTVSPost2010Prop40
 90
        0
102
RTVSPost2010PropOp40
 70
     1
102
RTVSPost2010Prop41ColorIndex
 90
       18
102
RTVSPost2010Prop41ColorRGB
 90
        0
102
RTVSPost2010PropOp41
 70
     1
102
RTVSPost2010Prop42
 90
       50
102
RTVSPost2010PropOp42
 70
     1
102
RTVSPost2010Prop43
 90
        3
102
RTVSPost2010PropOp43
 70
     1
102
RTVSPost2010Prop44ColorIndex
 90
        5
102
RTVSPost2010Prop44ColorRGB
 90
      255
102
RTVSPost2010PropOp44
 70
     1
102
RTVSPost2010Prop45
280
     0
102
RTVSPost2010PropOp45
 70
     1
102
RTVSPost2010Prop46
 90
       50
102
RTVSPost2010PropOp46
 70
     1
102
RTVSPost2010Prop47
 90
       50
102
RTVSPost2010PropOp47
 70
     1
102
RTVSPost2010Prop48
 90
       50
102
RTVSPost2010PropOp48
 70
     1
102
RTVSPost2010Prop49
280
     0
102
RTVSPost2010PropOp49
 70
     1
102
RTVSPost2010Prop50
 90
       50
102
RTVSPost2010PropOp50
 70
     1
102
RTVSPost2010Prop51ColorIndex
 90
      256
102
RTVSPost2010Prop51ColorRGB
 90
-16777216
102
RTVSPost2010PropOp51
 70
     0
102
RTVSPost2010Prop52
140
1.0
102
RTVSPost2010PropOp52
 70
     0
102
RTVSPost2010Prop53
 90
        2
102
RTVSPost2010PropOp53
 70
     1
102
RTVSPost2010Prop54
  1
strokes_ogs.tif
102
RTVSPost2010PropOp54
 70
     1
102
RTVSPost2010Prop55
280
     0
102
RTVSPost2010PropOp55
 70
     1
102
RTVSPost2010Prop56
140
1.0
102
RTVSPost2010PropOp56
 70
     1
102
RTVSPost2010Prop57
140
1.0
102
RTVSPost2010PropOp57
 70
     1
  0
XRECORD
  5
330
102
{ACAD_REACTORS
330
32F
102
}
330
32F
100
AcDbXrecord
280
     1
102
RTVSPropertyOp0
 70
     1
102
RTVSPropertyOp1
 70
     1
102
RTVSPropertyOp2
 70
     1
102
RTVSPropertyOp3
 70
     1
102
RTVSPropertyOp4
 70
     1
102
RTVSPropertyOp5
 70
     1
102
RTVSPropertyOp6
 70
     1
102
RTVSPropertyOp7
 70
     1
102
RTVSPropertyOp8
 70
     1
102
RTVSPropertyOp9
 70
     1
102
RTVSPropertyOp10
 70
     1
102
RTVSPropertyOp11
 70
     1
102
RTVSPropertyOp12
 70
     1
102
RTVSPropertyOp13
 70
     1
102
RTVSPropertyOp14
 70
     1
102
RTVSPropertyOp15
 70
     1
102
RTVSPropertyOp16
 70
     1
102
RTVSPropertyOp17
 70
     1
102
RTVSPropertyOp18
 70
     1
102
RTVSPropertyOp19
 70
     1
102
RTVSPropertyOp20
 70
     1
102
RTVSPropertyOp21
 70
     1
102
RTVSPropertyOp22
 70
     1
102
RTVSPropertyOp23
 70
     1
102
RTVSPropertyOp24
 70
     1
102
RTVSPropertyOp25
 70
     1
102
RTVSPropertyOp26
 70
     1
102
RTVSPropertyOp27
 70
     1
102
RTVSPropertyOp28
 70
     1
102
RTVSPropertyOp29
 70
     1
102
RTVSPropertyOp30
 70
     1
102
RTVSPropertyOp31
 70
     1
102
RTVSPropertyOp32
 70
     1
102
RTVSPropertyOp33
 70
     1
102
RTVSPropertyOp34
 70
     1
102
RTVSPropertyOp35
 70
     1
102
RTVSPropertyOp36
 70
     1
102
RTVSPropertyOp37
 70
     1
102
RTVSPropertyOp38
 70
     1
102
RTVSPropertyOp39
 70
     1
102
RTVSPropertyOp40
 70
     1
102
RTVSPropertyOp41
 70
     1
102
RTVSPropertyOp42
 70
     1
102
RTVSPropertyOp43
 70
     1
102
RTVSPropertyOp44
 70
     1
102
RTVSPropertyOp45
 70
     1
102
RTVSPropertyOp46
 70
     1
102
RTVSPropertyOp47
 70
     1
102
RTVSPropertyOp48
 70
     1
102
RTVSPropertyOp49
 70
     1
102
RTVSPropertyOp50
 70
     1
102
RTVSPropertyOp51
 70
     0
102
RTVSPropertyOp52
 70
     0
102
RTVSPropertyOp53
 70
     1
102
RTVSPropertyOp54
 70
     1
102
RTVSPropertyOp55
 70
     1
102
RTVSPropertyOp56
 70
     1
102
RTVSPropertyOp57
 70
     1
102
RTVSPost2010Prop28
280
     0
102
RTVSPost2010PropOp28
 70
     1
102
RTVSPost2010Prop29
280
     1
102
RTVSPost2010PropOp29
 70
     1
102
RTVSPost2010Prop30
280
     1
102
RTVSPost2010PropOp30
 70
     1
102
RTVSPost2010Prop31
280
     0
102
RTVSPost2010PropOp31
 70
     1
102
RTVSPost2010Prop32
280
     0
102
RTVSPost2010PropOp32
 70
     1
102
RTVSPost2010Prop33
280
     0
102
RTVSPost2010PropOp33
 70
     1
102
RTVSPost2010Prop34
280
     0
102
RTVSPost2010PropOp34
 70
     1
102
RTVSPost2010Prop35
280
     0
102
RTVSPost2010PropOp35
 70
     1
102
RTVSPost2010Prop36
280
     0
102
RTVSPost2010PropOp36
 70
     1
102
RTVSPost2010Prop37
 90
       50
102
RTVSPost2010PropOp37
 70
     1
102
RTVSPost2010Prop38
140
0.0
102
RTVSPost2010PropOp38
 70
     1
102
RTVSPost2010Prop39
140
1.0
102
RTVSPost2010PropOp39
 70
     1
102
RTVSPost2010Prop40
 90
        0
102
RTVSPost2010PropOp40
 70
     1
102
RTVSPost2010Prop41ColorIndex
 90
       18
102
RTVSPost2010Prop41ColorRGB
 90
        0
102
RTVSPost2010PropOp41
 70
     1
102
RTVSPost2010Prop42
 90
       50
102
RTVSPost2010PropOp42
 70
     1
102
RTVSPost2010Prop43
 90
        3
102
RTVSPost2010PropOp43
 70
     1
102
RTVSPost2010Prop44ColorIndex
 90
        5
102
RTVSPost2010Prop44ColorRGB
 90
      255
102
RTVSPost2010PropOp44
 70
     1
102
RTVSPost2010Prop45
280
     0
102
RTVSPost2010PropOp45
 70
     1
102
RTVSPost2010Prop46
 90
       50
102
RTVSPost2010PropOp46
 70
     1
102
RTVSPost2010Prop47
 90
       50
102
RTVSPost2010PropOp47
 70
     1
102
RTVSPost2010Prop48
 90
       50
102
RTVSPost2010PropOp48
 70
     1
102
RTVSPost2010Prop49
280
     0
102
RTVSPost2010PropOp49
 70
     1
102
RTVSPost2010Prop50
 90
       50
102
RTVSPost2010PropOp50
 70
     1
102
RTVSPost2010Prop51ColorIndex
 90
      256
102
RTVSPost2010Prop51ColorRGB
 90
-16777216
102
RTVSPost2010PropOp51
 70
     0
102
RTVSPost2010Prop52
140
1.0
102
RTVSPost2010PropOp52
 70
     0
102
RTVSPost2010Prop53
 90
        2
102
RTVSPost2010PropOp53
 70
     1
102
RTVSPost2010Prop54
  1
strokes_ogs.tif
102
RTVSPost2010PropOp54
 70
     1
102
RTVSPost2010Prop55
280
     0
102
RTVSPost2010PropOp55
 70
     1
102
RTVSPost2010Prop56
140
1.0
102
RTVSPost2010PropOp56
 70
     1
102
RTVSPost2010Prop57
140
1.0
102
RTVSPost2010PropOp57
 70
     1
  0
XRECORD
  5
32E
102
{ACAD_REACTORS
330
32D
102
}
330
32D
100
AcDbXrecord
280
     1
102
RTVSPropertyOp0
 70
     1
102
RTVSPropertyOp1
 70
     1
102
RTVSPropertyOp2
 70
     1
102
RTVSPropertyOp3
 70
     1
102
RTVSPropertyOp4
 70
     1
102
RTVSPropertyOp5
 70
     1
102
RTVSPropertyOp6
 70
     1
102
RTVSPropertyOp7
 70
     1
102
RTVSPropertyOp8
 70
     1
102
RTVSPropertyOp9
 70
     1
102
RTVSPropertyOp10
 70
     1
102
RTVSPropertyOp11
 70
     1
102
RTVSPropertyOp12
 70
     1
102
RTVSPropertyOp13
 70
     1
102
RTVSPropertyOp14
 70
     1
102
RTVSPropertyOp15
 70
     1
102
RTVSPropertyOp16
 70
     1
102
RTVSPropertyOp17
 70
     1
102
RTVSPropertyOp18
 70
     1
102
RTVSPropertyOp19
 70
     1
102
RTVSPropertyOp20
 70
     1
102
RTVSPropertyOp21
 70
     1
102
RTVSPropertyOp22
 70
     1
102
RTVSPropertyOp23
 70
     1
102
RTVSPropertyOp24
 70
     1
102
RTVSPropertyOp25
 70
     1
102
RTVSPropertyOp26
 70
     1
102
RTVSPropertyOp27
 70
     1
102
RTVSPropertyOp28
 70
     1
102
RTVSPropertyOp29
 70
     1
102
RTVSPropertyOp30
 70
     1
102
RTVSPropertyOp31
 70
     1
102
RTVSPropertyOp32
 70
     1
102
RTVSPropertyOp33
 70
     1
102
RTVSPropertyOp34
 70
     1
102
RTVSPropertyOp35
 70
     1
102
RTVSPropertyOp36
 70
     1
102
RTVSPropertyOp37
 70
     1
102
RTVSPropertyOp38
 70
     1
102
RTVSPropertyOp39
 70
     1
102
RTVSPropertyOp40
 70
     1
102
RTVSPropertyOp41
 70
     1
102
RTVSPropertyOp42
 70
     1
102
RTVSPropertyOp43
 70
     1
102
RTVSPropertyOp44
 70
     1
102
RTVSPropertyOp45
 70
     1
102
RTVSPropertyOp46
 70
     1
102
RTVSPropertyOp47
 70
     1
102
RTVSPropertyOp48
 70
     1
102
RTVSPropertyOp49
 70
     1
102
RTVSPropertyOp50
 70
     1
102
RTVSPropertyOp51
 70
     0
102
RTVSPropertyOp52
 70
     0
102
RTVSPropertyOp53
 70
     1
102
RTVSPropertyOp54
 70
     1
102
RTVSPropertyOp55
 70
     1
102
RTVSPropertyOp56
 70
     1
102
RTVSPropertyOp57
 70
     1
102
RTVSPost2010Prop28
280
     0
102
RTVSPost2010PropOp28
 70
     1
102
RTVSPost2010Prop29
280
     1
102
RTVSPost2010PropOp29
 70
     1
102
RTVSPost2010Prop30
280
     1
102
RTVSPost2010PropOp30
 70
     1
102
RTVSPost2010Prop31
280
     0
102
RTVSPost2010PropOp31
 70
     1
102
RTVSPost2010Prop32
280
     0
102
RTVSPost2010PropOp32
 70
     1
102
RTVSPost2010Prop33
280
     0
102
RTVSPost2010PropOp33
 70
     1
102
RTVSPost2010Prop34
280
     0
102
RTVSPost2010PropOp34
 70
     1
102
RTVSPost2010Prop35
280
     0
102
RTVSPost2010PropOp35
 70
     1
102
RTVSPost2010Prop36
280
     0
102
RTVSPost2010PropOp36
 70
     1
102
RTVSPost2010Prop37
 90
       50
102
RTVSPost2010PropOp37
 70
     1
102
RTVSPost2010Prop38
140
0.0
102
RTVSPost2010PropOp38
 70
     1
102
RTVSPost2010Prop39
140
1.0
102
RTVSPost2010PropOp39
 70
     1
102
RTVSPost2010Prop40
 90
        0
102
RTVSPost2010PropOp40
 70
     1
102
RTVSPost2010Prop41ColorIndex
 90
       18
102
RTVSPost2010Prop41ColorRGB
 90
        0
102
RTVSPost2010PropOp41
 70
     1
102
RTVSPost2010Prop42
 90
       50
102
RTVSPost2010PropOp42
 70
     1
102
RTVSPost2010Prop43
 90
        3
102
RTVSPost2010PropOp43
 70
     1
102
RTVSPost2010Prop44ColorIndex
 90
        5
102
RTVSPost2010Prop44ColorRGB
 90
      255
102
RTVSPost2010PropOp44
 70
     1
102
RTVSPost2010Prop45
280
     0
102
RTVSPost2010PropOp45
 70
     1
102
RTVSPost2010Prop46
 90
       50
102
RTVSPost2010PropOp46
 70
     1
102
RTVSPost2010Prop47
 90
       50
102
RTVSPost2010PropOp47
 70
     1
102
RTVSPost2010Prop48
 90
       50
102
RTVSPost2010PropOp48
 70
     1
102
RTVSPost2010Prop49
280
     0
102
RTVSPost2010PropOp49
 70
     1
102
RTVSPost2010Prop50
 90
       50
102
RTVSPost2010PropOp50
 70
     1
102
RTVSPost2010Prop51ColorIndex
 90
      256
102
RTVSPost2010Prop51ColorRGB
 90
-16777216
102
RTVSPost2010PropOp51
 70
     0
102
RTVSPost2010Prop52
140
1.0
102
RTVSPost2010PropOp52
 70
     0
102
RTVSPost2010Prop53
 90
        2
102
RTVSPost2010PropOp53
 70
     1
102
RTVSPost2010Prop54
  1
strokes_ogs.tif
102
RTVSPost2010PropOp54
 70
     1
102
RTVSPost2010Prop55
280
     0
102
RTVSPost2010PropOp55
 70
     1
102
RTVSPost2010Prop56
140
1.0
102
RTVSPost2010PropOp56
 70
     1
102
RTVSPost2010Prop57
140
1.0
102
RTVSPost2010PropOp57
 70
     1
  0
XRECORD
  5
328
102
{ACAD_REACTORS
330
327
102
}
330
327
100
AcDbXrecord
280
     1
102
RTVSPropertyOp0
 70
     1
102
RTVSPropertyOp1
 70
     1
102
RTVSPropertyOp2
 70
     1
102
RTVSPropertyOp3
 70
     1
102
RTVSPropertyOp4
 70
     1
102
RTVSPropertyOp5
 70
     1
102
RTVSPropertyOp6
 70
     1
102
RTVSPropertyOp7
 70
     1
102
RTVSPropertyOp8
 70
     1
102
RTVSPropertyOp9
 70
     1
102
RTVSPropertyOp10
 70
     1
102
RTVSPropertyOp11
 70
     1
102
RTVSPropertyOp12
 70
     1
102
RTVSPropertyOp13
 70
     1
102
RTVSPropertyOp14
 70
     1
102
RTVSPropertyOp15
 70
     1
102
RTVSPropertyOp16
 70
     1
102
RTVSPropertyOp17
 70
     1
102
RTVSPropertyOp18
 70
     1
102
RTVSPropertyOp19
 70
     1
102
RTVSPropertyOp20
 70
     1
102
RTVSPropertyOp21
 70
     1
102
RTVSPropertyOp22
 70
     1
102
RTVSPropertyOp23
 70
     1
102
RTVSPropertyOp24
 70
     1
102
RTVSPropertyOp25
 70
     1
102
RTVSPropertyOp26
 70
     1
102
RTVSPropertyOp27
 70
     1
102
RTVSPropertyOp28
 70
     1
102
RTVSPropertyOp29
 70
     1
102
RTVSPropertyOp30
 70
     1
102
RTVSPropertyOp31
 70
     1
102
RTVSPropertyOp32
 70
     1
102
RTVSPropertyOp33
 70
     1
102
RTVSPropertyOp34
 70
     1
102
RTVSPropertyOp35
 70
     1
102
RTVSPropertyOp36
 70
     1
102
RTVSPropertyOp37
 70
     1
102
RTVSPropertyOp38
 70
     1
102
RTVSPropertyOp39
 70
     1
102
RTVSPropertyOp40
 70
     1
102
RTVSPropertyOp41
 70
     1
102
RTVSPropertyOp42
 70
     1
102
RTVSPropertyOp43
 70
     1
102
RTVSPropertyOp44
 70
     1
102
RTVSPropertyOp45
 70
     1
102
RTVSPropertyOp46
 70
     1
102
RTVSPropertyOp47
 70
     1
102
RTVSPropertyOp48
 70
     1
102
RTVSPropertyOp49
 70
     1
102
RTVSPropertyOp50
 70
     1
102
RTVSPropertyOp51
 70
     0
102
RTVSPropertyOp52
 70
     0
102
RTVSPropertyOp53
 70
     1
102
RTVSPropertyOp54
 70
     1
102
RTVSPropertyOp55
 70
     1
102
RTVSPropertyOp56
 70
     1
102
RTVSPropertyOp57
 70
     1
102
RTVSPost2010Prop28
280
     0
102
RTVSPost2010PropOp28
 70
     1
102
RTVSPost2010Prop29
280
     1
102
RTVSPost2010PropOp29
 70
     1
102
RTVSPost2010Prop30
280
     1
102
RTVSPost2010PropOp30
 70
     1
102
RTVSPost2010Prop31
280
     0
102
RTVSPost2010PropOp31
 70
     1
102
RTVSPost2010Prop32
280
     0
102
RTVSPost2010PropOp32
 70
     1
102
RTVSPost2010Prop33
280
     0
102
RTVSPost2010PropOp33
 70
     1
102
RTVSPost2010Prop34
280
     0
102
RTVSPost2010PropOp34
 70
     1
102
RTVSPost2010Prop35
280
     0
102
RTVSPost2010PropOp35
 70
     1
102
RTVSPost2010Prop36
280
     0
102
RTVSPost2010PropOp36
 70
     1
102
RTVSPost2010Prop37
 90
       50
102
RTVSPost2010PropOp37
 70
     1
102
RTVSPost2010Prop38
140
0.0
102
RTVSPost2010PropOp38
 70
     1
102
RTVSPost2010Prop39
140
1.0
102
RTVSPost2010PropOp39
 70
     1
102
RTVSPost2010Prop40
 90
        0
102
RTVSPost2010PropOp40
 70
     1
102
RTVSPost2010Prop41ColorIndex
 90
       18
102
RTVSPost2010Prop41ColorRGB
 90
        0
102
RTVSPost2010PropOp41
 70
     1
102
RTVSPost2010Prop42
 90
       50
102
RTVSPost2010PropOp42
 70
     1
102
RTVSPost2010Prop43
 90
        3
102
RTVSPost2010PropOp43
 70
     1
102
RTVSPost2010Prop44ColorIndex
 90
        5
102
RTVSPost2010Prop44ColorRGB
 90
      255
102
RTVSPost2010PropOp44
 70
     1
102
RTVSPost2010Prop45
280
     0
102
RTVSPost2010PropOp45
 70
     1
102
RTVSPost2010Prop46
 90
       50
102
RTVSPost2010PropOp46
 70
     1
102
RTVSPost2010Prop47
 90
       50
102
RTVSPost2010PropOp47
 70
     1
102
RTVSPost2010Prop48
 90
       50
102
RTVSPost2010PropOp48
 70
     1
102
RTVSPost2010Prop49
280
     0
102
RTVSPost2010PropOp49
 70
     1
102
RTVSPost2010Prop50
 90
       50
102
RTVSPost2010PropOp50
 70
     1
102
RTVSPost2010Prop51ColorIndex
 90
      256
102
RTVSPost2010Prop51ColorRGB
 90
-16777216
102
RTVSPost2010PropOp51
 70
     0
102
RTVSPost2010Prop52
140
1.0
102
RTVSPost2010PropOp52
 70
     0
102
RTVSPost2010Prop53
 90
        2
102
RTVSPost2010PropOp53
 70
     1
102
RTVSPost2010Prop54
  1
strokes_ogs.tif
102
RTVSPost2010PropOp54
 70
     1
102
RTVSPost2010Prop55
280
     0
102
RTVSPost2010PropOp55
 70
     1
102
RTVSPost2010Prop56
140
1.0
102
RTVSPost2010PropOp56
 70
     1
102
RTVSPost2010Prop57
140
1.0
102
RTVSPost2010PropOp57
 70
     1
  0
XRECORD
  5
32A
102
{ACAD_REACTORS
330
329
102
}
330
329
100
AcDbXrecord
280
     1
102
RTVSPropertyOp0
 70
     1
102
RTVSPropertyOp1
 70
     1
102
RTVSPropertyOp2
 70
     1
102
RTVSPropertyOp3
 70
     1
102
RTVSPropertyOp4
 70
     1
102
RTVSPropertyOp5
 70
     1
102
RTVSPropertyOp6
 70
     1
102
RTVSPropertyOp7
 70
     1
102
RTVSPropertyOp8
 70
     1
102
RTVSPropertyOp9
 70
     1
102
RTVSPropertyOp10
 70
     1
102
RTVSPropertyOp11
 70
     1
102
RTVSPropertyOp12
 70
     1
102
RTVSPropertyOp13
 70
     1
102
RTVSPropertyOp14
 70
     1
102
RTVSPropertyOp15
 70
     1
102
RTVSPropertyOp16
 70
     1
102
RTVSPropertyOp17
 70
     1
102
RTVSPropertyOp18
 70
     1
102
RTVSPropertyOp19
 70
     1
102
RTVSPropertyOp20
 70
     1
102
RTVSPropertyOp21
 70
     1
102
RTVSPropertyOp22
 70
     1
102
RTVSPropertyOp23
 70
     1
102
RTVSPropertyOp24
 70
     1
102
RTVSPropertyOp25
 70
     1
102
RTVSPropertyOp26
 70
     1
102
RTVSPropertyOp27
 70
     1
102
RTVSPropertyOp28
 70
     1
102
RTVSPropertyOp29
 70
     1
102
RTVSPropertyOp30
 70
     1
102
RTVSPropertyOp31
 70
     1
102
RTVSPropertyOp32
 70
     1
102
RTVSPropertyOp33
 70
     1
102
RTVSPropertyOp34
 70
     1
102
RTVSPropertyOp35
 70
     1
102
RTVSPropertyOp36
 70
     1
102
RTVSPropertyOp37
 70
     1
102
RTVSPropertyOp38
 70
     1
102
RTVSPropertyOp39
 70
     1
102
RTVSPropertyOp40
 70
     1
102
RTVSPropertyOp41
 70
     1
102
RTVSPropertyOp42
 70
     1
102
RTVSPropertyOp43
 70
     1
102
RTVSPropertyOp44
 70
     1
102
RTVSPropertyOp45
 70
     1
102
RTVSPropertyOp46
 70
     1
102
RTVSPropertyOp47
 70
     1
102
RTVSPropertyOp48
 70
     1
102
RTVSPropertyOp49
 70
     1
102
RTVSPropertyOp50
 70
     1
102
RTVSPropertyOp51
 70
     0
102
RTVSPropertyOp52
 70
     0
102
RTVSPropertyOp53
 70
     1
102
RTVSPropertyOp54
 70
     1
102
RTVSPropertyOp55
 70
     1
102
RTVSPropertyOp56
 70
     1
102
RTVSPropertyOp57
 70
     1
102
RTVSPost2010Prop28
280
     0
102
RTVSPost2010PropOp28
 70
     1
102
RTVSPost2010Prop29
280
     1
102
RTVSPost2010PropOp29
 70
     1
102
RTVSPost2010Prop30
280
     1
102
RTVSPost2010PropOp30
 70
     1
102
RTVSPost2010Prop31
280
     0
102
RTVSPost2010PropOp31
 70
     1
102
RTVSPost2010Prop32
280
     0
102
RTVSPost2010PropOp32
 70
     1
102
RTVSPost2010Prop33
280
     0
102
RTVSPost2010PropOp33
 70
     1
102
RTVSPost2010Prop34
280
     0
102
RTVSPost2010PropOp34
 70
     1
102
RTVSPost2010Prop35
280
     0
102
RTVSPost2010PropOp35
 70
     1
102
RTVSPost2010Prop36
280
     0
102
RTVSPost2010PropOp36
 70
     1
102
RTVSPost2010Prop37
 90
       50
102
RTVSPost2010PropOp37
 70
     1
102
RTVSPost2010Prop38
140
0.0
102
RTVSPost2010PropOp38
 70
     1
102
RTVSPost2010Prop39
140
1.0
102
RTVSPost2010PropOp39
 70
     1
102
RTVSPost2010Prop40
 90
        0
102
RTVSPost2010PropOp40
 70
     1
102
RTVSPost2010Prop41ColorIndex
 90
       18
102
RTVSPost2010Prop41ColorRGB
 90
        0
102
RTVSPost2010PropOp41
 70
     1
102
RTVSPost2010Prop42
 90
       50
102
RTVSPost2010PropOp42
 70
     1
102
RTVSPost2010Prop43
 90
        3
102
RTVSPost2010PropOp43
 70
     1
102
RTVSPost2010Prop44ColorIndex
 90
        5
102
RTVSPost2010Prop44ColorRGB
 90
      255
102
RTVSPost2010PropOp44
 70
     1
102
RTVSPost2010Prop45
280
     0
102
RTVSPost2010PropOp45
 70
     1
102
RTVSPost2010Prop46
 90
       50
102
RTVSPost2010PropOp46
 70
     1
102
RTVSPost2010Prop47
 90
       50
102
RTVSPost2010PropOp47
 70
     1
102
RTVSPost2010Prop48
 90
       50
102
RTVSPost2010PropOp48
 70
     1
102
RTVSPost2010Prop49
280
     0
102
RTVSPost2010PropOp49
 70
     1
102
RTVSPost2010Prop50
 90
       50
102
RTVSPost2010PropOp50
 70
     1
102
RTVSPost2010Prop51ColorIndex
 90
      256
102
RTVSPost2010Prop51ColorRGB
 90
-16777216
102
RTVSPost2010PropOp51
 70
     0
102
RTVSPost2010Prop52
140
1.0
102
RTVSPost2010PropOp52
 70
     0
102
RTVSPost2010Prop53
 90
        2
102
RTVSPost2010PropOp53
 70
     1
102
RTVSPost2010Prop54
  1
strokes_ogs.tif
102
RTVSPost2010PropOp54
 70
     1
102
RTVSPost2010Prop55
280
     0
102
RTVSPost2010PropOp55
 70
     1
102
RTVSPost2010Prop56
140
1.0
102
RTVSPost2010PropOp56
 70
     1
102
RTVSPost2010Prop57
140
1.0
102
RTVSPost2010PropOp57
 70
     1
  0
XRECORD
  5
31A
102
{ACAD_REACTORS
330
319
102
}
330
319
100
AcDbXrecord
280
     1
102
RTVSPropertyOp0
 70
     1
102
RTVSPropertyOp1
 70
     1
102
RTVSPropertyOp2
 70
     1
102
RTVSPropertyOp3
 70
     1
102
RTVSPropertyOp4
 70
     1
102
RTVSPropertyOp5
 70
     1
102
RTVSPropertyOp6
 70
     1
102
RTVSPropertyOp7
 70
     1
102
RTVSPropertyOp8
 70
     1
102
RTVSPropertyOp9
 70
     1
102
RTVSPropertyOp10
 70
     1
102
RTVSPropertyOp11
 70
     1
102
RTVSPropertyOp12
 70
     1
102
RTVSPropertyOp13
 70
     1
102
RTVSPropertyOp14
 70
     1
102
RTVSPropertyOp15
 70
     1
102
RTVSPropertyOp16
 70
     1
102
RTVSPropertyOp17
 70
     1
102
RTVSPropertyOp18
 70
     1
102
RTVSPropertyOp19
 70
     1
102
RTVSPropertyOp20
 70
     1
102
RTVSPropertyOp21
 70
     1
102
RTVSPropertyOp22
 70
     1
102
RTVSPropertyOp23
 70
     1
102
RTVSPropertyOp24
 70
     1
102
RTVSPropertyOp25
 70
     1
102
RTVSPropertyOp26
 70
     1
102
RTVSPropertyOp27
 70
     1
102
RTVSPropertyOp28
 70
     1
102
RTVSPropertyOp29
 70
     1
102
RTVSPropertyOp30
 70
     1
102
RTVSPropertyOp31
 70
     1
102
RTVSPropertyOp32
 70
     1
102
RTVSPropertyOp33
 70
     1
102
RTVSPropertyOp34
 70
     1
102
RTVSPropertyOp35
 70
     1
102
RTVSPropertyOp36
 70
     1
102
RTVSPropertyOp37
 70
     1
102
RTVSPropertyOp38
 70
     1
102
RTVSPropertyOp39
 70
     1
102
RTVSPropertyOp40
 70
     1
102
RTVSPropertyOp41
 70
     1
102
RTVSPropertyOp42
 70
     1
102
RTVSPropertyOp43
 70
     1
102
RTVSPropertyOp44
 70
     1
102
RTVSPropertyOp45
 70
     1
102
RTVSPropertyOp46
 70
     1
102
RTVSPropertyOp47
 70
     1
102
RTVSPropertyOp48
 70
     1
102
RTVSPropertyOp49
 70
     1
102
RTVSPropertyOp50
 70
     1
102
RTVSPropertyOp51
 70
     0
102
RTVSPropertyOp52
 70
     0
102
RTVSPropertyOp53
 70
     1
102
RTVSPropertyOp54
 70
     1
102
RTVSPropertyOp55
 70
     1
102
RTVSPropertyOp56
 70
     1
102
RTVSPropertyOp57
 70
     1
102
RTVSPost2010Prop28
280
     0
102
RTVSPost2010PropOp28
 70
     1
102
RTVSPost2010Prop29
280
     1
102
RTVSPost2010PropOp29
 70
     1
102
RTVSPost2010Prop30
280
     1
102
RTVSPost2010PropOp30
 70
     1
102
RTVSPost2010Prop31
280
     0
102
RTVSPost2010PropOp31
 70
     1
102
RTVSPost2010Prop32
280
     0
102
RTVSPost2010PropOp32
 70
     1
102
RTVSPost2010Prop33
280
     0
102
RTVSPost2010PropOp33
 70
     1
102
RTVSPost2010Prop34
280
     0
102
RTVSPost2010PropOp34
 70
     1
102
RTVSPost2010Prop35
280
     0
102
RTVSPost2010PropOp35
 70
     1
102
RTVSPost2010Prop36
280
     0
102
RTVSPost2010PropOp36
 70
     1
102
RTVSPost2010Prop37
 90
       50
102
RTVSPost2010PropOp37
 70
     1
102
RTVSPost2010Prop38
140
0.0
102
RTVSPost2010PropOp38
 70
     1
102
RTVSPost2010Prop39
140
1.0
102
RTVSPost2010PropOp39
 70
     1
102
RTVSPost2010Prop40
 90
        0
102
RTVSPost2010PropOp40
 70
     1
102
RTVSPost2010Prop41ColorIndex
 90
       18
102
RTVSPost2010Prop41ColorRGB
 90
        0
102
RTVSPost2010PropOp41
 70
     1
102
RTVSPost2010Prop42
 90
       50
102
RTVSPost2010PropOp42
 70
     1
102
RTVSPost2010Prop43
 90
        3
102
RTVSPost2010PropOp43
 70
     1
102
RTVSPost2010Prop44ColorIndex
 90
        5
102
RTVSPost2010Prop44ColorRGB
 90
      255
102
RTVSPost2010PropOp44
 70
     1
102
RTVSPost2010Prop45
280
     0
102
RTVSPost2010PropOp45
 70
     1
102
RTVSPost2010Prop46
 90
       50
102
RTVSPost2010PropOp46
 70
     1
102
RTVSPost2010Prop47
 90
       50
102
RTVSPost2010PropOp47
 70
     1
102
RTVSPost2010Prop48
 90
       50
102
RTVSPost2010PropOp48
 70
     1
102
RTVSPost2010Prop49
280
     0
102
RTVSPost2010PropOp49
 70
     1
102
RTVSPost2010Prop50
 90
       50
102
RTVSPost2010PropOp50
 70
     1
102
RTVSPost2010Prop51ColorIndex
 90
      256
102
RTVSPost2010Prop51ColorRGB
 90
-16777216
102
RTVSPost2010PropOp51
 70
     0
102
RTVSPost2010Prop52
140
1.0
102
RTVSPost2010PropOp52
 70
     0
102
RTVSPost2010Prop53
 90
        2
102
RTVSPost2010PropOp53
 70
     1
102
RTVSPost2010Prop54
  1
strokes_ogs.tif
102
RTVSPost2010PropOp54
 70
     1
102
RTVSPost2010Prop55
280
     0
102
RTVSPost2010PropOp55
 70
     1
102
RTVSPost2010Prop56
140
1.0
102
RTVSPost2010PropOp56
 70
     1
102
RTVSPost2010Prop57
140
1.0
102
RTVSPost2010PropOp57
 70
     1
  0
XRECORD
  5
30C
102
{ACAD_REACTORS
330
30B
102
}
330
30B
100
AcDbXrecord
280
     1
102
RTVSPropertyOp0
 70
     1
102
RTVSPropertyOp1
 70
     1
102
RTVSPropertyOp2
 70
     1
102
RTVSPropertyOp3
 70
     1
102
RTVSPropertyOp4
 70
     1
102
RTVSPropertyOp5
 70
     1
102
RTVSPropertyOp6
 70
     1
102
RTVSPropertyOp7
 70
     1
102
RTVSPropertyOp8
 70
     1
102
RTVSPropertyOp9
 70
     1
102
RTVSPropertyOp10
 70
     1
102
RTVSPropertyOp11
 70
     1
102
RTVSPropertyOp12
 70
     1
102
RTVSPropertyOp13
 70
     1
102
RTVSPropertyOp14
 70
     1
102
RTVSPropertyOp15
 70
     1
102
RTVSPropertyOp16
 70
     1
102
RTVSPropertyOp17
 70
     1
102
RTVSPropertyOp18
 70
     1
102
RTVSPropertyOp19
 70
     1
102
RTVSPropertyOp20
 70
     1
102
RTVSPropertyOp21
 70
     1
102
RTVSPropertyOp22
 70
     1
102
RTVSPropertyOp23
 70
     1
102
RTVSPropertyOp24
 70
     1
102
RTVSPropertyOp25
 70
     1
102
RTVSPropertyOp26
 70
     1
102
RTVSPropertyOp27
 70
     1
102
RTVSPropertyOp28
 70
     1
102
RTVSPropertyOp29
 70
     1
102
RTVSPropertyOp30
 70
     1
102
RTVSPropertyOp31
 70
     1
102
RTVSPropertyOp32
 70
     1
102
RTVSPropertyOp33
 70
     1
102
RTVSPropertyOp34
 70
     1
102
RTVSPropertyOp35
 70
     1
102
RTVSPropertyOp36
 70
     1
102
RTVSPropertyOp37
 70
     1
102
RTVSPropertyOp38
 70
     1
102
RTVSPropertyOp39
 70
     1
102
RTVSPropertyOp40
 70
     1
102
RTVSPropertyOp41
 70
     1
102
RTVSPropertyOp42
 70
     1
102
RTVSPropertyOp43
 70
     1
102
RTVSPropertyOp44
 70
     1
102
RTVSPropertyOp45
 70
     1
102
RTVSPropertyOp46
 70
     1
102
RTVSPropertyOp47
 70
     1
102
RTVSPropertyOp48
 70
     1
102
RTVSPropertyOp49
 70
     1
102
RTVSPropertyOp50
 70
     1
102
RTVSPropertyOp51
 70
     0
102
RTVSPropertyOp52
 70
     0
102
RTVSPropertyOp53
 70
     1
102
RTVSPropertyOp54
 70
     1
102
RTVSPropertyOp55
 70
     1
102
RTVSPropertyOp56
 70
     1
102
RTVSPropertyOp57
 70
     1
102
RTVSPost2010Prop28
280
     0
102
RTVSPost2010PropOp28
 70
     1
102
RTVSPost2010Prop29
280
     1
102
RTVSPost2010PropOp29
 70
     1
102
RTVSPost2010Prop30
280
     1
102
RTVSPost2010PropOp30
 70
     1
102
RTVSPost2010Prop31
280
     0
102
RTVSPost2010PropOp31
 70
     1
102
RTVSPost2010Prop32
280
     0
102
RTVSPost2010PropOp32
 70
     1
102
RTVSPost2010Prop33
280
     0
102
RTVSPost2010PropOp33
 70
     1
102
RTVSPost2010Prop34
280
     0
102
RTVSPost2010PropOp34
 70
     1
102
RTVSPost2010Prop35
280
     0
102
RTVSPost2010PropOp35
 70
     1
102
RTVSPost2010Prop36
280
     0
102
RTVSPost2010PropOp36
 70
     1
102
RTVSPost2010Prop37
 90
       50
102
RTVSPost2010PropOp37
 70
     1
102
RTVSPost2010Prop38
140
0.0
102
RTVSPost2010PropOp38
 70
     1
102
RTVSPost2010Prop39
140
1.0
102
RTVSPost2010PropOp39
 70
     1
102
RTVSPost2010Prop40
 90
        0
102
RTVSPost2010PropOp40
 70
     1
102
RTVSPost2010Prop41ColorIndex
 90
       18
102
RTVSPost2010Prop41ColorRGB
 90
        0
102
RTVSPost2010PropOp41
 70
     1
102
RTVSPost2010Prop42
 90
       50
102
RTVSPost2010PropOp42
 70
     1
102
RTVSPost2010Prop43
 90
        3
102
RTVSPost2010PropOp43
 70
     1
102
RTVSPost2010Prop44ColorIndex
 90
        5
102
RTVSPost2010Prop44ColorRGB
 90
      255
102
RTVSPost2010PropOp44
 70
     1
102
RTVSPost2010Prop45
280
     0
102
RTVSPost2010PropOp45
 70
     1
102
RTVSPost2010Prop46
 90
       50
102
RTVSPost2010PropOp46
 70
     1
102
RTVSPost2010Prop47
 90
       50
102
RTVSPost2010PropOp47
 70
     1
102
RTVSPost2010Prop48
 90
       50
102
RTVSPost2010PropOp48
 70
     1
102
RTVSPost2010Prop49
280
     0
102
RTVSPost2010PropOp49
 70
     1
102
RTVSPost2010Prop50
 90
       50
102
RTVSPost2010PropOp50
 70
     1
102
RTVSPost2010Prop51ColorIndex
 90
      256
102
RTVSPost2010Prop51ColorRGB
 90
-16777216
102
RTVSPost2010PropOp51
 70
     0
102
RTVSPost2010Prop52
140
1.0
102
RTVSPost2010PropOp52
 70
     0
102
RTVSPost2010Prop53
 90
        2
102
RTVSPost2010PropOp53
 70
     1
102
RTVSPost2010Prop54
  1
strokes_ogs.tif
102
RTVSPost2010PropOp54
 70
     1
102
RTVSPost2010Prop55
280
     0
102
RTVSPost2010PropOp55
 70
     1
102
RTVSPost2010Prop56
140
1.0
102
RTVSPost2010PropOp56
 70
     1
102
RTVSPost2010Prop57
140
1.0
102
RTVSPost2010PropOp57
 70
     1
  0
XRECORD
  5
32C
102
{ACAD_REACTORS
330
32B
102
}
330
32B
100
AcDbXrecord
280
     1
102
RTVSPropertyOp0
 70
     1
102
RTVSPropertyOp1
 70
     1
102
RTVSPropertyOp2
 70
     1
102
RTVSPropertyOp3
 70
     1
102
RTVSPropertyOp4
 70
     1
102
RTVSPropertyOp5
 70
     1
102
RTVSPropertyOp6
 70
     1
102
RTVSPropertyOp7
 70
     1
102
RTVSPropertyOp8
 70
     1
102
RTVSPropertyOp9
 70
     1
102
RTVSPropertyOp10
 70
     1
102
RTVSPropertyOp11
 70
     1
102
RTVSPropertyOp12
 70
     1
102
RTVSPropertyOp13
 70
     1
102
RTVSPropertyOp14
 70
     1
102
RTVSPropertyOp15
 70
     1
102
RTVSPropertyOp16
 70
     1
102
RTVSPropertyOp17
 70
     1
102
RTVSPropertyOp18
 70
     1
102
RTVSPropertyOp19
 70
     1
102
RTVSPropertyOp20
 70
     1
102
RTVSPropertyOp21
 70
     1
102
RTVSPropertyOp22
 70
     1
102
RTVSPropertyOp23
 70
     1
102
RTVSPropertyOp24
 70
     1
102
RTVSPropertyOp25
 70
     1
102
RTVSPropertyOp26
 70
     1
102
RTVSPropertyOp27
 70
     1
102
RTVSPropertyOp28
 70
     1
102
RTVSPropertyOp29
 70
     1
102
RTVSPropertyOp30
 70
     1
102
RTVSPropertyOp31
 70
     1
102
RTVSPropertyOp32
 70
     1
102
RTVSPropertyOp33
 70
     1
102
RTVSPropertyOp34
 70
     1
102
RTVSPropertyOp35
 70
     1
102
RTVSPropertyOp36
 70
     1
102
RTVSPropertyOp37
 70
     1
102
RTVSPropertyOp38
 70
     1
102
RTVSPropertyOp39
 70
     1
102
RTVSPropertyOp40
 70
     1
102
RTVSPropertyOp41
 70
     1
102
RTVSPropertyOp42
 70
     1
102
RTVSPropertyOp43
 70
     1
102
RTVSPropertyOp44
 70
     1
102
RTVSPropertyOp45
 70
     1
102
RTVSPropertyOp46
 70
     1
102
RTVSPropertyOp47
 70
     1
102
RTVSPropertyOp48
 70
     1
102
RTVSPropertyOp49
 70
     1
102
RTVSPropertyOp50
 70
     1
102
RTVSPropertyOp51
 70
     0
102
RTVSPropertyOp52
 70
     0
102
RTVSPropertyOp53
 70
     1
102
RTVSPropertyOp54
 70
     1
102
RTVSPropertyOp55
 70
     1
102
RTVSPropertyOp56
 70
     1
102
RTVSPropertyOp57
 70
     1
102
RTVSPost2010Prop28
280
     0
102
RTVSPost2010PropOp28
 70
     1
102
RTVSPost2010Prop29
280
     1
102
RTVSPost2010PropOp29
 70
     1
102
RTVSPost2010Prop30
280
     1
102
RTVSPost2010PropOp30
 70
     1
102
RTVSPost2010Prop31
280
     0
102
RTVSPost2010PropOp31
 70
     1
102
RTVSPost2010Prop32
280
     0
102
RTVSPost2010PropOp32
 70
     1
102
RTVSPost2010Prop33
280
     0
102
RTVSPost2010PropOp33
 70
     1
102
RTVSPost2010Prop34
280
     0
102
RTVSPost2010PropOp34
 70
     1
102
RTVSPost2010Prop35
280
     0
102
RTVSPost2010PropOp35
 70
     1
102
RTVSPost2010Prop36
280
     0
102
RTVSPost2010PropOp36
 70
     1
102
RTVSPost2010Prop37
 90
       50
102
RTVSPost2010PropOp37
 70
     1
102
RTVSPost2010Prop38
140
0.0
102
RTVSPost2010PropOp38
 70
     1
102
RTVSPost2010Prop39
140
1.0
102
RTVSPost2010PropOp39
 70
     1
102
RTVSPost2010Prop40
 90
        0
102
RTVSPost2010PropOp40
 70
     1
102
RTVSPost2010Prop41ColorIndex
 90
       18
102
RTVSPost2010Prop41ColorRGB
 90
        0
102
RTVSPost2010PropOp41
 70
     1
102
RTVSPost2010Prop42
 90
       50
102
RTVSPost2010PropOp42
 70
     1
102
RTVSPost2010Prop43
 90
        3
102
RTVSPost2010PropOp43
 70
     1
102
RTVSPost2010Prop44ColorIndex
 90
        5
102
RTVSPost2010Prop44ColorRGB
 90
      255
102
RTVSPost2010PropOp44
 70
     1
102
RTVSPost2010Prop45
280
     0
102
RTVSPost2010PropOp45
 70
     1
102
RTVSPost2010Prop46
 90
       50
102
RTVSPost2010PropOp46
 70
     1
102
RTVSPost2010Prop47
 90
       50
102
RTVSPost2010PropOp47
 70
     1
102
RTVSPost2010Prop48
 90
       50
102
RTVSPost2010PropOp48
 70
     1
102
RTVSPost2010Prop49
280
     0
102
RTVSPost2010PropOp49
 70
     1
102
RTVSPost2010Prop50
 90
       50
102
RTVSPost2010PropOp50
 70
     1
102
RTVSPost2010Prop51ColorIndex
 90
      256
102
RTVSPost2010Prop51ColorRGB
 90
-16777216
102
RTVSPost2010PropOp51
 70
     0
102
RTVSPost2010Prop52
140
1.0
102
RTVSPost2010PropOp52
 70
     0
102
RTVSPost2010Prop53
 90
        2
102
RTVSPost2010PropOp53
 70
     1
102
RTVSPost2010Prop54
  1
strokes_ogs.tif
102
RTVSPost2010PropOp54
 70
     1
102
RTVSPost2010Prop55
280
     0
102
RTVSPost2010PropOp55
 70
     1
102
RTVSPost2010Prop56
140
1.0
102
RTVSPost2010PropOp56
 70
     1
102
RTVSPost2010Prop57
140
1.0
102
RTVSPost2010PropOp57
 70
     1
  0
ENDSEC
  0
EOF
