  0
SECTION
  2
HEADER
  9
$ACADVER
  1
AC1018
  9
$ACADMAINTVER
 70
     0
  9
$DWGCODEPAGE
  3
ANSI_1252
  9
$INSBASE
 10
0.0
 20
0.0
 30
0.0
  9
$EXTMIN
 10
-271.2568927145344
 20
-46.29362749516849
 30
0.0
  9
$EXTMAX
 10
148.743107285464
 20
250.7063725048315
 30
0.0
  9
$LIMMIN
 10
0.0
 20
0.0
  9
$LIMMAX
 10
12.0
 20
9.0
  9
$ORTHOMODE
 70
     0
  9
$REGENMODE
 70
     1
  9
$FILLMODE
 70
     1
  9
$QTEXTMODE
 70
     0
  9
$MIRRTEXT
 70
     1
  9
$LTSCALE
 40
1.0
  9
$ATTMODE
 70
     1
  9
$TEXTSIZE
 40
0.2
  9
$TRACEWID
 40
0.05
  9
$TEXTSTYLE
  7
Standard
  9
$CLAYER
  8
0
  9
$CELTYPE
  6
ByLayer
  9
$CECOLOR
 62
   256
  9
$CELTSCALE
 40
1.0
  9
$DISPSILH
 70
     0
  9
$DIMSCALE
 40
1.0
  9
$DIMASZ
 40
0.18
  9
$DIMEXO
 40
0.0625
  9
$DIMDLI
 40
0.38
  9
$DIMRND
 40
0.0
  9
$DIMDLE
 40
0.0
  9
$DIMEXE
 40
0.18
  9
$DIMTP
 40
0.0
  9
$DIMTM
 40
0.0
  9
$DIMTXT
 40
0.18
  9
$DIMCEN
 40
0.09
  9
$DIMTSZ
 40
0.0
  9
$DIMTOL
 70
     0
  9
$DIMLIM
 70
     0
  9
$DIMTIH
 70
     1
  9
$DIMTOH
 70
     1
  9
$DIMSE1
 70
     0
  9
$DIMSE2
 70
     0
  9
$DIMTAD
 70
     0
  9
$DIMZIN
 70
     0
  9
$DIMBLK
  1

  9
$DIMASO
 70
     1
  9
$DIMSHO
 70
     1
  9
$DIMPOST
  1

  9
$DIMAPOST
  1

  9
$DIMALT
 70
     0
  9
$DIMALTD
 70
     2
  9
$DIMALTF
 40
25.4
  9
$DIMLFAC
 40
1.0
  9
$DIMTOFL
 70
     0
  9
$DIMTVP
 40
0.0
  9
$DIMTIX
 70
     0
  9
$DIMSOXD
 70
     0
  9
$DIMSAH
 70
     0
  9
$DIMBLK1
  1

  9
$DIMBLK2
  1

  9
$DIMSTYLE
  2
Standard
  9
$DIMCLRD
 70
     0
  9
$DIMCLRE
 70
     0
  9
$DIMCLRT
 70
     0
  9
$DIMTFAC
 40
1.0
  9
$DIMGAP
 40
0.09
  9
$DIMJUST
 70
     0
  9
$DIMSD1
 70
     0
  9
$DIMSD2
 70
     0
  9
$DIMTOLJ
 70
     1
  9
$DIMTZIN
 70
     0
  9
$DIMALTZ
 70
     0
  9
$DIMALTTZ
 70
     0
  9
$DIMUPT
 70
     0
  9
$DIMDEC
 70
     4
  9
$DIMTDEC
 70
     4
  9
$DIMALTU
 70
     2
  9
$DIMALTTD
 70
     2
  9
$DIMTXSTY
  7
Standard
  9
$DIMAUNIT
 70
     0
  9
$DIMADEC
 70
     0
  9
$DIMALTRND
 40
0.0
  9
$DIMAZIN
 70
     0
  9
$DIMDSEP
 70
    46
  9
$DIMATFIT
 70
     3
  9
$DIMFRAC
 70
     0
  9
$DIMLDRBLK
  1

  9
$DIMLUNIT
 70
     2
  9
$DIMLWD
 70
    -2
  9
$DIMLWE
 70
    -2
  9
$DIMTMOVE
 70
     0
  9
$LUNITS
 70
     2
  9
$LUPREC
 70
     4
  9
$SKETCHINC
 40
0.1
  9
$FILLETRAD
 40
0.5
  9
$AUNITS
 70
     0
  9
$AUPREC
 70
     0
  9
$MENU
  1
.
  9
$ELEVATION
 40
0.0
  9
$PELEVATION
 40
0.0
  9
$THICKNESS
 40
0.0
  9
$LIMCHECK
 70
     0
  9
$CHAMFERA
 40
0.0
  9
$CHAMFERB
 40
0.0
  9
$CHAMFERC
 40
0.0
  9
$CHAMFERD
 40
0.0
  9
$SKPOLY
 70
     0
  9
$TDCREATE
 40
2459306.456950417
  9
$TDUCREATE
 40
2459306.373617083
  9
$TDUPDATE
 40
2459306.456950602
  9
$TDUUPDATE
 40
2459306.373617269
  9
$TDINDWG
 40
0.0000000116
  9
$TDUSRTIMER
 40
0.0000000116
  9
$USRTIMER
 70
     1
  9
$ANGBASE
 50
0.0
  9
$ANGDIR
 70
     0
  9
$PDMODE
 70
     0
  9
$PDSIZE
 40
0.0
  9
$PLINEWID
 40
0.0
  9
$SPLFRAME
 70
     0
  9
$SPLINETYPE
 70
     6
  9
$SPLINESEGS
 70
     8
  9
$HANDSEED
  5
342
  9
$SURFTAB1
 70
     6
  9
$SURFTAB2
 70
     6
  9
$SURFTYPE
 70
     6
  9
$SURFU
 70
     6
  9
$SURFV
 70
     6
  9
$UCSBASE
  2

  9
$UCSNAME
  2

  9
$UCSORG
 10
0.0
 20
0.0
 30
0.0
  9
$UCSXDIR
 10
1.0
 20
0.0
 30
0.0
  9
$UCSYDIR
 10
0.0
 20
1.0
 30
0.0
  9
$UCSORTHOREF
  2

  9
$UCSORTHOVIEW
 70
     0
  9
$UCSORGTOP
 10
0.0
 20
0.0
 30
0.0
  9
$UCSORGBOTTOM
 10
0.0
 20
0.0
 30
0.0
  9
$UCSORGLEFT
 10
0.0
 20
0.0
 30
0.0
  9
$UCSORGRIGHT
 10
0.0
 20
0.0
 30
0.0
  9
$UCSORGFRONT
 10
0.0
 20
0.0
 30
0.0
  9
$UCSORGBACK
 10
0.0
 20
0.0
 30
0.0
  9
$PUCSBASE
  2

  9
$PUCSNAME
  2

  9
$PUCSORG
 10
0.0
 20
0.0
 30
0.0
  9
$PUCSXDIR
 10
1.0
 20
0.0
 30
0.0
  9
$PUCSYDIR
 10
0.0
 20
1.0
 30
0.0
  9
$PUCSORTHOREF
  2

  9
$PUCSORTHOVIEW
 70
     0
  9
$PUCSORGTOP
 10
0.0
 20
0.0
 30
0.0
  9
$PUCSORGBOTTOM
 10
0.0
 20
0.0
 30
0.0
  9
$PUCSORGLEFT
 10
0.0
 20
0.0
 30
0.0
  9
$PUCSORGRIGHT
 10
0.0
 20
0.0
 30
0.0
  9
$PUCSORGFRONT
 10
0.0
 20
0.0
 30
0.0
  9
$PUCSORGBACK
 10
0.0
 20
0.0
 30
0.0
  9
$USERI1
 70
     0
  9
$USERI2
 70
     0
  9
$USERI3
 70
     0
  9
$USERI4
 70
     0
  9
$USERI5
 70
     0
  9
$USERR1
 40
20.1
  9
$USERR2
 40
0.0
  9
$USERR3
 40
0.0
  9
$USERR4
 40
0.0
  9
$USERR5
 40
0.0
  9
$WORLDVIEW
 70
     1
  9
$SHADEDGE
 70
     3
  9
$SHADEDIF
 70
    70
  9
$TILEMODE
 70
     1
  9
$MAXACTVP
 70
    64
  9
$PINSBASE
 10
0.0
 20
0.0
 30
0.0
  9
$PLIMCHECK
 70
     0
  9
$PEXTMIN
 10
1.00000000000000E+20
 20
1.00000000000000E+20
 30
1.00000000000000E+20
  9
$PEXTMAX
 10
-1.00000000000000E+20
 20
-1.00000000000000E+20
 30
-1.00000000000000E+20
  9
$PLIMMIN
 10
0.0
 20
0.0
  9
$PLIMMAX
 10
12.0
 20
9.0
  9
$UNITMODE
 70
     0
  9
$VISRETAIN
 70
     1
  9
$PLINEGEN
 70
     0
  9
$PSLTSCALE
 70
     1
  9
$TREEDEPTH
 70
  3020
  9
$CMLSTYLE
  2
Standard
  9
$CMLJUST
 70
     0
  9
$CMLSCALE
 40
1.0
  9
$PROXYGRAPHICS
 70
     1
  9
$MEASUREMENT
 70
     1
  9
$CELWEIGHT
370
    -1
  9
$ENDCAPS
280
     0
  9
$JOINSTYLE
280
     0
  9
$LWDISPLAY
290
     0
  9
$INSUNITS
 70
     4
  9
$HYPERLINKBASE
  1

  9
$STYLESHEET
  1

  9
$XEDIT
290
     1
  9
$CEPSNTYPE
380
     0
  9
$PSTYLEMODE
290
     1
  9
$FINGERPRINTGUID
  2
{2cc03e5a-74d8-4918-a92b-b2252a41fac3}
  9
$VERSIONGUID
  2
{FAEB1C32-E019-11D5-929B-00C0DF256EC4}
  9
$EXTNAMES
290
     1
  9
$PSVPSCALE
 40
0.0
  9
$OLESTARTUP
290
     0
  9
$SORTENTS
280
   127
  9
$INDEXCTL
280
     0
  9
$HIDETEXT
280
     1
  9
$XCLIPFRAME
290
     0
  9
$HALOGAP
280
     0
  9
$OBSCOLOR
 70
   257
  9
$OBSLTYPE
280
     0
  9
$INTERSECTIONDISPLAY
280
     0
  9
$INTERSECTIONCOLOR
 70
   257
  9
$DIMASSOC
280
     2
  9
$PROJECTNAME
  1

  0
ENDSEC
  0
SECTION
  2
CLASSES
  0
CLASS
  1
ACDBDICTIONARYWDFLT
  2
AcDbDictionaryWithDefault
  3
ObjectDBX Classes
 90
        0
 91
        3
280
     0
281
     0
  0
CLASS
  1
VISUALSTYLE
  2
AcDbVisualStyle
  3
ObjectDBX Classes
 90
     4095
 91
        3
280
     0
281
     0
  0
CLASS
  1
MATERIAL
  2
AcDbMaterial
  3
ObjectDBX Classes
 90
     1153
 91
        3
280
     0
281
     0
  0
CLASS
  1
SCALE
  2
AcDbScale
  3
ObjectDBX Classes
 90
     1153
 91
        3
280
     0
281
     0
  0
CLASS
  1
TABLESTYLE
  2
AcDbTableStyle
  3
ObjectDBX Classes
 90
     4095
 91
        3
280
     0
281
     0
  0
CLASS
  1
MLEADERSTYLE
  2
AcDbMLeaderStyle
  3
ACDB_MLEADERSTYLE_CLASS
 90
     4095
 91
        3
280
     0
281
     0
  0
CLASS
  1
SUN
  2
AcDbSun
  3
SCENEOE
 90
     1153
 91
        3
280
     0
281
     0
  0
CLASS
  1
DICTIONARYVAR
  2
AcDbDictionaryVar
  3
ObjectDBX Classes
 90
        0
 91
        3
280
     0
281
     0
  0
CLASS
  1
CELLSTYLEMAP
  2
AcDbCellStyleMap
  3
ObjectDBX Classes
 90
     1152
 91
        3
280
     0
281
     0
  0
ENDSEC
  0
SECTION
  2
TABLES
  0
TABLE
  2
VPORT
  5
8
102
{ACAD_XDICTIONARY
360
2FB
102
}
330
0
100
AcDbSymbolTable
 70
     1
  0
VPORT
  5
29
330
8
100
AcDbSymbolTableRecord
100
AcDbViewportTableRecord
  2
*Active
 70
     0
 10
0.0
 20
0.0
 11
1.0
 21
1.0
 12
-61.2568927145352
 22
102.2063725048315
 13
0.0
 23
0.0
 14
0.5
 24
0.5
 15
0.5
 25
0.5
 16
0.0
 26
0.0
 36
1.0
 17
0.0
 27
0.0
 37
0.0
 40
326.7
 41
1.60267857142857
 42
50.0
 43
0.0
 44
0.0
 50
0.0
 51
0.0
 71
     0
 72
   100
 73
     1
 74
     3
 75
     0
 76
     0
 77
     0
 78
     0
281
     0
 65
     1
110
0.0
120
0.0
130
0.0
111
1.0
121
0.0
131
0.0
112
0.0
122
1.0
132
0.0
 79
     0
146
0.0
  0
ENDTAB
  0
TABLE
  2
LTYPE
  5
5
330
0
100
AcDbSymbolTable
 70
     8
  0
LTYPE
  5
14
330
5
100
AcDbSymbolTableRecord
100
AcDbLinetypeTableRecord
  2
ByBlock
 70
     0
  3

 72
    65
 73
     0
 40
0.0
  0
LTYPE
  5
15
330
5
100
AcDbSymbolTableRecord
100
AcDbLinetypeTableRecord
  2
ByLayer
 70
     0
  3

 72
    65
 73
     0
 40
0.0
  0
LTYPE
  5
16
330
5
100
AcDbSymbolTableRecord
100
AcDbLinetypeTableRecord
  2
Continuous
 70
     0
  3
Solid line
 72
    65
 73
     0
 40
0.0
  0
LTYPE
  5
6E
330
5
100
AcDbSymbolTableRecord
100
AcDbLinetypeTableRecord
  2
DASHED
 70
     0
  3
Dashed
 72
    65
 73
     2
 40
15.0
 49
7.0
 74
     0
 49
-8.0
 74
     0
  0
LTYPE
  5
6F
330
5
100
AcDbSymbolTableRecord
100
AcDbLinetypeTableRecord
  2
DOTTED
 70
     0
  3
Dotted
 72
    65
 73
     2
 40
1.0
 49
0.0
 74
     0
 49
-1.0
 74
     0
  0
LTYPE
  5
70
330
5
100
AcDbSymbolTableRecord
100
AcDbLinetypeTableRecord
  2
DOT_CENTER
 70
     0
  3
Dot_Center
 72
    65
 73
     4
 40
14.0
 49
12.0
 74
     0
 49
-1.0
 74
     0
 49
0.0
 74
     0
 49
-1.0
 74
     0
  0
LTYPE
  5
71
330
5
100
AcDbSymbolTableRecord
100
AcDbLinetypeTableRecord
  2
LONG_DASHED
 70
     0
  3
Long_Dashed
 72
    65
 73
     2
 40
15.0
 49
10.0
 74
     0
 49
-5.0
 74
     0
  0
LTYPE
  5
72
330
5
100
AcDbSymbolTableRecord
100
AcDbLinetypeTableRecord
  2
DASH_CENTER
 70
     0
  3
Dash_Center
 72
    65
 73
     4
 40
14.0
 49
11.0
 74
     0
 49
-1.0
 74
     0
 49
1.0
 74
     0
 49
-1.0
 74
     0
  0
LTYPE
  5
73
330
5
100
AcDbSymbolTableRecord
100
AcDbLinetypeTableRecord
  2
PHANTOM
 70
     0
  3
Phantom
 72
    65
 73
     6
 40
13.0
 49
10.0
 74
     0
 49
-1.0
 74
     0
 49
0.0
 74
     0
 49
-1.0
 74
     0
 49
0.0
 74
     0
 49
-1.0
 74
     0
  0
LTYPE
  5
74
330
5
100
AcDbSymbolTableRecord
100
AcDbLinetypeTableRecord
  2
CENTER_DASH_DASH
 70
     0
  3
Center_Dash_Dash
 72
    65
 73
     6
 40
14.0
 49
9.0
 74
     0
 49
-1.0
 74
     0
 49
1.0
 74
     0
 49
-1.0
 74
     0
 49
1.0
 74
     0
 49
-1.0
 74
     0
  0
ENDTAB
  0
TABLE
  2
LAYER
  5
2
330
0
100
AcDbSymbolTable
 70
     2
  0
LAYER
  5
10
330
2
100
AcDbSymbolTableRecord
100
AcDbLayerTableRecord
  2
0
 70
     0
 62
     7
  6
Continuous
370
    -3
390
F
  0
LAYER
  5
75
330
2
100
AcDbSymbolTableRecord
100
AcDbLayerTableRecord
  2
1
 70
     0
 62
     7
  6
Continuous
370
    -3
390
F
  0
ENDTAB
  0
TABLE
  2
STYLE
  5
3
330
0
100
AcDbSymbolTable
 70
     5
  0
STYLE
  5
11
330
3
100
AcDbSymbolTableRecord
100
AcDbTextStyleTableRecord
  2
Standard
 70
     0
 40
0.0
 41
1.0
 50
0.0
 71
     0
 42
0.2
  3
txt
  4

  0
STYLE
  5
EC
330
3
100
AcDbSymbolTableRecord
100
AcDbTextStyleTableRecord
  2
CONVERTER_11
 70
     0
 40
0.0
 41
0.9
 50
0.0
 71
     0
 42
0.2
  3
txt.shx
  4

  0
STYLE
  5
2BB
330
3
100
AcDbSymbolTableRecord
100
AcDbTextStyleTableRecord
  2
CONVERTER_12
 70
     0
 40
0.0
 41
0.81
 50
0.0
 71
     0
 42
0.2
  3
txt.shx
  4

  0
STYLE
  5
2C3
330
3
100
AcDbSymbolTableRecord
100
AcDbTextStyleTableRecord
  2
CONVERTER_13
 70
     0
 40
0.0
 41
0.72
 50
0.0
 71
     0
 42
0.2
  3
txt.shx
  4

  0
STYLE
  5
2C6
330
3
100
AcDbSymbolTableRecord
100
AcDbTextStyleTableRecord
  2
CONVERTER_14
 70
     0
 40
0.0
 41
0.855
 50
0.0
 71
     0
 42
0.2
  3
txt.shx
  4

  0
ENDTAB
  0
TABLE
  2
VIEW
  5
6
330
0
100
AcDbSymbolTable
 70
     0
  0
ENDTAB
  0
TABLE
  2
UCS
  5
7
330
0
100
AcDbSymbolTable
 70
     0
  0
ENDTAB
  0
TABLE
  2
APPID
  5
9
330
0
100
AcDbSymbolTable
 70
     2
  0
APPID
  5
12
330
9
100
AcDbSymbolTableRecord
100
AcDbRegAppTableRecord
  2
ACAD
 70
     0
  0
APPID
  5
33A
330
9
100
AcDbSymbolTableRecord
100
AcDbRegAppTableRecord
  2
ACAD_MLEADERVER
 70
     0
  0
ENDTAB
  0
TABLE
  2
DIMSTYLE
  5
A
330
0
100
AcDbSymbolTable
 70
     4
100
AcDbDimStyleTable
  0
DIMSTYLE
105
27
330
A
100
AcDbSymbolTableRecord
100
AcDbDimStyleTableRecord
  2
Standard
 70
     0
178
     0
340
11
  0
DIMSTYLE
105
10A
102
{ACAD_REACTORS
330
10B
102
}
330
A
100
AcDbSymbolTableRecord
100
AcDbDimStyleTableRecord
  2
ME10_DIM_10
 70
     0
 41
1.75
 42
0.0
 44
0.75
 73
     0
 74
     0
 77
     1
 78
     8
140
1.75
147
0.75
172
     1
173
     1
174
     1
175
     1
176
     2
177
     2
178
     3
340
EC
  0
DIMSTYLE
105
1A1
102
{ACAD_REACTORS
330
1A2
102
}
330
A
100
AcDbSymbolTableRecord
100
AcDbDimStyleTableRecord
  2
ME10_DIM_11
 70
     0
 41
1.75
 42
0.0
 44
1.0
 73
     0
 74
     0
 77
     1
 78
     8
140
1.75
147
1.0
172
     1
173
     1
174
     1
175
     1
176
     2
177
     2
178
     3
340
EC
  0
DIMSTYLE
105
1AC
102
{ACAD_REACTORS
330
1AD
102
}
330
A
100
AcDbSymbolTableRecord
100
AcDbDimStyleTableRecord
  2
ME10_DIM_12
 70
     0
 41
1.75
 42
0.0
 44
1.0
 73
     0
 74
     0
 77
     1
 78
     8
140
1.75
147
1.0
172
     1
173
     1
174
     1
175
     1
176
     2
177
     2
178
     3
340
EC
  0
ENDTAB
  0
TABLE
  2
BLOCK_RECORD
  5
1
330
0
100
AcDbSymbolTable
 70
    20
  0
BLOCK_RECORD
  5
1F
330
1
100
AcDbSymbolTableRecord
100
AcDbBlockTableRecord
  2
*Model_Space
340
22
  0
BLOCK_RECORD
  5
1B
330
1
100
AcDbSymbolTableRecord
100
AcDbBlockTableRecord
  2
*Paper_Space
340
1E
  0
BLOCK_RECORD
  5
23
330
1
100
AcDbSymbolTableRecord
100
AcDbBlockTableRecord
  2
*Paper_Space0
340
26
  0
BLOCK_RECORD
  5
76
330
1
100
AcDbSymbolTableRecord
100
AcDbBlockTableRecord
  2
CES_SRG_BK_5-select__1
340
0
102
{BLKREFS
331
7A
102
}
  0
BLOCK_RECORD
  5
79
330
1
100
AcDbSymbolTableRecord
100
AcDbBlockTableRecord
  2
AllgSicht1
340
0
102
{BLKREFS
331
AC
102
}
  0
BLOCK_RECORD
  5
7D
330
1
100
AcDbSymbolTableRecord
100
AcDbBlockTableRecord
  2
CES_SRG_BK_5-select__2
340
0
102
{BLKREFS
331
81
102
}
  0
BLOCK_RECORD
  5
80
330
1
100
AcDbSymbolTableRecord
100
AcDbBlockTableRecord
  2
Drfsicht1
340
0
102
{BLKREFS
331
AD
102
}
  0
BLOCK_RECORD
  5
84
330
1
100
AcDbSymbolTableRecord
100
AcDbBlockTableRecord
  2
CES_SRG_BK_5-select__3
340
0
102
{BLKREFS
331
88
102
}
  0
BLOCK_RECORD
  5
87
330
1
100
AcDbSymbolTableRecord
100
AcDbBlockTableRecord
  2
Rckans1
340
0
102
{BLKREFS
331
AE
102
}
  0
BLOCK_RECORD
  5
8B
330
1
100
AcDbSymbolTableRecord
100
AcDbBlockTableRecord
  2
CES_SRG_BK_5-select__4
340
0
102
{BLKREFS
331
8F
102
}
  0
BLOCK_RECORD
  5
8E
330
1
100
AcDbSymbolTableRecord
100
AcDbBlockTableRecord
  2
SA_Links1
340
0
102
{BLKREFS
331
AF
102
}
  0
BLOCK_RECORD
  5
92
330
1
100
AcDbSymbolTableRecord
100
AcDbBlockTableRecord
  2
CES_SRG_BK_5-select__5
340
0
102
{BLKREFS
331
96
102
}
  0
BLOCK_RECORD
  5
95
330
1
100
AcDbSymbolTableRecord
100
AcDbBlockTableRecord
  2
SA_Rechts1
340
0
102
{BLKREFS
331
B0
102
}
  0
BLOCK_RECORD
  5
99
330
1
100
AcDbSymbolTableRecord
100
AcDbBlockTableRecord
  2
CES_SRG_BK_5-select__6
340
0
102
{BLKREFS
331
9D
102
}
  0
BLOCK_RECORD
  5
9C
330
1
100
AcDbSymbolTableRecord
100
AcDbBlockTableRecord
  2
Vordans1
340
0
102
{BLKREFS
331
B1
102
}
  0
BLOCK_RECORD
  5
A0
330
1
100
AcDbSymbolTableRecord
100
AcDbBlockTableRecord
  2
_rahmen
340
0
102
{BLKREFS
331
A7
102
}
  0
BLOCK_RECORD
  5
A3
330
1
100
AcDbSymbolTableRecord
100
AcDbBlockTableRecord
  2
_punkt
340
0
102
{BLKREFS
331
A8
102
}
  0
BLOCK_RECORD
  5
A6
330
1
100
AcDbSymbolTableRecord
100
AcDbBlockTableRecord
  2
A3I_CS
340
0
102
{BLKREFS
331
B2
102
}
  0
BLOCK_RECORD
  5
AB
330
1
100
AcDbSymbolTableRecord
100
AcDbBlockTableRecord
  2
1
340
0
102
{BLKREFS
331
B5
102
}
  0
BLOCK_RECORD
  5
101
330
1
100
AcDbSymbolTableRecord
100
AcDbBlockTableRecord
  2
*D17
340
0
  0
BLOCK_RECORD
  5
198
330
1
100
AcDbSymbolTableRecord
100
AcDbBlockTableRecord
  2
*D18
340
0
  0
BLOCK_RECORD
  5
1A3
330
1
100
AcDbSymbolTableRecord
100
AcDbBlockTableRecord
  2
*D19
340
0
  0
ENDTAB
  0
ENDSEC
  0
SECTION
  2
BLOCKS
  0
BLOCK
  5
20
330
1F
100
AcDbEntity
  8
0
100
AcDbBlockBegin
  2
*Model_Space
 70
     0
 10
0.0
 20
0.0
 30
0.0
  3
*Model_Space
  1

  0
ENDBLK
  5
21
330
1F
100
AcDbEntity
  8
0
100
AcDbBlockEnd
  0
BLOCK
  5
1C
330
1B
100
AcDbEntity
 67
     1
  8
0
100
AcDbBlockBegin
  2
*Paper_Space
 70
     0
 10
0.0
 20
0.0
 30
0.0
  3
*Paper_Space
  1

  0
ENDBLK
  5
1D
330
1B
100
AcDbEntity
 67
     1
  8
0
100
AcDbBlockEnd
  0
BLOCK
  5
24
330
23
100
AcDbEntity
  8
0
100
AcDbBlockBegin
  2
*Paper_Space0
 70
     0
 10
0.0
 20
0.0
 30
0.0
  3
*Paper_Space0
  1

  0
ENDBLK
  5
25
330
23
100
AcDbEntity
  8
0
100
AcDbBlockEnd
  0
BLOCK
  5
77
330
76
100
AcDbEntity
  8
0
100
AcDbBlockBegin
  2
CES_SRG_BK_5-select__1
 70
     0
 10
41.26378361410523
 20
-3.02267316654215
 30
0.0
  3
CES_SRG_BK_5-select__1
  1

  0
LINE
  5
B6
330
76
100
AcDbEntity
  8
0
  6
Continuous
 62
     7
100
AcDbLine
 10
51.72343092374738
 20
21.79218779737798
 30
0.0
 11
51.72343092374792
 21
23.71531311884258
 31
0.0
  0
LINE
  5
B7
330
76
100
AcDbEntity
  8
0
  6
Continuous
 62
     7
100
AcDbLine
 10
48.10113919077367
 20
24.80230977951751
 30
0.0
 11
51.72343092374792
 21
23.71531311884258
 31
0.0
  0
LINE
  5
B8
330
76
100
AcDbEntity
  8
0
  6
Continuous
 62
     7
100
AcDbLine
 10
48.10113919077305
 20
22.63119781535658
 30
0.0
 11
51.72343092374738
 21
21.79218779737798
 31
0.0
  0
LINE
  5
B9
330
76
100
AcDbEntity
  8
0
  6
Continuous
 62
     7
100
AcDbLine
 10
52.47343092374738
 20
22.44170685021631
 30
0.0
 11
51.72343092374738
 21
21.79218779737798
 31
0.0
  0
LINE
  5
BA
330
76
100
AcDbEntity
  8
0
  6
Continuous
 62
     7
100
AcDbLine
 10
52.47343092374687
 20
20.58868694864934
 30
0.0
 11
52.47343092374738
 21
22.44170685021631
 31
0.0
  0
LINE
  5
BB
330
76
100
AcDbEntity
  8
0
  6
Continuous
 62
     7
100
AcDbLine
 10
48.85113919077258
 20
21.55169028797609
 30
0.0
 11
52.47343092374687
 21
20.58868694864934
 31
0.0
  0
LINE
  5
BC
330
76
100
AcDbEntity
  8
0
  6
Continuous
 62
     7
100
AcDbLine
 10
53.83374784577987
 20
21.76675596032777
 30
0.0
 11
52.47343092374687
 21
20.58868694864934
 31
0.0
  0
LINE
  5
BD
330
76
100
AcDbEntity
  8
0
  6
Continuous
 62
     7
100
AcDbLine
 10
48.85113919077283
 20
22.45747974959298
 30
0.0
 11
48.85113919077258
 21
21.55169028797609
 31
0.0
  0
LINE
  5
BE
330
76
100
AcDbEntity
  8
0
  6
Continuous
 62
     7
100
AcDbLine
 10
41.26378361411071
 20
24.17700003374742
 30
0.0
 11
44.72788522924848
 21
23.17700003374659
 31
0.0
  0
LINE
  5
BF
330
76
100
AcDbEntity
  8
0
  6
Continuous
 62
     7
100
AcDbLine
 10
48.10113919077367
 20
24.80230977951751
 30
0.0
 11
48.10113919077305
 21
22.63119781535658
 31
0.0
  0
LINE
  5
C0
330
76
100
AcDbEntity
  8
0
  6
Continuous
 62
     7
100
AcDbLine
 10
54.31700298192293
 20
26.28526718473781
 30
0.0
 11
54.47788522924725
 21
26.42459529793859
 31
0.0
  0
LINE
  5
C1
330
76
100
AcDbEntity
  8
0
  6
Continuous
 62
     7
100
AcDbLine
 10
51.10463126772284
 20
27.40341021822077
 30
0.0
 11
48.10113919077367
 21
24.80230977951751
 31
0.0
  0
LINE
  5
C2
330
76
100
AcDbEntity
  8
0
  6
Continuous
 62
     7
100
AcDbLine
 10
44.72788522924848
 20
23.17700003374659
 30
0.0
 11
54.47788522924848
 21
31.62074772064485
 31
0.0
  0
LINE
  5
C3
330
76
100
AcDbEntity
  8
0
  6
Continuous
 62
     7
100
AcDbLine
 10
41.26378361411071
 20
24.17700003374742
 30
0.0
 11
51.01378361411071
 21
32.62074772064568
 31
0.0
  0
LINE
  5
C4
330
76
100
AcDbEntity
  8
0
  6
Continuous
 62
     7
100
AcDbLine
 10
56.68625000889752
 20
25.78709529793808
 30
0.0
 11
65.73621547844485
 21
23.17459529793595
 31
0.0
  0
LINE
  5
C5
330
76
100
AcDbEntity
  8
0
  6
Continuous
 62
     7
100
AcDbLine
 10
55.98621547844485
 20
14.73084761103769
 30
0.0
 11
65.73621547844485
 21
23.17459529793595
 31
0.0
  0
LINE
  5
C6
330
76
100
AcDbEntity
  8
0
  6
Continuous
 62
     7
100
AcDbLine
 10
65.73621547844061
 20
5.42107452035611
 30
0.0
 11
65.73621547844485
 21
23.17459529793595
 31
0.0
  0
LINE
  5
C7
330
76
100
AcDbEntity
  8
0
  6
Continuous
 62
     7
100
AcDbLine
 10
56.68625000889752
 20
25.78709529793808
 30
0.0
 11
56.50323730700535
 21
26.12860164888426
 31
0.0
  0
LINE
  5
C8
330
76
100
AcDbEntity
  8
0
  6
Continuous
 62
     7
100
AcDbLine
 10
56.50323730700535
 20
26.12860164888426
 30
0.0
 11
55.82022460511312
 21
26.03709529793827
 31
0.0
  0
LINE
  5
C9
330
76
100
AcDbEntity
  8
0
  6
Continuous
 62
     7
100
AcDbLine
 10
51.72343092374792
 20
23.71531311884258
 30
0.0
 11
54.58374784578092
 21
26.19242023619767
 31
0.0
  0
LINE
  5
CA
330
76
100
AcDbEntity
  8
0
  6
Continuous
 62
     7
100
AcDbLine
 10
51.10463126772284
 20
27.40341021822077
 30
0.0
 11
54.58374784578092
 21
26.19242023619767
 31
0.0
  0
LINE
  5
CB
330
76
100
AcDbEntity
  8
0
  6
Continuous
 62
     7
100
AcDbLine
 10
54.47788522924848
 20
31.62074772064485
 30
0.0
 11
51.01378361411071
 21
32.62074772064568
 31
0.0
  0
LINE
  5
CC
330
76
100
AcDbEntity
  8
0
  6
Continuous
 62
     7
100
AcDbLine
 10
55.98621547844485
 20
14.73084761103769
 30
0.0
 11
54.1242608603084
 21
15.2683476110381
 31
0.0
  0
LINE
  5
CD
330
76
100
AcDbEntity
  8
0
  6
Continuous
 62
     7
100
AcDbLine
 10
53.25823545652393
 20
15.51834761103832
 30
0.0
 11
44.72788522924725
 21
17.98084761104033
 31
0.0
  0
LINE
  5
CE
330
76
100
AcDbEntity
  8
0
  6
Continuous
 62
     7
100
AcDbLine
 10
44.72788522924848
 20
23.17700003374659
 30
0.0
 11
44.72788522924725
 21
17.98084761104033
 31
0.0
  0
LINE
  5
CF
330
76
100
AcDbEntity
  8
0
  6
Continuous
 62
     7
100
AcDbLine
 10
44.72788522924725
 20
17.98084761104033
 30
0.0
 11
48.85113919077258
 21
21.55169028797609
 31
0.0
  0
LINE
  5
D0
330
76
100
AcDbEntity
  8
0
  6
Continuous
 62
     7
100
AcDbLine
 10
45.9181774975405
 20
-1.01989641680659
 30
0.0
 11
45.60706510498225
 21
-0.02647053550179
 31
0.0
  0
LINE
  5
D1
330
76
100
AcDbEntity
  8
0
  6
Continuous
 62
     7
100
AcDbLine
 10
53.25823545651971
 20
-2.23517316654153
 30
0.0
 11
41.26378361410523
 21
1.22732683346131
 31
0.0
  0
LINE
  5
D2
330
76
100
AcDbEntity
  8
0
  6
Continuous
 62
     7
100
AcDbLine
 10
53.25823545651971
 20
-2.23517316654153
 30
0.0
 11
53.44124815841198
 21
-2.57667951748776
 31
0.0
  0
LINE
  5
D3
330
76
100
AcDbEntity
  8
0
  6
Continuous
 62
     7
100
AcDbLine
 10
53.44124815841198
 20
-2.57667951748776
 30
0.0
 11
54.12426086030419
 21
-2.48517316654174
 31
0.0
  0
LINE
  5
D4
330
76
100
AcDbEntity
  8
0
  6
Continuous
 62
     7
100
AcDbLine
 10
53.44124815841621
 20
15.17684126009209
 30
0.0
 11
53.44124815841198
 21
-2.57667951748776
 31
0.0
  0
LINE
  5
D5
330
76
100
AcDbEntity
  8
0
  6
Continuous
 62
     7
100
AcDbLine
 10
54.58374784578038
 20
24.26929491473308
 30
0.0
 11
53.83374784578039
 21
23.61977586189475
 31
0.0
  0
LINE
  5
D6
330
76
100
AcDbEntity
  8
0
  6
Continuous
 62
     7
100
AcDbLine
 10
54.58374784578092
 20
26.19242023619767
 30
0.0
 11
54.58374784578038
 21
24.26929491473308
 31
0.0
  0
LINE
  5
D7
330
76
100
AcDbEntity
  8
0
  6
Continuous
 62
     7
100
AcDbLine
 10
54.47788522924725
 20
26.42459529793859
 30
0.0
 11
55.82022460511312
 21
26.03709529793827
 31
0.0
  0
LINE
  5
D8
330
76
100
AcDbEntity
  8
0
  6
Continuous
 62
     7
100
AcDbLine
 10
54.1242608603084
 20
15.2683476110381
 30
0.0
 11
54.12426086030419
 21
-2.48517316654174
 31
0.0
  0
LINE
  5
D9
330
76
100
AcDbEntity
  8
0
  6
Continuous
 62
     7
100
AcDbLine
 10
55.98621547844485
 20
14.73084761103769
 30
0.0
 11
55.98621547844062
 21
-3.02267316654215
 31
0.0
  0
LINE
  5
DA
330
76
100
AcDbEntity
  8
0
  6
Continuous
 62
     7
100
AcDbLine
 10
53.83374784578039
 20
23.61977586189475
 30
0.0
 11
53.83374784577987
 21
21.76675596032777
 31
0.0
  0
LINE
  5
DB
330
76
100
AcDbEntity
  8
0
  6
Continuous
 62
     7
100
AcDbLine
 10
53.25823545652393
 20
15.51834761103832
 30
0.0
 11
53.44124815841621
 21
15.17684126009209
 31
0.0
  0
LINE
  5
DC
330
76
100
AcDbEntity
  8
0
  6
Continuous
 62
     7
100
AcDbLine
 10
54.47788522924848
 20
31.62074772064485
 30
0.0
 11
54.47788522924725
 21
26.42459529793859
 31
0.0
  0
LINE
  5
DD
330
76
100
AcDbEntity
  8
0
  6
Continuous
 62
     7
100
AcDbLine
 10
53.25823545652393
 20
15.51834761103832
 30
0.0
 11
53.25823545651971
 21
-2.23517316654153
 31
0.0
  0
LINE
  5
DE
330
76
100
AcDbEntity
  8
0
  6
Continuous
 62
     7
100
AcDbLine
 10
53.44124815841621
 20
15.17684126009209
 30
0.0
 11
54.1242608603084
 21
15.2683476110381
 31
0.0
  0
LINE
  5
DF
330
76
100
AcDbEntity
  8
0
  6
Continuous
 62
     7
100
AcDbLine
 10
55.98621547844062
 20
-3.02267316654215
 30
0.0
 11
54.12426086030419
 21
-2.48517316654174
 31
0.0
  0
LINE
  5
E0
330
76
100
AcDbEntity
  8
0
  6
Continuous
 62
     7
100
AcDbLine
 10
41.26378361410523
 20
1.22732683346131
 30
0.0
 11
41.26378361411071
 21
24.17700003374742
 31
0.0
  0
LINE
  5
E1
330
76
100
AcDbEntity
  8
0
  6
Continuous
 62
     7
100
AcDbLine
 10
65.73621547844061
 20
5.42107452035611
 30
0.0
 11
55.98621547844062
 21
-3.02267316654215
 31
0.0
  0
SPLINE
  5
E2
330
76
100
AcDbEntity
  8
0
  6
Continuous
 62
     7
100
AcDbSpline
210
0.0
220
0.0
230
1.0
 70
  1064
 71
     3
 72
    11
 73
     7
 74
     5
 42
0.000000001
 43
0.0000000001
 44
0.00000001
 40
0.0
 40
0.0
 40
0.0
 40
0.0
 40
0.3766024589415607
 40
0.6915266369969183
 40
0.9435619909941997
 40
1.151652787050245
 40
1.151652787050245
 40
1.151652787050245
 40
1.151652787050245
 10
47.67788522924776
 20
22.70068606166569
 30
0.0
 10
47.67341258161466
 20
22.82674453645623
 30
0.0
 10
47.66519978917278
 20
23.0582161868008
 30
0.0
 10
47.58446543687269
 20
23.36183481644793
 30
0.0
 10
47.4578552483235
 20
23.60096657204213
 30
0.0
 10
47.31806856543863
 20
23.67151675802007
 30
0.0
 10
47.25485041566213
 20
23.70342288144835
 30
0.0
 11
47.67788522924776
 21
22.70068606166569
 31
0.0
 11
47.64935435698308
 21
23.07620622810958
 31
0.0
 11
47.56547609807751
 21
23.37975470438138
 31
0.0
 11
47.43128794845884
 21
23.59309800619195
 31
0.0
 11
47.25485041566213
 21
23.70342288144835
 31
0.0
  0
SPLINE
  5
E3
330
76
100
AcDbEntity
  8
0
  6
Continuous
 62
     7
100
AcDbSpline
210
0.0
220
0.0
230
1.0
 70
  1064
 71
     3
 72
    15
 73
    11
 74
     9
 42
0.000000001
 43
0.0000000001
 44
0.00000001
 40
0.0
 40
0.0
 40
0.0
 40
0.0
 40
0.2298529119743224
 40
0.516060799832969
 40
0.8791221737910266
 40
1.313105872362632
 40
1.798319181630552
 40
2.30792295814091
 40
2.812142237556502
 40
3.281830617084574
 40
3.281830617084574
 40
3.281830617084574
 40
3.281830617084574
 10
46.20092004283337
 20
20.0525009746926
 30
0.0
 10
46.27910752566636
 20
20.04682151730677
 30
0.0
 10
46.4546523731945
 20
20.0340701317704
 30
0.0
 10
46.71274435904311
 20
20.20358601813796
 30
0.0
 10
46.96064780731303
 20
20.46347724579776
 30
0.0
 10
47.19377239215889
 20
20.8258059816305
 30
0.0
 10
47.39560468391161
 20
21.25806999175853
 30
0.0
 10
47.55072514290469
 20
21.73400894299764
 30
0.0
 10
47.65543313771172
 20
22.21931012580048
 30
0.0
 10
47.67058021790868
 20
22.54406559626747
 30
0.0
 10
47.67788522924776
 20
22.70068606166569
 30
0.0
 11
46.20092004283337
 21
20.0525009746926
 31
0.0
 11
46.43071341347434
 21
20.05773282894674
 31
0.0
 11
46.68201534370976
 21
20.19470835462599
 31
0.0
 11
46.93663727913401
 21
20.45351567762556
 31
0.0
 11
47.1761502585028
 21
20.81542089026534
 31
0.0
 11
47.3832183733238
 21
21.25423149993184
 31
0.0
 11
47.54285509917915
 21
21.73818617230017
 31
0.0
 11
47.64350532081311
 21
22.23225763979431
 31
0.0
 11
47.67788522924776
 21
22.70068606166569
 31
0.0
  0
SPLINE
  5
E4
330
76
100
AcDbEntity
  8
0
  6
Continuous
 62
     7
100
AcDbSpline
210
0.0
220
0.0
230
1.0
 70
  1064
 71
     3
 72
    19
 73
    15
 74
    13
 42
0.000000001
 43
0.0000000001
 44
0.00000001
 40
0.0
 40
0.0
 40
0.0
 40
0.0
 40
0.2225611229058565
 40
0.4971528408223615
 40
0.843858085367173
 40
1.258513177648495
 40
1.724069573307515
 40
2.216624054942626
 40
2.70917853657773
 40
3.17473493223675
 40
3.589390024518068
 40
3.936095269062889
 40
4.210686986979392
 40
4.433248109885228
 40
4.433248109885228
 40
4.433248109885228
 40
4.433248109885228
 10
47.25485041566213
 20
23.70342288144835
 30
0.0
 10
47.17924669188516
 20
23.70947780007604
 30
0.0
 10
47.01036452184255
 20
23.72300314282155
 30
0.0
 10
46.75989108058059
 20
23.56548894064132
 30
0.0
 10
46.51839200919618
 20
23.32089446512088
 30
0.0
 10
46.28943601037447
 20
22.97812757745673
 30
0.0
 10
46.08867738987681
 20
22.56619710582989
 30
0.0
 10
45.92868959502362
 20
22.10866983534791
 30
0.0
 10
45.82022988964593
 20
21.63626768670118
 30
0.0
 10
45.77056887436114
 20
21.1807190935525
 30
0.0
 10
45.78162713041423
 20
20.76866605855766
 30
0.0
 10
45.85561863424639
 20
20.43299729877308
 30
0.0
 10
45.98361228420951
 20
20.16622905809367
 30
0.0
 10
46.13372076065325
 20
20.08766973303016
 30
0.0
 10
46.20092004283337
 20
20.0525009746926
 30
0.0
 11
47.25485041566213
 21
23.70342288144835
 31
0.0
 11
47.03231149167398
 21
23.70027932958315
 31
0.0
 11
46.78902657778227
 21
23.57294879689846
 31
0.0
 11
46.54157495053837
 21
23.33010683721061
 31
0.0
 11
46.30681996493843
 21
22.98830434966476
 31
0.0
 11
46.10076009812454
 21
22.570833289141
 31
0.0
 11
45.93743744962706
 21
22.10614454724284
 31
0.0
 11
45.82798291814846
 21
21.62590541941389
 31
0.0
 11
45.77985477852406
 21
21.16284339628687
 31
0.0
 11
45.79633383569833
 21
20.74851588762832
 31
0.0
 11
45.87629610109257
 21
20.41115767841485
 31
0.0
 11
46.01429319685786
 21
20.17376051027376
 31
0.0
 11
46.20092004283337
 21
20.0525009746926
 31
0.0
  0
SPLINE
  5
E5
330
76
100
AcDbEntity
  8
0
  6
Continuous
 62
     7
100
AcDbSpline
210
0.0
220
0.0
230
1.0
 70
  1064
 71
     3
 72
    11
 73
     7
 74
     5
 42
0.000000001
 43
0.0000000001
 44
0.00000001
 40
0.0
 40
0.0
 40
0.0
 40
0.0
 40
0.3766024589415572
 40
0.6915266369969113
 40
0.9435619909941957
 40
1.151652787050259
 40
1.151652787050259
 40
1.151652787050259
 40
1.151652787050259
 10
53.42788522924776
 20
27.68033213342547
 30
0.0
 10
53.42341258161465
 20
27.806390608216
 30
0.0
 10
53.41519978917279
 20
28.03786225856058
 30
0.0
 10
53.33446543687269
 20
28.34148088820772
 30
0.0
 10
53.2078552483235
 20
28.58061264380191
 30
0.0
 10
53.0680685654386
 20
28.65116282977986
 30
0.0
 10
53.00485041566212
 20
28.68306895320814
 30
0.0
 11
53.42788522924776
 21
27.68033213342547
 31
0.0
 11
53.39935435698308
 21
28.05585229986936
 31
0.0
 11
53.31547609807751
 21
28.35940077614116
 31
0.0
 11
53.18128794845884
 21
28.57274407795173
 31
0.0
 11
53.00485041566212
 21
28.68306895320814
 31
0.0
  0
SPLINE
  5
E6
330
76
100
AcDbEntity
  8
0
  6
Continuous
 62
     7
100
AcDbSpline
210
0.0
220
0.0
230
1.0
 70
  1064
 71
     3
 72
    13
 73
     9
 74
     7
 42
0.000000001
 43
0.0000000001
 44
0.00000001
 40
0.0
 40
0.0
 40
0.0
 40
0.0
 40
0.2139874779891313
 40
0.4751337361676492
 40
0.8028943691586186
 40
1.194942496085157
 40
1.637084715653244
 40
2.108651799284245
 40
2.108651799284245
 40
2.108651799284245
 40
2.108651799284245
 10
53.00485041566212
 20
28.68306895320814
 30
0.0
 10
52.93228249422425
 20
28.68951582431083
 30
0.0
 10
52.77115406022733
 20
28.70383031910998
 30
0.0
 10
52.52984838992044
 20
28.56000682222412
 30
0.0
 10
52.29598098984587
 20
28.33314803505232
 30
0.0
 10
52.0730288267624
 20
28.01302772321615
 30
0.0
 10
51.8714152194218
 20
27.62606323198632
 30
0.0
 10
51.77075890709001
 20
27.33819824064986
 30
0.0
 10
51.7188099955161
 20
27.18963057909626
 30
0.0
 11
53.00485041566212
 21
28.68306895320814
 31
0.0
 11
52.79086452708739
 21
28.68224242880023
 31
0.0
 11
52.5570646371486
 21
28.56590248445028
 31
0.0
 11
52.31825201506796
 21
28.34141292269582
 31
0.0
 11
52.08954540557454
 21
28.02298707515955
 31
0.0
 11
51.88542402054407
 21
27.63078278821322
 31
0.0
 11
51.7188099955161
 21
27.18963057909626
 31
0.0
  0
SPLINE
  5
E7
330
76
100
AcDbEntity
  8
0
  6
Continuous
 62
     7
100
AcDbSpline
210
0.0
220
0.0
230
1.0
 70
  1064
 71
     3
 72
     9
 73
     5
 74
     3
 42
0.000000001
 43
0.0000000001
 44
0.00000001
 40
0.0
 40
0.0
 40
0.0
 40
0.0
 40
0.5415267026532591
 40
1.045780652216677
 40
1.045780652216677
 40
1.045780652216677
 40
1.045780652216677
 10
53.27376209484602
 20
26.64839220074179
 30
0.0
 10
53.31828010818936
 20
26.82388066172601
 30
0.0
 10
53.40425198394584
 20
27.16277888814774
 30
0.0
 10
53.42019691875945
 20
27.51196281519166
 30
0.0
 10
53.42788522924776
 20
27.68033213342547
 30
0.0
 11
53.27376209484602
 21
26.64839220074179
 31
0.0
 11
53.38853923268964
 21
27.17761557423161
 31
0.0
 11
53.42788522924776
 21
27.68033213342547
 31
0.0
  0
SPLINE
  5
E8
330
76
100
AcDbEntity
  8
0
  6
Continuous
 62
     7
100
AcDbSpline
210
0.0
220
0.0
230
1.0
 70
  1064
 71
     3
 72
    11
 73
     7
 74
     5
 42
0.000000001
 43
0.0000000001
 44
0.00000001
 40
0.0
 40
0.0
 40
0.0
 40
0.0
 40
0.4955295487222381
 40
0.9099034681387099
 40
1.241528936594022
 40
1.51533261688722
 40
1.51533261688722
 40
1.51533261688722
 40
1.51533261688722
 10
62.11121547844273
 20
11.15849282042743
 30
0.0
 10
62.1053304157975
 20
11.32435923378311
 30
0.0
 10
62.09452411236347
 20
11.62892719459972
 30
0.0
 10
61.98829470107556
 20
12.02842539111028
 30
0.0
 10
61.82170234988818
 20
12.34307244252931
 30
0.0
 10
61.63777250013294
 20
12.43590163122499
 30
0.0
 10
61.5545907237248
 20
12.47788337277303
 30
0.0
 11
62.11121547844273
 21
11.15849282042743
 31
0.0
 11
62.07367485704184
 21
11.65259830259044
 31
0.0
 11
61.96330872690293
 21
12.05200419242176
 31
0.0
 11
61.78674537214152
 21
12.33271906322514
 31
0.0
 11
61.5545907237248
 21
12.47788337277303
 31
0.0
  0
SPLINE
  5
E9
330
76
100
AcDbEntity
  8
0
  6
Continuous
 62
     7
100
AcDbSpline
210
0.0
220
0.0
230
1.0
 70
  1064
 71
     3
 72
    15
 73
    11
 74
     9
 42
0.000000001
 43
0.0000000001
 44
0.00000001
 40
0.0
 40
0.0
 40
0.0
 40
0.0
 40
0.30243804505717
 40
0.6790273710229269
 40
1.156739704820373
 40
1.727770887004478
 40
2.366209451778843
 40
3.036740736696628
 40
3.700187157096914
 40
4.318198179650988
 40
4.318198179650988
 40
4.318198179650988
 40
4.318198179650988
 10
60.16784023316065
 20
7.674038758620723
 30
0.0
 10
60.27071850106179
 20
7.666565788302441
 30
0.0
 10
60.50169856530229
 20
7.649787646313686
 30
0.0
 10
60.84129328033476
 20
7.87283487359217
 30
0.0
 10
61.16748202890277
 20
8.214797012619977
 30
0.0
 10
61.47422490297937
 20
8.691545350123267
 30
0.0
 10
61.73979370803056
 20
9.260313784176171
 30
0.0
 10
61.94389957481457
 20
9.886549246479184
 30
0.0
 10
62.0816732535463
 20
10.52510343309799
 30
0.0
 10
62.10160362146644
 20
10.95241326174022
 30
0.0
 10
62.11121547844273
 20
11.15849282042743
 30
0.0
 11
60.16784023316065
 21
7.674038758620723
 31
0.0
 11
60.47019993137245
 21
7.680922777376165
 31
0.0
 11
60.80086036589273
 21
7.861153732217287
 31
0.0
 11
61.13588922829305
 21
8.201689683532512
 31
0.0
 11
61.45103788535725
 21
8.677880752795382
 31
0.0
 11
61.72349593117436
 21
9.255263133935516
 31
0.0
 11
61.93354425466823
 21
9.892045597578061
 31
0.0
 11
62.06597875681818
 21
10.54213963375455
 31
0.0
 11
62.11121547844273
 21
11.15849282042743
 31
0.0
  0
SPLINE
  5
EA
330
76
100
AcDbEntity
  8
0
  6
Continuous
 62
     7
100
AcDbSpline
210
0.0
220
0.0
230
1.0
 70
  1064
 71
     3
 72
    19
 73
    15
 74
    13
 42
0.000000001
 43
0.0000000001
 44
0.00000001
 40
0.0
 40
0.0
 40
0.0
 40
0.0
 40
0.2928435836073224
 40
0.6541484769440793
 40
1.110339587556878
 40
1.655938392505439
 40
2.268512596488044
 40
2.91661059767149
 40
3.564708598854941
 40
4.177282802837553
 40
4.722881607786115
 40
5.179072718398913
 40
5.540377611735675
 40
5.833221195342976
 40
5.833221195342976
 40
5.833221195342976
 40
5.833221195342976
 10
61.5545907237248
 20
12.47788337277303
 30
0.0
 10
61.4551121395236
 20
12.48585037099011
 30
0.0
 10
61.2328987562279
 20
12.503646881086
 30
0.0
 10
60.90332844339686
 20
12.29639133947746
 30
0.0
 10
60.58556650567299
 20
11.97455650751905
 30
0.0
 10
60.28430861377244
 20
11.52354744370429
 30
0.0
 10
60.02015253452787
 20
10.98153366638434
 30
0.0
 10
59.80964227864173
 20
10.37952410068599
 30
0.0
 10
59.66693213995065
 20
9.757942327030777
 30
0.0
 10
59.60158869908949
 20
9.158536284566297
 30
0.0
 10
59.61613903432779
 20
8.616361238276015
 30
0.0
 10
59.71349627991015
 20
8.17469182020368
 30
0.0
 10
59.88190896670051
 20
7.823680969153398
 30
0.0
 10
60.07942012477636
 20
7.720313440776001
 30
0.0
 10
60.16784023316065
 20
7.674038758620723
 30
0.0
 11
61.5545907237248
 21
12.47788337277303
 31
0.0
 11
61.26177635005617
 21
12.47374712031882
 31
0.0
 11
60.94166462125128
 21
12.3062069457337
 31
0.0
 11
60.61607037487773
 21
11.98667805140757
 31
0.0
 11
60.30718223593044
 21
11.53693793621566
 31
0.0
 11
60.03605083222798
 21
10.98763390921072
 31
0.0
 11
59.82115261052078
 21
10.37620135408157
 31
0.0
 11
59.67713349015418
 21
9.744307764832941
 31
0.0
 11
59.61380699064838
 21
9.13501562913951
 31
0.0
 11
59.63548996061454
 21
8.589847854588774
 31
0.0
 11
59.74070346771222
 21
8.145955474044747
 31
0.0
 11
59.92227859371917
 21
7.833590779122243
 31
0.0
 11
60.16784023316065
 21
7.674038758620723
 31
0.0
  0
SPLINE
  5
EB
330
76
100
AcDbEntity
  8
0
  6
Continuous
 62
     7
100
AcDbSpline
210
0.0
220
0.0
230
1.0
 70
  1064
 71
     3
 72
    17
 73
    13
 74
    11
 42
0.000000001
 43
0.0000000001
 44
0.00000001
 40
0.0
 40
0.0
 40
0.0
 40
0.0
 40
0.2611458113190409
 40
0.580650352626385
 40
0.9629386800357891
 40
1.395689917896217
 40
1.857467596866867
 40
2.32256477882183
 40
2.76481907097399
 40
3.161334733372758
 40
3.496942824021364
 40
3.770946873225386
 40
3.770946873225386
 40
3.770946873225386
 40
3.770946873225386
 10
45.9181774975405
 20
-1.01989641680659
 30
0.0
 10
45.95808981254949
 20
-1.098547548707437
 30
0.0
 10
46.04683373721382
 20
-1.273426111466836
 30
0.0
 10
46.31964892542428
 20
-1.461397862746536
 30
0.0
 10
46.66617583995684
 20
-1.611760813349638
 30
0.0
 10
47.08354307544695
 20
-1.708239708009264
 30
0.0
 10
47.53629023784428
 20
-1.746806171805383
 30
0.0
 10
47.99328945066922
 20
-1.723495470672272
 30
0.0
 10
48.42261905524251
 20
-1.641262342204735
 30
0.0
 10
48.78846225462201
 20
-1.50272398843466
 30
0.0
 10
49.08392217586118
 20
-1.326082477443148
 30
0.0
 10
49.19680909643358
 20
-1.154506401224387
 30
0.0
 10
49.24754868494382
 20
-1.07738762293827
 30
0.0
 11
45.9181774975405
 21
-1.01989641680659
 31
0.0
 11
46.05323925031009
 21
-1.243403594437374
 31
0.0
 11
46.30507855558991
 21
-1.44002536026411
 31
0.0
 11
46.65460868982046
 21
-1.594857685810068
 31
0.0
 11
47.07533465674202
 21
-1.69616559718547
 31
0.0
 11
47.53536761941894
 21
-1.736269163491056
 31
0.0
 11
47.9998379396806
 21
-1.712129815597016
 31
0.0
 11
48.43353980237903
 21
-1.625576067609338
 31
0.0
 11
48.8036006832866
 21
-1.483169558547391
 31
0.0
 11
49.08196953863694
 21
-1.295703367434226
 31
0.0
 11
49.24754868494382
 21
-1.07738762293827
 31
0.0
  0
ENDBLK
  5
78
330
76
100
AcDbEntity
  8
0
100
AcDbBlockEnd
  0
BLOCK
  5
7B
330
79
100
AcDbEntity
  8
0
100
AcDbBlockBegin
  2
AllgSicht1
 70
     0
 10
53.50000000001015
 20
13.49999999994407
 30
0.0
  3
AllgSicht1
  1

  0
INSERT
  5
7A
330
79
100
AcDbEntity
  8
0
100
AcDbBlockReference
  2
CES_SRG_BK_5-select__1
 10
41.26378361410523
 20
-3.02267316654215
 30
0.0
  0
MTEXT
  5
ED
330
79
100
AcDbEntity
  8
1
 62
     6
100
AcDbMText
 10
53.49999954627501
 20
-5.52267316654215
 30
0.0
 40
2.5
 41
0.0
 71
     2
 72
     1
  1
 
  7
CONVERTER_11
 73
     1
 44
1.32052821128451
  0
ENDBLK
  5
7C
330
79
100
AcDbEntity
  8
0
100
AcDbBlockEnd
  0
BLOCK
  5
7E
330
7D
100
AcDbEntity
  8
0
100
AcDbBlockBegin
  2
CES_SRG_BK_5-select__2
 70
     0
 10
-53.37499999996262
 20
31.24999861560181
 30
0.0
  3
CES_SRG_BK_5-select__2
  1

  0
LINE
  5
EE
330
7D
100
AcDbEntity
  8
0
  6
Continuous
 62
     7
100
AcDbLine
 10
-53.37499999996262
 20
31.74999861560181
 30
0.0
 11
-49.37499999996403
 21
31.7499986156018
 31
0.0
  0
LINE
  5
EF
330
7D
100
AcDbEntity
  8
0
  6
Continuous
 62
     7
100
AcDbLine
 10
-49.37499999996295
 20
38.4965065386528
 30
0.0
 11
-49.37499999996295
 21
44.50349069255114
 31
0.0
  0
LINE
  5
F0
330
7D
100
AcDbEntity
  8
0
  6
Continuous
 62
     7
100
AcDbLine
 10
-49.37499999996403
 20
51.2499986156018
 30
0.0
 11
-47.82499999996403
 21
51.2499986156018
 31
0.0
  0
LINE
  5
F1
330
7D
100
AcDbEntity
  8
0
  6
Continuous
 62
     7
100
AcDbLine
 10
-49.37499999996295
 20
44.50349069255114
 30
0.0
 11
-49.37499999996403
 21
51.2499986156018
 31
0.0
  0
LINE
  5
F2
330
7D
100
AcDbEntity
  8
0
  6
Continuous
 62
     7
100
AcDbLine
 10
-49.37499999996403
 20
31.7499986156018
 30
0.0
 11
-49.37499999996295
 21
38.4965065386528
 31
0.0
  0
LINE
  5
F3
330
7D
100
AcDbEntity
  8
0
  6
Continuous
 62
     7
100
AcDbLine
 10
-53.37499999996262
 20
31.74999861560181
 30
0.0
 11
-53.37499999996262
 21
51.24999861560181
 31
0.0
  0
LINE
  5
F4
330
7D
100
AcDbEntity
  8
0
  6
Continuous
 62
     7
100
AcDbLine
 10
-39.52499999996405
 20
31.7499986156018
 30
0.0
 11
-39.024999999964
 21
31.24999861560181
 31
0.0
  0
LINE
  5
F5
330
7D
100
AcDbEntity
  8
0
  6
Continuous
 62
     7
100
AcDbLine
 10
-36.37499999996413
 20
31.74999861560181
 30
0.0
 11
-36.37499999996414
 21
51.24999861560181
 31
0.0
  0
LINE
  5
F6
330
7D
100
AcDbEntity
  8
0
  6
Continuous
 62
     7
100
AcDbLine
 10
-36.37499999996413
 20
31.74999861560181
 30
0.0
 11
-38.52499999996402
 21
31.7499986156018
 31
0.0
  0
LINE
  5
F7
330
7D
100
AcDbEntity
  8
0
  6
Continuous
 62
     7
100
AcDbLine
 10
-39.024999999964
 20
31.24999861560181
 30
0.0
 11
-38.52499999996402
 21
31.7499986156018
 31
0.0
  0
LINE
  5
F8
330
7D
100
AcDbEntity
  8
0
  6
Continuous
 62
     7
100
AcDbLine
 10
-46.82499999996406
 20
51.24999861560181
 30
0.0
 11
-47.32499999996401
 21
51.74999861560177
 31
0.0
  0
LINE
  5
F9
330
7D
100
AcDbEntity
  8
0
  6
Continuous
 62
     7
100
AcDbLine
 10
-39.52499999996405
 20
31.7499986156018
 30
0.0
 11
-49.37499999996403
 21
31.7499986156018
 31
0.0
  0
LINE
  5
FA
330
7D
100
AcDbEntity
  8
0
  6
Continuous
 62
     7
100
AcDbLine
 10
-45.27499999996299
 20
38.63968169356896
 30
0.0
 11
-45.27499999996299
 21
44.36031553763498
 31
0.0
  0
LINE
  5
FB
330
7D
100
AcDbEntity
  8
0
  6
Continuous
 62
     7
100
AcDbLine
 10
-49.37499999996295
 20
44.50349069255114
 30
0.0
 11
-45.27499999996299
 21
44.36031553763498
 31
0.0
  0
LINE
  5
FC
330
7D
100
AcDbEntity
  8
0
  6
Continuous
 62
     7
100
AcDbLine
 10
-47.32499999996401
 20
51.74999861560177
 30
0.0
 11
-47.82499999996403
 21
51.2499986156018
 31
0.0
  0
LINE
  5
FD
330
7D
100
AcDbEntity
  8
0
  6
Continuous
 62
     7
100
AcDbLine
 10
-46.82499999996406
 20
51.24999861560181
 30
0.0
 11
-36.37499999996414
 21
51.24999861560181
 31
0.0
  0
LINE
  5
FE
330
7D
100
AcDbEntity
  8
0
  6
Continuous
 62
     7
100
AcDbLine
 10
-49.37499999996403
 20
51.2499986156018
 30
0.0
 11
-53.37499999996262
 21
51.24999861560181
 31
0.0
  0
LINE
  5
FF
330
7D
100
AcDbEntity
  8
0
  6
Continuous
 62
     7
100
AcDbLine
 10
-49.37499999996295
 20
38.4965065386528
 30
0.0
 11
-45.27499999996299
 21
38.63968169356896
 31
0.0
  0
ENDBLK
  5
7F
330
7D
100
AcDbEntity
  8
0
100
AcDbBlockEnd
  0
BLOCK
  5
82
330
80
100
AcDbEntity
  8
0
100
AcDbBlockBegin
  2
Drfsicht1
 70
     0
 10
-44.87499999999657
 20
41.49999952312404
 30
0.0
  3
Drfsicht1
  1

  0
INSERT
  5
81
330
80
100
AcDbEntity
  8
0
100
AcDbBlockReference
  2
CES_SRG_BK_5-select__2
 10
-53.37499999996262
 20
31.24999861560181
 30
0.0
  0
MTEXT
  5
100
330
80
100
AcDbEntity
  8
1
 62
     6
100
AcDbMText
 10
-44.87499999996338
 20
28.74999861560178
 30
0.0
 40
2.5
 41
0.0
 71
     2
 72
     1
  1
 
  7
CONVERTER_11
 73
     1
 44
1.32052821128451
  0
DIMENSION
  5
10B
330
80
100
AcDbEntity
  8
1
100
AcDbDimension
  2
*D17
 10
-58.37499999996261
 20
51.74999861560177
 30
0.0
 11
-60.08749999996261
 21
41.75188178300523
 31
0.0
 70
    32
  1
<>
 71
     5
 42
-1.0
 53
90.0
  3
ME10_DIM_10
100
AcDbAlignedDimension
 13
-39.024999999964
 23
31.24999861560181
 33
0.0
 14
-47.32499999996401
 24
51.74999861560177
 34
0.0
 50
90.0
100
AcDbRotatedDimension
  0
ENDBLK
  5
83
330
80
100
AcDbEntity
  8
0
100
AcDbBlockEnd
  0
BLOCK
  5
85
330
84
100
AcDbEntity
  8
0
100
AcDbBlockBegin
  2
CES_SRG_BK_5-select__3
 70
     0
 10
19.87499999996398
 20
74.74999949698051
 30
0.0
  3
CES_SRG_BK_5-select__3
  1

  0
LINE
  5
10C
330
84
100
AcDbEntity
  8
0
  6
Continuous
 62
     7
100
AcDbLine
 10
30.32499999996875
 20
77.74999949698051
 30
0.0
 11
30.82499999996873
 21
77.74999949698062
 31
0.0
  0
LINE
  5
10D
330
84
100
AcDbEntity
  8
0
  6
Continuous
 62
     7
100
AcDbLine
 10
34.37499999996884
 20
77.7499994969815
 30
0.0
 11
31.32499999996871
 21
77.74999949698073
 31
0.0
  0
LINE
  5
10E
330
84
100
AcDbEntity
  8
0
  6
Continuous
 62
     7
100
AcDbLine
 10
36.87499999996875
 20
77.74999949698204
 30
0.0
 11
34.37499999996884
 21
77.7499994969815
 31
0.0
  0
LINE
  5
10F
330
84
100
AcDbEntity
  8
0
  6
Continuous
 62
     7
100
AcDbLine
 10
30.82499999996873
 20
77.74999949698062
 30
0.0
 11
31.32499999996871
 21
77.74999949698073
 31
0.0
  0
LINE
  5
110
330
84
100
AcDbEntity
  8
0
  6
Continuous
 62
     7
100
AcDbLine
 10
30.32499999996875
 20
77.74999949698051
 30
0.0
 11
29.37499999996884
 21
77.74999949698031
 31
0.0
  0
LINE
  5
111
330
84
100
AcDbEntity
  8
0
  6
Continuous
 62
     7
100
AcDbLine
 10
29.37499999996884
 20
77.74999949698031
 30
0.0
 11
19.87499999996886
 21
77.74999949697802
 31
0.0
  0
LINE
  5
112
330
84
100
AcDbEntity
  8
0
  6
Continuous
 62
     7
100
AcDbLine
 10
30.32499999996875
 20
77.74999949698051
 30
0.0
 11
30.32499999996389
 21
98.24999949698056
 31
0.0
  0
LINE
  5
113
330
84
100
AcDbEntity
  8
0
  6
Continuous
 62
     7
100
AcDbLine
 10
19.87499999996886
 20
77.74999949697802
 30
0.0
 11
19.87499999996398
 21
98.24999949697809
 31
0.0
  0
LINE
  5
114
330
84
100
AcDbEntity
  8
0
  6
Continuous
 62
     7
100
AcDbLine
 10
36.87499999996244
 20
104.2499994969821
 30
0.0
 11
36.87499999996875
 21
77.74999949698204
 31
0.0
  0
LINE
  5
115
330
84
100
AcDbEntity
  8
0
  6
Continuous
 62
     7
100
AcDbLine
 10
30.17884757726291
 20
74.74999949698051
 30
0.0
 11
29.37499999996884
 21
77.74999949698031
 31
0.0
  0
LINE
  5
116
330
84
100
AcDbEntity
  8
0
  6
Continuous
 62
     7
100
AcDbLine
 10
31.87499999996955
 20
74.7499994969809
 30
0.0
 11
33.57115242267619
 21
74.7499994969813
 31
0.0
  0
LINE
  5
117
330
84
100
AcDbEntity
  8
0
  6
Continuous
 62
     7
100
AcDbLine
 10
30.17884757726291
 20
74.74999949698051
 30
0.0
 11
31.87499999996955
 21
74.7499994969809
 31
0.0
  0
LINE
  5
118
330
84
100
AcDbEntity
  8
0
  6
Continuous
 62
     7
100
AcDbLine
 10
30.32499999996389
 20
98.24999949698056
 30
0.0
 11
28.77499999996385
 21
98.24999949698021
 31
0.0
  0
LINE
  5
119
330
84
100
AcDbEntity
  8
0
  6
Continuous
 62
     7
100
AcDbLine
 10
28.77499999996334
 20
100.3896825749471
 30
0.0
 11
28.77499999996385
 21
98.24999949698021
 31
0.0
  0
LINE
  5
11A
330
84
100
AcDbEntity
  8
0
  6
Continuous
 62
     7
100
AcDbLine
 10
30.32499999996389
 20
98.24999949698056
 30
0.0
 11
30.82499999996384
 21
98.24999949698068
 31
0.0
  0
LINE
  5
11B
330
84
100
AcDbEntity
  8
0
  6
Continuous
 62
     7
100
AcDbLine
 10
32.87499999996386
 20
98.24999949698116
 30
0.0
 11
31.32499999996385
 21
98.24999949698079
 31
0.0
  0
LINE
  5
11C
330
84
100
AcDbEntity
  8
0
  6
Continuous
 62
     7
100
AcDbLine
 10
28.77499999996282
 20
102.6103164190132
 30
0.0
 11
28.77499999996334
 21
100.3896825749471
 31
0.0
  0
LINE
  5
11D
330
84
100
AcDbEntity
  8
0
  6
Continuous
 62
     7
100
AcDbLine
 10
32.87499999996339
 20
100.246507420032
 30
0.0
 11
28.77499999996334
 21
100.3896825749471
 31
0.0
  0
LINE
  5
11E
330
84
100
AcDbEntity
  8
0
  6
Continuous
 62
     7
100
AcDbLine
 10
28.77499999996385
 20
98.24999949698021
 30
0.0
 11
19.87499999996398
 21
98.24999949697809
 31
0.0
  0
LINE
  5
11F
330
84
100
AcDbEntity
  8
0
  6
Continuous
 62
     7
100
AcDbLine
 10
32.87499999996243
 20
104.2499994969812
 30
0.0
 11
32.87499999996278
 21
102.7534915739303
 31
0.0
  0
LINE
  5
120
330
84
100
AcDbEntity
  8
0
  6
Continuous
 62
     7
100
AcDbLine
 10
32.87499999996339
 20
100.246507420032
 30
0.0
 11
32.87499999996386
 21
98.24999949698116
 31
0.0
  0
LINE
  5
121
330
84
100
AcDbEntity
  8
0
  6
Continuous
 62
     7
100
AcDbLine
 10
32.87499999996278
 20
102.7534915739303
 30
0.0
 11
32.87499999996339
 21
100.246507420032
 31
0.0
  0
LINE
  5
122
330
84
100
AcDbEntity
  8
0
  6
Continuous
 62
     7
100
AcDbLine
 10
32.87499999996243
 20
104.2499994969812
 30
0.0
 11
36.87499999996244
 21
104.2499994969821
 31
0.0
  0
LINE
  5
123
330
84
100
AcDbEntity
  8
0
  6
Continuous
 62
     7
100
AcDbLine
 10
32.87499999996278
 20
102.7534915739303
 30
0.0
 11
28.77499999996282
 21
102.6103164190132
 31
0.0
  0
LINE
  5
124
330
84
100
AcDbEntity
  8
0
  6
Continuous
 62
     7
100
AcDbLine
 10
30.82499999996384
 20
98.24999949698068
 30
0.0
 11
31.32499999996385
 21
98.24999949698079
 31
0.0
  0
LINE
  5
125
330
84
100
AcDbEntity
  8
0
  6
Continuous
 62
     7
100
AcDbLine
 10
30.82499999996873
 20
77.74999949698062
 30
0.0
 11
30.82499999996384
 21
98.24999949698068
 31
0.0
  0
LINE
  5
126
330
84
100
AcDbEntity
  8
0
  6
Continuous
 62
     7
100
AcDbLine
 10
31.32499999996385
 20
98.24999949698079
 30
0.0
 11
31.32499999996871
 21
77.74999949698073
 31
0.0
  0
LINE
  5
127
330
84
100
AcDbEntity
  8
0
  6
Continuous
 62
     7
100
AcDbLine
 10
33.57115242267619
 20
74.7499994969813
 30
0.0
 11
34.37499999996884
 21
77.7499994969815
 31
0.0
  0
LINE
  5
128
330
84
100
AcDbEntity
  8
1
  6
DOT_CENTER
 62
     2
100
AcDbLine
 10
31.87499999996955
 20
74.7499994969809
 30
0.0
 11
31.87499999996884
 21
77.7499994969809
 31
0.0
  0
ENDBLK
  5
86
330
84
100
AcDbEntity
  8
0
100
AcDbBlockEnd
  0
BLOCK
  5
89
330
87
100
AcDbEntity
  8
0
100
AcDbBlockBegin
  2
Rckans1
 70
     0
 10
28.37499999999639
 20
89.4999999999591
 30
0.0
  3
Rckans1
  1

  0
INSERT
  5
88
330
87
100
AcDbEntity
  8
0
100
AcDbBlockReference
  2
CES_SRG_BK_5-select__3
 10
19.87499999996398
 20
74.74999949698051
 30
0.0
  0
MTEXT
  5
129
330
87
100
AcDbEntity
  8
1
 62
     6
100
AcDbMText
 10
28.37499999996638
 20
72.24999949698051
 30
0.0
 40
2.5
 41
0.0
 71
     2
 72
     1
  1
 
  7
CONVERTER_11
 73
     1
 44
1.32052821128451
  0
ENDBLK
  5
8A
330
87
100
AcDbEntity
  8
0
100
AcDbBlockEnd
  0
BLOCK
  5
8C
330
8B
100
AcDbEntity
  8
0
100
AcDbBlockBegin
  2
CES_SRG_BK_5-select__4
 70
     0
 10
-18.51215583529361
 20
74.74999949693989
 30
0.0
  3
CES_SRG_BK_5-select__4
  1

  0
LINE
  5
12A
330
8B
100
AcDbEntity
  8
0
  6
Continuous
 62
     7
100
AcDbLine
 10
-4.20830825800025
 20
74.74999949693989
 30
0.0
 11
-0.81600341258699
 21
74.74999949693989
 31
0.0
  0
LINE
  5
12B
330
8B
100
AcDbEntity
  8
0
  6
Continuous
 62
     7
100
AcDbLine
 10
-18.51215583529358
 20
77.74999949693961
 30
0.0
 11
-18.01215583529361
 21
77.74999949694103
 31
0.0
  0
LINE
  5
12C
330
8B
100
AcDbEntity
  8
0
  6
Continuous
 62
     7
100
AcDbLine
 10
-0.81600341258699
 20
74.74999949693989
 30
0.0
 11
-0.01215583529362
 21
77.74999949693989
 31
0.0
  0
LINE
  5
12D
330
8B
100
AcDbEntity
  8
0
  6
Continuous
 62
     7
100
AcDbLine
 10
-4.20830825800025
 20
74.74999949693989
 30
0.0
 11
-5.01215583529362
 21
77.74999949693988
 31
0.0
  0
LINE
  5
12E
330
8B
100
AcDbEntity
  8
0
  6
Continuous
 62
     7
100
AcDbLine
 10
-18.51215583529361
 20
98.24999949693967
 30
0.0
 11
-18.01215583529363
 21
98.24999949693978
 31
0.0
  0
LINE
  5
12F
330
8B
100
AcDbEntity
  8
0
  6
Continuous
 62
     7
100
AcDbLine
 10
1.48784416470636
 20
98.24999949693785
 30
0.0
 11
1.98784416470635
 21
98.24999949693773
 31
0.0
  0
LINE
  5
130
330
8B
100
AcDbEntity
  8
0
  6
Continuous
 62
     7
100
AcDbLine
 10
-18.51215583529358
 20
77.74999949693961
 30
0.0
 11
-18.51215583529361
 21
98.24999949693967
 31
0.0
  0
LINE
  5
131
330
8B
100
AcDbEntity
  8
0
  6
Continuous
 62
     7
100
AcDbLine
 10
1.48784416470639
 20
77.74999949694107
 30
0.0
 11
1.98784416470639
 21
77.74999949693768
 31
0.0
  0
LINE
  5
132
330
8B
100
AcDbEntity
  8
0
  6
Continuous
 62
     7
100
AcDbLine
 10
1.98784416470635
 20
98.24999949693773
 30
0.0
 11
1.98784416470639
 21
77.74999949693768
 31
0.0
  0
LINE
  5
133
330
8B
100
AcDbEntity
  8
0
  6
Continuous
 62
     7
100
AcDbLine
 10
-0.01215583529362
 20
77.74999949693989
 30
0.0
 11
-5.01215583529362
 21
77.74999949693988
 31
0.0
  0
LINE
  5
134
330
8B
100
AcDbEntity
  8
0
  6
Continuous
 62
     7
100
AcDbLine
 10
1.48784416470639
 20
77.74999949694107
 30
0.0
 11
-0.01215583529362
 21
77.74999949693989
 31
0.0
  0
LINE
  5
135
330
8B
100
AcDbEntity
  8
0
  6
Continuous
 62
     7
100
AcDbLine
 10
-5.01215583529362
 20
77.74999949693988
 30
0.0
 11
-18.01215583529361
 21
77.74999949694103
 31
0.0
  0
LINE
  5
136
330
8B
100
AcDbEntity
  8
0
  6
Continuous
 62
     7
100
AcDbLine
 10
-18.01215583529364
 20
104.2499994969411
 30
0.0
 11
-18.01215583529363
 21
98.24999949693978
 31
0.0
  0
LINE
  5
137
330
8B
100
AcDbEntity
  8
0
  6
Continuous
 62
     7
100
AcDbLine
 10
-18.01215583529363
 20
98.24999949693978
 30
0.0
 11
-18.01215583529361
 21
77.74999949694103
 31
0.0
  0
LINE
  5
138
330
8B
100
AcDbEntity
  8
0
  6
Continuous
 62
     7
100
AcDbLine
 10
1.48784416470636
 20
104.2499994969411
 30
0.0
 11
-18.01215583529364
 21
104.2499994969411
 31
0.0
  0
LINE
  5
139
330
8B
100
AcDbEntity
  8
0
  6
Continuous
 62
     7
100
AcDbLine
 10
1.48784416470636
 20
98.24999949693785
 30
0.0
 11
1.48784416470636
 21
104.2499994969411
 31
0.0
  0
LINE
  5
13A
330
8B
100
AcDbEntity
  8
0
  6
Continuous
 62
     7
100
AcDbLine
 10
1.48784416470639
 20
77.74999949694107
 30
0.0
 11
1.48784416470636
 21
98.24999949693785
 31
0.0
  0
LINE
  5
13B
330
8B
100
AcDbEntity
  8
1
  6
DOT_CENTER
 62
     2
100
AcDbLine
 10
-2.51215583529362
 20
74.74999949693989
 30
0.0
 11
-2.51215583529362
 21
77.74999949693989
 31
0.0
  0
LINE
  5
13C
330
8B
100
AcDbEntity
  8
1
  6
DOT_CENTER
 62
     2
100
AcDbLine
 10
-11.92215583529363
 20
100.7499994969407
 30
0.0
 11
-16.10215583529363
 21
100.7499994969407
 31
0.0
  0
LINE
  5
13D
330
8B
100
AcDbEntity
  8
1
  6
DOT_CENTER
 62
     2
100
AcDbLine
 10
-14.01215583529363
 20
102.8399994969406
 30
0.0
 11
-14.01215583529363
 21
98.65999949694066
 31
0.0
  0
LINE
  5
13E
330
8B
100
AcDbEntity
  8
1
  6
DOT_CENTER
 62
     2
100
AcDbLine
 10
-0.42215583529363
 20
100.7499994969415
 30
0.0
 11
-4.60215583529363
 21
100.7499994969415
 31
0.0
  0
LINE
  5
13F
330
8B
100
AcDbEntity
  8
1
  6
DOT_CENTER
 62
     2
100
AcDbLine
 10
-2.51215583529363
 20
102.8399994969415
 30
0.0
 11
-2.51215583529363
 21
98.65999949694151
 31
0.0
  0
LINE
  5
140
330
8B
100
AcDbEntity
  8
1
  6
DOT_CENTER
 62
     2
100
AcDbLine
 10
-5.51215583529361
 20
87.9999994969411
 30
0.0
 11
-11.01215583529361
 21
87.9999994969411
 31
0.0
  0
LINE
  5
141
330
8B
100
AcDbEntity
  8
1
  6
DOT_CENTER
 62
     2
100
AcDbLine
 10
-8.26215583529361
 20
90.7499994969411
 30
0.0
 11
-8.26215583529361
 21
85.2499994969411
 31
0.0
  0
CIRCLE
  5
142
330
8B
100
AcDbEntity
  8
0
  6
Continuous
 62
     7
100
AcDbCircle
 10
-2.51215583529363
 20
100.7499994969415
 30
0.0
 40
1.899999999999999
  0
CIRCLE
  5
143
330
8B
100
AcDbEntity
  8
0
  6
Continuous
 62
     7
100
AcDbCircle
 10
-14.01215583529363
 20
100.7499994969407
 30
0.0
 40
1.9
  0
CIRCLE
  5
144
330
8B
100
AcDbEntity
  8
0
  6
Continuous
 62
     7
100
AcDbCircle
 10
-8.26215583529361
 20
87.9999994969411
 30
0.0
 40
2.5
  0
ENDBLK
  5
8D
330
8B
100
AcDbEntity
  8
0
100
AcDbBlockEnd
  0
BLOCK
  5
90
330
8E
100
AcDbEntity
  8
0
100
AcDbBlockBegin
  2
SA_Links1
 70
     0
 10
-8.26215674281588
 20
89.49999999991809
 30
0.0
  3
SA_Links1
  1

  0
INSERT
  5
8F
330
8E
100
AcDbEntity
  8
0
100
AcDbBlockReference
  2
CES_SRG_BK_5-select__4
 10
-18.51215583529361
 20
74.74999949693989
 30
0.0
  0
MTEXT
  5
145
330
8E
100
AcDbEntity
  8
1
 62
     6
100
AcDbMText
 10
-8.26215583529361
 20
60.433172552587
 30
0.0
 40
2.5
 41
0.0
 71
     2
 72
     1
  1
 
  7
CONVERTER_11
 73
     1
 44
1.32052821128451
  0
ENDBLK
  5
91
330
8E
100
AcDbEntity
  8
0
100
AcDbBlockEnd
  0
BLOCK
  5
93
330
92
100
AcDbEntity
  8
0
100
AcDbBlockBegin
  2
CES_SRG_BK_5-select__5
 70
     0
 10
-97.00000090751529
 20
74.7499994969809
 30
0.0
  3
CES_SRG_BK_5-select__5
  1

  0
LINE
  5
146
330
92
100
AcDbEntity
  8
0
  6
Continuous
 62
     7
100
AcDbLine
 10
-85.38968398548225
 20
100.3896825749471
 30
0.0
 11
-85.3896839854824
 21
98.24999949698021
 31
0.0
  0
LINE
  5
147
330
92
100
AcDbEntity
  8
0
  6
Continuous
 62
     7
100
AcDbLine
 10
-88.1103178295484
 20
98.24999949698021
 30
0.0
 11
-88.11031782954826
 21
100.3896825749471
 31
0.0
  0
LINE
  5
148
330
92
100
AcDbEntity
  8
0
  6
Continuous
 62
     7
100
AcDbLine
 10
-85.3896839854824
 20
98.24999949698021
 30
0.0
 11
-85.24650883056623
 21
98.24999949698118
 31
0.0
  0
LINE
  5
149
330
92
100
AcDbEntity
  8
0
  6
Continuous
 62
     7
100
AcDbLine
 10
-88.25349298446457
 20
98.24999949698118
 30
0.0
 11
-88.1103178295484
 21
98.24999949698021
 31
0.0
  0
LINE
  5
14A
330
92
100
AcDbEntity
  8
0
  6
Continuous
 62
     7
100
AcDbLine
 10
-88.25349298446443
 20
100.246507420032
 30
0.0
 11
-88.25349298446457
 21
98.24999949698118
 31
0.0
  0
LINE
  5
14B
330
92
100
AcDbEntity
  8
0
  6
Continuous
 62
     7
100
AcDbLine
 10
-88.1103178295484
 20
98.24999949698021
 30
0.0
 11
-85.3896839854824
 21
98.24999949698021
 31
0.0
  0
LINE
  5
14C
330
92
100
AcDbEntity
  8
0
  6
Continuous
 62
     7
100
AcDbLine
 10
-88.11031782954826
 20
100.3896825749471
 30
0.0
 11
-88.25349298446443
 21
100.246507420032
 31
0.0
  0
LINE
  5
14D
330
92
100
AcDbEntity
  8
0
  6
Continuous
 62
     7
100
AcDbLine
 10
-89.75349298446444
 20
100.246507420032
 30
0.0
 11
-89.61031782954826
 21
100.3896825749471
 31
0.0
  0
LINE
  5
14E
330
92
100
AcDbEntity
  8
0
  6
Continuous
 62
     7
100
AcDbLine
 10
-97.00000090751526
 20
98.24999949697873
 30
0.0
 11
-96.50000090751526
 21
98.24999949698119
 31
0.0
  0
LINE
  5
14F
330
92
100
AcDbEntity
  8
0
  6
Continuous
 62
     7
100
AcDbLine
 10
-96.50000090751524
 20
104.2499994969812
 30
0.0
 11
-96.50000090751526
 21
98.24999949698119
 31
0.0
  0
LINE
  5
150
330
92
100
AcDbEntity
  8
0
  6
Continuous
 62
     7
100
AcDbLine
 10
-89.75349298446426
 20
102.7534915739303
 30
0.0
 11
-89.75349298446444
 21
100.246507420032
 31
0.0
  0
LINE
  5
151
330
92
100
AcDbEntity
  8
0
  6
Continuous
 62
     7
100
AcDbLine
 10
-96.50000090751526
 20
98.24999949698119
 30
0.0
 11
-96.50000090751527
 21
77.74999949697805
 31
0.0
  0
LINE
  5
152
330
92
100
AcDbEntity
  8
0
  6
Continuous
 62
     7
100
AcDbLine
 10
-97.00000090751526
 20
98.24999949697873
 30
0.0
 11
-97.00000090751529
 21
77.74999949697867
 31
0.0
  0
LINE
  5
153
330
92
100
AcDbEntity
  8
0
  6
Continuous
 62
     7
100
AcDbLine
 10
-77.00000090751524
 20
98.24999949698056
 30
0.0
 11
-76.50000090751529
 21
98.24999949698068
 31
0.0
  0
LINE
  5
154
330
92
100
AcDbEntity
  8
0
  6
Continuous
 62
     7
100
AcDbLine
 10
-77.00000090751524
 20
104.2499994969812
 30
0.0
 11
-77.00000090751524
 21
98.24999949698056
 31
0.0
  0
LINE
  5
155
330
92
100
AcDbEntity
  8
0
  6
Continuous
 62
     7
100
AcDbLine
 10
-83.74650883056592
 20
102.7534915739303
 30
0.0
 11
-89.75349298446426
 21
102.7534915739303
 31
0.0
  0
LINE
  5
156
330
92
100
AcDbEntity
  8
0
  6
Continuous
 62
     7
100
AcDbLine
 10
-96.50000090751524
 20
104.2499994969812
 30
0.0
 11
-77.00000090751524
 21
104.2499994969812
 31
0.0
  0
LINE
  5
157
330
92
100
AcDbEntity
  8
0
  6
Continuous
 62
     7
100
AcDbLine
 10
-94.1961533302219
 20
74.7499994969809
 30
0.0
 11
-90.80384848480864
 21
74.7499994969809
 31
0.0
  0
LINE
  5
158
330
92
100
AcDbEntity
  8
0
  6
Continuous
 62
     7
100
AcDbLine
 10
-90.00000090751527
 20
77.74999949698089
 30
0.0
 11
-95.00000090751527
 21
77.74999949698089
 31
0.0
  0
LINE
  5
159
330
92
100
AcDbEntity
  8
0
  6
Continuous
 62
     7
100
AcDbLine
 10
-95.00000090751527
 20
77.74999949698089
 30
0.0
 11
-96.50000090751527
 21
77.74999949697805
 31
0.0
  0
LINE
  5
15A
330
92
100
AcDbEntity
  8
0
  6
Continuous
 62
     7
100
AcDbLine
 10
-77.00000090751527
 20
77.74999949698051
 30
0.0
 11
-76.50000090751531
 21
77.74999949698062
 31
0.0
  0
LINE
  5
15B
330
92
100
AcDbEntity
  8
0
  6
Continuous
 62
     7
100
AcDbLine
 10
-77.00000090751527
 20
77.74999949698051
 30
0.0
 11
-90.00000090751527
 21
77.74999949698089
 31
0.0
  0
LINE
  5
15C
330
92
100
AcDbEntity
  8
0
  6
Continuous
 62
     7
100
AcDbLine
 10
-94.1961533302219
 20
74.7499994969809
 30
0.0
 11
-95.00000090751527
 21
77.74999949698089
 31
0.0
  0
LINE
  5
15D
330
92
100
AcDbEntity
  8
0
  6
Continuous
 62
     7
100
AcDbLine
 10
-90.80384848480864
 20
74.7499994969809
 30
0.0
 11
-90.00000090751527
 21
77.74999949698089
 31
0.0
  0
LINE
  5
15E
330
92
100
AcDbEntity
  8
0
  6
Continuous
 62
     7
100
AcDbLine
 10
-97.00000090751529
 20
77.74999949697867
 30
0.0
 11
-96.50000090751527
 21
77.74999949697805
 31
0.0
  0
LINE
  5
15F
330
92
100
AcDbEntity
  8
0
  6
Continuous
 62
     7
100
AcDbLine
 10
-85.2465088305661
 20
100.246507420032
 30
0.0
 11
-83.7465088305661
 21
100.246507420032
 31
0.0
  0
LINE
  5
160
330
92
100
AcDbEntity
  8
0
  6
Continuous
 62
     7
100
AcDbLine
 10
-85.24650883056623
 20
98.24999949698118
 30
0.0
 11
-85.2465088305661
 21
100.246507420032
 31
0.0
  0
LINE
  5
161
330
92
100
AcDbEntity
  8
0
  6
Continuous
 62
     7
100
AcDbLine
 10
-85.24650883056623
 20
98.24999949698118
 30
0.0
 11
-77.00000090751524
 21
98.24999949698056
 31
0.0
  0
LINE
  5
162
330
92
100
AcDbEntity
  8
0
  6
Continuous
 62
     7
100
AcDbLine
 10
-89.75349298446444
 20
100.246507420032
 30
0.0
 11
-88.25349298446443
 21
100.246507420032
 31
0.0
  0
LINE
  5
163
330
92
100
AcDbEntity
  8
0
  6
Continuous
 62
     7
100
AcDbLine
 10
-96.50000090751526
 20
98.24999949698119
 30
0.0
 11
-88.25349298446457
 21
98.24999949698118
 31
0.0
  0
LINE
  5
164
330
92
100
AcDbEntity
  8
0
  6
Continuous
 62
     7
100
AcDbLine
 10
-76.50000090751531
 20
77.74999949698062
 30
0.0
 11
-76.50000090751529
 21
98.24999949698068
 31
0.0
  0
LINE
  5
165
330
92
100
AcDbEntity
  8
0
  6
Continuous
 62
     7
100
AcDbLine
 10
-77.00000090751527
 20
77.74999949698051
 30
0.0
 11
-77.00000090751524
 21
98.24999949698056
 31
0.0
  0
LINE
  5
166
330
92
100
AcDbEntity
  8
0
  6
Continuous
 62
     7
100
AcDbLine
 10
-88.11031782954826
 20
100.3896825749471
 30
0.0
 11
-89.61031782954826
 21
100.3896825749471
 31
0.0
  0
LINE
  5
167
330
92
100
AcDbEntity
  8
0
  6
Continuous
 62
     7
100
AcDbLine
 10
-83.88968398548225
 20
100.3896825749471
 30
0.0
 11
-85.38968398548225
 21
100.3896825749471
 31
0.0
  0
LINE
  5
168
330
92
100
AcDbEntity
  8
0
  6
Continuous
 62
     7
100
AcDbLine
 10
-83.7465088305661
 20
100.246507420032
 30
0.0
 11
-83.74650883056592
 21
102.7534915739303
 31
0.0
  0
LINE
  5
169
330
92
100
AcDbEntity
  8
0
  6
Continuous
 62
     7
100
AcDbLine
 10
-83.7465088305661
 20
100.246507420032
 30
0.0
 11
-83.88968398548225
 21
100.3896825749471
 31
0.0
  0
LINE
  5
16A
330
92
100
AcDbEntity
  8
0
  6
Continuous
 62
     7
100
AcDbLine
 10
-83.88968398548208
 20
102.6103164190132
 30
0.0
 11
-83.88968398548225
 21
100.3896825749471
 31
0.0
  0
LINE
  5
16B
330
92
100
AcDbEntity
  8
0
  6
Continuous
 62
     7
100
AcDbLine
 10
-85.38968398548225
 20
100.3896825749471
 30
0.0
 11
-85.2465088305661
 21
100.246507420032
 31
0.0
  0
LINE
  5
16C
330
92
100
AcDbEntity
  8
0
  6
Continuous
 62
     7
100
AcDbLine
 10
-89.6103178295481
 20
102.6103164190132
 30
0.0
 11
-83.88968398548208
 21
102.6103164190132
 31
0.0
  0
LINE
  5
16D
330
92
100
AcDbEntity
  8
0
  6
Continuous
 62
     7
100
AcDbLine
 10
-89.61031782954826
 20
100.3896825749471
 30
0.0
 11
-89.6103178295481
 21
102.6103164190132
 31
0.0
  0
LINE
  5
16E
330
92
100
AcDbEntity
  8
0
  6
Continuous
 62
     7
100
AcDbLine
 10
-89.75349298446426
 20
102.7534915739303
 30
0.0
 11
-89.6103178295481
 21
102.6103164190132
 31
0.0
  0
LINE
  5
16F
330
92
100
AcDbEntity
  8
0
  6
Continuous
 62
     7
100
AcDbLine
 10
-83.74650883056592
 20
102.7534915739303
 30
0.0
 11
-83.88968398548208
 21
102.6103164190132
 31
0.0
  0
LINE
  5
170
330
92
100
AcDbEntity
  8
1
  6
DOT_CENTER
 62
     2
100
AcDbLine
 10
-92.50000090751527
 20
74.7499994969809
 30
0.0
 11
-92.50000090751527
 21
77.74999949698089
 31
0.0
  0
LINE
  5
171
330
92
100
AcDbEntity
  8
1
  6
DOT_CENTER
 62
     2
100
AcDbLine
 10
-90.41000090751525
 20
100.7499994969816
 30
0.0
 11
-94.59000090751526
 21
100.7499994969816
 31
0.0
  0
LINE
  5
172
330
92
100
AcDbEntity
  8
1
  6
DOT_CENTER
 62
     2
100
AcDbLine
 10
-92.50000090751526
 20
102.8399994969816
 30
0.0
 11
-92.50000090751526
 21
98.65999949698157
 31
0.0
  0
LINE
  5
173
330
92
100
AcDbEntity
  8
1
  6
DOT_CENTER
 62
     2
100
AcDbLine
 10
-84.00000090751527
 20
87.99999949697805
 30
0.0
 11
-89.50000090751527
 21
87.99999949697805
 31
0.0
  0
LINE
  5
174
330
92
100
AcDbEntity
  8
1
  6
DOT_CENTER
 62
     2
100
AcDbLine
 10
-86.75000090751527
 20
90.74999949697805
 30
0.0
 11
-86.75000090751527
 21
85.24999949697805
 31
0.0
  0
LINE
  5
175
330
92
100
AcDbEntity
  8
1
  6
DOT_CENTER
 62
     2
100
AcDbLine
 10
-78.91000090751525
 20
100.7499994969807
 30
0.0
 11
-83.09000090751526
 21
100.7499994969807
 31
0.0
  0
LINE
  5
176
330
92
100
AcDbEntity
  8
1
  6
DOT_CENTER
 62
     2
100
AcDbLine
 10
-81.00000090751526
 20
102.8399994969807
 30
0.0
 11
-81.00000090751526
 21
98.6599994969807
 31
0.0
  0
CIRCLE
  5
177
330
92
100
AcDbEntity
  8
0
  6
Continuous
 62
     7
100
AcDbCircle
 10
-92.50000090751526
 20
100.7499994969816
 30
0.0
 40
1.900000000000006
  0
CIRCLE
  5
178
330
92
100
AcDbEntity
  8
0
  6
Continuous
 62
     7
100
AcDbCircle
 10
-81.00000090751526
 20
100.7499994969807
 30
0.0
 40
1.900000000000006
  0
CIRCLE
  5
179
330
92
100
AcDbEntity
  8
0
  6
Continuous
 62
     7
100
AcDbCircle
 10
-86.75000090751527
 20
87.99999949697805
 30
0.0
 40
2.5
  0
ENDBLK
  5
94
330
92
100
AcDbEntity
  8
0
100
AcDbBlockEnd
  0
BLOCK
  5
97
330
95
100
AcDbEntity
  8
0
100
AcDbBlockBegin
  2
SA_Rechts1
 70
     0
 10
-86.74999999999301
 20
89.4999999999591
 30
0.0
  3
SA_Rechts1
  1

  0
INSERT
  5
96
330
95
100
AcDbEntity
  8
0
100
AcDbBlockReference
  2
CES_SRG_BK_5-select__5
 10
-97.00000090751529
 20
74.7499994969809
 30
0.0
  0
MTEXT
  5
17A
330
95
100
AcDbEntity
  8
1
 62
     6
100
AcDbMText
 10
-86.75000090751527
 20
72.2499994969809
 30
0.0
 40
2.5
 41
0.0
 71
     2
 72
     1
  1
 
  7
CONVERTER_11
 73
     1
 44
1.32052821128451
  0
ENDBLK
  5
98
330
95
100
AcDbEntity
  8
0
100
AcDbBlockEnd
  0
BLOCK
  5
9A
330
99
100
AcDbEntity
  8
0
100
AcDbBlockBegin
  2
CES_SRG_BK_5-select__6
 70
     0
 10
-53.37499999996893
 20
74.74999949698051
 30
0.0
  3
CES_SRG_BK_5-select__6
  1

  0
LINE
  5
17B
330
99
100
AcDbEntity
  8
0
  6
Continuous
 62
     7
100
AcDbLine
 10
-36.37499999996901
 20
77.74999949697805
 30
0.0
 11
-38.52499999996888
 21
77.74999949697856
 31
0.0
  0
LINE
  5
17C
330
99
100
AcDbEntity
  8
0
  6
Continuous
 62
     7
100
AcDbLine
 10
-39.02499999996886
 20
77.74999949697867
 30
0.0
 11
-38.52499999996888
 21
77.74999949697856
 31
0.0
  0
LINE
  5
17D
330
99
100
AcDbEntity
  8
0
  6
Continuous
 62
     7
100
AcDbLine
 10
-39.52499999996891
 20
77.74999949697879
 30
0.0
 11
-39.02499999996886
 21
77.74999949697867
 31
0.0
  0
LINE
  5
17E
330
99
100
AcDbEntity
  8
0
  6
Continuous
 62
     7
100
AcDbLine
 10
-50.07115242267636
 20
74.74999949698132
 30
0.0
 11
-46.67884757726309
 21
74.74999949698051
 31
0.0
  0
LINE
  5
17F
330
99
100
AcDbEntity
  8
0
  6
Continuous
 62
     7
100
AcDbLine
 10
-46.67884757726309
 20
74.74999949698051
 30
0.0
 11
-45.87499999996901
 21
77.74999949698031
 31
0.0
  0
LINE
  5
180
330
99
100
AcDbEntity
  8
0
  6
Continuous
 62
     7
100
AcDbLine
 10
-53.37499999996262
 20
104.2499994969821
 30
0.0
 11
-49.3749999999626
 21
104.2499994969812
 31
0.0
  0
LINE
  5
181
330
99
100
AcDbEntity
  8
0
  6
Continuous
 62
     7
100
AcDbLine
 10
-49.3749999999626
 20
104.2499994969812
 30
0.0
 11
-49.37499999996295
 21
102.7534915739303
 31
0.0
  0
LINE
  5
182
330
99
100
AcDbEntity
  8
0
  6
Continuous
 62
     7
100
AcDbLine
 10
-49.37499999996355
 20
100.246507420032
 30
0.0
 11
-49.37499999996403
 21
98.24999949698119
 31
0.0
  0
LINE
  5
183
330
99
100
AcDbEntity
  8
0
  6
Continuous
 62
     7
100
AcDbLine
 10
-49.37499999996295
 20
102.7534915739303
 30
0.0
 11
-49.37499999996355
 21
100.246507420032
 31
0.0
  0
LINE
  5
184
330
99
100
AcDbEntity
  8
0
  6
Continuous
 62
     7
100
AcDbLine
 10
-53.37499999996893
 20
77.74999949698207
 30
0.0
 11
-53.37499999996262
 21
104.2499994969821
 31
0.0
  0
LINE
  5
185
330
99
100
AcDbEntity
  8
0
  6
Continuous
 62
     7
100
AcDbLine
 10
-45.27499999996402
 20
98.24999949698021
 30
0.0
 11
-45.27499999996351
 21
100.3896825749471
 31
0.0
  0
LINE
  5
186
330
99
100
AcDbEntity
  8
0
  6
Continuous
 62
     7
100
AcDbLine
 10
-49.37499999996355
 20
100.246507420032
 30
0.0
 11
-45.27499999996351
 21
100.3896825749471
 31
0.0
  0
LINE
  5
187
330
99
100
AcDbEntity
  8
0
  6
Continuous
 62
     7
100
AcDbLine
 10
-45.27499999996351
 20
100.3896825749471
 30
0.0
 11
-45.27499999996299
 21
102.6103164190132
 31
0.0
  0
LINE
  5
188
330
99
100
AcDbEntity
  8
0
  6
Continuous
 62
     7
100
AcDbLine
 10
-49.37499999996295
 20
102.7534915739303
 30
0.0
 11
-45.27499999996299
 21
102.6103164190132
 31
0.0
  0
LINE
  5
189
330
99
100
AcDbEntity
  8
0
  6
Continuous
 62
     7
100
AcDbLine
 10
-36.37499999996414
 20
98.24999949697812
 30
0.0
 11
-36.37499999996901
 21
77.74999949697805
 31
0.0
  0
LINE
  5
18A
330
99
100
AcDbEntity
  8
0
  6
Continuous
 62
     7
100
AcDbLine
 10
-39.02499999996401
 20
98.24999949697875
 30
0.0
 11
-38.52499999996402
 21
98.24999949697862
 31
0.0
  0
LINE
  5
18B
330
99
100
AcDbEntity
  8
0
  6
Continuous
 62
     7
100
AcDbLine
 10
-38.52499999996402
 20
98.24999949697862
 30
0.0
 11
-38.52499999996888
 21
77.74999949697856
 31
0.0
  0
LINE
  5
18C
330
99
100
AcDbEntity
  8
0
  6
Continuous
 62
     7
100
AcDbLine
 10
-39.02499999996401
 20
98.24999949697875
 30
0.0
 11
-39.02499999996886
 21
77.74999949697867
 31
0.0
  0
LINE
  5
18D
330
99
100
AcDbEntity
  8
0
  6
Continuous
 62
     7
100
AcDbLine
 10
-36.37499999996414
 20
98.24999949697812
 30
0.0
 11
-38.52499999996402
 21
98.24999949697862
 31
0.0
  0
LINE
  5
18E
330
99
100
AcDbEntity
  8
0
  6
Continuous
 62
     7
100
AcDbLine
 10
-39.52499999996405
 20
98.24999949697886
 30
0.0
 11
-39.02499999996401
 21
98.24999949697875
 31
0.0
  0
LINE
  5
18F
330
99
100
AcDbEntity
  8
0
  6
Continuous
 62
     7
100
AcDbLine
 10
-45.27499999996402
 20
98.24999949698021
 30
0.0
 11
-49.37499999996403
 21
98.24999949698119
 31
0.0
  0
LINE
  5
190
330
99
100
AcDbEntity
  8
0
  6
Continuous
 62
     7
100
AcDbLine
 10
-39.52499999996405
 20
98.24999949697886
 30
0.0
 11
-45.27499999996402
 21
98.24999949698021
 31
0.0
  0
LINE
  5
191
330
99
100
AcDbEntity
  8
0
  6
Continuous
 62
     7
100
AcDbLine
 10
-39.52499999996405
 20
98.24999949697886
 30
0.0
 11
-39.52499999996891
 21
77.74999949697879
 31
0.0
  0
LINE
  5
192
330
99
100
AcDbEntity
  8
0
  6
Continuous
 62
     7
100
AcDbLine
 10
-45.87499999996901
 20
77.74999949698031
 30
0.0
 11
-50.87499999996901
 21
77.74999949698149
 31
0.0
  0
LINE
  5
193
330
99
100
AcDbEntity
  8
0
  6
Continuous
 62
     7
100
AcDbLine
 10
-50.87499999996901
 20
77.74999949698149
 30
0.0
 11
-53.37499999996893
 21
77.74999949698207
 31
0.0
  0
LINE
  5
194
330
99
100
AcDbEntity
  8
0
  6
Continuous
 62
     7
100
AcDbLine
 10
-39.52499999996891
 20
77.74999949697879
 30
0.0
 11
-45.87499999996901
 21
77.74999949698031
 31
0.0
  0
LINE
  5
195
330
99
100
AcDbEntity
  8
0
  6
Continuous
 62
     7
100
AcDbLine
 10
-50.07115242267636
 20
74.74999949698132
 30
0.0
 11
-50.87499999996901
 21
77.74999949698149
 31
0.0
  0
LINE
  5
196
330
99
100
AcDbEntity
  8
1
  6
DOT_CENTER
 62
     2
100
AcDbLine
 10
-48.37499999996972
 20
74.7499994969809
 30
0.0
 11
-48.374999999969
 21
77.7499994969809
 31
0.0
  0
ENDBLK
  5
9B
330
99
100
AcDbEntity
  8
0
100
AcDbBlockEnd
  0
BLOCK
  5
9E
330
9C
100
AcDbEntity
  8
0
100
AcDbBlockBegin
  2
Vordans1
 70
     0
 10
-44.87499999999657
 20
89.4999999999591
 30
0.0
  3
Vordans1
  1

  0
INSERT
  5
9D
330
9C
100
AcDbEntity
  8
0
100
AcDbBlockReference
  2
CES_SRG_BK_5-select__6
 10
-53.37499999996893
 20
74.74999949698051
 30
0.0
  0
MTEXT
  5
197
330
9C
100
AcDbEntity
  8
1
 62
     6
100
AcDbMText
 10
-38.48787282282194
 20
60.43317255258702
 30
0.0
 40
2.5
 41
0.0
 71
     2
 72
     1
  1
 
  7
CONVERTER_11
 73
     1
 44
1.32052821128451
  0
DIMENSION
  5
1A2
330
9C
100
AcDbEntity
  8
1
100
AcDbDimension
  2
*D18
 10
-58.3749999999626
 20
74.74999949698048
 30
0.0
 11
-60.3374999999626
 21
89.19045497583302
 31
0.0
 70
    32
  1
<>
 71
     5
 42
-1.0
 53
90.0
  3
ME10_DIM_11
100
AcDbAlignedDimension
 13
-53.37499999996262
 23
104.2499994969821
 33
0.0
 14
-46.67884757726309
 24
74.74999949698051
 34
0.0
 50
90.0
100
AcDbRotatedDimension
  0
DIMENSION
  5
1AD
330
9C
100
AcDbEntity
  8
1
100
AcDbDimension
  2
*D19
 10
-36.37499999996901
 20
67.93317255258704
 30
0.0
 11
-44.87499999999662
 21
69.80817255258704
 31
0.0
 70
    32
  1
<>
 71
     5
 42
-1.0
 53
0.00013888888889
  3
ME10_DIM_12
100
AcDbAlignedDimension
 13
-53.37499999996893
 23
77.74999949698207
 33
0.0
 14
-36.37499999996901
 24
77.74999949697805
 34
0.0
100
AcDbRotatedDimension
  0
ENDBLK
  5
9F
330
9C
100
AcDbEntity
  8
0
100
AcDbBlockEnd
  0
BLOCK
  5
A1
330
A0
100
AcDbEntity
  8
0
100
AcDbBlockBegin
  2
_rahmen
 70
     0
 10
143.7431072854664
 20
-46.29362749516849
 30
0.0
  3
_rahmen
  1

  0
LINE
  5
1AE
330
A0
100
AcDbEntity
  8
1
  6
DOT_CENTER
 62
     2
100
AcDbLine
 10
18.18495764527896
 20
-20.16862749516918
 30
0.0
 11
23.68495764527896
 21
-20.16862749516918
 31
0.0
  0
LINE
  5
1AF
330
A0
100
AcDbEntity
  8
1
  6
PHANTOM
 62
     2
100
AcDbLine
 10
26.93495764527896
 20
-17.41862749516906
 30
0.0
 11
26.93495764527896
 21
-22.91862749516906
 31
0.0
  0
LINE
  5
1B0
330
A0
100
AcDbEntity
  8
1
  6
PHANTOM
 62
     2
100
AcDbLine
 10
29.68495764527896
 20
-20.16862749516918
 30
0.0
 11
24.18495764527896
 21
-20.16862749516918
 31
0.0
  0
LINE
  5
1B1
330
A0
100
AcDbEntity
  8
1
  6
Continuous
 62
     6
100
AcDbLine
 10
14.19830275871644
 20
-15.79362749516906
 30
0.0
 11
143.7431072854681
 21
-15.79362749516906
 31
0.0
  0
LINE
  5
1B2
330
A0
100
AcDbEntity
  8
1
  6
Continuous
 62
     7
100
AcDbLine
 10
32.39830275871634
 20
-37.04362749516901
 30
0.0
 11
50.59830275871636
 21
-37.04362749516901
 31
0.0
  0
LINE
  5
1B3
330
A0
100
AcDbEntity
  8
1
  6
Continuous
 62
     6
100
AcDbLine
 10
32.39830275871634
 20
-41.29362749516901
 30
0.0
 11
14.19830275871644
 21
-41.29362749516906
 31
0.0
  0
LINE
  5
1B4
330
A0
100
AcDbEntity
  8
1
  6
Continuous
 62
     7
100
AcDbLine
 10
32.39830275871634
 20
-37.04362749516901
 30
0.0
 11
32.39830275871634
 21
-41.29362749516901
 31
0.0
  0
LINE
  5
1B5
330
A0
100
AcDbEntity
  8
1
  6
Continuous
 62
     7
100
AcDbLine
 10
50.59830275871636
 20
-37.04362749516901
 30
0.0
 11
50.59830275871636
 21
-41.29362749516906
 31
0.0
  0
LINE
  5
1B6
330
A0
100
AcDbEntity
  8
1
  6
Continuous
 62
     7
100
AcDbLine
 10
14.19830275871644
 20
-37.04362749516906
 30
0.0
 11
14.19830275871644
 21
-41.29362749516906
 31
0.0
  0
LINE
  5
1B7
330
A0
100
AcDbEntity
  8
1
  6
Continuous
 62
     7
100
AcDbLine
 10
14.19830275871644
 20
-37.04362749516906
 30
0.0
 11
32.39830275871634
 21
-37.04362749516901
 31
0.0
  0
LINE
  5
1B8
330
A0
100
AcDbEntity
  8
1
  6
Continuous
 62
     2
100
AcDbLine
 10
23.43495764527896
 20
-17.66862749516918
 30
0.0
 11
23.43495764527896
 21
-22.66862749516918
 31
0.0
  0
LINE
  5
1B9
330
A0
100
AcDbEntity
  8
1
  6
Continuous
 62
     2
100
AcDbLine
 10
23.43495764527896
 20
-22.66862749516918
 30
0.0
 11
18.43495764527896
 21
-21.41862749516918
 31
0.0
  0
LINE
  5
1BA
330
A0
100
AcDbEntity
  8
1
  6
Continuous
 62
     2
100
AcDbLine
 10
18.43495764527896
 20
-21.41862749516918
 30
0.0
 11
18.43495764527896
 21
-18.91862749516918
 31
0.0
  0
LINE
  5
1BB
330
A0
100
AcDbEntity
  8
1
  6
Continuous
 62
     2
100
AcDbLine
 10
18.43495764527896
 20
-18.91862749516918
 30
0.0
 11
23.43495764527896
 21
-17.66862749516918
 31
0.0
  0
LINE
  5
1BC
330
A0
100
AcDbEntity
  8
1
  6
Continuous
 62
     6
100
AcDbLine
 10
143.7431072854681
 20
-24.29362749516906
 30
0.0
 11
143.7431072854677
 21
-32.79362749516906
 31
0.0
  0
LINE
  5
1BD
330
A0
100
AcDbEntity
  8
1
  6
Continuous
 62
     6
100
AcDbLine
 10
50.59830275871636
 20
-41.29362749516906
 30
0.0
 11
50.24310728546635
 21
-41.29362749516901
 31
0.0
  0
LINE
  5
1BE
330
A0
100
AcDbEntity
  8
1
  6
Continuous
 62
     7
100
AcDbLine
 10
50.59830275871636
 20
-24.29362749516906
 30
0.0
 11
50.59830275871636
 21
-37.04362749516901
 31
0.0
  0
LINE
  5
1BF
330
A0
100
AcDbEntity
  8
1
  6
Continuous
 62
     7
100
AcDbLine
 10
14.19830275871644
 20
-24.29362749516906
 30
0.0
 11
14.19830275871644
 21
-37.04362749516906
 31
0.0
  0
LINE
  5
1C0
330
A0
100
AcDbEntity
  8
1
  6
Continuous
 62
     6
100
AcDbLine
 10
50.59830275871636
 20
-41.29362749516906
 30
0.0
 11
100.2431072854664
 21
-41.29362749516901
 31
0.0
  0
LINE
  5
1C1
330
A0
100
AcDbEntity
  8
1
  6
Continuous
 62
     6
100
AcDbLine
 10
143.7431072854663
 20
-41.29362749516901
 30
0.0
 11
143.7431072854677
 21
-32.79362749516906
 31
0.0
  0
LINE
  5
1C2
330
A0
100
AcDbEntity
  8
1
  6
Continuous
 62
     6
100
AcDbLine
 10
14.19830275871644
 20
-24.29362749516906
 30
0.0
 11
50.59830275871636
 21
-24.29362749516906
 31
0.0
  0
LINE
  5
1C3
330
A0
100
AcDbEntity
  8
1
  6
Continuous
 62
     6
100
AcDbLine
 10
50.24310728546635
 20
-41.29362749516901
 30
0.0
 11
32.39830275871634
 21
-41.29362749516901
 31
0.0
  0
LINE
  5
1C4
330
A0
100
AcDbEntity
  8
1
  6
Continuous
 62
     6
100
AcDbLine
 10
100.2431072854664
 20
-41.29362749516901
 30
0.0
 11
143.7431072854663
 21
-41.29362749516901
 31
0.0
  0
LINE
  5
1C5
102
{ACAD_REACTORS
330
2F3
330
2F4
102
}
330
A0
100
AcDbEntity
  8
0
  6
Continuous
 62
     2
100
AcDbLine
 10
21.71292870086325
 20
-29.221112738957
 30
0.0
 11
21.71292870086325
 21
-28.61557745045019
 31
0.0
  0
LINE
  5
1C6
102
{ACAD_REACTORS
330
2F3
330
2F4
102
}
330
A0
100
AcDbEntity
  8
0
  6
Continuous
 62
     2
100
AcDbLine
 10
21.71292870086325
 20
-32.02124734558817
 30
0.0
 11
21.71292870086325
 21
-31.43939593889309
 31
0.0
  0
LINE
  5
1C7
102
{ACAD_REACTORS
330
2F5
330
2F6
102
}
330
A0
100
AcDbEntity
  8
0
  6
Continuous
 62
     2
100
AcDbLine
 10
44.34241513634234
 20
-31.73158327746529
 30
0.0
 11
44.34241513634234
 21
-34.0001274951527
 31
0.0
  0
LINE
  5
1C8
102
{ACAD_REACTORS
330
2F5
330
2F6
102
}
330
A0
100
AcDbEntity
  8
0
  6
Continuous
 62
     2
100
AcDbLine
 10
42.96136135735483
 20
-30.94631797134218
 30
0.0
 11
46.34630687598343
 21
-30.94631797134156
 31
0.0
  0
LINE
  5
1C9
102
{ACAD_REACTORS
330
2F5
330
2F6
102
}
330
A0
100
AcDbEntity
  8
0
  6
Continuous
 62
     2
100
AcDbLine
 10
46.34630687598343
 20
-31.73158327746529
 30
0.0
 11
46.34630687598343
 21
-30.94631797134156
 31
0.0
  0
LINE
  5
1CA
102
{ACAD_REACTORS
330
2F5
330
2F6
102
}
330
A0
100
AcDbEntity
  8
0
  6
Continuous
 62
     2
100
AcDbLine
 10
45.53520783851005
 20
-31.73158327746529
 30
0.0
 11
46.34630687598343
 21
-31.73158327746529
 31
0.0
  0
LINE
  5
1CB
102
{ACAD_REACTORS
330
2F5
330
2F6
102
}
330
A0
100
AcDbEntity
  8
0
  6
Continuous
 62
     2
100
AcDbLine
 10
45.53520783851005
 20
-34.0001274951527
 30
0.0
 11
45.53520783851005
 21
-31.73158327746529
 31
0.0
  0
LINE
  5
1CC
102
{ACAD_REACTORS
330
2F5
330
2F6
102
}
330
A0
100
AcDbEntity
  8
0
  6
Continuous
 62
     2
100
AcDbLine
 10
44.34241513634234
 20
-34.0001274951527
 30
0.0
 11
45.53520783851005
 21
-34.0001274951527
 31
0.0
  0
LINE
  5
1CD
102
{ACAD_REACTORS
330
2EB
330
2EC
102
}
330
A0
100
AcDbEntity
  8
0
  6
Continuous
 62
     2
100
AcDbLine
 10
43.64582419827784
 20
-27.58712749516729
 30
0.0
 11
42.24309998052866
 21
-27.58712749516729
 31
0.0
  0
LINE
  5
1CE
102
{ACAD_REACTORS
330
2EB
330
2EC
102
}
330
A0
100
AcDbEntity
  8
0
  6
Continuous
 62
     2
100
AcDbLine
 10
43.64582419827784
 20
-27.58712749516729
 30
0.0
 11
44.24699172016975
 21
-28.26695081672278
 31
0.0
  0
LINE
  5
1CF
102
{ACAD_REACTORS
330
2EB
330
2EC
102
}
330
A0
100
AcDbEntity
  8
0
  6
Continuous
 62
     2
100
AcDbLine
 10
44.24699172016975
 20
-28.26695081672278
 30
0.0
 11
44.84815924206254
 21
-27.58712749516729
 31
0.0
  0
LINE
  5
1D0
102
{ACAD_REACTORS
330
2EB
330
2EC
102
}
330
A0
100
AcDbEntity
  8
0
  6
Continuous
 62
     2
100
AcDbLine
 10
44.94835382904316
 20
-29.0600780252035
 30
0.0
 11
46.25088345980976
 21
-27.58712749516729
 31
0.0
  0
LINE
  5
1D1
102
{ACAD_REACTORS
330
2EB
330
2EC
102
}
330
A0
100
AcDbEntity
  8
0
  6
Continuous
 62
     2
100
AcDbLine
 10
44.94835382904316
 20
-29.0600780252035
 30
0.0
 11
46.34630687598343
 21
-30.64093701897838
 31
0.0
  0
LINE
  5
1D2
102
{ACAD_REACTORS
330
2EB
330
2EC
102
}
330
A0
100
AcDbEntity
  8
0
  6
Continuous
 62
     2
100
AcDbLine
 10
44.94358265823513
 20
-30.64093701897838
 30
0.0
 11
46.34630687598343
 21
-30.64093701897838
 31
0.0
  0
LINE
  5
1D3
102
{ACAD_REACTORS
330
2EB
330
2EC
102
}
330
A0
100
AcDbEntity
  8
0
  6
Continuous
 62
     2
100
AcDbLine
 10
44.24699172016975
 20
-29.85320523368466
 30
0.0
 11
44.94358265823513
 21
-30.64093701897838
 31
0.0
  0
LINE
  5
1D4
102
{ACAD_REACTORS
330
2E9
330
2EA
102
}
330
A0
100
AcDbEntity
  8
0
  6
Continuous
 62
     2
100
AcDbLine
 10
40.78789288388603
 20
-27.58712749516729
 30
0.0
 11
42.02839729413896
 21
-27.58712749516729
 31
0.0
  0
LINE
  5
1D5
102
{ACAD_REACTORS
330
2E9
330
2EA
102
}
330
A0
100
AcDbEntity
  8
0
  6
Continuous
 62
     2
100
AcDbLine
 10
42.02839729413896
 20
-27.58712749516729
 30
0.0
 11
42.02839729413896
 21
-30.64093701897838
 31
0.0
  0
LINE
  5
1D6
102
{ACAD_REACTORS
330
2E9
330
2EA
102
}
330
A0
100
AcDbEntity
  8
0
  6
Continuous
 62
     2
100
AcDbLine
 10
40.78789288388603
 20
-30.64093701897838
 30
0.0
 11
40.78789288388603
 21
-27.58712749516729
 31
0.0
  0
LINE
  5
1D7
102
{ACAD_REACTORS
330
2E7
330
2E8
102
}
330
A0
100
AcDbEntity
  8
0
  6
Continuous
 62
     2
100
AcDbLine
 10
39.31958280134845
 20
-32.7786036856283
 30
0.0
 11
39.61974803854074
 21
-32.0107887196416
 31
0.0
  0
LINE
  5
1D8
102
{ACAD_REACTORS
330
2E7
330
2E8
102
}
330
A0
100
AcDbEntity
  8
0
  6
Continuous
 62
     2
100
AcDbLine
 10
38.84204719672755
 20
-34.0001274951527
 30
0.0
 11
39.05352725020333
 21
-33.4591669509349
 31
0.0
  0
LINE
  5
1D9
102
{ACAD_REACTORS
330
2E7
330
2E8
102
}
330
A0
100
AcDbEntity
  8
0
  6
Continuous
 62
     2
100
AcDbLine
 10
38.99949583341385
 20
-30.94631797134156
 30
0.0
 11
37.60154278647465
 21
-34.0001274951527
 31
0.0
  0
LINE
  5
1DA
102
{ACAD_REACTORS
330
2E7
330
2E8
102
}
330
A0
100
AcDbEntity
  8
0
  6
Continuous
 62
     2
100
AcDbLine
 10
41.63795329060693
 20
-34.0001274951527
 30
0.0
 11
40.39744888035304
 21
-34.0001274951527
 31
0.0
  0
LINE
  5
1DB
102
{ACAD_REACTORS
330
2E7
330
2E8
102
}
330
A0
100
AcDbEntity
  8
0
  6
Continuous
 62
     2
100
AcDbLine
 10
39.05352725020333
 20
-33.4591669509349
 30
0.0
 11
40.18596882687726
 21
-33.4591669509349
 31
0.0
  0
LINE
  5
1DC
102
{ACAD_REACTORS
330
2E5
330
2E6
102
}
330
A0
100
AcDbEntity
  8
0
  6
Continuous
 62
     2
100
AcDbLine
 10
35.44403064729235
 20
-31.73158327746529
 30
0.0
 11
36.25512968476704
 21
-31.73158327746529
 31
0.0
  0
LINE
  5
1DD
102
{ACAD_REACTORS
330
2E5
330
2E6
102
}
330
A0
100
AcDbEntity
  8
0
  6
Continuous
 62
     2
100
AcDbLine
 10
38.25902142440606
 20
-30.94631797134156
 30
0.0
 11
35.44403064729235
 21
-30.94631797134156
 31
0.0
  0
LINE
  5
1DE
102
{ACAD_REACTORS
330
2E5
330
2E6
102
}
330
A0
100
AcDbEntity
  8
0
  6
Continuous
 62
     2
100
AcDbLine
 10
38.25902142440606
 20
-31.73158327746529
 30
0.0
 11
38.25902142440606
 21
-30.94631797134156
 31
0.0
  0
LINE
  5
1DF
102
{ACAD_REACTORS
330
2E5
330
2E6
102
}
330
A0
100
AcDbEntity
  8
0
  6
Continuous
 62
     2
100
AcDbLine
 10
37.44792238693344
 20
-31.73158327746529
 30
0.0
 11
38.25902142440606
 21
-31.73158327746529
 31
0.0
  0
LINE
  5
1E0
102
{ACAD_REACTORS
330
2E5
330
2E6
102
}
330
A0
100
AcDbEntity
  8
0
  6
Continuous
 62
     2
100
AcDbLine
 10
37.44792238693344
 20
-34.0001274951527
 30
0.0
 11
37.44792238693344
 21
-31.73158327746529
 31
0.0
  0
LINE
  5
1E1
102
{ACAD_REACTORS
330
2E3
330
2E4
102
}
330
A0
100
AcDbEntity
  8
0
  6
Continuous
 62
     2
100
AcDbLine
 10
38.11603723103144
 20
-30.64093701897838
 30
0.0
 11
38.11603723103144
 21
-29.33216150877365
 31
0.0
  0
LINE
  5
1E2
102
{ACAD_REACTORS
330
2E3
330
2E4
102
}
330
A0
100
AcDbEntity
  8
0
  6
Continuous
 62
     2
100
AcDbLine
 10
36.92324452886504
 20
-27.58712749516729
 30
0.0
 11
36.92324452886504
 21
-30.64093701897838
 31
0.0
  0
LINE
  5
1E3
102
{ACAD_REACTORS
330
2E3
330
2E4
102
}
330
A0
100
AcDbEntity
  8
0
  6
Continuous
 62
     2
100
AcDbLine
 10
38.11603723103144
 20
-27.58712749516729
 30
0.0
 11
36.92324452886504
 21
-27.58712749516729
 31
0.0
  0
LINE
  5
1E4
102
{ACAD_REACTORS
330
2E3
330
2E4
102
}
330
A0
100
AcDbEntity
  8
0
  6
Continuous
 62
     2
100
AcDbLine
 10
39.35654164128553
 20
-27.58712749516729
 30
0.0
 11
39.35654164128553
 21
-28.89590300537236
 31
0.0
  0
LINE
  5
1E5
102
{ACAD_REACTORS
330
2E1
330
2E2
102
}
330
A0
100
AcDbEntity
  8
0
  6
Continuous
 62
     2
100
AcDbLine
 10
31.67480570844535
 20
-30.94631797134156
 30
0.0
 11
31.67480570844535
 21
-34.0001274951527
 31
0.0
  0
LINE
  5
1E6
102
{ACAD_REACTORS
330
2E1
330
2E2
102
}
330
A0
100
AcDbEntity
  8
0
  6
Continuous
 62
     2
100
AcDbLine
 10
32.86759841061286
 20
-30.94631797134156
 30
0.0
 11
31.67480570844535
 21
-30.94631797134156
 31
0.0
  0
LINE
  5
1E7
102
{ACAD_REACTORS
330
2E1
330
2E2
102
}
330
A0
100
AcDbEntity
  8
0
  6
Continuous
 62
     2
100
AcDbLine
 10
34.10810282086584
 20
-34.0001274951527
 30
0.0
 11
35.30089552303224
 21
-34.0001274951527
 31
0.0
  0
LINE
  5
1E8
102
{ACAD_REACTORS
330
2E1
330
2E2
102
}
330
A0
100
AcDbEntity
  8
0
  6
Continuous
 62
     2
100
AcDbLine
 10
31.67480570844535
 20
-34.0001274951527
 30
0.0
 11
32.86759841061286
 21
-34.0001274951527
 31
0.0
  0
LINE
  5
1E9
102
{ACAD_REACTORS
330
2F1
330
2F2
102
}
330
A0
100
AcDbEntity
  8
0
  6
Continuous
 62
     2
100
AcDbLine
 10
35.34875816200443
 20
-28.76502545435187
 30
0.0
 11
35.34875816200443
 21
-28.28514110061019
 31
0.0
  0
LINE
  5
1EA
102
{ACAD_REACTORS
330
2F1
330
2F2
102
}
330
A0
100
AcDbEntity
  8
0
  6
Continuous
 62
     2
100
AcDbLine
 10
36.68468598843205
 20
-28.76502545435187
 30
0.0
 11
35.34875816200443
 21
-28.76502545435187
 31
0.0
  0
LINE
  5
1EB
102
{ACAD_REACTORS
330
2F1
330
2F2
102
}
330
A0
100
AcDbEntity
  8
0
  6
Continuous
 62
     2
100
AcDbLine
 10
36.68468598843205
 20
-29.46303905979426
 30
0.0
 11
36.68468598843205
 21
-28.76502545435187
 31
0.0
  0
LINE
  5
1EC
102
{ACAD_REACTORS
330
2F1
330
2F2
102
}
330
A0
100
AcDbEntity
  8
0
  6
Continuous
 62
     2
100
AcDbLine
 10
35.34875816200443
 20
-29.46303905979426
 30
0.0
 11
36.68468598843205
 21
-29.46303905979426
 31
0.0
  0
LINE
  5
1ED
102
{ACAD_REACTORS
330
2DF
330
2E0
102
}
330
A0
100
AcDbEntity
  8
0
  6
Continuous
 62
     2
100
AcDbLine
 10
31.86580347167754
 20
-27.58712749516729
 30
0.0
 11
31.86580347167754
 21
-30.64093701897838
 31
0.0
  0
LINE
  5
1EE
102
{ACAD_REACTORS
330
2DF
330
2E0
102
}
330
A0
100
AcDbEntity
  8
0
  6
Continuous
 62
     2
100
AcDbLine
 10
31.86580347167754
 20
-30.64093701897838
 30
0.0
 11
30.67301076951105
 21
-30.64093701897838
 31
0.0
  0
LINE
  5
1EF
102
{ACAD_REACTORS
330
2DF
330
2E0
102
}
330
A0
100
AcDbEntity
  8
0
  6
Continuous
 62
     2
100
AcDbLine
 10
30.67301076951105
 20
-30.64093701897838
 30
0.0
 11
30.67301076951105
 21
-29.5066649101347
 31
0.0
  0
LINE
  5
1F0
102
{ACAD_REACTORS
330
2DF
330
2E0
102
}
330
A0
100
AcDbEntity
  8
0
  6
Continuous
 62
     2
100
AcDbLine
 10
29.62335319160366
 20
-30.64093701897838
 30
0.0
 11
28.43056048943706
 21
-30.64093701897838
 31
0.0
  0
LINE
  5
1F1
102
{ACAD_REACTORS
330
2DF
330
2E0
102
}
330
A0
100
AcDbEntity
  8
0
  6
Continuous
 62
     2
100
AcDbLine
 10
28.43056048943706
 20
-27.58712749516729
 30
0.0
 11
29.62335319160366
 21
-27.58712749516729
 31
0.0
  0
LINE
  5
1F2
102
{ACAD_REACTORS
330
2DF
330
2E0
102
}
330
A0
100
AcDbEntity
  8
0
  6
Continuous
 62
     2
100
AcDbLine
 10
29.62335319160366
 20
-27.58712749516729
 30
0.0
 11
29.62335319160366
 21
-28.65596082850186
 31
0.0
  0
LINE
  5
1F3
102
{ACAD_REACTORS
330
2DF
330
2E0
102
}
330
A0
100
AcDbEntity
  8
0
  6
Continuous
 62
     2
100
AcDbLine
 10
29.62335319160366
 20
-28.65596082850186
 30
0.0
 11
30.67301076951105
 21
-28.65596082850186
 31
0.0
  0
LINE
  5
1F4
102
{ACAD_REACTORS
330
2ED
330
2EE
102
}
330
A0
100
AcDbEntity
  8
0
  6
Continuous
 62
     2
100
AcDbLine
 10
26.47438045788334
 20
-28.25023334060728
 30
0.0
 11
26.79167551942535
 21
-28.25023334060728
 31
0.0
  0
LINE
  5
1F5
102
{ACAD_REACTORS
330
2ED
330
2EE
102
}
330
A0
100
AcDbEntity
  8
0
  6
Continuous
 62
     2
100
AcDbLine
 10
26.47438045788334
 20
-28.95596098994957
 30
0.0
 11
26.79167551942535
 21
-28.95596098994957
 31
0.0
  0
LINE
  5
1F6
102
{ACAD_REACTORS
330
2ED
330
2EE
102
}
330
A0
100
AcDbEntity
  8
0
  6
Continuous
 62
     2
100
AcDbLine
 10
25.23387604762934
 20
-27.58712749516729
 30
0.0
 11
25.23387604762934
 21
-30.64093701897838
 31
0.0
  0
LINE
  5
1F7
102
{ACAD_REACTORS
330
2ED
330
2EE
102
}
330
A0
100
AcDbEntity
  8
0
  6
Continuous
 62
     2
100
AcDbLine
 10
25.23387604762934
 20
-27.58712749516729
 30
0.0
 11
27.23314804566374
 21
-27.58712749516729
 31
0.0
  0
LINE
  5
1F8
102
{ACAD_REACTORS
330
2ED
330
2EE
102
}
330
A0
100
AcDbEntity
  8
0
  6
Continuous
 62
     2
100
AcDbLine
 10
26.47438045788334
 20
-29.69785877783465
 30
0.0
 11
27.23314804566374
 21
-29.69785877783465
 31
0.0
  0
LINE
  5
1F9
102
{ACAD_REACTORS
330
2F3
330
2F4
102
}
330
A0
100
AcDbEntity
  8
0
  6
Continuous
 62
     2
100
AcDbLine
 10
19.13738001433265
 20
-28.61539997380197
 30
0.0
 11
19.13738001433265
 21
-32.9718550165191
 31
0.0
  0
LINE
  5
1FA
102
{ACAD_REACTORS
330
2F3
330
2F4
102
}
330
A0
100
AcDbEntity
  8
0
  6
Continuous
 62
     2
100
AcDbLine
 10
19.45309693740825
 20
-28.29968305072589
 30
0.0
 11
20.92893019841785
 21
-28.29968305072589
 31
0.0
  0
LINE
  5
1FB
102
{ACAD_REACTORS
330
2F3
330
2F4
102
}
330
A0
100
AcDbEntity
  8
0
  6
Continuous
 62
     2
100
AcDbLine
 10
21.24464712149444
 20
-29.2194245928626
 30
0.0
 11
21.24464712149444
 21
-28.61539997380197
 31
0.0
  0
LINE
  5
1FC
102
{ACAD_REACTORS
330
2F3
330
2F4
102
}
330
A0
100
AcDbEntity
  8
0
  6
Continuous
 62
     2
100
AcDbLine
 10
21.24464712149444
 20
-32.9718550165191
 30
0.0
 11
21.24464712149444
 21
-31.44108408498749
 31
0.0
  0
LINE
  5
1FD
102
{ACAD_REACTORS
330
2F3
330
2F4
102
}
330
A0
100
AcDbEntity
  8
0
  6
Continuous
 62
     2
100
AcDbLine
 10
24.33251435137865
 20
-34.0001274951527
 30
0.0
 11
18.85920226066173
 21
-34.0001274951527
 31
0.0
  0
LINE
  5
1FE
102
{ACAD_REACTORS
330
2F3
330
2F4
102
}
330
A0
100
AcDbEntity
  8
0
  6
Continuous
 62
     2
100
AcDbLine
 10
24.75675896676253
 20
-28.01137211056926
 30
0.0
 11
24.75675896676253
 21
-33.5758828797695
 31
0.0
  0
LINE
  5
1FF
102
{ACAD_REACTORS
330
2F3
330
2F4
102
}
330
A0
100
AcDbEntity
  8
0
  6
Continuous
 62
     2
100
AcDbLine
 10
18.85920226066173
 20
-27.58712749518537
 30
0.0
 11
24.33251435137865
 21
-27.58712749518537
 31
0.0
  0
LINE
  5
200
102
{ACAD_REACTORS
330
2F3
330
2F4
102
}
330
A0
100
AcDbEntity
  8
0
  6
Continuous
 62
     2
100
AcDbLine
 10
18.43495764527896
 20
-28.01137211056926
 30
0.0
 11
18.43495764527896
 21
-33.5758828797695
 31
0.0
  0
LINE
  5
201
102
{ACAD_REACTORS
330
2F3
330
2F4
102
}
330
A0
100
AcDbEntity
  8
0
  6
Continuous
 62
     2
100
AcDbLine
 10
20.92893019841785
 20
-33.28757193959581
 30
0.0
 11
19.45309693740825
 21
-33.28757193959581
 31
0.0
  0
LINE
  5
202
102
{ACAD_REACTORS
330
2ED
330
2EE
102
}
330
A0
100
AcDbEntity
  8
0
  6
Continuous
 62
     2
100
AcDbLine
 10
26.47438045788334
 20
-30.64093701897838
 30
0.0
 11
26.47438045788334
 21
-29.69785877783465
 31
0.0
  0
LINE
  5
203
102
{ACAD_REACTORS
330
2ED
330
2EE
102
}
330
A0
100
AcDbEntity
  8
0
  6
Continuous
 62
     2
100
AcDbLine
 10
25.23387604762934
 20
-30.64093701897838
 30
0.0
 11
26.47438045788334
 21
-30.64093701897838
 31
0.0
  0
LINE
  5
204
102
{ACAD_REACTORS
330
2ED
330
2EE
102
}
330
A0
100
AcDbEntity
  8
0
  6
Continuous
 62
     2
100
AcDbLine
 10
26.47438045788334
 20
-28.95596098994957
 30
0.0
 11
26.47438045788334
 21
-28.25023334060728
 31
0.0
  0
LINE
  5
205
102
{ACAD_REACTORS
330
2DF
330
2E0
102
}
330
A0
100
AcDbEntity
  8
0
  6
Continuous
 62
     2
100
AcDbLine
 10
28.43056048943706
 20
-27.58712749516729
 30
0.0
 11
28.43056048943706
 21
-30.64093701897838
 31
0.0
  0
LINE
  5
206
102
{ACAD_REACTORS
330
2DF
330
2E0
102
}
330
A0
100
AcDbEntity
  8
0
  6
Continuous
 62
     2
100
AcDbLine
 10
29.62335319160366
 20
-29.5066649101347
 30
0.0
 11
29.62335319160366
 21
-30.64093701897838
 31
0.0
  0
LINE
  5
207
102
{ACAD_REACTORS
330
2DF
330
2E0
102
}
330
A0
100
AcDbEntity
  8
0
  6
Continuous
 62
     2
100
AcDbLine
 10
30.67301076951105
 20
-29.5066649101347
 30
0.0
 11
29.62335319160366
 21
-29.5066649101347
 31
0.0
  0
LINE
  5
208
102
{ACAD_REACTORS
330
2DF
330
2E0
102
}
330
A0
100
AcDbEntity
  8
0
  6
Continuous
 62
     2
100
AcDbLine
 10
30.67301076951105
 20
-27.58712749516729
 30
0.0
 11
31.86580347167754
 21
-27.58712749516729
 31
0.0
  0
LINE
  5
209
102
{ACAD_REACTORS
330
2DF
330
2E0
102
}
330
A0
100
AcDbEntity
  8
0
  6
Continuous
 62
     2
100
AcDbLine
 10
30.67301076951105
 20
-28.65596082850186
 30
0.0
 11
30.67301076951105
 21
-27.58712749516729
 31
0.0
  0
LINE
  5
20A
102
{ACAD_REACTORS
330
2F1
330
2F2
102
}
330
A0
100
AcDbEntity
  8
0
  6
Continuous
 62
     2
100
AcDbLine
 10
36.68468598843205
 20
-28.28514110061019
 30
0.0
 11
36.68468598843205
 21
-27.58712749516729
 31
0.0
  0
LINE
  5
20B
102
{ACAD_REACTORS
330
2F1
330
2F2
102
}
330
A0
100
AcDbEntity
  8
0
  6
Continuous
 62
     2
100
AcDbLine
 10
33.53436626465114
 20
-27.58712749516729
 30
0.0
 11
36.68468598843205
 21
-27.58712749516729
 31
0.0
  0
LINE
  5
20C
102
{ACAD_REACTORS
330
2F1
330
2F2
102
}
330
A0
100
AcDbEntity
  8
0
  6
Continuous
 62
     2
100
AcDbLine
 10
33.53436626465114
 20
-30.64093701897838
 30
0.0
 11
36.68468598843205
 21
-30.64093701897838
 31
0.0
  0
LINE
  5
20D
102
{ACAD_REACTORS
330
2F1
330
2F2
102
}
330
A0
100
AcDbEntity
  8
0
  6
Continuous
 62
     2
100
AcDbLine
 10
36.68468598843205
 20
-30.64093701897838
 30
0.0
 11
36.68468598843205
 21
-29.94292341353599
 31
0.0
  0
LINE
  5
20E
102
{ACAD_REACTORS
330
2F1
330
2F2
102
}
330
A0
100
AcDbEntity
  8
0
  6
Continuous
 62
     2
100
AcDbLine
 10
36.68468598843205
 20
-29.94292341353599
 30
0.0
 11
35.34875816200443
 21
-29.94292341353599
 31
0.0
  0
LINE
  5
20F
102
{ACAD_REACTORS
330
2F1
330
2F2
102
}
330
A0
100
AcDbEntity
  8
0
  6
Continuous
 62
     2
100
AcDbLine
 10
35.34875816200443
 20
-29.94292341353599
 30
0.0
 11
35.34875816200443
 21
-29.46303905979426
 31
0.0
  0
LINE
  5
210
102
{ACAD_REACTORS
330
2F1
330
2F2
102
}
330
A0
100
AcDbEntity
  8
0
  6
Continuous
 62
     2
100
AcDbLine
 10
35.34875816200443
 20
-28.28514110061019
 30
0.0
 11
36.68468598843205
 21
-28.28514110061019
 31
0.0
  0
LINE
  5
211
102
{ACAD_REACTORS
330
2E1
330
2E2
102
}
330
A0
100
AcDbEntity
  8
0
  6
Continuous
 62
     2
100
AcDbLine
 10
32.86759841061286
 20
-34.0001274951527
 30
0.0
 11
32.86759841061286
 21
-32.6913519849482
 31
0.0
  0
LINE
  5
212
102
{ACAD_REACTORS
330
2E1
330
2E2
102
}
330
A0
100
AcDbEntity
  8
0
  6
Continuous
 62
     2
100
AcDbLine
 10
32.86759841061286
 20
-32.6913519849482
 30
0.0
 11
34.10810282086584
 21
-34.0001274951527
 31
0.0
  0
LINE
  5
213
102
{ACAD_REACTORS
330
2E1
330
2E2
102
}
330
A0
100
AcDbEntity
  8
0
  6
Continuous
 62
     2
100
AcDbLine
 10
35.30089552303224
 20
-34.0001274951527
 30
0.0
 11
35.30089552303224
 21
-30.94631797134156
 31
0.0
  0
LINE
  5
214
102
{ACAD_REACTORS
330
2E1
330
2E2
102
}
330
A0
100
AcDbEntity
  8
0
  6
Continuous
 62
     2
100
AcDbLine
 10
35.30089552303224
 20
-30.94631797134156
 30
0.0
 11
34.10810282086584
 21
-30.94631797134156
 31
0.0
  0
LINE
  5
215
102
{ACAD_REACTORS
330
2E1
330
2E2
102
}
330
A0
100
AcDbEntity
  8
0
  6
Continuous
 62
     2
100
AcDbLine
 10
34.10810282086584
 20
-30.94631797134156
 30
0.0
 11
34.10810282086584
 21
-32.25509348154679
 31
0.0
  0
LINE
  5
216
102
{ACAD_REACTORS
330
2E1
330
2E2
102
}
330
A0
100
AcDbEntity
  8
0
  6
Continuous
 62
     2
100
AcDbLine
 10
34.10810282086584
 20
-32.25509348154679
 30
0.0
 11
32.86759841061286
 21
-30.94631797134156
 31
0.0
  0
LINE
  5
217
102
{ACAD_REACTORS
330
2E3
330
2E4
102
}
330
A0
100
AcDbEntity
  8
0
  6
Continuous
 62
     2
100
AcDbLine
 10
38.11603723103144
 20
-29.33216150877365
 30
0.0
 11
39.35654164128553
 21
-30.64093701897838
 31
0.0
  0
LINE
  5
218
102
{ACAD_REACTORS
330
2E3
330
2E4
102
}
330
A0
100
AcDbEntity
  8
0
  6
Continuous
 62
     2
100
AcDbLine
 10
39.35654164128553
 20
-30.64093701897838
 30
0.0
 11
40.54933434345213
 21
-30.64093701897838
 31
0.0
  0
LINE
  5
219
102
{ACAD_REACTORS
330
2E3
330
2E4
102
}
330
A0
100
AcDbEntity
  8
0
  6
Continuous
 62
     2
100
AcDbLine
 10
40.54933434345213
 20
-30.64093701897838
 30
0.0
 11
40.54933434345213
 21
-27.58712749516729
 31
0.0
  0
LINE
  5
21A
102
{ACAD_REACTORS
330
2E3
330
2E4
102
}
330
A0
100
AcDbEntity
  8
0
  6
Continuous
 62
     2
100
AcDbLine
 10
40.54933434345213
 20
-27.58712749516729
 30
0.0
 11
39.35654164128553
 21
-27.58712749516729
 31
0.0
  0
LINE
  5
21B
102
{ACAD_REACTORS
330
2E3
330
2E4
102
}
330
A0
100
AcDbEntity
  8
0
  6
Continuous
 62
     2
100
AcDbLine
 10
39.35654164128553
 20
-28.89590300537236
 30
0.0
 11
38.11603723103144
 21
-27.58712749516729
 31
0.0
  0
LINE
  5
21C
102
{ACAD_REACTORS
330
2E3
330
2E4
102
}
330
A0
100
AcDbEntity
  8
0
  6
Continuous
 62
     2
100
AcDbLine
 10
36.92324452886504
 20
-30.64093701897838
 30
0.0
 11
38.11603723103144
 21
-30.64093701897838
 31
0.0
  0
LINE
  5
21D
102
{ACAD_REACTORS
330
2E5
330
2E6
102
}
330
A0
100
AcDbEntity
  8
0
  6
Continuous
 62
     2
100
AcDbLine
 10
35.44403064729235
 20
-30.94631797134156
 30
0.0
 11
35.44403064729235
 21
-31.73158327746529
 31
0.0
  0
LINE
  5
21E
102
{ACAD_REACTORS
330
2E5
330
2E6
102
}
330
A0
100
AcDbEntity
  8
0
  6
Continuous
 62
     2
100
AcDbLine
 10
36.25512968476704
 20
-31.73158327746529
 30
0.0
 11
36.25512968476704
 21
-34.0001274951527
 31
0.0
  0
LINE
  5
21F
102
{ACAD_REACTORS
330
2E5
330
2E6
102
}
330
A0
100
AcDbEntity
  8
0
  6
Continuous
 62
     2
100
AcDbLine
 10
36.25512968476704
 20
-34.0001274951527
 30
0.0
 11
37.44792238693344
 21
-34.0001274951527
 31
0.0
  0
LINE
  5
220
102
{ACAD_REACTORS
330
2E7
330
2E8
102
}
330
A0
100
AcDbEntity
  8
0
  6
Continuous
 62
     2
100
AcDbLine
 10
40.39744888035304
 20
-34.0001274951527
 30
0.0
 11
40.18596882687726
 21
-33.4591669509349
 31
0.0
  0
LINE
  5
221
102
{ACAD_REACTORS
330
2E7
330
2E8
102
}
330
A0
100
AcDbEntity
  8
0
  6
Continuous
 62
     2
100
AcDbLine
 10
40.24000024366666
 20
-30.94631797134156
 30
0.0
 11
41.63795329060693
 21
-34.0001274951527
 31
0.0
  0
LINE
  5
222
102
{ACAD_REACTORS
330
2E7
330
2E8
102
}
330
A0
100
AcDbEntity
  8
0
  6
Continuous
 62
     2
100
AcDbLine
 10
38.99949583341385
 20
-30.94631797134156
 30
0.0
 11
40.24000024366666
 21
-30.94631797134156
 31
0.0
  0
LINE
  5
223
102
{ACAD_REACTORS
330
2E7
330
2E8
102
}
330
A0
100
AcDbEntity
  8
0
  6
Continuous
 62
     2
100
AcDbLine
 10
37.60154278647465
 20
-34.0001274951527
 30
0.0
 11
38.84204719672755
 21
-34.0001274951527
 31
0.0
  0
LINE
  5
224
102
{ACAD_REACTORS
330
2E7
330
2E8
102
}
330
A0
100
AcDbEntity
  8
0
  6
Continuous
 62
     2
100
AcDbLine
 10
39.31958280134845
 20
-32.7786036856283
 30
0.0
 11
39.91991327573095
 21
-32.7786036856283
 31
0.0
  0
LINE
  5
225
102
{ACAD_REACTORS
330
2E7
330
2E8
102
}
330
A0
100
AcDbEntity
  8
0
  6
Continuous
 62
     2
100
AcDbLine
 10
39.91991327573095
 20
-32.7786036856283
 30
0.0
 11
39.61974803854074
 21
-32.0107887196416
 31
0.0
  0
LINE
  5
226
102
{ACAD_REACTORS
330
2E9
330
2EA
102
}
330
A0
100
AcDbEntity
  8
0
  6
Continuous
 62
     2
100
AcDbLine
 10
42.02839729413896
 20
-30.64093701897838
 30
0.0
 11
40.78789288388603
 21
-30.64093701897838
 31
0.0
  0
LINE
  5
227
102
{ACAD_REACTORS
330
2EB
330
2EC
102
}
330
A0
100
AcDbEntity
  8
0
  6
Continuous
 62
     2
100
AcDbLine
 10
43.55040078210394
 20
-30.64093701897838
 30
0.0
 11
42.14767656435583
 21
-30.64093701897838
 31
0.0
  0
LINE
  5
228
102
{ACAD_REACTORS
330
2EB
330
2EC
102
}
330
A0
100
AcDbEntity
  8
0
  6
Continuous
 62
     2
100
AcDbLine
 10
43.55040078210394
 20
-30.64093701897838
 30
0.0
 11
44.24699172016975
 21
-29.85320523368466
 31
0.0
  0
LINE
  5
229
102
{ACAD_REACTORS
330
2EB
330
2EC
102
}
330
A0
100
AcDbEntity
  8
0
  6
Continuous
 62
     2
100
AcDbLine
 10
44.84815924206254
 20
-27.58712749516729
 30
0.0
 11
46.25088345980976
 21
-27.58712749516729
 31
0.0
  0
LINE
  5
22A
102
{ACAD_REACTORS
330
2EB
330
2EC
102
}
330
A0
100
AcDbEntity
  8
0
  6
Continuous
 62
     2
100
AcDbLine
 10
42.24309998052866
 20
-27.58712749516729
 30
0.0
 11
43.54562961129614
 21
-29.0600780252035
 31
0.0
  0
LINE
  5
22B
102
{ACAD_REACTORS
330
2EB
330
2EC
102
}
330
A0
100
AcDbEntity
  8
0
  6
Continuous
 62
     2
100
AcDbLine
 10
42.14767656435583
 20
-30.64093701897838
 30
0.0
 11
43.54562961129614
 21
-29.0600780252035
 31
0.0
  0
LINE
  5
22C
102
{ACAD_REACTORS
330
2F5
330
2F6
102
}
330
A0
100
AcDbEntity
  8
0
  6
Continuous
 62
     2
100
AcDbLine
 10
44.00843317973565
 20
-32.95310708698906
 30
0.0
 11
44.00843317973565
 21
-33.82562409379239
 31
0.0
  0
LINE
  5
22D
102
{ACAD_REACTORS
330
2F5
330
2F6
102
}
330
A0
100
AcDbEntity
  8
0
  6
Continuous
 62
     2
100
AcDbLine
 10
43.23877583677424
 20
-31.73158327746529
 30
0.0
 11
44.34241513634234
 21
-31.73158327746529
 31
0.0
  0
LINE
  5
22E
102
{ACAD_REACTORS
330
2F7
330
2F8
102
}
330
A0
100
AcDbEntity
  8
0
  6
Continuous
 62
     2
100
AcDbLine
 10
27.90573170048384
 20
-32.95310708698855
 30
0.0
 11
27.90573170048384
 21
-33.82562409379187
 31
0.0
  0
LINE
  5
22F
102
{ACAD_REACTORS
330
2F7
330
2F8
102
}
330
A0
100
AcDbEntity
  8
0
  6
Continuous
 62
     2
100
AcDbLine
 10
27.90573170048384
 20
-31.99333837950576
 30
0.0
 11
27.90573170048384
 21
-31.12082137270249
 31
0.0
  0
LINE
  5
230
330
A0
100
AcDbEntity
  8
1
  6
Continuous
 62
     7
100
AcDbLine
 10
143.7431072854677
 20
-32.79362749516906
 30
0.0
 11
50.59830275871636
 21
-32.79362749516906
 31
0.0
  0
LINE
  5
231
330
A0
100
AcDbEntity
  8
1
  6
Continuous
 62
     7
100
AcDbLine
 10
134.824699003789
 20
-15.79362749516906
 30
0.0
 11
134.824699003789
 21
-24.29362749516906
 31
0.0
  0
LINE
  5
232
330
A0
100
AcDbEntity
  8
1
  6
Continuous
 62
     7
100
AcDbLine
 10
108.3246990037893
 20
-15.79362749516906
 30
0.0
 11
108.3246990037893
 21
-24.29362749516906
 31
0.0
  0
LINE
  5
233
330
A0
100
AcDbEntity
  8
1
  6
Continuous
 62
     7
100
AcDbLine
 10
50.59830275871636
 20
-24.29362749516906
 30
0.0
 11
50.59830275871636
 21
-15.79362749516906
 31
0.0
  0
LINE
  5
234
330
A0
100
AcDbEntity
  8
1
  6
Continuous
 62
     7
100
AcDbLine
 10
14.19830275871644
 20
-24.29362749516906
 30
0.0
 11
14.19830275871644
 21
-15.79362749516906
 31
0.0
  0
LINE
  5
235
330
A0
100
AcDbEntity
  8
1
  6
Continuous
 62
     6
100
AcDbLine
 10
50.59830275871636
 20
-24.29362749516906
 30
0.0
 11
143.7431072854681
 21
-24.29362749516906
 31
0.0
  0
LINE
  5
236
330
A0
100
AcDbEntity
  8
1
  6
Continuous
 62
     7
100
AcDbLine
 10
78.49830275871635
 20
-32.79362749516906
 30
0.0
 11
78.49830275871635
 21
-24.29362749516906
 31
0.0
  0
LINE
  5
237
330
A0
100
AcDbEntity
  8
1
  6
Continuous
 62
     6
100
AcDbLine
 10
143.7431072854681
 20
-24.29362749516906
 30
0.0
 11
143.7431072854681
 21
-15.79362749516906
 31
0.0
  0
LINE
  5
238
330
A0
100
AcDbEntity
  8
1
  6
Continuous
 62
     2
100
AcDbLine
 10
7.07644061879975
 20
-41.29362749517139
 30
0.0
 11
7.07644061879975
 21
-41.29362749516849
 31
0.0
  0
LINE
  5
239
330
A0
100
AcDbEntity
  8
1
  6
Continuous
 62
     6
100
AcDbLine
 10
-129.5902260478667
 20
-41.29362749516849
 30
0.0
 11
14.19830275871644
 21
-41.29362749517156
 31
0.0
  0
LINE
  5
23A
330
A0
100
AcDbEntity
  8
1
  6
Continuous
 62
     6
100
AcDbLine
 10
143.7431072854663
 20
-41.29362749516901
 30
0.0
 11
143.7431072854659
 21
-32.79362749516906
 31
0.0
  0
LINE
  5
23B
330
A0
100
AcDbEntity
  8
1
  6
Continuous
 62
     6
100
AcDbLine
 10
-251.2568927145334
 20
-41.29362749516849
 30
0.0
 11
-251.2568927145343
 21
245.7063725048317
 31
0.0
  0
LINE
  5
23C
330
A0
100
AcDbEntity
  8
1
  6
Continuous
 62
     2
100
AcDbLine
 10
-271.2568927145344
 20
102.2063725048315
 30
0.0
 11
-271.2568927145344
 21
-46.29362749516849
 31
0.0
  0
LINE
  5
23D
330
A0
100
AcDbEntity
  8
1
  6
Continuous
 62
     2
100
AcDbLine
 10
-271.2568927145344
 20
102.2063725048315
 30
0.0
 11
-261.2568927145343
 21
102.2063725048315
 31
0.0
  0
LINE
  5
23E
330
A0
100
AcDbEntity
  8
1
  6
Continuous
 62
     2
100
AcDbLine
 10
-271.2568927145344
 20
250.7063725048315
 30
0.0
 11
-271.2568927145344
 21
102.2063725048315
 31
0.0
  0
LINE
  5
23F
330
A0
100
AcDbEntity
  8
1
  6
Continuous
 62
     2
100
AcDbLine
 10
-41.25689271453646
 20
250.7063725048315
 30
0.0
 11
-61.25689271453365
 21
250.7063725048315
 31
0.0
  0
LINE
  5
240
330
A0
100
AcDbEntity
  8
1
  6
Continuous
 62
     2
100
AcDbLine
 10
-41.25689271453646
 20
250.7063725048315
 30
0.0
 11
-41.25689271453646
 21
246.7063725048317
 31
0.0
  0
LINE
  5
241
330
A0
100
AcDbEntity
  8
1
  6
Continuous
 62
     2
100
AcDbLine
 10
-251.2568927145343
 20
250.7063725048315
 30
0.0
 11
-271.2568927145344
 21
250.7063725048315
 31
0.0
  0
LINE
  5
242
330
A0
100
AcDbEntity
  8
1
  6
Continuous
 62
     2
100
AcDbLine
 10
-251.2568927145343
 20
250.7063725048315
 30
0.0
 11
-251.2568927145343
 21
246.7063725048317
 31
0.0
  0
LINE
  5
243
330
A0
100
AcDbEntity
  8
1
  6
Continuous
 62
     2
100
AcDbLine
 10
-197.9235593812003
 20
250.7063725048315
 30
0.0
 11
-251.2568927145343
 21
250.7063725048315
 31
0.0
  0
LINE
  5
244
330
A0
100
AcDbEntity
  8
1
  6
Continuous
 62
     6
100
AcDbLine
 10
-197.9235593812003
 20
245.7063725048317
 30
0.0
 11
-129.5902260478667
 21
245.7063725048315
 31
0.0
  0
LINE
  5
245
330
A0
100
AcDbEntity
  8
1
  6
Continuous
 62
     2
100
AcDbLine
 10
-197.9235593812003
 20
245.7063725048317
 30
0.0
 11
-197.9235593812003
 21
250.7063725048315
 31
0.0
  0
LINE
  5
246
330
A0
100
AcDbEntity
  8
1
  6
Continuous
 62
     2
100
AcDbLine
 10
-129.5902260478667
 20
250.7063725048315
 30
0.0
 11
-197.9235593812003
 21
250.7063725048315
 31
0.0
  0
LINE
  5
247
330
A0
100
AcDbEntity
  8
1
  6
Continuous
 62
     6
100
AcDbLine
 10
-129.5902260478667
 20
245.7063725048315
 30
0.0
 11
-61.25689271453365
 21
245.7063725048315
 31
0.0
  0
LINE
  5
248
330
A0
100
AcDbEntity
  8
1
  6
Continuous
 62
     2
100
AcDbLine
 10
-129.5902260478667
 20
245.7063725048315
 30
0.0
 11
-129.5902260478667
 21
250.7063725048315
 31
0.0
  0
LINE
  5
249
330
A0
100
AcDbEntity
  8
1
  6
Continuous
 62
     2
100
AcDbLine
 10
-61.25689271453365
 20
250.7063725048315
 30
0.0
 11
-129.5902260478667
 21
250.7063725048315
 31
0.0
  0
LINE
  5
24A
330
A0
100
AcDbEntity
  8
1
  6
Continuous
 62
     6
100
AcDbLine
 10
-61.25689271453365
 20
245.7063725048315
 30
0.0
 11
7.07644061879975
 21
245.7063725048315
 31
0.0
  0
LINE
  5
24B
330
A0
100
AcDbEntity
  8
1
  6
Continuous
 62
     2
100
AcDbLine
 10
-61.25689271453365
 20
245.7063725048315
 30
0.0
 11
-61.25689271453365
 21
250.7063725048315
 31
0.0
  0
LINE
  5
24C
330
A0
100
AcDbEntity
  8
1
  6
Continuous
 62
     2
100
AcDbLine
 10
7.07644061879975
 20
250.7063725048315
 30
0.0
 11
-41.25689271453646
 21
250.7063725048315
 31
0.0
  0
LINE
  5
24D
330
A0
100
AcDbEntity
  8
1
  6
Continuous
 62
     6
100
AcDbLine
 10
7.07644061879975
 20
245.7063725048315
 30
0.0
 11
75.40977395213294
 21
245.7063725048315
 31
0.0
  0
LINE
  5
24E
330
A0
100
AcDbEntity
  8
1
  6
Continuous
 62
     2
100
AcDbLine
 10
7.07644061879975
 20
245.7063725048315
 30
0.0
 11
7.07644061879975
 21
250.7063725048315
 31
0.0
  0
LINE
  5
24F
330
A0
100
AcDbEntity
  8
1
  6
Continuous
 62
     2
100
AcDbLine
 10
75.40977395213294
 20
250.7063725048315
 30
0.0
 11
7.07644061879975
 21
250.7063725048315
 31
0.0
  0
LINE
  5
250
330
A0
100
AcDbEntity
  8
1
  6
Continuous
 62
     6
100
AcDbLine
 10
75.40977395213294
 20
245.7063725048315
 30
0.0
 11
143.7431072854639
 21
245.7063725048315
 31
0.0
  0
LINE
  5
251
330
A0
100
AcDbEntity
  8
1
  6
Continuous
 62
     2
100
AcDbLine
 10
75.40977395213294
 20
245.7063725048315
 30
0.0
 11
75.40977395213294
 21
250.7063725048315
 31
0.0
  0
LINE
  5
252
330
A0
100
AcDbEntity
  8
1
  6
Continuous
 62
     2
100
AcDbLine
 10
143.7431072854639
 20
250.7063725048315
 30
0.0
 11
75.40977395213294
 21
250.7063725048315
 31
0.0
  0
LINE
  5
253
330
A0
100
AcDbEntity
  8
1
  6
Continuous
 62
     6
100
AcDbLine
 10
-251.2568927145343
 20
245.7063725048317
 30
0.0
 11
-197.9235593812003
 21
245.7063725048317
 31
0.0
  0
LINE
  5
254
330
A0
100
AcDbEntity
  8
1
  6
Continuous
 62
     6
100
AcDbLine
 10
143.7431072854664
 20
73.50637250483172
 30
0.0
 11
143.7431072854663
 21
16.10637250483163
 31
0.0
  0
LINE
  5
255
330
A0
100
AcDbEntity
  8
1
  6
Continuous
 62
     2
100
AcDbLine
 10
143.7431072854664
 20
73.50637250483172
 30
0.0
 11
148.7431072854639
 21
73.50637250483172
 31
0.0
  0
LINE
  5
256
330
A0
100
AcDbEntity
  8
1
  6
Continuous
 62
     2
100
AcDbLine
 10
148.7431072854639
 20
130.9063725048315
 30
0.0
 11
148.7431072854639
 21
73.50637250483172
 31
0.0
  0
LINE
  5
257
330
A0
100
AcDbEntity
  8
1
  6
Continuous
 62
     6
100
AcDbLine
 10
143.7431072854664
 20
130.9063725048315
 30
0.0
 11
143.7431072854664
 21
73.50637250483172
 31
0.0
  0
LINE
  5
258
330
A0
100
AcDbEntity
  8
1
  6
Continuous
 62
     2
100
AcDbLine
 10
143.7431072854664
 20
130.9063725048315
 30
0.0
 11
148.7431072854639
 21
130.9063725048315
 31
0.0
  0
LINE
  5
259
330
A0
100
AcDbEntity
  8
1
  6
Continuous
 62
     2
100
AcDbLine
 10
148.7431072854639
 20
188.3063725048314
 30
0.0
 11
148.7431072854639
 21
130.9063725048315
 31
0.0
  0
LINE
  5
25A
330
A0
100
AcDbEntity
  8
1
  6
Continuous
 62
     6
100
AcDbLine
 10
143.7431072854644
 20
188.3063725048314
 30
0.0
 11
143.7431072854664
 21
130.9063725048315
 31
0.0
  0
LINE
  5
25B
330
A0
100
AcDbEntity
  8
1
  6
Continuous
 62
     2
100
AcDbLine
 10
143.7431072854644
 20
188.3063725048314
 30
0.0
 11
148.7431072854639
 21
188.3063725048314
 31
0.0
  0
LINE
  5
25C
330
A0
100
AcDbEntity
  8
1
  6
Continuous
 62
     2
100
AcDbLine
 10
148.7431072854639
 20
245.7063725048315
 30
0.0
 11
148.7431072854639
 21
188.3063725048314
 31
0.0
  0
LINE
  5
25D
330
A0
100
AcDbEntity
  8
1
  6
Continuous
 62
     2
100
AcDbLine
 10
143.7431072854639
 20
245.7063725048315
 30
0.0
 11
148.7431072854639
 21
245.7063725048315
 31
0.0
  0
LINE
  5
25E
330
A0
100
AcDbEntity
  8
1
  6
Continuous
 62
     2
100
AcDbLine
 10
143.7431072854639
 20
245.7063725048315
 30
0.0
 11
143.7431072854639
 21
250.7063725048315
 31
0.0
  0
LINE
  5
25F
330
A0
100
AcDbEntity
  8
1
  6
Continuous
 62
     2
100
AcDbLine
 10
148.7431072854639
 20
250.7063725048315
 30
0.0
 11
148.7431072854639
 21
245.7063725048315
 31
0.0
  0
LINE
  5
260
330
A0
100
AcDbEntity
  8
1
  6
Continuous
 62
     6
100
AcDbLine
 10
143.7431072854639
 20
245.7063725048315
 30
0.0
 11
143.7431072854644
 21
188.3063725048314
 31
0.0
  0
LINE
  5
261
330
A0
100
AcDbEntity
  8
1
  6
Continuous
 62
     2
100
AcDbLine
 10
148.7431072854639
 20
250.7063725048315
 30
0.0
 11
143.7431072854639
 21
250.7063725048315
 31
0.0
  0
LINE
  5
262
330
A0
100
AcDbEntity
  8
1
  6
Continuous
 62
     2
100
AcDbLine
 10
148.7431072854639
 20
-41.29362749516849
 30
0.0
 11
148.7431072854639
 21
16.10637250483163
 31
0.0
  0
LINE
  5
263
330
A0
100
AcDbEntity
  8
1
  6
Continuous
 62
     2
100
AcDbLine
 10
148.7431072854639
 20
-41.29362749516849
 30
0.0
 11
148.7431072854639
 21
-46.29362749516849
 31
0.0
  0
LINE
  5
264
330
A0
100
AcDbEntity
  8
1
  6
Continuous
 62
     2
100
AcDbLine
 10
148.7431072854639
 20
-46.29362749516849
 30
0.0
 11
143.7431072854664
 21
-46.29362749516849
 31
0.0
  0
LINE
  5
265
330
A0
100
AcDbEntity
  8
1
  6
Continuous
 62
     2
100
AcDbLine
 10
7.07644061879975
 20
-46.29362749516849
 30
0.0
 11
75.40977395213294
 21
-46.29362749516849
 31
0.0
  0
LINE
  5
266
330
A0
100
AcDbEntity
  8
1
  6
Continuous
 62
     2
100
AcDbLine
 10
-41.25689271453646
 20
-46.29362749516849
 30
0.0
 11
7.07644061879975
 21
-46.29362749516849
 31
0.0
  0
LINE
  5
267
330
A0
100
AcDbEntity
  8
1
  6
Continuous
 62
     2
100
AcDbLine
 10
-41.25689271453646
 20
-46.29362749516849
 30
0.0
 11
-41.25689271453646
 21
-42.29362749516849
 31
0.0
  0
LINE
  5
268
330
A0
100
AcDbEntity
  8
1
  6
Continuous
 62
     2
100
AcDbLine
 10
-41.25689271453646
 20
-46.29362749516849
 30
0.0
 11
-61.25689271453365
 21
-46.29362749516849
 31
0.0
  0
LINE
  5
269
330
A0
100
AcDbEntity
  8
1
  6
Continuous
 62
     2
100
AcDbLine
 10
-251.2568927145343
 20
-46.29362749516849
 30
0.0
 11
-197.9235593812003
 21
-46.29362749516849
 31
0.0
  0
LINE
  5
26A
330
A0
100
AcDbEntity
  8
1
  6
Continuous
 62
     2
100
AcDbLine
 10
-251.2568927145343
 20
-46.29362749516849
 30
0.0
 11
-251.2568927145343
 21
-42.29362749516849
 31
0.0
  0
LINE
  5
26B
330
A0
100
AcDbEntity
  8
1
  6
Continuous
 62
     2
100
AcDbLine
 10
-129.5902260478667
 20
-46.29362749516849
 30
0.0
 11
-129.5902260478667
 21
-41.29362749516849
 31
0.0
  0
LINE
  5
26C
330
A0
100
AcDbEntity
  8
1
  6
Continuous
 62
     6
100
AcDbLine
 10
-197.9235593812003
 20
-41.29362749516849
 30
0.0
 11
-251.2568927145334
 21
-41.29362749516849
 31
0.0
  0
LINE
  5
26D
330
A0
100
AcDbEntity
  8
1
  6
Continuous
 62
     6
100
AcDbLine
 10
-197.9235593812003
 20
-41.29362749516849
 30
0.0
 11
-129.5902260478667
 21
-41.29362749516849
 31
0.0
  0
LINE
  5
26E
330
A0
100
AcDbEntity
  8
1
  6
Continuous
 62
     2
100
AcDbLine
 10
-197.9235593812003
 20
-46.29362749516849
 30
0.0
 11
-129.5902260478667
 21
-46.29362749516849
 31
0.0
  0
LINE
  5
26F
330
A0
100
AcDbEntity
  8
1
  6
Continuous
 62
     2
100
AcDbLine
 10
-197.9235593812003
 20
-46.29362749516849
 30
0.0
 11
-197.9235593812003
 21
-41.29362749516849
 31
0.0
  0
LINE
  5
270
330
A0
100
AcDbEntity
  8
1
  6
Continuous
 62
     2
100
AcDbLine
 10
-251.2568927145343
 20
-46.29362749516849
 30
0.0
 11
-271.2568927145344
 21
-46.29362749516849
 31
0.0
  0
LINE
  5
271
330
A0
100
AcDbEntity
  8
1
  6
Continuous
 62
     2
100
AcDbLine
 10
148.7431072854639
 20
16.10637250483163
 30
0.0
 11
143.7431072854663
 21
16.10637250483163
 31
0.0
  0
LINE
  5
272
330
A0
100
AcDbEntity
  8
1
  6
Continuous
 62
     2
100
AcDbLine
 10
148.7431072854639
 20
16.10637250483163
 30
0.0
 11
148.7431072854639
 21
73.50637250483172
 31
0.0
  0
LINE
  5
273
330
A0
100
AcDbEntity
  8
1
  6
Continuous
 62
     2
100
AcDbLine
 10
-61.25689271453365
 20
-46.29362749516849
 30
0.0
 11
-61.25689271453365
 21
-41.29362749516849
 31
0.0
  0
LINE
  5
274
330
A0
100
AcDbEntity
  8
1
  6
Continuous
 62
     2
100
AcDbLine
 10
7.07644061879975
 20
-46.29362749516849
 30
0.0
 11
7.07644061879975
 21
-41.29362749517139
 31
0.0
  0
LINE
  5
275
330
A0
100
AcDbEntity
  8
1
  6
Continuous
 62
     2
100
AcDbLine
 10
75.40977395213294
 20
-46.29362749516849
 30
0.0
 11
75.40977395213294
 21
-41.29362749516849
 31
0.0
  0
LINE
  5
276
330
A0
100
AcDbEntity
  8
1
  6
Continuous
 62
     2
100
AcDbLine
 10
75.40977395213294
 20
-46.29362749516849
 30
0.0
 11
143.7431072854664
 21
-46.29362749516849
 31
0.0
  0
LINE
  5
277
330
A0
100
AcDbEntity
  8
1
  6
Continuous
 62
     2
100
AcDbLine
 10
-61.25689271453365
 20
-46.29362749516849
 30
0.0
 11
-129.5902260478667
 21
-46.29362749516849
 31
0.0
  0
LINE
  5
278
330
A0
100
AcDbEntity
  8
1
  6
Continuous
 62
     6
100
AcDbLine
 10
143.7431072854654
 20
-20.04362749516906
 30
0.0
 11
143.7431072854663
 21
16.10637250483163
 31
0.0
  0
LINE
  5
279
330
A0
100
AcDbEntity
  8
1
  6
Continuous
 62
     6
100
AcDbLine
 10
143.7431072854664
 20
-24.29362749516906
 30
0.0
 11
143.7431072854654
 21
-20.04362749516906
 31
0.0
  0
LINE
  5
27A
330
A0
100
AcDbEntity
  8
1
  6
Continuous
 62
     6
100
AcDbLine
 10
143.7431072854659
 20
-32.79362749516906
 30
0.0
 11
143.7431072854664
 21
-24.29362749516906
 31
0.0
  0
LINE
  5
27B
330
A0
100
AcDbEntity
  8
1
  6
Continuous
 62
     6
100
AcDbLine
 10
75.40977395213294
 20
-41.29362749516849
 30
0.0
 11
143.7431072854663
 21
-41.29362749516901
 31
0.0
  0
ARC
  5
27C
102
{ACAD_REACTORS
330
2F7
330
2F8
102
}
330
A0
100
AcDbEntity
  8
0
  6
Continuous
 62
     2
100
AcDbCircle
 10
26.56980378336604
 20
-35.7859036785033
 30
0.0
 40
4.85259686349799
100
AcDbArc
 50
74.02000874164712
 51
84.84185523037604
  0
ARC
  5
27D
102
{ACAD_REACTORS
330
2F7
330
2F8
102
}
330
A0
100
AcDbEntity
  8
0
  6
Continuous
 62
     2
100
AcDbCircle
 10
27.14584439211976
 20
-32.63014332261901
 30
0.0
 40
0.905929784985352
100
AcDbArc
 50
71.55192388186002
 51
113.3722778881305
  0
ARC
  5
27E
102
{ACAD_REACTORS
330
2F7
330
2F8
102
}
330
A0
100
AcDbEntity
  8
0
  6
Continuous
 62
     2
100
AcDbCircle
 10
26.98940435941765
 20
-32.67829416258599
 30
0.0
 40
0.5115800601947488
100
AcDbArc
 50
208.5214732576835
 51
246.6277221118274
  0
ARC
  5
27F
102
{ACAD_REACTORS
330
2F7
330
2F8
102
}
330
A0
100
AcDbEntity
  8
0
  6
Continuous
 62
     2
100
AcDbCircle
 10
27.14584439211976
 20
-32.31630214387599
 30
0.0
 40
0.9059297849848276
100
AcDbArc
 50
246.6277221118663
 51
288.4480761181537
  0
ARC
  5
280
102
{ACAD_REACTORS
330
2F7
330
2F8
102
}
330
A0
100
AcDbEntity
  8
0
  6
Continuous
 62
     2
100
AcDbCircle
 10
26.72767665845885
 20
-31.0627563678388
 30
0.0
 40
2.227384008972718
100
AcDbArc
 50
288.4480761181337
 51
301.9309089499636
  0
ARC
  5
281
102
{ACAD_REACTORS
330
2F3
330
2F4
102
}
330
A0
100
AcDbEntity
  8
0
  6
Continuous
 62
     2
100
AcDbCircle
 10
21.50260292585213
 20
-30.33025433892476
 30
0.0
 40
0.9118481501443972
100
AcDbArc
 50
295.3740086781803
 51
64.62599132180901
  0
ARC
  5
282
102
{ACAD_REACTORS
330
2F3
330
2F4
102
}
330
A0
100
AcDbEntity
  8
0
  6
Continuous
 62
     2
100
AcDbCircle
 10
22.02864562394004
 20
-28.61557745045019
 30
0.0
 40
0.3157169230761815
100
AcDbArc
 50
90.1889670425665
 51
180.0
  0
ARC
  5
283
102
{ACAD_REACTORS
330
2F5
330
2F6
102
}
330
A0
100
AcDbEntity
  8
0
  6
Continuous
 62
     2
100
AcDbCircle
 10
43.23877583677424
 20
-32.68610628429138
 30
0.0
 40
0.9545230068260864
100
AcDbArc
 50
90.0
 51
109.337143219428
  0
ARC
  5
284
102
{ACAD_REACTORS
330
2F5
330
2F6
102
}
330
A0
100
AcDbEntity
  8
0
  6
Continuous
 62
     2
100
AcDbCircle
 10
43.46946309675204
 20
-32.4732227332475
 30
0.0
 40
0.9410597353350324
100
AcDbArc
 50
151.4785267423567
 51
208.5214732576672
  0
ARC
  5
285
102
{ACAD_REACTORS
330
2F5
330
2F6
102
}
330
A0
100
AcDbEntity
  8
0
  6
Continuous
 62
     2
100
AcDbCircle
 10
43.24854587137375
 20
-32.31630214387599
 30
0.0
 40
0.9059297849852208
100
AcDbArc
 50
246.6277221118088
 51
288.4480761180778
  0
ARC
  5
286
102
{ACAD_REACTORS
330
2F5
330
2F6
102
}
330
A0
100
AcDbEntity
  8
0
  6
Continuous
 62
     2
100
AcDbCircle
 10
42.83037813771173
 20
-31.06275636783926
 30
0.0
 40
2.227384008972765
100
AcDbArc
 50
288.4480761181335
 51
301.9309089499395
  0
ARC
  5
287
102
{ACAD_REACTORS
330
2F5
330
2F6
102
}
330
A0
100
AcDbEntity
  8
0
  6
Continuous
 62
     2
100
AcDbCircle
 10
42.67250526261896
 20
-29.16054178799095
 30
0.0
 40
4.852596863498889
100
AcDbArc
 50
275.1581447696373
 51
285.9799912583382
  0
ARC
  5
288
102
{ACAD_REACTORS
330
2F5
330
2F6
102
}
330
A0
100
AcDbEntity
  8
0
  6
Continuous
 62
     2
100
AcDbCircle
 10
42.96136135735483
 20
-32.3604323712126
 30
0.0
 40
1.639695123940503
100
AcDbArc
 50
195.0618917771007
 51
275.1581447696774
  0
ARC
  5
289
102
{ACAD_REACTORS
330
2ED
330
2EE
102
}
330
A0
100
AcDbEntity
  8
0
  6
Continuous
 62
     2
100
AcDbCircle
 10
27.23314804566374
 20
-28.642493136501
 30
0.0
 40
1.055365641333651
100
AcDbArc
 50
270.0
 51
90.0
  0
ARC
  5
28A
102
{ACAD_REACTORS
330
2F3
330
2F4
102
}
330
A0
100
AcDbEntity
  8
0
  6
Continuous
 62
     2
100
AcDbCircle
 10
19.45309693740825
 20
-32.9718550165191
 30
0.0
 40
0.3157169230756018
100
AcDbArc
 50
180.0
 51
270.0
  0
ARC
  5
28B
102
{ACAD_REACTORS
330
2F3
330
2F4
102
}
330
A0
100
AcDbEntity
  8
0
  6
Continuous
 62
     2
100
AcDbCircle
 10
20.92893019841785
 20
-28.61539997380197
 30
0.0
 40
0.315716923076593
100
AcDbArc
 50
0.0
 51
90.0
  0
ARC
  5
28C
102
{ACAD_REACTORS
330
2F3
330
2F4
102
}
330
A0
100
AcDbEntity
  8
0
  6
Continuous
 62
     2
100
AcDbCircle
 10
20.92893019841785
 20
-29.2194245928626
 30
0.0
 40
0.3157169230760594
100
AcDbArc
 50
295.1944106485677
 51
0.0
  0
ARC
  5
28D
102
{ACAD_REACTORS
330
2F3
330
2F4
102
}
330
A0
100
AcDbEntity
  8
0
  6
Continuous
 62
     2
100
AcDbCircle
 10
20.92893019841785
 20
-32.9718550165191
 30
0.0
 40
0.3157169230767067
100
AcDbArc
 50
270.0
 51
0.0
  0
ARC
  5
28E
102
{ACAD_REACTORS
330
2F3
330
2F4
102
}
330
A0
100
AcDbEntity
  8
0
  6
Continuous
 62
     2
100
AcDbCircle
 10
18.85920226066173
 20
-28.01137211056926
 30
0.0
 40
0.4242446153838877
100
AcDbArc
 50
90.0
 51
180.0
  0
ARC
  5
28F
102
{ACAD_REACTORS
330
2F3
330
2F4
102
}
330
A0
100
AcDbEntity
  8
0
  6
Continuous
 62
     2
100
AcDbCircle
 10
24.33251435137865
 20
-28.01137211056926
 30
0.0
 40
0.4242446153838806
100
AcDbArc
 50
0.0
 51
90.0
  0
ARC
  5
290
102
{ACAD_REACTORS
330
2F3
330
2F4
102
}
330
A0
100
AcDbEntity
  8
0
  6
Continuous
 62
     2
100
AcDbCircle
 10
24.33251435137865
 20
-33.5758828797695
 30
0.0
 40
0.4242446153831949
100
AcDbArc
 50
270.0
 51
0.0
  0
ARC
  5
291
102
{ACAD_REACTORS
330
2F1
330
2F2
102
}
330
A0
100
AcDbEntity
  8
0
  6
Continuous
 62
     2
100
AcDbCircle
 10
33.55089823847015
 20
-29.11403225707306
 30
0.0
 40
0.7717997786795578
100
AcDbArc
 50
321.8795802028385
 51
38.1204197971574
  0
ARC
  5
292
102
{ACAD_REACTORS
330
2F1
330
2F2
102
}
330
A0
100
AcDbEntity
  8
0
  6
Continuous
 62
     2
100
AcDbCircle
 10
33.75063827481634
 20
-29.2707634351936
 30
0.0
 40
0.5179085730134586
100
AcDbArc
 50
218.1204197971337
 51
321.8795802028584
  0
ARC
  5
293
102
{ACAD_REACTORS
330
2EF
330
2F0
102
}
330
A0
100
AcDbEntity
  8
0
  6
Continuous
 62
     2
100
AcDbCircle
 10
30.07063068585603
 20
-32.4732227332475
 30
0.0
 40
1.458034083652024
100
AcDbArc
 50
297.5481481757057
 51
62.45185182429763
  0
ARC
  5
294
102
{ACAD_REACTORS
330
2EF
330
2F0
102
}
330
A0
100
AcDbEntity
  8
0
  6
Continuous
 62
     2
100
AcDbCircle
 10
29.50875090218943
 20
-32.4732227332475
 30
0.0
 40
1.458034083651616
100
AcDbArc
 50
117.5481481756595
 51
242.4518518243371
  0
ARC
  5
295
102
{ACAD_REACTORS
330
2EF
330
2F0
102
}
330
A0
100
AcDbEntity
  8
0
  6
Continuous
 62
     2
100
AcDbCircle
 10
29.78969079402285
 20
-33.01179774355029
 30
0.0
 40
2.065479772208689
100
AcDbArc
 50
62.45185182430824
 51
117.5481481756674
  0
ARC
  5
296
102
{ACAD_REACTORS
330
2EF
330
2F0
102
}
330
A0
100
AcDbEntity
  8
0
  6
Continuous
 62
     2
100
AcDbCircle
 10
29.78969079402285
 20
-31.93464772294408
 30
0.0
 40
2.065479772208634
100
AcDbArc
 50
242.4518518243384
 51
297.5481481756859
  0
ARC
  5
297
102
{ACAD_REACTORS
330
2F1
330
2F2
102
}
330
A0
100
AcDbEntity
  8
0
  6
Continuous
 62
     2
100
AcDbCircle
 10
33.95037831116255
 20
-29.11403225707306
 30
0.0
 40
0.7717997786796202
100
AcDbArc
 50
141.8795802028488
 51
218.1204197971553
  0
ARC
  5
298
102
{ACAD_REACTORS
330
2F1
330
2F2
102
}
330
A0
100
AcDbEntity
  8
0
  6
Continuous
 62
     2
100
AcDbCircle
 10
33.75063827481634
 20
-28.95730107895258
 30
0.0
 40
0.5179085730133626
100
AcDbArc
 50
38.12041979714059
 51
141.8795802028672
  0
ARC
  5
299
102
{ACAD_REACTORS
330
2F3
330
2F4
102
}
330
A0
100
AcDbEntity
  8
0
  6
Continuous
 62
     2
100
AcDbCircle
 10
18.85920226066173
 20
-33.5758828797695
 30
0.0
 40
0.4242446153827686
100
AcDbArc
 50
180.0
 51
270.0
  0
ARC
  5
29A
102
{ACAD_REACTORS
330
2F3
330
2F4
102
}
330
A0
100
AcDbEntity
  8
0
  6
Continuous
 62
     2
100
AcDbCircle
 10
20.92893019841785
 20
-31.44108408498749
 30
0.0
 40
0.315716923076593
100
AcDbArc
 50
0.0
 51
64.80558935144546
  0
ARC
  5
29B
102
{ACAD_REACTORS
330
2F3
330
2F4
102
}
330
A0
100
AcDbEntity
  8
0
  6
Continuous
 62
     2
100
AcDbCircle
 10
21.45151464599283
 20
-30.33025433892476
 30
0.0
 40
0.9118975235576419
100
AcDbArc
 50
115.1944106485193
 51
244.8055893514914
  0
ARC
  5
29C
102
{ACAD_REACTORS
330
2F3
330
2F4
102
}
330
A0
100
AcDbEntity
  8
0
  6
Continuous
 62
     2
100
AcDbCircle
 10
19.45309693740825
 20
-28.61539997380197
 30
0.0
 40
0.3157169230760815
100
AcDbArc
 50
90.0
 51
180.0
  0
ARC
  5
29D
102
{ACAD_REACTORS
330
2ED
330
2EE
102
}
330
A0
100
AcDbEntity
  8
0
  6
Continuous
 62
     2
100
AcDbCircle
 10
26.79167551942535
 20
-28.60309716527848
 30
0.0
 40
0.3528638246710898
100
AcDbArc
 50
270.0
 51
90.0
  0
ARC
  5
29E
102
{ACAD_REACTORS
330
2F1
330
2F2
102
}
330
A0
100
AcDbEntity
  8
0
  6
Continuous
 62
     2
100
AcDbCircle
 10
33.53436626465114
 20
-29.11403225707306
 30
0.0
 40
1.526904761905769
100
AcDbArc
 50
90.0
 51
270.0
  0
ARC
  5
29F
102
{ACAD_REACTORS
330
2F5
330
2F6
102
}
330
A0
100
AcDbEntity
  8
0
  6
Continuous
 62
     2
100
AcDbCircle
 10
42.96136135735483
 20
-32.58601309528228
 30
0.0
 40
1.639695123940104
100
AcDbArc
 50
90.0
 51
164.9381082228991
  0
ARC
  5
2A0
102
{ACAD_REACTORS
330
2F5
330
2F6
102
}
330
A0
100
AcDbEntity
  8
0
  6
Continuous
 62
     2
100
AcDbCircle
 10
42.54223351389314
 20
-32.4732227332475
 30
0.0
 40
1.205656168392979
100
AcDbArc
 50
164.9381082229018
 51
195.0618917770924
  0
ARC
  5
2A1
102
{ACAD_REACTORS
330
2F5
330
2F6
102
}
330
A0
100
AcDbEntity
  8
0
  6
Continuous
 62
     2
100
AcDbCircle
 10
43.09210583867053
 20
-32.67829416258599
 30
0.0
 40
0.5115800601959841
100
AcDbArc
 50
208.5214732576889
 51
246.6277221118403
  0
ARC
  5
2A2
102
{ACAD_REACTORS
330
2F5
330
2F6
102
}
330
A0
100
AcDbEntity
  8
0
  6
Continuous
 62
     2
100
AcDbCircle
 10
43.09210583867053
 20
-32.26815130390838
 30
0.0
 40
0.5115800601943968
100
AcDbArc
 50
109.3371432194809
 51
151.4785267424174
  0
ARC
  5
2A3
102
{ACAD_REACTORS
330
2F3
330
2F4
102
}
330
A0
100
AcDbEntity
  8
0
  6
Continuous
 62
     2
100
AcDbCircle
 10
22.02864562394004
 20
-32.02124734558817
 30
0.0
 40
0.3157169230767884
100
AcDbArc
 50
180.0
 51
269.8110329574335
  0
ARC
  5
2A4
102
{ACAD_REACTORS
330
2F3
330
2F4
102
}
330
A0
100
AcDbEntity
  8
0
  6
Continuous
 62
     2
100
AcDbCircle
 10
22.03426175925006
 20
-30.31841239801918
 30
0.0
 40
2.01856113193327
100
AcDbArc
 50
269.8110329575827
 51
90.18896704241737
  0
ARC
  5
2A5
102
{ACAD_REACTORS
330
2F3
330
2F4
102
}
330
A0
100
AcDbEntity
  8
0
  6
Continuous
 62
     2
100
AcDbCircle
 10
22.02864562394004
 20
-29.221112738957
 30
0.0
 40
0.3157169230767884
100
AcDbArc
 50
180.0
 51
244.6259913216343
  0
ARC
  5
2A6
102
{ACAD_REACTORS
330
2F3
330
2F4
102
}
330
A0
100
AcDbEntity
  8
0
  6
Continuous
 62
     2
100
AcDbCircle
 10
22.02864562394004
 20
-31.43939593889309
 30
0.0
 40
0.3157169230765343
100
AcDbArc
 50
115.3740086783524
 51
180.0
  0
ARC
  5
2A7
102
{ACAD_REACTORS
330
2F7
330
2F8
102
}
330
A0
100
AcDbEntity
  8
0
  6
Continuous
 62
     2
100
AcDbCircle
 10
26.85865987810195
 20
-32.58601309528228
 30
0.0
 40
1.639695123940499
100
AcDbArc
 50
84.84185523036533
 51
164.9381082228904
  0
ARC
  5
2A8
102
{ACAD_REACTORS
330
2F7
330
2F8
102
}
330
A0
100
AcDbEntity
  8
0
  6
Continuous
 62
     2
100
AcDbCircle
 10
26.43953203463914
 20
-32.4732227332475
 30
0.0
 40
1.205656168390975
100
AcDbArc
 50
164.9381082228762
 51
195.0618917770942
  0
ARC
  5
2A9
102
{ACAD_REACTORS
330
2F7
330
2F8
102
}
330
A0
100
AcDbEntity
  8
0
  6
Continuous
 62
     2
100
AcDbCircle
 10
26.85865987810195
 20
-32.3604323712126
 30
0.0
 40
1.639695123939442
100
AcDbArc
 50
195.0618917770919
 51
275.1581447696363
  0
ARC
  5
2AA
102
{ACAD_REACTORS
330
2F7
330
2F8
102
}
330
A0
100
AcDbEntity
  8
0
  6
Continuous
 62
     2
100
AcDbCircle
 10
26.56980378336604
 20
-29.16054178799095
 30
0.0
 40
4.852596863498279
100
AcDbArc
 50
275.1581447696238
 51
285.9799912583526
  0
ARC
  5
2AB
102
{ACAD_REACTORS
330
2F7
330
2F8
102
}
330
A0
100
AcDbEntity
  8
0
  6
Continuous
 62
     2
100
AcDbCircle
 10
27.36676161749804
 20
-32.4732227332475
 30
0.0
 40
0.9410597353333263
100
AcDbArc
 50
151.4785267422693
 51
208.5214732576969
  0
ARC
  5
2AC
102
{ACAD_REACTORS
330
2F7
330
2F8
102
}
330
A0
100
AcDbEntity
  8
0
  6
Continuous
 62
     2
100
AcDbCircle
 10
26.98940435941765
 20
-32.26815130390838
 30
0.0
 40
0.5115800601948339
100
AcDbArc
 50
113.3722778881948
 51
151.4785267423165
  0
ARC
  5
2AD
102
{ACAD_REACTORS
330
2F7
330
2F8
102
}
330
A0
100
AcDbEntity
  8
0
  6
Continuous
 62
     2
100
AcDbCircle
 10
26.72767665845885
 20
-33.88368909865557
 30
0.0
 40
2.227384008973466
100
AcDbArc
 50
58.06909105003721
 51
71.55192388186687
  0
ARC
  5
2AE
102
{ACAD_REACTORS
330
2EF
330
2F0
102
}
330
A0
100
AcDbEntity
  8
0
  6
Continuous
 62
     2
100
AcDbCircle
 10
29.78969079402285
 20
-32.31649155512696
 30
0.0
 40
0.5179085730132779
100
AcDbArc
 50
38.12041979716494
 51
141.8795802028569
  0
ARC
  5
2AF
102
{ACAD_REACTORS
330
2EF
330
2F0
102
}
330
A0
100
AcDbEntity
  8
0
  6
Continuous
 62
     2
100
AcDbCircle
 10
29.98943083036883
 20
-32.4732227332475
 30
0.0
 40
0.7717997786795526
100
AcDbArc
 50
141.8795802028274
 51
218.1204197971618
  0
ARC
  5
2B0
102
{ACAD_REACTORS
330
2EF
330
2F0
102
}
330
A0
100
AcDbEntity
  8
0
  6
Continuous
 62
     2
100
AcDbCircle
 10
29.78969079402285
 20
-32.62995391136735
 30
0.0
 40
0.5179085730138452
100
AcDbArc
 50
218.1204197971876
 51
321.8795802027906
  0
ARC
  5
2B1
102
{ACAD_REACTORS
330
2EF
330
2F0
102
}
330
A0
100
AcDbEntity
  8
0
  6
Continuous
 62
     2
100
AcDbCircle
 10
29.58995075767643
 20
-32.4732227332475
 30
0.0
 40
0.7717997786795335
100
AcDbArc
 50
321.8795802028437
 51
38.12041979716705
  0
CIRCLE
  5
2B2
330
A0
100
AcDbEntity
  8
1
  6
Continuous
 62
     2
100
AcDbCircle
 10
26.93495764527896
 20
-20.16862749516918
 30
0.0
 40
2.5
  0
CIRCLE
  5
2B3
330
A0
100
AcDbEntity
  8
1
  6
Continuous
 62
     2
100
AcDbCircle
 10
26.93495764527896
 20
-20.16862749516918
 30
0.0
 40
1.25
  0
CIRCLE
  5
2B4
102
{ACAD_REACTORS
330
2F3
330
2F4
102
}
330
A0
100
AcDbEntity
  8
0
  6
Continuous
 62
     2
100
AcDbCircle
 10
21.47878791117935
 20
-30.33025433892476
 30
0.0
 40
0.470978932778479
  0
MTEXT
  5
2B5
330
A0
100
AcDbEntity
  8
1
 62
     3
100
AcDbMText
 10
-252.8342194031804
 20
-41.26671339566786
 30
0.0
 40
1.8
 41
0.0
 71
     7
 72
     1
  3
Weitergabe sowie Vervielfältigung dieses Dokuments, Verwertung und \PMitteilung seines Inhalts sind verboten, soweit nicht ausdrücklich gestattet. \PZuwiderhandlungen verpflichten zu Schadenersatz. Alle Rechte für den Fall\Pder Patent-, Gebrauchsmus
  1
ter- oder Designeintragung vorbehalten.
  7
CONVERTER_11
 11
0.0
 21
1.0
 31
0.0
 73
     1
 44
0.99639855942377
  0
MTEXT
  5
2B6
330
A0
100
AcDbEntity
  8
1
 62
     3
100
AcDbMText
 10
-252.9884257142743
 20
131.6926566184852
 30
0.0
 40
1.8
 41
0.0
 71
     7
 72
     1
  3
Transfer or duplication of this document as well as the utilisation or\Pcommunication of its content are not permitted unless express consent\Pis granted. Violations give rise to claims for damages. All rights reserved\Pin case of patent, utility mo
  1
del or design patent registrations.
  7
CONVERTER_11
 11
0.0
 21
1.0
 31
0.0
 73
     1
 44
0.99639855942377
  0
TEXT
  5
2B7
330
A0
100
AcDbEntity
  8
1
 62
     2
100
AcDbText
 10
33.39830275871626
 20
-40.05264471016056
 30
0.0
 40
1.8
  1
of
 41
0.9
  7
CONVERTER_11
100
AcDbText
  0
TEXT
  5
2B8
330
A0
100
AcDbEntity
  8
1
 62
     2
100
AcDbText
 10
15.19830275871644
 20
-40.05264471016079
 30
0.0
 40
1.8
  1
page
 41
0.9
  7
CONVERTER_11
100
AcDbText
  0
TEXT
  5
2B9
330
A0
100
AcDbEntity
  8
1
 62
     2
100
AcDbText
 10
23.84456772905844
 20
-40.09287614897096
 30
0.0
 40
1.8
  1
1
 41
0.9
  7
CONVERTER_11
100
AcDbText
  0
TEXT
  5
2BA
330
A0
100
AcDbEntity
  8
1
 62
     2
100
AcDbText
 10
38.63361156852994
 20
-40.04362749516906
 30
0.0
 40
1.8
  1
1
 41
0.9
  7
CONVERTER_11
100
AcDbText
  0
MTEXT
  5
2BC
330
A0
100
AcDbEntity
  8
1
 62
     7
100
AcDbMText
 10
97.17070502209185
 20
-38.04362749516889
 30
0.0
 40
3.0
 41
0.0
 71
     5
 72
     1
  1
CES-SRG-BK-5
  7
CONVERTER_12
 73
     1
 44
1.20048019207683
  0
MTEXT
  5
2BD
330
A0
100
AcDbEntity
  8
1
 62
     2
100
AcDbMText
 10
51.59830275871636
 20
-33.79362749516906
 30
0.0
 40
1.8
 41
0.0
 71
     1
 72
     1
  1
description
  7
CONVERTER_11
 73
     1
 44
1.20048019207683
  0
MTEXT
  5
2BE
330
A0
100
AcDbEntity
  8
1
 62
     3
100
AcDbMText
 10
40.39830275871634
 20
-20.16862749516906
 30
0.0
 40
2.5
 41
0.0
 71
     5
 72
     1
  1
DIN A3
  7
CONVERTER_11
 73
     1
 44
1.20048019207683
  0
MTEXT
  5
2BF
330
A0
100
AcDbEntity
  8
1
 62
     2
100
AcDbMText
 10
-20.21272051049317
 20
-28.54362749517026
 30
0.0
 40
2.0
 41
0.0
 71
     5
 72
     1
  1
General Information\P- Simplified representation\P- Document excluded from change process\P- Linear dimensions [mm]
  7
CONVERTER_11
 73
     1
 44
1.20048019207683
  0
TEXT
  5
2C0
330
A0
100
AcDbEntity
  8
1
 62
     7
100
AcDbText
 10
52.09830275871613
 20
-31.49362749516905
 30
0.0
 40
2.5
  1
0801630
 41
0.81
  7
CONVERTER_12
100
AcDbText
  0
MTEXT
  5
2C1
330
A0
100
AcDbEntity
  8
1
 62
     2
100
AcDbMText
 10
51.69830275871635
 20
-25.29362749516906
 30
0.0
 40
1.8
 41
0.0
 71
     1
 72
     1
  1
ident.-No.
  7
CONVERTER_11
 73
     1
 44
1.20048019207683
  0
MTEXT
  5
2C2
330
A0
100
AcDbEntity
  8
1
 62
     2
100
AcDbMText
 10
135.9246990037892
 20
-16.79362749516906
 30
0.0
 40
1.8
 41
0.0
 71
     1
 72
     1
  1
scale
  7
CONVERTER_11
 73
     1
 44
1.20048019207683
  0
MTEXT
  5
2C4
330
A0
100
AcDbEntity
  8
1
 62
     3
100
AcDbMText
 10
139.2839031446287
 20
-22.99362749516899
 30
0.0
 40
2.5
 41
0.0
 71
     8
 72
     1
  1
2:1
  7
CONVERTER_13
 73
     1
 44
1.32052821128451
  0
TEXT
  5
2C5
330
A0
100
AcDbEntity
  8
1
 62
     7
100
AcDbText
 10
51.69830275871635
 20
-22.99362749516905
 30
0.0
 40
2.5
  1
00649651
 41
0.81
  7
CONVERTER_12
100
AcDbText
  0
MTEXT
  5
2C7
330
A0
100
AcDbEntity
  8
1
 62
     2
100
AcDbMText
 10
51.69830275871635
 20
-16.79362749516906
 30
0.0
 40
1.8
 41
0.0
 71
     1
 72
     1
  1
document-No. / RI
  7
CONVERTER_14
 73
     1
 44
1.32052821128451
  0
TEXT
  5
2C8
330
A0
100
AcDbEntity
  8
1
 62
     3
100
AcDbText
 10
79.49830275871635
 20
-31.49362749516905
 30
0.0
 40
2.5
  1
TECDOC 2D_Productdrawing
 41
0.81
  7
CONVERTER_12
100
AcDbText
  0
MTEXT
  5
2C9
330
A0
100
AcDbEntity
  8
1
 62
     2
100
AcDbMText
 10
79.49830275871635
 20
-25.29362749516906
 30
0.0
 40
1.8
 41
0.0
 71
     1
 72
     1
  1
document-type
  7
CONVERTER_11
 73
     1
 44
1.20048019207683
  0
MTEXT
  5
2CA
330
A0
100
AcDbEntity
  8
1
 62
     2
100
AcDbMText
 10
109.3246990037893
 20
-16.79362749516906
 30
0.0
 40
1.8
 41
0.0
 71
     1
 72
     1
  1
date
  7
CONVERTER_11
 73
     1
 44
1.32052821128451
  0
TEXT
  5
2CB
330
A0
100
AcDbEntity
  8
1
 62
     3
100
AcDbText
 10
109.3246990037893
 20
-22.99362749516905
 30
0.0
 40
2.5
  1
01.04.2021
 41
0.81
  7
CONVERTER_12
100
AcDbText
  0
TEXT
  5
2CC
330
A0
100
AcDbEntity
  8
1
 62
     7
100
AcDbText
 10
71.72821497777214
 20
-22.99362749516905
 30
0.0
 40
2.5
  1
01
 41
0.81
  7
CONVERTER_12
100
AcDbText
  0
TEXT
  5
2CD
330
A0
100
AcDbEntity
  8
1
 62
     7
100
AcDbText
 10
69.57185048073015
 20
-22.99362749516905
 30
0.0
 40
2.5
  1
/
 41
0.9
  7
CONVERTER_11
100
AcDbText
  0
TEXT
  5
2CE
330
A0
100
AcDbEntity
  8
1
 62
     7
100
AcDbText
 10
-233.2568927145334
 20
246.7063725048317
 30
0.0
 40
2.5
  1
1
 41
0.9
  7
CONVERTER_11
100
AcDbText
  0
TEXT
  5
2CF
330
A0
100
AcDbEntity
  8
1
 62
     7
100
AcDbText
 10
-164.9235593812003
 20
246.7063725048317
 30
0.0
 40
2.5
  1
2
 41
0.9
  7
CONVERTER_11
100
AcDbText
  0
TEXT
  5
2D0
330
A0
100
AcDbEntity
  8
1
 62
     7
100
AcDbText
 10
-96.59022604786674
 20
246.7063725048317
 30
0.0
 40
2.5
  1
3
 41
0.9
  7
CONVERTER_11
100
AcDbText
  0
TEXT
  5
2D1
330
A0
100
AcDbEntity
  8
1
 62
     7
100
AcDbText
 10
-28.25689271453365
 20
246.7063725048317
 30
0.0
 40
2.5
  1
4
 41
0.9
  7
CONVERTER_11
100
AcDbText
  0
TEXT
  5
2D2
330
A0
100
AcDbEntity
  8
1
 62
     7
100
AcDbText
 10
40.07644061879975
 20
246.7063725048317
 30
0.0
 40
2.5
  1
5
 41
0.9
  7
CONVERTER_11
100
AcDbText
  0
TEXT
  5
2D3
330
A0
100
AcDbEntity
  8
1
 62
     7
100
AcDbText
 10
108.409773952133
 20
246.7063725048317
 30
0.0
 40
2.5
  1
6
 41
0.9
  7
CONVERTER_11
100
AcDbText
  0
TEXT
  5
2D4
330
A0
100
AcDbEntity
  8
1
 62
     7
100
AcDbText
 10
144.7431072854664
 20
215.8063725048314
 30
0.0
 40
2.5
  1
A
 41
0.9
  7
CONVERTER_11
100
AcDbText
  0
TEXT
  5
2D5
330
A0
100
AcDbEntity
  8
1
 62
     7
100
AcDbText
 10
144.7431072854664
 20
158.4063725048315
 30
0.0
 40
2.5
  1
B
 41
0.9
  7
CONVERTER_11
100
AcDbText
  0
TEXT
  5
2D6
330
A0
100
AcDbEntity
  8
1
 62
     7
100
AcDbText
 10
144.7431072854664
 20
101.0063725048317
 30
0.0
 40
2.5
  1
C
 41
0.9
  7
CONVERTER_11
100
AcDbText
  0
TEXT
  5
2D7
330
A0
100
AcDbEntity
  8
1
 62
     7
100
AcDbText
 10
144.7431072854664
 20
43.60637250483163
 30
0.0
 40
2.5
  1
D
 41
0.9
  7
CONVERTER_11
100
AcDbText
  0
TEXT
  5
2D8
330
A0
100
AcDbEntity
  8
1
 62
     7
100
AcDbText
 10
-164.9235593812003
 20
-45.29362749516849
 30
0.0
 40
2.5
  1
2
 41
0.9
  7
CONVERTER_11
100
AcDbText
  0
TEXT
  5
2D9
330
A0
100
AcDbEntity
  8
1
 62
     7
100
AcDbText
 10
-233.2568927145334
 20
-45.29362749516849
 30
0.0
 40
2.5
  1
1
 41
0.9
  7
CONVERTER_11
100
AcDbText
  0
TEXT
  5
2DA
330
A0
100
AcDbEntity
  8
1
 62
     7
100
AcDbText
 10
144.7431072854664
 20
-13.79362749516849
 30
0.0
 40
2.5
  1
E
 41
0.9
  7
CONVERTER_11
100
AcDbText
  0
TEXT
  5
2DB
330
A0
100
AcDbEntity
  8
1
 62
     7
100
AcDbText
 10
-96.59022604786674
 20
-45.29362749516849
 30
0.0
 40
2.5
  1
3
 41
0.9
  7
CONVERTER_11
100
AcDbText
  0
TEXT
  5
2DC
330
A0
100
AcDbEntity
  8
1
 62
     7
100
AcDbText
 10
-28.25689271453365
 20
-45.29362749516849
 30
0.0
 40
2.5
  1
4
 41
0.9
  7
CONVERTER_11
100
AcDbText
  0
TEXT
  5
2DD
330
A0
100
AcDbEntity
  8
1
 62
     7
100
AcDbText
 10
40.07644061879955
 20
-45.29362749516849
 30
0.0
 40
2.5
  1
5
 41
0.9
  7
CONVERTER_11
100
AcDbText
  0
TEXT
  5
2DE
330
A0
100
AcDbEntity
  8
1
 62
     7
100
AcDbText
 10
108.409773952133
 20
-45.29362749516849
 30
0.0
 40
2.5
  1
6
 41
0.9
  7
CONVERTER_11
100
AcDbText
  0
HATCH
  5
2DF
330
A0
100
AcDbEntity
  8
1
  6
Continuous
 62
     2
100
AcDbHatch
 10
0.0
 20
0.0
 30
0.0
210
0.0
220
0.0
230
1.0
  2
CUSTOM0
 70
     0
 71
     1
 91
        1
 92
        1
 93
       12
 72
     1
 10
31.86580347167754
 20
-30.64093701897838
 11
30.67301076951105
 21
-30.64093701897838
 72
     1
 10
30.67301076951105
 20
-30.64093701897838
 11
30.67301076951105
 21
-29.5066649101347
 72
     1
 10
30.67301076951105
 20
-29.5066649101347
 11
29.62335319160366
 21
-29.5066649101347
 72
     1
 10
29.62335319160366
 20
-29.5066649101347
 11
29.62335319160366
 21
-30.64093701897838
 72
     1
 10
29.62335319160366
 20
-30.64093701897838
 11
28.43056048943706
 21
-30.64093701897838
 72
     1
 10
28.43056048943706
 20
-30.64093701897838
 11
28.43056048943706
 21
-27.58712749516729
 72
     1
 10
28.43056048943706
 20
-27.58712749516729
 11
29.62335319160366
 21
-27.58712749516729
 72
     1
 10
29.62335319160366
 20
-27.58712749516729
 11
29.62335319160366
 21
-28.65596082850186
 72
     1
 10
29.62335319160366
 20
-28.65596082850186
 11
30.67301076951105
 21
-28.65596082850186
 72
     1
 10
30.67301076951105
 20
-28.65596082850186
 11
30.67301076951105
 21
-27.58712749516729
 72
     1
 10
30.67301076951105
 20
-27.58712749516729
 11
31.86580347167754
 21
-27.58712749516729
 72
     1
 10
31.86580347167754
 20
-27.58712749516729
 11
31.86580347167754
 21
-30.64093701897838
 97
       12
330
208
330
209
330
1F3
330
1F2
330
1F1
330
205
330
1F0
330
206
330
207
330
1EF
330
1EE
330
1ED
 75
     1
 76
     2
 52
45.0
 41
0.1
 77
     0
 78
     1
 53
45.0
 43
62.7811309658083
 44
-72.3161373035813
 45
-0.1414213562373095
 46
0.0
 79
     0
 98
        1
 10
0.0
 20
0.0
  0
HATCH
  5
2E0
330
A0
100
AcDbEntity
  8
1
  6
Continuous
 62
     2
100
AcDbHatch
 10
0.0
 20
0.0
 30
0.0
210
0.0
220
0.0
230
1.0
  2
CUSTOM1
 70
     0
 71
     1
 91
        1
 92
        1
 93
       12
 72
     1
 10
31.86580347167754
 20
-30.64093701897838
 11
30.67301076951105
 21
-30.64093701897838
 72
     1
 10
30.67301076951105
 20
-30.64093701897838
 11
30.67301076951105
 21
-29.5066649101347
 72
     1
 10
30.67301076951105
 20
-29.5066649101347
 11
29.62335319160366
 21
-29.5066649101347
 72
     1
 10
29.62335319160366
 20
-29.5066649101347
 11
29.62335319160366
 21
-30.64093701897838
 72
     1
 10
29.62335319160366
 20
-30.64093701897838
 11
28.43056048943706
 21
-30.64093701897838
 72
     1
 10
28.43056048943706
 20
-30.64093701897838
 11
28.43056048943706
 21
-27.58712749516729
 72
     1
 10
28.43056048943706
 20
-27.58712749516729
 11
29.62335319160366
 21
-27.58712749516729
 72
     1
 10
29.62335319160366
 20
-27.58712749516729
 11
29.62335319160366
 21
-28.65596082850186
 72
     1
 10
29.62335319160366
 20
-28.65596082850186
 11
30.67301076951105
 21
-28.65596082850186
 72
     1
 10
30.67301076951105
 20
-28.65596082850186
 11
30.67301076951105
 21
-27.58712749516729
 72
     1
 10
30.67301076951105
 20
-27.58712749516729
 11
31.86580347167754
 21
-27.58712749516729
 72
     1
 10
31.86580347167754
 20
-27.58712749516729
 11
31.86580347167754
 21
-30.64093701897838
 97
       12
330
208
330
209
330
1F3
330
1F2
330
1F1
330
205
330
1F0
330
206
330
207
330
1EF
330
1EE
330
1ED
 75
     1
 76
     2
 52
45.0
 41
0.1
 77
     0
 78
     1
 53
45.0
 43
62.7811309658083
 44
-72.3161373035813
 45
-0.1414213562373095
 46
0.0
 79
     0
 98
        1
 10
0.0
 20
0.0
  0
HATCH
  5
2E1
330
A0
100
AcDbEntity
  8
1
  6
Continuous
 62
     2
100
AcDbHatch
 10
0.0
 20
0.0
 30
0.0
210
0.0
220
0.0
230
1.0
  2
CUSTOM2
 70
     0
 71
     1
 91
        1
 92
        1
 93
       10
 72
     1
 10
34.10810282086584
 20
-32.25509348154679
 11
32.86759841061286
 21
-30.94631797134156
 72
     1
 10
32.86759841061286
 20
-30.94631797134156
 11
31.67480570844535
 21
-30.94631797134156
 72
     1
 10
31.67480570844535
 20
-30.94631797134156
 11
31.67480570844535
 21
-34.0001274951527
 72
     1
 10
31.67480570844535
 20
-34.0001274951527
 11
32.86759841061286
 21
-34.0001274951527
 72
     1
 10
32.86759841061286
 20
-34.0001274951527
 11
32.86759841061286
 21
-32.6913519849482
 72
     1
 10
32.86759841061286
 20
-32.6913519849482
 11
34.10810282086584
 21
-34.0001274951527
 72
     1
 10
34.10810282086584
 20
-34.0001274951527
 11
35.30089552303224
 21
-34.0001274951527
 72
     1
 10
35.30089552303224
 20
-34.0001274951527
 11
35.30089552303224
 21
-30.94631797134156
 72
     1
 10
35.30089552303224
 20
-30.94631797134156
 11
34.10810282086584
 21
-30.94631797134156
 72
     1
 10
34.10810282086584
 20
-30.94631797134156
 11
34.10810282086584
 21
-32.25509348154679
 97
       10
330
216
330
1E6
330
1E5
330
1E8
330
211
330
212
330
1E7
330
213
330
214
330
215
 75
     1
 76
     2
 52
45.0
 41
0.1
 77
     0
 78
     1
 53
45.0
 43
62.7811309658083
 44
-72.3161373035813
 45
-0.1414213562373095
 46
0.0
 79
     0
 98
        1
 10
0.0
 20
0.0
  0
HATCH
  5
2E2
330
A0
100
AcDbEntity
  8
1
  6
Continuous
 62
     2
100
AcDbHatch
 10
0.0
 20
0.0
 30
0.0
210
0.0
220
0.0
230
1.0
  2
CUSTOM3
 70
     0
 71
     1
 91
        1
 92
        1
 93
       10
 72
     1
 10
34.10810282086584
 20
-32.25509348154679
 11
32.86759841061286
 21
-30.94631797134156
 72
     1
 10
32.86759841061286
 20
-30.94631797134156
 11
31.67480570844535
 21
-30.94631797134156
 72
     1
 10
31.67480570844535
 20
-30.94631797134156
 11
31.67480570844535
 21
-34.0001274951527
 72
     1
 10
31.67480570844535
 20
-34.0001274951527
 11
32.86759841061286
 21
-34.0001274951527
 72
     1
 10
32.86759841061286
 20
-34.0001274951527
 11
32.86759841061286
 21
-32.6913519849482
 72
     1
 10
32.86759841061286
 20
-32.6913519849482
 11
34.10810282086584
 21
-34.0001274951527
 72
     1
 10
34.10810282086584
 20
-34.0001274951527
 11
35.30089552303224
 21
-34.0001274951527
 72
     1
 10
35.30089552303224
 20
-34.0001274951527
 11
35.30089552303224
 21
-30.94631797134156
 72
     1
 10
35.30089552303224
 20
-30.94631797134156
 11
34.10810282086584
 21
-30.94631797134156
 72
     1
 10
34.10810282086584
 20
-30.94631797134156
 11
34.10810282086584
 21
-32.25509348154679
 97
       10
330
216
330
1E6
330
1E5
330
1E8
330
211
330
212
330
1E7
330
213
330
214
330
215
 75
     1
 76
     2
 52
45.0
 41
0.1
 77
     0
 78
     1
 53
45.0
 43
62.7811309658083
 44
-72.3161373035813
 45
-0.1414213562373095
 46
0.0
 79
     0
 98
        1
 10
0.0
 20
0.0
  0
HATCH
  5
2E3
330
A0
100
AcDbEntity
  8
1
  6
Continuous
 62
     2
100
AcDbHatch
 10
0.0
 20
0.0
 30
0.0
210
0.0
220
0.0
230
1.0
  2
CUSTOM4
 70
     0
 71
     1
 91
        1
 92
        1
 93
       10
 72
     1
 10
39.35654164128553
 20
-28.89590300537236
 11
38.11603723103144
 21
-27.58712749516729
 72
     1
 10
38.11603723103144
 20
-27.58712749516729
 11
36.92324452886504
 21
-27.58712749516729
 72
     1
 10
36.92324452886504
 20
-27.58712749516729
 11
36.92324452886504
 21
-30.64093701897838
 72
     1
 10
36.92324452886504
 20
-30.64093701897838
 11
38.11603723103144
 21
-30.64093701897838
 72
     1
 10
38.11603723103144
 20
-30.64093701897838
 11
38.11603723103144
 21
-29.33216150877365
 72
     1
 10
38.11603723103144
 20
-29.33216150877365
 11
39.35654164128553
 21
-30.64093701897838
 72
     1
 10
39.35654164128553
 20
-30.64093701897838
 11
40.54933434345213
 21
-30.64093701897838
 72
     1
 10
40.54933434345213
 20
-30.64093701897838
 11
40.54933434345213
 21
-27.58712749516729
 72
     1
 10
40.54933434345213
 20
-27.58712749516729
 11
39.35654164128553
 21
-27.58712749516729
 72
     1
 10
39.35654164128553
 20
-27.58712749516729
 11
39.35654164128553
 21
-28.89590300537236
 97
       10
330
21B
330
1E3
330
1E2
330
21C
330
1E1
330
217
330
218
330
219
330
21A
330
1E4
 75
     1
 76
     2
 52
45.0
 41
0.1
 77
     0
 78
     1
 53
45.0
 43
62.7811309658083
 44
-72.3161373035813
 45
-0.1414213562373095
 46
0.0
 79
     0
 98
        1
 10
0.0
 20
0.0
  0
HATCH
  5
2E4
330
A0
100
AcDbEntity
  8
1
  6
Continuous
 62
     2
100
AcDbHatch
 10
0.0
 20
0.0
 30
0.0
210
0.0
220
0.0
230
1.0
  2
CUSTOM5
 70
     0
 71
     1
 91
        1
 92
        1
 93
       10
 72
     1
 10
39.35654164128553
 20
-28.89590300537236
 11
38.11603723103144
 21
-27.58712749516729
 72
     1
 10
38.11603723103144
 20
-27.58712749516729
 11
36.92324452886504
 21
-27.58712749516729
 72
     1
 10
36.92324452886504
 20
-27.58712749516729
 11
36.92324452886504
 21
-30.64093701897838
 72
     1
 10
36.92324452886504
 20
-30.64093701897838
 11
38.11603723103144
 21
-30.64093701897838
 72
     1
 10
38.11603723103144
 20
-30.64093701897838
 11
38.11603723103144
 21
-29.33216150877365
 72
     1
 10
38.11603723103144
 20
-29.33216150877365
 11
39.35654164128553
 21
-30.64093701897838
 72
     1
 10
39.35654164128553
 20
-30.64093701897838
 11
40.54933434345213
 21
-30.64093701897838
 72
     1
 10
40.54933434345213
 20
-30.64093701897838
 11
40.54933434345213
 21
-27.58712749516729
 72
     1
 10
40.54933434345213
 20
-27.58712749516729
 11
39.35654164128553
 21
-27.58712749516729
 72
     1
 10
39.35654164128553
 20
-27.58712749516729
 11
39.35654164128553
 21
-28.89590300537236
 97
       10
330
21B
330
1E3
330
1E2
330
21C
330
1E1
330
217
330
218
330
219
330
21A
330
1E4
 75
     1
 76
     2
 52
45.0
 41
0.1
 77
     0
 78
     1
 53
45.0
 43
62.7811309658083
 44
-72.3161373035813
 45
-0.1414213562373095
 46
0.0
 79
     0
 98
        1
 10
0.0
 20
0.0
  0
HATCH
  5
2E5
330
A0
100
AcDbEntity
  8
1
  6
Continuous
 62
     2
100
AcDbHatch
 10
0.0
 20
0.0
 30
0.0
210
0.0
220
0.0
230
1.0
  2
CUSTOM6
 70
     0
 71
     1
 91
        1
 92
        1
 93
        8
 72
     1
 10
38.25902142440606
 20
-30.94631797134156
 11
35.44403064729235
 21
-30.94631797134156
 72
     1
 10
35.44403064729235
 20
-30.94631797134156
 11
35.44403064729235
 21
-31.73158327746529
 72
     1
 10
35.44403064729235
 20
-31.73158327746529
 11
36.25512968476704
 21
-31.73158327746529
 72
     1
 10
36.25512968476704
 20
-31.73158327746529
 11
36.25512968476704
 21
-34.0001274951527
 72
     1
 10
36.25512968476704
 20
-34.0001274951527
 11
37.44792238693344
 21
-34.0001274951527
 72
     1
 10
37.44792238693344
 20
-34.0001274951527
 11
37.44792238693344
 21
-31.73158327746529
 72
     1
 10
37.44792238693344
 20
-31.73158327746529
 11
38.25902142440606
 21
-31.73158327746529
 72
     1
 10
38.25902142440606
 20
-31.73158327746529
 11
38.25902142440606
 21
-30.94631797134156
 97
        8
330
1DD
330
21D
330
1DC
330
21E
330
21F
330
1E0
330
1DF
330
1DE
 75
     1
 76
     2
 52
45.0
 41
0.1
 77
     0
 78
     1
 53
45.0
 43
62.7811309658083
 44
-72.3161373035813
 45
-0.1414213562373095
 46
0.0
 79
     0
 98
        1
 10
0.0
 20
0.0
  0
HATCH
  5
2E6
330
A0
100
AcDbEntity
  8
1
  6
Continuous
 62
     2
100
AcDbHatch
 10
0.0
 20
0.0
 30
0.0
210
0.0
220
0.0
230
1.0
  2
CUSTOM7
 70
     0
 71
     1
 91
        1
 92
        1
 93
        8
 72
     1
 10
38.25902142440606
 20
-30.94631797134156
 11
35.44403064729235
 21
-30.94631797134156
 72
     1
 10
35.44403064729235
 20
-30.94631797134156
 11
35.44403064729235
 21
-31.73158327746529
 72
     1
 10
35.44403064729235
 20
-31.73158327746529
 11
36.25512968476704
 21
-31.73158327746529
 72
     1
 10
36.25512968476704
 20
-31.73158327746529
 11
36.25512968476704
 21
-34.0001274951527
 72
     1
 10
36.25512968476704
 20
-34.0001274951527
 11
37.44792238693344
 21
-34.0001274951527
 72
     1
 10
37.44792238693344
 20
-34.0001274951527
 11
37.44792238693344
 21
-31.73158327746529
 72
     1
 10
37.44792238693344
 20
-31.73158327746529
 11
38.25902142440606
 21
-31.73158327746529
 72
     1
 10
38.25902142440606
 20
-31.73158327746529
 11
38.25902142440606
 21
-30.94631797134156
 97
        8
330
1DD
330
21D
330
1DC
330
21E
330
21F
330
1E0
330
1DF
330
1DE
 75
     1
 76
     2
 52
45.0
 41
0.1
 77
     0
 78
     1
 53
45.0
 43
62.7811309658083
 44
-72.3161373035813
 45
-0.1414213562373095
 46
0.0
 79
     0
 98
        1
 10
0.0
 20
0.0
  0
HATCH
  5
2E7
330
A0
100
AcDbEntity
  8
1
  6
Continuous
 62
     2
100
AcDbHatch
 10
0.0
 20
0.0
 30
0.0
210
0.0
220
0.0
230
1.0
  2
CUSTOM8
 70
     0
 71
     1
 91
        2
 92
        1
 93
        8
 72
     1
 10
40.39744888035304
 20
-34.0001274951527
 11
40.18596882687726
 21
-33.4591669509349
 72
     1
 10
40.18596882687726
 20
-33.4591669509349
 11
39.05352725020333
 21
-33.4591669509349
 72
     1
 10
39.05352725020333
 20
-33.4591669509349
 11
38.84204719672755
 21
-34.0001274951527
 72
     1
 10
38.84204719672755
 20
-34.0001274951527
 11
37.60154278647465
 21
-34.0001274951527
 72
     1
 10
37.60154278647465
 20
-34.0001274951527
 11
38.99949583341385
 21
-30.94631797134156
 72
     1
 10
38.99949583341385
 20
-30.94631797134156
 11
40.24000024366666
 21
-30.94631797134156
 72
     1
 10
40.24000024366666
 20
-30.94631797134156
 11
41.63795329060693
 21
-34.0001274951527
 72
     1
 10
41.63795329060693
 20
-34.0001274951527
 11
40.39744888035304
 21
-34.0001274951527
 97
        8
330
221
330
222
330
1D9
330
223
330
1D8
330
1DB
330
220
330
1DA
 92
       16
 93
        3
 72
     1
 10
39.31958280134845
 20
-32.7786036856283
 11
39.61974803854074
 21
-32.0107887196416
 72
     1
 10
39.61974803854074
 20
-32.0107887196416
 11
39.91991327573095
 21
-32.7786036856283
 72
     1
 10
39.91991327573095
 20
-32.7786036856283
 11
39.31958280134845
 21
-32.7786036856283
 97
        3
330
1D7
330
225
330
224
 75
     1
 76
     2
 52
45.0
 41
0.1
 77
     0
 78
     1
 53
45.0
 43
62.7811309658083
 44
-72.3161373035813
 45
-0.1414213562373095
 46
0.0
 79
     0
 98
        1
 10
0.0
 20
0.0
  0
HATCH
  5
2E8
330
A0
100
AcDbEntity
  8
1
  6
Continuous
 62
     2
100
AcDbHatch
 10
0.0
 20
0.0
 30
0.0
210
0.0
220
0.0
230
1.0
  2
CUSTOM9
 70
     0
 71
     1
 91
        2
 92
        1
 93
        8
 72
     1
 10
40.39744888035304
 20
-34.0001274951527
 11
40.18596882687726
 21
-33.4591669509349
 72
     1
 10
40.18596882687726
 20
-33.4591669509349
 11
39.05352725020333
 21
-33.4591669509349
 72
     1
 10
39.05352725020333
 20
-33.4591669509349
 11
38.84204719672755
 21
-34.0001274951527
 72
     1
 10
38.84204719672755
 20
-34.0001274951527
 11
37.60154278647465
 21
-34.0001274951527
 72
     1
 10
37.60154278647465
 20
-34.0001274951527
 11
38.99949583341385
 21
-30.94631797134156
 72
     1
 10
38.99949583341385
 20
-30.94631797134156
 11
40.24000024366666
 21
-30.94631797134156
 72
     1
 10
40.24000024366666
 20
-30.94631797134156
 11
41.63795329060693
 21
-34.0001274951527
 72
     1
 10
41.63795329060693
 20
-34.0001274951527
 11
40.39744888035304
 21
-34.0001274951527
 97
        8
330
221
330
222
330
1D9
330
223
330
1D8
330
1DB
330
220
330
1DA
 92
       16
 93
        3
 72
     1
 10
39.31958280134845
 20
-32.7786036856283
 11
39.61974803854074
 21
-32.0107887196416
 72
     1
 10
39.61974803854074
 20
-32.0107887196416
 11
39.91991327573095
 21
-32.7786036856283
 72
     1
 10
39.91991327573095
 20
-32.7786036856283
 11
39.31958280134845
 21
-32.7786036856283
 97
        3
330
1D7
330
225
330
224
 75
     1
 76
     2
 52
45.0
 41
0.1
 77
     0
 78
     1
 53
45.0
 43
62.7811309658083
 44
-72.3161373035813
 45
-0.1414213562373095
 46
0.0
 79
     0
 98
        1
 10
0.0
 20
0.0
  0
HATCH
  5
2E9
330
A0
100
AcDbEntity
  8
1
  6
Continuous
 62
     2
100
AcDbHatch
 10
0.0
 20
0.0
 30
0.0
210
0.0
220
0.0
230
1.0
  2
CUSTOM10
 70
     0
 71
     1
 91
        1
 92
        1
 93
        4
 72
     1
 10
42.02839729413896
 20
-30.64093701897838
 11
40.78789288388603
 21
-30.64093701897838
 72
     1
 10
40.78789288388603
 20
-30.64093701897838
 11
40.78789288388603
 21
-27.58712749516729
 72
     1
 10
40.78789288388603
 20
-27.58712749516729
 11
42.02839729413896
 21
-27.58712749516729
 72
     1
 10
42.02839729413896
 20
-27.58712749516729
 11
42.02839729413896
 21
-30.64093701897838
 97
        4
330
1D4
330
1D6
330
226
330
1D5
 75
     1
 76
     2
 52
45.0
 41
0.1
 77
     0
 78
     1
 53
45.0
 43
62.7811309658083
 44
-72.3161373035813
 45
-0.1414213562373095
 46
0.0
 79
     0
 98
        1
 10
0.0
 20
0.0
  0
HATCH
  5
2EA
330
A0
100
AcDbEntity
  8
1
  6
Continuous
 62
     2
100
AcDbHatch
 10
0.0
 20
0.0
 30
0.0
210
0.0
220
0.0
230
1.0
  2
CUSTOM11
 70
     0
 71
     1
 91
        1
 92
        1
 93
        4
 72
     1
 10
42.02839729413896
 20
-30.64093701897838
 11
40.78789288388603
 21
-30.64093701897838
 72
     1
 10
40.78789288388603
 20
-30.64093701897838
 11
40.78789288388603
 21
-27.58712749516729
 72
     1
 10
40.78789288388603
 20
-27.58712749516729
 11
42.02839729413896
 21
-27.58712749516729
 72
     1
 10
42.02839729413896
 20
-27.58712749516729
 11
42.02839729413896
 21
-30.64093701897838
 97
        4
330
1D4
330
1D6
330
226
330
1D5
 75
     1
 76
     2
 52
45.0
 41
0.1
 77
     0
 78
     1
 53
45.0
 43
62.7811309658083
 44
-72.3161373035813
 45
-0.1414213562373095
 46
0.0
 79
     0
 98
        1
 10
0.0
 20
0.0
  0
HATCH
  5
2EB
330
A0
100
AcDbEntity
  8
1
  6
Continuous
 62
     2
100
AcDbHatch
 10
0.0
 20
0.0
 30
0.0
210
0.0
220
0.0
230
1.0
  2
CUSTOM12
 70
     0
 71
     1
 91
        1
 92
        1
 93
       12
 72
     1
 10
46.25088345980976
 20
-27.58712749516729
 11
44.94835382904316
 21
-29.0600780252035
 72
     1
 10
44.94835382904316
 20
-29.0600780252035
 11
46.34630687598343
 21
-30.64093701897838
 72
     1
 10
46.34630687598343
 20
-30.64093701897838
 11
44.94358265823513
 21
-30.64093701897838
 72
     1
 10
44.94358265823513
 20
-30.64093701897838
 11
44.24699172016975
 21
-29.85320523368466
 72
     1
 10
44.24699172016975
 20
-29.85320523368466
 11
43.55040078210394
 21
-30.64093701897838
 72
     1
 10
43.55040078210394
 20
-30.64093701897838
 11
42.14767656435583
 21
-30.64093701897838
 72
     1
 10
42.14767656435583
 20
-30.64093701897838
 11
43.54562961129614
 21
-29.0600780252035
 72
     1
 10
43.54562961129614
 20
-29.0600780252035
 11
42.24309998052866
 21
-27.58712749516729
 72
     1
 10
42.24309998052866
 20
-27.58712749516729
 11
43.64582419827784
 21
-27.58712749516729
 72
     1
 10
43.64582419827784
 20
-27.58712749516729
 11
44.24699172016975
 21
-28.26695081672278
 72
     1
 10
44.24699172016975
 20
-28.26695081672278
 11
44.84815924206254
 21
-27.58712749516729
 72
     1
 10
44.84815924206254
 20
-27.58712749516729
 11
46.25088345980976
 21
-27.58712749516729
 97
       12
330
1CF
330
1CE
330
1CD
330
22A
330
22B
330
227
330
228
330
1D3
330
1D2
330
1D1
330
1D0
330
229
 75
     1
 76
     2
 52
45.0
 41
0.1
 77
     0
 78
     1
 53
45.0
 43
62.7811309658083
 44
-72.3161373035813
 45
-0.1414213562373095
 46
0.0
 79
     0
 98
        1
 10
0.0
 20
0.0
  0
HATCH
  5
2EC
330
A0
100
AcDbEntity
  8
1
  6
Continuous
 62
     2
100
AcDbHatch
 10
0.0
 20
0.0
 30
0.0
210
0.0
220
0.0
230
1.0
  2
CUSTOM13
 70
     0
 71
     1
 91
        1
 92
        1
 93
       12
 72
     1
 10
46.25088345980976
 20
-27.58712749516729
 11
44.94835382904316
 21
-29.0600780252035
 72
     1
 10
44.94835382904316
 20
-29.0600780252035
 11
46.34630687598343
 21
-30.64093701897838
 72
     1
 10
46.34630687598343
 20
-30.64093701897838
 11
44.94358265823513
 21
-30.64093701897838
 72
     1
 10
44.94358265823513
 20
-30.64093701897838
 11
44.24699172016975
 21
-29.85320523368466
 72
     1
 10
44.24699172016975
 20
-29.85320523368466
 11
43.55040078210394
 21
-30.64093701897838
 72
     1
 10
43.55040078210394
 20
-30.64093701897838
 11
42.14767656435583
 21
-30.64093701897838
 72
     1
 10
42.14767656435583
 20
-30.64093701897838
 11
43.54562961129614
 21
-29.0600780252035
 72
     1
 10
43.54562961129614
 20
-29.0600780252035
 11
42.24309998052866
 21
-27.58712749516729
 72
     1
 10
42.24309998052866
 20
-27.58712749516729
 11
43.64582419827784
 21
-27.58712749516729
 72
     1
 10
43.64582419827784
 20
-27.58712749516729
 11
44.24699172016975
 21
-28.26695081672278
 72
     1
 10
44.24699172016975
 20
-28.26695081672278
 11
44.84815924206254
 21
-27.58712749516729
 72
     1
 10
44.84815924206254
 20
-27.58712749516729
 11
46.25088345980976
 21
-27.58712749516729
 97
       12
330
1CF
330
1CE
330
1CD
330
22A
330
22B
330
227
330
228
330
1D3
330
1D2
330
1D1
330
1D0
330
229
 75
     1
 76
     2
 52
45.0
 41
0.1
 77
     0
 78
     1
 53
45.0
 43
62.7811309658083
 44
-72.3161373035813
 45
-0.1414213562373095
 46
0.0
 79
     0
 98
        1
 10
0.0
 20
0.0
  0
HATCH
  5
2ED
330
A0
100
AcDbEntity
  8
1
  6
Continuous
 62
     2
100
AcDbHatch
 10
0.0
 20
0.0
 30
0.0
210
0.0
220
0.0
230
1.0
  2
CUSTOM14
 70
     0
 71
     1
 91
        2
 92
        1
 93
        6
 72
     1
 10
27.23314804566374
 20
-29.69785877783465
 11
26.47438045788334
 21
-29.69785877783465
 72
     1
 10
26.47438045788334
 20
-29.69785877783465
 11
26.47438045788334
 21
-30.64093701897838
 72
     1
 10
26.47438045788334
 20
-30.64093701897838
 11
25.23387604762934
 21
-30.64093701897838
 72
     1
 10
25.23387604762934
 20
-30.64093701897838
 11
25.23387604762934
 21
-27.58712749516729
 72
     1
 10
25.23387604762934
 20
-27.58712749516729
 11
27.23314804566374
 21
-27.58712749516729
 72
     2
 10
27.23314804566374
 20
-28.642493136501
 40
1.055365641333651
 50
270.0
 51
450.0
 73
     0
 97
        6
330
1F7
330
1F6
330
203
330
202
330
1F8
330
289
 92
       16
 93
        4
 72
     2
 10
26.79167551942535
 20
-28.60309716527848
 40
0.3528638246710898
 50
270.0
 51
450.0
 73
     1
 72
     1
 10
26.79167551942535
 20
-28.25023334060728
 11
26.47438045788334
 21
-28.25023334060728
 72
     1
 10
26.47438045788334
 20
-28.25023334060728
 11
26.47438045788334
 21
-28.95596098994957
 72
     1
 10
26.47438045788334
 20
-28.95596098994957
 11
26.79167551942535
 21
-28.95596098994957
 97
        4
330
29D
330
1F4
330
204
330
1F5
 75
     1
 76
     2
 52
45.0
 41
0.1
 77
     0
 78
     1
 53
45.0
 43
62.7811309658083
 44
-72.3161373035813
 45
-0.1414213562373095
 46
0.0
 79
     0
 98
        1
 10
0.0
 20
0.0
  0
HATCH
  5
2EE
330
A0
100
AcDbEntity
  8
1
  6
Continuous
 62
     2
100
AcDbHatch
 10
0.0
 20
0.0
 30
0.0
210
0.0
220
0.0
230
1.0
  2
CUSTOM15
 70
     0
 71
     1
 91
        2
 92
        1
 93
        6
 72
     1
 10
27.23314804566374
 20
-29.69785877783465
 11
26.47438045788334
 21
-29.69785877783465
 72
     1
 10
26.47438045788334
 20
-29.69785877783465
 11
26.47438045788334
 21
-30.64093701897838
 72
     1
 10
26.47438045788334
 20
-30.64093701897838
 11
25.23387604762934
 21
-30.64093701897838
 72
     1
 10
25.23387604762934
 20
-30.64093701897838
 11
25.23387604762934
 21
-27.58712749516729
 72
     1
 10
25.23387604762934
 20
-27.58712749516729
 11
27.23314804566374
 21
-27.58712749516729
 72
     2
 10
27.23314804566374
 20
-28.642493136501
 40
1.055365641333651
 50
270.0
 51
450.0
 73
     0
 97
        6
330
1F7
330
1F6
330
203
330
202
330
1F8
330
289
 92
       16
 93
        4
 72
     2
 10
26.79167551942535
 20
-28.60309716527848
 40
0.3528638246710898
 50
270.0
 51
450.0
 73
     1
 72
     1
 10
26.79167551942535
 20
-28.25023334060728
 11
26.47438045788334
 21
-28.25023334060728
 72
     1
 10
26.47438045788334
 20
-28.25023334060728
 11
26.47438045788334
 21
-28.95596098994957
 72
     1
 10
26.47438045788334
 20
-28.95596098994957
 11
26.79167551942535
 21
-28.95596098994957
 97
        4
330
29D
330
1F4
330
204
330
1F5
 75
     1
 76
     2
 52
45.0
 41
0.1
 77
     0
 78
     1
 53
45.0
 43
62.7811309658083
 44
-72.3161373035813
 45
-0.1414213562373095
 46
0.0
 79
     0
 98
        1
 10
0.0
 20
0.0
  0
HATCH
  5
2EF
330
A0
100
AcDbEntity
  8
1
  6
Continuous
 62
     2
100
AcDbHatch
 10
0.0
 20
0.0
 30
0.0
210
0.0
220
0.0
230
1.0
  2
CUSTOM16
 70
     0
 71
     1
 91
        2
 92
        1
 93
        4
 72
     2
 10
29.78969079402285
 20
-33.01179774355029
 40
2.065479772208689
 50
62.45185182430824
 51
117.5481481756674
 73
     1
 72
     2
 10
29.50875090218943
 20
-32.4732227332475
 40
1.458034083651616
 50
117.5481481756595
 51
242.4518518243371
 73
     1
 72
     2
 10
29.78969079402285
 20
-31.93464772294408
 40
2.065479772208634
 50
242.4518518243384
 51
297.5481481756859
 73
     1
 72
     2
 10
30.07063068585603
 20
-32.4732227332475
 40
1.458034083652024
 50
297.5481481757057
 51
422.4518518242976
 73
     1
 97
        4
330
295
330
294
330
296
330
293
 92
       16
 93
        4
 72
     2
 10
29.58995075767643
 20
-32.4732227332475
 40
0.7717997786795335
 50
321.8795802028437
 51
398.120419797167
 73
     1
 72
     2
 10
29.78969079402285
 20
-32.31649155512696
 40
0.5179085730132779
 50
38.12041979716494
 51
141.8795802028569
 73
     1
 72
     2
 10
29.98943083036883
 20
-32.4732227332475
 40
0.7717997786795526
 50
141.8795802028274
 51
218.1204197971618
 73
     1
 72
     2
 10
29.78969079402285
 20
-32.62995391136735
 40
0.5179085730138452
 50
218.1204197971876
 51
321.8795802027906
 73
     1
 97
        4
330
2B1
330
2AE
330
2AF
330
2B0
 75
     1
 76
     2
 52
45.0
 41
0.1
 77
     0
 78
     1
 53
45.0
 43
62.7811309658083
 44
-72.3161373035813
 45
-0.1414213562373095
 46
0.0
 79
     0
 98
        1
 10
0.0
 20
0.0
  0
HATCH
  5
2F0
330
A0
100
AcDbEntity
  8
1
  6
Continuous
 62
     2
100
AcDbHatch
 10
0.0
 20
0.0
 30
0.0
210
0.0
220
0.0
230
1.0
  2
CUSTOM17
 70
     0
 71
     1
 91
        2
 92
        1
 93
        4
 72
     2
 10
29.78969079402285
 20
-33.01179774355029
 40
2.065479772208689
 50
62.45185182430824
 51
117.5481481756674
 73
     1
 72
     2
 10
29.50875090218943
 20
-32.4732227332475
 40
1.458034083651616
 50
117.5481481756595
 51
242.4518518243371
 73
     1
 72
     2
 10
29.78969079402285
 20
-31.93464772294408
 40
2.065479772208634
 50
242.4518518243384
 51
297.5481481756859
 73
     1
 72
     2
 10
30.07063068585603
 20
-32.4732227332475
 40
1.458034083652024
 50
297.5481481757057
 51
422.4518518242976
 73
     1
 97
        4
330
295
330
294
330
296
330
293
 92
       16
 93
        4
 72
     2
 10
29.58995075767643
 20
-32.4732227332475
 40
0.7717997786795335
 50
321.8795802028437
 51
398.120419797167
 73
     1
 72
     2
 10
29.78969079402285
 20
-32.31649155512696
 40
0.5179085730132779
 50
38.12041979716494
 51
141.8795802028569
 73
     1
 72
     2
 10
29.98943083036883
 20
-32.4732227332475
 40
0.7717997786795526
 50
141.8795802028274
 51
218.1204197971618
 73
     1
 72
     2
 10
29.78969079402285
 20
-32.62995391136735
 40
0.5179085730138452
 50
218.1204197971876
 51
321.8795802027906
 73
     1
 97
        4
330
2B1
330
2AE
330
2AF
330
2B0
 75
     1
 76
     2
 52
45.0
 41
0.1
 77
     0
 78
     1
 53
45.0
 43
62.7811309658083
 44
-72.3161373035813
 45
-0.1414213562373095
 46
0.0
 79
     0
 98
        1
 10
0.0
 20
0.0
  0
HATCH
  5
2F1
330
A0
100
AcDbEntity
  8
1
  6
Continuous
 62
     2
100
AcDbHatch
 10
0.0
 20
0.0
 30
0.0
210
0.0
220
0.0
230
1.0
  2
CUSTOM18
 70
     0
 71
     1
 91
        2
 92
        1
 93
       12
 72
     1
 10
36.68468598843205
 20
-28.28514110061019
 11
35.34875816200443
 21
-28.28514110061019
 72
     1
 10
35.34875816200443
 20
-28.28514110061019
 11
35.34875816200443
 21
-28.76502545435187
 72
     1
 10
35.34875816200443
 20
-28.76502545435187
 11
36.68468598843205
 21
-28.76502545435187
 72
     1
 10
36.68468598843205
 20
-28.76502545435187
 11
36.68468598843205
 21
-29.46303905979426
 72
     1
 10
36.68468598843205
 20
-29.46303905979426
 11
35.34875816200443
 21
-29.46303905979426
 72
     1
 10
35.34875816200443
 20
-29.46303905979426
 11
35.34875816200443
 21
-29.94292341353599
 72
     1
 10
35.34875816200443
 20
-29.94292341353599
 11
36.68468598843205
 21
-29.94292341353599
 72
     1
 10
36.68468598843205
 20
-29.94292341353599
 11
36.68468598843205
 21
-30.64093701897838
 72
     1
 10
36.68468598843205
 20
-30.64093701897838
 11
33.53436626465114
 21
-30.64093701897838
 72
     2
 10
33.53436626465114
 20
-29.11403225707306
 40
1.526904761905769
 50
90.0
 51
270.0
 73
     0
 72
     1
 10
33.53436626465114
 20
-27.58712749516729
 11
36.68468598843205
 21
-27.58712749516729
 72
     1
 10
36.68468598843205
 20
-27.58712749516729
 11
36.68468598843205
 21
-28.28514110061019
 97
       12
330
20B
330
29E
330
20C
330
20D
330
20E
330
20F
330
1EC
330
1EB
330
1EA
330
1E9
330
210
330
20A
 92
       16
 93
        4
 72
     2
 10
33.75063827481634
 20
-28.95730107895258
 40
0.5179085730133626
 50
38.12041979714059
 51
141.8795802028672
 73
     1
 72
     2
 10
33.95037831116255
 20
-29.11403225707306
 40
0.7717997786796202
 50
141.8795802028488
 51
218.1204197971553
 73
     1
 72
     2
 10
33.75063827481634
 20
-29.2707634351936
 40
0.5179085730134586
 50
218.1204197971337
 51
321.8795802028584
 73
     1
 72
     2
 10
33.55089823847015
 20
-29.11403225707306
 40
0.7717997786795578
 50
321.8795802028385
 51
398.1204197971574
 73
     1
 97
        4
330
298
330
297
330
292
330
291
 75
     1
 76
     2
 52
45.0
 41
0.1
 77
     0
 78
     1
 53
45.0
 43
62.7811309658083
 44
-72.3161373035813
 45
-0.1414213562373095
 46
0.0
 79
     0
 98
        1
 10
0.0
 20
0.0
  0
HATCH
  5
2F2
330
A0
100
AcDbEntity
  8
1
  6
Continuous
 62
     2
100
AcDbHatch
 10
0.0
 20
0.0
 30
0.0
210
0.0
220
0.0
230
1.0
  2
CUSTOM19
 70
     0
 71
     1
 91
        2
 92
        1
 93
       12
 72
     1
 10
36.68468598843205
 20
-28.28514110061019
 11
35.34875816200443
 21
-28.28514110061019
 72
     1
 10
35.34875816200443
 20
-28.28514110061019
 11
35.34875816200443
 21
-28.76502545435187
 72
     1
 10
35.34875816200443
 20
-28.76502545435187
 11
36.68468598843205
 21
-28.76502545435187
 72
     1
 10
36.68468598843205
 20
-28.76502545435187
 11
36.68468598843205
 21
-29.46303905979426
 72
     1
 10
36.68468598843205
 20
-29.46303905979426
 11
35.34875816200443
 21
-29.46303905979426
 72
     1
 10
35.34875816200443
 20
-29.46303905979426
 11
35.34875816200443
 21
-29.94292341353599
 72
     1
 10
35.34875816200443
 20
-29.94292341353599
 11
36.68468598843205
 21
-29.94292341353599
 72
     1
 10
36.68468598843205
 20
-29.94292341353599
 11
36.68468598843205
 21
-30.64093701897838
 72
     1
 10
36.68468598843205
 20
-30.64093701897838
 11
33.53436626465114
 21
-30.64093701897838
 72
     2
 10
33.53436626465114
 20
-29.11403225707306
 40
1.526904761905769
 50
90.0
 51
270.0
 73
     0
 72
     1
 10
33.53436626465114
 20
-27.58712749516729
 11
36.68468598843205
 21
-27.58712749516729
 72
     1
 10
36.68468598843205
 20
-27.58712749516729
 11
36.68468598843205
 21
-28.28514110061019
 97
       12
330
20B
330
29E
330
20C
330
20D
330
20E
330
20F
330
1EC
330
1EB
330
1EA
330
1E9
330
210
330
20A
 92
       16
 93
        4
 72
     2
 10
33.75063827481634
 20
-28.95730107895258
 40
0.5179085730133626
 50
38.12041979714059
 51
141.8795802028672
 73
     1
 72
     2
 10
33.95037831116255
 20
-29.11403225707306
 40
0.7717997786796202
 50
141.8795802028488
 51
218.1204197971553
 73
     1
 72
     2
 10
33.75063827481634
 20
-29.2707634351936
 40
0.5179085730134586
 50
218.1204197971337
 51
321.8795802028584
 73
     1
 72
     2
 10
33.55089823847015
 20
-29.11403225707306
 40
0.7717997786795578
 50
321.8795802028385
 51
398.1204197971574
 73
     1
 97
        4
330
298
330
297
330
292
330
291
 75
     1
 76
     2
 52
45.0
 41
0.1
 77
     0
 78
     1
 53
45.0
 43
62.7811309658083
 44
-72.3161373035813
 45
-0.1414213562373095
 46
0.0
 79
     0
 98
        1
 10
0.0
 20
0.0
  0
HATCH
  5
2F3
330
A0
100
AcDbEntity
  8
1
  6
Continuous
 62
     2
100
AcDbHatch
 10
0.0
 20
0.0
 30
0.0
210
0.0
220
0.0
230
1.0
  2
CUSTOM20
 70
     0
 71
     1
 91
        4
 92
        1
 93
        8
 72
     1
 10
24.75675896676253
 20
-28.01137211056926
 11
24.75675896676253
 21
-33.5758828797695
 72
     2
 10
24.33251435137865
 20
-33.5758828797695
 40
0.4242446153831949
 50
0.0
 51
90.0
 73
     0
 72
     1
 10
24.33251435137865
 20
-34.0001274951527
 11
18.85920226066173
 21
-34.0001274951527
 72
     2
 10
18.85920226066173
 20
-33.5758828797695
 40
0.4242446153827686
 50
90.0
 51
180.0
 73
     0
 72
     1
 10
18.43495764527896
 20
-33.5758828797695
 11
18.43495764527896
 21
-28.01137211056926
 72
     2
 10
18.85920226066173
 20
-28.01137211056926
 40
0.4242446153838877
 50
180.0
 51
270.0
 73
     0
 72
     1
 10
18.85920226066173
 20
-27.58712749518537
 11
24.33251435137865
 21
-27.58712749518537
 72
     2
 10
24.33251435137865
 20
-28.01137211056926
 40
0.4242446153838806
 50
270.0
 51
360.0
 73
     0
 97
        8
330
1FF
330
28E
330
200
330
299
330
1FD
330
290
330
1FE
330
28F
 92
       16
 93
       12
 72
     2
 10
19.45309693740825
 20
-32.9718550165191
 40
0.3157169230756018
 50
180.0
 51
270.0
 73
     1
 72
     1
 10
19.45309693740825
 20
-33.28757193959581
 11
20.92893019841785
 21
-33.28757193959581
 72
     2
 10
20.92893019841785
 20
-32.9718550165191
 40
0.3157169230767067
 50
270.0
 51
360.0
 73
     1
 72
     1
 10
21.24464712149444
 20
-32.9718550165191
 11
21.24464712149444
 21
-31.44108408498749
 72
     2
 10
20.92893019841785
 20
-31.44108408498749
 40
0.315716923076593
 50
0.0
 51
64.80558935144546
 73
     1
 72
     2
 10
21.45151464599283
 20
-30.33025433892476
 40
0.9118975235576419
 50
115.1944106485086
 51
244.8055893514808
 73
     0
 72
     2
 10
20.92893019841785
 20
-29.2194245928626
 40
0.3157169230760594
 50
295.1944106485677
 51
360.0
 73
     1
 72
     1
 10
21.24464712149444
 20
-29.2194245928626
 11
21.24464712149444
 21
-28.61539997380197
 72
     2
 10
20.92893019841785
 20
-28.61539997380197
 40
0.315716923076593
 50
0.0
 51
90.0
 73
     1
 72
     1
 10
20.92893019841785
 20
-28.29968305072589
 11
19.45309693740825
 21
-28.29968305072589
 72
     2
 10
19.45309693740825
 20
-28.61539997380197
 40
0.3157169230760815
 50
90.0
 51
180.0
 73
     1
 72
     1
 10
19.13738001433265
 20
-28.61539997380197
 11
19.13738001433265
 21
-32.9718550165191
 97
       12
330
28A
330
201
330
28D
330
1FC
330
29A
330
29B
330
28C
330
1FB
330
28B
330
1FA
330
29C
330
1F9
 92
       16
 93
        8
 72
     2
 10
22.02864562394004
 20
-31.43939593889309
 40
0.3157169230765343
 50
115.3740086783524
 51
180.0
 73
     1
 72
     1
 10
21.71292870086325
 20
-31.43939593889309
 11
21.71292870086325
 21
-32.02124734558817
 72
     2
 10
22.02864562394004
 20
-32.02124734558817
 40
0.3157169230767884
 50
180.0
 51
269.8110329574335
 73
     1
 72
     2
 10
22.03426175925006
 20
-30.31841239801918
 40
2.01856113193327
 50
269.8110329575827
 51
450.1889670424174
 73
     1
 72
     2
 10
22.02864562394004
 20
-28.61557745045019
 40
0.3157169230761815
 50
90.1889670425665
 51
180.0
 73
     1
 72
     1
 10
21.71292870086325
 20
-28.61557745045019
 11
21.71292870086325
 21
-29.221112738957
 72
     2
 10
22.02864562394004
 20
-29.221112738957
 40
0.3157169230767884
 50
180.0
 51
244.6259913216343
 73
     1
 72
     2
 10
21.50260292585213
 20
-30.33025433892476
 40
0.9118481501443972
 50
295.374008678191
 51
424.6259913218198
 73
     0
 97
        8
330
2A6
330
1C6
330
2A3
330
2A4
330
282
330
1C5
330
2A5
330
281
 92
       16
 93
        1
 72
     2
 10
21.47878791117935
 20
-30.33025433892476
 40
0.470978932778479
 50
0.0
 51
360.0
 73
     1
 97
        1
330
2B4
 75
     1
 76
     2
 52
45.0
 41
0.1
 77
     0
 78
     1
 53
45.0
 43
62.7811309658083
 44
-72.3161373035813
 45
-0.1414213562373095
 46
0.0
 79
     0
 98
        1
 10
0.0
 20
0.0
  0
HATCH
  5
2F4
330
A0
100
AcDbEntity
  8
1
  6
Continuous
 62
     2
100
AcDbHatch
 10
0.0
 20
0.0
 30
0.0
210
0.0
220
0.0
230
1.0
  2
CUSTOM21
 70
     0
 71
     1
 91
        4
 92
        1
 93
        8
 72
     1
 10
24.75675896676253
 20
-28.01137211056926
 11
24.75675896676253
 21
-33.5758828797695
 72
     2
 10
24.33251435137865
 20
-33.5758828797695
 40
0.4242446153831949
 50
0.0
 51
90.0
 73
     0
 72
     1
 10
24.33251435137865
 20
-34.0001274951527
 11
18.85920226066173
 21
-34.0001274951527
 72
     2
 10
18.85920226066173
 20
-33.5758828797695
 40
0.4242446153827686
 50
90.0
 51
180.0
 73
     0
 72
     1
 10
18.43495764527896
 20
-33.5758828797695
 11
18.43495764527896
 21
-28.01137211056926
 72
     2
 10
18.85920226066173
 20
-28.01137211056926
 40
0.4242446153838877
 50
180.0
 51
270.0
 73
     0
 72
     1
 10
18.85920226066173
 20
-27.58712749518537
 11
24.33251435137865
 21
-27.58712749518537
 72
     2
 10
24.33251435137865
 20
-28.01137211056926
 40
0.4242446153838806
 50
270.0
 51
360.0
 73
     0
 97
        8
330
1FF
330
28E
330
200
330
299
330
1FD
330
290
330
1FE
330
28F
 92
       16
 93
       12
 72
     2
 10
19.45309693740825
 20
-32.9718550165191
 40
0.3157169230756018
 50
180.0
 51
270.0
 73
     1
 72
     1
 10
19.45309693740825
 20
-33.28757193959581
 11
20.92893019841785
 21
-33.28757193959581
 72
     2
 10
20.92893019841785
 20
-32.9718550165191
 40
0.3157169230767067
 50
270.0
 51
360.0
 73
     1
 72
     1
 10
21.24464712149444
 20
-32.9718550165191
 11
21.24464712149444
 21
-31.44108408498749
 72
     2
 10
20.92893019841785
 20
-31.44108408498749
 40
0.315716923076593
 50
0.0
 51
64.80558935144546
 73
     1
 72
     2
 10
21.45151464599283
 20
-30.33025433892476
 40
0.9118975235576419
 50
115.1944106485086
 51
244.8055893514808
 73
     0
 72
     2
 10
20.92893019841785
 20
-29.2194245928626
 40
0.3157169230760594
 50
295.1944106485677
 51
360.0
 73
     1
 72
     1
 10
21.24464712149444
 20
-29.2194245928626
 11
21.24464712149444
 21
-28.61539997380197
 72
     2
 10
20.92893019841785
 20
-28.61539997380197
 40
0.315716923076593
 50
0.0
 51
90.0
 73
     1
 72
     1
 10
20.92893019841785
 20
-28.29968305072589
 11
19.45309693740825
 21
-28.29968305072589
 72
     2
 10
19.45309693740825
 20
-28.61539997380197
 40
0.3157169230760815
 50
90.0
 51
180.0
 73
     1
 72
     1
 10
19.13738001433265
 20
-28.61539997380197
 11
19.13738001433265
 21
-32.9718550165191
 97
       12
330
28A
330
201
330
28D
330
1FC
330
29A
330
29B
330
28C
330
1FB
330
28B
330
1FA
330
29C
330
1F9
 92
       16
 93
        8
 72
     2
 10
22.02864562394004
 20
-31.43939593889309
 40
0.3157169230765343
 50
115.3740086783524
 51
180.0
 73
     1
 72
     1
 10
21.71292870086325
 20
-31.43939593889309
 11
21.71292870086325
 21
-32.02124734558817
 72
     2
 10
22.02864562394004
 20
-32.02124734558817
 40
0.3157169230767884
 50
180.0
 51
269.8110329574335
 73
     1
 72
     2
 10
22.03426175925006
 20
-30.31841239801918
 40
2.01856113193327
 50
269.8110329575827
 51
450.1889670424174
 73
     1
 72
     2
 10
22.02864562394004
 20
-28.61557745045019
 40
0.3157169230761815
 50
90.1889670425665
 51
180.0
 73
     1
 72
     1
 10
21.71292870086325
 20
-28.61557745045019
 11
21.71292870086325
 21
-29.221112738957
 72
     2
 10
22.02864562394004
 20
-29.221112738957
 40
0.3157169230767884
 50
180.0
 51
244.6259913216343
 73
     1
 72
     2
 10
21.50260292585213
 20
-30.33025433892476
 40
0.9118481501443972
 50
295.374008678191
 51
424.6259913218198
 73
     0
 97
        8
330
2A6
330
1C6
330
2A3
330
2A4
330
282
330
1C5
330
2A5
330
281
 92
       16
 93
        1
 72
     2
 10
21.47878791117935
 20
-30.33025433892476
 40
0.470978932778479
 50
0.0
 51
360.0
 73
     1
 97
        1
330
2B4
 75
     1
 76
     2
 52
45.0
 41
0.1
 77
     0
 78
     1
 53
45.0
 43
62.7811309658083
 44
-72.3161373035813
 45
-0.1414213562373095
 46
0.0
 79
     0
 98
        1
 10
0.0
 20
0.0
  0
HATCH
  5
2F5
330
A0
100
AcDbEntity
  8
1
  6
Continuous
 62
     2
100
AcDbHatch
 10
0.0
 20
0.0
 30
0.0
210
0.0
220
0.0
230
1.0
  2
CUSTOM22
 70
     0
 71
     1
 91
        1
 92
        1
 93
       18
 72
     1
 10
46.34630687598343
 20
-31.73158327746529
 11
45.53520783851005
 21
-31.73158327746529
 72
     1
 10
45.53520783851005
 20
-31.73158327746529
 11
45.53520783851005
 21
-34.0001274951527
 72
     1
 10
45.53520783851005
 20
-34.0001274951527
 11
44.34241513634234
 21
-34.0001274951527
 72
     1
 10
44.34241513634234
 20
-34.0001274951527
 11
44.34241513634234
 21
-31.73158327746529
 72
     1
 10
44.34241513634234
 20
-31.73158327746529
 11
43.23877583677424
 21
-31.73158327746529
 72
     2
 10
43.23877583677424
 20
-32.68610628429138
 40
0.9545230068260864
 50
90.0
 51
109.337143219428
 73
     1
 72
     2
 10
43.09210583867053
 20
-32.26815130390838
 40
0.5115800601943968
 50
109.3371432194809
 51
151.4785267424174
 73
     1
 72
     2
 10
43.46946309675204
 20
-32.4732227332475
 40
0.9410597353350324
 50
151.4785267423567
 51
208.5214732576672
 73
     1
 72
     2
 10
43.09210583867053
 20
-32.67829416258599
 40
0.5115800601959841
 50
208.5214732576889
 51
246.6277221118403
 73
     1
 72
     2
 10
43.24854587137375
 20
-32.31630214387599
 40
0.9059297849852208
 50
246.6277221118088
 51
288.4480761180778
 73
     1
 72
     2
 10
42.83037813771173
 20
-31.06275636783926
 40
2.227384008972765
 50
288.4480761181335
 51
301.9309089499395
 73
     1
 72
     1
 10
44.00843317973565
 20
-32.95310708698906
 11
44.00843317973565
 21
-33.82562409379239
 72
     2
 10
42.67250526261896
 20
-29.16054178799095
 40
4.852596863498889
 50
74.0200087416618
 51
84.84185523036268
 73
     0
 72
     2
 10
42.96136135735483
 20
-32.3604323712126
 40
1.639695123940503
 50
84.84185523032254
 51
164.9381082228993
 73
     0
 72
     2
 10
42.54223351389314
 20
-32.4732227332475
 40
1.205656168392979
 50
164.9381082229076
 51
195.0618917770982
 73
     0
 72
     2
 10
42.96136135735483
 20
-32.58601309528228
 40
1.639695123940104
 50
195.061891777101
 51
270.0
 73
     0
 72
     1
 10
42.96136135735483
 20
-30.94631797134218
 11
46.34630687598343
 21
-30.94631797134156
 72
     1
 10
46.34630687598343
 20
-30.94631797134156
 11
46.34630687598343
 21
-31.73158327746529
 97
       18
330
1C8
330
29F
330
2A0
330
288
330
287
330
22C
330
286
330
285
330
2A1
330
284
330
2A2
330
283
330
22D
330
1C7
330
1CC
330
1CB
330
1CA
330
1C9
 75
     1
 76
     2
 52
45.0
 41
0.1
 77
     0
 78
     1
 53
45.0
 43
62.7811309658083
 44
-72.3161373035813
 45
-0.1414213562373095
 46
0.0
 79
     0
 98
        1
 10
0.0
 20
0.0
  0
HATCH
  5
2F6
330
A0
100
AcDbEntity
  8
1
  6
Continuous
 62
     2
100
AcDbHatch
 10
0.0
 20
0.0
 30
0.0
210
0.0
220
0.0
230
1.0
  2
CUSTOM23
 70
     0
 71
     1
 91
        1
 92
        1
 93
       18
 72
     1
 10
46.34630687598343
 20
-31.73158327746529
 11
45.53520783851005
 21
-31.73158327746529
 72
     1
 10
45.53520783851005
 20
-31.73158327746529
 11
45.53520783851005
 21
-34.0001274951527
 72
     1
 10
45.53520783851005
 20
-34.0001274951527
 11
44.34241513634234
 21
-34.0001274951527
 72
     1
 10
44.34241513634234
 20
-34.0001274951527
 11
44.34241513634234
 21
-31.73158327746529
 72
     1
 10
44.34241513634234
 20
-31.73158327746529
 11
43.23877583677424
 21
-31.73158327746529
 72
     2
 10
43.23877583677424
 20
-32.68610628429138
 40
0.9545230068260864
 50
90.0
 51
109.337143219428
 73
     1
 72
     2
 10
43.09210583867053
 20
-32.26815130390838
 40
0.5115800601943968
 50
109.3371432194809
 51
151.4785267424174
 73
     1
 72
     2
 10
43.46946309675204
 20
-32.4732227332475
 40
0.9410597353350324
 50
151.4785267423567
 51
208.5214732576672
 73
     1
 72
     2
 10
43.09210583867053
 20
-32.67829416258599
 40
0.5115800601959841
 50
208.5214732576889
 51
246.6277221118403
 73
     1
 72
     2
 10
43.24854587137375
 20
-32.31630214387599
 40
0.9059297849852208
 50
246.6277221118088
 51
288.4480761180778
 73
     1
 72
     2
 10
42.83037813771173
 20
-31.06275636783926
 40
2.227384008972765
 50
288.4480761181335
 51
301.9309089499395
 73
     1
 72
     1
 10
44.00843317973565
 20
-32.95310708698906
 11
44.00843317973565
 21
-33.82562409379239
 72
     2
 10
42.67250526261896
 20
-29.16054178799095
 40
4.852596863498889
 50
74.0200087416618
 51
84.84185523036268
 73
     0
 72
     2
 10
42.96136135735483
 20
-32.3604323712126
 40
1.639695123940503
 50
84.84185523032254
 51
164.9381082228993
 73
     0
 72
     2
 10
42.54223351389314
 20
-32.4732227332475
 40
1.205656168392979
 50
164.9381082229076
 51
195.0618917770982
 73
     0
 72
     2
 10
42.96136135735483
 20
-32.58601309528228
 40
1.639695123940104
 50
195.061891777101
 51
270.0
 73
     0
 72
     1
 10
42.96136135735483
 20
-30.94631797134218
 11
46.34630687598343
 21
-30.94631797134156
 72
     1
 10
46.34630687598343
 20
-30.94631797134156
 11
46.34630687598343
 21
-31.73158327746529
 97
       18
330
1C8
330
29F
330
2A0
330
288
330
287
330
22C
330
286
330
285
330
2A1
330
284
330
2A2
330
283
330
22D
330
1C7
330
1CC
330
1CB
330
1CA
330
1C9
 75
     1
 76
     2
 52
45.0
 41
0.1
 77
     0
 78
     1
 53
45.0
 43
62.7811309658083
 44
-72.3161373035813
 45
-0.1414213562373095
 46
0.0
 79
     0
 98
        1
 10
0.0
 20
0.0
  0
HATCH
  5
2F7
330
A0
100
AcDbEntity
  8
1
  6
Continuous
 62
     2
100
AcDbHatch
 10
0.0
 20
0.0
 30
0.0
210
0.0
220
0.0
230
1.0
  2
CUSTOM24
 70
     0
 71
     1
 91
        1
 92
        1
 93
       14
 72
     2
 10
26.85865987810195
 20
-32.58601309528228
 40
1.639695123940499
 50
84.84185523036533
 51
164.9381082228904
 73
     1
 72
     2
 10
26.43953203463914
 20
-32.4732227332475
 40
1.205656168390975
 50
164.9381082228762
 51
195.0618917770942
 73
     1
 72
     2
 10
26.85865987810195
 20
-32.3604323712126
 40
1.639695123939442
 50
195.0618917770919
 51
275.1581447696363
 73
     1
 72
     2
 10
26.56980378336604
 20
-29.16054178799095
 40
4.852596863498279
 50
275.1581447696238
 51
285.9799912583526
 73
     1
 72
     1
 10
27.90573170048384
 20
-33.82562409379187
 11
27.90573170048384
 21
-32.95310708698855
 72
     2
 10
26.72767665845885
 20
-31.0627563678388
 40
2.227384008972718
 50
58.06909105003638
 51
71.55192388186636
 73
     0
 72
     2
 10
27.14584439211976
 20
-32.31630214387599
 40
0.9059297849848276
 50
71.55192388184626
 51
113.3722778881337
 73
     0
 72
     2
 10
26.98940435941765
 20
-32.67829416258599
 40
0.5115800601947488
 50
113.3722778881725
 51
151.4785267423165
 73
     0
 72
     2
 10
27.36676161749804
 20
-32.4732227332475
 40
0.9410597353333263
 50
151.4785267423031
 51
208.5214732577307
 73
     0
 72
     2
 10
26.98940435941765
 20
-32.26815130390838
 40
0.5115800601948339
 50
208.5214732576835
 51
246.6277221118052
 73
     0
 72
     2
 10
27.14584439211976
 20
-32.63014332261901
 40
0.905929784985352
 50
246.6277221118694
 51
288.44807611814
 73
     0
 72
     2
 10
26.72767665845885
 20
-33.88368909865557
 40
2.227384008973466
 50
288.4480761181331
 51
301.9309089499628
 73
     0
 72
     1
 10
27.90573170048384
 20
-31.99333837950576
 11
27.90573170048384
 21
-31.12082137270249
 72
     2
 10
26.56980378336604
 20
-35.7859036785033
 40
4.85259686349799
 50
74.02000874164712
 51
84.84185523037604
 73
     1
 97
       14
330
2A7
330
2A8
330
2A9
330
2AA
330
22E
330
280
330
27F
330
27E
330
2AB
330
2AC
330
27D
330
2AD
330
22F
330
27C
 75
     1
 76
     2
 52
45.0
 41
0.1
 77
     0
 78
     1
 53
45.0
 43
62.7811309658083
 44
-72.3161373035813
 45
-0.1414213562373095
 46
0.0
 79
     0
 98
        1
 10
0.0
 20
0.0
  0
HATCH
  5
2F8
330
A0
100
AcDbEntity
  8
1
  6
Continuous
 62
     2
100
AcDbHatch
 10
0.0
 20
0.0
 30
0.0
210
0.0
220
0.0
230
1.0
  2
CUSTOM25
 70
     0
 71
     1
 91
        1
 92
        1
 93
       14
 72
     2
 10
26.85865987810195
 20
-32.58601309528228
 40
1.639695123940499
 50
84.84185523036533
 51
164.9381082228904
 73
     1
 72
     2
 10
26.43953203463914
 20
-32.4732227332475
 40
1.205656168390975
 50
164.9381082228762
 51
195.0618917770942
 73
     1
 72
     2
 10
26.85865987810195
 20
-32.3604323712126
 40
1.639695123939442
 50
195.0618917770919
 51
275.1581447696363
 73
     1
 72
     2
 10
26.56980378336604
 20
-29.16054178799095
 40
4.852596863498279
 50
275.1581447696238
 51
285.9799912583526
 73
     1
 72
     1
 10
27.90573170048384
 20
-33.82562409379187
 11
27.90573170048384
 21
-32.95310708698855
 72
     2
 10
26.72767665845885
 20
-31.0627563678388
 40
2.227384008972718
 50
58.06909105003638
 51
71.55192388186636
 73
     0
 72
     2
 10
27.14584439211976
 20
-32.31630214387599
 40
0.9059297849848276
 50
71.55192388184626
 51
113.3722778881337
 73
     0
 72
     2
 10
26.98940435941765
 20
-32.67829416258599
 40
0.5115800601947488
 50
113.3722778881725
 51
151.4785267423165
 73
     0
 72
     2
 10
27.36676161749804
 20
-32.4732227332475
 40
0.9410597353333263
 50
151.4785267423031
 51
208.5214732577307
 73
     0
 72
     2
 10
26.98940435941765
 20
-32.26815130390838
 40
0.5115800601948339
 50
208.5214732576835
 51
246.6277221118052
 73
     0
 72
     2
 10
27.14584439211976
 20
-32.63014332261901
 40
0.905929784985352
 50
246.6277221118694
 51
288.44807611814
 73
     0
 72
     2
 10
26.72767665845885
 20
-33.88368909865557
 40
2.227384008973466
 50
288.4480761181331
 51
301.9309089499628
 73
     0
 72
     1
 10
27.90573170048384
 20
-31.99333837950576
 11
27.90573170048384
 21
-31.12082137270249
 72
     2
 10
26.56980378336604
 20
-35.7859036785033
 40
4.85259686349799
 50
74.02000874164712
 51
84.84185523037604
 73
     1
 97
       14
330
2A7
330
2A8
330
2A9
330
2AA
330
22E
330
280
330
27F
330
27E
330
2AB
330
2AC
330
27D
330
2AD
330
22F
330
27C
 75
     1
 76
     2
 52
45.0
 41
0.1
 77
     0
 78
     1
 53
45.0
 43
62.7811309658083
 44
-72.3161373035813
 45
-0.1414213562373095
 46
0.0
 79
     0
 98
        1
 10
0.0
 20
0.0
  0
ENDBLK
  5
A2
330
A0
100
AcDbEntity
  8
0
100
AcDbBlockEnd
  0
BLOCK
  5
A4
330
A3
100
AcDbEntity
  8
0
100
AcDbBlockBegin
  2
_punkt
 70
     0
 10
143.7431072854663
 20
-41.29362749516901
 30
0.0
  3
_punkt
  1

  0
LINE
  5
2F9
330
A3
100
AcDbEntity
  8
1
  6
Continuous
 62
     2
100
AcDbLine
 10
143.7431072854664
 20
-41.29362749516901
 30
0.0
 11
148.743107285464
 21
-41.29362749516901
 31
0.0
  0
LINE
  5
2FA
330
A3
100
AcDbEntity
  8
1
  6
Continuous
 62
     2
100
AcDbLine
 10
143.7431072854664
 20
-41.29362749516901
 30
0.0
 11
143.7431072854664
 21
-46.29362749516849
 31
0.0
  0
ENDBLK
  5
A5
330
A3
100
AcDbEntity
  8
0
100
AcDbBlockEnd
  0
BLOCK
  5
A9
330
A6
100
AcDbEntity
  8
0
100
AcDbBlockBegin
  2
A3I_CS
 70
     0
 10
143.7431072854664
 20
-46.29362749516849
 30
0.0
  3
A3I_CS
  1

  0
INSERT
  5
A7
330
A6
100
AcDbEntity
  8
1
100
AcDbBlockReference
  2
_rahmen
 10
143.7431072854664
 20
-46.29362749516849
 30
0.0
  0
INSERT
  5
A8
330
A6
100
AcDbEntity
  8
1
100
AcDbBlockReference
  2
_punkt
 10
143.7431072854663
 20
-41.29362749516901
 30
0.0
  0
ENDBLK
  5
AA
330
A6
100
AcDbEntity
  8
0
100
AcDbBlockEnd
  0
BLOCK
  5
B3
330
AB
100
AcDbEntity
  8
0
100
AcDbBlockBegin
  2
1
 70
     0
 10
0.0
 20
0.0
 30
0.0
  3
1
  1

  0
INSERT
  5
AC
330
AB
100
AcDbEntity
  8
0
100
AcDbBlockReference
  2
AllgSicht1
 10
107.0000000000203
 20
26.99999999988814
 30
0.0
 41
2.0
 42
2.0
 43
2.0
  0
INSERT
  5
AD
330
AB
100
AcDbEntity
  8
0
100
AcDbBlockReference
  2
Drfsicht1
 10
-89.74999999999314
 20
82.99999904624808
 30
0.0
 41
2.0
 42
2.0
 43
2.0
  0
INSERT
  5
AE
330
AB
100
AcDbEntity
  8
0
100
AcDbBlockReference
  2
Rckans1
 10
56.74999999999278
 20
178.9999999999182
 30
0.0
 41
2.0
 42
2.0
 43
2.0
  0
INSERT
  5
AF
330
AB
100
AcDbEntity
  8
0
100
AcDbBlockReference
  2
SA_Links1
 10
-16.52431348563176
 20
178.9999999998362
 30
0.0
 41
2.0
 42
2.0
 43
2.0
  0
INSERT
  5
B0
330
AB
100
AcDbEntity
  8
0
100
AcDbBlockReference
  2
SA_Rechts1
 10
-173.499999999986
 20
178.9999999999182
 30
0.0
 41
2.0
 42
2.0
 43
2.0
  0
INSERT
  5
B1
330
AB
100
AcDbEntity
  8
0
100
AcDbBlockReference
  2
Vordans1
 10
-89.74999999999314
 20
178.9999999999182
 30
0.0
 41
2.0
 42
2.0
 43
2.0
  0
INSERT
  5
B2
330
AB
100
AcDbEntity
  8
0
100
AcDbBlockReference
  2
A3I_CS
 10
143.7431072854664
 20
-46.29362749516849
 30
0.0
  0
ENDBLK
  5
B4
330
AB
100
AcDbEntity
  8
0
100
AcDbBlockEnd
  0
BLOCK
  5
108
330
101
100
AcDbEntity
  8
0
100
AcDbBlockBegin
  2
*D17
 70
     1
 10
0.0
 20
0.0
 30
0.0
  3
*D17
  1

  0
LINE
  5
102
330
101
100
AcDbEntity
  8
1
  6
Continuous
 62
     2
100
AcDbLine
 10
-58.37499999996261
 20
51.74999861560177
 30
0.0
 11
-58.37499999996261
 21
31.24999861560181
 31
0.0
  0
LINE
  5
103
330
101
100
AcDbEntity
  8
1
  6
Continuous
 62
     2
100
AcDbLine
 10
-47.32499999996401
 20
51.74999861560177
 30
0.0
 11
-59.12499999996261
 21
51.74999861560177
 31
0.0
  0
LINE
  5
104
330
101
100
AcDbEntity
  8
1
  6
Continuous
 62
     2
100
AcDbLine
 10
-39.02499999996399
 20
31.24999861560181
 30
0.0
 11
-59.12499999996261
 21
31.24999861560181
 31
0.0
  0
SOLID
  5
105
330
101
100
AcDbEntity
  8
1
 62
     2
100
AcDbTrace
 10
-58.14460812918467
 20
49.99999861560177
 30
0.0
 11
-58.60539187074055
 21
49.99999861560177
 31
0.0
 12
-58.37499999996261
 22
51.74999861560177
 32
0.0
 13
-58.37499999996261
 23
51.74999861560177
 33
0.0
  0
SOLID
  5
106
330
101
100
AcDbEntity
  8
1
 62
     2
100
AcDbTrace
 10
-58.60539187074055
 20
32.99999861560181
 30
0.0
 11
-58.14460812918467
 21
32.99999861560181
 31
0.0
 12
-58.37499999996261
 22
31.24999861560181
 32
0.0
 13
-58.37499999996261
 23
31.24999861560181
 33
0.0
  0
MTEXT
  5
107
330
101
100
AcDbEntity
  8
1
 62
     3
100
AcDbMText
 10
-59.29999999996261
 20
39.34563178300523
 30
0.0
 40
1.75
 41
0.0
 71
     7
 72
     1
  1
20,5
  7
CONVERTER_11
 11
0.0
 21
1.0
 31
0.0
 73
     1
 44
0.60024009603842
  0
ENDBLK
  5
109
330
101
100
AcDbEntity
  8
0
100
AcDbBlockEnd
  0
BLOCK
  5
19F
330
198
100
AcDbEntity
  8
0
100
AcDbBlockBegin
  2
*D18
 70
     1
 10
0.0
 20
0.0
 30
0.0
  3
*D18
  1

  0
LINE
  5
199
330
198
100
AcDbEntity
  8
1
  6
Continuous
 62
     2
100
AcDbLine
 10
-58.3749999999626
 20
74.74999949698048
 30
0.0
 11
-58.3749999999626
 21
104.2499994969822
 31
0.0
  0
LINE
  5
19A
330
198
100
AcDbEntity
  8
1
  6
Continuous
 62
     2
100
AcDbLine
 10
-46.67884757726307
 20
74.74999949698048
 30
0.0
 11
-59.3749999999626
 21
74.74999949698048
 31
0.0
  0
LINE
  5
19B
330
198
100
AcDbEntity
  8
1
  6
Continuous
 62
     2
100
AcDbLine
 10
-53.3749999999626
 20
104.2499994969822
 30
0.0
 11
-59.3749999999626
 21
104.2499994969822
 31
0.0
  0
SOLID
  5
19C
330
198
100
AcDbEntity
  8
1
 62
     2
100
AcDbTrace
 10
-58.60539187074055
 20
76.49999949698048
 30
0.0
 11
-58.14460812918466
 21
76.49999949698048
 31
0.0
 12
-58.3749999999626
 22
74.74999949698048
 32
0.0
 13
-58.3749999999626
 23
74.74999949698048
 33
0.0
  0
SOLID
  5
19D
330
198
100
AcDbEntity
  8
1
 62
     2
100
AcDbTrace
 10
-58.14460812918466
 20
102.4999994969822
 30
0.0
 11
-58.60539187074055
 21
102.4999994969822
 31
0.0
 12
-58.3749999999626
 22
104.2499994969822
 32
0.0
 13
-58.3749999999626
 23
104.2499994969822
 33
0.0
  0
MTEXT
  5
19E
330
198
100
AcDbEntity
  8
1
 62
     3
100
AcDbMText
 10
-59.5499999999626
 20
86.78420497583302
 30
0.0
 40
1.75
 41
0.0
 71
     7
 72
     1
  1
29,5
  7
CONVERTER_11
 11
0.0
 21
1.0
 31
0.0
 73
     1
 44
0.60024009603842
  0
ENDBLK
  5
1A0
330
198
100
AcDbEntity
  8
0
100
AcDbBlockEnd
  0
BLOCK
  5
1AA
330
1A3
100
AcDbEntity
  8
0
100
AcDbBlockBegin
  2
*D19
 70
     1
 10
0.0
 20
0.0
 30
0.0
  3
*D19
  1

  0
LINE
  5
1A4
330
1A3
100
AcDbEntity
  8
1
  6
Continuous
 62
     2
100
AcDbLine
 10
-36.37499999996901
 20
67.93317255258704
 30
0.0
 11
-53.37499999996895
 21
67.93317255258704
 31
0.0
  0
LINE
  5
1A5
330
1A3
100
AcDbEntity
  8
1
  6
Continuous
 62
     2
100
AcDbLine
 10
-36.37499999996901
 20
77.74999949697805
 30
0.0
 11
-36.37499999996901
 21
66.93317255258704
 31
0.0
  0
LINE
  5
1A6
330
1A3
100
AcDbEntity
  8
1
  6
Continuous
 62
     2
100
AcDbLine
 10
-53.37499999996895
 20
77.7499994969821
 30
0.0
 11
-53.37499999996895
 21
66.93317255258704
 31
0.0
  0
SOLID
  5
1A7
330
1A3
100
AcDbEntity
  8
1
 62
     2
100
AcDbTrace
 10
-38.12499999996901
 20
67.7027806818091
 30
0.0
 11
-38.12499999996901
 21
68.16356442336497
 31
0.0
 12
-36.37499999996901
 22
67.93317255258704
 32
0.0
 13
-36.37499999996901
 23
67.93317255258704
 33
0.0
  0
SOLID
  5
1A8
330
1A3
100
AcDbEntity
  8
1
 62
     2
100
AcDbTrace
 10
-51.62499999996895
 20
68.16356442336497
 30
0.0
 11
-51.62499999996895
 21
67.7027806818091
 31
0.0
 12
-53.37499999996895
 22
67.93317255258704
 32
0.0
 13
-53.37499999996895
 23
67.93317255258704
 33
0.0
  0
MTEXT
  5
1A9
330
1A3
100
AcDbEntity
  8
1
 62
     3
100
AcDbMText
 10
-45.92499999999661
 20
68.93317255258704
 30
0.0
 40
1.75
 41
0.0
 71
     7
 72
     1
  1
17
  7
CONVERTER_11
 11
0.9999999999970619
 21
2.424068405545306E-6
 31
0.0
 73
     1
 44
0.60024009603842
  0
ENDBLK
  5
1AB
330
1A3
100
AcDbEntity
  8
0
100
AcDbBlockEnd
  0
ENDSEC
  0
SECTION
  2
ENTITIES
  0
INSERT
  5
B5
330
1F
100
AcDbEntity
  8
1
100
AcDbBlockReference
  2
1
 10
0.0
 20
0.0
 30
0.0
  0
ENDSEC
  0
SECTION
  2
OBJECTS
  0
DICTIONARY
  5
C
330
0
100
AcDbDictionary
281
     1
  3
ACAD_DETAILVIEWSTYLE
350
340
  3
ACAD_GROUP
350
D
  3
ACAD_LAYOUT
350
1A
  3
ACAD_MATERIAL
350
43
  3
ACAD_MLEADERSTYLE
350
6B
  3
ACAD_MLINESTYLE
350
17
  3
ACAD_PLOTSETTINGS
350
19
  3
ACAD_PLOTSTYLENAME
350
E
  3
ACAD_SCALELIST
350
47
  3
ACAD_SECTIONVIEWSTYLE
350
341
  3
ACAD_TABLESTYLE
350
69
  3
ACAD_VISUALSTYLE
350
2A
  3
ACDB_RECOMPOSE_DATA
350
33D
  3
AcDbVariableDictionary
350
2FD
  0
DICTIONARY
  5
2FB
330
8
100
AcDbDictionary
280
     1
281
     1
  3
ACAD_XREC_ROUNDTRIP
360
2FC
  0
DICTIONARY
  5
340
102
{ACAD_REACTORS
330
C
102
}
330
C
100
AcDbDictionary
281
     1
  0
DICTIONARY
  5
D
102
{ACAD_REACTORS
330
C
102
}
330
C
100
AcDbDictionary
281
     1
  0
DICTIONARY
  5
1A
102
{ACAD_REACTORS
330
C
102
}
330
C
100
AcDbDictionary
281
     1
  3
Layout1
350
1E
  3
Layout2
350
26
  3
Model
350
22
  0
DICTIONARY
  5
43
102
{ACAD_REACTORS
330
C
102
}
330
C
100
AcDbDictionary
281
     1
  3
ByBlock
350
45
  3
ByLayer
350
44
  3
Global
350
46
  0
DICTIONARY
  5
6B
102
{ACAD_REACTORS
330
C
102
}
330
C
100
AcDbDictionary
281
     1
  3
Standard
350
6C
  0
DICTIONARY
  5
17
102
{ACAD_REACTORS
330
C
102
}
330
C
100
AcDbDictionary
281
     1
  3
Standard
350
18
  0
DICTIONARY
  5
19
102
{ACAD_REACTORS
330
C
102
}
330
C
100
AcDbDictionary
281
     1
  0
ACDBDICTIONARYWDFLT
  5
E
102
{ACAD_REACTORS
330
C
102
}
330
C
100
AcDbDictionary
281
     1
  3
Normal
350
F
100
AcDbDictionaryWithDefault
340
F
  0
DICTIONARY
  5
47
102
{ACAD_REACTORS
330
C
102
}
330
C
100
AcDbDictionary
281
     1
  3
A0
350
48
  3
A1
350
49
  3
A2
350
4A
  3
A3
350
4B
  3
A4
350
4C
  3
A5
350
4D
  3
A6
350
4E
  3
A7
350
4F
  3
A8
350
50
  3
A9
350
51
  3
B0
350
52
  3
B1
350
53
  3
B2
350
54
  3
B3
350
55
  3
B4
350
56
  3
B5
350
57
  3
B6
350
58
  3
B7
350
59
  3
B8
350
5A
  3
B9
350
5B
  3
C0
350
5C
  3
C1
350
5D
  3
C2
350
5E
  3
C3
350
5F
  3
C4
350
60
  3
C5
350
61
  3
C6
350
62
  3
C7
350
63
  3
C8
350
64
  3
C9
350
65
  3
D0
350
66
  3
D1
350
67
  3
D2
350
68
  0
DICTIONARY
  5
341
102
{ACAD_REACTORS
330
C
102
}
330
C
100
AcDbDictionary
281
     1
  0
DICTIONARY
  5
69
102
{ACAD_REACTORS
330
C
102
}
330
C
100
AcDbDictionary
281
     1
  3
Standard
350
6A
  0
DICTIONARY
  5
2A
102
{ACAD_REACTORS
330
C
102
}
330
C
100
AcDbDictionary
281
     1
  3
2dWireframe
350
2F
  3
Basic
350
32
  3
Brighten
350
36
  3
ColorChange
350
3A
  3
Conceptual
350
34
  3
Dim
350
35
  3
EdgeColorOff
350
3D
  3
Facepattern
350
39
  3
Flat
350
2B
  3
FlatWithEdges
350
2C
  3
Gouraud
350
2D
  3
GouraudWithEdges
350
2E
  3
Hidden
350
31
  3
JitterOff
350
3B
  3
Linepattern
350
38
  3
OverhangOff
350
3C
  3
Realistic
350
33
  3
Shaded
350
42
  3
Shaded with edges
350
41
  3
Shades of Gray
350
3E
  3
Sketchy
350
3F
  3
Thicken
350
37
  3
Wireframe
350
30
  3
X-Ray
350
40
  0
XRECORD
  5
33D
102
{ACAD_REACTORS
330
C
102
}
330
C
100
AcDbXrecord
280
     1
 90
        1
330
6A
  0
DICTIONARY
  5
2FD
102
{ACAD_REACTORS
330
C
102
}
330
C
100
AcDbDictionary
281
     1
  3
CANNOSCALE
350
2FE
  3
CMLEADERSTYLE
350
33F
  3
CTABLESTYLE
350
33E
  3
MSLTSCALE
350
2FF
  3
XCLIPFRAME
350
300
  0
XRECORD
  5
2FC
102
{ACAD_REACTORS
330
2FB
102
}
330
2FB
100
AcDbXrecord
280
     1
102
VTR_0.000_0.000_1.000_1.000_VISUALSTYLE
340
2F
102
VTR_0.000_0.000_1.000_1.000_GRIDDISPLAY
 70
     3
102
VTR_0.000_0.000_1.000_1.000_GRIDMAJOR
 70
     5
102
VTR_0.000_0.000_1.000_1.000_DEFAULTLIGHTING
280
     1
102
VTR_0.000_0.000_1.000_1.000_DEFAULTLIGHTINGTYPE
 70
     1
102
VTR_0.000_0.000_1.000_1.000_BRIGHTNESS
141
0.0
102
VTR_0.000_0.000_1.000_1.000_CONTRAST
142
0.0
  0
LAYOUT
  5
1E
102
{ACAD_REACTORS
330
1A
102
}
330
1A
100
AcDbPlotSettings
  1

  2
none_device
  4

  6

 40
0.0
 41
0.0
 42
0.0
 43
0.0
 44
0.0
 45
0.0
 46
0.0
 47
0.0
 48
0.0
 49
0.0
140
0.0
141
0.0
142
1.0
143
1.0
 70
   688
 72
     0
 73
     0
 74
     5
  7

 75
    16
 76
     0
 77
     2
 78
   300
147
1.0
148
0.0
149
0.0
100
AcDbLayout
  1
Layout1
 70
     1
 71
     1
 10
0.0
 20
0.0
 11
12.0
 21
9.0
 12
0.0
 22
0.0
 32
0.0
 14
1.00000000000000E+20
 24
1.00000000000000E+20
 34
1.00000000000000E+20
 15
-1.00000000000000E+20
 25
-1.00000000000000E+20
 35
-1.00000000000000E+20
146
0.0
 13
0.0
 23
0.0
 33
0.0
 16
1.0
 26
0.0
 36
0.0
 17
0.0
 27
1.0
 37
0.0
 76
     0
330
1B
  0
LAYOUT
  5
26
102
{ACAD_REACTORS
330
1A
102
}
330
1A
100
AcDbPlotSettings
  1

  2
none_device
  4

  6

 40
0.0
 41
0.0
 42
0.0
 43
0.0
 44
0.0
 45
0.0
 46
0.0
 47
0.0
 48
0.0
 49
0.0
140
0.0
141
0.0
142
1.0
143
1.0
 70
   688
 72
     0
 73
     0
 74
     5
  7

 75
    16
 76
     0
 77
     2
 78
   300
147
1.0
148
0.0
149
0.0
100
AcDbLayout
  1
Layout2
 70
     1
 71
     2
 10
0.0
 20
0.0
 11
0.0
 21
0.0
 12
0.0
 22
0.0
 32
0.0
 14
0.0
 24
0.0
 34
0.0
 15
0.0
 25
0.0
 35
0.0
146
0.0
 13
0.0
 23
0.0
 33
0.0
 16
1.0
 26
0.0
 36
0.0
 17
0.0
 27
1.0
 37
0.0
 76
     0
330
23
  0
LAYOUT
  5
22
102
{ACAD_REACTORS
330
1A
102
}
330
1A
100
AcDbPlotSettings
  1

  2
none_device
  4
Letter_(8.50_x_11.00_Inches)
  6

 40
6.35
 41
6.35
 42
6.35000508
 43
6.35000508
 44
215.9
 45
279.4
 46
0.0
 47
0.0
 48
0.0
 49
0.0
140
0.0
141
0.0
142
1.0
143
1.0
 70
  1712
 72
     0
 73
     0
 74
     0
  7

 75
     0
 76
     0
 77
     2
 78
   300
147
1.0
148
0.0
149
0.0
100
AcDbLayout
  1
Model
 70
     1
 71
     0
 10
0.0
 20
0.0
 11
12.0
 21
9.0
 12
0.0
 22
0.0
 32
0.0
 14
-271.2568927145344
 24
-46.29362749516849
 34
0.0
 15
148.743107285464
 25
250.7063725048315
 35
0.0
146
0.0
 13
0.0
 23
0.0
 33
0.0
 16
1.0
 26
0.0
 36
0.0
 17
0.0
 27
1.0
 37
0.0
 76
     0
330
1F
331
29
  0
MATERIAL
  5
45
102
{ACAD_REACTORS
330
43
102
}
102
{ACAD_XDICTIONARY
360
333
102
}
330
43
100
AcDbMaterial
  1
ByBlock
  0
MATERIAL
  5
44
102
{ACAD_REACTORS
330
43
102
}
102
{ACAD_XDICTIONARY
360
331
102
}
330
43
100
AcDbMaterial
  1
ByLayer
  0
MATERIAL
  5
46
102
{ACAD_REACTORS
330
43
102
}
102
{ACAD_XDICTIONARY
360
335
102
}
330
43
100
AcDbMaterial
  1
Global
  0
MLEADERSTYLE
  5
6C
102
{ACAD_REACTORS
330
6B
102
}
102
{ACAD_XDICTIONARY
360
33B
102
}
330
6B
100
AcDbMLeaderStyle
170
     2
171
     1
172
     0
 90
        2
 40
0.0
 41
0.0
173
     1
 91
-1056964608
340
14
 92
       -2
290
     1
 42
0.09
291
     1
 43
0.36
  3
Standard
341
0
 44
0.18
300

342
11
174
     1
178
     6
175
     1
176
     0
 93
-1056964608
 45
0.18
292
     0
297
     0
 46
0.18
343
0
 94
-1056964608
 47
1.0
 49
1.0
140
1.0
293
     1
141
0.0
294
     1
177
     0
142
1.0
295
     0
296
     0
143
0.125
1001
ACAD_MLEADERVER
1070
     2
  0
MLINESTYLE
  5
18
102
{ACAD_REACTORS
330
17
102
}
330
17
100
AcDbMlineStyle
  2
Standard
 70
     0
  3

 62
   256
 51
90.0
 52
90.0
 71
     2
 49
0.5
 62
   256
  6
BYLAYER
 49
-0.5
 62
   256
  6
BYLAYER
  0
ACDBPLACEHOLDER
  5
F
102
{ACAD_REACTORS
330
E
102
}
330
E
  0
SCALE
  5
48
102
{ACAD_REACTORS
330
47
102
}
330
47
100
AcDbScale
 70
     0
300
1:1
140
1.0
141
1.0
290
     1
  0
SCALE
  5
49
102
{ACAD_REACTORS
330
47
102
}
330
47
100
AcDbScale
 70
     0
300
1:2
140
1.0
141
2.0
290
     0
  0
SCALE
  5
4A
102
{ACAD_REACTORS
330
47
102
}
330
47
100
AcDbScale
 70
     0
300
1:4
140
1.0
141
4.0
290
     0
  0
SCALE
  5
4B
102
{ACAD_REACTORS
330
47
102
}
330
47
100
AcDbScale
 70
     0
300
1:5
140
1.0
141
5.0
290
     0
  0
SCALE
  5
4C
102
{ACAD_REACTORS
330
47
102
}
330
47
100
AcDbScale
 70
     0
300
1:8
140
1.0
141
8.0
290
     0
  0
SCALE
  5
4D
102
{ACAD_REACTORS
330
47
102
}
330
47
100
AcDbScale
 70
     0
300
1:10
140
1.0
141
10.0
290
     0
  0
SCALE
  5
4E
102
{ACAD_REACTORS
330
47
102
}
330
47
100
AcDbScale
 70
     0
300
1:16
140
1.0
141
16.0
290
     0
  0
SCALE
  5
4F
102
{ACAD_REACTORS
330
47
102
}
330
47
100
AcDbScale
 70
     0
300
1:20
140
1.0
141
20.0
290
     0
  0
SCALE
  5
50
102
{ACAD_REACTORS
330
47
102
}
330
47
100
AcDbScale
 70
     0
300
1:30
140
1.0
141
30.0
290
     0
  0
SCALE
  5
51
102
{ACAD_REACTORS
330
47
102
}
330
47
100
AcDbScale
 70
     0
300
1:40
140
1.0
141
40.0
290
     0
  0
SCALE
  5
52
102
{ACAD_REACTORS
330
47
102
}
330
47
100
AcDbScale
 70
     0
300
1:50
140
1.0
141
50.0
290
     0
  0
SCALE
  5
53
102
{ACAD_REACTORS
330
47
102
}
330
47
100
AcDbScale
 70
     0
300
1:100
140
1.0
141
100.0
290
     0
  0
SCALE
  5
54
102
{ACAD_REACTORS
330
47
102
}
330
47
100
AcDbScale
 70
     0
300
2:1
140
2.0
141
1.0
290
     0
  0
SCALE
  5
55
102
{ACAD_REACTORS
330
47
102
}
330
47
100
AcDbScale
 70
     0
300
4:1
140
4.0
141
1.0
290
     0
  0
SCALE
  5
56
102
{ACAD_REACTORS
330
47
102
}
330
47
100
AcDbScale
 70
     0
300
8:1
140
8.0
141
1.0
290
     0
  0
SCALE
  5
57
102
{ACAD_REACTORS
330
47
102
}
330
47
100
AcDbScale
 70
     0
300
10:1
140
10.0
141
1.0
290
     0
  0
SCALE
  5
58
102
{ACAD_REACTORS
330
47
102
}
330
47
100
AcDbScale
 70
     0
300
100:1
140
100.0
141
1.0
290
     0
  0
SCALE
  5
59
102
{ACAD_REACTORS
330
47
102
}
330
47
100
AcDbScale
 70
     0
300
1/128" = 1'-0"
140
0.0078125
141
12.0
290
     0
  0
SCALE
  5
5A
102
{ACAD_REACTORS
330
47
102
}
330
47
100
AcDbScale
 70
     0
300
1/64" = 1'-0"
140
0.015625
141
12.0
290
     0
  0
SCALE
  5
5B
102
{ACAD_REACTORS
330
47
102
}
330
47
100
AcDbScale
 70
     0
300
1/32" = 1'-0"
140
0.03125
141
12.0
290
     0
  0
SCALE
  5
5C
102
{ACAD_REACTORS
330
47
102
}
330
47
100
AcDbScale
 70
     0
300
1/16" = 1'-0"
140
0.0625
141
12.0
290
     0
  0
SCALE
  5
5D
102
{ACAD_REACTORS
330
47
102
}
330
47
100
AcDbScale
 70
     0
300
3/32" = 1'-0"
140
0.09375
141
12.0
290
     0
  0
SCALE
  5
5E
102
{ACAD_REACTORS
330
47
102
}
330
47
100
AcDbScale
 70
     0
300
1/8" = 1'-0"
140
0.125
141
12.0
290
     0
  0
SCALE
  5
5F
102
{ACAD_REACTORS
330
47
102
}
330
47
100
AcDbScale
 70
     0
300
3/16" = 1'-0"
140
0.1875
141
12.0
290
     0
  0
SCALE
  5
60
102
{ACAD_REACTORS
330
47
102
}
330
47
100
AcDbScale
 70
     0
300
1/4" = 1'-0"
140
0.25
141
12.0
290
     0
  0
SCALE
  5
61
102
{ACAD_REACTORS
330
47
102
}
330
47
100
AcDbScale
 70
     0
300
3/8" = 1'-0"
140
0.375
141
12.0
290
     0
  0
SCALE
  5
62
102
{ACAD_REACTORS
330
47
102
}
330
47
100
AcDbScale
 70
     0
300
1/2" = 1'-0"
140
0.5
141
12.0
290
     0
  0
SCALE
  5
63
102
{ACAD_REACTORS
330
47
102
}
330
47
100
AcDbScale
 70
     0
300
3/4" = 1'-0"
140
0.75
141
12.0
290
     0
  0
SCALE
  5
64
102
{ACAD_REACTORS
330
47
102
}
330
47
100
AcDbScale
 70
     0
300
1" = 1'-0"
140
1.0
141
12.0
290
     0
  0
SCALE
  5
65
102
{ACAD_REACTORS
330
47
102
}
330
47
100
AcDbScale
 70
     0
300
1-1/2" = 1'-0"
140
1.5
141
12.0
290
     0
  0
SCALE
  5
66
102
{ACAD_REACTORS
330
47
102
}
330
47
100
AcDbScale
 70
     0
300
3" = 1'-0"
140
3.0
141
12.0
290
     0
  0
SCALE
  5
67
102
{ACAD_REACTORS
330
47
102
}
330
47
100
AcDbScale
 70
     0
300
6" = 1'-0"
140
6.0
141
12.0
290
     0
  0
SCALE
  5
68
102
{ACAD_REACTORS
330
47
102
}
330
47
100
AcDbScale
 70
     0
300
1'-0" = 1'-0"
140
12.0
141
12.0
290
     0
  0
TABLESTYLE
  5
6A
102
{ACAD_REACTORS
330
69
102
}
102
{ACAD_XDICTIONARY
360
337
102
}
330
69
100
AcDbTableStyle
  3
Standard
 70
     0
 71
     0
 40
0.06
 41
0.06
280
     0
281
     0
  7
Standard
140
0.18
170
     2
 62
     0
 63
   257
283
     0
274
    -2
284
     1
 64
     0
275
    -2
285
     1
 65
     0
276
    -2
286
     1
 66
     0
277
    -2
287
     1
 67
     0
278
    -2
288
     1
 68
     0
279
    -2
289
     1
 69
     0
  7
Standard
140
0.25
170
     5
 62
     0
 63
   257
283
     0
274
    -2
284
     1
 64
     0
275
    -2
285
     1
 65
     0
276
    -2
286
     1
 66
     0
277
    -2
287
     1
 67
     0
278
    -2
288
     1
 68
     0
279
    -2
289
     1
 69
     0
  7
Standard
140
0.18
170
     5
 62
     0
 63
   257
283
     0
274
    -2
284
     1
 64
     0
275
    -2
285
     1
 65
     0
276
    -2
286
     1
 66
     0
277
    -2
287
     1
 67
     0
278
    -2
288
     1
 68
     0
279
    -2
289
     1
 69
     0
  0
VISUALSTYLE
  5
2F
102
{ACAD_REACTORS
330
2A
102
}
102
{ACAD_XDICTIONARY
360
309
102
}
330
2A
100
AcDbVisualStyle
  2
2dWireframe
 70
     4
 71
     0
 72
     2
 73
     0
 90
        0
 40
0.6
 41
30.0
 62
     5
 63
     7
421
 16777215
 74
     1
 91
        4
 64
     7
 65
   257
 75
     1
175
     1
 42
1.0
 92
        0
 66
   257
 43
1.0
 76
     1
 77
     6
 78
     2
 67
     7
 79
     5
170
     0
171
     0
290
     0
174
     0
 93
        1
 44
0.0
173
     0
291
     0
 45
0.0
1001
ACAD
1000
AcDbSavedByObjectVersion
1070
     0
  0
VISUALSTYLE
  5
32
102
{ACAD_REACTORS
330
2A
102
}
102
{ACAD_XDICTIONARY
360
30F
102
}
330
2A
100
AcDbVisualStyle
  2
Basic
 70
     7
 71
     1
 72
     0
 73
     1
 90
        0
 40
0.6
 41
30.0
 62
     5
 63
     7
421
 16777215
 74
     0
 91
        4
 64
     7
 65
   257
 75
     1
175
     1
 42
1.0
 92
        8
 66
     7
 43
1.0
 76
     1
 77
     6
 78
     2
 67
     7
 79
     5
170
     0
171
     0
290
     0
174
     0
 93
        1
 44
0.0
173
     0
291
     1
 45
0.0
1001
ACAD
1000
AcDbSavedByObjectVersion
1070
     0
  0
VISUALSTYLE
  5
36
102
{ACAD_REACTORS
330
2A
102
}
102
{ACAD_XDICTIONARY
360
317
102
}
330
2A
100
AcDbVisualStyle
  2
Brighten
 70
    12
 71
     2
 72
     2
 73
     0
 90
        0
 40
0.6
 41
30.0
 62
     5
 63
     7
421
 16777215
 74
     1
 91
        4
 64
     7
 65
   257
 75
     1
175
     1
 42
1.0
 92
        8
 66
     7
 43
1.0
 76
     1
 77
     6
 78
     2
 67
     7
 79
     5
170
     0
171
     0
290
     0
174
     0
 93
        1
 44
50.0
173
     0
291
     1
 45
0.0
1001
ACAD
1000
AcDbSavedByObjectVersion
1070
     0
  0
VISUALSTYLE
  5
3A
102
{ACAD_REACTORS
330
2A
102
}
102
{ACAD_XDICTIONARY
360
31F
102
}
330
2A
100
AcDbVisualStyle
  2
ColorChange
 70
    16
 71
     2
 72
     2
 73
     3
 90
        0
 40
0.6
 41
30.0
 62
     5
 63
     8
421
  8421504
 74
     1
 91
        4
 64
     7
 65
   257
 75
     1
175
     1
 42
1.0
 92
        8
 66
     8
424
  8421504
 43
1.0
 76
     1
 77
     6
 78
     2
 67
     7
 79
     5
170
     0
171
     0
290
     0
174
     0
 93
        1
 44
0.0
173
     0
291
     1
 45
0.0
1001
ACAD
1000
AcDbSavedByObjectVersion
1070
     0
  0
VISUALSTYLE
  5
34
102
{ACAD_REACTORS
330
2A
102
}
102
{ACAD_XDICTIONARY
360
313
102
}
330
2A
100
AcDbVisualStyle
  2
Conceptual
 70
     9
 71
     3
 72
     2
 73
     0
 90
        0
 40
0.6
 41
30.0
 62
     5
 63
     7
421
 16777215
 74
     2
 91
        2
 64
     7
 65
   257
 75
     1
175
     1
 42
179.0
 92
        8
 66
     7
 43
1.0
 76
     1
 77
     6
 78
     2
 67
     7
 79
     3
170
     0
171
     0
290
     0
174
     0
 93
        1
 44
0.0
173
     0
291
     0
 45
0.0
1001
ACAD
1000
AcDbSavedByObjectVersion
1070
     0
  0
VISUALSTYLE
  5
35
102
{ACAD_REACTORS
330
2A
102
}
102
{ACAD_XDICTIONARY
360
315
102
}
330
2A
100
AcDbVisualStyle
  2
Dim
 70
    11
 71
     2
 72
     2
 73
     0
 90
        0
 40
0.6
 41
30.0
 62
     5
 63
     7
421
 16777215
 74
     1
 91
        4
 64
     7
 65
   257
 75
     1
175
     1
 42
1.0
 92
        8
 66
     7
 43
1.0
 76
     1
 77
     6
 78
     2
 67
     7
 79
     5
170
     0
171
     0
290
     0
174
     0
 93
        1
 44
-50.0
173
     0
291
     1
 45
0.0
1001
ACAD
1000
AcDbSavedByObjectVersion
1070
     0
  0
VISUALSTYLE
  5
3D
102
{ACAD_REACTORS
330
2A
102
}
102
{ACAD_XDICTIONARY
360
325
102
}
330
2A
100
AcDbVisualStyle
  2
EdgeColorOff
 70
    22
 71
     2
 72
     2
 73
     0
 90
        0
 40
0.6
 41
30.0
 62
     5
 63
     7
421
 16777215
 74
     1
 91
        4
 64
     7
 65
   257
 75
     1
175
     1
 42
1.0
 92
        8
 66
     7
 43
1.0
 76
     1
 77
     6
 78
     2
 67
     7
 79
     5
170
     0
171
     0
290
     0
174
     0
 93
        1
 44
0.0
173
     0
291
     1
 45
0.0
1001
ACAD
1000
AcDbSavedByObjectVersion
1070
     0
  0
VISUALSTYLE
  5
39
102
{ACAD_REACTORS
330
2A
102
}
102
{ACAD_XDICTIONARY
360
31D
102
}
330
2A
100
AcDbVisualStyle
  2
Facepattern
 70
    15
 71
     2
 72
     2
 73
     0
 90
        0
 40
0.6
 41
30.0
 62
     5
 63
     7
421
 16777215
 74
     1
 91
        4
 64
     7
 65
   257
 75
     1
175
     1
 42
1.0
 92
        8
 66
     7
 43
1.0
 76
     1
 77
     6
 78
     2
 67
     7
 79
     5
170
     0
171
     0
290
     0
174
     0
 93
        1
 44
0.0
173
     0
291
     1
 45
0.0
1001
ACAD
1000
AcDbSavedByObjectVersion
1070
     0
  0
VISUALSTYLE
  5
2B
102
{ACAD_REACTORS
330
2A
102
}
102
{ACAD_XDICTIONARY
360
301
102
}
330
2A
100
AcDbVisualStyle
  2
Flat
 70
     0
 71
     2
 72
     1
 73
     1
 90
        2
 40
0.6
 41
30.0
 62
     5
 63
     7
421
 16777215
 74
     0
 91
        0
 64
     7
 65
   257
 75
     1
175
     1
 42
1.0
 92
        8
 66
     7
 43
1.0
 76
     1
 77
     6
 78
     2
 67
     7
 79
     5
170
     0
171
     0
290
     0
174
     0
 93
       13
 44
0.0
173
     0
291
     1
 45
0.0
1001
ACAD
1000
AcDbSavedByObjectVersion
1070
     0
  0
VISUALSTYLE
  5
2C
102
{ACAD_REACTORS
330
2A
102
}
102
{ACAD_XDICTIONARY
360
303
102
}
330
2A
100
AcDbVisualStyle
  2
FlatWithEdges
 70
     1
 71
     2
 72
     1
 73
     1
 90
        2
 40
0.6
 41
30.0
 62
     5
 63
     7
421
 16777215
 74
     1
 91
        0
 64
     7
 65
   257
 75
     1
175
     1
 42
1.0
 92
        0
 66
   257
 43
1.0
 76
     1
 77
     6
 78
     2
 67
     7
 79
     5
170
     0
171
     0
290
     0
174
     0
 93
       13
 44
0.0
173
     0
291
     1
 45
0.0
1001
ACAD
1000
AcDbSavedByObjectVersion
1070
     0
  0
VISUALSTYLE
  5
2D
102
{ACAD_REACTORS
330
2A
102
}
102
{ACAD_XDICTIONARY
360
305
102
}
330
2A
100
AcDbVisualStyle
  2
Gouraud
 70
     2
 71
     2
 72
     2
 73
     1
 90
        2
 40
0.6
 41
30.0
 62
     5
 63
     7
421
 16777215
 74
     0
 91
        0
 64
     7
 65
   257
 75
     1
175
     1
 42
1.0
 92
        0
 66
     7
 43
1.0
 76
     1
 77
     6
 78
     2
 67
     7
 79
     5
170
     0
171
     0
290
     0
174
     0
 93
       13
 44
0.0
173
     0
291
     1
 45
0.0
1001
ACAD
1000
AcDbSavedByObjectVersion
1070
     0
  0
VISUALSTYLE
  5
2E
102
{ACAD_REACTORS
330
2A
102
}
102
{ACAD_XDICTIONARY
360
307
102
}
330
2A
100
AcDbVisualStyle
  2
GouraudWithEdges
 70
     3
 71
     2
 72
     2
 73
     1
 90
        2
 40
0.6
 41
30.0
 62
     5
 63
     7
421
 16777215
 74
     1
 91
        0
 64
     7
 65
   257
 75
     1
175
     1
 42
1.0
 92
        0
 66
   257
 43
1.0
 76
     1
 77
     6
 78
     2
 67
     7
 79
     5
170
     0
171
     0
290
     0
174
     0
 93
       13
 44
0.0
173
     0
291
     1
 45
0.0
1001
ACAD
1000
AcDbSavedByObjectVersion
1070
     0
  0
VISUALSTYLE
  5
31
102
{ACAD_REACTORS
330
2A
102
}
102
{ACAD_XDICTIONARY
360
30D
102
}
330
2A
100
AcDbVisualStyle
  2
Hidden
 70
     6
 71
     1
 72
     2
 73
     2
 90
        0
 40
0.6
 41
30.0
 62
     5
 63
     7
421
 16777215
 74
     2
 91
        2
 64
     7
 65
   257
 75
     2
175
     1
 42
40.0
 92
        0
 66
   257
 43
1.0
 76
     1
 77
     6
 78
     2
 67
     7
 79
     3
170
     0
171
     0
290
     0
174
     0
 93
        1
 44
0.0
173
     0
291
     0
 45
0.0
1001
ACAD
1000
AcDbSavedByObjectVersion
1070
     0
  0
VISUALSTYLE
  5
3B
102
{ACAD_REACTORS
330
2A
102
}
102
{ACAD_XDICTIONARY
360
321
102
}
330
2A
100
AcDbVisualStyle
  2
JitterOff
 70
    20
 71
     2
 72
     2
 73
     0
 90
        0
 40
0.6
 41
30.0
 62
     5
 63
     7
421
 16777215
 74
     1
 91
        4
 64
     7
 65
   257
 75
     1
175
     1
 42
1.0
 92
       10
 66
     7
 43
1.0
 76
     1
 77
     6
 78
     2
 67
     7
 79
     5
170
     0
171
     0
290
     0
174
     0
 93
        1
 44
0.0
173
     0
291
     1
 45
0.0
1001
ACAD
1000
AcDbSavedByObjectVersion
1070
     0
  0
VISUALSTYLE
  5
38
102
{ACAD_REACTORS
330
2A
102
}
102
{ACAD_XDICTIONARY
360
31B
102
}
330
2A
100
AcDbVisualStyle
  2
Linepattern
 70
    14
 71
     2
 72
     2
 73
     0
 90
        0
 40
0.6
 41
30.0
 62
     5
 63
     7
421
 16777215
 74
     1
 91
        4
 64
     7
 65
   257
 75
     7
175
     7
 42
1.0
 92
        8
 66
     7
 43
1.0
 76
     1
 77
     6
 78
     2
 67
     7
 79
     5
170
     0
171
     0
290
     0
174
     0
 93
        1
 44
0.0
173
     0
291
     1
 45
0.0
1001
ACAD
1000
AcDbSavedByObjectVersion
1070
     0
  0
VISUALSTYLE
  5
3C
102
{ACAD_REACTORS
330
2A
102
}
102
{ACAD_XDICTIONARY
360
323
102
}
330
2A
100
AcDbVisualStyle
  2
OverhangOff
 70
    21
 71
     2
 72
     2
 73
     0
 90
        0
 40
0.6
 41
30.0
 62
     5
 63
     7
421
 16777215
 74
     1
 91
        4
 64
     7
 65
   257
 75
     1
175
     1
 42
1.0
 92
        9
 66
     7
 43
1.0
 76
     1
 77
     6
 78
     2
 67
     7
 79
     5
170
     0
171
     0
290
     0
174
     0
 93
        1
 44
0.0
173
     0
291
     1
 45
0.0
1001
ACAD
1000
AcDbSavedByObjectVersion
1070
     0
  0
VISUALSTYLE
  5
33
102
{ACAD_REACTORS
330
2A
102
}
102
{ACAD_XDICTIONARY
360
311
102
}
330
2A
100
AcDbVisualStyle
  2
Realistic
 70
     8
 71
     2
 72
     3
 73
     0
 90
        2
 40
0.6
 41
30.0
 62
     5
 63
     7
421
 16777215
 74
     0
 91
        0
 64
     7
 65
   257
 75
     1
175
     1
 42
1.0
 92
        8
 66
   257
 43
1.0
 76
     1
 77
     6
 78
     2
 67
     7
 79
     3
170
     0
171
     0
290
     0
174
     0
 93
       13
 44
0.0
173
     0
291
     0
 45
0.0
1001
ACAD
1000
AcDbSavedByObjectVersion
1070
     0
  0
VISUALSTYLE
  5
42
102
{ACAD_REACTORS
330
2A
102
}
102
{ACAD_XDICTIONARY
360
32F
102
}
330
2A
100
AcDbVisualStyle
  2
Shaded
 70
    27
 71
     2
 72
     2
 73
     1
 90
        2
 40
0.6
 41
30.0
 62
     5
 63
     7
421
 16777215
 74
     0
 91
        4
 64
     7
 65
   257
 75
     1
175
     1
 42
1.0
 92
        8
 66
   257
 43
1.0
 76
     1
 77
     6
 78
     2
 67
     8
425
  7895160
 79
     3
170
     0
171
     0
290
     0
174
     0
 93
        5
 44
0.0
173
     0
291
     0
 45
0.0
1001
ACAD
1000
AcDbSavedByObjectVersion
1070
     0
  0
VISUALSTYLE
  5
41
102
{ACAD_REACTORS
330
2A
102
}
102
{ACAD_XDICTIONARY
360
32D
102
}
330
2A
100
AcDbVisualStyle
  2
Shaded with edges
 70
    26
 71
     2
 72
     2
 73
     1
 90
        2
 40
0.6
 41
30.0
 62
     5
 63
     7
421
 16777215
 74
     1
 91
       10
 64
     7
 65
   257
 75
     2
175
     1
 42
1.0
 92
        8
 66
   257
 43
1.0
 76
     1
 77
     6
 78
     2
 67
     7
 79
     3
170
     0
171
     0
290
     0
174
     0
 93
        5
 44
0.0
173
     0
291
     0
 45
0.0
1001
ACAD
1000
AcDbSavedByObjectVersion
1070
     0
  0
VISUALSTYLE
  5
3E
102
{ACAD_REACTORS
330
2A
102
}
102
{ACAD_XDICTIONARY
360
327
102
}
330
2A
100
AcDbVisualStyle
  2
Shades of Gray
 70
    23
 71
     2
 72
     2
 73
     3
 90
        0
 40
0.6
 41
30.0
 62
     5
 63
     7
421
 16777215
 74
     2
 91
        2
 64
     7
 65
     7
 75
     1
175
     1
 42
40.0
 92
        8
 66
     7
 43
1.0
 76
     1
 77
     6
 78
     2
 67
     7
 79
     3
170
     0
171
     0
290
     0
174
     0
 93
        1
 44
0.0
173
     0
291
     0
 45
0.0
1001
ACAD
1000
AcDbSavedByObjectVersion
1070
     0
  0
VISUALSTYLE
  5
3F
102
{ACAD_REACTORS
330
2A
102
}
102
{ACAD_XDICTIONARY
360
329
102
}
330
2A
100
AcDbVisualStyle
  2
Sketchy
 70
    24
 71
     1
 72
     2
 73
     2
 90
        0
 40
0.6
 41
30.0
 62
     5
 63
     7
421
 16777215
 74
     2
 91
        2
 64
     7
 65
     7
 75
     1
175
     1
 42
40.0
 92
       11
 66
     7
 43
1.0
 76
     1
 77
     6
 78
     2
 67
     7
 79
     6
170
     0
171
     0
290
     0
174
     0
 93
        1
 44
0.0
173
     0
291
     0
 45
0.0
1001
ACAD
1000
AcDbSavedByObjectVersion
1070
     0
  0
VISUALSTYLE
  5
37
102
{ACAD_REACTORS
330
2A
102
}
102
{ACAD_XDICTIONARY
360
319
102
}
330
2A
100
AcDbVisualStyle
  2
Thicken
 70
    13
 71
     2
 72
     2
 73
     0
 90
        0
 40
0.6
 41
30.0
 62
     5
 63
     7
421
 16777215
 74
     1
 91
        4
 64
     7
 65
   257
 75
     1
175
     1
 42
1.0
 92
       12
 66
     7
 43
1.0
 76
     1
 77
     6
 78
     2
 67
     7
 79
     5
170
     0
171
     0
290
     0
174
     0
 93
        1
 44
0.0
173
     0
291
     1
 45
0.0
1001
ACAD
1000
AcDbSavedByObjectVersion
1070
     0
  0
VISUALSTYLE
  5
30
102
{ACAD_REACTORS
330
2A
102
}
102
{ACAD_XDICTIONARY
360
30B
102
}
330
2A
100
AcDbVisualStyle
  2
Wireframe
 70
     5
 71
     0
 72
     2
 73
     0
 90
        0
 40
0.6
 41
30.0
 62
     5
 63
     7
421
 16777215
 74
     1
 91
        4
 64
     7
 65
   257
 75
     1
175
     1
 42
1.0
 92
        0
 66
   257
 43
1.0
 76
     1
 77
     6
 78
     2
 67
     7
 79
     3
170
     0
171
     0
290
     0
174
     0
 93
        1
 44
0.0
173
     0
291
     0
 45
0.0
1001
ACAD
1000
AcDbSavedByObjectVersion
1070
     0
  0
VISUALSTYLE
  5
40
102
{ACAD_REACTORS
330
2A
102
}
102
{ACAD_XDICTIONARY
360
32B
102
}
330
2A
100
AcDbVisualStyle
  2
X-Ray
 70
    25
 71
     2
 72
     2
 73
     1
 90
        1
 40
0.5
 41
30.0
 62
     5
 63
     7
421
 16777215
 74
     1
 91
        0
 64
     7
 65
   257
 75
     1
175
     1
 42
1.0
 92
        8
 66
     7
 43
1.0
 76
     1
 77
     6
 78
     2
 67
     7
 79
     3
170
     0
171
     0
290
     0
174
     0
 93
       13
 44
0.0
173
     0
291
     0
 45
0.0
1001
ACAD
1000
AcDbSavedByObjectVersion
1070
     0
  0
DICTIONARYVAR
  5
2FE
102
{ACAD_REACTORS
330
2FD
102
}
330
2FD
100
DictionaryVariables
280
     0
  1
1:1
  0
DICTIONARYVAR
  5
33F
102
{ACAD_REACTORS
330
2FD
102
}
330
2FD
100
DictionaryVariables
280
     0
  1
Standard
  0
DICTIONARYVAR
  5
33E
102
{ACAD_REACTORS
330
2FD
102
}
330
2FD
100
DictionaryVariables
280
     0
  1
Standard
  0
DICTIONARYVAR
  5
2FF
102
{ACAD_REACTORS
330
2FD
102
}
330
2FD
100
DictionaryVariables
280
     0
  1
1
  0
DICTIONARYVAR
  5
300
102
{ACAD_REACTORS
330
2FD
102
}
330
2FD
100
DictionaryVariables
280
     0
  1
2
  0
DICTIONARY
  5
333
330
45
100
AcDbDictionary
280
     1
281
     1
  3
ACAD_XREC_ROUNDTRIP
360
334
  0
DICTIONARY
  5
331
330
44
100
AcDbDictionary
280
     1
281
     1
  3
ACAD_XREC_ROUNDTRIP
360
332
  0
DICTIONARY
  5
335
330
46
100
AcDbDictionary
280
     1
281
     1
  3
ACAD_XREC_ROUNDTRIP
360
336
  0
DICTIONARY
  5
33B
330
6C
100
AcDbDictionary
280
     1
281
     1
  3
ACAD_XREC_ROUNDTRIP
360
33C
  0
DICTIONARY
  5
337
330
6A
100
AcDbDictionary
280
     1
281
     1
  3
ACAD_ROUNDTRIP_2008_TABLESTYLE_CELLSTYLEMAP
360
339
  3
ACAD_XREC_ROUNDTRIP
360
338
  0
DICTIONARY
  5
309
330
2F
100
AcDbDictionary
280
     1
281
     1
  3
ACAD_XREC_ROUNDTRIP
360
30A
  0
DICTIONARY
  5
30F
330
32
100
AcDbDictionary
280
     1
281
     1
  3
ACAD_XREC_ROUNDTRIP
360
310
  0
DICTIONARY
  5
317
330
36
100
AcDbDictionary
280
     1
281
     1
  3
ACAD_XREC_ROUNDTRIP
360
318
  0
DICTIONARY
  5
31F
330
3A
100
AcDbDictionary
280
     1
281
     1
  3
ACAD_XREC_ROUNDTRIP
360
320
  0
DICTIONARY
  5
313
330
34
100
AcDbDictionary
280
     1
281
     1
  3
ACAD_XREC_ROUNDTRIP
360
314
  0
DICTIONARY
  5
315
330
35
100
AcDbDictionary
280
     1
281
     1
  3
ACAD_XREC_ROUNDTRIP
360
316
  0
DICTIONARY
  5
325
330
3D
100
AcDbDictionary
280
     1
281
     1
  3
ACAD_XREC_ROUNDTRIP
360
326
  0
DICTIONARY
  5
31D
330
39
100
AcDbDictionary
280
     1
281
     1
  3
ACAD_XREC_ROUNDTRIP
360
31E
  0
DICTIONARY
  5
301
330
2B
100
AcDbDictionary
280
     1
281
     1
  3
ACAD_XREC_ROUNDTRIP
360
302
  0
DICTIONARY
  5
303
330
2C
100
AcDbDictionary
280
     1
281
     1
  3
ACAD_XREC_ROUNDTRIP
360
304
  0
DICTIONARY
  5
305
330
2D
100
AcDbDictionary
280
     1
281
     1
  3
ACAD_XREC_ROUNDTRIP
360
306
  0
DICTIONARY
  5
307
330
2E
100
AcDbDictionary
280
     1
281
     1
  3
ACAD_XREC_ROUNDTRIP
360
308
  0
DICTIONARY
  5
30D
330
31
100
AcDbDictionary
280
     1
281
     1
  3
ACAD_XREC_ROUNDTRIP
360
30E
  0
DICTIONARY
  5
321
330
3B
100
AcDbDictionary
280
     1
281
     1
  3
ACAD_XREC_ROUNDTRIP
360
322
  0
DICTIONARY
  5
31B
330
38
100
AcDbDictionary
280
     1
281
     1
  3
ACAD_XREC_ROUNDTRIP
360
31C
  0
DICTIONARY
  5
323
330
3C
100
AcDbDictionary
280
     1
281
     1
  3
ACAD_XREC_ROUNDTRIP
360
324
  0
DICTIONARY
  5
311
330
33
100
AcDbDictionary
280
     1
281
     1
  3
ACAD_XREC_ROUNDTRIP
360
312
  0
DICTIONARY
  5
32F
330
42
100
AcDbDictionary
280
     1
281
     1
  3
ACAD_XREC_ROUNDTRIP
360
330
  0
DICTIONARY
  5
32D
330
41
100
AcDbDictionary
280
     1
281
     1
  3
ACAD_XREC_ROUNDTRIP
360
32E
  0
DICTIONARY
  5
327
330
3E
100
AcDbDictionary
280
     1
281
     1
  3
ACAD_XREC_ROUNDTRIP
360
328
  0
DICTIONARY
  5
329
330
3F
100
AcDbDictionary
280
     1
281
     1
  3
ACAD_XREC_ROUNDTRIP
360
32A
  0
DICTIONARY
  5
319
330
37
100
AcDbDictionary
280
     1
281
     1
  3
ACAD_XREC_ROUNDTRIP
360
31A
  0
DICTIONARY
  5
30B
330
30
100
AcDbDictionary
280
     1
281
     1
  3
ACAD_XREC_ROUNDTRIP
360
30C
  0
DICTIONARY
  5
32B
330
40
100
AcDbDictionary
280
     1
281
     1
  3
ACAD_XREC_ROUNDTRIP
360
32C
  0
XRECORD
  5
334
102
{ACAD_REACTORS
330
333
102
}
330
333
100
AcDbXrecord
280
     1
102
MATERIAL
148
0.0
149
0.0
149
0.0
 93
        0
 94
      127
282
     0
 72
     1
 77
     1
171
     1
175
     1
179
     1
273
     0
  0
XRECORD
  5
332
102
{ACAD_REACTORS
330
331
102
}
330
331
100
AcDbXrecord
280
     1
102
MATERIAL
148
0.0
149
0.0
149
0.0
 93
        0
 94
      127
282
     0
 72
     1
 77
     1
171
     1
175
     1
179
     1
273
     0
  0
XRECORD
  5
336
102
{ACAD_REACTORS
330
335
102
}
330
335
100
AcDbXrecord
280
     1
102
MATERIAL
148
0.0
149
0.0
149
0.0
 93
        0
 94
      127
282
     0
 72
     1
 77
     1
171
     1
175
     1
179
     1
273
     0
  0
XRECORD
  5
33C
102
{ACAD_REACTORS
330
33B
102
}
330
33B
100
AcDbXrecord
280
     1
102
ACAD_ROUNDTRIP_2010_MLEADER_STYLE
  0
CELLSTYLEMAP
  5
339
102
{ACAD_REACTORS
330
337
102
}
330
337
100
AcDbCellStyleMap
 90
        3
300
CELLSTYLE
  1
TABLEFORMAT_BEGIN
 90
        5
170
     1
 91
        0
 92
    32768
 62
   257
 93
        1
300
CONTENTFORMAT
  1
CONTENTFORMAT_BEGIN
 90
        0
 91
        0
 92
        4
 93
        0
300

 40
0.0
140
1.0
 94
        5
 62
     0
340
11
144
0.25
309
CONTENTFORMAT_END
171
     1
301
MARGIN
  1
CELLMARGIN_BEGIN
 40
0.06
 40
0.06
 40
0.06
 40
0.06
 40
0.06
 40
0.06
309
CELLMARGIN_END
 94
        6
 95
        1
302
GRIDFORMAT
  1
GRIDFORMAT_BEGIN
 90
        0
 91
        1
 62
     0
 92
       -2
340
14
 93
        0
 40
0.045
309
GRIDFORMAT_END
 95
        2
302
GRIDFORMAT
  1
GRIDFORMAT_BEGIN
 90
        0
 91
        1
 62
     0
 92
       -2
340
14
 93
        0
 40
0.045
309
GRIDFORMAT_END
 95
        4
302
GRIDFORMAT
  1
GRIDFORMAT_BEGIN
 90
        0
 91
        1
 62
     0
 92
       -2
340
14
 93
        0
 40
0.045
309
GRIDFORMAT_END
 95
        8
302
GRIDFORMAT
  1
GRIDFORMAT_BEGIN
 90
        0
 91
        1
 62
     0
 92
       -2
340
14
 93
        0
 40
0.045
309
GRIDFORMAT_END
 95
       16
302
GRIDFORMAT
  1
GRIDFORMAT_BEGIN
 90
        0
 91
        1
 62
     0
 92
       -2
340
14
 93
        0
 40
0.045
309
GRIDFORMAT_END
 95
       32
302
GRIDFORMAT
  1
GRIDFORMAT_BEGIN
 90
        0
 91
        1
 62
     0
 92
       -2
340
14
 93
        0
 40
0.045
309
GRIDFORMAT_END
309
TABLEFORMAT_END
  1
CELLSTYLE_BEGIN
 90
        1
 91
        1
300
_TITLE
309
CELLSTYLE_END
300
CELLSTYLE
  1
TABLEFORMAT_BEGIN
 90
        5
170
     1
 91
        0
 92
        0
 62
   257
 93
        1
300
CONTENTFORMAT
  1
CONTENTFORMAT_BEGIN
 90
        0
 91
        0
 92
        4
 93
        0
300

 40
0.0
140
1.0
 94
        5
 62
     0
340
11
144
0.18
309
CONTENTFORMAT_END
171
     1
301
MARGIN
  1
CELLMARGIN_BEGIN
 40
0.06
 40
0.06
 40
0.06
 40
0.06
 40
0.06
 40
0.06
309
CELLMARGIN_END
 94
        6
 95
        1
302
GRIDFORMAT
  1
GRIDFORMAT_BEGIN
 90
        0
 91
        1
 62
     0
 92
       -2
340
14
 93
        0
 40
0.045
309
GRIDFORMAT_END
 95
        2
302
GRIDFORMAT
  1
GRIDFORMAT_BEGIN
 90
        0
 91
        1
 62
     0
 92
       -2
340
14
 93
        0
 40
0.045
309
GRIDFORMAT_END
 95
        4
302
GRIDFORMAT
  1
GRIDFORMAT_BEGIN
 90
        0
 91
        1
 62
     0
 92
       -2
340
14
 93
        0
 40
0.045
309
GRIDFORMAT_END
 95
        8
302
GRIDFORMAT
  1
GRIDFORMAT_BEGIN
 90
        0
 91
        1
 62
     0
 92
       -2
340
14
 93
        0
 40
0.045
309
GRIDFORMAT_END
 95
       16
302
GRIDFORMAT
  1
GRIDFORMAT_BEGIN
 90
        0
 91
        1
 62
     0
 92
       -2
340
14
 93
        0
 40
0.045
309
GRIDFORMAT_END
 95
       32
302
GRIDFORMAT
  1
GRIDFORMAT_BEGIN
 90
        0
 91
        1
 62
     0
 92
       -2
340
14
 93
        0
 40
0.045
309
GRIDFORMAT_END
309
TABLEFORMAT_END
  1
CELLSTYLE_BEGIN
 90
        2
 91
        1
300
_HEADER
309
CELLSTYLE_END
300
CELLSTYLE
  1
TABLEFORMAT_BEGIN
 90
        5
170
     1
 91
        0
 92
        0
 62
   257
 93
        1
300
CONTENTFORMAT
  1
CONTENTFORMAT_BEGIN
 90
        0
 91
        0
 92
        4
 93
        0
300

 40
0.0
140
1.0
 94
        2
 62
     0
340
11
144
0.18
309
CONTENTFORMAT_END
171
     1
301
MARGIN
  1
CELLMARGIN_BEGIN
 40
0.06
 40
0.06
 40
0.06
 40
0.06
 40
0.06
 40
0.06
309
CELLMARGIN_END
 94
        6
 95
        1
302
GRIDFORMAT
  1
GRIDFORMAT_BEGIN
 90
        0
 91
        1
 62
     0
 92
       -2
340
14
 93
        0
 40
0.045
309
GRIDFORMAT_END
 95
        2
302
GRIDFORMAT
  1
GRIDFORMAT_BEGIN
 90
        0
 91
        1
 62
     0
 92
       -2
340
14
 93
        0
 40
0.045
309
GRIDFORMAT_END
 95
        4
302
GRIDFORMAT
  1
GRIDFORMAT_BEGIN
 90
        0
 91
        1
 62
     0
 92
       -2
340
14
 93
        0
 40
0.045
309
GRIDFORMAT_END
 95
        8
302
GRIDFORMAT
  1
GRIDFORMAT_BEGIN
 90
        0
 91
        1
 62
     0
 92
       -2
340
14
 93
        0
 40
0.045
309
GRIDFORMAT_END
 95
       16
302
GRIDFORMAT
  1
GRIDFORMAT_BEGIN
 90
        0
 91
        1
 62
     0
 92
       -2
340
14
 93
        0
 40
0.045
309
GRIDFORMAT_END
 95
       32
302
GRIDFORMAT
  1
GRIDFORMAT_BEGIN
 90
        0
 91
        1
 62
     0
 92
       -2
340
14
 93
        0
 40
0.045
309
GRIDFORMAT_END
309
TABLEFORMAT_END
  1
CELLSTYLE_BEGIN
 90
        3
 91
        2
300
_DATA
309
CELLSTYLE_END
  0
XRECORD
  5
338
102
{ACAD_REACTORS
330
337
102
}
330
337
100
AcDbXrecord
280
     1
102
ACAD_ROUNDTRIP_PRE2007_TABLESTYLE
 90
        4
 91
        0
  1

 92
        4
 93
        0
  2

 94
        4
 95
        0
  3

  0
XRECORD
  5
30A
102
{ACAD_REACTORS
330
309
102
}
330
309
100
AcDbXrecord
280
     1
102
RTVSPropertyOp0
 70
     1
102
RTVSPropertyOp1
 70
     1
102
RTVSPropertyOp2
 70
     1
102
RTVSPropertyOp3
 70
     1
102
RTVSPropertyOp4
 70
     1
102
RTVSPropertyOp5
 70
     1
102
RTVSPropertyOp6
 70
     1
102
RTVSPropertyOp7
 70
     1
102
RTVSPropertyOp8
 70
     1
102
RTVSPropertyOp9
 70
     1
102
RTVSPropertyOp10
 70
     1
102
RTVSPropertyOp11
 70
     1
102
RTVSPropertyOp12
 70
     1
102
RTVSPropertyOp13
 70
     1
102
RTVSPropertyOp14
 70
     1
102
RTVSPropertyOp15
 70
     1
102
RTVSPropertyOp16
 70
     1
102
RTVSPropertyOp17
 70
     1
102
RTVSPropertyOp18
 70
     1
102
RTVSPropertyOp19
 70
     1
102
RTVSPropertyOp20
 70
     1
102
RTVSPropertyOp21
 70
     1
102
RTVSPropertyOp22
 70
     1
102
RTVSPropertyOp23
 70
     1
102
RTVSPropertyOp24
 70
     1
102
RTVSPropertyOp25
 70
     1
102
RTVSPropertyOp26
 70
     1
102
RTVSPropertyOp27
 70
     1
102
RTVSPropertyOp28
 70
     1
102
RTVSPropertyOp29
 70
     1
102
RTVSPropertyOp30
 70
     1
102
RTVSPropertyOp31
 70
     1
102
RTVSPropertyOp32
 70
     1
102
RTVSPropertyOp33
 70
     1
102
RTVSPropertyOp34
 70
     1
102
RTVSPropertyOp35
 70
     1
102
RTVSPropertyOp36
 70
     1
102
RTVSPropertyOp37
 70
     1
102
RTVSPropertyOp38
 70
     1
102
RTVSPropertyOp39
 70
     1
102
RTVSPropertyOp40
 70
     1
102
RTVSPropertyOp41
 70
     1
102
RTVSPropertyOp42
 70
     1
102
RTVSPropertyOp43
 70
     1
102
RTVSPropertyOp44
 70
     1
102
RTVSPropertyOp45
 70
     1
102
RTVSPropertyOp46
 70
     1
102
RTVSPropertyOp47
 70
     1
102
RTVSPropertyOp48
 70
     1
102
RTVSPropertyOp49
 70
     1
102
RTVSPropertyOp50
 70
     1
102
RTVSPropertyOp51
 70
     0
102
RTVSPropertyOp52
 70
     0
102
RTVSPropertyOp53
 70
     1
102
RTVSPropertyOp54
 70
     1
102
RTVSPropertyOp55
 70
     1
102
RTVSPropertyOp56
 70
     1
102
RTVSPropertyOp57
 70
     1
102
RTVSPost2010Prop28
280
     1
102
RTVSPost2010PropOp28
 70
     1
102
RTVSPost2010Prop29
280
     1
102
RTVSPost2010PropOp29
 70
     1
102
RTVSPost2010Prop30
280
     0
102
RTVSPost2010PropOp30
 70
     1
102
RTVSPost2010Prop31
280
     0
102
RTVSPost2010PropOp31
 70
     1
102
RTVSPost2010Prop32
280
     0
102
RTVSPost2010PropOp32
 70
     1
102
RTVSPost2010Prop33
280
     0
102
RTVSPost2010PropOp33
 70
     1
102
RTVSPost2010Prop34
280
     0
102
RTVSPost2010PropOp34
 70
     1
102
RTVSPost2010Prop35
280
     0
102
RTVSPost2010PropOp35
 70
     1
102
RTVSPost2010Prop36
280
     0
102
RTVSPost2010PropOp36
 70
     1
102
RTVSPost2010Prop37
 90
       50
102
RTVSPost2010PropOp37
 70
     1
102
RTVSPost2010Prop38
140
0.0
102
RTVSPost2010PropOp38
 70
     1
102
RTVSPost2010Prop39
140
1.0
102
RTVSPost2010PropOp39
 70
     1
102
RTVSPost2010Prop40
 90
        0
102
RTVSPost2010PropOp40
 70
     1
102
RTVSPost2010Prop41ColorIndex
 90
       18
102
RTVSPost2010Prop41ColorRGB
 90
        0
102
RTVSPost2010PropOp41
 70
     1
102
RTVSPost2010Prop42
 90
       50
102
RTVSPost2010PropOp42
 70
     1
102
RTVSPost2010Prop43
 90
        3
102
RTVSPost2010PropOp43
 70
     1
102
RTVSPost2010Prop44ColorIndex
 90
        5
102
RTVSPost2010Prop44ColorRGB
 90
      255
102
RTVSPost2010PropOp44
 70
     1
102
RTVSPost2010Prop45
280
     0
102
RTVSPost2010PropOp45
 70
     1
102
RTVSPost2010Prop46
 90
       50
102
RTVSPost2010PropOp46
 70
     1
102
RTVSPost2010Prop47
 90
       50
102
RTVSPost2010PropOp47
 70
     1
102
RTVSPost2010Prop48
 90
       50
102
RTVSPost2010PropOp48
 70
     1
102
RTVSPost2010Prop49
280
     0
102
RTVSPost2010PropOp49
 70
     1
102
RTVSPost2010Prop50
 90
       50
102
RTVSPost2010PropOp50
 70
     1
102
RTVSPost2010Prop51ColorIndex
 90
      256
102
RTVSPost2010Prop51ColorRGB
 90
-16777216
102
RTVSPost2010PropOp51
 70
     0
102
RTVSPost2010Prop52
140
1.0
102
RTVSPost2010PropOp52
 70
     0
102
RTVSPost2010Prop53
 90
        2
102
RTVSPost2010PropOp53
 70
     1
102
RTVSPost2010Prop54
  1
strokes_ogs.tif
102
RTVSPost2010PropOp54
 70
     1
102
RTVSPost2010Prop55
280
     0
102
RTVSPost2010PropOp55
 70
     1
102
RTVSPost2010Prop56
140
1.0
102
RTVSPost2010PropOp56
 70
     1
102
RTVSPost2010Prop57
140
1.0
102
RTVSPost2010PropOp57
 70
     1
  0
XRECORD
  5
310
102
{ACAD_REACTORS
330
30F
102
}
330
30F
100
AcDbXrecord
280
     1
102
RTVSPropertyOp0
 70
     1
102
RTVSPropertyOp1
 70
     1
102
RTVSPropertyOp2
 70
     1
102
RTVSPropertyOp3
 70
     1
102
RTVSPropertyOp4
 70
     1
102
RTVSPropertyOp5
 70
     1
102
RTVSPropertyOp6
 70
     1
102
RTVSPropertyOp7
 70
     1
102
RTVSPropertyOp8
 70
     1
102
RTVSPropertyOp9
 70
     1
102
RTVSPropertyOp10
 70
     1
102
RTVSPropertyOp11
 70
     1
102
RTVSPropertyOp12
 70
     1
102
RTVSPropertyOp13
 70
     1
102
RTVSPropertyOp14
 70
     1
102
RTVSPropertyOp15
 70
     1
102
RTVSPropertyOp16
 70
     1
102
RTVSPropertyOp17
 70
     1
102
RTVSPropertyOp18
 70
     1
102
RTVSPropertyOp19
 70
     1
102
RTVSPropertyOp20
 70
     1
102
RTVSPropertyOp21
 70
     1
102
RTVSPropertyOp22
 70
     1
102
RTVSPropertyOp23
 70
     1
102
RTVSPropertyOp24
 70
     1
102
RTVSPropertyOp25
 70
     1
102
RTVSPropertyOp26
 70
     1
102
RTVSPropertyOp27
 70
     1
102
RTVSPropertyOp28
 70
     1
102
RTVSPropertyOp29
 70
     1
102
RTVSPropertyOp30
 70
     1
102
RTVSPropertyOp31
 70
     1
102
RTVSPropertyOp32
 70
     1
102
RTVSPropertyOp33
 70
     1
102
RTVSPropertyOp34
 70
     1
102
RTVSPropertyOp35
 70
     1
102
RTVSPropertyOp36
 70
     1
102
RTVSPropertyOp37
 70
     1
102
RTVSPropertyOp38
 70
     1
102
RTVSPropertyOp39
 70
     1
102
RTVSPropertyOp40
 70
     1
102
RTVSPropertyOp41
 70
     1
102
RTVSPropertyOp42
 70
     1
102
RTVSPropertyOp43
 70
     1
102
RTVSPropertyOp44
 70
     1
102
RTVSPropertyOp45
 70
     1
102
RTVSPropertyOp46
 70
     1
102
RTVSPropertyOp47
 70
     1
102
RTVSPropertyOp48
 70
     1
102
RTVSPropertyOp49
 70
     1
102
RTVSPropertyOp50
 70
     1
102
RTVSPropertyOp51
 70
     0
102
RTVSPropertyOp52
 70
     0
102
RTVSPropertyOp53
 70
     1
102
RTVSPropertyOp54
 70
     1
102
RTVSPropertyOp55
 70
     1
102
RTVSPropertyOp56
 70
     1
102
RTVSPropertyOp57
 70
     1
102
RTVSPost2010Prop28
280
     0
102
RTVSPost2010PropOp28
 70
     1
102
RTVSPost2010Prop29
280
     1
102
RTVSPost2010PropOp29
 70
     1
102
RTVSPost2010Prop30
280
     1
102
RTVSPost2010PropOp30
 70
     1
102
RTVSPost2010Prop31
280
     0
102
RTVSPost2010PropOp31
 70
     1
102
RTVSPost2010Prop32
280
     0
102
RTVSPost2010PropOp32
 70
     1
102
RTVSPost2010Prop33
280
     0
102
RTVSPost2010PropOp33
 70
     1
102
RTVSPost2010Prop34
280
     0
102
RTVSPost2010PropOp34
 70
     1
102
RTVSPost2010Prop35
280
     0
102
RTVSPost2010PropOp35
 70
     1
102
RTVSPost2010Prop36
280
     0
102
RTVSPost2010PropOp36
 70
     1
102
RTVSPost2010Prop37
 90
       50
102
RTVSPost2010PropOp37
 70
     1
102
RTVSPost2010Prop38
140
0.0
102
RTVSPost2010PropOp38
 70
     1
102
RTVSPost2010Prop39
140
1.0
102
RTVSPost2010PropOp39
 70
     1
102
RTVSPost2010Prop40
 90
        0
102
RTVSPost2010PropOp40
 70
     1
102
RTVSPost2010Prop41ColorIndex
 90
       18
102
RTVSPost2010Prop41ColorRGB
 90
        0
102
RTVSPost2010PropOp41
 70
     1
102
RTVSPost2010Prop42
 90
       50
102
RTVSPost2010PropOp42
 70
     1
102
RTVSPost2010Prop43
 90
        3
102
RTVSPost2010PropOp43
 70
     1
102
RTVSPost2010Prop44ColorIndex
 90
        5
102
RTVSPost2010Prop44ColorRGB
 90
      255
102
RTVSPost2010PropOp44
 70
     1
102
RTVSPost2010Prop45
280
     0
102
RTVSPost2010PropOp45
 70
     1
102
RTVSPost2010Prop46
 90
       50
102
RTVSPost2010PropOp46
 70
     1
102
RTVSPost2010Prop47
 90
       50
102
RTVSPost2010PropOp47
 70
     1
102
RTVSPost2010Prop48
 90
       50
102
RTVSPost2010PropOp48
 70
     1
102
RTVSPost2010Prop49
280
     0
102
RTVSPost2010PropOp49
 70
     1
102
RTVSPost2010Prop50
 90
       50
102
RTVSPost2010PropOp50
 70
     1
102
RTVSPost2010Prop51ColorIndex
 90
      256
102
RTVSPost2010Prop51ColorRGB
 90
-16777216
102
RTVSPost2010PropOp51
 70
     0
102
RTVSPost2010Prop52
140
1.0
102
RTVSPost2010PropOp52
 70
     0
102
RTVSPost2010Prop53
 90
        2
102
RTVSPost2010PropOp53
 70
     1
102
RTVSPost2010Prop54
  1
strokes_ogs.tif
102
RTVSPost2010PropOp54
 70
     1
102
RTVSPost2010Prop55
280
     0
102
RTVSPost2010PropOp55
 70
     1
102
RTVSPost2010Prop56
140
1.0
102
RTVSPost2010PropOp56
 70
     1
102
RTVSPost2010Prop57
140
1.0
102
RTVSPost2010PropOp57
 70
     1
  0
XRECORD
  5
318
102
{ACAD_REACTORS
330
317
102
}
330
317
100
AcDbXrecord
280
     1
102
RTVSPropertyOp0
 70
     1
102
RTVSPropertyOp1
 70
     1
102
RTVSPropertyOp2
 70
     1
102
RTVSPropertyOp3
 70
     1
102
RTVSPropertyOp4
 70
     1
102
RTVSPropertyOp5
 70
     1
102
RTVSPropertyOp6
 70
     1
102
RTVSPropertyOp7
 70
     1
102
RTVSPropertyOp8
 70
     1
102
RTVSPropertyOp9
 70
     1
102
RTVSPropertyOp10
 70
     1
102
RTVSPropertyOp11
 70
     1
102
RTVSPropertyOp12
 70
     1
102
RTVSPropertyOp13
 70
     1
102
RTVSPropertyOp14
 70
     1
102
RTVSPropertyOp15
 70
     1
102
RTVSPropertyOp16
 70
     1
102
RTVSPropertyOp17
 70
     1
102
RTVSPropertyOp18
 70
     1
102
RTVSPropertyOp19
 70
     1
102
RTVSPropertyOp20
 70
     1
102
RTVSPropertyOp21
 70
     1
102
RTVSPropertyOp22
 70
     1
102
RTVSPropertyOp23
 70
     1
102
RTVSPropertyOp24
 70
     1
102
RTVSPropertyOp25
 70
     1
102
RTVSPropertyOp26
 70
     1
102
RTVSPropertyOp27
 70
     1
102
RTVSPropertyOp28
 70
     1
102
RTVSPropertyOp29
 70
     1
102
RTVSPropertyOp30
 70
     1
102
RTVSPropertyOp31
 70
     1
102
RTVSPropertyOp32
 70
     1
102
RTVSPropertyOp33
 70
     1
102
RTVSPropertyOp34
 70
     1
102
RTVSPropertyOp35
 70
     1
102
RTVSPropertyOp36
 70
     1
102
RTVSPropertyOp37
 70
     1
102
RTVSPropertyOp38
 70
     1
102
RTVSPropertyOp39
 70
     1
102
RTVSPropertyOp40
 70
     1
102
RTVSPropertyOp41
 70
     1
102
RTVSPropertyOp42
 70
     1
102
RTVSPropertyOp43
 70
     1
102
RTVSPropertyOp44
 70
     1
102
RTVSPropertyOp45
 70
     1
102
RTVSPropertyOp46
 70
     1
102
RTVSPropertyOp47
 70
     1
102
RTVSPropertyOp48
 70
     1
102
RTVSPropertyOp49
 70
     1
102
RTVSPropertyOp50
 70
     1
102
RTVSPropertyOp51
 70
     0
102
RTVSPropertyOp52
 70
     0
102
RTVSPropertyOp53
 70
     1
102
RTVSPropertyOp54
 70
     1
102
RTVSPropertyOp55
 70
     1
102
RTVSPropertyOp56
 70
     1
102
RTVSPropertyOp57
 70
     1
102
RTVSPost2010Prop28
280
     0
102
RTVSPost2010PropOp28
 70
     1
102
RTVSPost2010Prop29
280
     1
102
RTVSPost2010PropOp29
 70
     1
102
RTVSPost2010Prop30
280
     1
102
RTVSPost2010PropOp30
 70
     1
102
RTVSPost2010Prop31
280
     0
102
RTVSPost2010PropOp31
 70
     1
102
RTVSPost2010Prop32
280
     0
102
RTVSPost2010PropOp32
 70
     1
102
RTVSPost2010Prop33
280
     0
102
RTVSPost2010PropOp33
 70
     1
102
RTVSPost2010Prop34
280
     0
102
RTVSPost2010PropOp34
 70
     1
102
RTVSPost2010Prop35
280
     0
102
RTVSPost2010PropOp35
 70
     1
102
RTVSPost2010Prop36
280
     0
102
RTVSPost2010PropOp36
 70
     1
102
RTVSPost2010Prop37
 90
       50
102
RTVSPost2010PropOp37
 70
     1
102
RTVSPost2010Prop38
140
0.0
102
RTVSPost2010PropOp38
 70
     1
102
RTVSPost2010Prop39
140
1.0
102
RTVSPost2010PropOp39
 70
     1
102
RTVSPost2010Prop40
 90
        0
102
RTVSPost2010PropOp40
 70
     1
102
RTVSPost2010Prop41ColorIndex
 90
       18
102
RTVSPost2010Prop41ColorRGB
 90
        0
102
RTVSPost2010PropOp41
 70
     1
102
RTVSPost2010Prop42
 90
       50
102
RTVSPost2010PropOp42
 70
     1
102
RTVSPost2010Prop43
 90
        3
102
RTVSPost2010PropOp43
 70
     1
102
RTVSPost2010Prop44ColorIndex
 90
        5
102
RTVSPost2010Prop44ColorRGB
 90
      255
102
RTVSPost2010PropOp44
 70
     1
102
RTVSPost2010Prop45
280
     0
102
RTVSPost2010PropOp45
 70
     1
102
RTVSPost2010Prop46
 90
       50
102
RTVSPost2010PropOp46
 70
     1
102
RTVSPost2010Prop47
 90
       50
102
RTVSPost2010PropOp47
 70
     1
102
RTVSPost2010Prop48
 90
       50
102
RTVSPost2010PropOp48
 70
     1
102
RTVSPost2010Prop49
280
     0
102
RTVSPost2010PropOp49
 70
     1
102
RTVSPost2010Prop50
 90
       50
102
RTVSPost2010PropOp50
 70
     1
102
RTVSPost2010Prop51ColorIndex
 90
      256
102
RTVSPost2010Prop51ColorRGB
 90
-16777216
102
RTVSPost2010PropOp51
 70
     0
102
RTVSPost2010Prop52
140
1.0
102
RTVSPost2010PropOp52
 70
     0
102
RTVSPost2010Prop53
 90
        2
102
RTVSPost2010PropOp53
 70
     1
102
RTVSPost2010Prop54
  1
strokes_ogs.tif
102
RTVSPost2010PropOp54
 70
     1
102
RTVSPost2010Prop55
280
     0
102
RTVSPost2010PropOp55
 70
     1
102
RTVSPost2010Prop56
140
1.0
102
RTVSPost2010PropOp56
 70
     1
102
RTVSPost2010Prop57
140
1.0
102
RTVSPost2010PropOp57
 70
     1
  0
XRECORD
  5
320
102
{ACAD_REACTORS
330
31F
102
}
330
31F
100
AcDbXrecord
280
     1
102
RTVSPropertyOp0
 70
     1
102
RTVSPropertyOp1
 70
     1
102
RTVSPropertyOp2
 70
     1
102
RTVSPropertyOp3
 70
     1
102
RTVSPropertyOp4
 70
     1
102
RTVSPropertyOp5
 70
     1
102
RTVSPropertyOp6
 70
     1
102
RTVSPropertyOp7
 70
     1
102
RTVSPropertyOp8
 70
     1
102
RTVSPropertyOp9
 70
     1
102
RTVSPropertyOp10
 70
     1
102
RTVSPropertyOp11
 70
     1
102
RTVSPropertyOp12
 70
     1
102
RTVSPropertyOp13
 70
     1
102
RTVSPropertyOp14
 70
     1
102
RTVSPropertyOp15
 70
     1
102
RTVSPropertyOp16
 70
     1
102
RTVSPropertyOp17
 70
     1
102
RTVSPropertyOp18
 70
     1
102
RTVSPropertyOp19
 70
     1
102
RTVSPropertyOp20
 70
     1
102
RTVSPropertyOp21
 70
     1
102
RTVSPropertyOp22
 70
     1
102
RTVSPropertyOp23
 70
     1
102
RTVSPropertyOp24
 70
     1
102
RTVSPropertyOp25
 70
     1
102
RTVSPropertyOp26
 70
     1
102
RTVSPropertyOp27
 70
     1
102
RTVSPropertyOp28
 70
     1
102
RTVSPropertyOp29
 70
     1
102
RTVSPropertyOp30
 70
     1
102
RTVSPropertyOp31
 70
     1
102
RTVSPropertyOp32
 70
     1
102
RTVSPropertyOp33
 70
     1
102
RTVSPropertyOp34
 70
     1
102
RTVSPropertyOp35
 70
     1
102
RTVSPropertyOp36
 70
     1
102
RTVSPropertyOp37
 70
     1
102
RTVSPropertyOp38
 70
     1
102
RTVSPropertyOp39
 70
     1
102
RTVSPropertyOp40
 70
     1
102
RTVSPropertyOp41
 70
     1
102
RTVSPropertyOp42
 70
     1
102
RTVSPropertyOp43
 70
     1
102
RTVSPropertyOp44
 70
     1
102
RTVSPropertyOp45
 70
     1
102
RTVSPropertyOp46
 70
     1
102
RTVSPropertyOp47
 70
     1
102
RTVSPropertyOp48
 70
     1
102
RTVSPropertyOp49
 70
     1
102
RTVSPropertyOp50
 70
     1
102
RTVSPropertyOp51
 70
     0
102
RTVSPropertyOp52
 70
     0
102
RTVSPropertyOp53
 70
     1
102
RTVSPropertyOp54
 70
     1
102
RTVSPropertyOp55
 70
     1
102
RTVSPropertyOp56
 70
     1
102
RTVSPropertyOp57
 70
     1
102
RTVSPost2010Prop28
280
     0
102
RTVSPost2010PropOp28
 70
     1
102
RTVSPost2010Prop29
280
     1
102
RTVSPost2010PropOp29
 70
     1
102
RTVSPost2010Prop30
280
     1
102
RTVSPost2010PropOp30
 70
     1
102
RTVSPost2010Prop31
280
     0
102
RTVSPost2010PropOp31
 70
     1
102
RTVSPost2010Prop32
280
     0
102
RTVSPost2010PropOp32
 70
     1
102
RTVSPost2010Prop33
280
     0
102
RTVSPost2010PropOp33
 70
     1
102
RTVSPost2010Prop34
280
     0
102
RTVSPost2010PropOp34
 70
     1
102
RTVSPost2010Prop35
280
     0
102
RTVSPost2010PropOp35
 70
     1
102
RTVSPost2010Prop36
280
     0
102
RTVSPost2010PropOp36
 70
     1
102
RTVSPost2010Prop37
 90
       50
102
RTVSPost2010PropOp37
 70
     1
102
RTVSPost2010Prop38
140
0.0
102
RTVSPost2010PropOp38
 70
     1
102
RTVSPost2010Prop39
140
1.0
102
RTVSPost2010PropOp39
 70
     1
102
RTVSPost2010Prop40
 90
        0
102
RTVSPost2010PropOp40
 70
     1
102
RTVSPost2010Prop41ColorIndex
 90
       18
102
RTVSPost2010Prop41ColorRGB
 90
        0
102
RTVSPost2010PropOp41
 70
     1
102
RTVSPost2010Prop42
 90
       50
102
RTVSPost2010PropOp42
 70
     1
102
RTVSPost2010Prop43
 90
        3
102
RTVSPost2010PropOp43
 70
     1
102
RTVSPost2010Prop44ColorIndex
 90
        5
102
RTVSPost2010Prop44ColorRGB
 90
      255
102
RTVSPost2010PropOp44
 70
     1
102
RTVSPost2010Prop45
280
     0
102
RTVSPost2010PropOp45
 70
     1
102
RTVSPost2010Prop46
 90
       50
102
RTVSPost2010PropOp46
 70
     1
102
RTVSPost2010Prop47
 90
       50
102
RTVSPost2010PropOp47
 70
     1
102
RTVSPost2010Prop48
 90
       50
102
RTVSPost2010PropOp48
 70
     1
102
RTVSPost2010Prop49
280
     0
102
RTVSPost2010PropOp49
 70
     1
102
RTVSPost2010Prop50
 90
       50
102
RTVSPost2010PropOp50
 70
     1
102
RTVSPost2010Prop51ColorIndex
 90
      256
102
RTVSPost2010Prop51ColorRGB
 90
-16777216
102
RTVSPost2010PropOp51
 70
     0
102
RTVSPost2010Prop52
140
1.0
102
RTVSPost2010PropOp52
 70
     0
102
RTVSPost2010Prop53
 90
        2
102
RTVSPost2010PropOp53
 70
     1
102
RTVSPost2010Prop54
  1
strokes_ogs.tif
102
RTVSPost2010PropOp54
 70
     1
102
RTVSPost2010Prop55
280
     0
102
RTVSPost2010PropOp55
 70
     1
102
RTVSPost2010Prop56
140
1.0
102
RTVSPost2010PropOp56
 70
     1
102
RTVSPost2010Prop57
140
1.0
102
RTVSPost2010PropOp57
 70
     1
  0
XRECORD
  5
314
102
{ACAD_REACTORS
330
313
102
}
330
313
100
AcDbXrecord
280
     1
102
RTVSPropertyOp0
 70
     1
102
RTVSPropertyOp1
 70
     1
102
RTVSPropertyOp2
 70
     1
102
RTVSPropertyOp3
 70
     1
102
RTVSPropertyOp4
 70
     1
102
RTVSPropertyOp5
 70
     1
102
RTVSPropertyOp6
 70
     1
102
RTVSPropertyOp7
 70
     1
102
RTVSPropertyOp8
 70
     1
102
RTVSPropertyOp9
 70
     1
102
RTVSPropertyOp10
 70
     1
102
RTVSPropertyOp11
 70
     1
102
RTVSPropertyOp12
 70
     1
102
RTVSPropertyOp13
 70
     1
102
RTVSPropertyOp14
 70
     1
102
RTVSPropertyOp15
 70
     1
102
RTVSPropertyOp16
 70
     1
102
RTVSPropertyOp17
 70
     1
102
RTVSPropertyOp18
 70
     1
102
RTVSPropertyOp19
 70
     1
102
RTVSPropertyOp20
 70
     1
102
RTVSPropertyOp21
 70
     1
102
RTVSPropertyOp22
 70
     1
102
RTVSPropertyOp23
 70
     1
102
RTVSPropertyOp24
 70
     1
102
RTVSPropertyOp25
 70
     1
102
RTVSPropertyOp26
 70
     1
102
RTVSPropertyOp27
 70
     1
102
RTVSPropertyOp28
 70
     1
102
RTVSPropertyOp29
 70
     1
102
RTVSPropertyOp30
 70
     1
102
RTVSPropertyOp31
 70
     1
102
RTVSPropertyOp32
 70
     1
102
RTVSPropertyOp33
 70
     1
102
RTVSPropertyOp34
 70
     1
102
RTVSPropertyOp35
 70
     1
102
RTVSPropertyOp36
 70
     1
102
RTVSPropertyOp37
 70
     1
102
RTVSPropertyOp38
 70
     1
102
RTVSPropertyOp39
 70
     1
102
RTVSPropertyOp40
 70
     1
102
RTVSPropertyOp41
 70
     1
102
RTVSPropertyOp42
 70
     1
102
RTVSPropertyOp43
 70
     1
102
RTVSPropertyOp44
 70
     1
102
RTVSPropertyOp45
 70
     1
102
RTVSPropertyOp46
 70
     1
102
RTVSPropertyOp47
 70
     1
102
RTVSPropertyOp48
 70
     1
102
RTVSPropertyOp49
 70
     1
102
RTVSPropertyOp50
 70
     1
102
RTVSPropertyOp51
 70
     0
102
RTVSPropertyOp52
 70
     0
102
RTVSPropertyOp53
 70
     1
102
RTVSPropertyOp54
 70
     1
102
RTVSPropertyOp55
 70
     1
102
RTVSPropertyOp56
 70
     1
102
RTVSPropertyOp57
 70
     1
102
RTVSPost2010Prop28
280
     0
102
RTVSPost2010PropOp28
 70
     1
102
RTVSPost2010Prop29
280
     1
102
RTVSPost2010PropOp29
 70
     1
102
RTVSPost2010Prop30
280
     1
102
RTVSPost2010PropOp30
 70
     1
102
RTVSPost2010Prop31
280
     0
102
RTVSPost2010PropOp31
 70
     1
102
RTVSPost2010Prop32
280
     0
102
RTVSPost2010PropOp32
 70
     1
102
RTVSPost2010Prop33
280
     0
102
RTVSPost2010PropOp33
 70
     1
102
RTVSPost2010Prop34
280
     0
102
RTVSPost2010PropOp34
 70
     1
102
RTVSPost2010Prop35
280
     0
102
RTVSPost2010PropOp35
 70
     1
102
RTVSPost2010Prop36
280
     0
102
RTVSPost2010PropOp36
 70
     1
102
RTVSPost2010Prop37
 90
       50
102
RTVSPost2010PropOp37
 70
     1
102
RTVSPost2010Prop38
140
0.0
102
RTVSPost2010PropOp38
 70
     1
102
RTVSPost2010Prop39
140
1.0
102
RTVSPost2010PropOp39
 70
     1
102
RTVSPost2010Prop40
 90
        0
102
RTVSPost2010PropOp40
 70
     1
102
RTVSPost2010Prop41ColorIndex
 90
       18
102
RTVSPost2010Prop41ColorRGB
 90
        0
102
RTVSPost2010PropOp41
 70
     1
102
RTVSPost2010Prop42
 90
       50
102
RTVSPost2010PropOp42
 70
     1
102
RTVSPost2010Prop43
 90
        3
102
RTVSPost2010PropOp43
 70
     1
102
RTVSPost2010Prop44ColorIndex
 90
        5
102
RTVSPost2010Prop44ColorRGB
 90
      255
102
RTVSPost2010PropOp44
 70
     1
102
RTVSPost2010Prop45
280
     0
102
RTVSPost2010PropOp45
 70
     1
102
RTVSPost2010Prop46
 90
       50
102
RTVSPost2010PropOp46
 70
     1
102
RTVSPost2010Prop47
 90
       50
102
RTVSPost2010PropOp47
 70
     1
102
RTVSPost2010Prop48
 90
       50
102
RTVSPost2010PropOp48
 70
     1
102
RTVSPost2010Prop49
280
     0
102
RTVSPost2010PropOp49
 70
     1
102
RTVSPost2010Prop50
 90
       50
102
RTVSPost2010PropOp50
 70
     1
102
RTVSPost2010Prop51ColorIndex
 90
      256
102
RTVSPost2010Prop51ColorRGB
 90
-16777216
102
RTVSPost2010PropOp51
 70
     0
102
RTVSPost2010Prop52
140
1.0
102
RTVSPost2010PropOp52
 70
     0
102
RTVSPost2010Prop53
 90
        2
102
RTVSPost2010PropOp53
 70
     1
102
RTVSPost2010Prop54
  1
strokes_ogs.tif
102
RTVSPost2010PropOp54
 70
     1
102
RTVSPost2010Prop55
280
     0
102
RTVSPost2010PropOp55
 70
     1
102
RTVSPost2010Prop56
140
1.0
102
RTVSPost2010PropOp56
 70
     1
102
RTVSPost2010Prop57
140
1.0
102
RTVSPost2010PropOp57
 70
     1
  0
XRECORD
  5
316
102
{ACAD_REACTORS
330
315
102
}
330
315
100
AcDbXrecord
280
     1
102
RTVSPropertyOp0
 70
     1
102
RTVSPropertyOp1
 70
     1
102
RTVSPropertyOp2
 70
     1
102
RTVSPropertyOp3
 70
     1
102
RTVSPropertyOp4
 70
     1
102
RTVSPropertyOp5
 70
     1
102
RTVSPropertyOp6
 70
     1
102
RTVSPropertyOp7
 70
     1
102
RTVSPropertyOp8
 70
     1
102
RTVSPropertyOp9
 70
     1
102
RTVSPropertyOp10
 70
     1
102
RTVSPropertyOp11
 70
     1
102
RTVSPropertyOp12
 70
     1
102
RTVSPropertyOp13
 70
     1
102
RTVSPropertyOp14
 70
     1
102
RTVSPropertyOp15
 70
     1
102
RTVSPropertyOp16
 70
     1
102
RTVSPropertyOp17
 70
     1
102
RTVSPropertyOp18
 70
     1
102
RTVSPropertyOp19
 70
     1
102
RTVSPropertyOp20
 70
     1
102
RTVSPropertyOp21
 70
     1
102
RTVSPropertyOp22
 70
     1
102
RTVSPropertyOp23
 70
     1
102
RTVSPropertyOp24
 70
     1
102
RTVSPropertyOp25
 70
     1
102
RTVSPropertyOp26
 70
     1
102
RTVSPropertyOp27
 70
     1
102
RTVSPropertyOp28
 70
     1
102
RTVSPropertyOp29
 70
     1
102
RTVSPropertyOp30
 70
     1
102
RTVSPropertyOp31
 70
     1
102
RTVSPropertyOp32
 70
     1
102
RTVSPropertyOp33
 70
     1
102
RTVSPropertyOp34
 70
     1
102
RTVSPropertyOp35
 70
     1
102
RTVSPropertyOp36
 70
     1
102
RTVSPropertyOp37
 70
     1
102
RTVSPropertyOp38
 70
     1
102
RTVSPropertyOp39
 70
     1
102
RTVSPropertyOp40
 70
     1
102
RTVSPropertyOp41
 70
     1
102
RTVSPropertyOp42
 70
     1
102
RTVSPropertyOp43
 70
     1
102
RTVSPropertyOp44
 70
     1
102
RTVSPropertyOp45
 70
     1
102
RTVSPropertyOp46
 70
     1
102
RTVSPropertyOp47
 70
     1
102
RTVSPropertyOp48
 70
     1
102
RTVSPropertyOp49
 70
     1
102
RTVSPropertyOp50
 70
     1
102
RTVSPropertyOp51
 70
     0
102
RTVSPropertyOp52
 70
     0
102
RTVSPropertyOp53
 70
     1
102
RTVSPropertyOp54
 70
     1
102
RTVSPropertyOp55
 70
     1
102
RTVSPropertyOp56
 70
     1
102
RTVSPropertyOp57
 70
     1
102
RTVSPost2010Prop28
280
     0
102
RTVSPost2010PropOp28
 70
     1
102
RTVSPost2010Prop29
280
     1
102
RTVSPost2010PropOp29
 70
     1
102
RTVSPost2010Prop30
280
     1
102
RTVSPost2010PropOp30
 70
     1
102
RTVSPost2010Prop31
280
     0
102
RTVSPost2010PropOp31
 70
     1
102
RTVSPost2010Prop32
280
     0
102
RTVSPost2010PropOp32
 70
     1
102
RTVSPost2010Prop33
280
     0
102
RTVSPost2010PropOp33
 70
     1
102
RTVSPost2010Prop34
280
     0
102
RTVSPost2010PropOp34
 70
     1
102
RTVSPost2010Prop35
280
     0
102
RTVSPost2010PropOp35
 70
     1
102
RTVSPost2010Prop36
280
     0
102
RTVSPost2010PropOp36
 70
     1
102
RTVSPost2010Prop37
 90
       50
102
RTVSPost2010PropOp37
 70
     1
102
RTVSPost2010Prop38
140
0.0
102
RTVSPost2010PropOp38
 70
     1
102
RTVSPost2010Prop39
140
1.0
102
RTVSPost2010PropOp39
 70
     1
102
RTVSPost2010Prop40
 90
        0
102
RTVSPost2010PropOp40
 70
     1
102
RTVSPost2010Prop41ColorIndex
 90
       18
102
RTVSPost2010Prop41ColorRGB
 90
        0
102
RTVSPost2010PropOp41
 70
     1
102
RTVSPost2010Prop42
 90
       50
102
RTVSPost2010PropOp42
 70
     1
102
RTVSPost2010Prop43
 90
        3
102
RTVSPost2010PropOp43
 70
     1
102
RTVSPost2010Prop44ColorIndex
 90
        5
102
RTVSPost2010Prop44ColorRGB
 90
      255
102
RTVSPost2010PropOp44
 70
     1
102
RTVSPost2010Prop45
280
     0
102
RTVSPost2010PropOp45
 70
     1
102
RTVSPost2010Prop46
 90
       50
102
RTVSPost2010PropOp46
 70
     1
102
RTVSPost2010Prop47
 90
       50
102
RTVSPost2010PropOp47
 70
     1
102
RTVSPost2010Prop48
 90
       50
102
RTVSPost2010PropOp48
 70
     1
102
RTVSPost2010Prop49
280
     0
102
RTVSPost2010PropOp49
 70
     1
102
RTVSPost2010Prop50
 90
       50
102
RTVSPost2010PropOp50
 70
     1
102
RTVSPost2010Prop51ColorIndex
 90
      256
102
RTVSPost2010Prop51ColorRGB
 90
-16777216
102
RTVSPost2010PropOp51
 70
     0
102
RTVSPost2010Prop52
140
1.0
102
RTVSPost2010PropOp52
 70
     0
102
RTVSPost2010Prop53
 90
        2
102
RTVSPost2010PropOp53
 70
     1
102
RTVSPost2010Prop54
  1
strokes_ogs.tif
102
RTVSPost2010PropOp54
 70
     1
102
RTVSPost2010Prop55
280
     0
102
RTVSPost2010PropOp55
 70
     1
102
RTVSPost2010Prop56
140
1.0
102
RTVSPost2010PropOp56
 70
     1
102
RTVSPost2010Prop57
140
1.0
102
RTVSPost2010PropOp57
 70
     1
  0
XRECORD
  5
326
102
{ACAD_REACTORS
330
325
102
}
330
325
100
AcDbXrecord
280
     1
102
RTVSPropertyOp0
 70
     0
102
RTVSPropertyOp1
 70
     0
102
RTVSPropertyOp2
 70
     0
102
RTVSPropertyOp3
 70
     0
102
RTVSPropertyOp4
 70
     0
102
RTVSPropertyOp5
 70
     0
102
RTVSPropertyOp6
 70
     0
102
RTVSPropertyOp7
 70
     0
102
RTVSPropertyOp8
 70
     0
102
RTVSPropertyOp9
 70
     0
102
RTVSPropertyOp10
 70
     0
102
RTVSPropertyOp11
 70
     0
102
RTVSPropertyOp12
 70
     0
102
RTVSPropertyOp13
 70
     0
102
RTVSPropertyOp14
 70
     2
102
RTVSPropertyOp15
 70
     0
102
RTVSPropertyOp16
 70
     0
102
RTVSPropertyOp17
 70
     0
102
RTVSPropertyOp18
 70
     0
102
RTVSPropertyOp19
 70
     0
102
RTVSPropertyOp20
 70
     0
102
RTVSPropertyOp21
 70
     0
102
RTVSPropertyOp22
 70
     0
102
RTVSPropertyOp23
 70
     0
102
RTVSPropertyOp24
 70
     0
102
RTVSPropertyOp25
 70
     0
102
RTVSPropertyOp26
 70
     0
102
RTVSPropertyOp27
 70
     0
102
RTVSPropertyOp28
 70
     0
102
RTVSPropertyOp29
 70
     0
102
RTVSPropertyOp30
 70
     0
102
RTVSPropertyOp31
 70
     0
102
RTVSPropertyOp32
 70
     0
102
RTVSPropertyOp33
 70
     0
102
RTVSPropertyOp34
 70
     0
102
RTVSPropertyOp35
 70
     0
102
RTVSPropertyOp36
 70
     0
102
RTVSPropertyOp37
 70
     0
102
RTVSPropertyOp38
 70
     0
102
RTVSPropertyOp39
 70
     0
102
RTVSPropertyOp40
 70
     0
102
RTVSPropertyOp41
 70
     0
102
RTVSPropertyOp42
 70
     0
102
RTVSPropertyOp43
 70
     0
102
RTVSPropertyOp44
 70
     0
102
RTVSPropertyOp45
 70
     0
102
RTVSPropertyOp46
 70
     0
102
RTVSPropertyOp47
 70
     0
102
RTVSPropertyOp48
 70
     0
102
RTVSPropertyOp49
 70
     0
102
RTVSPropertyOp50
 70
     0
102
RTVSPropertyOp51
 70
     0
102
RTVSPropertyOp52
 70
     0
102
RTVSPropertyOp53
 70
     0
102
RTVSPropertyOp54
 70
     0
102
RTVSPropertyOp55
 70
     0
102
RTVSPropertyOp56
 70
     0
102
RTVSPropertyOp57
 70
     0
102
RTVSPost2010Prop28
280
     0
102
RTVSPost2010PropOp28
 70
     0
102
RTVSPost2010Prop29
280
     1
102
RTVSPost2010PropOp29
 70
     0
102
RTVSPost2010Prop30
280
     1
102
RTVSPost2010PropOp30
 70
     0
102
RTVSPost2010Prop31
280
     0
102
RTVSPost2010PropOp31
 70
     0
102
RTVSPost2010Prop32
280
     0
102
RTVSPost2010PropOp32
 70
     0
102
RTVSPost2010Prop33
280
     0
102
RTVSPost2010PropOp33
 70
     0
102
RTVSPost2010Prop34
280
     0
102
RTVSPost2010PropOp34
 70
     0
102
RTVSPost2010Prop35
280
     0
102
RTVSPost2010PropOp35
 70
     0
102
RTVSPost2010Prop36
280
     0
102
RTVSPost2010PropOp36
 70
     0
102
RTVSPost2010Prop37
 90
       50
102
RTVSPost2010PropOp37
 70
     0
102
RTVSPost2010Prop38
140
0.0
102
RTVSPost2010PropOp38
 70
     0
102
RTVSPost2010Prop39
140
1.0
102
RTVSPost2010PropOp39
 70
     0
102
RTVSPost2010Prop40
 90
        0
102
RTVSPost2010PropOp40
 70
     0
102
RTVSPost2010Prop41ColorIndex
 90
       18
102
RTVSPost2010Prop41ColorRGB
 90
        0
102
RTVSPost2010PropOp41
 70
     0
102
RTVSPost2010Prop42
 90
       50
102
RTVSPost2010PropOp42
 70
     0
102
RTVSPost2010Prop43
 90
        3
102
RTVSPost2010PropOp43
 70
     0
102
RTVSPost2010Prop44ColorIndex
 90
        5
102
RTVSPost2010Prop44ColorRGB
 90
      255
102
RTVSPost2010PropOp44
 70
     0
102
RTVSPost2010Prop45
280
     0
102
RTVSPost2010PropOp45
 70
     0
102
RTVSPost2010Prop46
 90
       50
102
RTVSPost2010PropOp46
 70
     0
102
RTVSPost2010Prop47
 90
       50
102
RTVSPost2010PropOp47
 70
     0
102
RTVSPost2010Prop48
 90
       50
102
RTVSPost2010PropOp48
 70
     0
102
RTVSPost2010Prop49
280
     0
102
RTVSPost2010PropOp49
 70
     0
102
RTVSPost2010Prop50
 90
       50
102
RTVSPost2010PropOp50
 70
     0
102
RTVSPost2010Prop51ColorIndex
 90
      256
102
RTVSPost2010Prop51ColorRGB
 90
-16777216
102
RTVSPost2010PropOp51
 70
     0
102
RTVSPost2010Prop52
140
1.0
102
RTVSPost2010PropOp52
 70
     0
102
RTVSPost2010Prop53
 90
        2
102
RTVSPost2010PropOp53
 70
     0
102
RTVSPost2010Prop54
  1
strokes_ogs.tif
102
RTVSPost2010PropOp54
 70
     0
102
RTVSPost2010Prop55
280
     0
102
RTVSPost2010PropOp55
 70
     0
102
RTVSPost2010Prop56
140
1.0
102
RTVSPost2010PropOp56
 70
     0
102
RTVSPost2010Prop57
140
1.0
102
RTVSPost2010PropOp57
 70
     0
  0
XRECORD
  5
31E
102
{ACAD_REACTORS
330
31D
102
}
330
31D
100
AcDbXrecord
280
     1
102
RTVSPropertyOp0
 70
     1
102
RTVSPropertyOp1
 70
     1
102
RTVSPropertyOp2
 70
     1
102
RTVSPropertyOp3
 70
     1
102
RTVSPropertyOp4
 70
     1
102
RTVSPropertyOp5
 70
     1
102
RTVSPropertyOp6
 70
     1
102
RTVSPropertyOp7
 70
     1
102
RTVSPropertyOp8
 70
     1
102
RTVSPropertyOp9
 70
     1
102
RTVSPropertyOp10
 70
     1
102
RTVSPropertyOp11
 70
     1
102
RTVSPropertyOp12
 70
     1
102
RTVSPropertyOp13
 70
     1
102
RTVSPropertyOp14
 70
     1
102
RTVSPropertyOp15
 70
     1
102
RTVSPropertyOp16
 70
     1
102
RTVSPropertyOp17
 70
     1
102
RTVSPropertyOp18
 70
     1
102
RTVSPropertyOp19
 70
     1
102
RTVSPropertyOp20
 70
     1
102
RTVSPropertyOp21
 70
     1
102
RTVSPropertyOp22
 70
     1
102
RTVSPropertyOp23
 70
     1
102
RTVSPropertyOp24
 70
     1
102
RTVSPropertyOp25
 70
     1
102
RTVSPropertyOp26
 70
     1
102
RTVSPropertyOp27
 70
     1
102
RTVSPropertyOp28
 70
     1
102
RTVSPropertyOp29
 70
     1
102
RTVSPropertyOp30
 70
     1
102
RTVSPropertyOp31
 70
     1
102
RTVSPropertyOp32
 70
     1
102
RTVSPropertyOp33
 70
     1
102
RTVSPropertyOp34
 70
     1
102
RTVSPropertyOp35
 70
     1
102
RTVSPropertyOp36
 70
     1
102
RTVSPropertyOp37
 70
     1
102
RTVSPropertyOp38
 70
     1
102
RTVSPropertyOp39
 70
     1
102
RTVSPropertyOp40
 70
     1
102
RTVSPropertyOp41
 70
     1
102
RTVSPropertyOp42
 70
     1
102
RTVSPropertyOp43
 70
     1
102
RTVSPropertyOp44
 70
     1
102
RTVSPropertyOp45
 70
     1
102
RTVSPropertyOp46
 70
     1
102
RTVSPropertyOp47
 70
     1
102
RTVSPropertyOp48
 70
     1
102
RTVSPropertyOp49
 70
     1
102
RTVSPropertyOp50
 70
     1
102
RTVSPropertyOp51
 70
     0
102
RTVSPropertyOp52
 70
     0
102
RTVSPropertyOp53
 70
     1
102
RTVSPropertyOp54
 70
     1
102
RTVSPropertyOp55
 70
     1
102
RTVSPropertyOp56
 70
     1
102
RTVSPropertyOp57
 70
     1
102
RTVSPost2010Prop28
280
     0
102
RTVSPost2010PropOp28
 70
     1
102
RTVSPost2010Prop29
280
     1
102
RTVSPost2010PropOp29
 70
     1
102
RTVSPost2010Prop30
280
     1
102
RTVSPost2010PropOp30
 70
     1
102
RTVSPost2010Prop31
280
     0
102
RTVSPost2010PropOp31
 70
     1
102
RTVSPost2010Prop32
280
     0
102
RTVSPost2010PropOp32
 70
     1
102
RTVSPost2010Prop33
280
     0
102
RTVSPost2010PropOp33
 70
     1
102
RTVSPost2010Prop34
280
     0
102
RTVSPost2010PropOp34
 70
     1
102
RTVSPost2010Prop35
280
     0
102
RTVSPost2010PropOp35
 70
     1
102
RTVSPost2010Prop36
280
     0
102
RTVSPost2010PropOp36
 70
     1
102
RTVSPost2010Prop37
 90
       50
102
RTVSPost2010PropOp37
 70
     1
102
RTVSPost2010Prop38
140
0.0
102
RTVSPost2010PropOp38
 70
     1
102
RTVSPost2010Prop39
140
1.0
102
RTVSPost2010PropOp39
 70
     1
102
RTVSPost2010Prop40
 90
        0
102
RTVSPost2010PropOp40
 70
     1
102
RTVSPost2010Prop41ColorIndex
 90
       18
102
RTVSPost2010Prop41ColorRGB
 90
        0
102
RTVSPost2010PropOp41
 70
     1
102
RTVSPost2010Prop42
 90
       50
102
RTVSPost2010PropOp42
 70
     1
102
RTVSPost2010Prop43
 90
        3
102
RTVSPost2010PropOp43
 70
     1
102
RTVSPost2010Prop44ColorIndex
 90
        5
102
RTVSPost2010Prop44ColorRGB
 90
      255
102
RTVSPost2010PropOp44
 70
     1
102
RTVSPost2010Prop45
280
     0
102
RTVSPost2010PropOp45
 70
     1
102
RTVSPost2010Prop46
 90
       50
102
RTVSPost2010PropOp46
 70
     1
102
RTVSPost2010Prop47
 90
       50
102
RTVSPost2010PropOp47
 70
     1
102
RTVSPost2010Prop48
 90
       50
102
RTVSPost2010PropOp48
 70
     1
102
RTVSPost2010Prop49
280
     0
102
RTVSPost2010PropOp49
 70
     1
102
RTVSPost2010Prop50
 90
       50
102
RTVSPost2010PropOp50
 70
     1
102
RTVSPost2010Prop51ColorIndex
 90
      256
102
RTVSPost2010Prop51ColorRGB
 90
-16777216
102
RTVSPost2010PropOp51
 70
     0
102
RTVSPost2010Prop52
140
1.0
102
RTVSPost2010PropOp52
 70
     0
102
RTVSPost2010Prop53
 90
        2
102
RTVSPost2010PropOp53
 70
     1
102
RTVSPost2010Prop54
  1
strokes_ogs.tif
102
RTVSPost2010PropOp54
 70
     1
102
RTVSPost2010Prop55
280
     0
102
RTVSPost2010PropOp55
 70
     1
102
RTVSPost2010Prop56
140
1.0
102
RTVSPost2010PropOp56
 70
     1
102
RTVSPost2010Prop57
140
1.0
102
RTVSPost2010PropOp57
 70
     1
  0
XRECORD
  5
302
102
{ACAD_REACTORS
330
301
102
}
330
301
100
AcDbXrecord
280
     1
102
RTVSPropertyOp0
 70
     1
102
RTVSPropertyOp1
 70
     1
102
RTVSPropertyOp2
 70
     1
102
RTVSPropertyOp3
 70
     1
102
RTVSPropertyOp4
 70
     1
102
RTVSPropertyOp5
 70
     1
102
RTVSPropertyOp6
 70
     1
102
RTVSPropertyOp7
 70
     1
102
RTVSPropertyOp8
 70
     1
102
RTVSPropertyOp9
 70
     1
102
RTVSPropertyOp10
 70
     1
102
RTVSPropertyOp11
 70
     1
102
RTVSPropertyOp12
 70
     1
102
RTVSPropertyOp13
 70
     1
102
RTVSPropertyOp14
 70
     1
102
RTVSPropertyOp15
 70
     1
102
RTVSPropertyOp16
 70
     1
102
RTVSPropertyOp17
 70
     1
102
RTVSPropertyOp18
 70
     1
102
RTVSPropertyOp19
 70
     1
102
RTVSPropertyOp20
 70
     1
102
RTVSPropertyOp21
 70
     1
102
RTVSPropertyOp22
 70
     1
102
RTVSPropertyOp23
 70
     1
102
RTVSPropertyOp24
 70
     1
102
RTVSPropertyOp25
 70
     1
102
RTVSPropertyOp26
 70
     1
102
RTVSPropertyOp27
 70
     1
102
RTVSPropertyOp28
 70
     1
102
RTVSPropertyOp29
 70
     1
102
RTVSPropertyOp30
 70
     1
102
RTVSPropertyOp31
 70
     1
102
RTVSPropertyOp32
 70
     1
102
RTVSPropertyOp33
 70
     1
102
RTVSPropertyOp34
 70
     1
102
RTVSPropertyOp35
 70
     1
102
RTVSPropertyOp36
 70
     1
102
RTVSPropertyOp37
 70
     1
102
RTVSPropertyOp38
 70
     1
102
RTVSPropertyOp39
 70
     1
102
RTVSPropertyOp40
 70
     1
102
RTVSPropertyOp41
 70
     1
102
RTVSPropertyOp42
 70
     1
102
RTVSPropertyOp43
 70
     1
102
RTVSPropertyOp44
 70
     1
102
RTVSPropertyOp45
 70
     1
102
RTVSPropertyOp46
 70
     1
102
RTVSPropertyOp47
 70
     1
102
RTVSPropertyOp48
 70
     1
102
RTVSPropertyOp49
 70
     1
102
RTVSPropertyOp50
 70
     1
102
RTVSPropertyOp51
 70
     0
102
RTVSPropertyOp52
 70
     0
102
RTVSPropertyOp53
 70
     1
102
RTVSPropertyOp54
 70
     1
102
RTVSPropertyOp55
 70
     1
102
RTVSPropertyOp56
 70
     1
102
RTVSPropertyOp57
 70
     1
102
RTVSPost2010Prop28
280
     0
102
RTVSPost2010PropOp28
 70
     1
102
RTVSPost2010Prop29
280
     1
102
RTVSPost2010PropOp29
 70
     1
102
RTVSPost2010Prop30
280
     1
102
RTVSPost2010PropOp30
 70
     1
102
RTVSPost2010Prop31
280
     0
102
RTVSPost2010PropOp31
 70
     1
102
RTVSPost2010Prop32
280
     0
102
RTVSPost2010PropOp32
 70
     1
102
RTVSPost2010Prop33
280
     0
102
RTVSPost2010PropOp33
 70
     1
102
RTVSPost2010Prop34
280
     0
102
RTVSPost2010PropOp34
 70
     1
102
RTVSPost2010Prop35
280
     0
102
RTVSPost2010PropOp35
 70
     1
102
RTVSPost2010Prop36
280
     0
102
RTVSPost2010PropOp36
 70
     1
102
RTVSPost2010Prop37
 90
       50
102
RTVSPost2010PropOp37
 70
     1
102
RTVSPost2010Prop38
140
0.0
102
RTVSPost2010PropOp38
 70
     1
102
RTVSPost2010Prop39
140
1.0
102
RTVSPost2010PropOp39
 70
     1
102
RTVSPost2010Prop40
 90
        0
102
RTVSPost2010PropOp40
 70
     1
102
RTVSPost2010Prop41ColorIndex
 90
       18
102
RTVSPost2010Prop41ColorRGB
 90
        0
102
RTVSPost2010PropOp41
 70
     1
102
RTVSPost2010Prop42
 90
       50
102
RTVSPost2010PropOp42
 70
     1
102
RTVSPost2010Prop43
 90
        3
102
RTVSPost2010PropOp43
 70
     1
102
RTVSPost2010Prop44ColorIndex
 90
        5
102
RTVSPost2010Prop44ColorRGB
 90
      255
102
RTVSPost2010PropOp44
 70
     1
102
RTVSPost2010Prop45
280
     0
102
RTVSPost2010PropOp45
 70
     1
102
RTVSPost2010Prop46
 90
       50
102
RTVSPost2010PropOp46
 70
     1
102
RTVSPost2010Prop47
 90
       50
102
RTVSPost2010PropOp47
 70
     1
102
RTVSPost2010Prop48
 90
       50
102
RTVSPost2010PropOp48
 70
     1
102
RTVSPost2010Prop49
280
     0
102
RTVSPost2010PropOp49
 70
     1
102
RTVSPost2010Prop50
 90
       50
102
RTVSPost2010PropOp50
 70
     1
102
RTVSPost2010Prop51ColorIndex
 90
      256
102
RTVSPost2010Prop51ColorRGB
 90
-16777216
102
RTVSPost2010PropOp51
 70
     0
102
RTVSPost2010Prop52
140
1.0
102
RTVSPost2010PropOp52
 70
     0
102
RTVSPost2010Prop53
 90
        2
102
RTVSPost2010PropOp53
 70
     1
102
RTVSPost2010Prop54
  1
strokes_ogs.tif
102
RTVSPost2010PropOp54
 70
     1
102
RTVSPost2010Prop55
280
     0
102
RTVSPost2010PropOp55
 70
     1
102
RTVSPost2010Prop56
140
1.0
102
RTVSPost2010PropOp56
 70
     1
102
RTVSPost2010Prop57
140
1.0
102
RTVSPost2010PropOp57
 70
     1
  0
XRECORD
  5
304
102
{ACAD_REACTORS
330
303
102
}
330
303
100
AcDbXrecord
280
     1
102
RTVSPropertyOp0
 70
     1
102
RTVSPropertyOp1
 70
     1
102
RTVSPropertyOp2
 70
     1
102
RTVSPropertyOp3
 70
     1
102
RTVSPropertyOp4
 70
     1
102
RTVSPropertyOp5
 70
     1
102
RTVSPropertyOp6
 70
     1
102
RTVSPropertyOp7
 70
     1
102
RTVSPropertyOp8
 70
     1
102
RTVSPropertyOp9
 70
     1
102
RTVSPropertyOp10
 70
     1
102
RTVSPropertyOp11
 70
     1
102
RTVSPropertyOp12
 70
     1
102
RTVSPropertyOp13
 70
     1
102
RTVSPropertyOp14
 70
     1
102
RTVSPropertyOp15
 70
     1
102
RTVSPropertyOp16
 70
     1
102
RTVSPropertyOp17
 70
     1
102
RTVSPropertyOp18
 70
     1
102
RTVSPropertyOp19
 70
     1
102
RTVSPropertyOp20
 70
     1
102
RTVSPropertyOp21
 70
     1
102
RTVSPropertyOp22
 70
     1
102
RTVSPropertyOp23
 70
     1
102
RTVSPropertyOp24
 70
     1
102
RTVSPropertyOp25
 70
     1
102
RTVSPropertyOp26
 70
     1
102
RTVSPropertyOp27
 70
     1
102
RTVSPropertyOp28
 70
     1
102
RTVSPropertyOp29
 70
     1
102
RTVSPropertyOp30
 70
     1
102
RTVSPropertyOp31
 70
     1
102
RTVSPropertyOp32
 70
     1
102
RTVSPropertyOp33
 70
     1
102
RTVSPropertyOp34
 70
     1
102
RTVSPropertyOp35
 70
     1
102
RTVSPropertyOp36
 70
     1
102
RTVSPropertyOp37
 70
     1
102
RTVSPropertyOp38
 70
     1
102
RTVSPropertyOp39
 70
     1
102
RTVSPropertyOp40
 70
     1
102
RTVSPropertyOp41
 70
     1
102
RTVSPropertyOp42
 70
     1
102
RTVSPropertyOp43
 70
     1
102
RTVSPropertyOp44
 70
     1
102
RTVSPropertyOp45
 70
     1
102
RTVSPropertyOp46
 70
     1
102
RTVSPropertyOp47
 70
     1
102
RTVSPropertyOp48
 70
     1
102
RTVSPropertyOp49
 70
     1
102
RTVSPropertyOp50
 70
     1
102
RTVSPropertyOp51
 70
     0
102
RTVSPropertyOp52
 70
     0
102
RTVSPropertyOp53
 70
     1
102
RTVSPropertyOp54
 70
     1
102
RTVSPropertyOp55
 70
     1
102
RTVSPropertyOp56
 70
     1
102
RTVSPropertyOp57
 70
     1
102
RTVSPost2010Prop28
280
     0
102
RTVSPost2010PropOp28
 70
     1
102
RTVSPost2010Prop29
280
     1
102
RTVSPost2010PropOp29
 70
     1
102
RTVSPost2010Prop30
280
     1
102
RTVSPost2010PropOp30
 70
     1
102
RTVSPost2010Prop31
280
     0
102
RTVSPost2010PropOp31
 70
     1
102
RTVSPost2010Prop32
280
     0
102
RTVSPost2010PropOp32
 70
     1
102
RTVSPost2010Prop33
280
     0
102
RTVSPost2010PropOp33
 70
     1
102
RTVSPost2010Prop34
280
     0
102
RTVSPost2010PropOp34
 70
     1
102
RTVSPost2010Prop35
280
     0
102
RTVSPost2010PropOp35
 70
     1
102
RTVSPost2010Prop36
280
     0
102
RTVSPost2010PropOp36
 70
     1
102
RTVSPost2010Prop37
 90
       50
102
RTVSPost2010PropOp37
 70
     1
102
RTVSPost2010Prop38
140
0.0
102
RTVSPost2010PropOp38
 70
     1
102
RTVSPost2010Prop39
140
1.0
102
RTVSPost2010PropOp39
 70
     1
102
RTVSPost2010Prop40
 90
        0
102
RTVSPost2010PropOp40
 70
     1
102
RTVSPost2010Prop41ColorIndex
 90
       18
102
RTVSPost2010Prop41ColorRGB
 90
        0
102
RTVSPost2010PropOp41
 70
     1
102
RTVSPost2010Prop42
 90
       50
102
RTVSPost2010PropOp42
 70
     1
102
RTVSPost2010Prop43
 90
        3
102
RTVSPost2010PropOp43
 70
     1
102
RTVSPost2010Prop44ColorIndex
 90
        5
102
RTVSPost2010Prop44ColorRGB
 90
      255
102
RTVSPost2010PropOp44
 70
     1
102
RTVSPost2010Prop45
280
     0
102
RTVSPost2010PropOp45
 70
     1
102
RTVSPost2010Prop46
 90
       50
102
RTVSPost2010PropOp46
 70
     1
102
RTVSPost2010Prop47
 90
       50
102
RTVSPost2010PropOp47
 70
     1
102
RTVSPost2010Prop48
 90
       50
102
RTVSPost2010PropOp48
 70
     1
102
RTVSPost2010Prop49
280
     0
102
RTVSPost2010PropOp49
 70
     1
102
RTVSPost2010Prop50
 90
       50
102
RTVSPost2010PropOp50
 70
     1
102
RTVSPost2010Prop51ColorIndex
 90
      256
102
RTVSPost2010Prop51ColorRGB
 90
-16777216
102
RTVSPost2010PropOp51
 70
     0
102
RTVSPost2010Prop52
140
1.0
102
RTVSPost2010PropOp52
 70
     0
102
RTVSPost2010Prop53
 90
        2
102
RTVSPost2010PropOp53
 70
     1
102
RTVSPost2010Prop54
  1
strokes_ogs.tif
102
RTVSPost2010PropOp54
 70
     1
102
RTVSPost2010Prop55
280
     0
102
RTVSPost2010PropOp55
 70
     1
102
RTVSPost2010Prop56
140
1.0
102
RTVSPost2010PropOp56
 70
     1
102
RTVSPost2010Prop57
140
1.0
102
RTVSPost2010PropOp57
 70
     1
  0
XRECORD
  5
306
102
{ACAD_REACTORS
330
305
102
}
330
305
100
AcDbXrecord
280
     1
102
RTVSPropertyOp0
 70
     1
102
RTVSPropertyOp1
 70
     1
102
RTVSPropertyOp2
 70
     1
102
RTVSPropertyOp3
 70
     1
102
RTVSPropertyOp4
 70
     1
102
RTVSPropertyOp5
 70
     1
102
RTVSPropertyOp6
 70
     1
102
RTVSPropertyOp7
 70
     1
102
RTVSPropertyOp8
 70
     1
102
RTVSPropertyOp9
 70
     1
102
RTVSPropertyOp10
 70
     1
102
RTVSPropertyOp11
 70
     1
102
RTVSPropertyOp12
 70
     1
102
RTVSPropertyOp13
 70
     1
102
RTVSPropertyOp14
 70
     1
102
RTVSPropertyOp15
 70
     1
102
RTVSPropertyOp16
 70
     1
102
RTVSPropertyOp17
 70
     1
102
RTVSPropertyOp18
 70
     1
102
RTVSPropertyOp19
 70
     1
102
RTVSPropertyOp20
 70
     1
102
RTVSPropertyOp21
 70
     1
102
RTVSPropertyOp22
 70
     1
102
RTVSPropertyOp23
 70
     1
102
RTVSPropertyOp24
 70
     1
102
RTVSPropertyOp25
 70
     1
102
RTVSPropertyOp26
 70
     1
102
RTVSPropertyOp27
 70
     1
102
RTVSPropertyOp28
 70
     1
102
RTVSPropertyOp29
 70
     1
102
RTVSPropertyOp30
 70
     1
102
RTVSPropertyOp31
 70
     1
102
RTVSPropertyOp32
 70
     1
102
RTVSPropertyOp33
 70
     1
102
RTVSPropertyOp34
 70
     1
102
RTVSPropertyOp35
 70
     1
102
RTVSPropertyOp36
 70
     1
102
RTVSPropertyOp37
 70
     1
102
RTVSPropertyOp38
 70
     1
102
RTVSPropertyOp39
 70
     1
102
RTVSPropertyOp40
 70
     1
102
RTVSPropertyOp41
 70
     1
102
RTVSPropertyOp42
 70
     1
102
RTVSPropertyOp43
 70
     1
102
RTVSPropertyOp44
 70
     1
102
RTVSPropertyOp45
 70
     1
102
RTVSPropertyOp46
 70
     1
102
RTVSPropertyOp47
 70
     1
102
RTVSPropertyOp48
 70
     1
102
RTVSPropertyOp49
 70
     1
102
RTVSPropertyOp50
 70
     1
102
RTVSPropertyOp51
 70
     0
102
RTVSPropertyOp52
 70
     0
102
RTVSPropertyOp53
 70
     1
102
RTVSPropertyOp54
 70
     1
102
RTVSPropertyOp55
 70
     1
102
RTVSPropertyOp56
 70
     1
102
RTVSPropertyOp57
 70
     1
102
RTVSPost2010Prop28
280
     0
102
RTVSPost2010PropOp28
 70
     1
102
RTVSPost2010Prop29
280
     1
102
RTVSPost2010PropOp29
 70
     1
102
RTVSPost2010Prop30
280
     1
102
RTVSPost2010PropOp30
 70
     1
102
RTVSPost2010Prop31
280
     0
102
RTVSPost2010PropOp31
 70
     1
102
RTVSPost2010Prop32
280
     0
102
RTVSPost2010PropOp32
 70
     1
102
RTVSPost2010Prop33
280
     0
102
RTVSPost2010PropOp33
 70
     1
102
RTVSPost2010Prop34
280
     0
102
RTVSPost2010PropOp34
 70
     1
102
RTVSPost2010Prop35
280
     0
102
RTVSPost2010PropOp35
 70
     1
102
RTVSPost2010Prop36
280
     0
102
RTVSPost2010PropOp36
 70
     1
102
RTVSPost2010Prop37
 90
       50
102
RTVSPost2010PropOp37
 70
     1
102
RTVSPost2010Prop38
140
0.0
102
RTVSPost2010PropOp38
 70
     1
102
RTVSPost2010Prop39
140
1.0
102
RTVSPost2010PropOp39
 70
     1
102
RTVSPost2010Prop40
 90
        0
102
RTVSPost2010PropOp40
 70
     1
102
RTVSPost2010Prop41ColorIndex
 90
       18
102
RTVSPost2010Prop41ColorRGB
 90
        0
102
RTVSPost2010PropOp41
 70
     1
102
RTVSPost2010Prop42
 90
       50
102
RTVSPost2010PropOp42
 70
     1
102
RTVSPost2010Prop43
 90
        3
102
RTVSPost2010PropOp43
 70
     1
102
RTVSPost2010Prop44ColorIndex
 90
        5
102
RTVSPost2010Prop44ColorRGB
 90
      255
102
RTVSPost2010PropOp44
 70
     1
102
RTVSPost2010Prop45
280
     0
102
RTVSPost2010PropOp45
 70
     1
102
RTVSPost2010Prop46
 90
       50
102
RTVSPost2010PropOp46
 70
     1
102
RTVSPost2010Prop47
 90
       50
102
RTVSPost2010PropOp47
 70
     1
102
RTVSPost2010Prop48
 90
       50
102
RTVSPost2010PropOp48
 70
     1
102
RTVSPost2010Prop49
280
     0
102
RTVSPost2010PropOp49
 70
     1
102
RTVSPost2010Prop50
 90
       50
102
RTVSPost2010PropOp50
 70
     1
102
RTVSPost2010Prop51ColorIndex
 90
      256
102
RTVSPost2010Prop51ColorRGB
 90
-16777216
102
RTVSPost2010PropOp51
 70
     0
102
RTVSPost2010Prop52
140
1.0
102
RTVSPost2010PropOp52
 70
     0
102
RTVSPost2010Prop53
 90
        2
102
RTVSPost2010PropOp53
 70
     1
102
RTVSPost2010Prop54
  1
strokes_ogs.tif
102
RTVSPost2010PropOp54
 70
     1
102
RTVSPost2010Prop55
280
     0
102
RTVSPost2010PropOp55
 70
     1
102
RTVSPost2010Prop56
140
1.0
102
RTVSPost2010PropOp56
 70
     1
102
RTVSPost2010Prop57
140
1.0
102
RTVSPost2010PropOp57
 70
     1
  0
XRECORD
  5
308
102
{ACAD_REACTORS
330
307
102
}
330
307
100
AcDbXrecord
280
     1
102
RTVSPropertyOp0
 70
     1
102
RTVSPropertyOp1
 70
     1
102
RTVSPropertyOp2
 70
     1
102
RTVSPropertyOp3
 70
     1
102
RTVSPropertyOp4
 70
     1
102
RTVSPropertyOp5
 70
     1
102
RTVSPropertyOp6
 70
     1
102
RTVSPropertyOp7
 70
     1
102
RTVSPropertyOp8
 70
     1
102
RTVSPropertyOp9
 70
     1
102
RTVSPropertyOp10
 70
     1
102
RTVSPropertyOp11
 70
     1
102
RTVSPropertyOp12
 70
     1
102
RTVSPropertyOp13
 70
     1
102
RTVSPropertyOp14
 70
     1
102
RTVSPropertyOp15
 70
     1
102
RTVSPropertyOp16
 70
     1
102
RTVSPropertyOp17
 70
     1
102
RTVSPropertyOp18
 70
     1
102
RTVSPropertyOp19
 70
     1
102
RTVSPropertyOp20
 70
     1
102
RTVSPropertyOp21
 70
     1
102
RTVSPropertyOp22
 70
     1
102
RTVSPropertyOp23
 70
     1
102
RTVSPropertyOp24
 70
     1
102
RTVSPropertyOp25
 70
     1
102
RTVSPropertyOp26
 70
     1
102
RTVSPropertyOp27
 70
     1
102
RTVSPropertyOp28
 70
     1
102
RTVSPropertyOp29
 70
     1
102
RTVSPropertyOp30
 70
     1
102
RTVSPropertyOp31
 70
     1
102
RTVSPropertyOp32
 70
     1
102
RTVSPropertyOp33
 70
     1
102
RTVSPropertyOp34
 70
     1
102
RTVSPropertyOp35
 70
     1
102
RTVSPropertyOp36
 70
     1
102
RTVSPropertyOp37
 70
     1
102
RTVSPropertyOp38
 70
     1
102
RTVSPropertyOp39
 70
     1
102
RTVSPropertyOp40
 70
     1
102
RTVSPropertyOp41
 70
     1
102
RTVSPropertyOp42
 70
     1
102
RTVSPropertyOp43
 70
     1
102
RTVSPropertyOp44
 70
     1
102
RTVSPropertyOp45
 70
     1
102
RTVSPropertyOp46
 70
     1
102
RTVSPropertyOp47
 70
     1
102
RTVSPropertyOp48
 70
     1
102
RTVSPropertyOp49
 70
     1
102
RTVSPropertyOp50
 70
     1
102
RTVSPropertyOp51
 70
     0
102
RTVSPropertyOp52
 70
     0
102
RTVSPropertyOp53
 70
     1
102
RTVSPropertyOp54
 70
     1
102
RTVSPropertyOp55
 70
     1
102
RTVSPropertyOp56
 70
     1
102
RTVSPropertyOp57
 70
     1
102
RTVSPost2010Prop28
280
     0
102
RTVSPost2010PropOp28
 70
     1
102
RTVSPost2010Prop29
280
     1
102
RTVSPost2010PropOp29
 70
     1
102
RTVSPost2010Prop30
280
     1
102
RTVSPost2010PropOp30
 70
     1
102
RTVSPost2010Prop31
280
     0
102
RTVSPost2010PropOp31
 70
     1
102
RTVSPost2010Prop32
280
     0
102
RTVSPost2010PropOp32
 70
     1
102
RTVSPost2010Prop33
280
     0
102
RTVSPost2010PropOp33
 70
     1
102
RTVSPost2010Prop34
280
     0
102
RTVSPost2010PropOp34
 70
     1
102
RTVSPost2010Prop35
280
     0
102
RTVSPost2010PropOp35
 70
     1
102
RTVSPost2010Prop36
280
     0
102
RTVSPost2010PropOp36
 70
     1
102
RTVSPost2010Prop37
 90
       50
102
RTVSPost2010PropOp37
 70
     1
102
RTVSPost2010Prop38
140
0.0
102
RTVSPost2010PropOp38
 70
     1
102
RTVSPost2010Prop39
140
1.0
102
RTVSPost2010PropOp39
 70
     1
102
RTVSPost2010Prop40
 90
        0
102
RTVSPost2010PropOp40
 70
     1
102
RTVSPost2010Prop41ColorIndex
 90
       18
102
RTVSPost2010Prop41ColorRGB
 90
        0
102
RTVSPost2010PropOp41
 70
     1
102
RTVSPost2010Prop42
 90
       50
102
RTVSPost2010PropOp42
 70
     1
102
RTVSPost2010Prop43
 90
        3
102
RTVSPost2010PropOp43
 70
     1
102
RTVSPost2010Prop44ColorIndex
 90
        5
102
RTVSPost2010Prop44ColorRGB
 90
      255
102
RTVSPost2010PropOp44
 70
     1
102
RTVSPost2010Prop45
280
     0
102
RTVSPost2010PropOp45
 70
     1
102
RTVSPost2010Prop46
 90
       50
102
RTVSPost2010PropOp46
 70
     1
102
RTVSPost2010Prop47
 90
       50
102
RTVSPost2010PropOp47
 70
     1
102
RTVSPost2010Prop48
 90
       50
102
RTVSPost2010PropOp48
 70
     1
102
RTVSPost2010Prop49
280
     0
102
RTVSPost2010PropOp49
 70
     1
102
RTVSPost2010Prop50
 90
       50
102
RTVSPost2010PropOp50
 70
     1
102
RTVSPost2010Prop51ColorIndex
 90
      256
102
RTVSPost2010Prop51ColorRGB
 90
-16777216
102
RTVSPost2010PropOp51
 70
     0
102
RTVSPost2010Prop52
140
1.0
102
RTVSPost2010PropOp52
 70
     0
102
RTVSPost2010Prop53
 90
        2
102
RTVSPost2010PropOp53
 70
     1
102
RTVSPost2010Prop54
  1
strokes_ogs.tif
102
RTVSPost2010PropOp54
 70
     1
102
RTVSPost2010Prop55
280
     0
102
RTVSPost2010PropOp55
 70
     1
102
RTVSPost2010Prop56
140
1.0
102
RTVSPost2010PropOp56
 70
     1
102
RTVSPost2010Prop57
140
1.0
102
RTVSPost2010PropOp57
 70
     1
  0
XRECORD
  5
30E
102
{ACAD_REACTORS
330
30D
102
}
330
30D
100
AcDbXrecord
280
     1
102
RTVSPropertyOp0
 70
     1
102
RTVSPropertyOp1
 70
     1
102
RTVSPropertyOp2
 70
     1
102
RTVSPropertyOp3
 70
     1
102
RTVSPropertyOp4
 70
     1
102
RTVSPropertyOp5
 70
     1
102
RTVSPropertyOp6
 70
     1
102
RTVSPropertyOp7
 70
     1
102
RTVSPropertyOp8
 70
     1
102
RTVSPropertyOp9
 70
     1
102
RTVSPropertyOp10
 70
     1
102
RTVSPropertyOp11
 70
     1
102
RTVSPropertyOp12
 70
     1
102
RTVSPropertyOp13
 70
     1
102
RTVSPropertyOp14
 70
     1
102
RTVSPropertyOp15
 70
     1
102
RTVSPropertyOp16
 70
     1
102
RTVSPropertyOp17
 70
     1
102
RTVSPropertyOp18
 70
     1
102
RTVSPropertyOp19
 70
     1
102
RTVSPropertyOp20
 70
     1
102
RTVSPropertyOp21
 70
     1
102
RTVSPropertyOp22
 70
     1
102
RTVSPropertyOp23
 70
     1
102
RTVSPropertyOp24
 70
     1
102
RTVSPropertyOp25
 70
     1
102
RTVSPropertyOp26
 70
     1
102
RTVSPropertyOp27
 70
     1
102
RTVSPropertyOp28
 70
     1
102
RTVSPropertyOp29
 70
     1
102
RTVSPropertyOp30
 70
     1
102
RTVSPropertyOp31
 70
     1
102
RTVSPropertyOp32
 70
     1
102
RTVSPropertyOp33
 70
     1
102
RTVSPropertyOp34
 70
     1
102
RTVSPropertyOp35
 70
     1
102
RTVSPropertyOp36
 70
     1
102
RTVSPropertyOp37
 70
     1
102
RTVSPropertyOp38
 70
     1
102
RTVSPropertyOp39
 70
     1
102
RTVSPropertyOp40
 70
     1
102
RTVSPropertyOp41
 70
     1
102
RTVSPropertyOp42
 70
     1
102
RTVSPropertyOp43
 70
     1
102
RTVSPropertyOp44
 70
     1
102
RTVSPropertyOp45
 70
     1
102
RTVSPropertyOp46
 70
     1
102
RTVSPropertyOp47
 70
     1
102
RTVSPropertyOp48
 70
     1
102
RTVSPropertyOp49
 70
     1
102
RTVSPropertyOp50
 70
     1
102
RTVSPropertyOp51
 70
     0
102
RTVSPropertyOp52
 70
     0
102
RTVSPropertyOp53
 70
     1
102
RTVSPropertyOp54
 70
     1
102
RTVSPropertyOp55
 70
     1
102
RTVSPropertyOp56
 70
     1
102
RTVSPropertyOp57
 70
     1
102
RTVSPost2010Prop28
280
     0
102
RTVSPost2010PropOp28
 70
     1
102
RTVSPost2010Prop29
280
     1
102
RTVSPost2010PropOp29
 70
     1
102
RTVSPost2010Prop30
280
     1
102
RTVSPost2010PropOp30
 70
     1
102
RTVSPost2010Prop31
280
     0
102
RTVSPost2010PropOp31
 70
     1
102
RTVSPost2010Prop32
280
     0
102
RTVSPost2010PropOp32
 70
     1
102
RTVSPost2010Prop33
280
     0
102
RTVSPost2010PropOp33
 70
     1
102
RTVSPost2010Prop34
280
     0
102
RTVSPost2010PropOp34
 70
     1
102
RTVSPost2010Prop35
280
     0
102
RTVSPost2010PropOp35
 70
     1
102
RTVSPost2010Prop36
280
     0
102
RTVSPost2010PropOp36
 70
     1
102
RTVSPost2010Prop37
 90
       50
102
RTVSPost2010PropOp37
 70
     1
102
RTVSPost2010Prop38
140
0.0
102
RTVSPost2010PropOp38
 70
     1
102
RTVSPost2010Prop39
140
1.0
102
RTVSPost2010PropOp39
 70
     1
102
RTVSPost2010Prop40
 90
        0
102
RTVSPost2010PropOp40
 70
     1
102
RTVSPost2010Prop41ColorIndex
 90
       18
102
RTVSPost2010Prop41ColorRGB
 90
        0
102
RTVSPost2010PropOp41
 70
     1
102
RTVSPost2010Prop42
 90
       50
102
RTVSPost2010PropOp42
 70
     1
102
RTVSPost2010Prop43
 90
        3
102
RTVSPost2010PropOp43
 70
     1
102
RTVSPost2010Prop44ColorIndex
 90
        5
102
RTVSPost2010Prop44ColorRGB
 90
      255
102
RTVSPost2010PropOp44
 70
     1
102
RTVSPost2010Prop45
280
     0
102
RTVSPost2010PropOp45
 70
     1
102
RTVSPost2010Prop46
 90
       50
102
RTVSPost2010PropOp46
 70
     1
102
RTVSPost2010Prop47
 90
       50
102
RTVSPost2010PropOp47
 70
     1
102
RTVSPost2010Prop48
 90
       50
102
RTVSPost2010PropOp48
 70
     1
102
RTVSPost2010Prop49
280
     0
102
RTVSPost2010PropOp49
 70
     1
102
RTVSPost2010Prop50
 90
       50
102
RTVSPost2010PropOp50
 70
     1
102
RTVSPost2010Prop51ColorIndex
 90
      256
102
RTVSPost2010Prop51ColorRGB
 90
-16777216
102
RTVSPost2010PropOp51
 70
     0
102
RTVSPost2010Prop52
140
1.0
102
RTVSPost2010PropOp52
 70
     0
102
RTVSPost2010Prop53
 90
        2
102
RTVSPost2010PropOp53
 70
     1
102
RTVSPost2010Prop54
  1
strokes_ogs.tif
102
RTVSPost2010PropOp54
 70
     1
102
RTVSPost2010Prop55
280
     0
102
RTVSPost2010PropOp55
 70
     1
102
RTVSPost2010Prop56
140
1.0
102
RTVSPost2010PropOp56
 70
     1
102
RTVSPost2010Prop57
140
1.0
102
RTVSPost2010PropOp57
 70
     1
  0
XRECORD
  5
322
102
{ACAD_REACTORS
330
321
102
}
330
321
100
AcDbXrecord
280
     1
102
RTVSPropertyOp0
 70
     0
102
RTVSPropertyOp1
 70
     0
102
RTVSPropertyOp2
 70
     0
102
RTVSPropertyOp3
 70
     0
102
RTVSPropertyOp4
 70
     0
102
RTVSPropertyOp5
 70
     0
102
RTVSPropertyOp6
 70
     0
102
RTVSPropertyOp7
 70
     0
102
RTVSPropertyOp8
 70
     0
102
RTVSPropertyOp9
 70
     0
102
RTVSPropertyOp10
 70
     0
102
RTVSPropertyOp11
 70
     0
102
RTVSPropertyOp12
 70
     0
102
RTVSPropertyOp13
 70
     0
102
RTVSPropertyOp14
 70
     2
102
RTVSPropertyOp15
 70
     0
102
RTVSPropertyOp16
 70
     0
102
RTVSPropertyOp17
 70
     0
102
RTVSPropertyOp18
 70
     0
102
RTVSPropertyOp19
 70
     0
102
RTVSPropertyOp20
 70
     0
102
RTVSPropertyOp21
 70
     0
102
RTVSPropertyOp22
 70
     0
102
RTVSPropertyOp23
 70
     0
102
RTVSPropertyOp24
 70
     0
102
RTVSPropertyOp25
 70
     0
102
RTVSPropertyOp26
 70
     0
102
RTVSPropertyOp27
 70
     0
102
RTVSPropertyOp28
 70
     0
102
RTVSPropertyOp29
 70
     0
102
RTVSPropertyOp30
 70
     0
102
RTVSPropertyOp31
 70
     0
102
RTVSPropertyOp32
 70
     0
102
RTVSPropertyOp33
 70
     0
102
RTVSPropertyOp34
 70
     0
102
RTVSPropertyOp35
 70
     0
102
RTVSPropertyOp36
 70
     0
102
RTVSPropertyOp37
 70
     0
102
RTVSPropertyOp38
 70
     0
102
RTVSPropertyOp39
 70
     0
102
RTVSPropertyOp40
 70
     0
102
RTVSPropertyOp41
 70
     0
102
RTVSPropertyOp42
 70
     0
102
RTVSPropertyOp43
 70
     0
102
RTVSPropertyOp44
 70
     0
102
RTVSPropertyOp45
 70
     0
102
RTVSPropertyOp46
 70
     0
102
RTVSPropertyOp47
 70
     0
102
RTVSPropertyOp48
 70
     0
102
RTVSPropertyOp49
 70
     0
102
RTVSPropertyOp50
 70
     0
102
RTVSPropertyOp51
 70
     0
102
RTVSPropertyOp52
 70
     0
102
RTVSPropertyOp53
 70
     0
102
RTVSPropertyOp54
 70
     0
102
RTVSPropertyOp55
 70
     0
102
RTVSPropertyOp56
 70
     0
102
RTVSPropertyOp57
 70
     0
102
RTVSPost2010Prop28
280
     0
102
RTVSPost2010PropOp28
 70
     0
102
RTVSPost2010Prop29
280
     1
102
RTVSPost2010PropOp29
 70
     0
102
RTVSPost2010Prop30
280
     1
102
RTVSPost2010PropOp30
 70
     0
102
RTVSPost2010Prop31
280
     0
102
RTVSPost2010PropOp31
 70
     0
102
RTVSPost2010Prop32
280
     0
102
RTVSPost2010PropOp32
 70
     0
102
RTVSPost2010Prop33
280
     0
102
RTVSPost2010PropOp33
 70
     0
102
RTVSPost2010Prop34
280
     0
102
RTVSPost2010PropOp34
 70
     0
102
RTVSPost2010Prop35
280
     0
102
RTVSPost2010PropOp35
 70
     0
102
RTVSPost2010Prop36
280
     0
102
RTVSPost2010PropOp36
 70
     0
102
RTVSPost2010Prop37
 90
       50
102
RTVSPost2010PropOp37
 70
     0
102
RTVSPost2010Prop38
140
0.0
102
RTVSPost2010PropOp38
 70
     0
102
RTVSPost2010Prop39
140
1.0
102
RTVSPost2010PropOp39
 70
     0
102
RTVSPost2010Prop40
 90
        0
102
RTVSPost2010PropOp40
 70
     0
102
RTVSPost2010Prop41ColorIndex
 90
       18
102
RTVSPost2010Prop41ColorRGB
 90
        0
102
RTVSPost2010PropOp41
 70
     0
102
RTVSPost2010Prop42
 90
       50
102
RTVSPost2010PropOp42
 70
     0
102
RTVSPost2010Prop43
 90
        3
102
RTVSPost2010PropOp43
 70
     0
102
RTVSPost2010Prop44ColorIndex
 90
        5
102
RTVSPost2010Prop44ColorRGB
 90
      255
102
RTVSPost2010PropOp44
 70
     0
102
RTVSPost2010Prop45
280
     0
102
RTVSPost2010PropOp45
 70
     0
102
RTVSPost2010Prop46
 90
       50
102
RTVSPost2010PropOp46
 70
     0
102
RTVSPost2010Prop47
 90
       50
102
RTVSPost2010PropOp47
 70
     0
102
RTVSPost2010Prop48
 90
       50
102
RTVSPost2010PropOp48
 70
     0
102
RTVSPost2010Prop49
280
     0
102
RTVSPost2010PropOp49
 70
     0
102
RTVSPost2010Prop50
 90
       50
102
RTVSPost2010PropOp50
 70
     0
102
RTVSPost2010Prop51ColorIndex
 90
      256
102
RTVSPost2010Prop51ColorRGB
 90
-16777216
102
RTVSPost2010PropOp51
 70
     0
102
RTVSPost2010Prop52
140
1.0
102
RTVSPost2010PropOp52
 70
     0
102
RTVSPost2010Prop53
 90
        2
102
RTVSPost2010PropOp53
 70
     0
102
RTVSPost2010Prop54
  1
strokes_ogs.tif
102
RTVSPost2010PropOp54
 70
     0
102
RTVSPost2010Prop55
280
     0
102
RTVSPost2010PropOp55
 70
     0
102
RTVSPost2010Prop56
140
1.0
102
RTVSPost2010PropOp56
 70
     0
102
RTVSPost2010Prop57
140
1.0
102
RTVSPost2010PropOp57
 70
     0
  0
XRECORD
  5
31C
102
{ACAD_REACTORS
330
31B
102
}
330
31B
100
AcDbXrecord
280
     1
102
RTVSPropertyOp0
 70
     1
102
RTVSPropertyOp1
 70
     1
102
RTVSPropertyOp2
 70
     1
102
RTVSPropertyOp3
 70
     1
102
RTVSPropertyOp4
 70
     1
102
RTVSPropertyOp5
 70
     1
102
RTVSPropertyOp6
 70
     1
102
RTVSPropertyOp7
 70
     1
102
RTVSPropertyOp8
 70
     1
102
RTVSPropertyOp9
 70
     1
102
RTVSPropertyOp10
 70
     1
102
RTVSPropertyOp11
 70
     1
102
RTVSPropertyOp12
 70
     1
102
RTVSPropertyOp13
 70
     1
102
RTVSPropertyOp14
 70
     1
102
RTVSPropertyOp15
 70
     1
102
RTVSPropertyOp16
 70
     1
102
RTVSPropertyOp17
 70
     1
102
RTVSPropertyOp18
 70
     1
102
RTVSPropertyOp19
 70
     1
102
RTVSPropertyOp20
 70
     1
102
RTVSPropertyOp21
 70
     1
102
RTVSPropertyOp22
 70
     1
102
RTVSPropertyOp23
 70
     1
102
RTVSPropertyOp24
 70
     1
102
RTVSPropertyOp25
 70
     1
102
RTVSPropertyOp26
 70
     1
102
RTVSPropertyOp27
 70
     1
102
RTVSPropertyOp28
 70
     1
102
RTVSPropertyOp29
 70
     1
102
RTVSPropertyOp30
 70
     1
102
RTVSPropertyOp31
 70
     1
102
RTVSPropertyOp32
 70
     1
102
RTVSPropertyOp33
 70
     1
102
RTVSPropertyOp34
 70
     1
102
RTVSPropertyOp35
 70
     1
102
RTVSPropertyOp36
 70
     1
102
RTVSPropertyOp37
 70
     1
102
RTVSPropertyOp38
 70
     1
102
RTVSPropertyOp39
 70
     1
102
RTVSPropertyOp40
 70
     1
102
RTVSPropertyOp41
 70
     1
102
RTVSPropertyOp42
 70
     1
102
RTVSPropertyOp43
 70
     1
102
RTVSPropertyOp44
 70
     1
102
RTVSPropertyOp45
 70
     1
102
RTVSPropertyOp46
 70
     1
102
RTVSPropertyOp47
 70
     1
102
RTVSPropertyOp48
 70
     1
102
RTVSPropertyOp49
 70
     1
102
RTVSPropertyOp50
 70
     1
102
RTVSPropertyOp51
 70
     0
102
RTVSPropertyOp52
 70
     0
102
RTVSPropertyOp53
 70
     1
102
RTVSPropertyOp54
 70
     1
102
RTVSPropertyOp55
 70
     1
102
RTVSPropertyOp56
 70
     1
102
RTVSPropertyOp57
 70
     1
102
RTVSPost2010Prop28
280
     0
102
RTVSPost2010PropOp28
 70
     1
102
RTVSPost2010Prop29
280
     1
102
RTVSPost2010PropOp29
 70
     1
102
RTVSPost2010Prop30
280
     1
102
RTVSPost2010PropOp30
 70
     1
102
RTVSPost2010Prop31
280
     0
102
RTVSPost2010PropOp31
 70
     1
102
RTVSPost2010Prop32
280
     0
102
RTVSPost2010PropOp32
 70
     1
102
RTVSPost2010Prop33
280
     0
102
RTVSPost2010PropOp33
 70
     1
102
RTVSPost2010Prop34
280
     0
102
RTVSPost2010PropOp34
 70
     1
102
RTVSPost2010Prop35
280
     0
102
RTVSPost2010PropOp35
 70
     1
102
RTVSPost2010Prop36
280
     0
102
RTVSPost2010PropOp36
 70
     1
102
RTVSPost2010Prop37
 90
       50
102
RTVSPost2010PropOp37
 70
     1
102
RTVSPost2010Prop38
140
0.0
102
RTVSPost2010PropOp38
 70
     1
102
RTVSPost2010Prop39
140
1.0
102
RTVSPost2010PropOp39
 70
     1
102
RTVSPost2010Prop40
 90
        0
102
RTVSPost2010PropOp40
 70
     1
102
RTVSPost2010Prop41ColorIndex
 90
       18
102
RTVSPost2010Prop41ColorRGB
 90
        0
102
RTVSPost2010PropOp41
 70
     1
102
RTVSPost2010Prop42
 90
       50
102
RTVSPost2010PropOp42
 70
     1
102
RTVSPost2010Prop43
 90
        3
102
RTVSPost2010PropOp43
 70
     1
102
RTVSPost2010Prop44ColorIndex
 90
        5
102
RTVSPost2010Prop44ColorRGB
 90
      255
102
RTVSPost2010PropOp44
 70
     1
102
RTVSPost2010Prop45
280
     0
102
RTVSPost2010PropOp45
 70
     1
102
RTVSPost2010Prop46
 90
       50
102
RTVSPost2010PropOp46
 70
     1
102
RTVSPost2010Prop47
 90
       50
102
RTVSPost2010PropOp47
 70
     1
102
RTVSPost2010Prop48
 90
       50
102
RTVSPost2010PropOp48
 70
     1
102
RTVSPost2010Prop49
280
     0
102
RTVSPost2010PropOp49
 70
     1
102
RTVSPost2010Prop50
 90
       50
102
RTVSPost2010PropOp50
 70
     1
102
RTVSPost2010Prop51ColorIndex
 90
      256
102
RTVSPost2010Prop51ColorRGB
 90
-16777216
102
RTVSPost2010PropOp51
 70
     0
102
RTVSPost2010Prop52
140
1.0
102
RTVSPost2010PropOp52
 70
     0
102
RTVSPost2010Prop53
 90
        2
102
RTVSPost2010PropOp53
 70
     1
102
RTVSPost2010Prop54
  1
strokes_ogs.tif
102
RTVSPost2010PropOp54
 70
     1
102
RTVSPost2010Prop55
280
     0
102
RTVSPost2010PropOp55
 70
     1
102
RTVSPost2010Prop56
140
1.0
102
RTVSPost2010PropOp56
 70
     1
102
RTVSPost2010Prop57
140
1.0
102
RTVSPost2010PropOp57
 70
     1
  0
XRECORD
  5
324
102
{ACAD_REACTORS
330
323
102
}
330
323
100
AcDbXrecord
280
     1
102
RTVSPropertyOp0
 70
     0
102
RTVSPropertyOp1
 70
     0
102
RTVSPropertyOp2
 70
     0
102
RTVSPropertyOp3
 70
     0
102
RTVSPropertyOp4
 70
     0
102
RTVSPropertyOp5
 70
     0
102
RTVSPropertyOp6
 70
     0
102
RTVSPropertyOp7
 70
     0
102
RTVSPropertyOp8
 70
     0
102
RTVSPropertyOp9
 70
     0
102
RTVSPropertyOp10
 70
     0
102
RTVSPropertyOp11
 70
     0
102
RTVSPropertyOp12
 70
     0
102
RTVSPropertyOp13
 70
     0
102
RTVSPropertyOp14
 70
     2
102
RTVSPropertyOp15
 70
     0
102
RTVSPropertyOp16
 70
     0
102
RTVSPropertyOp17
 70
     0
102
RTVSPropertyOp18
 70
     0
102
RTVSPropertyOp19
 70
     0
102
RTVSPropertyOp20
 70
     0
102
RTVSPropertyOp21
 70
     0
102
RTVSPropertyOp22
 70
     0
102
RTVSPropertyOp23
 70
     0
102
RTVSPropertyOp24
 70
     0
102
RTVSPropertyOp25
 70
     0
102
RTVSPropertyOp26
 70
     0
102
RTVSPropertyOp27
 70
     0
102
RTVSPropertyOp28
 70
     0
102
RTVSPropertyOp29
 70
     0
102
RTVSPropertyOp30
 70
     0
102
RTVSPropertyOp31
 70
     0
102
RTVSPropertyOp32
 70
     0
102
RTVSPropertyOp33
 70
     0
102
RTVSPropertyOp34
 70
     0
102
RTVSPropertyOp35
 70
     0
102
RTVSPropertyOp36
 70
     0
102
RTVSPropertyOp37
 70
     0
102
RTVSPropertyOp38
 70
     0
102
RTVSPropertyOp39
 70
     0
102
RTVSPropertyOp40
 70
     0
102
RTVSPropertyOp41
 70
     0
102
RTVSPropertyOp42
 70
     0
102
RTVSPropertyOp43
 70
     0
102
RTVSPropertyOp44
 70
     0
102
RTVSPropertyOp45
 70
     0
102
RTVSPropertyOp46
 70
     0
102
RTVSPropertyOp47
 70
     0
102
RTVSPropertyOp48
 70
     0
102
RTVSPropertyOp49
 70
     0
102
RTVSPropertyOp50
 70
     0
102
RTVSPropertyOp51
 70
     0
102
RTVSPropertyOp52
 70
     0
102
RTVSPropertyOp53
 70
     0
102
RTVSPropertyOp54
 70
     0
102
RTVSPropertyOp55
 70
     0
102
RTVSPropertyOp56
 70
     0
102
RTVSPropertyOp57
 70
     0
102
RTVSPost2010Prop28
280
     0
102
RTVSPost2010PropOp28
 70
     0
102
RTVSPost2010Prop29
280
     1
102
RTVSPost2010PropOp29
 70
     0
102
RTVSPost2010Prop30
280
     1
102
RTVSPost2010PropOp30
 70
     0
102
RTVSPost2010Prop31
280
     0
102
RTVSPost2010PropOp31
 70
     0
102
RTVSPost2010Prop32
280
     0
102
RTVSPost2010PropOp32
 70
     0
102
RTVSPost2010Prop33
280
     0
102
RTVSPost2010PropOp33
 70
     0
102
RTVSPost2010Prop34
280
     0
102
RTVSPost2010PropOp34
 70
     0
102
RTVSPost2010Prop35
280
     0
102
RTVSPost2010PropOp35
 70
     0
102
RTVSPost2010Prop36
280
     0
102
RTVSPost2010PropOp36
 70
     0
102
RTVSPost2010Prop37
 90
       50
102
RTVSPost2010PropOp37
 70
     0
102
RTVSPost2010Prop38
140
0.0
102
RTVSPost2010PropOp38
 70
     0
102
RTVSPost2010Prop39
140
1.0
102
RTVSPost2010PropOp39
 70
     0
102
RTVSPost2010Prop40
 90
        0
102
RTVSPost2010PropOp40
 70
     0
102
RTVSPost2010Prop41ColorIndex
 90
       18
102
RTVSPost2010Prop41ColorRGB
 90
        0
102
RTVSPost2010PropOp41
 70
     0
102
RTVSPost2010Prop42
 90
       50
102
RTVSPost2010PropOp42
 70
     0
102
RTVSPost2010Prop43
 90
        3
102
RTVSPost2010PropOp43
 70
     0
102
RTVSPost2010Prop44ColorIndex
 90
        5
102
RTVSPost2010Prop44ColorRGB
 90
      255
102
RTVSPost2010PropOp44
 70
     0
102
RTVSPost2010Prop45
280
     0
102
RTVSPost2010PropOp45
 70
     0
102
RTVSPost2010Prop46
 90
       50
102
RTVSPost2010PropOp46
 70
     0
102
RTVSPost2010Prop47
 90
       50
102
RTVSPost2010PropOp47
 70
     0
102
RTVSPost2010Prop48
 90
       50
102
RTVSPost2010PropOp48
 70
     0
102
RTVSPost2010Prop49
280
     0
102
RTVSPost2010PropOp49
 70
     0
102
RTVSPost2010Prop50
 90
       50
102
RTVSPost2010PropOp50
 70
     0
102
RTVSPost2010Prop51ColorIndex
 90
      256
102
RTVSPost2010Prop51ColorRGB
 90
-16777216
102
RTVSPost2010PropOp51
 70
     0
102
RTVSPost2010Prop52
140
1.0
102
RTVSPost2010PropOp52
 70
     0
102
RTVSPost2010Prop53
 90
        2
102
RTVSPost2010PropOp53
 70
     0
102
RTVSPost2010Prop54
  1
strokes_ogs.tif
102
RTVSPost2010PropOp54
 70
     0
102
RTVSPost2010Prop55
280
     0
102
RTVSPost2010PropOp55
 70
     0
102
RTVSPost2010Prop56
140
1.0
102
RTVSPost2010PropOp56
 70
     0
102
RTVSPost2010Prop57
140
1.0
102
RTVSPost2010PropOp57
 70
     0
  0
XRECORD
  5
312
102
{ACAD_REACTORS
330
311
102
}
330
311
100
AcDbXrecord
280
     1
102
RTVSPropertyOp0
 70
     1
102
RTVSPropertyOp1
 70
     1
102
RTVSPropertyOp2
 70
     1
102
RTVSPropertyOp3
 70
     1
102
RTVSPropertyOp4
 70
     1
102
RTVSPropertyOp5
 70
     1
102
RTVSPropertyOp6
 70
     1
102
RTVSPropertyOp7
 70
     1
102
RTVSPropertyOp8
 70
     1
102
RTVSPropertyOp9
 70
     1
102
RTVSPropertyOp10
 70
     1
102
RTVSPropertyOp11
 70
     1
102
RTVSPropertyOp12
 70
     1
102
RTVSPropertyOp13
 70
     1
102
RTVSPropertyOp14
 70
     1
102
RTVSPropertyOp15
 70
     1
102
RTVSPropertyOp16
 70
     1
102
RTVSPropertyOp17
 70
     1
102
RTVSPropertyOp18
 70
     1
102
RTVSPropertyOp19
 70
     1
102
RTVSPropertyOp20
 70
     1
102
RTVSPropertyOp21
 70
     1
102
RTVSPropertyOp22
 70
     1
102
RTVSPropertyOp23
 70
     1
102
RTVSPropertyOp24
 70
     1
102
RTVSPropertyOp25
 70
     1
102
RTVSPropertyOp26
 70
     1
102
RTVSPropertyOp27
 70
     1
102
RTVSPropertyOp28
 70
     1
102
RTVSPropertyOp29
 70
     1
102
RTVSPropertyOp30
 70
     1
102
RTVSPropertyOp31
 70
     1
102
RTVSPropertyOp32
 70
     1
102
RTVSPropertyOp33
 70
     1
102
RTVSPropertyOp34
 70
     1
102
RTVSPropertyOp35
 70
     1
102
RTVSPropertyOp36
 70
     1
102
RTVSPropertyOp37
 70
     1
102
RTVSPropertyOp38
 70
     1
102
RTVSPropertyOp39
 70
     1
102
RTVSPropertyOp40
 70
     1
102
RTVSPropertyOp41
 70
     1
102
RTVSPropertyOp42
 70
     1
102
RTVSPropertyOp43
 70
     1
102
RTVSPropertyOp44
 70
     1
102
RTVSPropertyOp45
 70
     1
102
RTVSPropertyOp46
 70
     1
102
RTVSPropertyOp47
 70
     1
102
RTVSPropertyOp48
 70
     1
102
RTVSPropertyOp49
 70
     1
102
RTVSPropertyOp50
 70
     1
102
RTVSPropertyOp51
 70
     0
102
RTVSPropertyOp52
 70
     0
102
RTVSPropertyOp53
 70
     1
102
RTVSPropertyOp54
 70
     1
102
RTVSPropertyOp55
 70
     1
102
RTVSPropertyOp56
 70
     1
102
RTVSPropertyOp57
 70
     1
102
RTVSPost2010Prop28
280
     0
102
RTVSPost2010PropOp28
 70
     1
102
RTVSPost2010Prop29
280
     1
102
RTVSPost2010PropOp29
 70
     1
102
RTVSPost2010Prop30
280
     1
102
RTVSPost2010PropOp30
 70
     1
102
RTVSPost2010Prop31
280
     0
102
RTVSPost2010PropOp31
 70
     1
102
RTVSPost2010Prop32
280
     0
102
RTVSPost2010PropOp32
 70
     1
102
RTVSPost2010Prop33
280
     0
102
RTVSPost2010PropOp33
 70
     1
102
RTVSPost2010Prop34
280
     0
102
RTVSPost2010PropOp34
 70
     1
102
RTVSPost2010Prop35
280
     0
102
RTVSPost2010PropOp35
 70
     1
102
RTVSPost2010Prop36
280
     0
102
RTVSPost2010PropOp36
 70
     1
102
RTVSPost2010Prop37
 90
       50
102
RTVSPost2010PropOp37
 70
     1
102
RTVSPost2010Prop38
140
0.0
102
RTVSPost2010PropOp38
 70
     1
102
RTVSPost2010Prop39
140
1.0
102
RTVSPost2010PropOp39
 70
     1
102
RTVSPost2010Prop40
 90
        0
102
RTVSPost2010PropOp40
 70
     1
102
RTVSPost2010Prop41ColorIndex
 90
       18
102
RTVSPost2010Prop41ColorRGB
 90
        0
102
RTVSPost2010PropOp41
 70
     1
102
RTVSPost2010Prop42
 90
       50
102
RTVSPost2010PropOp42
 70
     1
102
RTVSPost2010Prop43
 90
        3
102
RTVSPost2010PropOp43
 70
     1
102
RTVSPost2010Prop44ColorIndex
 90
        5
102
RTVSPost2010Prop44ColorRGB
 90
      255
102
RTVSPost2010PropOp44
 70
     1
102
RTVSPost2010Prop45
280
     0
102
RTVSPost2010PropOp45
 70
     1
102
RTVSPost2010Prop46
 90
       50
102
RTVSPost2010PropOp46
 70
     1
102
RTVSPost2010Prop47
 90
       50
102
RTVSPost2010PropOp47
 70
     1
102
RTVSPost2010Prop48
 90
       50
102
RTVSPost2010PropOp48
 70
     1
102
RTVSPost2010Prop49
280
     0
102
RTVSPost2010PropOp49
 70
     1
102
RTVSPost2010Prop50
 90
       50
102
RTVSPost2010PropOp50
 70
     1
102
RTVSPost2010Prop51ColorIndex
 90
      256
102
RTVSPost2010Prop51ColorRGB
 90
-16777216
102
RTVSPost2010PropOp51
 70
     0
102
RTVSPost2010Prop52
140
1.0
102
RTVSPost2010PropOp52
 70
     0
102
RTVSPost2010Prop53
 90
        2
102
RTVSPost2010PropOp53
 70
     1
102
RTVSPost2010Prop54
  1
strokes_ogs.tif
102
RTVSPost2010PropOp54
 70
     1
102
RTVSPost2010Prop55
280
     0
102
RTVSPost2010PropOp55
 70
     1
102
RTVSPost2010Prop56
140
1.0
102
RTVSPost2010PropOp56
 70
     1
102
RTVSPost2010Prop57
140
1.0
102
RTVSPost2010PropOp57
 70
     1
  0
XRECORD
  5
330
102
{ACAD_REACTORS
330
32F
102
}
330
32F
100
AcDbXrecord
280
     1
102
RTVSPropertyOp0
 70
     1
102
RTVSPropertyOp1
 70
     1
102
RTVSPropertyOp2
 70
     1
102
RTVSPropertyOp3
 70
     1
102
RTVSPropertyOp4
 70
     1
102
RTVSPropertyOp5
 70
     1
102
RTVSPropertyOp6
 70
     1
102
RTVSPropertyOp7
 70
     1
102
RTVSPropertyOp8
 70
     1
102
RTVSPropertyOp9
 70
     1
102
RTVSPropertyOp10
 70
     1
102
RTVSPropertyOp11
 70
     1
102
RTVSPropertyOp12
 70
     1
102
RTVSPropertyOp13
 70
     1
102
RTVSPropertyOp14
 70
     1
102
RTVSPropertyOp15
 70
     1
102
RTVSPropertyOp16
 70
     1
102
RTVSPropertyOp17
 70
     1
102
RTVSPropertyOp18
 70
     1
102
RTVSPropertyOp19
 70
     1
102
RTVSPropertyOp20
 70
     1
102
RTVSPropertyOp21
 70
     1
102
RTVSPropertyOp22
 70
     1
102
RTVSPropertyOp23
 70
     1
102
RTVSPropertyOp24
 70
     1
102
RTVSPropertyOp25
 70
     1
102
RTVSPropertyOp26
 70
     1
102
RTVSPropertyOp27
 70
     1
102
RTVSPropertyOp28
 70
     1
102
RTVSPropertyOp29
 70
     1
102
RTVSPropertyOp30
 70
     1
102
RTVSPropertyOp31
 70
     1
102
RTVSPropertyOp32
 70
     1
102
RTVSPropertyOp33
 70
     1
102
RTVSPropertyOp34
 70
     1
102
RTVSPropertyOp35
 70
     1
102
RTVSPropertyOp36
 70
     1
102
RTVSPropertyOp37
 70
     1
102
RTVSPropertyOp38
 70
     1
102
RTVSPropertyOp39
 70
     1
102
RTVSPropertyOp40
 70
     1
102
RTVSPropertyOp41
 70
     1
102
RTVSPropertyOp42
 70
     1
102
RTVSPropertyOp43
 70
     1
102
RTVSPropertyOp44
 70
     1
102
RTVSPropertyOp45
 70
     1
102
RTVSPropertyOp46
 70
     1
102
RTVSPropertyOp47
 70
     1
102
RTVSPropertyOp48
 70
     1
102
RTVSPropertyOp49
 70
     1
102
RTVSPropertyOp50
 70
     1
102
RTVSPropertyOp51
 70
     0
102
RTVSPropertyOp52
 70
     0
102
RTVSPropertyOp53
 70
     1
102
RTVSPropertyOp54
 70
     1
102
RTVSPropertyOp55
 70
     1
102
RTVSPropertyOp56
 70
     1
102
RTVSPropertyOp57
 70
     1
102
RTVSPost2010Prop28
280
     0
102
RTVSPost2010PropOp28
 70
     1
102
RTVSPost2010Prop29
280
     1
102
RTVSPost2010PropOp29
 70
     1
102
RTVSPost2010Prop30
280
     1
102
RTVSPost2010PropOp30
 70
     1
102
RTVSPost2010Prop31
280
     0
102
RTVSPost2010PropOp31
 70
     1
102
RTVSPost2010Prop32
280
     0
102
RTVSPost2010PropOp32
 70
     1
102
RTVSPost2010Prop33
280
     0
102
RTVSPost2010PropOp33
 70
     1
102
RTVSPost2010Prop34
280
     0
102
RTVSPost2010PropOp34
 70
     1
102
RTVSPost2010Prop35
280
     0
102
RTVSPost2010PropOp35
 70
     1
102
RTVSPost2010Prop36
280
     0
102
RTVSPost2010PropOp36
 70
     1
102
RTVSPost2010Prop37
 90
       50
102
RTVSPost2010PropOp37
 70
     1
102
RTVSPost2010Prop38
140
0.0
102
RTVSPost2010PropOp38
 70
     1
102
RTVSPost2010Prop39
140
1.0
102
RTVSPost2010PropOp39
 70
     1
102
RTVSPost2010Prop40
 90
        0
102
RTVSPost2010PropOp40
 70
     1
102
RTVSPost2010Prop41ColorIndex
 90
       18
102
RTVSPost2010Prop41ColorRGB
 90
        0
102
RTVSPost2010PropOp41
 70
     1
102
RTVSPost2010Prop42
 90
       50
102
RTVSPost2010PropOp42
 70
     1
102
RTVSPost2010Prop43
 90
        3
102
RTVSPost2010PropOp43
 70
     1
102
RTVSPost2010Prop44ColorIndex
 90
        5
102
RTVSPost2010Prop44ColorRGB
 90
      255
102
RTVSPost2010PropOp44
 70
     1
102
RTVSPost2010Prop45
280
     0
102
RTVSPost2010PropOp45
 70
     1
102
RTVSPost2010Prop46
 90
       50
102
RTVSPost2010PropOp46
 70
     1
102
RTVSPost2010Prop47
 90
       50
102
RTVSPost2010PropOp47
 70
     1
102
RTVSPost2010Prop48
 90
       50
102
RTVSPost2010PropOp48
 70
     1
102
RTVSPost2010Prop49
280
     0
102
RTVSPost2010PropOp49
 70
     1
102
RTVSPost2010Prop50
 90
       50
102
RTVSPost2010PropOp50
 70
     1
102
RTVSPost2010Prop51ColorIndex
 90
      256
102
RTVSPost2010Prop51ColorRGB
 90
-16777216
102
RTVSPost2010PropOp51
 70
     0
102
RTVSPost2010Prop52
140
1.0
102
RTVSPost2010PropOp52
 70
     0
102
RTVSPost2010Prop53
 90
        2
102
RTVSPost2010PropOp53
 70
     1
102
RTVSPost2010Prop54
  1
strokes_ogs.tif
102
RTVSPost2010PropOp54
 70
     1
102
RTVSPost2010Prop55
280
     0
102
RTVSPost2010PropOp55
 70
     1
102
RTVSPost2010Prop56
140
1.0
102
RTVSPost2010PropOp56
 70
     1
102
RTVSPost2010Prop57
140
1.0
102
RTVSPost2010PropOp57
 70
     1
  0
XRECORD
  5
32E
102
{ACAD_REACTORS
330
32D
102
}
330
32D
100
AcDbXrecord
280
     1
102
RTVSPropertyOp0
 70
     1
102
RTVSPropertyOp1
 70
     1
102
RTVSPropertyOp2
 70
     1
102
RTVSPropertyOp3
 70
     1
102
RTVSPropertyOp4
 70
     1
102
RTVSPropertyOp5
 70
     1
102
RTVSPropertyOp6
 70
     1
102
RTVSPropertyOp7
 70
     1
102
RTVSPropertyOp8
 70
     1
102
RTVSPropertyOp9
 70
     1
102
RTVSPropertyOp10
 70
     1
102
RTVSPropertyOp11
 70
     1
102
RTVSPropertyOp12
 70
     1
102
RTVSPropertyOp13
 70
     1
102
RTVSPropertyOp14
 70
     1
102
RTVSPropertyOp15
 70
     1
102
RTVSPropertyOp16
 70
     1
102
RTVSPropertyOp17
 70
     1
102
RTVSPropertyOp18
 70
     1
102
RTVSPropertyOp19
 70
     1
102
RTVSPropertyOp20
 70
     1
102
RTVSPropertyOp21
 70
     1
102
RTVSPropertyOp22
 70
     1
102
RTVSPropertyOp23
 70
     1
102
RTVSPropertyOp24
 70
     1
102
RTVSPropertyOp25
 70
     1
102
RTVSPropertyOp26
 70
     1
102
RTVSPropertyOp27
 70
     1
102
RTVSPropertyOp28
 70
     1
102
RTVSPropertyOp29
 70
     1
102
RTVSPropertyOp30
 70
     1
102
RTVSPropertyOp31
 70
     1
102
RTVSPropertyOp32
 70
     1
102
RTVSPropertyOp33
 70
     1
102
RTVSPropertyOp34
 70
     1
102
RTVSPropertyOp35
 70
     1
102
RTVSPropertyOp36
 70
     1
102
RTVSPropertyOp37
 70
     1
102
RTVSPropertyOp38
 70
     1
102
RTVSPropertyOp39
 70
     1
102
RTVSPropertyOp40
 70
     1
102
RTVSPropertyOp41
 70
     1
102
RTVSPropertyOp42
 70
     1
102
RTVSPropertyOp43
 70
     1
102
RTVSPropertyOp44
 70
     1
102
RTVSPropertyOp45
 70
     1
102
RTVSPropertyOp46
 70
     1
102
RTVSPropertyOp47
 70
     1
102
RTVSPropertyOp48
 70
     1
102
RTVSPropertyOp49
 70
     1
102
RTVSPropertyOp50
 70
     1
102
RTVSPropertyOp51
 70
     0
102
RTVSPropertyOp52
 70
     0
102
RTVSPropertyOp53
 70
     1
102
RTVSPropertyOp54
 70
     1
102
RTVSPropertyOp55
 70
     1
102
RTVSPropertyOp56
 70
     1
102
RTVSPropertyOp57
 70
     1
102
RTVSPost2010Prop28
280
     0
102
RTVSPost2010PropOp28
 70
     1
102
RTVSPost2010Prop29
280
     1
102
RTVSPost2010PropOp29
 70
     1
102
RTVSPost2010Prop30
280
     1
102
RTVSPost2010PropOp30
 70
     1
102
RTVSPost2010Prop31
280
     0
102
RTVSPost2010PropOp31
 70
     1
102
RTVSPost2010Prop32
280
     0
102
RTVSPost2010PropOp32
 70
     1
102
RTVSPost2010Prop33
280
     0
102
RTVSPost2010PropOp33
 70
     1
102
RTVSPost2010Prop34
280
     0
102
RTVSPost2010PropOp34
 70
     1
102
RTVSPost2010Prop35
280
     0
102
RTVSPost2010PropOp35
 70
     1
102
RTVSPost2010Prop36
280
     0
102
RTVSPost2010PropOp36
 70
     1
102
RTVSPost2010Prop37
 90
       50
102
RTVSPost2010PropOp37
 70
     1
102
RTVSPost2010Prop38
140
0.0
102
RTVSPost2010PropOp38
 70
     1
102
RTVSPost2010Prop39
140
1.0
102
RTVSPost2010PropOp39
 70
     1
102
RTVSPost2010Prop40
 90
        0
102
RTVSPost2010PropOp40
 70
     1
102
RTVSPost2010Prop41ColorIndex
 90
       18
102
RTVSPost2010Prop41ColorRGB
 90
        0
102
RTVSPost2010PropOp41
 70
     1
102
RTVSPost2010Prop42
 90
       50
102
RTVSPost2010PropOp42
 70
     1
102
RTVSPost2010Prop43
 90
        3
102
RTVSPost2010PropOp43
 70
     1
102
RTVSPost2010Prop44ColorIndex
 90
        5
102
RTVSPost2010Prop44ColorRGB
 90
      255
102
RTVSPost2010PropOp44
 70
     1
102
RTVSPost2010Prop45
280
     0
102
RTVSPost2010PropOp45
 70
     1
102
RTVSPost2010Prop46
 90
       50
102
RTVSPost2010PropOp46
 70
     1
102
RTVSPost2010Prop47
 90
       50
102
RTVSPost2010PropOp47
 70
     1
102
RTVSPost2010Prop48
 90
       50
102
RTVSPost2010PropOp48
 70
     1
102
RTVSPost2010Prop49
280
     0
102
RTVSPost2010PropOp49
 70
     1
102
RTVSPost2010Prop50
 90
       50
102
RTVSPost2010PropOp50
 70
     1
102
RTVSPost2010Prop51ColorIndex
 90
      256
102
RTVSPost2010Prop51ColorRGB
 90
-16777216
102
RTVSPost2010PropOp51
 70
     0
102
RTVSPost2010Prop52
140
1.0
102
RTVSPost2010PropOp52
 70
     0
102
RTVSPost2010Prop53
 90
        2
102
RTVSPost2010PropOp53
 70
     1
102
RTVSPost2010Prop54
  1
strokes_ogs.tif
102
RTVSPost2010PropOp54
 70
     1
102
RTVSPost2010Prop55
280
     0
102
RTVSPost2010PropOp55
 70
     1
102
RTVSPost2010Prop56
140
1.0
102
RTVSPost2010PropOp56
 70
     1
102
RTVSPost2010Prop57
140
1.0
102
RTVSPost2010PropOp57
 70
     1
  0
XRECORD
  5
328
102
{ACAD_REACTORS
330
327
102
}
330
327
100
AcDbXrecord
280
     1
102
RTVSPropertyOp0
 70
     1
102
RTVSPropertyOp1
 70
     1
102
RTVSPropertyOp2
 70
     1
102
RTVSPropertyOp3
 70
     1
102
RTVSPropertyOp4
 70
     1
102
RTVSPropertyOp5
 70
     1
102
RTVSPropertyOp6
 70
     1
102
RTVSPropertyOp7
 70
     1
102
RTVSPropertyOp8
 70
     1
102
RTVSPropertyOp9
 70
     1
102
RTVSPropertyOp10
 70
     1
102
RTVSPropertyOp11
 70
     1
102
RTVSPropertyOp12
 70
     1
102
RTVSPropertyOp13
 70
     1
102
RTVSPropertyOp14
 70
     1
102
RTVSPropertyOp15
 70
     1
102
RTVSPropertyOp16
 70
     1
102
RTVSPropertyOp17
 70
     1
102
RTVSPropertyOp18
 70
     1
102
RTVSPropertyOp19
 70
     1
102
RTVSPropertyOp20
 70
     1
102
RTVSPropertyOp21
 70
     1
102
RTVSPropertyOp22
 70
     1
102
RTVSPropertyOp23
 70
     1
102
RTVSPropertyOp24
 70
     1
102
RTVSPropertyOp25
 70
     1
102
RTVSPropertyOp26
 70
     1
102
RTVSPropertyOp27
 70
     1
102
RTVSPropertyOp28
 70
     1
102
RTVSPropertyOp29
 70
     1
102
RTVSPropertyOp30
 70
     1
102
RTVSPropertyOp31
 70
     1
102
RTVSPropertyOp32
 70
     1
102
RTVSPropertyOp33
 70
     1
102
RTVSPropertyOp34
 70
     1
102
RTVSPropertyOp35
 70
     1
102
RTVSPropertyOp36
 70
     1
102
RTVSPropertyOp37
 70
     1
102
RTVSPropertyOp38
 70
     1
102
RTVSPropertyOp39
 70
     1
102
RTVSPropertyOp40
 70
     1
102
RTVSPropertyOp41
 70
     1
102
RTVSPropertyOp42
 70
     1
102
RTVSPropertyOp43
 70
     1
102
RTVSPropertyOp44
 70
     1
102
RTVSPropertyOp45
 70
     1
102
RTVSPropertyOp46
 70
     1
102
RTVSPropertyOp47
 70
     1
102
RTVSPropertyOp48
 70
     1
102
RTVSPropertyOp49
 70
     1
102
RTVSPropertyOp50
 70
     1
102
RTVSPropertyOp51
 70
     0
102
RTVSPropertyOp52
 70
     0
102
RTVSPropertyOp53
 70
     1
102
RTVSPropertyOp54
 70
     1
102
RTVSPropertyOp55
 70
     1
102
RTVSPropertyOp56
 70
     1
102
RTVSPropertyOp57
 70
     1
102
RTVSPost2010Prop28
280
     0
102
RTVSPost2010PropOp28
 70
     1
102
RTVSPost2010Prop29
280
     1
102
RTVSPost2010PropOp29
 70
     1
102
RTVSPost2010Prop30
280
     1
102
RTVSPost2010PropOp30
 70
     1
102
RTVSPost2010Prop31
280
     0
102
RTVSPost2010PropOp31
 70
     1
102
RTVSPost2010Prop32
280
     0
102
RTVSPost2010PropOp32
 70
     1
102
RTVSPost2010Prop33
280
     0
102
RTVSPost2010PropOp33
 70
     1
102
RTVSPost2010Prop34
280
     0
102
RTVSPost2010PropOp34
 70
     1
102
RTVSPost2010Prop35
280
     0
102
RTVSPost2010PropOp35
 70
     1
102
RTVSPost2010Prop36
280
     0
102
RTVSPost2010PropOp36
 70
     1
102
RTVSPost2010Prop37
 90
       50
102
RTVSPost2010PropOp37
 70
     1
102
RTVSPost2010Prop38
140
0.0
102
RTVSPost2010PropOp38
 70
     1
102
RTVSPost2010Prop39
140
1.0
102
RTVSPost2010PropOp39
 70
     1
102
RTVSPost2010Prop40
 90
        0
102
RTVSPost2010PropOp40
 70
     1
102
RTVSPost2010Prop41ColorIndex
 90
       18
102
RTVSPost2010Prop41ColorRGB
 90
        0
102
RTVSPost2010PropOp41
 70
     1
102
RTVSPost2010Prop42
 90
       50
102
RTVSPost2010PropOp42
 70
     1
102
RTVSPost2010Prop43
 90
        3
102
RTVSPost2010PropOp43
 70
     1
102
RTVSPost2010Prop44ColorIndex
 90
        5
102
RTVSPost2010Prop44ColorRGB
 90
      255
102
RTVSPost2010PropOp44
 70
     1
102
RTVSPost2010Prop45
280
     0
102
RTVSPost2010PropOp45
 70
     1
102
RTVSPost2010Prop46
 90
       50
102
RTVSPost2010PropOp46
 70
     1
102
RTVSPost2010Prop47
 90
       50
102
RTVSPost2010PropOp47
 70
     1
102
RTVSPost2010Prop48
 90
       50
102
RTVSPost2010PropOp48
 70
     1
102
RTVSPost2010Prop49
280
     0
102
RTVSPost2010PropOp49
 70
     1
102
RTVSPost2010Prop50
 90
       50
102
RTVSPost2010PropOp50
 70
     1
102
RTVSPost2010Prop51ColorIndex
 90
      256
102
RTVSPost2010Prop51ColorRGB
 90
-16777216
102
RTVSPost2010PropOp51
 70
     0
102
RTVSPost2010Prop52
140
1.0
102
RTVSPost2010PropOp52
 70
     0
102
RTVSPost2010Prop53
 90
        2
102
RTVSPost2010PropOp53
 70
     1
102
RTVSPost2010Prop54
  1
strokes_ogs.tif
102
RTVSPost2010PropOp54
 70
     1
102
RTVSPost2010Prop55
280
     0
102
RTVSPost2010PropOp55
 70
     1
102
RTVSPost2010Prop56
140
1.0
102
RTVSPost2010PropOp56
 70
     1
102
RTVSPost2010Prop57
140
1.0
102
RTVSPost2010PropOp57
 70
     1
  0
XRECORD
  5
32A
102
{ACAD_REACTORS
330
329
102
}
330
329
100
AcDbXrecord
280
     1
102
RTVSPropertyOp0
 70
     1
102
RTVSPropertyOp1
 70
     1
102
RTVSPropertyOp2
 70
     1
102
RTVSPropertyOp3
 70
     1
102
RTVSPropertyOp4
 70
     1
102
RTVSPropertyOp5
 70
     1
102
RTVSPropertyOp6
 70
     1
102
RTVSPropertyOp7
 70
     1
102
RTVSPropertyOp8
 70
     1
102
RTVSPropertyOp9
 70
     1
102
RTVSPropertyOp10
 70
     1
102
RTVSPropertyOp11
 70
     1
102
RTVSPropertyOp12
 70
     1
102
RTVSPropertyOp13
 70
     1
102
RTVSPropertyOp14
 70
     1
102
RTVSPropertyOp15
 70
     1
102
RTVSPropertyOp16
 70
     1
102
RTVSPropertyOp17
 70
     1
102
RTVSPropertyOp18
 70
     1
102
RTVSPropertyOp19
 70
     1
102
RTVSPropertyOp20
 70
     1
102
RTVSPropertyOp21
 70
     1
102
RTVSPropertyOp22
 70
     1
102
RTVSPropertyOp23
 70
     1
102
RTVSPropertyOp24
 70
     1
102
RTVSPropertyOp25
 70
     1
102
RTVSPropertyOp26
 70
     1
102
RTVSPropertyOp27
 70
     1
102
RTVSPropertyOp28
 70
     1
102
RTVSPropertyOp29
 70
     1
102
RTVSPropertyOp30
 70
     1
102
RTVSPropertyOp31
 70
     1
102
RTVSPropertyOp32
 70
     1
102
RTVSPropertyOp33
 70
     1
102
RTVSPropertyOp34
 70
     1
102
RTVSPropertyOp35
 70
     1
102
RTVSPropertyOp36
 70
     1
102
RTVSPropertyOp37
 70
     1
102
RTVSPropertyOp38
 70
     1
102
RTVSPropertyOp39
 70
     1
102
RTVSPropertyOp40
 70
     1
102
RTVSPropertyOp41
 70
     1
102
RTVSPropertyOp42
 70
     1
102
RTVSPropertyOp43
 70
     1
102
RTVSPropertyOp44
 70
     1
102
RTVSPropertyOp45
 70
     1
102
RTVSPropertyOp46
 70
     1
102
RTVSPropertyOp47
 70
     1
102
RTVSPropertyOp48
 70
     1
102
RTVSPropertyOp49
 70
     1
102
RTVSPropertyOp50
 70
     1
102
RTVSPropertyOp51
 70
     0
102
RTVSPropertyOp52
 70
     0
102
RTVSPropertyOp53
 70
     1
102
RTVSPropertyOp54
 70
     1
102
RTVSPropertyOp55
 70
     1
102
RTVSPropertyOp56
 70
     1
102
RTVSPropertyOp57
 70
     1
102
RTVSPost2010Prop28
280
     0
102
RTVSPost2010PropOp28
 70
     1
102
RTVSPost2010Prop29
280
     1
102
RTVSPost2010PropOp29
 70
     1
102
RTVSPost2010Prop30
280
     1
102
RTVSPost2010PropOp30
 70
     1
102
RTVSPost2010Prop31
280
     0
102
RTVSPost2010PropOp31
 70
     1
102
RTVSPost2010Prop32
280
     0
102
RTVSPost2010PropOp32
 70
     1
102
RTVSPost2010Prop33
280
     0
102
RTVSPost2010PropOp33
 70
     1
102
RTVSPost2010Prop34
280
     0
102
RTVSPost2010PropOp34
 70
     1
102
RTVSPost2010Prop35
280
     0
102
RTVSPost2010PropOp35
 70
     1
102
RTVSPost2010Prop36
280
     0
102
RTVSPost2010PropOp36
 70
     1
102
RTVSPost2010Prop37
 90
       50
102
RTVSPost2010PropOp37
 70
     1
102
RTVSPost2010Prop38
140
0.0
102
RTVSPost2010PropOp38
 70
     1
102
RTVSPost2010Prop39
140
1.0
102
RTVSPost2010PropOp39
 70
     1
102
RTVSPost2010Prop40
 90
        0
102
RTVSPost2010PropOp40
 70
     1
102
RTVSPost2010Prop41ColorIndex
 90
       18
102
RTVSPost2010Prop41ColorRGB
 90
        0
102
RTVSPost2010PropOp41
 70
     1
102
RTVSPost2010Prop42
 90
       50
102
RTVSPost2010PropOp42
 70
     1
102
RTVSPost2010Prop43
 90
        3
102
RTVSPost2010PropOp43
 70
     1
102
RTVSPost2010Prop44ColorIndex
 90
        5
102
RTVSPost2010Prop44ColorRGB
 90
      255
102
RTVSPost2010PropOp44
 70
     1
102
RTVSPost2010Prop45
280
     0
102
RTVSPost2010PropOp45
 70
     1
102
RTVSPost2010Prop46
 90
       50
102
RTVSPost2010PropOp46
 70
     1
102
RTVSPost2010Prop47
 90
       50
102
RTVSPost2010PropOp47
 70
     1
102
RTVSPost2010Prop48
 90
       50
102
RTVSPost2010PropOp48
 70
     1
102
RTVSPost2010Prop49
280
     0
102
RTVSPost2010PropOp49
 70
     1
102
RTVSPost2010Prop50
 90
       50
102
RTVSPost2010PropOp50
 70
     1
102
RTVSPost2010Prop51ColorIndex
 90
      256
102
RTVSPost2010Prop51ColorRGB
 90
-16777216
102
RTVSPost2010PropOp51
 70
     0
102
RTVSPost2010Prop52
140
1.0
102
RTVSPost2010PropOp52
 70
     0
102
RTVSPost2010Prop53
 90
        2
102
RTVSPost2010PropOp53
 70
     1
102
RTVSPost2010Prop54
  1
strokes_ogs.tif
102
RTVSPost2010PropOp54
 70
     1
102
RTVSPost2010Prop55
280
     0
102
RTVSPost2010PropOp55
 70
     1
102
RTVSPost2010Prop56
140
1.0
102
RTVSPost2010PropOp56
 70
     1
102
RTVSPost2010Prop57
140
1.0
102
RTVSPost2010PropOp57
 70
     1
  0
XRECORD
  5
31A
102
{ACAD_REACTORS
330
319
102
}
330
319
100
AcDbXrecord
280
     1
102
RTVSPropertyOp0
 70
     1
102
RTVSPropertyOp1
 70
     1
102
RTVSPropertyOp2
 70
     1
102
RTVSPropertyOp3
 70
     1
102
RTVSPropertyOp4
 70
     1
102
RTVSPropertyOp5
 70
     1
102
RTVSPropertyOp6
 70
     1
102
RTVSPropertyOp7
 70
     1
102
RTVSPropertyOp8
 70
     1
102
RTVSPropertyOp9
 70
     1
102
RTVSPropertyOp10
 70
     1
102
RTVSPropertyOp11
 70
     1
102
RTVSPropertyOp12
 70
     1
102
RTVSPropertyOp13
 70
     1
102
RTVSPropertyOp14
 70
     1
102
RTVSPropertyOp15
 70
     1
102
RTVSPropertyOp16
 70
     1
102
RTVSPropertyOp17
 70
     1
102
RTVSPropertyOp18
 70
     1
102
RTVSPropertyOp19
 70
     1
102
RTVSPropertyOp20
 70
     1
102
RTVSPropertyOp21
 70
     1
102
RTVSPropertyOp22
 70
     1
102
RTVSPropertyOp23
 70
     1
102
RTVSPropertyOp24
 70
     1
102
RTVSPropertyOp25
 70
     1
102
RTVSPropertyOp26
 70
     1
102
RTVSPropertyOp27
 70
     1
102
RTVSPropertyOp28
 70
     1
102
RTVSPropertyOp29
 70
     1
102
RTVSPropertyOp30
 70
     1
102
RTVSPropertyOp31
 70
     1
102
RTVSPropertyOp32
 70
     1
102
RTVSPropertyOp33
 70
     1
102
RTVSPropertyOp34
 70
     1
102
RTVSPropertyOp35
 70
     1
102
RTVSPropertyOp36
 70
     1
102
RTVSPropertyOp37
 70
     1
102
RTVSPropertyOp38
 70
     1
102
RTVSPropertyOp39
 70
     1
102
RTVSPropertyOp40
 70
     1
102
RTVSPropertyOp41
 70
     1
102
RTVSPropertyOp42
 70
     1
102
RTVSPropertyOp43
 70
     1
102
RTVSPropertyOp44
 70
     1
102
RTVSPropertyOp45
 70
     1
102
RTVSPropertyOp46
 70
     1
102
RTVSPropertyOp47
 70
     1
102
RTVSPropertyOp48
 70
     1
102
RTVSPropertyOp49
 70
     1
102
RTVSPropertyOp50
 70
     1
102
RTVSPropertyOp51
 70
     0
102
RTVSPropertyOp52
 70
     0
102
RTVSPropertyOp53
 70
     1
102
RTVSPropertyOp54
 70
     1
102
RTVSPropertyOp55
 70
     1
102
RTVSPropertyOp56
 70
     1
102
RTVSPropertyOp57
 70
     1
102
RTVSPost2010Prop28
280
     0
102
RTVSPost2010PropOp28
 70
     1
102
RTVSPost2010Prop29
280
     1
102
RTVSPost2010PropOp29
 70
     1
102
RTVSPost2010Prop30
280
     1
102
RTVSPost2010PropOp30
 70
     1
102
RTVSPost2010Prop31
280
     0
102
RTVSPost2010PropOp31
 70
     1
102
RTVSPost2010Prop32
280
     0
102
RTVSPost2010PropOp32
 70
     1
102
RTVSPost2010Prop33
280
     0
102
RTVSPost2010PropOp33
 70
     1
102
RTVSPost2010Prop34
280
     0
102
RTVSPost2010PropOp34
 70
     1
102
RTVSPost2010Prop35
280
     0
102
RTVSPost2010PropOp35
 70
     1
102
RTVSPost2010Prop36
280
     0
102
RTVSPost2010PropOp36
 70
     1
102
RTVSPost2010Prop37
 90
       50
102
RTVSPost2010PropOp37
 70
     1
102
RTVSPost2010Prop38
140
0.0
102
RTVSPost2010PropOp38
 70
     1
102
RTVSPost2010Prop39
140
1.0
102
RTVSPost2010PropOp39
 70
     1
102
RTVSPost2010Prop40
 90
        0
102
RTVSPost2010PropOp40
 70
     1
102
RTVSPost2010Prop41ColorIndex
 90
       18
102
RTVSPost2010Prop41ColorRGB
 90
        0
102
RTVSPost2010PropOp41
 70
     1
102
RTVSPost2010Prop42
 90
       50
102
RTVSPost2010PropOp42
 70
     1
102
RTVSPost2010Prop43
 90
        3
102
RTVSPost2010PropOp43
 70
     1
102
RTVSPost2010Prop44ColorIndex
 90
        5
102
RTVSPost2010Prop44ColorRGB
 90
      255
102
RTVSPost2010PropOp44
 70
     1
102
RTVSPost2010Prop45
280
     0
102
RTVSPost2010PropOp45
 70
     1
102
RTVSPost2010Prop46
 90
       50
102
RTVSPost2010PropOp46
 70
     1
102
RTVSPost2010Prop47
 90
       50
102
RTVSPost2010PropOp47
 70
     1
102
RTVSPost2010Prop48
 90
       50
102
RTVSPost2010PropOp48
 70
     1
102
RTVSPost2010Prop49
280
     0
102
RTVSPost2010PropOp49
 70
     1
102
RTVSPost2010Prop50
 90
       50
102
RTVSPost2010PropOp50
 70
     1
102
RTVSPost2010Prop51ColorIndex
 90
      256
102
RTVSPost2010Prop51ColorRGB
 90
-16777216
102
RTVSPost2010PropOp51
 70
     0
102
RTVSPost2010Prop52
140
1.0
102
RTVSPost2010PropOp52
 70
     0
102
RTVSPost2010Prop53
 90
        2
102
RTVSPost2010PropOp53
 70
     1
102
RTVSPost2010Prop54
  1
strokes_ogs.tif
102
RTVSPost2010PropOp54
 70
     1
102
RTVSPost2010Prop55
280
     0
102
RTVSPost2010PropOp55
 70
     1
102
RTVSPost2010Prop56
140
1.0
102
RTVSPost2010PropOp56
 70
     1
102
RTVSPost2010Prop57
140
1.0
102
RTVSPost2010PropOp57
 70
     1
  0
XRECORD
  5
30C
102
{ACAD_REACTORS
330
30B
102
}
330
30B
100
AcDbXrecord
280
     1
102
RTVSPropertyOp0
 70
     1
102
RTVSPropertyOp1
 70
     1
102
RTVSPropertyOp2
 70
     1
102
RTVSPropertyOp3
 70
     1
102
RTVSPropertyOp4
 70
     1
102
RTVSPropertyOp5
 70
     1
102
RTVSPropertyOp6
 70
     1
102
RTVSPropertyOp7
 70
     1
102
RTVSPropertyOp8
 70
     1
102
RTVSPropertyOp9
 70
     1
102
RTVSPropertyOp10
 70
     1
102
RTVSPropertyOp11
 70
     1
102
RTVSPropertyOp12
 70
     1
102
RTVSPropertyOp13
 70
     1
102
RTVSPropertyOp14
 70
     1
102
RTVSPropertyOp15
 70
     1
102
RTVSPropertyOp16
 70
     1
102
RTVSPropertyOp17
 70
     1
102
RTVSPropertyOp18
 70
     1
102
RTVSPropertyOp19
 70
     1
102
RTVSPropertyOp20
 70
     1
102
RTVSPropertyOp21
 70
     1
102
RTVSPropertyOp22
 70
     1
102
RTVSPropertyOp23
 70
     1
102
RTVSPropertyOp24
 70
     1
102
RTVSPropertyOp25
 70
     1
102
RTVSPropertyOp26
 70
     1
102
RTVSPropertyOp27
 70
     1
102
RTVSPropertyOp28
 70
     1
102
RTVSPropertyOp29
 70
     1
102
RTVSPropertyOp30
 70
     1
102
RTVSPropertyOp31
 70
     1
102
RTVSPropertyOp32
 70
     1
102
RTVSPropertyOp33
 70
     1
102
RTVSPropertyOp34
 70
     1
102
RTVSPropertyOp35
 70
     1
102
RTVSPropertyOp36
 70
     1
102
RTVSPropertyOp37
 70
     1
102
RTVSPropertyOp38
 70
     1
102
RTVSPropertyOp39
 70
     1
102
RTVSPropertyOp40
 70
     1
102
RTVSPropertyOp41
 70
     1
102
RTVSPropertyOp42
 70
     1
102
RTVSPropertyOp43
 70
     1
102
RTVSPropertyOp44
 70
     1
102
RTVSPropertyOp45
 70
     1
102
RTVSPropertyOp46
 70
     1
102
RTVSPropertyOp47
 70
     1
102
RTVSPropertyOp48
 70
     1
102
RTVSPropertyOp49
 70
     1
102
RTVSPropertyOp50
 70
     1
102
RTVSPropertyOp51
 70
     0
102
RTVSPropertyOp52
 70
     0
102
RTVSPropertyOp53
 70
     1
102
RTVSPropertyOp54
 70
     1
102
RTVSPropertyOp55
 70
     1
102
RTVSPropertyOp56
 70
     1
102
RTVSPropertyOp57
 70
     1
102
RTVSPost2010Prop28
280
     0
102
RTVSPost2010PropOp28
 70
     1
102
RTVSPost2010Prop29
280
     1
102
RTVSPost2010PropOp29
 70
     1
102
RTVSPost2010Prop30
280
     1
102
RTVSPost2010PropOp30
 70
     1
102
RTVSPost2010Prop31
280
     0
102
RTVSPost2010PropOp31
 70
     1
102
RTVSPost2010Prop32
280
     0
102
RTVSPost2010PropOp32
 70
     1
102
RTVSPost2010Prop33
280
     0
102
RTVSPost2010PropOp33
 70
     1
102
RTVSPost2010Prop34
280
     0
102
RTVSPost2010PropOp34
 70
     1
102
RTVSPost2010Prop35
280
     0
102
RTVSPost2010PropOp35
 70
     1
102
RTVSPost2010Prop36
280
     0
102
RTVSPost2010PropOp36
 70
     1
102
RTVSPost2010Prop37
 90
       50
102
RTVSPost2010PropOp37
 70
     1
102
RTVSPost2010Prop38
140
0.0
102
RTVSPost2010PropOp38
 70
     1
102
RTVSPost2010Prop39
140
1.0
102
RTVSPost2010PropOp39
 70
     1
102
RTVSPost2010Prop40
 90
        0
102
RTVSPost2010PropOp40
 70
     1
102
RTVSPost2010Prop41ColorIndex
 90
       18
102
RTVSPost2010Prop41ColorRGB
 90
        0
102
RTVSPost2010PropOp41
 70
     1
102
RTVSPost2010Prop42
 90
       50
102
RTVSPost2010PropOp42
 70
     1
102
RTVSPost2010Prop43
 90
        3
102
RTVSPost2010PropOp43
 70
     1
102
RTVSPost2010Prop44ColorIndex
 90
        5
102
RTVSPost2010Prop44ColorRGB
 90
      255
102
RTVSPost2010PropOp44
 70
     1
102
RTVSPost2010Prop45
280
     0
102
RTVSPost2010PropOp45
 70
     1
102
RTVSPost2010Prop46
 90
       50
102
RTVSPost2010PropOp46
 70
     1
102
RTVSPost2010Prop47
 90
       50
102
RTVSPost2010PropOp47
 70
     1
102
RTVSPost2010Prop48
 90
       50
102
RTVSPost2010PropOp48
 70
     1
102
RTVSPost2010Prop49
280
     0
102
RTVSPost2010PropOp49
 70
     1
102
RTVSPost2010Prop50
 90
       50
102
RTVSPost2010PropOp50
 70
     1
102
RTVSPost2010Prop51ColorIndex
 90
      256
102
RTVSPost2010Prop51ColorRGB
 90
-16777216
102
RTVSPost2010PropOp51
 70
     0
102
RTVSPost2010Prop52
140
1.0
102
RTVSPost2010PropOp52
 70
     0
102
RTVSPost2010Prop53
 90
        2
102
RTVSPost2010PropOp53
 70
     1
102
RTVSPost2010Prop54
  1
strokes_ogs.tif
102
RTVSPost2010PropOp54
 70
     1
102
RTVSPost2010Prop55
280
     0
102
RTVSPost2010PropOp55
 70
     1
102
RTVSPost2010Prop56
140
1.0
102
RTVSPost2010PropOp56
 70
     1
102
RTVSPost2010Prop57
140
1.0
102
RTVSPost2010PropOp57
 70
     1
  0
XRECORD
  5
32C
102
{ACAD_REACTORS
330
32B
102
}
330
32B
100
AcDbXrecord
280
     1
102
RTVSPropertyOp0
 70
     1
102
RTVSPropertyOp1
 70
     1
102
RTVSPropertyOp2
 70
     1
102
RTVSPropertyOp3
 70
     1
102
RTVSPropertyOp4
 70
     1
102
RTVSPropertyOp5
 70
     1
102
RTVSPropertyOp6
 70
     1
102
RTVSPropertyOp7
 70
     1
102
RTVSPropertyOp8
 70
     1
102
RTVSPropertyOp9
 70
     1
102
RTVSPropertyOp10
 70
     1
102
RTVSPropertyOp11
 70
     1
102
RTVSPropertyOp12
 70
     1
102
RTVSPropertyOp13
 70
     1
102
RTVSPropertyOp14
 70
     1
102
RTVSPropertyOp15
 70
     1
102
RTVSPropertyOp16
 70
     1
102
RTVSPropertyOp17
 70
     1
102
RTVSPropertyOp18
 70
     1
102
RTVSPropertyOp19
 70
     1
102
RTVSPropertyOp20
 70
     1
102
RTVSPropertyOp21
 70
     1
102
RTVSPropertyOp22
 70
     1
102
RTVSPropertyOp23
 70
     1
102
RTVSPropertyOp24
 70
     1
102
RTVSPropertyOp25
 70
     1
102
RTVSPropertyOp26
 70
     1
102
RTVSPropertyOp27
 70
     1
102
RTVSPropertyOp28
 70
     1
102
RTVSPropertyOp29
 70
     1
102
RTVSPropertyOp30
 70
     1
102
RTVSPropertyOp31
 70
     1
102
RTVSPropertyOp32
 70
     1
102
RTVSPropertyOp33
 70
     1
102
RTVSPropertyOp34
 70
     1
102
RTVSPropertyOp35
 70
     1
102
RTVSPropertyOp36
 70
     1
102
RTVSPropertyOp37
 70
     1
102
RTVSPropertyOp38
 70
     1
102
RTVSPropertyOp39
 70
     1
102
RTVSPropertyOp40
 70
     1
102
RTVSPropertyOp41
 70
     1
102
RTVSPropertyOp42
 70
     1
102
RTVSPropertyOp43
 70
     1
102
RTVSPropertyOp44
 70
     1
102
RTVSPropertyOp45
 70
     1
102
RTVSPropertyOp46
 70
     1
102
RTVSPropertyOp47
 70
     1
102
RTVSPropertyOp48
 70
     1
102
RTVSPropertyOp49
 70
     1
102
RTVSPropertyOp50
 70
     1
102
RTVSPropertyOp51
 70
     0
102
RTVSPropertyOp52
 70
     0
102
RTVSPropertyOp53
 70
     1
102
RTVSPropertyOp54
 70
     1
102
RTVSPropertyOp55
 70
     1
102
RTVSPropertyOp56
 70
     1
102
RTVSPropertyOp57
 70
     1
102
RTVSPost2010Prop28
280
     0
102
RTVSPost2010PropOp28
 70
     1
102
RTVSPost2010Prop29
280
     1
102
RTVSPost2010PropOp29
 70
     1
102
RTVSPost2010Prop30
280
     1
102
RTVSPost2010PropOp30
 70
     1
102
RTVSPost2010Prop31
280
     0
102
RTVSPost2010PropOp31
 70
     1
102
RTVSPost2010Prop32
280
     0
102
RTVSPost2010PropOp32
 70
     1
102
RTVSPost2010Prop33
280
     0
102
RTVSPost2010PropOp33
 70
     1
102
RTVSPost2010Prop34
280
     0
102
RTVSPost2010PropOp34
 70
     1
102
RTVSPost2010Prop35
280
     0
102
RTVSPost2010PropOp35
 70
     1
102
RTVSPost2010Prop36
280
     0
102
RTVSPost2010PropOp36
 70
     1
102
RTVSPost2010Prop37
 90
       50
102
RTVSPost2010PropOp37
 70
     1
102
RTVSPost2010Prop38
140
0.0
102
RTVSPost2010PropOp38
 70
     1
102
RTVSPost2010Prop39
140
1.0
102
RTVSPost2010PropOp39
 70
     1
102
RTVSPost2010Prop40
 90
        0
102
RTVSPost2010PropOp40
 70
     1
102
RTVSPost2010Prop41ColorIndex
 90
       18
102
RTVSPost2010Prop41ColorRGB
 90
        0
102
RTVSPost2010PropOp41
 70
     1
102
RTVSPost2010Prop42
 90
       50
102
RTVSPost2010PropOp42
 70
     1
102
RTVSPost2010Prop43
 90
        3
102
RTVSPost2010PropOp43
 70
     1
102
RTVSPost2010Prop44ColorIndex
 90
        5
102
RTVSPost2010Prop44ColorRGB
 90
      255
102
RTVSPost2010PropOp44
 70
     1
102
RTVSPost2010Prop45
280
     0
102
RTVSPost2010PropOp45
 70
     1
102
RTVSPost2010Prop46
 90
       50
102
RTVSPost2010PropOp46
 70
     1
102
RTVSPost2010Prop47
 90
       50
102
RTVSPost2010PropOp47
 70
     1
102
RTVSPost2010Prop48
 90
       50
102
RTVSPost2010PropOp48
 70
     1
102
RTVSPost2010Prop49
280
     0
102
RTVSPost2010PropOp49
 70
     1
102
RTVSPost2010Prop50
 90
       50
102
RTVSPost2010PropOp50
 70
     1
102
RTVSPost2010Prop51ColorIndex
 90
      256
102
RTVSPost2010Prop51ColorRGB
 90
-16777216
102
RTVSPost2010PropOp51
 70
     0
102
RTVSPost2010Prop52
140
1.0
102
RTVSPost2010PropOp52
 70
     0
102
RTVSPost2010Prop53
 90
        2
102
RTVSPost2010PropOp53
 70
     1
102
RTVSPost2010Prop54
  1
strokes_ogs.tif
102
RTVSPost2010PropOp54
 70
     1
102
RTVSPost2010Prop55
280
     0
102
RTVSPost2010PropOp55
 70
     1
102
RTVSPost2010Prop56
140
1.0
102
RTVSPost2010PropOp56
 70
     1
102
RTVSPost2010Prop57
140
1.0
102
RTVSPost2010PropOp57
 70
     1
  0
ENDSEC
  0
EOF
