  0
SECTION
  2
HEADER
  9
$ACADVER
  1
AC1018
  9
$ACADMAINTVER
 70
     0
  9
$DWGCODEPAGE
  3
ANSI_1252
  9
$INSBASE
 10
0.0
 20
0.0
 30
0.0
  9
$EXTMIN
 10
-216.2568927145343
 20
-6.29362749516855
 30
0.0
  9
$EXTMAX
 10
80.7431072854638
 20
203.7063725048316
 30
0.0
  9
$LIMMIN
 10
0.0
 20
0.0
  9
$LIMMAX
 10
12.0
 20
9.0
  9
$ORTHOMODE
 70
     0
  9
$REGENMODE
 70
     1
  9
$FILLMODE
 70
     1
  9
$QTEXTMODE
 70
     0
  9
$MIRRTEXT
 70
     1
  9
$LTSCALE
 40
1.0
  9
$ATTMODE
 70
     1
  9
$TEXTSIZE
 40
0.2
  9
$TRACEWID
 40
0.05
  9
$TEXTSTYLE
  7
Standard
  9
$CLAYER
  8
0
  9
$CELTYPE
  6
ByLayer
  9
$CECOLOR
 62
   256
  9
$CELTSCALE
 40
1.0
  9
$DISPSILH
 70
     0
  9
$DIMSCALE
 40
1.0
  9
$DIMASZ
 40
0.18
  9
$DIMEXO
 40
0.0625
  9
$DIMDLI
 40
0.38
  9
$DIMRND
 40
0.0
  9
$DIMDLE
 40
0.0
  9
$DIMEXE
 40
0.18
  9
$DIMTP
 40
0.0
  9
$DIMTM
 40
0.0
  9
$DIMTXT
 40
0.18
  9
$DIMCEN
 40
0.09
  9
$DIMTSZ
 40
0.0
  9
$DIMTOL
 70
     0
  9
$DIMLIM
 70
     0
  9
$DIMTIH
 70
     1
  9
$DIMTOH
 70
     1
  9
$DIMSE1
 70
     0
  9
$DIMSE2
 70
     0
  9
$DIMTAD
 70
     0
  9
$DIMZIN
 70
     0
  9
$DIMBLK
  1

  9
$DIMASO
 70
     1
  9
$DIMSHO
 70
     1
  9
$DIMPOST
  1

  9
$DIMAPOST
  1

  9
$DIMALT
 70
     0
  9
$DIMALTD
 70
     2
  9
$DIMALTF
 40
25.4
  9
$DIMLFAC
 40
1.0
  9
$DIMTOFL
 70
     0
  9
$DIMTVP
 40
0.0
  9
$DIMTIX
 70
     0
  9
$DIMSOXD
 70
     0
  9
$DIMSAH
 70
     0
  9
$DIMBLK1
  1

  9
$DIMBLK2
  1

  9
$DIMSTYLE
  2
Standard
  9
$DIMCLRD
 70
     0
  9
$DIMCLRE
 70
     0
  9
$DIMCLRT
 70
     0
  9
$DIMTFAC
 40
1.0
  9
$DIMGAP
 40
0.09
  9
$DIMJUST
 70
     0
  9
$DIMSD1
 70
     0
  9
$DIMSD2
 70
     0
  9
$DIMTOLJ
 70
     1
  9
$DIMTZIN
 70
     0
  9
$DIMALTZ
 70
     0
  9
$DIMALTTZ
 70
     0
  9
$DIMUPT
 70
     0
  9
$DIMDEC
 70
     4
  9
$DIMTDEC
 70
     4
  9
$DIMALTU
 70
     2
  9
$DIMALTTD
 70
     2
  9
$DIMTXSTY
  7
Standard
  9
$DIMAUNIT
 70
     0
  9
$DIMADEC
 70
     0
  9
$DIMALTRND
 40
0.0
  9
$DIMAZIN
 70
     0
  9
$DIMDSEP
 70
    46
  9
$DIMATFIT
 70
     3
  9
$DIMFRAC
 70
     0
  9
$DIMLDRBLK
  1

  9
$DIMLUNIT
 70
     2
  9
$DIMLWD
 70
    -2
  9
$DIMLWE
 70
    -2
  9
$DIMTMOVE
 70
     0
  9
$LUNITS
 70
     2
  9
$LUPREC
 70
     4
  9
$SKETCHINC
 40
0.1
  9
$FILLETRAD
 40
0.5
  9
$AUNITS
 70
     0
  9
$AUPREC
 70
     0
  9
$MENU
  1
.
  9
$ELEVATION
 40
0.0
  9
$PELEVATION
 40
0.0
  9
$THICKNESS
 40
0.0
  9
$LIMCHECK
 70
     0
  9
$CHAMFERA
 40
0.0
  9
$CHAMFERB
 40
0.0
  9
$CHAMFERC
 40
0.0
  9
$CHAMFERD
 40
0.0
  9
$SKPOLY
 70
     0
  9
$TDCREATE
 40
2459306.475242083
  9
$TDUCREATE
 40
2459306.39190875
  9
$TDUPDATE
 40
2459306.475242442
  9
$TDUUPDATE
 40
2459306.391909109
  9
$TDINDWG
 40
0.0000000116
  9
$TDUSRTIMER
 40
0.0000000116
  9
$USRTIMER
 70
     1
  9
$ANGBASE
 50
0.0
  9
$ANGDIR
 70
     0
  9
$PDMODE
 70
     0
  9
$PDSIZE
 40
0.0
  9
$PLINEWID
 40
0.0
  9
$SPLFRAME
 70
     0
  9
$SPLINETYPE
 70
     6
  9
$SPLINESEGS
 70
     8
  9
$HANDSEED
  5
375
  9
$SURFTAB1
 70
     6
  9
$SURFTAB2
 70
     6
  9
$SURFTYPE
 70
     6
  9
$SURFU
 70
     6
  9
$SURFV
 70
     6
  9
$UCSBASE
  2

  9
$UCSNAME
  2

  9
$UCSORG
 10
0.0
 20
0.0
 30
0.0
  9
$UCSXDIR
 10
1.0
 20
0.0
 30
0.0
  9
$UCSYDIR
 10
0.0
 20
1.0
 30
0.0
  9
$UCSORTHOREF
  2

  9
$UCSORTHOVIEW
 70
     0
  9
$UCSORGTOP
 10
0.0
 20
0.0
 30
0.0
  9
$UCSORGBOTTOM
 10
0.0
 20
0.0
 30
0.0
  9
$UCSORGLEFT
 10
0.0
 20
0.0
 30
0.0
  9
$UCSORGRIGHT
 10
0.0
 20
0.0
 30
0.0
  9
$UCSORGFRONT
 10
0.0
 20
0.0
 30
0.0
  9
$UCSORGBACK
 10
0.0
 20
0.0
 30
0.0
  9
$PUCSBASE
  2

  9
$PUCSNAME
  2

  9
$PUCSORG
 10
0.0
 20
0.0
 30
0.0
  9
$PUCSXDIR
 10
1.0
 20
0.0
 30
0.0
  9
$PUCSYDIR
 10
0.0
 20
1.0
 30
0.0
  9
$PUCSORTHOREF
  2

  9
$PUCSORTHOVIEW
 70
     0
  9
$PUCSORGTOP
 10
0.0
 20
0.0
 30
0.0
  9
$PUCSORGBOTTOM
 10
0.0
 20
0.0
 30
0.0
  9
$PUCSORGLEFT
 10
0.0
 20
0.0
 30
0.0
  9
$PUCSORGRIGHT
 10
0.0
 20
0.0
 30
0.0
  9
$PUCSORGFRONT
 10
0.0
 20
0.0
 30
0.0
  9
$PUCSORGBACK
 10
0.0
 20
0.0
 30
0.0
  9
$USERI1
 70
     0
  9
$USERI2
 70
     0
  9
$USERI3
 70
     0
  9
$USERI4
 70
     0
  9
$USERI5
 70
     0
  9
$USERR1
 40
20.1
  9
$USERR2
 40
0.0
  9
$USERR3
 40
0.0
  9
$USERR4
 40
0.0
  9
$USERR5
 40
0.0
  9
$WORLDVIEW
 70
     1
  9
$SHADEDGE
 70
     3
  9
$SHADEDIF
 70
    70
  9
$TILEMODE
 70
     1
  9
$MAXACTVP
 70
    64
  9
$PINSBASE
 10
0.0
 20
0.0
 30
0.0
  9
$PLIMCHECK
 70
     0
  9
$PEXTMIN
 10
1.00000000000000E+20
 20
1.00000000000000E+20
 30
1.00000000000000E+20
  9
$PEXTMAX
 10
-1.00000000000000E+20
 20
-1.00000000000000E+20
 30
-1.00000000000000E+20
  9
$PLIMMIN
 10
0.0
 20
0.0
  9
$PLIMMAX
 10
12.0
 20
9.0
  9
$UNITMODE
 70
     0
  9
$VISRETAIN
 70
     1
  9
$PLINEGEN
 70
     0
  9
$PSLTSCALE
 70
     1
  9
$TREEDEPTH
 70
  3020
  9
$CMLSTYLE
  2
Standard
  9
$CMLJUST
 70
     0
  9
$CMLSCALE
 40
1.0
  9
$PROXYGRAPHICS
 70
     1
  9
$MEASUREMENT
 70
     1
  9
$CELWEIGHT
370
    -1
  9
$ENDCAPS
280
     0
  9
$JOINSTYLE
280
     0
  9
$LWDISPLAY
290
     0
  9
$INSUNITS
 70
     4
  9
$HYPERLINKBASE
  1

  9
$STYLESHEET
  1

  9
$XEDIT
290
     1
  9
$CEPSNTYPE
380
     0
  9
$PSTYLEMODE
290
     1
  9
$FINGERPRINTGUID
  2
{a5dad249-a593-490c-a9fa-fbe27a4d3a55}
  9
$VERSIONGUID
  2
{FAEB1C32-E019-11D5-929B-00C0DF256EC4}
  9
$EXTNAMES
290
     1
  9
$PSVPSCALE
 40
0.0
  9
$OLESTARTUP
290
     0
  9
$SORTENTS
280
   127
  9
$INDEXCTL
280
     0
  9
$HIDETEXT
280
     1
  9
$XCLIPFRAME
290
     0
  9
$HALOGAP
280
     0
  9
$OBSCOLOR
 70
   257
  9
$OBSLTYPE
280
     0
  9
$INTERSECTIONDISPLAY
280
     0
  9
$INTERSECTIONCOLOR
 70
   257
  9
$DIMASSOC
280
     2
  9
$PROJECTNAME
  1

  0
ENDSEC
  0
SECTION
  2
CLASSES
  0
CLASS
  1
ACDBDICTIONARYWDFLT
  2
AcDbDictionaryWithDefault
  3
ObjectDBX Classes
 90
        0
 91
        3
280
     0
281
     0
  0
CLASS
  1
VISUALSTYLE
  2
AcDbVisualStyle
  3
ObjectDBX Classes
 90
     4095
 91
        3
280
     0
281
     0
  0
CLASS
  1
MATERIAL
  2
AcDbMaterial
  3
ObjectDBX Classes
 90
     1153
 91
        3
280
     0
281
     0
  0
CLASS
  1
SCALE
  2
AcDbScale
  3
ObjectDBX Classes
 90
     1153
 91
        3
280
     0
281
     0
  0
CLASS
  1
TABLESTYLE
  2
AcDbTableStyle
  3
ObjectDBX Classes
 90
     4095
 91
        3
280
     0
281
     0
  0
CLASS
  1
MLEADERSTYLE
  2
AcDbMLeaderStyle
  3
ACDB_MLEADERSTYLE_CLASS
 90
     4095
 91
        3
280
     0
281
     0
  0
CLASS
  1
SUN
  2
AcDbSun
  3
SCENEOE
 90
     1153
 91
        3
280
     0
281
     0
  0
CLASS
  1
DICTIONARYVAR
  2
AcDbDictionaryVar
  3
ObjectDBX Classes
 90
        0
 91
        3
280
     0
281
     0
  0
CLASS
  1
CELLSTYLEMAP
  2
AcDbCellStyleMap
  3
ObjectDBX Classes
 90
     1152
 91
        3
280
     0
281
     0
  0
ENDSEC
  0
SECTION
  2
TABLES
  0
TABLE
  2
VPORT
  5
8
102
{ACAD_XDICTIONARY
360
32E
102
}
330
0
100
AcDbSymbolTable
 70
     1
  0
VPORT
  5
29
330
8
100
AcDbSymbolTableRecord
100
AcDbViewportTableRecord
  2
*Active
 70
     0
 10
0.0
 20
0.0
 11
1.0
 21
1.0
 12
-67.75689271453525
 22
98.70637250483152
 13
0.0
 23
0.0
 14
0.5
 24
0.5
 15
0.5
 25
0.5
 16
0.0
 26
0.0
 36
1.0
 17
0.0
 27
0.0
 37
0.0
 40
231.0000000000002
 41
1.60267857142857
 42
50.0
 43
0.0
 44
0.0
 50
0.0
 51
0.0
 71
     0
 72
   100
 73
     1
 74
     3
 75
     0
 76
     0
 77
     0
 78
     0
281
     0
 65
     1
110
0.0
120
0.0
130
0.0
111
1.0
121
0.0
131
0.0
112
0.0
122
1.0
132
0.0
 79
     0
146
0.0
  0
ENDTAB
  0
TABLE
  2
LTYPE
  5
5
330
0
100
AcDbSymbolTable
 70
     8
  0
LTYPE
  5
14
330
5
100
AcDbSymbolTableRecord
100
AcDbLinetypeTableRecord
  2
ByBlock
 70
     0
  3

 72
    65
 73
     0
 40
0.0
  0
LTYPE
  5
15
330
5
100
AcDbSymbolTableRecord
100
AcDbLinetypeTableRecord
  2
ByLayer
 70
     0
  3

 72
    65
 73
     0
 40
0.0
  0
LTYPE
  5
16
330
5
100
AcDbSymbolTableRecord
100
AcDbLinetypeTableRecord
  2
Continuous
 70
     0
  3
Solid line
 72
    65
 73
     0
 40
0.0
  0
LTYPE
  5
6E
330
5
100
AcDbSymbolTableRecord
100
AcDbLinetypeTableRecord
  2
DASHED
 70
     0
  3
Dashed
 72
    65
 73
     2
 40
15.0
 49
7.0
 74
     0
 49
-8.0
 74
     0
  0
LTYPE
  5
6F
330
5
100
AcDbSymbolTableRecord
100
AcDbLinetypeTableRecord
  2
DOTTED
 70
     0
  3
Dotted
 72
    65
 73
     2
 40
1.0
 49
0.0
 74
     0
 49
-1.0
 74
     0
  0
LTYPE
  5
70
330
5
100
AcDbSymbolTableRecord
100
AcDbLinetypeTableRecord
  2
DOT_CENTER
 70
     0
  3
Dot_Center
 72
    65
 73
     4
 40
14.0
 49
12.0
 74
     0
 49
-1.0
 74
     0
 49
0.0
 74
     0
 49
-1.0
 74
     0
  0
LTYPE
  5
71
330
5
100
AcDbSymbolTableRecord
100
AcDbLinetypeTableRecord
  2
LONG_DASHED
 70
     0
  3
Long_Dashed
 72
    65
 73
     2
 40
15.0
 49
10.0
 74
     0
 49
-5.0
 74
     0
  0
LTYPE
  5
72
330
5
100
AcDbSymbolTableRecord
100
AcDbLinetypeTableRecord
  2
DASH_CENTER
 70
     0
  3
Dash_Center
 72
    65
 73
     4
 40
14.0
 49
11.0
 74
     0
 49
-1.0
 74
     0
 49
1.0
 74
     0
 49
-1.0
 74
     0
  0
LTYPE
  5
73
330
5
100
AcDbSymbolTableRecord
100
AcDbLinetypeTableRecord
  2
PHANTOM
 70
     0
  3
Phantom
 72
    65
 73
     6
 40
13.0
 49
10.0
 74
     0
 49
-1.0
 74
     0
 49
0.0
 74
     0
 49
-1.0
 74
     0
 49
0.0
 74
     0
 49
-1.0
 74
     0
  0
LTYPE
  5
74
330
5
100
AcDbSymbolTableRecord
100
AcDbLinetypeTableRecord
  2
CENTER_DASH_DASH
 70
     0
  3
Center_Dash_Dash
 72
    65
 73
     6
 40
14.0
 49
9.0
 74
     0
 49
-1.0
 74
     0
 49
1.0
 74
     0
 49
-1.0
 74
     0
 49
1.0
 74
     0
 49
-1.0
 74
     0
  0
ENDTAB
  0
TABLE
  2
LAYER
  5
2
330
0
100
AcDbSymbolTable
 70
     2
  0
LAYER
  5
10
330
2
100
AcDbSymbolTableRecord
100
AcDbLayerTableRecord
  2
0
 70
     0
 62
     7
  6
Continuous
370
    -3
390
F
  0
LAYER
  5
75
330
2
100
AcDbSymbolTableRecord
100
AcDbLayerTableRecord
  2
1
 70
     0
 62
     7
  6
Continuous
370
    -3
390
F
  0
ENDTAB
  0
TABLE
  2
STYLE
  5
3
330
0
100
AcDbSymbolTable
 70
     5
  0
STYLE
  5
11
330
3
100
AcDbSymbolTableRecord
100
AcDbTextStyleTableRecord
  2
Standard
 70
     0
 40
0.0
 41
1.0
 50
0.0
 71
     0
 42
0.2
  3
txt
  4

  0
STYLE
  5
103
330
3
100
AcDbSymbolTableRecord
100
AcDbTextStyleTableRecord
  2
CONVERTER_11
 70
     0
 40
0.0
 41
0.9
 50
0.0
 71
     0
 42
0.2
  3
txt.shx
  4

  0
STYLE
  5
2EC
330
3
100
AcDbSymbolTableRecord
100
AcDbTextStyleTableRecord
  2
CONVERTER_12
 70
     0
 40
0.0
 41
0.81
 50
0.0
 71
     0
 42
0.2
  3
txt.shx
  4

  0
STYLE
  5
2F2
330
3
100
AcDbSymbolTableRecord
100
AcDbTextStyleTableRecord
  2
CONVERTER_13
 70
     0
 40
0.0
 41
0.855
 50
0.0
 71
     0
 42
0.2
  3
txt.shx
  4

  0
STYLE
  5
2F5
330
3
100
AcDbSymbolTableRecord
100
AcDbTextStyleTableRecord
  2
CONVERTER_14
 70
     0
 40
0.0
 41
0.72
 50
0.0
 71
     0
 42
0.2
  3
txt.shx
  4

  0
ENDTAB
  0
TABLE
  2
VIEW
  5
6
330
0
100
AcDbSymbolTable
 70
     0
  0
ENDTAB
  0
TABLE
  2
UCS
  5
7
330
0
100
AcDbSymbolTable
 70
     0
  0
ENDTAB
  0
TABLE
  2
APPID
  5
9
330
0
100
AcDbSymbolTable
 70
     2
  0
APPID
  5
12
330
9
100
AcDbSymbolTableRecord
100
AcDbRegAppTableRecord
  2
ACAD
 70
     0
  0
APPID
  5
36D
330
9
100
AcDbSymbolTableRecord
100
AcDbRegAppTableRecord
  2
ACAD_MLEADERVER
 70
     0
  0
ENDTAB
  0
TABLE
  2
DIMSTYLE
  5
A
330
0
100
AcDbSymbolTable
 70
     4
100
AcDbDimStyleTable
  0
DIMSTYLE
105
27
330
A
100
AcDbSymbolTableRecord
100
AcDbDimStyleTableRecord
  2
Standard
 70
     0
178
     0
340
11
  0
DIMSTYLE
105
16C
102
{ACAD_REACTORS
330
16D
102
}
330
A
100
AcDbSymbolTableRecord
100
AcDbDimStyleTableRecord
  2
ME10_DIM_10
 70
     0
 41
3.5
 42
0.0
 44
2.0
 73
     0
 74
     0
 77
     1
 78
     8
140
3.5
147
2.0
172
     1
173
     1
174
     1
175
     1
176
     2
177
     2
178
     3
340
103
  0
DIMSTYLE
105
1E8
102
{ACAD_REACTORS
330
1E9
102
}
330
A
100
AcDbSymbolTableRecord
100
AcDbDimStyleTableRecord
  2
ME10_DIM_11
 70
     0
 41
3.5
 42
0.0
 44
2.0
 73
     0
 74
     0
 77
     1
 78
     8
140
3.5
147
2.0
172
     1
173
     1
174
     1
175
     1
176
     2
177
     2
178
     3
340
103
  0
DIMSTYLE
105
1F3
102
{ACAD_REACTORS
330
1F4
102
}
330
A
100
AcDbSymbolTableRecord
100
AcDbDimStyleTableRecord
  2
ME10_DIM_12
 70
     0
 41
3.5
 42
0.0
 44
2.0
 73
     0
 74
     0
 77
     1
 78
     8
140
3.5
147
2.0
172
     1
173
     1
174
     1
175
     1
176
     2
177
     2
178
     3
340
103
  0
ENDTAB
  0
TABLE
  2
BLOCK_RECORD
  5
1
330
0
100
AcDbSymbolTable
 70
    20
  0
BLOCK_RECORD
  5
1F
330
1
100
AcDbSymbolTableRecord
100
AcDbBlockTableRecord
  2
*Model_Space
340
22
  0
BLOCK_RECORD
  5
1B
330
1
100
AcDbSymbolTableRecord
100
AcDbBlockTableRecord
  2
*Paper_Space
340
1E
  0
BLOCK_RECORD
  5
23
330
1
100
AcDbSymbolTableRecord
100
AcDbBlockTableRecord
  2
*Paper_Space0
340
26
  0
BLOCK_RECORD
  5
76
330
1
100
AcDbSymbolTableRecord
100
AcDbBlockTableRecord
  2
CES_SRG_BK_10-select__1
340
0
102
{BLKREFS
331
7A
102
}
  0
BLOCK_RECORD
  5
79
330
1
100
AcDbSymbolTableRecord
100
AcDbBlockTableRecord
  2
AllgSicht1
340
0
102
{BLKREFS
331
AC
102
}
  0
BLOCK_RECORD
  5
7D
330
1
100
AcDbSymbolTableRecord
100
AcDbBlockTableRecord
  2
CES_SRG_BK_10-select__2
340
0
102
{BLKREFS
331
81
102
}
  0
BLOCK_RECORD
  5
80
330
1
100
AcDbSymbolTableRecord
100
AcDbBlockTableRecord
  2
Drfsicht1
340
0
102
{BLKREFS
331
AD
102
}
  0
BLOCK_RECORD
  5
84
330
1
100
AcDbSymbolTableRecord
100
AcDbBlockTableRecord
  2
CES_SRG_BK_10-select__3
340
0
102
{BLKREFS
331
88
102
}
  0
BLOCK_RECORD
  5
87
330
1
100
AcDbSymbolTableRecord
100
AcDbBlockTableRecord
  2
Rckans1
340
0
102
{BLKREFS
331
AE
102
}
  0
BLOCK_RECORD
  5
8B
330
1
100
AcDbSymbolTableRecord
100
AcDbBlockTableRecord
  2
CES_SRG_BK_10-select__4
340
0
102
{BLKREFS
331
8F
102
}
  0
BLOCK_RECORD
  5
8E
330
1
100
AcDbSymbolTableRecord
100
AcDbBlockTableRecord
  2
SA_Links1
340
0
102
{BLKREFS
331
AF
102
}
  0
BLOCK_RECORD
  5
92
330
1
100
AcDbSymbolTableRecord
100
AcDbBlockTableRecord
  2
CES_SRG_BK_10-select__5
340
0
102
{BLKREFS
331
96
102
}
  0
BLOCK_RECORD
  5
95
330
1
100
AcDbSymbolTableRecord
100
AcDbBlockTableRecord
  2
SA_Rechts1
340
0
102
{BLKREFS
331
B0
102
}
  0
BLOCK_RECORD
  5
99
330
1
100
AcDbSymbolTableRecord
100
AcDbBlockTableRecord
  2
CES_SRG_BK_10-select__6
340
0
102
{BLKREFS
331
9D
102
}
  0
BLOCK_RECORD
  5
9C
330
1
100
AcDbSymbolTableRecord
100
AcDbBlockTableRecord
  2
Vordans1
340
0
102
{BLKREFS
331
B1
102
}
  0
BLOCK_RECORD
  5
A0
330
1
100
AcDbSymbolTableRecord
100
AcDbBlockTableRecord
  2
_rahmen
340
0
102
{BLKREFS
331
A7
102
}
  0
BLOCK_RECORD
  5
A3
330
1
100
AcDbSymbolTableRecord
100
AcDbBlockTableRecord
  2
_punkt
340
0
102
{BLKREFS
331
A8
102
}
  0
BLOCK_RECORD
  5
A6
330
1
100
AcDbSymbolTableRecord
100
AcDbBlockTableRecord
  2
A4I_CS
340
0
102
{BLKREFS
331
B2
102
}
  0
BLOCK_RECORD
  5
AB
330
1
100
AcDbSymbolTableRecord
100
AcDbBlockTableRecord
  2
1
340
0
102
{BLKREFS
331
B5
102
}
  0
BLOCK_RECORD
  5
163
330
1
100
AcDbSymbolTableRecord
100
AcDbBlockTableRecord
  2
*D17
340
0
  0
BLOCK_RECORD
  5
1DF
330
1
100
AcDbSymbolTableRecord
100
AcDbBlockTableRecord
  2
*D18
340
0
  0
BLOCK_RECORD
  5
1EA
330
1
100
AcDbSymbolTableRecord
100
AcDbBlockTableRecord
  2
*D19
340
0
  0
ENDTAB
  0
ENDSEC
  0
SECTION
  2
BLOCKS
  0
BLOCK
  5
20
330
1F
100
AcDbEntity
  8
0
100
AcDbBlockBegin
  2
*Model_Space
 70
     0
 10
0.0
 20
0.0
 30
0.0
  3
*Model_Space
  1

  0
ENDBLK
  5
21
330
1F
100
AcDbEntity
  8
0
100
AcDbBlockEnd
  0
BLOCK
  5
1C
330
1B
100
AcDbEntity
 67
     1
  8
0
100
AcDbBlockBegin
  2
*Paper_Space
 70
     0
 10
0.0
 20
0.0
 30
0.0
  3
*Paper_Space
  1

  0
ENDBLK
  5
1D
330
1B
100
AcDbEntity
 67
     1
  8
0
100
AcDbBlockEnd
  0
BLOCK
  5
24
330
23
100
AcDbEntity
  8
0
100
AcDbBlockBegin
  2
*Paper_Space0
 70
     0
 10
0.0
 20
0.0
 30
0.0
  3
*Paper_Space0
  1

  0
ENDBLK
  5
25
330
23
100
AcDbEntity
  8
0
100
AcDbBlockEnd
  0
BLOCK
  5
77
330
76
100
AcDbEntity
  8
0
100
AcDbBlockBegin
  2
CES_SRG_BK_10-select__1
 70
     0
 10
39.76378361410519
 20
40.47732683345785
 30
0.0
  3
CES_SRG_BK_10-select__1
  1

  0
LINE
  5
B6
330
76
100
AcDbEntity
  8
0
  6
Continuous
 62
     7
100
AcDbLine
 10
53.08374784578088
 20
69.69242023619766
 30
0.0
 11
53.08374784578034
 21
67.76929491473308
 31
0.0
  0
LINE
  5
B7
330
76
100
AcDbEntity
  8
0
  6
Continuous
 62
     7
100
AcDbLine
 10
55.18625000889749
 20
69.28709529793807
 30
0.0
 11
55.00323730700525
 21
69.62860164888426
 31
0.0
  0
LINE
  5
B8
330
76
100
AcDbEntity
  8
0
  6
Continuous
 62
     7
100
AcDbLine
 10
54.4862154784448
 20
58.23084761103768
 30
0.0
 11
52.62426086030836
 21
58.7683476110381
 31
0.0
  0
LINE
  5
B9
330
76
100
AcDbEntity
  8
0
  6
Continuous
 62
     7
100
AcDbLine
 10
54.4862154784448
 20
58.23084761103768
 30
0.0
 11
54.4862154784427
 21
49.35413052351791
 31
0.0
  0
LINE
  5
BA
330
76
100
AcDbEntity
  8
0
  6
Continuous
 62
     7
100
AcDbLine
 10
55.18625000889749
 20
69.28709529793807
 30
0.0
 11
56.87499954627725
 21
68.79959529793764
 31
0.0
  0
LINE
  5
BB
330
76
100
AcDbEntity
  8
0
  6
Continuous
 62
     7
100
AcDbLine
 10
55.00323730700525
 20
69.62860164888426
 30
0.0
 11
54.32022460511307
 21
69.53709529793827
 31
0.0
  0
LINE
  5
BC
330
76
100
AcDbEntity
  8
0
  6
Continuous
 62
     7
100
AcDbLine
 10
52.97788522924719
 20
69.92459529793858
 30
0.0
 11
54.32022460511307
 21
69.53709529793827
 31
0.0
  0
LINE
  5
BD
330
76
100
AcDbEntity
  8
0
  6
Continuous
 62
     7
100
AcDbLine
 10
39.7637836141073
 20
53.60413052352141
 30
0.0
 11
39.76378361411067
 21
67.67700003374742
 31
0.0
  0
LINE
  5
BE
330
76
100
AcDbEntity
  8
0
  6
Continuous
 62
     7
100
AcDbLine
 10
51.94124815841614
 20
58.67684126009209
 30
0.0
 11
51.94124815841403
 21
49.80012417257231
 31
0.0
  0
LINE
  5
BF
330
76
100
AcDbEntity
  8
0
  6
Continuous
 62
     7
100
AcDbLine
 10
52.81700298192289
 20
69.78526718473782
 30
0.0
 11
52.97788522924719
 21
69.92459529793858
 31
0.0
  0
LINE
  5
C0
330
76
100
AcDbEntity
  8
0
  6
Continuous
 62
     7
100
AcDbLine
 10
52.97788522924843
 20
75.12074772064484
 30
0.0
 11
52.97788522924719
 21
69.92459529793858
 31
0.0
  0
LINE
  5
C1
330
76
100
AcDbEntity
  8
0
  6
Continuous
 62
     7
100
AcDbLine
 10
51.94124815841403
 20
49.80012417257231
 30
0.0
 11
51.75823545652179
 21
50.14163052351853
 31
0.0
  0
LINE
  5
C2
330
76
100
AcDbEntity
  8
0
  6
Continuous
 62
     7
100
AcDbLine
 10
52.62426086030836
 20
58.7683476110381
 30
0.0
 11
52.62426086030625
 21
49.89163052351833
 31
0.0
  0
LINE
  5
C3
330
76
100
AcDbEntity
  8
0
  6
Continuous
 62
     7
100
AcDbLine
 10
52.97788522924843
 20
75.12074772064484
 30
0.0
 11
49.51378361411067
 21
76.12074772064568
 31
0.0
  0
LINE
  5
C4
330
76
100
AcDbEntity
  8
0
  6
Continuous
 62
     7
100
AcDbLine
 10
49.6046312677228
 20
70.90341021822076
 30
0.0
 11
53.08374784578088
 21
69.69242023619766
 31
0.0
  0
LINE
  5
C5
330
76
100
AcDbEntity
  8
0
  6
Continuous
 62
     7
100
AcDbLine
 10
44.41817749754053
 20
42.48010358319337
 30
0.0
 11
44.10706510498229
 21
43.47352946449817
 31
0.0
  0
LINE
  5
C6
330
76
100
AcDbEntity
  8
0
  6
Continuous
 62
     7
100
AcDbLine
 10
51.75823545651967
 20
41.26482683345846
 30
0.0
 11
50.76230624216766
 21
41.55232683345867
 31
0.0
  0
LINE
  5
C7
330
76
100
AcDbEntity
  8
0
  6
Continuous
 62
     7
100
AcDbLine
 10
50.76230624216766
 20
41.55232683345867
 30
0.0
 11
47.12499954627302
 21
42.60232683345954
 31
0.0
  0
LINE
  5
C8
330
76
100
AcDbEntity
  8
0
  6
Continuous
 62
     7
100
AcDbLine
 10
52.62426086030625
 20
49.89154392097795
 30
0.0
 11
52.62426086030414
 21
41.01482683345825
 31
0.0
  0
LINE
  5
C9
330
76
100
AcDbEntity
  8
0
  6
Continuous
 62
     7
100
AcDbLine
 10
54.4862154784427
 20
49.35404392097755
 30
0.0
 11
54.48621547844056
 21
40.47732683345785
 31
0.0
  0
LINE
  5
CA
330
76
100
AcDbEntity
  8
0
  6
Continuous
 62
     7
100
AcDbLine
 10
54.48621547844056
 20
40.47732683345785
 30
0.0
 11
52.62426086030414
 21
41.01482683345825
 31
0.0
  0
LINE
  5
CB
330
76
100
AcDbEntity
  8
0
  6
Continuous
 62
     7
100
AcDbLine
 10
51.94124815841192
 20
40.92332048251223
 30
0.0
 11
52.62426086030414
 21
41.01482683345825
 31
0.0
  0
LINE
  5
CC
330
76
100
AcDbEntity
  8
0
  6
Continuous
 62
     7
100
AcDbLine
 10
47.12499954627302
 20
42.60232683345954
 30
0.0
 11
39.76378361410519
 21
44.72732683346131
 31
0.0
  0
LINE
  5
CD
330
76
100
AcDbEntity
  8
0
  6
Continuous
 62
     7
100
AcDbLine
 10
56.87499954627725
 20
68.79959529793764
 30
0.0
 11
60.51230624217187
 21
67.74959529793678
 31
0.0
  0
LINE
  5
CE
330
76
100
AcDbEntity
  8
0
  6
Continuous
 62
     7
100
AcDbLine
 10
64.23621547844057
 20
48.92107452035611
 30
0.0
 11
64.2362154784448
 21
66.67459529793595
 31
0.0
  0
LINE
  5
CF
330
76
100
AcDbEntity
  8
0
  6
Continuous
 62
     7
100
AcDbLine
 10
60.51230624217187
 20
67.74959529793678
 30
0.0
 11
64.2362154784448
 21
66.67459529793595
 31
0.0
  0
LINE
  5
D0
330
76
100
AcDbEntity
  8
0
  6
Continuous
 62
     7
100
AcDbLine
 10
39.76378361411067
 20
67.67700003374742
 30
0.0
 11
43.22788522924843
 21
66.67700003374658
 31
0.0
  0
LINE
  5
D1
330
76
100
AcDbEntity
  8
0
  6
Continuous
 62
     7
100
AcDbLine
 10
52.33374784578034
 20
67.11977586189474
 30
0.0
 11
52.33374784577982
 21
65.26675596032777
 31
0.0
  0
LINE
  5
D2
330
76
100
AcDbEntity
  8
0
  6
Continuous
 62
     7
100
AcDbLine
 10
51.94124815841614
 20
58.67684126009209
 30
0.0
 11
52.62426086030836
 21
58.7683476110381
 31
0.0
  0
LINE
  5
D3
330
76
100
AcDbEntity
  8
0
  6
Continuous
 62
     7
100
AcDbLine
 10
52.33374784577982
 20
65.26675596032777
 30
0.0
 11
50.97343092374682
 21
64.08868694864933
 31
0.0
  0
LINE
  5
D4
330
76
100
AcDbEntity
  8
0
  6
Continuous
 62
     7
100
AcDbLine
 10
43.22788522924719
 20
61.48084761104032
 30
0.0
 11
43.22788522924843
 21
66.67700003374658
 31
0.0
  0
LINE
  5
D5
330
76
100
AcDbEntity
  8
0
  6
Continuous
 62
     7
100
AcDbLine
 10
46.60113919077362
 20
68.3023097795175
 30
0.0
 11
46.60113919077302
 21
66.13119781535657
 31
0.0
  0
LINE
  5
D6
330
76
100
AcDbEntity
  8
0
  6
Continuous
 62
     7
100
AcDbLine
 10
46.60113919077302
 20
66.13119781535657
 30
0.0
 11
50.22343092374733
 21
65.29218779737798
 31
0.0
  0
LINE
  5
D7
330
76
100
AcDbEntity
  8
0
  6
Continuous
 62
     7
100
AcDbLine
 10
47.35113919077253
 20
65.05169028797609
 30
0.0
 11
50.97343092374682
 21
64.08868694864933
 31
0.0
  0
LINE
  5
D8
330
76
100
AcDbEntity
  8
0
  6
Continuous
 62
     7
100
AcDbLine
 10
50.97343092374734
 20
65.9417068502163
 30
0.0
 11
50.22343092374733
 21
65.29218779737798
 31
0.0
  0
LINE
  5
D9
330
76
100
AcDbEntity
  8
0
  6
Continuous
 62
     7
100
AcDbLine
 10
50.22343092374733
 20
65.29218779737798
 30
0.0
 11
50.22343092374787
 21
67.21531311884257
 31
0.0
  0
LINE
  5
DA
330
76
100
AcDbEntity
  8
0
  6
Continuous
 62
     7
100
AcDbLine
 10
50.97343092374682
 20
64.08868694864933
 30
0.0
 11
50.97343092374734
 21
65.9417068502163
 31
0.0
  0
LINE
  5
DB
330
76
100
AcDbEntity
  8
0
  6
Continuous
 62
     7
100
AcDbLine
 10
50.76230624217187
 20
59.30584761103852
 30
0.0
 11
47.12499954627723
 21
60.35584761103938
 31
0.0
  0
LINE
  5
DC
330
76
100
AcDbEntity
  8
0
  6
Continuous
 62
     7
100
AcDbLine
 10
51.75823545652388
 20
59.01834761103831
 30
0.0
 11
50.76230624217187
 21
59.30584761103852
 31
0.0
  0
LINE
  5
DD
330
76
100
AcDbEntity
  8
0
  6
Continuous
 62
     7
100
AcDbLine
 10
47.35113919077279
 20
65.95747974959298
 30
0.0
 11
47.35113919077253
 21
65.05169028797609
 31
0.0
  0
LINE
  5
DE
330
76
100
AcDbEntity
  8
0
  6
Continuous
 62
     7
100
AcDbLine
 10
51.75823545652388
 20
59.01834761103831
 30
0.0
 11
51.94124815841614
 21
58.67684126009209
 31
0.0
  0
LINE
  5
DF
330
76
100
AcDbEntity
  8
0
  6
Continuous
 62
     7
100
AcDbLine
 10
46.60113919077362
 20
68.3023097795175
 30
0.0
 11
50.22343092374787
 21
67.21531311884257
 31
0.0
  0
LINE
  5
E0
330
76
100
AcDbEntity
  8
0
  6
Continuous
 62
     7
100
AcDbLine
 10
49.6046312677228
 20
70.90341021822076
 30
0.0
 11
46.60113919077362
 21
68.3023097795175
 31
0.0
  0
LINE
  5
E1
330
76
100
AcDbEntity
  8
0
  6
Continuous
 62
     7
100
AcDbLine
 10
43.22788522924719
 20
61.48084761104032
 30
0.0
 11
47.35113919077253
 21
65.05169028797609
 31
0.0
  0
LINE
  5
E2
330
76
100
AcDbEntity
  8
0
  6
Continuous
 62
     7
100
AcDbLine
 10
43.22788522924843
 20
66.67700003374658
 30
0.0
 11
52.97788522924843
 21
75.12074772064484
 31
0.0
  0
LINE
  5
E3
330
76
100
AcDbEntity
  8
0
  6
Continuous
 62
     7
100
AcDbLine
 10
47.12499954627723
 20
60.35584761103938
 30
0.0
 11
43.22788522924719
 21
61.48084761104032
 31
0.0
  0
LINE
  5
E4
330
76
100
AcDbEntity
  8
0
  6
Continuous
 62
     7
100
AcDbLine
 10
39.76378361411067
 20
67.67700003374742
 30
0.0
 11
49.51378361411067
 21
76.12074772064568
 31
0.0
  0
LINE
  5
E5
330
76
100
AcDbEntity
  8
0
  6
Continuous
 62
     7
100
AcDbLine
 10
54.4862154784448
 20
58.23084761103768
 30
0.0
 11
64.2362154784448
 21
66.67459529793595
 31
0.0
  0
LINE
  5
E6
330
76
100
AcDbEntity
  8
0
  6
Continuous
 62
     7
100
AcDbLine
 10
39.76378361410519
 20
44.72732683346131
 30
0.0
 11
39.7637836141073
 21
53.60404392098102
 31
0.0
  0
LINE
  5
E7
330
76
100
AcDbEntity
  8
0
  6
Continuous
 62
     7
100
AcDbLine
 10
51.75823545652177
 20
50.14154392097817
 30
0.0
 11
39.7637836141073
 21
53.60404392098102
 31
0.0
  0
LINE
  5
E8
330
76
100
AcDbEntity
  8
0
  6
Continuous
 62
     7
100
AcDbLine
 10
39.76385861410732
 20
53.60410887288631
 30
0.0
 11
39.7637836141073
 21
53.60404392098102
 31
0.0
  0
LINE
  5
E9
330
76
100
AcDbEntity
  8
0
  6
Continuous
 62
     7
100
AcDbLine
 10
56.86114047856775
 20
51.41087590570896
 30
0.0
 11
56.86121547856768
 21
51.41085425507387
 31
0.0
  0
LINE
  5
EA
330
76
100
AcDbEntity
  8
0
  6
Continuous
 62
     7
100
AcDbLine
 10
52.62426086030625
 20
49.89163052351833
 30
0.0
 11
51.94124815841403
 21
49.80012417257231
 31
0.0
  0
LINE
  5
EB
330
76
100
AcDbEntity
  8
0
  6
Continuous
 62
     7
100
AcDbLine
 10
54.4862154784427
 20
49.35413052351791
 30
0.0
 11
56.86121547856768
 21
51.41094085761424
 31
0.0
  0
LINE
  5
EC
330
76
100
AcDbEntity
  8
0
  6
Continuous
 62
     7
100
AcDbLine
 10
54.4862154784427
 20
49.35404392097755
 30
0.0
 11
56.86121547856768
 21
51.41085425507387
 31
0.0
  0
LINE
  5
ED
330
76
100
AcDbEntity
  8
0
  6
Continuous
 62
     7
100
AcDbLine
 10
51.94124815841403
 20
49.80003757003194
 30
0.0
 11
52.62426086030625
 21
49.89154392097795
 31
0.0
  0
LINE
  5
EE
330
76
100
AcDbEntity
  8
0
  6
Continuous
 62
     7
100
AcDbLine
 10
54.4862154784427
 20
49.35404392097755
 30
0.0
 11
52.62426086030625
 21
49.89154392097795
 31
0.0
  0
LINE
  5
EF
330
76
100
AcDbEntity
  8
0
  6
Continuous
 62
     7
100
AcDbLine
 10
52.62426086030625
 20
49.89163052351833
 30
0.0
 11
54.4862154784427
 21
49.35413052351791
 31
0.0
  0
LINE
  5
F0
330
76
100
AcDbEntity
  8
0
  6
Continuous
 62
     7
100
AcDbLine
 10
39.7637836141073
 20
53.60413052352141
 30
0.0
 11
51.75823545652179
 21
50.14163052351853
 31
0.0
  0
LINE
  5
F1
330
76
100
AcDbEntity
  8
0
  6
Continuous
 62
     7
100
AcDbLine
 10
51.94124815841403
 20
49.80003757003194
 30
0.0
 11
51.94124815841192
 21
40.92332048251223
 31
0.0
  0
LINE
  5
F2
330
76
100
AcDbEntity
  8
0
  6
Continuous
 62
     7
100
AcDbLine
 10
51.75823545652179
 20
50.14163052351853
 30
0.0
 11
51.75823545652388
 21
59.01834761103831
 31
0.0
  0
LINE
  5
F3
330
76
100
AcDbEntity
  8
0
  6
Continuous
 62
     7
100
AcDbLine
 10
51.75823545652177
 20
50.14154392097817
 30
0.0
 11
51.94124815841403
 21
49.80003757003194
 31
0.0
  0
LINE
  5
F4
330
76
100
AcDbEntity
  8
0
  6
Continuous
 62
     7
100
AcDbLine
 10
51.75823545651967
 20
41.26482683345846
 30
0.0
 11
51.75823545652177
 21
50.14154392097817
 31
0.0
  0
LINE
  5
F5
330
76
100
AcDbEntity
  8
0
  6
Continuous
 62
     7
100
AcDbLine
 10
51.75823545651967
 20
41.26482683345846
 30
0.0
 11
51.94124815841192
 21
40.92332048251223
 31
0.0
  0
LINE
  5
F6
330
76
100
AcDbEntity
  8
0
  6
Continuous
 62
     7
100
AcDbLine
 10
53.08374784578034
 20
67.76929491473308
 30
0.0
 11
52.33374784578034
 21
67.11977586189474
 31
0.0
  0
LINE
  5
F7
330
76
100
AcDbEntity
  8
0
  6
Continuous
 62
     7
100
AcDbLine
 10
50.22343092374787
 20
67.21531311884257
 30
0.0
 11
53.08374784578088
 21
69.69242023619766
 31
0.0
  0
LINE
  5
F8
330
76
100
AcDbEntity
  8
0
  6
Continuous
 62
     7
100
AcDbLine
 10
64.23621547844057
 20
48.92107452035611
 30
0.0
 11
54.48621547844056
 21
40.47732683345785
 31
0.0
  0
SPLINE
  5
F9
330
76
100
AcDbEntity
  8
0
  6
Continuous
 62
     7
100
AcDbSpline
210
0.0
220
0.0
230
1.0
 70
  1064
 71
     3
 72
    17
 73
    13
 74
    11
 42
0.000000001
 43
0.0000000001
 44
0.00000001
 40
0.0
 40
0.0
 40
0.0
 40
0.0
 40
0.2611458113190375
 40
0.580650352626376
 40
0.9629386800357636
 40
1.395689917896188
 40
1.857467596866839
 40
2.322564778821802
 40
2.764819070973956
 40
3.16133473337273
 40
3.496942824021334
 40
3.770946873225345
 40
3.770946873225345
 40
3.770946873225345
 40
3.770946873225345
 10
44.41817749754053
 20
42.48010358319337
 30
0.0
 10
44.45808981254952
 20
42.40145245129253
 30
0.0
 10
44.54683373721387
 20
42.22657388853312
 30
0.0
 10
44.81964892542429
 20
42.03860213725343
 30
0.0
 10
45.16617583995688
 20
41.88823918665034
 30
0.0
 10
45.58354307544699
 20
41.79176029199072
 30
0.0
 10
46.03629023784431
 20
41.7531938281946
 30
0.0
 10
46.49328945066925
 20
41.7765045293277
 30
0.0
 10
46.92261905524254
 20
41.85873765779525
 30
0.0
 10
47.288462254622
 20
41.9972760115653
 30
0.0
 10
47.58392217586121
 20
42.17391752255684
 30
0.0
 10
47.69680909643358
 20
42.34549359877558
 30
0.0
 10
47.74754868494384
 20
42.4226123770617
 30
0.0
 11
44.41817749754053
 21
42.48010358319337
 31
0.0
 11
44.55323925031013
 21
42.25659640556259
 31
0.0
 11
44.80507855558994
 21
42.05997463973586
 31
0.0
 11
45.15460868982048
 21
41.90514231418991
 31
0.0
 11
45.57533465674204
 21
41.80383440281452
 31
0.0
 11
46.03536761941896
 21
41.76373083650892
 31
0.0
 11
46.49983793968062
 21
41.78787018440295
 31
0.0
 11
46.93353980237904
 21
41.87442393239063
 31
0.0
 11
47.30360068328662
 21
42.01683044145258
 31
0.0
 11
47.58196953863695
 21
42.20429663256576
 31
0.0
 11
47.74754868494384
 21
42.4226123770617
 31
0.0
  0
SPLINE
  5
FA
330
76
100
AcDbEntity
  8
0
  6
Continuous
 62
     7
100
AcDbSpline
210
0.0
220
0.0
230
1.0
 70
  1064
 71
     3
 72
    11
 73
     7
 74
     5
 42
0.000000001
 43
0.0000000001
 44
0.00000001
 40
0.0
 40
0.0
 40
0.0
 40
0.0
 40
0.9910437300341591
 40
1.819778848055139
 40
2.483020760556897
 40
3.030622242578338
 40
3.030622242578338
 40
3.030622242578338
 40
3.030622242578338
 10
56.86121547856768
 20
51.41085425507387
 30
0.0
 10
56.87298733369339
 20
51.07912665464555
 30
0.0
 10
56.89460311089557
 20
50.47000028502315
 30
0.0
 10
57.10706350303384
 20
49.67101690841537
 30
0.0
 10
57.44024757529026
 20
49.04173383568819
 30
0.0
 10
57.80810307607583
 20
48.85607863551463
 30
0.0
 10
57.97446498787861
 20
48.77211645154456
 30
0.0
 11
56.86121547856768
 21
51.41085425507387
 31
0.0
 11
56.93630128191941
 21
50.42265904096928
 31
0.0
 11
57.15703487977397
 21
49.62386083149339
 31
0.0
 11
57.5101598919048
 21
49.06244069334424
 31
0.0
 11
57.97446498787861
 21
48.77211645154456
 31
0.0
  0
SPLINE
  5
FB
330
76
100
AcDbEntity
  8
0
  6
Continuous
 62
     7
100
AcDbSpline
210
0.0
220
0.0
230
1.0
 70
  1064
 71
     3
 72
    17
 73
    13
 74
    11
 42
0.000000001
 43
0.0000000001
 44
0.00000001
 40
0.0
 40
0.0
 40
0.0
 40
0.0
 40
0.4780707350647115
 40
1.037603865028246
 40
1.72069697288596
 40
2.533707579399864
 40
3.461347543607344
 40
4.475537646169684
 40
5.540591231789916
 40
6.616870407693555
 40
7.663905859258903
 40
8.643423874101982
 40
8.643423874101982
 40
8.643423874101982
 40
8.643423874101982
 10
60.74796596900688
 20
58.37980567984917
 30
0.0
 10
60.58704483415488
 20
58.39936938949892
 30
0.0
 10
60.23778189348867
 20
58.44183042445167
 30
0.0
 10
59.69764031206334
 20
58.18751298012823
 30
0.0
 10
59.16506061882232
 20
57.7569932897216
 30
0.0
 10
58.6420118531865
 20
57.13400148815853
 30
0.0
 10
58.15172375558524
 20
56.35575371211043
 30
0.0
 10
57.71465624768133
 20
55.45159301194963
 30
0.0
 10
57.35014656434527
 20
54.46314274282865
 30
0.0
 10
57.07819094878793
 20
53.4347055377049
 30
0.0
 10
56.89856202995291
 20
52.41325261608254
 30
0.0
 10
56.87338472258689
 20
51.73754068408516
 30
0.0
 10
56.86121547856768
 20
51.41094085761424
 30
0.0
 11
60.74796596900688
 21
58.37980567984917
 31
0.0
 11
60.27020192326408
 21
58.396927416398
 31
0.0
 11
59.75024016190679
 21
58.19024629184479
 31
0.0
 11
59.21221864969183
 21
57.76935551656095
 31
0.0
 11
58.68111399068508
 21
57.15379553855674
 31
0.0
 11
58.18158178440156
 21
56.37214121760634
 31
0.0
 11
57.73681150271441
 21
55.46068032414937
 31
0.0
 11
57.36745116888102
 21
54.46172482767334
 31
0.0
 11
57.09064700001198
 21
53.42164967804688
 31
0.0
 11
56.91924977000497
 21
52.38873814896668
 31
0.0
 11
56.86121547856768
 21
51.41094085761424
 31
0.0
  0
SPLINE
  5
FC
330
76
100
AcDbEntity
  8
0
  6
Continuous
 62
     7
100
AcDbSpline
210
0.0
220
0.0
230
1.0
 70
  1064
 71
     3
 72
    21
 73
    17
 74
    15
 42
0.000000001
 43
0.0000000001
 44
0.00000001
 40
0.0
 40
0.0
 40
0.0
 40
0.0
 40
0.497814752854452
 40
1.086167241986669
 40
1.80960422587803
 40
2.672348135565728
 40
3.654842336428985
 40
4.723718295849269
 40
5.837646363611677
 40
6.951574431374103
 40
8.020450390794373
 40
9.002944591657652
 40
9.865688501345351
 40
10.58912548523671
 40
11.17747797436893
 40
11.67529272722338
 40
11.67529272722338
 40
11.67529272722338
 40
11.67529272722338
 10
57.97446498787861
 20
48.77211645154456
 30
0.0
 10
58.14234318710912
 20
48.75297452801675
 30
0.0
 10
58.50863164794774
 20
48.71120934905262
 30
0.0
 10
59.07134265169123
 20
48.9925805530857
 30
0.0
 10
59.62385872426803
 20
49.46032779537229
 30
0.0
 10
60.16351668209296
 20
50.13281131848884
 30
0.0
 10
60.66406375955694
 20
50.96709161058469
 30
0.0
 10
61.10301604215793
 20
51.9289499870582
 30
0.0
 10
61.45840183154746
 20
52.97055551294345
 30
0.0
 10
61.71280268430378
 20
54.04131287900331
 30
0.0
 10
61.85399308448431
 20
55.0891277069619
 30
0.0
 10
61.87507351237315
 20
56.06181809865768
 30
0.0
 10
61.77683235707271
 20
56.91844723411373
 30
0.0
 10
61.5585993691205
 20
57.60869056518758
 30
0.0
 10
61.23241289554461
 20
58.14666436812705
 30
0.0
 10
60.90021822500334
 20
58.30653390112634
 30
0.0
 10
60.74796596900688
 20
58.37980567984917
 30
0.0
 11
57.97446498787861
 21
48.77211645154456
 31
0.0
 11
58.47210533342661
 21
48.75893987597566
 31
0.0
 11
59.01432919099867
 21
48.98730786418876
 31
0.0
 11
59.57394744698824
 21
49.44577103020472
 31
0.0
 11
60.12289847762815
 21
50.11133831953003
 31
0.0
 11
60.63365538519305
 21
50.95063697441966
 31
0.0
 11
61.08060710484002
 21
51.92157980055917
 31
0.0
 11
61.44134099441462
 21
52.97548055239907
 31
0.0
 11
61.69776913348944
 21
54.05949178080354
 31
0.0
 11
61.83703223413267
 21
55.11925666044731
 31
0.0
 11
61.85214805480682
 21
56.10163457280598
 31
0.0
 11
61.74235760148645
 21
56.95736414867687
 31
0.0
 11
61.51316723009205
 21
57.64353675137264
 31
0.0
 11
61.17606856857972
 21
58.12574328613489
 31
0.0
 11
60.74796596900688
 21
58.37980567984917
 31
0.0
  0
SPLINE
  5
FD
330
76
100
AcDbEntity
  8
0
  6
Continuous
 62
     7
100
AcDbSpline
210
0.0
220
0.0
230
1.0
 70
  1064
 71
     3
 72
    19
 73
    15
 74
    13
 42
0.000000001
 43
0.0000000001
 44
0.00000001
 40
0.0
 40
0.0
 40
0.0
 40
0.0
 40
0.2225611229058423
 40
0.4971528408223652
 40
0.8438580853671668
 40
1.258513177648495
 40
1.7240695733075
 40
2.216624054942613
 40
2.709178536577722
 40
3.174734932236734
 40
3.58939002451806
 40
3.936095269062881
 40
4.210686986979381
 40
4.433248109885232
 40
4.433248109885232
 40
4.433248109885232
 40
4.433248109885232
 10
45.75485041566207
 20
67.20342288144835
 30
0.0
 10
45.67924669188513
 20
67.20947780007606
 30
0.0
 10
45.51036452184247
 20
67.22300314282151
 30
0.0
 10
45.25989108058055
 20
67.06548894064132
 30
0.0
 10
45.01839200919608
 20
66.82089446512086
 30
0.0
 10
44.78943601037446
 20
66.47812757745672
 30
0.0
 10
44.58867738987674
 20
66.06619710582987
 30
0.0
 10
44.42868959502359
 20
65.6086698353479
 30
0.0
 10
44.32022988964587
 20
65.13626768670116
 30
0.0
 10
44.27056887436108
 20
64.6807190935525
 30
0.0
 10
44.28162713041414
 20
64.26866605855763
 30
0.0
 10
44.35561863424634
 20
63.93299729877307
 30
0.0
 10
44.48361228420949
 20
63.66622905809366
 30
0.0
 10
44.63372076065322
 20
63.58766973303015
 30
0.0
 10
44.70092004283334
 20
63.55250097469259
 30
0.0
 11
45.75485041566207
 21
67.20342288144835
 31
0.0
 11
45.53231149167393
 21
67.20027932958314
 31
0.0
 11
45.28902657778221
 21
67.07294879689843
 31
0.0
 11
45.0415749505383
 21
66.8301068372106
 31
0.0
 11
44.80681996493838
 21
66.48830434966473
 31
0.0
 11
44.6007600981245
 21
66.07083328914098
 31
0.0
 11
44.43743744962702
 21
65.60614454724282
 31
0.0
 11
44.3279829181484
 21
65.12590541941387
 31
0.0
 11
44.279854778524
 21
64.66284339628686
 31
0.0
 11
44.29633383569827
 21
64.2485158876283
 31
0.0
 11
44.37629610109252
 21
63.91115767841484
 31
0.0
 11
44.51429319685781
 21
63.67376051027374
 31
0.0
 11
44.70092004283334
 21
63.55250097469259
 31
0.0
  0
SPLINE
  5
FE
330
76
100
AcDbEntity
  8
0
  6
Continuous
 62
     7
100
AcDbSpline
210
0.0
220
0.0
230
1.0
 70
  1064
 71
     3
 72
    11
 73
     7
 74
     5
 42
0.000000001
 43
0.0000000001
 44
0.00000001
 40
0.0
 40
0.0
 40
0.0
 40
0.0
 40
0.3766024589415577
 40
0.6915266369969187
 40
0.9435619909941874
 40
1.151652787050254
 40
1.151652787050254
 40
1.151652787050254
 40
1.151652787050254
 10
46.17788522924771
 20
66.20068606166568
 30
0.0
 10
46.1734125816146
 20
66.32674453645619
 30
0.0
 10
46.16519978917272
 20
66.55821618680079
 30
0.0
 10
46.08446543687263
 20
66.86183481644794
 30
0.0
 10
45.95785524832345
 20
67.10096657204213
 30
0.0
 10
45.81806856543855
 20
67.17151675802006
 30
0.0
 10
45.75485041566207
 20
67.20342288144835
 30
0.0
 11
46.17788522924771
 21
66.20068606166568
 31
0.0
 11
46.14935435698303
 21
66.57620622810957
 31
0.0
 11
46.06547609807745
 21
66.87975470438137
 31
0.0
 11
45.93128794845879
 21
67.09309800619194
 31
0.0
 11
45.75485041566207
 21
67.20342288144835
 31
0.0
  0
SPLINE
  5
FF
330
76
100
AcDbEntity
  8
0
  6
Continuous
 62
     7
100
AcDbSpline
210
0.0
220
0.0
230
1.0
 70
  1064
 71
     3
 72
    15
 73
    11
 74
     9
 42
0.000000001
 43
0.0000000001
 44
0.00000001
 40
0.0
 40
0.0
 40
0.0
 40
0.0
 40
0.2298529119743082
 40
0.516060799832947
 40
0.8791221737909996
 40
1.31310587236261
 40
1.798319181630526
 40
2.307922958140898
 40
2.812142237556474
 40
3.281830617084544
 40
3.281830617084544
 40
3.281830617084544
 40
3.281830617084544
 10
44.70092004283334
 20
63.55250097469259
 30
0.0
 10
44.77910752566633
 20
63.54682151730677
 30
0.0
 10
44.95465237319445
 20
63.53407013177039
 30
0.0
 10
45.21274435904306
 20
63.70358601813795
 30
0.0
 10
45.46064780731298
 20
63.96347724579775
 30
0.0
 10
45.69377239215881
 20
64.3258059816305
 30
0.0
 10
45.89560468391159
 20
64.75806999175853
 30
0.0
 10
46.05072514290462
 20
65.23400894299766
 30
0.0
 10
46.15543313771167
 20
65.71931012580046
 30
0.0
 10
46.17058021790861
 20
66.04406559626744
 30
0.0
 10
46.17788522924771
 20
66.20068606166568
 30
0.0
 11
44.70092004283334
 21
63.55250097469259
 31
0.0
 11
44.9307134134743
 21
63.55773282894673
 31
0.0
 11
45.18201534370971
 21
63.69470835462598
 31
0.0
 11
45.43663727913395
 21
63.95351567762555
 31
0.0
 11
45.67615025850274
 21
64.31542089026533
 31
0.0
 11
45.88321837332374
 21
64.75423149993183
 31
0.0
 11
46.04285509917909
 21
65.23818617230017
 31
0.0
 11
46.14350532081304
 21
65.7322576397943
 31
0.0
 11
46.17788522924771
 21
66.20068606166568
 31
0.0
  0
SPLINE
  5
100
330
76
100
AcDbEntity
  8
0
  6
Continuous
 62
     7
100
AcDbSpline
210
0.0
220
0.0
230
1.0
 70
  1064
 71
     3
 72
    13
 73
     9
 74
     7
 42
0.000000001
 43
0.0000000001
 44
0.00000001
 40
0.0
 40
0.0
 40
0.0
 40
0.0
 40
0.2139874779891313
 40
0.4751337361676635
 40
0.8028943691586201
 40
1.194942496085162
 40
1.637084715653255
 40
2.108651799284242
 40
2.108651799284242
 40
2.108651799284242
 40
2.108651799284242
 10
51.50485041566208
 20
72.18306895320812
 30
0.0
 10
51.43228249422422
 20
72.18951582431085
 30
0.0
 10
51.27115406022728
 20
72.20383031910995
 30
0.0
 10
51.02984838992038
 20
72.06000682222412
 30
0.0
 10
50.79598098984581
 20
71.83314803505229
 30
0.0
 10
50.57302882676237
 20
71.51302772321613
 30
0.0
 10
50.37141521942173
 20
71.12606323198631
 30
0.0
 10
50.27075890708998
 20
70.83819824064985
 30
0.0
 10
50.21880999551607
 20
70.68963057909625
 30
0.0
 11
51.50485041566208
 21
72.18306895320812
 31
0.0
 11
51.29086452708734
 21
72.18224242880022
 31
0.0
 11
51.05706463714854
 21
72.06590248445026
 31
0.0
 11
50.81825201506791
 21
71.84141292269581
 31
0.0
 11
50.5895454055745
 21
71.52298707515953
 31
0.0
 11
50.38542402054402
 21
71.13078278821321
 31
0.0
 11
50.21880999551607
 21
70.68963057909625
 31
0.0
  0
SPLINE
  5
101
330
76
100
AcDbEntity
  8
0
  6
Continuous
 62
     7
100
AcDbSpline
210
0.0
220
0.0
230
1.0
 70
  1064
 71
     3
 72
     9
 73
     5
 74
     3
 42
0.000000001
 43
0.0000000001
 44
0.00000001
 40
0.0
 40
0.0
 40
0.0
 40
0.0
 40
0.541526702653269
 40
1.045780652216683
 40
1.045780652216683
 40
1.045780652216683
 40
1.045780652216683
 10
51.77376209484597
 20
70.14839220074178
 30
0.0
 10
51.81828010818931
 20
70.323880661726
 30
0.0
 10
51.90425198394583
 20
70.66277888814773
 30
0.0
 10
51.92019691875939
 20
71.01196281519165
 30
0.0
 10
51.92788522924771
 20
71.18033213342547
 30
0.0
 11
51.77376209484597
 21
70.14839220074178
 31
0.0
 11
51.8885392326896
 21
70.67761557423161
 31
0.0
 11
51.92788522924771
 21
71.18033213342547
 31
0.0
  0
SPLINE
  5
102
330
76
100
AcDbEntity
  8
0
  6
Continuous
 62
     7
100
AcDbSpline
210
0.0
220
0.0
230
1.0
 70
  1064
 71
     3
 72
    11
 73
     7
 74
     5
 42
0.000000001
 43
0.0000000001
 44
0.00000001
 40
0.0
 40
0.0
 40
0.0
 40
0.0
 40
0.3766024589415572
 40
0.6915266369969182
 40
0.9435619909941906
 40
1.151652787050244
 40
1.151652787050244
 40
1.151652787050244
 40
1.151652787050244
 10
51.92788522924771
 20
71.18033213342547
 30
0.0
 10
51.92341258161461
 20
71.306390608216
 30
0.0
 10
51.91519978917272
 20
71.53786225856057
 30
0.0
 10
51.83446543687263
 20
71.8414808882077
 30
0.0
 10
51.70785524832345
 20
72.08061264380191
 30
0.0
 10
51.56806856543857
 20
72.15116282977984
 30
0.0
 10
51.50485041566208
 20
72.18306895320812
 30
0.0
 11
51.92788522924771
 21
71.18033213342547
 31
0.0
 11
51.89935435698303
 21
71.55585229986936
 31
0.0
 11
51.81547609807746
 21
71.85940077614116
 31
0.0
 11
51.68128794845879
 21
72.07274407795173
 31
0.0
 11
51.50485041566208
 21
72.18306895320812
 31
0.0
  0
ENDBLK
  5
78
330
76
100
AcDbEntity
  8
0
100
AcDbBlockEnd
  0
BLOCK
  5
7B
330
79
100
AcDbEntity
  8
0
100
AcDbBlockBegin
  2
AllgSicht1
 70
     0
 10
52.0000000000101
 20
56.99999999994407
 30
0.0
  3
AllgSicht1
  1

  0
INSERT
  5
7A
330
79
100
AcDbEntity
  8
0
100
AcDbBlockReference
  2
CES_SRG_BK_10-select__1
 10
39.76378361410519
 20
40.47732683345785
 30
0.0
  0
MTEXT
  5
104
330
79
100
AcDbEntity
  8
1
 62
     6
100
AcDbMText
 10
52.00000000001012
 20
32.66274551268089
 30
0.0
 40
5.0
 41
0.0
 71
     2
 72
     1
  1
 
  7
CONVERTER_11
 73
     1
 44
1.32052821128451
  0
ENDBLK
  5
7C
330
79
100
AcDbEntity
  8
0
100
AcDbBlockEnd
  0
BLOCK
  5
7E
330
7D
100
AcDbEntity
  8
0
100
AcDbBlockBegin
  2
CES_SRG_BK_10-select__2
 70
     0
 10
-112.2499999999664
 20
80.74999861560178
 30
0.0
  3
CES_SRG_BK_10-select__2
  1

  0
LINE
  5
105
330
7D
100
AcDbEntity
  8
0
  6
Continuous
 62
     7
100
AcDbLine
 10
-104.1499999999629
 20
88.13968169356896
 30
0.0
 11
-104.1499999999629
 21
93.86031553763497
 31
0.0
  0
LINE
  5
106
330
7D
100
AcDbEntity
  8
0
  6
Continuous
 62
     7
100
AcDbLine
 10
-108.2499999999629
 20
94.00349069255114
 30
0.0
 11
-104.1499999999629
 21
93.86031553763497
 31
0.0
  0
LINE
  5
107
330
7D
100
AcDbEntity
  8
0
  6
Continuous
 62
     7
100
AcDbLine
 10
-98.39999999996643
 20
81.24999861560178
 30
0.0
 11
-99.54999999996389
 21
81.24999861560181
 31
0.0
  0
LINE
  5
108
330
7D
100
AcDbEntity
  8
0
  6
Continuous
 62
     7
100
AcDbLine
 10
-103.7499999999639
 20
81.24999861560181
 30
0.0
 11
-108.2499999999625
 21
81.24999861560181
 31
0.0
  0
LINE
  5
109
330
7D
100
AcDbEntity
  8
0
  6
Continuous
 62
     7
100
AcDbLine
 10
-108.2499999999625
 20
81.24999861560181
 30
0.0
 11
-112.2499999999664
 21
81.24999861560178
 31
0.0
  0
LINE
  5
10A
330
7D
100
AcDbEntity
  8
0
  6
Continuous
 62
     7
100
AcDbLine
 10
-99.54999999996389
 20
81.24999861560181
 30
0.0
 11
-103.7499999999639
 21
81.24999861560181
 31
0.0
  0
LINE
  5
10B
330
7D
100
AcDbEntity
  8
0
  6
Continuous
 62
     7
100
AcDbLine
 10
-95.24999999996652
 20
81.24999861560178
 30
0.0
 11
-95.24999999996407
 21
100.7499986156018
 31
0.0
  0
LINE
  5
10C
330
7D
100
AcDbEntity
  8
0
  6
Continuous
 62
     7
100
AcDbLine
 10
-108.2499999999625
 20
100.7499986156018
 30
0.0
 11
-106.699999999964
 21
100.7499986156018
 31
0.0
  0
LINE
  5
10D
330
7D
100
AcDbEntity
  8
0
  6
Continuous
 62
     7
100
AcDbLine
 10
-106.199999999964
 20
101.2499986156018
 30
0.0
 11
-106.699999999964
 21
100.7499986156018
 31
0.0
  0
LINE
  5
10E
330
7D
100
AcDbEntity
  8
0
  6
Continuous
 62
     7
100
AcDbLine
 10
-105.699999999964
 20
100.7499986156018
 30
0.0
 11
-103.7499999999639
 21
100.7499986156018
 31
0.0
  0
LINE
  5
10F
330
7D
100
AcDbEntity
  8
0
  6
Continuous
 62
     7
100
AcDbLine
 10
-103.7499999999639
 20
100.7499986156018
 30
0.0
 11
-99.54999999996389
 21
100.7499986156018
 31
0.0
  0
LINE
  5
110
330
7D
100
AcDbEntity
  8
0
  6
Continuous
 62
     7
100
AcDbLine
 10
-108.2499999999625
 20
100.7499986156018
 30
0.0
 11
-112.2499999999626
 21
100.7499986156018
 31
0.0
  0
LINE
  5
111
330
7D
100
AcDbEntity
  8
0
  6
Continuous
 62
     7
100
AcDbLine
 10
-99.54999999996389
 20
100.7499986156018
 30
0.0
 11
-95.24999999996407
 21
100.7499986156018
 31
0.0
  0
LINE
  5
112
330
7D
100
AcDbEntity
  8
0
  6
Continuous
 62
     7
100
AcDbLine
 10
-105.699999999964
 20
100.7499986156018
 30
0.0
 11
-106.199999999964
 21
101.2499986156018
 31
0.0
  0
LINE
  5
113
330
7D
100
AcDbEntity
  8
0
  6
Continuous
 62
     7
100
AcDbLine
 10
-112.2499999999664
 20
81.24999861560178
 30
0.0
 11
-112.2499999999626
 21
100.7499986156018
 31
0.0
  0
LINE
  5
114
330
7D
100
AcDbEntity
  8
0
  6
Continuous
 62
     7
100
AcDbLine
 10
-98.39999999996643
 20
81.24999861560178
 30
0.0
 11
-97.89999999996638
 21
80.74999861560178
 31
0.0
  0
LINE
  5
115
330
7D
100
AcDbEntity
  8
0
  6
Continuous
 62
     7
100
AcDbLine
 10
-108.2499999999629
 20
87.99650653865281
 30
0.0
 11
-108.2499999999629
 21
94.00349069255114
 31
0.0
  0
LINE
  5
116
330
7D
100
AcDbEntity
  8
0
  6
Continuous
 62
     7
100
AcDbLine
 10
-108.2499999999625
 20
81.24999861560181
 30
0.0
 11
-108.2499999999629
 21
87.99650653865281
 31
0.0
  0
LINE
  5
117
330
7D
100
AcDbEntity
  8
0
  6
Continuous
 62
     7
100
AcDbLine
 10
-108.2499999999629
 20
94.00349069255114
 30
0.0
 11
-108.2499999999625
 21
100.7499986156018
 31
0.0
  0
LINE
  5
118
330
7D
100
AcDbEntity
  8
0
  6
Continuous
 62
     7
100
AcDbLine
 10
-95.24999999996652
 20
81.24999861560178
 30
0.0
 11
-97.39999999996638
 21
81.24999861560178
 31
0.0
  0
LINE
  5
119
330
7D
100
AcDbEntity
  8
0
  6
Continuous
 62
     7
100
AcDbLine
 10
-97.89999999996638
 20
80.74999861560178
 30
0.0
 11
-97.39999999996638
 21
81.24999861560178
 31
0.0
  0
LINE
  5
11A
330
7D
100
AcDbEntity
  8
0
  6
Continuous
 62
     7
100
AcDbLine
 10
-108.2499999999629
 20
87.99650653865281
 30
0.0
 11
-104.1499999999629
 21
88.13968169356896
 31
0.0
  0
ENDBLK
  5
7F
330
7D
100
AcDbEntity
  8
0
100
AcDbBlockEnd
  0
BLOCK
  5
82
330
80
100
AcDbEntity
  8
0
100
AcDbBlockBegin
  2
Drfsicht1
 70
     0
 10
-103.7499999999965
 20
90.99999952312405
 30
0.0
  3
Drfsicht1
  1

  0
INSERT
  5
81
330
80
100
AcDbEntity
  8
0
100
AcDbBlockReference
  2
CES_SRG_BK_10-select__2
 10
-112.2499999999664
 20
80.74999861560178
 30
0.0
  0
MTEXT
  5
11B
330
80
100
AcDbEntity
  8
1
 62
     6
100
AcDbMText
 10
-103.7499999999966
 20
75.74999952312396
 30
0.0
 40
5.0
 41
0.0
 71
     2
 72
     1
  1
 
  7
CONVERTER_11
 73
     1
 44
1.32052821128451
  0
ENDBLK
  5
83
330
80
100
AcDbEntity
  8
0
100
AcDbBlockEnd
  0
BLOCK
  5
85
330
84
100
AcDbEntity
  8
0
100
AcDbBlockBegin
  2
CES_SRG_BK_10-select__3
 70
     0
 10
-7.75000000003607
 20
131.2499994969805
 30
0.0
  3
CES_SRG_BK_10-select__3
  1

  0
LINE
  5
11C
330
84
100
AcDbEntity
  8
0
  6
Continuous
 62
     7
100
AcDbLine
 10
3.19999999996384
 20
154.7499994969807
 30
0.0
 11
3.69999999996381
 21
154.7499994969808
 31
0.0
  0
LINE
  5
11D
330
84
100
AcDbEntity
  8
0
  6
Continuous
 62
     7
100
AcDbLine
 10
2.6999999999687
 20
134.2499994969805
 30
0.0
 11
2.69999999996383
 21
154.7499994969806
 31
0.0
  0
LINE
  5
11E
330
84
100
AcDbEntity
  8
0
  6
Continuous
 62
     7
100
AcDbLine
 10
2.69999999996383
 20
154.7499994969806
 30
0.0
 11
3.19999999996384
 21
154.7499994969807
 31
0.0
  0
LINE
  5
11F
330
84
100
AcDbEntity
  8
0
  6
Continuous
 62
     7
100
AcDbLine
 10
3.69999999996381
 20
154.7499994969808
 30
0.0
 11
3.69999999996866
 21
134.2499994969807
 31
0.0
  0
LINE
  5
120
330
84
100
AcDbEntity
  8
0
  6
Continuous
 62
     7
100
AcDbLine
 10
3.19999999996868
 20
134.2499994969806
 30
0.0
 11
3.19999999996384
 21
154.7499994969807
 31
0.0
  0
LINE
  5
121
330
84
100
AcDbEntity
  8
0
  6
Continuous
 62
     7
100
AcDbLine
 10
-7.75000000003119
 20
134.249999496978
 30
0.0
 11
-7.75000000003607
 21
154.7499994969781
 31
0.0
  0
LINE
  5
122
330
84
100
AcDbEntity
  8
0
  6
Continuous
 62
     7
100
AcDbLine
 10
-3.45000000003626
 20
154.7499994969791
 30
0.0
 11
-7.75000000003607
 21
154.7499994969781
 31
0.0
  0
LINE
  5
123
330
84
100
AcDbEntity
  8
0
  6
Continuous
 62
     7
100
AcDbLine
 10
0.74999999996859
 20
134.24999949698
 30
0.0
 11
-3.45000000003141
 21
134.2499994969791
 31
0.0
  0
LINE
  5
124
330
84
100
AcDbEntity
  8
0
  6
Continuous
 62
     7
100
AcDbLine
 10
4.24999999996943
 20
131.2499994969809
 30
0.0
 11
5.94615242267607
 21
131.2499994969813
 31
0.0
  0
LINE
  5
125
330
84
100
AcDbEntity
  8
0
  6
Continuous
 62
     7
100
AcDbLine
 10
2.6999999999687
 20
134.2499994969805
 30
0.0
 11
3.19999999996868
 21
134.2499994969806
 31
0.0
  0
LINE
  5
126
330
84
100
AcDbEntity
  8
0
  6
Continuous
 62
     7
100
AcDbLine
 10
3.19999999996868
 20
134.2499994969806
 30
0.0
 11
3.69999999996866
 21
134.2499994969807
 31
0.0
  0
LINE
  5
127
330
84
100
AcDbEntity
  8
0
  6
Continuous
 62
     7
100
AcDbLine
 10
6.74999999996871
 20
134.2499994969815
 30
0.0
 11
3.69999999996866
 21
134.2499994969807
 31
0.0
  0
LINE
  5
128
330
84
100
AcDbEntity
  8
0
  6
Continuous
 62
     7
100
AcDbLine
 10
2.55384757726279
 20
131.2499994969805
 30
0.0
 11
4.24999999996943
 21
131.2499994969809
 31
0.0
  0
LINE
  5
129
330
84
100
AcDbEntity
  8
0
  6
Continuous
 62
     7
100
AcDbLine
 10
-3.45000000003141
 20
134.2499994969791
 30
0.0
 11
-7.75000000003119
 21
134.249999496978
 31
0.0
  0
LINE
  5
12A
330
84
100
AcDbEntity
  8
0
  6
Continuous
 62
     7
100
AcDbLine
 10
1.14999999996277
 20
159.1103164190132
 30
0.0
 11
1.1499999999633
 21
156.8896825749471
 31
0.0
  0
LINE
  5
12B
330
84
100
AcDbEntity
  8
0
  6
Continuous
 62
     7
100
AcDbLine
 10
1.1499999999633
 20
156.8896825749471
 30
0.0
 11
1.14999999996381
 21
154.7499994969802
 31
0.0
  0
LINE
  5
12C
330
84
100
AcDbEntity
  8
0
  6
Continuous
 62
     7
100
AcDbLine
 10
1.74999999996872
 20
134.2499994969803
 30
0.0
 11
0.74999999996859
 21
134.24999949698
 31
0.0
  0
LINE
  5
12D
330
84
100
AcDbEntity
  8
0
  6
Continuous
 62
     7
100
AcDbLine
 10
5.24999999996381
 20
154.7499994969812
 30
0.0
 11
3.69999999996381
 21
154.7499994969808
 31
0.0
  0
LINE
  5
12E
330
84
100
AcDbEntity
  8
0
  6
Continuous
 62
     7
100
AcDbLine
 10
5.24999999996333
 20
156.746507420032
 30
0.0
 11
1.1499999999633
 21
156.8896825749471
 31
0.0
  0
LINE
  5
12F
330
84
100
AcDbEntity
  8
0
  6
Continuous
 62
     7
100
AcDbLine
 10
5.24999999996274
 20
159.2534915739303
 30
0.0
 11
1.14999999996277
 21
159.1103164190132
 31
0.0
  0
LINE
  5
130
330
84
100
AcDbEntity
  8
0
  6
Continuous
 62
     7
100
AcDbLine
 10
5.24999999996274
 20
159.2534915739303
 30
0.0
 11
5.24999999996333
 21
156.746507420032
 31
0.0
  0
LINE
  5
131
330
84
100
AcDbEntity
  8
0
  6
Continuous
 62
     7
100
AcDbLine
 10
5.24999999996238
 20
160.7499994969811
 30
0.0
 11
5.24999999996274
 21
159.2534915739303
 31
0.0
  0
LINE
  5
132
330
84
100
AcDbEntity
  8
0
  6
Continuous
 62
     7
100
AcDbLine
 10
5.24999999996333
 20
156.746507420032
 30
0.0
 11
5.24999999996381
 21
154.7499994969812
 31
0.0
  0
LINE
  5
133
330
84
100
AcDbEntity
  8
0
  6
Continuous
 62
     7
100
AcDbLine
 10
9.24999999996871
 20
134.249999496982
 30
0.0
 11
6.74999999996871
 21
134.2499994969815
 31
0.0
  0
LINE
  5
134
330
84
100
AcDbEntity
  8
0
  6
Continuous
 62
     7
100
AcDbLine
 10
5.24999999996238
 20
160.7499994969811
 30
0.0
 11
9.24999999996241
 21
160.7499994969821
 31
0.0
  0
LINE
  5
135
330
84
100
AcDbEntity
  8
0
  6
Continuous
 62
     7
100
AcDbLine
 10
9.24999999996241
 20
160.7499994969821
 30
0.0
 11
9.24999999996871
 21
134.249999496982
 31
0.0
  0
LINE
  5
136
330
84
100
AcDbEntity
  8
0
  6
Continuous
 62
     7
100
AcDbLine
 10
2.6999999999687
 20
134.2499994969805
 30
0.0
 11
1.74999999996872
 21
134.2499994969803
 31
0.0
  0
LINE
  5
137
330
84
100
AcDbEntity
  8
0
  6
Continuous
 62
     7
100
AcDbLine
 10
2.55384757726279
 20
131.2499994969805
 30
0.0
 11
1.74999999996872
 21
134.2499994969803
 31
0.0
  0
LINE
  5
138
330
84
100
AcDbEntity
  8
0
  6
Continuous
 62
     7
100
AcDbLine
 10
1.14999999996381
 20
154.7499994969802
 30
0.0
 11
0.74999999996373
 21
154.7499994969801
 31
0.0
  0
LINE
  5
139
330
84
100
AcDbEntity
  8
0
  6
Continuous
 62
     7
100
AcDbLine
 10
2.69999999996383
 20
154.7499994969806
 30
0.0
 11
1.14999999996381
 21
154.7499994969802
 31
0.0
  0
LINE
  5
13A
330
84
100
AcDbEntity
  8
0
  6
Continuous
 62
     7
100
AcDbLine
 10
0.74999999996373
 20
154.7499994969801
 30
0.0
 11
-3.45000000003626
 21
154.7499994969791
 31
0.0
  0
LINE
  5
13B
330
84
100
AcDbEntity
  8
0
  6
Continuous
 62
     7
100
AcDbLine
 10
5.94615242267607
 20
131.2499994969813
 30
0.0
 11
6.74999999996871
 21
134.2499994969815
 31
0.0
  0
LINE
  5
13C
330
84
100
AcDbEntity
  8
1
  6
DOT_CENTER
 62
     2
100
AcDbLine
 10
4.24999999996943
 20
131.2499994969809
 30
0.0
 11
4.24999999996871
 21
134.2499994969809
 31
0.0
  0
ENDBLK
  5
86
330
84
100
AcDbEntity
  8
0
100
AcDbBlockEnd
  0
BLOCK
  5
89
330
87
100
AcDbEntity
  8
0
100
AcDbBlockBegin
  2
Rckans1
 70
     0
 10
0.74999999999636
 20
145.9999999999591
 30
0.0
  3
Rckans1
  1

  0
INSERT
  5
88
330
87
100
AcDbEntity
  8
0
100
AcDbBlockReference
  2
CES_SRG_BK_10-select__3
 10
-7.75000000003607
 20
131.2499994969805
 30
0.0
  0
MTEXT
  5
13D
330
87
100
AcDbEntity
  8
1
 62
     6
100
AcDbMText
 10
0.74999999999647
 20
126.2500004767942
 30
0.0
 40
5.0
 41
0.0
 71
     2
 72
     1
  1
 
  7
CONVERTER_11
 73
     1
 44
1.32052821128451
  0
ENDBLK
  5
8A
330
87
100
AcDbEntity
  8
0
100
AcDbBlockEnd
  0
BLOCK
  5
8C
330
8B
100
AcDbEntity
  8
0
100
AcDbBlockBegin
  2
CES_SRG_BK_10-select__4
 70
     0
 10
-53.44034988657601
 20
131.2499994969399
 30
0.0
  3
CES_SRG_BK_10-select__4
  1

  0
LINE
  5
13E
330
8B
100
AcDbEntity
  8
0
  6
Continuous
 62
     7
100
AcDbLine
 10
-39.13650230928267
 20
131.2499994969399
 30
0.0
 11
-35.74419746386941
 21
131.2499994969399
 31
0.0
  0
LINE
  5
13F
330
8B
100
AcDbEntity
  8
0
  6
Continuous
 62
     7
100
AcDbLine
 10
-33.44034988657602
 20
134.2499994969411
 30
0.0
 11
-32.94034988657602
 21
134.2499994969377
 31
0.0
  0
LINE
  5
140
330
8B
100
AcDbEntity
  8
0
  6
Continuous
 62
     7
100
AcDbLine
 10
-53.440349886576
 20
134.2499994969396
 30
0.0
 11
-52.94034988657602
 21
134.249999496941
 31
0.0
  0
LINE
  5
141
330
8B
100
AcDbEntity
  8
0
  6
Continuous
 62
     7
100
AcDbLine
 10
-39.94034988657604
 20
134.2499994969399
 30
0.0
 11
-52.94034988657602
 21
134.249999496941
 31
0.0
  0
LINE
  5
142
330
8B
100
AcDbEntity
  8
0
  6
Continuous
 62
     7
100
AcDbLine
 10
-33.44034988657602
 20
134.2499994969411
 30
0.0
 11
-34.94034988657604
 21
134.2499994969399
 31
0.0
  0
LINE
  5
143
330
8B
100
AcDbEntity
  8
0
  6
Continuous
 62
     7
100
AcDbLine
 10
-34.94034988657604
 20
134.2499994969399
 30
0.0
 11
-39.94034988657604
 21
134.2499994969399
 31
0.0
  0
LINE
  5
144
330
8B
100
AcDbEntity
  8
0
  6
Continuous
 62
     7
100
AcDbLine
 10
-39.13650230928267
 20
131.2499994969399
 30
0.0
 11
-39.94034988657604
 21
134.2499994969399
 31
0.0
  0
LINE
  5
145
330
8B
100
AcDbEntity
  8
0
  6
Continuous
 62
     7
100
AcDbLine
 10
-38.69034988685381
 20
144.5000494969393
 30
0.0
 11
-38.19034988682603
 21
144.5000494969411
 31
0.0
  0
LINE
  5
146
330
8B
100
AcDbEntity
  8
0
  6
Continuous
 62
     7
100
AcDbLine
 10
-38.19034988682603
 20
144.4999494969411
 30
0.0
 11
-33.44034988657604
 21
144.4999494969411
 31
0.0
  0
LINE
  5
147
330
8B
100
AcDbEntity
  8
0
  6
Continuous
 62
     7
100
AcDbLine
 10
-38.69034988685381
 20
144.4999494969393
 30
0.0
 11
-38.19034988682603
 21
144.4999494969411
 31
0.0
  0
LINE
  5
148
330
8B
100
AcDbEntity
  8
0
  6
Continuous
 62
     7
100
AcDbLine
 10
-38.19034988682603
 20
144.5000494969411
 30
0.0
 11
-33.44034988657604
 21
144.5000494969411
 31
0.0
  0
LINE
  5
149
330
8B
100
AcDbEntity
  8
0
  6
Continuous
 62
     7
100
AcDbLine
 10
-33.44034988657606
 20
160.7499994969411
 30
0.0
 11
-52.94034988657606
 21
160.7499994969411
 31
0.0
  0
LINE
  5
14A
330
8B
100
AcDbEntity
  8
0
  6
Continuous
 62
     7
100
AcDbLine
 10
-33.44034988657605
 20
154.7499994969379
 30
0.0
 11
-33.44034988657606
 21
160.7499994969411
 31
0.0
  0
LINE
  5
14B
330
8B
100
AcDbEntity
  8
0
  6
Continuous
 62
     7
100
AcDbLine
 10
-33.44034988657604
 20
144.5000494969411
 30
0.0
 11
-33.44034988657605
 21
154.7499994969379
 31
0.0
  0
LINE
  5
14C
330
8B
100
AcDbEntity
  8
0
  6
Continuous
 62
     7
100
AcDbLine
 10
-52.94034988657606
 20
160.7499994969411
 30
0.0
 11
-52.94034988657604
 21
154.7499994969398
 31
0.0
  0
LINE
  5
14D
330
8B
100
AcDbEntity
  8
0
  6
Continuous
 62
     7
100
AcDbLine
 10
-52.94034988657604
 20
154.7499994969398
 30
0.0
 11
-52.94034988657602
 21
134.249999496941
 31
0.0
  0
LINE
  5
14E
330
8B
100
AcDbEntity
  8
0
  6
Continuous
 62
     7
100
AcDbLine
 10
-32.94034988657603
 20
144.5000494969377
 30
0.0
 11
-33.44034988657604
 21
144.5000494969411
 31
0.0
  0
LINE
  5
14F
330
8B
100
AcDbEntity
  8
0
  6
Continuous
 62
     7
100
AcDbLine
 10
-32.94034988657606
 20
154.7499994969377
 30
0.0
 11
-32.94034988657603
 21
144.5000494969377
 31
0.0
  0
LINE
  5
150
330
8B
100
AcDbEntity
  8
0
  6
Continuous
 62
     7
100
AcDbLine
 10
-33.44034988657605
 20
154.7499994969379
 30
0.0
 11
-32.94034988657606
 21
154.7499994969377
 31
0.0
  0
LINE
  5
151
330
8B
100
AcDbEntity
  8
0
  6
Continuous
 62
     7
100
AcDbLine
 10
-33.44034988657602
 20
134.2499994969411
 30
0.0
 11
-33.44034988657604
 21
144.4999494969411
 31
0.0
  0
LINE
  5
152
330
8B
100
AcDbEntity
  8
0
  6
Continuous
 62
     7
100
AcDbLine
 10
-32.94034988657603
 20
144.4999494969377
 30
0.0
 11
-32.94034988657602
 21
134.2499994969377
 31
0.0
  0
LINE
  5
153
330
8B
100
AcDbEntity
  8
0
  6
Continuous
 62
     7
100
AcDbLine
 10
-33.44034988657604
 20
144.4999494969411
 30
0.0
 11
-32.94034988657603
 21
144.4999494969377
 31
0.0
  0
LINE
  5
154
330
8B
100
AcDbEntity
  8
0
  6
Continuous
 62
     7
100
AcDbLine
 10
-35.74419746386941
 20
131.2499994969399
 30
0.0
 11
-34.94034988657604
 21
134.2499994969399
 31
0.0
  0
LINE
  5
155
330
8B
100
AcDbEntity
  8
0
  6
Continuous
 62
     7
100
AcDbLine
 10
-53.44034988657601
 20
154.7499994969397
 30
0.0
 11
-52.94034988657604
 21
154.7499994969398
 31
0.0
  0
LINE
  5
156
330
8B
100
AcDbEntity
  8
0
  6
Continuous
 62
     7
100
AcDbLine
 10
-53.440349886576
 20
134.2499994969396
 30
0.0
 11
-53.44034988657601
 21
154.7499994969397
 31
0.0
  0
LINE
  5
157
330
8B
100
AcDbEntity
  8
1
  6
DOT_CENTER
 62
     2
100
AcDbLine
 10
-46.85034988657605
 20
157.2499994969407
 30
0.0
 11
-51.03034988657604
 21
157.2499994969407
 31
0.0
  0
LINE
  5
158
330
8B
100
AcDbEntity
  8
1
  6
DOT_CENTER
 62
     2
100
AcDbLine
 10
-48.94034988657604
 20
159.3399994969407
 30
0.0
 11
-48.94034988657604
 21
155.1599994969407
 31
0.0
  0
LINE
  5
159
330
8B
100
AcDbEntity
  8
1
  6
DOT_CENTER
 62
     2
100
AcDbLine
 10
-37.69034988657603
 20
144.4999994969411
 30
0.0
 11
-48.69034988657603
 21
144.4999994969411
 31
0.0
  0
LINE
  5
15A
330
8B
100
AcDbEntity
  8
1
  6
DOT_CENTER
 62
     2
100
AcDbLine
 10
-43.19034988657603
 20
149.9999994969411
 30
0.0
 11
-43.19034988657603
 21
138.9999994969411
 31
0.0
  0
LINE
  5
15B
330
8B
100
AcDbEntity
  8
1
  6
DOT_CENTER
 62
     2
100
AcDbLine
 10
-35.35034988657605
 20
157.2499994969415
 30
0.0
 11
-39.53034988657604
 21
157.2499994969415
 31
0.0
  0
LINE
  5
15C
330
8B
100
AcDbEntity
  8
1
  6
DOT_CENTER
 62
     2
100
AcDbLine
 10
-37.44034988657604
 20
159.3399994969415
 30
0.0
 11
-37.44034988657604
 21
155.1599994969415
 31
0.0
  0
LINE
  5
15D
330
8B
100
AcDbEntity
  8
1
  6
DOT_CENTER
 62
     2
100
AcDbLine
 10
-37.44034988657604
 20
131.2499994969399
 30
0.0
 11
-37.44034988657604
 21
134.2499994969399
 31
0.0
  0
ARC
  5
15E
330
8B
100
AcDbEntity
  8
0
  6
Continuous
 62
     7
100
AcDbCircle
 10
-43.19034988657603
 20
144.4999994969393
 30
0.0
 40
4.499999999999998
100
AcDbArc
 50
0.00063661977258
 51
359.9993633802278
  0
ARC
  5
15F
330
8B
100
AcDbEntity
  8
0
  6
Continuous
 62
     7
100
AcDbCircle
 10
-43.19034988657603
 20
144.4999994969411
 30
0.0
 40
5.000000000000003
100
AcDbArc
 50
0.00057295779532
 51
359.999427042205
  0
CIRCLE
  5
160
330
8B
100
AcDbEntity
  8
0
  6
Continuous
 62
     7
100
AcDbCircle
 10
-48.94034988657604
 20
157.2499994969407
 30
0.0
 40
1.900000000000006
  0
CIRCLE
  5
161
330
8B
100
AcDbEntity
  8
0
  6
Continuous
 62
     7
100
AcDbCircle
 10
-37.44034988657604
 20
157.2499994969415
 30
0.0
 40
1.900000000000006
  0
ENDBLK
  5
8D
330
8B
100
AcDbEntity
  8
0
100
AcDbBlockEnd
  0
BLOCK
  5
90
330
8E
100
AcDbEntity
  8
0
100
AcDbBlockBegin
  2
SA_Links1
 70
     0
 10
-43.19035079409829
 20
145.9999999999181
 30
0.0
  3
SA_Links1
  1

  0
INSERT
  5
8F
330
8E
100
AcDbEntity
  8
0
100
AcDbBlockReference
  2
CES_SRG_BK_10-select__4
 10
-53.44034988657601
 20
131.2499994969399
 30
0.0
  0
MTEXT
  5
162
330
8E
100
AcDbEntity
  8
1
 62
     6
100
AcDbMText
 10
-43.19035079409829
 20
126.2500004767533
 30
0.0
 40
5.0
 41
0.0
 71
     2
 72
     1
  1
 
  7
CONVERTER_11
 73
     1
 44
1.32052821128451
  0
DIMENSION
  5
16D
330
8E
100
AcDbEntity
  8
1
100
AcDbDimension
  2
*D17
 10
-53.440349886576
 20
120.029772285886
 30
0.0
 11
-43.1903507940983
 21
123.954772285886
 31
0.0
 70
    32
  1
<>
 71
     5
 42
-1.0
 53
0.00013888888889
  3
ME10_DIM_10
100
AcDbAlignedDimension
 13
-32.94034988657602
 23
134.2499994969377
 33
0.0
 14
-53.440349886576
 24
134.2499994969396
 34
0.0
100
AcDbRotatedDimension
  0
ENDBLK
  5
91
330
8E
100
AcDbEntity
  8
0
100
AcDbBlockEnd
  0
BLOCK
  5
93
330
92
100
AcDbEntity
  8
0
100
AcDbBlockBegin
  2
CES_SRG_BK_10-select__5
 70
     0
 10
-165.7500009075153
 20
131.2499994969809
 30
0.0
  3
CES_SRG_BK_10-select__5
  1

  0
LINE
  5
16E
330
92
100
AcDbEntity
  8
0
  6
Continuous
 62
     7
100
AcDbLine
 10
-165.2500009075152
 20
154.7499994969781
 30
0.0
 11
-165.2500009075153
 21
144.500049496978
 31
0.0
  0
LINE
  5
16F
330
92
100
AcDbEntity
  8
0
  6
Continuous
 62
     7
100
AcDbLine
 10
-165.7500009075152
 20
154.7499994969788
 30
0.0
 11
-165.7500009075153
 21
144.5000494969787
 31
0.0
  0
LINE
  5
170
330
92
100
AcDbEntity
  8
0
  6
Continuous
 62
     7
100
AcDbLine
 10
-165.2500009075153
 20
144.500049496978
 30
0.0
 11
-165.7500009075153
 21
144.5000494969787
 31
0.0
  0
LINE
  5
171
330
92
100
AcDbEntity
  8
0
  6
Continuous
 62
     7
100
AcDbLine
 10
-160.5000009072653
 20
144.4999494969781
 30
0.0
 11
-160.0000009072375
 21
144.4999494969803
 31
0.0
  0
LINE
  5
172
330
92
100
AcDbEntity
  8
0
  6
Continuous
 62
     7
100
AcDbLine
 10
-165.2500009075153
 20
144.500049496978
 30
0.0
 11
-160.5000009072653
 21
144.5000494969781
 31
0.0
  0
LINE
  5
173
330
92
100
AcDbEntity
  8
0
  6
Continuous
 62
     7
100
AcDbLine
 10
-160.5000009072653
 20
144.5000494969781
 30
0.0
 11
-160.0000009072375
 21
144.5000494969803
 31
0.0
  0
LINE
  5
174
330
92
100
AcDbEntity
  8
0
  6
Continuous
 62
     7
100
AcDbLine
 10
-165.2500009075153
 20
144.4999494969781
 30
0.0
 11
-160.5000009072653
 21
144.4999494969781
 31
0.0
  0
LINE
  5
175
330
92
100
AcDbEntity
  8
0
  6
Continuous
 62
     7
100
AcDbLine
 10
-162.9461533302219
 20
131.2499994969809
 30
0.0
 11
-159.5538484848086
 21
131.2499994969809
 31
0.0
  0
LINE
  5
176
330
92
100
AcDbEntity
  8
0
  6
Continuous
 62
     7
100
AcDbLine
 10
-165.7500009075153
 20
134.2499994969787
 30
0.0
 11
-165.2500009075153
 21
134.249999496978
 31
0.0
  0
LINE
  5
177
330
92
100
AcDbEntity
  8
0
  6
Continuous
 62
     7
100
AcDbLine
 10
-163.7500009075153
 20
134.2499994969809
 30
0.0
 11
-165.2500009075153
 21
134.249999496978
 31
0.0
  0
LINE
  5
178
330
92
100
AcDbEntity
  8
0
  6
Continuous
 62
     7
100
AcDbLine
 10
-158.7500009075153
 20
134.2499994969809
 30
0.0
 11
-163.7500009075153
 21
134.2499994969809
 31
0.0
  0
LINE
  5
179
330
92
100
AcDbEntity
  8
0
  6
Continuous
 62
     7
100
AcDbLine
 10
-145.7500009075153
 20
134.249999496978
 30
0.0
 11
-158.7500009075153
 21
134.2499994969809
 31
0.0
  0
LINE
  5
17A
330
92
100
AcDbEntity
  8
0
  6
Continuous
 62
     7
100
AcDbLine
 10
-159.5538484848086
 20
131.2499994969809
 30
0.0
 11
-158.7500009075153
 21
134.2499994969809
 31
0.0
  0
LINE
  5
17B
330
92
100
AcDbEntity
  8
0
  6
Continuous
 62
     7
100
AcDbLine
 10
-157.0034929844644
 20
156.746507420032
 30
0.0
 11
-157.0034929844646
 21
154.7499994969812
 31
0.0
  0
LINE
  5
17C
330
92
100
AcDbEntity
  8
0
  6
Continuous
 62
     7
100
AcDbLine
 10
-158.5034929844644
 20
156.746507420032
 30
0.0
 11
-157.0034929844644
 21
156.746507420032
 31
0.0
  0
LINE
  5
17D
330
92
100
AcDbEntity
  8
0
  6
Continuous
 62
     7
100
AcDbLine
 10
-158.5034929844643
 20
159.2534915739303
 30
0.0
 11
-158.5034929844644
 21
156.746507420032
 31
0.0
  0
LINE
  5
17E
330
92
100
AcDbEntity
  8
0
  6
Continuous
 62
     7
100
AcDbLine
 10
-156.8603178295484
 20
154.7499994969802
 30
0.0
 11
-156.8603178295483
 21
156.8896825749471
 31
0.0
  0
LINE
  5
17F
330
92
100
AcDbEntity
  8
0
  6
Continuous
 62
     7
100
AcDbLine
 10
-154.1396839854822
 20
156.8896825749471
 30
0.0
 11
-154.1396839854824
 21
154.7499994969802
 31
0.0
  0
LINE
  5
180
330
92
100
AcDbEntity
  8
0
  6
Continuous
 62
     7
100
AcDbLine
 10
-153.9965088305662
 20
154.7499994969812
 30
0.0
 11
-153.9965088305661
 21
156.746507420032
 31
0.0
  0
LINE
  5
181
330
92
100
AcDbEntity
  8
0
  6
Continuous
 62
     7
100
AcDbLine
 10
-154.1396839854824
 20
154.7499994969802
 30
0.0
 11
-153.9965088305662
 21
154.7499994969812
 31
0.0
  0
LINE
  5
182
330
92
100
AcDbEntity
  8
0
  6
Continuous
 62
     7
100
AcDbLine
 10
-157.0034929844646
 20
154.7499994969812
 30
0.0
 11
-156.8603178295484
 21
154.7499994969802
 31
0.0
  0
LINE
  5
183
330
92
100
AcDbEntity
  8
0
  6
Continuous
 62
     7
100
AcDbLine
 10
-165.2500009075152
 20
154.7499994969781
 30
0.0
 11
-157.0034929844646
 21
154.7499994969812
 31
0.0
  0
LINE
  5
184
330
92
100
AcDbEntity
  8
0
  6
Continuous
 62
     7
100
AcDbLine
 10
-153.9965088305662
 20
154.7499994969812
 30
0.0
 11
-145.7500009075152
 21
154.7499994969781
 31
0.0
  0
LINE
  5
185
330
92
100
AcDbEntity
  8
0
  6
Continuous
 62
     7
100
AcDbLine
 10
-156.8603178295484
 20
154.7499994969802
 30
0.0
 11
-154.1396839854824
 21
154.7499994969802
 31
0.0
  0
LINE
  5
186
330
92
100
AcDbEntity
  8
0
  6
Continuous
 62
     7
100
AcDbLine
 10
-158.5034929844643
 20
159.2534915739303
 30
0.0
 11
-158.3603178295481
 21
159.1103164190132
 31
0.0
  0
LINE
  5
187
330
92
100
AcDbEntity
  8
0
  6
Continuous
 62
     7
100
AcDbLine
 10
-158.5034929844644
 20
156.746507420032
 30
0.0
 11
-158.3603178295483
 21
156.8896825749471
 31
0.0
  0
LINE
  5
188
330
92
100
AcDbEntity
  8
0
  6
Continuous
 62
     7
100
AcDbLine
 10
-165.2500009075152
 20
160.7499994969812
 30
0.0
 11
-145.7500009075152
 21
160.7499994969811
 31
0.0
  0
LINE
  5
189
330
92
100
AcDbEntity
  8
0
  6
Continuous
 62
     7
100
AcDbLine
 10
-152.6396839854823
 20
156.8896825749471
 30
0.0
 11
-154.1396839854822
 21
156.8896825749471
 31
0.0
  0
LINE
  5
18A
330
92
100
AcDbEntity
  8
0
  6
Continuous
 62
     7
100
AcDbLine
 10
-154.1396839854822
 20
156.8896825749471
 30
0.0
 11
-153.9965088305661
 21
156.746507420032
 31
0.0
  0
LINE
  5
18B
330
92
100
AcDbEntity
  8
0
  6
Continuous
 62
     7
100
AcDbLine
 10
-156.8603178295483
 20
156.8896825749471
 30
0.0
 11
-158.3603178295483
 21
156.8896825749471
 31
0.0
  0
LINE
  5
18C
330
92
100
AcDbEntity
  8
0
  6
Continuous
 62
     7
100
AcDbLine
 10
-158.3603178295483
 20
156.8896825749471
 30
0.0
 11
-158.3603178295481
 21
159.1103164190132
 31
0.0
  0
LINE
  5
18D
330
92
100
AcDbEntity
  8
0
  6
Continuous
 62
     7
100
AcDbLine
 10
-158.3603178295481
 20
159.1103164190132
 30
0.0
 11
-152.6396839854821
 21
159.1103164190132
 31
0.0
  0
LINE
  5
18E
330
92
100
AcDbEntity
  8
0
  6
Continuous
 62
     7
100
AcDbLine
 10
-152.4965088305661
 20
156.746507420032
 30
0.0
 11
-152.6396839854823
 21
156.8896825749471
 31
0.0
  0
LINE
  5
18F
330
92
100
AcDbEntity
  8
0
  6
Continuous
 62
     7
100
AcDbLine
 10
-152.4965088305659
 20
159.2534915739303
 30
0.0
 11
-158.5034929844643
 21
159.2534915739303
 31
0.0
  0
LINE
  5
190
330
92
100
AcDbEntity
  8
0
  6
Continuous
 62
     7
100
AcDbLine
 10
-152.6396839854821
 20
159.1103164190132
 30
0.0
 11
-152.6396839854823
 21
156.8896825749471
 31
0.0
  0
LINE
  5
191
330
92
100
AcDbEntity
  8
0
  6
Continuous
 62
     7
100
AcDbLine
 10
-153.9965088305661
 20
156.746507420032
 30
0.0
 11
-152.4965088305661
 21
156.746507420032
 31
0.0
  0
LINE
  5
192
330
92
100
AcDbEntity
  8
0
  6
Continuous
 62
     7
100
AcDbLine
 10
-152.4965088305661
 20
156.746507420032
 30
0.0
 11
-152.4965088305659
 21
159.2534915739303
 31
0.0
  0
LINE
  5
193
330
92
100
AcDbEntity
  8
0
  6
Continuous
 62
     7
100
AcDbLine
 10
-156.8603178295483
 20
156.8896825749471
 30
0.0
 11
-157.0034929844644
 21
156.746507420032
 31
0.0
  0
LINE
  5
194
330
92
100
AcDbEntity
  8
0
  6
Continuous
 62
     7
100
AcDbLine
 10
-152.4965088305659
 20
159.2534915739303
 30
0.0
 11
-152.6396839854821
 21
159.1103164190132
 31
0.0
  0
LINE
  5
195
330
92
100
AcDbEntity
  8
0
  6
Continuous
 62
     7
100
AcDbLine
 10
-165.2500009075152
 20
154.7499994969781
 30
0.0
 11
-165.2500009075152
 21
160.7499994969812
 31
0.0
  0
LINE
  5
196
330
92
100
AcDbEntity
  8
0
  6
Continuous
 62
     7
100
AcDbLine
 10
-165.7500009075152
 20
154.7499994969788
 30
0.0
 11
-165.2500009075152
 21
154.7499994969781
 31
0.0
  0
LINE
  5
197
330
92
100
AcDbEntity
  8
0
  6
Continuous
 62
     7
100
AcDbLine
 10
-145.7500009075153
 20
134.249999496978
 30
0.0
 11
-145.7500009075152
 21
154.7499994969781
 31
0.0
  0
LINE
  5
198
330
92
100
AcDbEntity
  8
0
  6
Continuous
 62
     7
100
AcDbLine
 10
-145.7500009075152
 20
160.7499994969811
 30
0.0
 11
-145.7500009075152
 21
154.7499994969781
 31
0.0
  0
LINE
  5
199
330
92
100
AcDbEntity
  8
0
  6
Continuous
 62
     7
100
AcDbLine
 10
-165.7500009075153
 20
144.4999494969787
 30
0.0
 11
-165.2500009075153
 21
144.4999494969781
 31
0.0
  0
LINE
  5
19A
330
92
100
AcDbEntity
  8
0
  6
Continuous
 62
     7
100
AcDbLine
 10
-165.2500009075153
 20
144.4999494969781
 30
0.0
 11
-165.2500009075153
 21
134.249999496978
 31
0.0
  0
LINE
  5
19B
330
92
100
AcDbEntity
  8
0
  6
Continuous
 62
     7
100
AcDbLine
 10
-165.7500009075153
 20
144.4999494969787
 30
0.0
 11
-165.7500009075153
 21
134.2499994969787
 31
0.0
  0
LINE
  5
19C
330
92
100
AcDbEntity
  8
0
  6
Continuous
 62
     7
100
AcDbLine
 10
-162.9461533302219
 20
131.2499994969809
 30
0.0
 11
-163.7500009075153
 21
134.2499994969809
 31
0.0
  0
LINE
  5
19D
330
92
100
AcDbEntity
  8
0
  6
Continuous
 62
     7
100
AcDbLine
 10
-145.7500009075153
 20
134.249999496978
 30
0.0
 11
-145.2500009075153
 21
134.2499994969806
 31
0.0
  0
LINE
  5
19E
330
92
100
AcDbEntity
  8
0
  6
Continuous
 62
     7
100
AcDbLine
 10
-145.2500009075153
 20
134.2499994969806
 30
0.0
 11
-145.2500009075153
 21
154.7499994969807
 31
0.0
  0
LINE
  5
19F
330
92
100
AcDbEntity
  8
0
  6
Continuous
 62
     7
100
AcDbLine
 10
-145.7500009075152
 20
154.7499994969781
 30
0.0
 11
-145.2500009075153
 21
154.7499994969807
 31
0.0
  0
LINE
  5
1A0
330
92
100
AcDbEntity
  8
1
  6
DOT_CENTER
 62
     2
100
AcDbLine
 10
-147.6600009075153
 20
157.2499994969807
 30
0.0
 11
-151.8400009075153
 21
157.2499994969807
 31
0.0
  0
LINE
  5
1A1
330
92
100
AcDbEntity
  8
1
  6
DOT_CENTER
 62
     2
100
AcDbLine
 10
-149.7500009075153
 20
159.3399994969807
 30
0.0
 11
-149.7500009075153
 21
155.1599994969807
 31
0.0
  0
LINE
  5
1A2
330
92
100
AcDbEntity
  8
1
  6
DOT_CENTER
 62
     2
100
AcDbLine
 10
-159.1600009075153
 20
157.2499994969816
 30
0.0
 11
-163.3400009075153
 21
157.2499994969816
 31
0.0
  0
LINE
  5
1A3
330
92
100
AcDbEntity
  8
1
  6
DOT_CENTER
 62
     2
100
AcDbLine
 10
-161.2500009075153
 20
159.3399994969816
 30
0.0
 11
-161.2500009075153
 21
155.1599994969816
 31
0.0
  0
LINE
  5
1A4
330
92
100
AcDbEntity
  8
1
  6
DOT_CENTER
 62
     2
100
AcDbLine
 10
-150.0000009075153
 20
144.4999994969781
 30
0.0
 11
-161.0000009075153
 21
144.4999994969781
 31
0.0
  0
LINE
  5
1A5
330
92
100
AcDbEntity
  8
1
  6
DOT_CENTER
 62
     2
100
AcDbLine
 10
-155.5000009075153
 20
149.9999994969781
 30
0.0
 11
-155.5000009075153
 21
138.9999994969781
 31
0.0
  0
LINE
  5
1A6
330
92
100
AcDbEntity
  8
1
  6
DOT_CENTER
 62
     2
100
AcDbLine
 10
-161.2500009075153
 20
131.2499994969809
 30
0.0
 11
-161.2500009075152
 21
134.2499994969809
 31
0.0
  0
ARC
  5
1A7
330
92
100
AcDbEntity
  8
0
  6
Continuous
 62
     7
100
AcDbCircle
 10
-155.5000009075153
 20
144.4999994969803
 30
0.0
 40
4.499999999999984
100
AcDbArc
 50
180.0006366197726
 51
179.9993633802278
  0
ARC
  5
1A8
330
92
100
AcDbEntity
  8
0
  6
Continuous
 62
     7
100
AcDbCircle
 10
-155.5000009075153
 20
144.4999994969781
 30
0.0
 40
5.000000000000003
100
AcDbArc
 50
180.000572957795
 51
179.9994270422047
  0
CIRCLE
  5
1A9
330
92
100
AcDbEntity
  8
0
  6
Continuous
 62
     7
100
AcDbCircle
 10
-161.2500009075153
 20
157.2499994969816
 30
0.0
 40
1.900000000000006
  0
CIRCLE
  5
1AA
330
92
100
AcDbEntity
  8
0
  6
Continuous
 62
     7
100
AcDbCircle
 10
-149.7500009075153
 20
157.2499994969807
 30
0.0
 40
1.900000000000006
  0
ENDBLK
  5
94
330
92
100
AcDbEntity
  8
0
100
AcDbBlockEnd
  0
BLOCK
  5
97
330
95
100
AcDbEntity
  8
0
100
AcDbBlockBegin
  2
SA_Rechts1
 70
     0
 10
-155.499999999993
 20
145.9999999999591
 30
0.0
  3
SA_Rechts1
  1

  0
INSERT
  5
96
330
95
100
AcDbEntity
  8
0
100
AcDbBlockReference
  2
CES_SRG_BK_10-select__5
 10
-165.7500009075153
 20
131.2499994969809
 30
0.0
  0
MTEXT
  5
1AB
330
95
100
AcDbEntity
  8
1
 62
     6
100
AcDbMText
 10
-155.499999999993
 20
126.2500004767942
 30
0.0
 40
5.0
 41
0.0
 71
     2
 72
     1
  1
 
  7
CONVERTER_11
 73
     1
 44
1.32052821128451
  0
ENDBLK
  5
98
330
95
100
AcDbEntity
  8
0
100
AcDbBlockEnd
  0
BLOCK
  5
9A
330
99
100
AcDbEntity
  8
0
100
AcDbBlockBegin
  2
CES_SRG_BK_10-select__6
 70
     0
 10
-112.2499999999689
 20
131.2499994969805
 30
0.0
  3
CES_SRG_BK_10-select__6
  1

  0
LINE
  5
1AC
330
99
100
AcDbEntity
  8
0
  6
Continuous
 62
     7
100
AcDbLine
 10
-95.24999999996652
 20
144.4999494969781
 30
0.0
 11
-95.24999999996652
 21
144.500049496978
 31
0.0
  0
LINE
  5
1AD
330
99
100
AcDbEntity
  8
0
  6
Continuous
 62
     7
100
AcDbLine
 10
-95.24999999996407
 20
154.7499994969781
 30
0.0
 11
-95.24999999996652
 21
144.500049496978
 31
0.0
  0
LINE
  5
1AE
330
99
100
AcDbEntity
  8
0
  6
Continuous
 62
     7
100
AcDbLine
 10
-95.24999999996652
 20
144.4999494969781
 30
0.0
 11
-95.24999999996896
 21
134.249999496978
 31
0.0
  0
LINE
  5
1AF
330
99
100
AcDbEntity
  8
0
  6
Continuous
 62
     7
100
AcDbLine
 10
-112.2499999999664
 20
144.4999494969821
 30
0.0
 11
-112.2499999999664
 21
144.5000494969821
 31
0.0
  0
LINE
  5
1B0
330
99
100
AcDbEntity
  8
0
  6
Continuous
 62
     7
100
AcDbLine
 10
-112.2499999999664
 20
144.5000494969821
 30
0.0
 11
-112.2499999999626
 21
160.7499994969821
 31
0.0
  0
LINE
  5
1B1
330
99
100
AcDbEntity
  8
0
  6
Continuous
 62
     7
100
AcDbLine
 10
-112.2499999999689
 20
134.2499994969821
 30
0.0
 11
-112.2499999999664
 21
144.4999494969821
 31
0.0
  0
LINE
  5
1B2
330
99
100
AcDbEntity
  8
0
  6
Continuous
 62
     7
100
AcDbLine
 10
-112.2499999999626
 20
160.7499994969821
 30
0.0
 11
-108.2499999999625
 21
160.7499994969812
 31
0.0
  0
LINE
  5
1B3
330
99
100
AcDbEntity
  8
0
  6
Continuous
 62
     7
100
AcDbLine
 10
-108.2499999999629
 20
159.2534915739303
 30
0.0
 11
-108.2499999999625
 21
160.7499994969812
 31
0.0
  0
LINE
  5
1B4
330
99
100
AcDbEntity
  8
0
  6
Continuous
 62
     7
100
AcDbLine
 10
-108.249999999964
 20
154.7499994969812
 30
0.0
 11
-108.2499999999635
 21
156.746507420032
 31
0.0
  0
LINE
  5
1B5
330
99
100
AcDbEntity
  8
0
  6
Continuous
 62
     7
100
AcDbLine
 10
-108.2499999999635
 20
156.746507420032
 30
0.0
 11
-108.2499999999629
 21
159.2534915739303
 31
0.0
  0
LINE
  5
1B6
330
99
100
AcDbEntity
  8
0
  6
Continuous
 62
     7
100
AcDbLine
 10
-104.1499999999635
 20
156.8896825749471
 30
0.0
 11
-104.1499999999629
 21
159.1103164190132
 31
0.0
  0
LINE
  5
1B7
330
99
100
AcDbEntity
  8
0
  6
Continuous
 62
     7
100
AcDbLine
 10
-104.149999999964
 20
154.7499994969802
 30
0.0
 11
-104.1499999999635
 21
156.8896825749471
 31
0.0
  0
LINE
  5
1B8
330
99
100
AcDbEntity
  8
0
  6
Continuous
 62
     7
100
AcDbLine
 10
-108.2499999999629
 20
159.2534915739303
 30
0.0
 11
-104.1499999999629
 21
159.1103164190132
 31
0.0
  0
LINE
  5
1B9
330
99
100
AcDbEntity
  8
0
  6
Continuous
 62
     7
100
AcDbLine
 10
-105.553847577263
 20
131.2499994969805
 30
0.0
 11
-104.7499999999689
 21
134.2499994969803
 31
0.0
  0
LINE
  5
1BA
330
99
100
AcDbEntity
  8
0
  6
Continuous
 62
     7
100
AcDbLine
 10
-97.39999999996638
 20
144.5000494969785
 30
0.0
 11
-97.89999999996638
 21
144.5000494969787
 31
0.0
  0
LINE
  5
1BB
330
99
100
AcDbEntity
  8
0
  6
Continuous
 62
     7
100
AcDbLine
 10
-97.89999999996638
 20
144.4999494969787
 30
0.0
 11
-97.39999999996638
 21
144.4999494969786
 31
0.0
  0
LINE
  5
1BC
330
99
100
AcDbEntity
  8
0
  6
Continuous
 62
     7
100
AcDbLine
 10
-97.89999999996395
 20
154.7499994969788
 30
0.0
 11
-97.89999999996638
 21
144.5000494969787
 31
0.0
  0
LINE
  5
1BD
330
99
100
AcDbEntity
  8
0
  6
Continuous
 62
     7
100
AcDbLine
 10
-97.39999999996395
 20
154.7499994969786
 30
0.0
 11
-97.39999999996638
 21
144.5000494969785
 31
0.0
  0
LINE
  5
1BE
330
99
100
AcDbEntity
  8
0
  6
Continuous
 62
     7
100
AcDbLine
 10
-97.39999999996638
 20
144.4999494969786
 30
0.0
 11
-97.39999999996881
 21
134.2499994969786
 31
0.0
  0
LINE
  5
1BF
330
99
100
AcDbEntity
  8
0
  6
Continuous
 62
     7
100
AcDbLine
 10
-97.89999999996881
 20
134.2499994969787
 30
0.0
 11
-97.39999999996881
 21
134.2499994969786
 31
0.0
  0
LINE
  5
1C0
330
99
100
AcDbEntity
  8
0
  6
Continuous
 62
     7
100
AcDbLine
 10
-98.39999999996641
 20
144.4999494969788
 30
0.0
 11
-97.89999999996638
 21
144.4999494969787
 31
0.0
  0
LINE
  5
1C1
330
99
100
AcDbEntity
  8
0
  6
Continuous
 62
     7
100
AcDbLine
 10
-98.39999999996886
 20
134.2499994969788
 30
0.0
 11
-97.89999999996881
 21
134.2499994969787
 31
0.0
  0
LINE
  5
1C2
330
99
100
AcDbEntity
  8
0
  6
Continuous
 62
     7
100
AcDbLine
 10
-98.39999999996641
 20
144.5000494969788
 30
0.0
 11
-98.399999999964
 21
154.7499994969789
 31
0.0
  0
LINE
  5
1C3
330
99
100
AcDbEntity
  8
0
  6
Continuous
 62
     7
100
AcDbLine
 10
-98.39999999996886
 20
134.2499994969788
 30
0.0
 11
-98.39999999996641
 21
144.4999494969788
 31
0.0
  0
LINE
  5
1C4
330
99
100
AcDbEntity
  8
0
  6
Continuous
 62
     7
100
AcDbLine
 10
-97.89999999996638
 20
144.4999494969787
 30
0.0
 11
-97.89999999996881
 21
134.2499994969787
 31
0.0
  0
LINE
  5
1C5
330
99
100
AcDbEntity
  8
0
  6
Continuous
 62
     7
100
AcDbLine
 10
-103.7499999999687
 20
134.2499994969801
 30
0.0
 11
-104.7499999999689
 21
134.2499994969803
 31
0.0
  0
LINE
  5
1C6
330
99
100
AcDbEntity
  8
0
  6
Continuous
 62
     7
100
AcDbLine
 10
-109.7499999999689
 20
134.2499994969815
 30
0.0
 11
-112.2499999999689
 21
134.2499994969821
 31
0.0
  0
LINE
  5
1C7
330
99
100
AcDbEntity
  8
0
  6
Continuous
 62
     7
100
AcDbLine
 10
-104.7499999999689
 20
134.2499994969803
 30
0.0
 11
-109.7499999999689
 21
134.2499994969815
 31
0.0
  0
LINE
  5
1C8
330
99
100
AcDbEntity
  8
0
  6
Continuous
 62
     7
100
AcDbLine
 10
-98.39999999996886
 20
134.2499994969788
 30
0.0
 11
-99.54999999996875
 21
134.2499994969791
 31
0.0
  0
LINE
  5
1C9
330
99
100
AcDbEntity
  8
0
  6
Continuous
 62
     7
100
AcDbLine
 10
-99.54999999996875
 20
134.2499994969791
 30
0.0
 11
-103.7499999999687
 21
134.2499994969801
 31
0.0
  0
LINE
  5
1CA
330
99
100
AcDbEntity
  8
0
  6
Continuous
 62
     7
100
AcDbLine
 10
-97.89999999996638
 20
144.5000494969787
 30
0.0
 11
-98.39999999996641
 21
144.5000494969788
 31
0.0
  0
LINE
  5
1CB
330
99
100
AcDbEntity
  8
0
  6
Continuous
 62
     7
100
AcDbLine
 10
-112.2499999999664
 20
144.5000494969821
 30
0.0
 11
-98.39999999996641
 21
144.5000494969788
 31
0.0
  0
LINE
  5
1CC
330
99
100
AcDbEntity
  8
0
  6
Continuous
 62
     7
100
AcDbLine
 10
-98.39999999996641
 20
144.4999494969788
 30
0.0
 11
-112.2499999999664
 21
144.4999494969821
 31
0.0
  0
LINE
  5
1CD
330
99
100
AcDbEntity
  8
0
  6
Continuous
 62
     7
100
AcDbLine
 10
-103.9999999999664
 20
144.4999494969801
 30
0.0
 11
-103.9999999999664
 21
144.5000494969801
 31
0.0
  0
LINE
  5
1CE
330
99
100
AcDbEntity
  8
0
  6
Continuous
 62
     7
100
AcDbLine
 10
-104.9999999999664
 20
144.4999494969804
 30
0.0
 11
-104.9999999999664
 21
144.5000494969804
 31
0.0
  0
LINE
  5
1CF
330
99
100
AcDbEntity
  8
0
  6
Continuous
 62
     7
100
AcDbLine
 10
-104.4999999999664
 20
144.4999494969802
 30
0.0
 11
-104.4999999999664
 21
144.5000494969802
 31
0.0
  0
LINE
  5
1D0
330
99
100
AcDbEntity
  8
0
  6
Continuous
 62
     7
100
AcDbLine
 10
-108.9461524226762
 20
131.2499994969813
 30
0.0
 11
-105.553847577263
 21
131.2499994969805
 31
0.0
  0
LINE
  5
1D1
330
99
100
AcDbEntity
  8
0
  6
Continuous
 62
     7
100
AcDbLine
 10
-103.7499999999639
 20
154.7499994969801
 30
0.0
 11
-104.149999999964
 21
154.7499994969802
 31
0.0
  0
LINE
  5
1D2
330
99
100
AcDbEntity
  8
0
  6
Continuous
 62
     7
100
AcDbLine
 10
-104.149999999964
 20
154.7499994969802
 30
0.0
 11
-108.249999999964
 21
154.7499994969812
 31
0.0
  0
LINE
  5
1D3
330
99
100
AcDbEntity
  8
0
  6
Continuous
 62
     7
100
AcDbLine
 10
-108.2499999999635
 20
156.746507420032
 30
0.0
 11
-104.1499999999635
 21
156.8896825749471
 31
0.0
  0
LINE
  5
1D4
330
99
100
AcDbEntity
  8
0
  6
Continuous
 62
     7
100
AcDbLine
 10
-98.399999999964
 20
154.7499994969789
 30
0.0
 11
-97.89999999996395
 21
154.7499994969788
 31
0.0
  0
LINE
  5
1D5
330
99
100
AcDbEntity
  8
0
  6
Continuous
 62
     7
100
AcDbLine
 10
-98.399999999964
 20
154.7499994969789
 30
0.0
 11
-99.54999999996389
 21
154.7499994969791
 31
0.0
  0
LINE
  5
1D6
330
99
100
AcDbEntity
  8
0
  6
Continuous
 62
     7
100
AcDbLine
 10
-99.54999999996389
 20
154.7499994969791
 30
0.0
 11
-103.7499999999639
 21
154.7499994969801
 31
0.0
  0
LINE
  5
1D7
330
99
100
AcDbEntity
  8
0
  6
Continuous
 62
     7
100
AcDbLine
 10
-95.24999999996896
 20
134.249999496978
 30
0.0
 11
-97.39999999996881
 21
134.2499994969786
 31
0.0
  0
LINE
  5
1D8
330
99
100
AcDbEntity
  8
0
  6
Continuous
 62
     7
100
AcDbLine
 10
-97.39999999996638
 20
144.5000494969785
 30
0.0
 11
-95.24999999996652
 21
144.500049496978
 31
0.0
  0
LINE
  5
1D9
330
99
100
AcDbEntity
  8
0
  6
Continuous
 62
     7
100
AcDbLine
 10
-95.24999999996652
 20
144.4999494969781
 30
0.0
 11
-97.39999999996638
 21
144.4999494969786
 31
0.0
  0
LINE
  5
1DA
330
99
100
AcDbEntity
  8
0
  6
Continuous
 62
     7
100
AcDbLine
 10
-95.24999999996407
 20
154.7499994969781
 30
0.0
 11
-97.39999999996395
 21
154.7499994969786
 31
0.0
  0
LINE
  5
1DB
330
99
100
AcDbEntity
  8
0
  6
Continuous
 62
     7
100
AcDbLine
 10
-97.89999999996395
 20
154.7499994969788
 30
0.0
 11
-97.39999999996395
 21
154.7499994969786
 31
0.0
  0
LINE
  5
1DC
330
99
100
AcDbEntity
  8
0
  6
Continuous
 62
     7
100
AcDbLine
 10
-108.9461524226762
 20
131.2499994969813
 30
0.0
 11
-109.7499999999689
 21
134.2499994969815
 31
0.0
  0
LINE
  5
1DD
330
99
100
AcDbEntity
  8
1
  6
DOT_CENTER
 62
     2
100
AcDbLine
 10
-107.2499999999696
 20
131.2499994969809
 30
0.0
 11
-107.2499999999689
 21
134.2499994969809
 31
0.0
  0
ENDBLK
  5
9B
330
99
100
AcDbEntity
  8
0
100
AcDbBlockEnd
  0
BLOCK
  5
9E
330
9C
100
AcDbEntity
  8
0
100
AcDbBlockBegin
  2
Vordans1
 70
     0
 10
-103.7499999999965
 20
145.9999999999591
 30
0.0
  3
Vordans1
  1

  0
INSERT
  5
9D
330
9C
100
AcDbEntity
  8
0
100
AcDbBlockReference
  2
CES_SRG_BK_10-select__6
 10
-112.2499999999689
 20
131.2499994969805
 30
0.0
  0
MTEXT
  5
1DE
330
9C
100
AcDbEntity
  8
1
 62
     6
100
AcDbMText
 10
-103.7499999999966
 20
126.2500004767942
 30
0.0
 40
5.0
 41
0.0
 71
     2
 72
     1
  1
 
  7
CONVERTER_11
 73
     1
 44
1.32052821128451
  0
DIMENSION
  5
1E9
330
9C
100
AcDbEntity
  8
1
100
AcDbDimension
  2
*D18
 10
-80.80380103519282
 20
131.2499994969804
 30
0.0
 11
-84.72880103519282
 21
145.593261614758
 31
0.0
 70
    32
  1
<>
 71
     5
 42
-1.0
 53
90.0
  3
ME10_DIM_11
100
AcDbAlignedDimension
 13
-112.2499999999626
 23
160.7499994969821
 33
0.0
 14
-105.553847577263
 24
131.2499994969805
 34
0.0
 50
90.0
100
AcDbRotatedDimension
  0
DIMENSION
  5
1F4
330
9C
100
AcDbEntity
  8
1
100
AcDbDimension
  2
*D19
 10
-95.24999999996902
 20
120.029772285886
 30
0.0
 11
-104.23516440094
 21
123.779772285886
 31
0.0
 70
    32
  1
<>
 71
     5
 42
-1.0
 53
0.00013888888889
  3
ME10_DIM_12
100
AcDbAlignedDimension
 13
-112.2499999999689
 23
134.2499994969821
 33
0.0
 14
-95.24999999996896
 24
134.249999496978
 34
0.0
100
AcDbRotatedDimension
  0
ENDBLK
  5
9F
330
9C
100
AcDbEntity
  8
0
100
AcDbBlockEnd
  0
BLOCK
  5
A1
330
A0
100
AcDbEntity
  8
0
100
AcDbBlockBegin
  2
_rahmen
 70
     0
 10
75.7431072854648
 20
-6.29362749516855
 30
0.0
  3
_rahmen
  1

  0
LINE
  5
1F5
330
A0
100
AcDbEntity
  8
1
  6
DOT_CENTER
 62
     2
100
AcDbLine
 10
-49.81504235472261
 20
19.83137250483148
 30
0.0
 11
-44.31504235472261
 21
19.83137250483148
 31
0.0
  0
LINE
  5
1F6
330
A0
100
AcDbEntity
  8
1
  6
PHANTOM
 62
     2
100
AcDbLine
 10
-41.06504235472261
 20
22.58137250483148
 30
0.0
 11
-41.06504235472261
 21
17.08137250483148
 31
0.0
  0
LINE
  5
1F7
330
A0
100
AcDbEntity
  8
1
  6
PHANTOM
 62
     2
100
AcDbLine
 10
-38.31504235472261
 20
19.83137250483148
 30
0.0
 11
-43.81504235472261
 21
19.83137250483148
 31
0.0
  0
LINE
  5
1F8
330
A0
100
AcDbEntity
  8
1
  6
Continuous
 62
     7
100
AcDbLine
 10
10.4983027587148
 20
7.20637250483148
 30
0.0
 11
10.4983027587148
 21
15.70637250483156
 31
0.0
  0
LINE
  5
1F9
330
A0
100
AcDbEntity
  8
1
  6
Continuous
 62
     6
100
AcDbLine
 10
-17.40169724128529
 20
15.70637250483156
 30
0.0
 11
75.7431072854665
 21
15.70637250483156
 31
0.0
  0
LINE
  5
1FA
330
A0
100
AcDbEntity
  8
1
  6
Continuous
 62
     7
100
AcDbLine
 10
-53.80169724128521
 20
15.70637250483156
 30
0.0
 11
-53.80169724128521
 21
24.20637250483156
 31
0.0
  0
LINE
  5
1FB
330
A0
100
AcDbEntity
  8
1
  6
Continuous
 62
     7
100
AcDbLine
 10
-17.40169724128529
 20
15.70637250483156
 30
0.0
 11
-17.40169724128529
 21
24.20637250483156
 31
0.0
  0
LINE
  5
1FC
330
A0
100
AcDbEntity
  8
1
  6
Continuous
 62
     7
100
AcDbLine
 10
40.32469900378769
 20
24.20637250483156
 30
0.0
 11
40.32469900378769
 21
15.70637250483156
 31
0.0
  0
LINE
  5
1FD
330
A0
100
AcDbEntity
  8
1
  6
Continuous
 62
     7
100
AcDbLine
 10
66.82469900378729
 20
24.20637250483156
 30
0.0
 11
66.82469900378729
 21
15.70637250483156
 31
0.0
  0
LINE
  5
1FE
330
A0
100
AcDbEntity
  8
1
  6
Continuous
 62
     6
100
AcDbLine
 10
-122.8016972412852
 20
-1.29362749516844
 30
0.0
 11
-167.7568927145352
 21
-1.29362749516844
 31
0.0
  0
LINE
  5
1FF
330
A0
100
AcDbEntity
  8
1
  6
Continuous
 62
     7
100
AcDbLine
 10
75.7431072854661
 20
7.20637250483156
 30
0.0
 11
-17.40169724128529
 21
7.20637250483156
 31
0.0
  0
LINE
  5
200
102
{ACAD_REACTORS
330
312
330
313
102
}
330
A0
100
AcDbEntity
  8
0
  6
Continuous
 62
     2
100
AcDbLine
 10
-40.09426829951781
 20
8.00666162049487
 30
0.0
 11
-40.09426829951781
 21
8.87917862729816
 31
0.0
  0
LINE
  5
201
102
{ACAD_REACTORS
330
312
330
313
102
}
330
A0
100
AcDbEntity
  8
0
  6
Continuous
 62
     2
100
AcDbLine
 10
-40.09426829951781
 20
7.04689291301196
 30
0.0
 11
-40.09426829951781
 21
6.17437590620875
 31
0.0
  0
LINE
  5
202
102
{ACAD_REACTORS
330
314
330
315
102
}
330
A0
100
AcDbEntity
  8
0
  6
Continuous
 62
     2
100
AcDbLine
 10
-24.7612241632273
 20
8.26841672253536
 30
0.0
 11
-23.6575848636592
 21
8.26841672253536
 31
0.0
  0
LINE
  5
203
102
{ACAD_REACTORS
330
314
330
315
102
}
330
A0
100
AcDbEntity
  8
0
  6
Continuous
 62
     2
100
AcDbLine
 10
-23.99156682026589
 20
7.04689291301148
 30
0.0
 11
-23.99156682026589
 21
6.17437590620816
 31
0.0
  0
LINE
  5
204
102
{ACAD_REACTORS
330
31E
330
31F
102
}
330
A0
100
AcDbEntity
  8
0
  6
Continuous
 62
     2
100
AcDbLine
 10
-25.85232343564582
 20
9.35906298102216
 30
0.0
 11
-24.45437038870551
 21
10.93992197479716
 31
0.0
  0
LINE
  5
205
102
{ACAD_REACTORS
330
31E
330
31F
102
}
330
A0
100
AcDbEntity
  8
0
  6
Continuous
 62
     2
100
AcDbLine
 10
-25.75690001947299
 20
12.41287250483336
 30
0.0
 11
-24.45437038870551
 21
10.93992197479716
 31
0.0
  0
LINE
  5
206
102
{ACAD_REACTORS
330
31E
330
31F
102
}
330
A0
100
AcDbEntity
  8
0
  6
Continuous
 62
     2
100
AcDbLine
 10
-23.15184075793911
 20
12.41287250483336
 30
0.0
 11
-21.74911654019189
 21
12.41287250483336
 31
0.0
  0
LINE
  5
207
102
{ACAD_REACTORS
330
31E
330
31F
102
}
330
A0
100
AcDbEntity
  8
0
  6
Continuous
 62
     2
100
AcDbLine
 10
-24.4495992178976
 20
9.35906298102216
 30
0.0
 11
-23.7530082798319
 21
10.14679476631588
 31
0.0
  0
LINE
  5
208
102
{ACAD_REACTORS
330
31E
330
31F
102
}
330
A0
100
AcDbEntity
  8
0
  6
Continuous
 62
     2
100
AcDbLine
 10
-24.4495992178976
 20
9.35906298102216
 30
0.0
 11
-25.85232343564582
 21
9.35906298102216
 31
0.0
  0
LINE
  5
209
102
{ACAD_REACTORS
330
320
330
321
102
}
330
A0
100
AcDbEntity
  8
0
  6
Continuous
 62
     2
100
AcDbLine
 10
-25.97160270586269
 20
9.35906298102216
 30
0.0
 11
-27.21210711611559
 21
9.35906298102216
 31
0.0
  0
LINE
  5
20A
102
{ACAD_REACTORS
330
322
330
323
102
}
330
A0
100
AcDbEntity
  8
0
  6
Continuous
 62
     2
100
AcDbLine
 10
-28.0800867242707
 20
7.22139631437236
 30
0.0
 11
-28.3802519614608
 21
7.98921128035906
 31
0.0
  0
LINE
  5
20B
102
{ACAD_REACTORS
330
322
330
323
102
}
330
A0
100
AcDbEntity
  8
0
  6
Continuous
 62
     2
100
AcDbLine
 10
-28.6804171986532
 20
7.22139631437236
 30
0.0
 11
-28.0800867242707
 21
7.22139631437236
 31
0.0
  0
LINE
  5
20C
102
{ACAD_REACTORS
330
322
330
323
102
}
330
A0
100
AcDbEntity
  8
0
  6
Continuous
 62
     2
100
AcDbLine
 10
-30.398457213527
 20
5.99987250484787
 30
0.0
 11
-29.15795280327401
 21
5.99987250484787
 31
0.0
  0
LINE
  5
20D
102
{ACAD_REACTORS
330
322
330
323
102
}
330
A0
100
AcDbEntity
  8
0
  6
Continuous
 62
     2
100
AcDbLine
 10
-29.00050416658769
 20
9.05368202865895
 30
0.0
 11
-27.75999975633499
 21
9.05368202865895
 31
0.0
  0
LINE
  5
20E
102
{ACAD_REACTORS
330
322
330
323
102
}
330
A0
100
AcDbEntity
  8
0
  6
Continuous
 62
     2
100
AcDbLine
 10
-27.75999975633499
 20
9.05368202865895
 30
0.0
 11
-26.36204670939469
 21
5.99987250484787
 31
0.0
  0
LINE
  5
20F
102
{ACAD_REACTORS
330
322
330
323
102
}
330
A0
100
AcDbEntity
  8
0
  6
Continuous
 62
     2
100
AcDbLine
 10
-27.60255111964861
 20
5.99987250484787
 30
0.0
 11
-27.81403117312439
 21
6.54083304906575
 31
0.0
  0
LINE
  5
210
102
{ACAD_REACTORS
330
324
330
325
102
}
330
A0
100
AcDbEntity
  8
0
  6
Continuous
 62
     2
100
AcDbLine
 10
-31.74487031523461
 20
5.99987250484787
 30
0.0
 11
-30.55207761306809
 21
5.99987250484787
 31
0.0
  0
LINE
  5
211
102
{ACAD_REACTORS
330
324
330
325
102
}
330
A0
100
AcDbEntity
  8
0
  6
Continuous
 62
     2
100
AcDbLine
 10
-31.74487031523461
 20
8.26841672253536
 30
0.0
 11
-31.74487031523461
 21
5.99987250484787
 31
0.0
  0
LINE
  5
212
102
{ACAD_REACTORS
330
324
330
325
102
}
330
A0
100
AcDbEntity
  8
0
  6
Continuous
 62
     2
100
AcDbLine
 10
-32.55596935270921
 20
9.05368202865895
 30
0.0
 11
-32.55596935270921
 21
8.26841672253536
 31
0.0
  0
LINE
  5
213
102
{ACAD_REACTORS
330
326
330
327
102
}
330
A0
100
AcDbEntity
  8
0
  6
Continuous
 62
     2
100
AcDbLine
 10
-31.07675547113661
 20
9.35906298102216
 30
0.0
 11
-29.88396276897009
 21
9.35906298102216
 31
0.0
  0
LINE
  5
214
102
{ACAD_REACTORS
330
326
330
327
102
}
330
A0
100
AcDbEntity
  8
0
  6
Continuous
 62
     2
100
AcDbLine
 10
-28.64345835871609
 20
11.10409699462818
 30
0.0
 11
-29.88396276897009
 21
12.41287250483336
 31
0.0
  0
LINE
  5
215
102
{ACAD_REACTORS
330
326
330
327
102
}
330
A0
100
AcDbEntity
  8
0
  6
Continuous
 62
     2
100
AcDbLine
 10
-27.45066565654949
 20
12.41287250483336
 30
0.0
 11
-28.64345835871609
 21
12.41287250483336
 31
0.0
  0
LINE
  5
216
102
{ACAD_REACTORS
330
326
330
327
102
}
330
A0
100
AcDbEntity
  8
0
  6
Continuous
 62
     2
100
AcDbLine
 10
-27.45066565654949
 20
9.35906298102216
 30
0.0
 11
-27.45066565654949
 21
12.41287250483336
 31
0.0
  0
LINE
  5
217
102
{ACAD_REACTORS
330
326
330
327
102
}
330
A0
100
AcDbEntity
  8
0
  6
Continuous
 62
     2
100
AcDbLine
 10
-28.64345835871609
 20
9.35906298102216
 30
0.0
 11
-27.45066565654949
 21
9.35906298102216
 31
0.0
  0
LINE
  5
218
102
{ACAD_REACTORS
330
326
330
327
102
}
330
A0
100
AcDbEntity
  8
0
  6
Continuous
 62
     2
100
AcDbLine
 10
-29.88396276897009
 20
10.66783849122686
 30
0.0
 11
-28.64345835871609
 21
9.35906298102216
 31
0.0
  0
LINE
  5
219
102
{ACAD_REACTORS
330
328
330
329
102
}
330
A0
100
AcDbEntity
  8
0
  6
Continuous
 62
     2
100
AcDbLine
 10
-33.89189717913581
 20
7.74490651845386
 30
0.0
 11
-35.13240158938871
 21
9.05368202865895
 31
0.0
  0
LINE
  5
21A
102
{ACAD_REACTORS
330
328
330
329
102
}
330
A0
100
AcDbEntity
  8
0
  6
Continuous
 62
     2
100
AcDbLine
 10
-33.89189717913581
 20
9.05368202865895
 30
0.0
 11
-33.89189717913581
 21
7.74490651845386
 31
0.0
  0
LINE
  5
21B
102
{ACAD_REACTORS
330
328
330
329
102
}
330
A0
100
AcDbEntity
  8
0
  6
Continuous
 62
     2
100
AcDbLine
 10
-32.69910447696941
 20
9.05368202865895
 30
0.0
 11
-33.89189717913581
 21
9.05368202865895
 31
0.0
  0
LINE
  5
21C
102
{ACAD_REACTORS
330
328
330
329
102
}
330
A0
100
AcDbEntity
  8
0
  6
Continuous
 62
     2
100
AcDbLine
 10
-32.69910447696941
 20
5.99987250484787
 30
0.0
 11
-32.69910447696941
 21
9.05368202865895
 31
0.0
  0
LINE
  5
21D
102
{ACAD_REACTORS
330
328
330
329
102
}
330
A0
100
AcDbEntity
  8
0
  6
Continuous
 62
     2
100
AcDbLine
 10
-35.13240158938871
 20
7.30864801505246
 30
0.0
 11
-33.89189717913581
 21
5.99987250484787
 31
0.0
  0
LINE
  5
21E
102
{ACAD_REACTORS
330
328
330
329
102
}
330
A0
100
AcDbEntity
  8
0
  6
Continuous
 62
     2
100
AcDbLine
 10
-35.13240158938871
 20
5.99987250484787
 30
0.0
 11
-35.13240158938871
 21
7.30864801505246
 31
0.0
  0
LINE
  5
21F
102
{ACAD_REACTORS
330
318
330
319
102
}
330
A0
100
AcDbEntity
  8
0
  6
Continuous
 62
     2
100
AcDbLine
 10
-32.65124183799719
 20
11.71485889939038
 30
0.0
 11
-31.31531401156951
 21
11.71485889939038
 31
0.0
  0
LINE
  5
220
102
{ACAD_REACTORS
330
318
330
319
102
}
330
A0
100
AcDbEntity
  8
0
  6
Continuous
 62
     2
100
AcDbLine
 10
-32.65124183799719
 20
10.05707658646466
 30
0.0
 11
-32.65124183799719
 21
10.53696094020637
 31
0.0
  0
LINE
  5
221
102
{ACAD_REACTORS
330
318
330
319
102
}
330
A0
100
AcDbEntity
  8
0
  6
Continuous
 62
     2
100
AcDbLine
 10
-31.31531401156951
 20
10.05707658646466
 30
0.0
 11
-32.65124183799719
 21
10.05707658646466
 31
0.0
  0
LINE
  5
222
102
{ACAD_REACTORS
330
318
330
319
102
}
330
A0
100
AcDbEntity
  8
0
  6
Continuous
 62
     2
100
AcDbLine
 10
-31.31531401156951
 20
9.35906298102216
 30
0.0
 11
-31.31531401156951
 21
10.05707658646466
 31
0.0
  0
LINE
  5
223
102
{ACAD_REACTORS
330
318
330
319
102
}
330
A0
100
AcDbEntity
  8
0
  6
Continuous
 62
     2
100
AcDbLine
 10
-34.46563373535051
 20
9.35906298102216
 30
0.0
 11
-31.31531401156951
 21
9.35906298102216
 31
0.0
  0
LINE
  5
224
102
{ACAD_REACTORS
330
318
330
319
102
}
330
A0
100
AcDbEntity
  8
0
  6
Continuous
 62
     2
100
AcDbLine
 10
-34.46563373535051
 20
12.41287250483336
 30
0.0
 11
-31.31531401156951
 21
12.41287250483336
 31
0.0
  0
LINE
  5
225
102
{ACAD_REACTORS
330
318
330
319
102
}
330
A0
100
AcDbEntity
  8
0
  6
Continuous
 62
     2
100
AcDbLine
 10
-31.31531401156951
 20
11.71485889939038
 30
0.0
 11
-31.31531401156951
 21
12.41287250483336
 31
0.0
  0
LINE
  5
226
102
{ACAD_REACTORS
330
32A
330
32B
102
}
330
A0
100
AcDbEntity
  8
0
  6
Continuous
 62
     2
100
AcDbLine
 10
-37.32698923049051
 20
11.34403917149876
 30
0.0
 11
-37.32698923049051
 21
12.41287250483336
 31
0.0
  0
LINE
  5
227
102
{ACAD_REACTORS
330
32A
330
32B
102
}
330
A0
100
AcDbEntity
  8
0
  6
Continuous
 62
     2
100
AcDbLine
 10
-37.32698923049051
 20
12.41287250483336
 30
0.0
 11
-36.13419652832411
 21
12.41287250483336
 31
0.0
  0
LINE
  5
228
102
{ACAD_REACTORS
330
32A
330
32B
102
}
330
A0
100
AcDbEntity
  8
0
  6
Continuous
 62
     2
100
AcDbLine
 10
-37.32698923049051
 20
10.49333508986598
 30
0.0
 11
-38.37664680839799
 21
10.49333508986598
 31
0.0
  0
LINE
  5
229
102
{ACAD_REACTORS
330
32A
330
32B
102
}
330
A0
100
AcDbEntity
  8
0
  6
Continuous
 62
     2
100
AcDbLine
 10
-38.37664680839799
 20
10.49333508986598
 30
0.0
 11
-38.37664680839799
 21
9.35906298102216
 31
0.0
  0
LINE
  5
22A
102
{ACAD_REACTORS
330
32A
330
32B
102
}
330
A0
100
AcDbEntity
  8
0
  6
Continuous
 62
     2
100
AcDbLine
 10
-39.56943951056459
 20
12.41287250483336
 30
0.0
 11
-39.56943951056459
 21
9.35906298102216
 31
0.0
  0
LINE
  5
22B
102
{ACAD_REACTORS
330
31C
330
31D
102
}
330
A0
100
AcDbEntity
  8
0
  6
Continuous
 62
     2
100
AcDbLine
 10
-41.52561954211819
 20
11.04403901005105
 30
0.0
 11
-41.52561954211819
 21
11.74976665939326
 31
0.0
  0
LINE
  5
22C
102
{ACAD_REACTORS
330
31C
330
31D
102
}
330
A0
100
AcDbEntity
  8
0
  6
Continuous
 62
     2
100
AcDbLine
 10
-42.76612395237231
 20
9.35906298102216
 30
0.0
 11
-41.52561954211819
 21
9.35906298102216
 31
0.0
  0
LINE
  5
22D
102
{ACAD_REACTORS
330
31C
330
31D
102
}
330
A0
100
AcDbEntity
  8
0
  6
Continuous
 62
     2
100
AcDbLine
 10
-41.52561954211819
 20
9.35906298102216
 30
0.0
 11
-41.52561954211819
 21
10.30214122216597
 31
0.0
  0
LINE
  5
22E
102
{ACAD_REACTORS
330
316
330
317
102
}
330
A0
100
AcDbEntity
  8
0
  6
Continuous
 62
     2
100
AcDbLine
 10
-47.07106980158369
 20
6.71242806040476
 30
0.0
 11
-48.54690306259332
 21
6.71242806040476
 31
0.0
  0
LINE
  5
22F
102
{ACAD_REACTORS
330
316
330
317
102
}
330
A0
100
AcDbEntity
  8
0
  6
Continuous
 62
     2
100
AcDbLine
 10
-49.56504235472261
 20
11.98862788943137
 30
0.0
 11
-49.56504235472261
 21
6.42411712023116
 31
0.0
  0
LINE
  5
230
102
{ACAD_REACTORS
330
316
330
317
102
}
330
A0
100
AcDbEntity
  8
0
  6
Continuous
 62
     2
100
AcDbLine
 10
-49.1407977393398
 20
12.41287250481517
 30
0.0
 11
-43.667485648623
 21
12.41287250481517
 31
0.0
  0
LINE
  5
231
102
{ACAD_REACTORS
330
316
330
317
102
}
330
A0
100
AcDbEntity
  8
0
  6
Continuous
 62
     2
100
AcDbLine
 10
-43.24324103323912
 20
11.98862788943137
 30
0.0
 11
-43.24324103323912
 21
6.42411712023116
 31
0.0
  0
LINE
  5
232
102
{ACAD_REACTORS
330
316
330
317
102
}
330
A0
100
AcDbEntity
  8
0
  6
Continuous
 62
     2
100
AcDbLine
 10
-43.667485648623
 20
5.99987250484787
 30
0.0
 11
-49.1407977393398
 21
5.99987250484787
 31
0.0
  0
LINE
  5
233
102
{ACAD_REACTORS
330
316
330
317
102
}
330
A0
100
AcDbEntity
  8
0
  6
Continuous
 62
     2
100
AcDbLine
 10
-46.7553528785071
 20
7.02814498348147
 30
0.0
 11
-46.7553528785071
 21
8.55891591501307
 31
0.0
  0
LINE
  5
234
102
{ACAD_REACTORS
330
316
330
317
102
}
330
A0
100
AcDbEntity
  8
0
  6
Continuous
 62
     2
100
AcDbLine
 10
-46.7553528785071
 20
10.78057540713806
 30
0.0
 11
-46.7553528785071
 21
11.38460002619857
 31
0.0
  0
LINE
  5
235
102
{ACAD_REACTORS
330
316
330
317
102
}
330
A0
100
AcDbEntity
  8
0
  6
Continuous
 62
     2
100
AcDbLine
 10
-48.54690306259332
 20
11.70031694927477
 30
0.0
 11
-47.07106980158369
 21
11.70031694927477
 31
0.0
  0
LINE
  5
236
102
{ACAD_REACTORS
330
316
330
317
102
}
330
A0
100
AcDbEntity
  8
0
  6
Continuous
 62
     2
100
AcDbLine
 10
-48.862619985669
 20
11.38460002619857
 30
0.0
 11
-48.862619985669
 21
7.02814498348147
 31
0.0
  0
LINE
  5
237
102
{ACAD_REACTORS
330
31C
330
31D
102
}
330
A0
100
AcDbEntity
  8
0
  6
Continuous
 62
     2
100
AcDbLine
 10
-41.52561954211819
 20
10.30214122216597
 30
0.0
 11
-40.76685195433791
 21
10.30214122216597
 31
0.0
  0
LINE
  5
238
102
{ACAD_REACTORS
330
31C
330
31D
102
}
330
A0
100
AcDbEntity
  8
0
  6
Continuous
 62
     2
100
AcDbLine
 10
-42.76612395237231
 20
12.41287250483336
 30
0.0
 11
-40.76685195433791
 21
12.41287250483336
 31
0.0
  0
LINE
  5
239
102
{ACAD_REACTORS
330
31C
330
31D
102
}
330
A0
100
AcDbEntity
  8
0
  6
Continuous
 62
     2
100
AcDbLine
 10
-42.76612395237231
 20
12.41287250483336
 30
0.0
 11
-42.76612395237231
 21
9.35906298102216
 31
0.0
  0
LINE
  5
23A
102
{ACAD_REACTORS
330
31C
330
31D
102
}
330
A0
100
AcDbEntity
  8
0
  6
Continuous
 62
     2
100
AcDbLine
 10
-41.52561954211819
 20
11.04403901005105
 30
0.0
 11
-41.20832448057629
 21
11.04403901005105
 31
0.0
  0
LINE
  5
23B
102
{ACAD_REACTORS
330
31C
330
31D
102
}
330
A0
100
AcDbEntity
  8
0
  6
Continuous
 62
     2
100
AcDbLine
 10
-41.52561954211819
 20
11.74976665939326
 30
0.0
 11
-41.20832448057629
 21
11.74976665939326
 31
0.0
  0
LINE
  5
23C
102
{ACAD_REACTORS
330
32A
330
32B
102
}
330
A0
100
AcDbEntity
  8
0
  6
Continuous
 62
     2
100
AcDbLine
 10
-38.37664680839799
 20
11.34403917149876
 30
0.0
 11
-37.32698923049051
 21
11.34403917149876
 31
0.0
  0
LINE
  5
23D
102
{ACAD_REACTORS
330
32A
330
32B
102
}
330
A0
100
AcDbEntity
  8
0
  6
Continuous
 62
     2
100
AcDbLine
 10
-38.37664680839799
 20
12.41287250483336
 30
0.0
 11
-38.37664680839799
 21
11.34403917149876
 31
0.0
  0
LINE
  5
23E
102
{ACAD_REACTORS
330
32A
330
32B
102
}
330
A0
100
AcDbEntity
  8
0
  6
Continuous
 62
     2
100
AcDbLine
 10
-39.56943951056459
 20
12.41287250483336
 30
0.0
 11
-38.37664680839799
 21
12.41287250483336
 31
0.0
  0
LINE
  5
23F
102
{ACAD_REACTORS
330
32A
330
32B
102
}
330
A0
100
AcDbEntity
  8
0
  6
Continuous
 62
     2
100
AcDbLine
 10
-38.37664680839799
 20
9.35906298102216
 30
0.0
 11
-39.56943951056459
 21
9.35906298102216
 31
0.0
  0
LINE
  5
240
102
{ACAD_REACTORS
330
32A
330
32B
102
}
330
A0
100
AcDbEntity
  8
0
  6
Continuous
 62
     2
100
AcDbLine
 10
-37.32698923049051
 20
9.35906298102216
 30
0.0
 11
-37.32698923049051
 21
10.49333508986598
 31
0.0
  0
LINE
  5
241
102
{ACAD_REACTORS
330
32A
330
32B
102
}
330
A0
100
AcDbEntity
  8
0
  6
Continuous
 62
     2
100
AcDbLine
 10
-36.13419652832411
 20
9.35906298102216
 30
0.0
 11
-37.32698923049051
 21
9.35906298102216
 31
0.0
  0
LINE
  5
242
102
{ACAD_REACTORS
330
32A
330
32B
102
}
330
A0
100
AcDbEntity
  8
0
  6
Continuous
 62
     2
100
AcDbLine
 10
-36.13419652832411
 20
12.41287250483336
 30
0.0
 11
-36.13419652832411
 21
9.35906298102216
 31
0.0
  0
LINE
  5
243
102
{ACAD_REACTORS
330
318
330
319
102
}
330
A0
100
AcDbEntity
  8
0
  6
Continuous
 62
     2
100
AcDbLine
 10
-32.65124183799719
 20
10.53696094020637
 30
0.0
 11
-31.31531401156951
 21
10.53696094020637
 31
0.0
  0
LINE
  5
244
102
{ACAD_REACTORS
330
318
330
319
102
}
330
A0
100
AcDbEntity
  8
0
  6
Continuous
 62
     2
100
AcDbLine
 10
-31.31531401156951
 20
10.53696094020637
 30
0.0
 11
-31.31531401156951
 21
11.23497454564867
 31
0.0
  0
LINE
  5
245
102
{ACAD_REACTORS
330
318
330
319
102
}
330
A0
100
AcDbEntity
  8
0
  6
Continuous
 62
     2
100
AcDbLine
 10
-31.31531401156951
 20
11.23497454564867
 30
0.0
 11
-32.65124183799719
 21
11.23497454564867
 31
0.0
  0
LINE
  5
246
102
{ACAD_REACTORS
330
318
330
319
102
}
330
A0
100
AcDbEntity
  8
0
  6
Continuous
 62
     2
100
AcDbLine
 10
-32.65124183799719
 20
11.23497454564867
 30
0.0
 11
-32.65124183799719
 21
11.71485889939038
 31
0.0
  0
LINE
  5
247
102
{ACAD_REACTORS
330
328
330
329
102
}
330
A0
100
AcDbEntity
  8
0
  6
Continuous
 62
     2
100
AcDbLine
 10
-36.3251942915563
 20
5.99987250484787
 30
0.0
 11
-35.13240158938871
 21
5.99987250484787
 31
0.0
  0
LINE
  5
248
102
{ACAD_REACTORS
330
328
330
329
102
}
330
A0
100
AcDbEntity
  8
0
  6
Continuous
 62
     2
100
AcDbLine
 10
-33.89189717913581
 20
5.99987250484787
 30
0.0
 11
-32.69910447696941
 21
5.99987250484787
 31
0.0
  0
LINE
  5
249
102
{ACAD_REACTORS
330
328
330
329
102
}
330
A0
100
AcDbEntity
  8
0
  6
Continuous
 62
     2
100
AcDbLine
 10
-35.13240158938871
 20
9.05368202865895
 30
0.0
 11
-36.3251942915563
 21
9.05368202865895
 31
0.0
  0
LINE
  5
24A
102
{ACAD_REACTORS
330
328
330
329
102
}
330
A0
100
AcDbEntity
  8
0
  6
Continuous
 62
     2
100
AcDbLine
 10
-36.3251942915563
 20
9.05368202865895
 30
0.0
 11
-36.3251942915563
 21
5.99987250484787
 31
0.0
  0
LINE
  5
24B
102
{ACAD_REACTORS
330
326
330
327
102
}
330
A0
100
AcDbEntity
  8
0
  6
Continuous
 62
     2
100
AcDbLine
 10
-28.64345835871609
 20
12.41287250483336
 30
0.0
 11
-28.64345835871609
 21
11.10409699462818
 31
0.0
  0
LINE
  5
24C
102
{ACAD_REACTORS
330
326
330
327
102
}
330
A0
100
AcDbEntity
  8
0
  6
Continuous
 62
     2
100
AcDbLine
 10
-29.88396276897009
 20
12.41287250483336
 30
0.0
 11
-31.07675547113661
 21
12.41287250483336
 31
0.0
  0
LINE
  5
24D
102
{ACAD_REACTORS
330
326
330
327
102
}
330
A0
100
AcDbEntity
  8
0
  6
Continuous
 62
     2
100
AcDbLine
 10
-31.07675547113661
 20
12.41287250483336
 30
0.0
 11
-31.07675547113661
 21
9.35906298102216
 31
0.0
  0
LINE
  5
24E
102
{ACAD_REACTORS
330
326
330
327
102
}
330
A0
100
AcDbEntity
  8
0
  6
Continuous
 62
     2
100
AcDbLine
 10
-29.88396276897009
 20
9.35906298102216
 30
0.0
 11
-29.88396276897009
 21
10.66783849122686
 31
0.0
  0
LINE
  5
24F
102
{ACAD_REACTORS
330
324
330
325
102
}
330
A0
100
AcDbEntity
  8
0
  6
Continuous
 62
     2
100
AcDbLine
 10
-30.55207761306809
 20
5.99987250484787
 30
0.0
 11
-30.55207761306809
 21
8.26841672253536
 31
0.0
  0
LINE
  5
250
102
{ACAD_REACTORS
330
324
330
325
102
}
330
A0
100
AcDbEntity
  8
0
  6
Continuous
 62
     2
100
AcDbLine
 10
-30.55207761306809
 20
8.26841672253536
 30
0.0
 11
-29.74097857559559
 21
8.26841672253536
 31
0.0
  0
LINE
  5
251
102
{ACAD_REACTORS
330
324
330
325
102
}
330
A0
100
AcDbEntity
  8
0
  6
Continuous
 62
     2
100
AcDbLine
 10
-29.74097857559559
 20
8.26841672253536
 30
0.0
 11
-29.74097857559559
 21
9.05368202865895
 31
0.0
  0
LINE
  5
252
102
{ACAD_REACTORS
330
324
330
325
102
}
330
A0
100
AcDbEntity
  8
0
  6
Continuous
 62
     2
100
AcDbLine
 10
-29.74097857559559
 20
9.05368202865895
 30
0.0
 11
-32.55596935270921
 21
9.05368202865895
 31
0.0
  0
LINE
  5
253
102
{ACAD_REACTORS
330
324
330
325
102
}
330
A0
100
AcDbEntity
  8
0
  6
Continuous
 62
     2
100
AcDbLine
 10
-32.55596935270921
 20
8.26841672253536
 30
0.0
 11
-31.74487031523461
 21
8.26841672253536
 31
0.0
  0
LINE
  5
254
102
{ACAD_REACTORS
330
322
330
323
102
}
330
A0
100
AcDbEntity
  8
0
  6
Continuous
 62
     2
100
AcDbLine
 10
-28.9464727497982
 20
6.54083304906575
 30
0.0
 11
-27.81403117312439
 21
6.54083304906575
 31
0.0
  0
LINE
  5
255
102
{ACAD_REACTORS
330
322
330
323
102
}
330
A0
100
AcDbEntity
  8
0
  6
Continuous
 62
     2
100
AcDbLine
 10
-26.36204670939469
 20
5.99987250484787
 30
0.0
 11
-27.60255111964861
 21
5.99987250484787
 31
0.0
  0
LINE
  5
256
102
{ACAD_REACTORS
330
322
330
323
102
}
330
A0
100
AcDbEntity
  8
0
  6
Continuous
 62
     2
100
AcDbLine
 10
-29.00050416658769
 20
9.05368202865895
 30
0.0
 11
-30.398457213527
 21
5.99987250484787
 31
0.0
  0
LINE
  5
257
102
{ACAD_REACTORS
330
322
330
323
102
}
330
A0
100
AcDbEntity
  8
0
  6
Continuous
 62
     2
100
AcDbLine
 10
-29.15795280327401
 20
5.99987250484787
 30
0.0
 11
-28.9464727497982
 21
6.54083304906575
 31
0.0
  0
LINE
  5
258
102
{ACAD_REACTORS
330
322
330
323
102
}
330
A0
100
AcDbEntity
  8
0
  6
Continuous
 62
     2
100
AcDbLine
 10
-28.6804171986532
 20
7.22139631437236
 30
0.0
 11
-28.3802519614608
 21
7.98921128035906
 31
0.0
  0
LINE
  5
259
102
{ACAD_REACTORS
330
320
330
321
102
}
330
A0
100
AcDbEntity
  8
0
  6
Continuous
 62
     2
100
AcDbLine
 10
-27.21210711611559
 20
9.35906298102216
 30
0.0
 11
-27.21210711611559
 21
12.41287250483336
 31
0.0
  0
LINE
  5
25A
102
{ACAD_REACTORS
330
320
330
321
102
}
330
A0
100
AcDbEntity
  8
0
  6
Continuous
 62
     2
100
AcDbLine
 10
-25.97160270586269
 20
12.41287250483336
 30
0.0
 11
-25.97160270586269
 21
9.35906298102216
 31
0.0
  0
LINE
  5
25B
102
{ACAD_REACTORS
330
320
330
321
102
}
330
A0
100
AcDbEntity
  8
0
  6
Continuous
 62
     2
100
AcDbLine
 10
-27.21210711611559
 20
12.41287250483336
 30
0.0
 11
-25.97160270586269
 21
12.41287250483336
 31
0.0
  0
LINE
  5
25C
102
{ACAD_REACTORS
330
31E
330
31F
102
}
330
A0
100
AcDbEntity
  8
0
  6
Continuous
 62
     2
100
AcDbLine
 10
-23.7530082798319
 20
10.14679476631588
 30
0.0
 11
-23.05641734176641
 21
9.35906298102216
 31
0.0
  0
LINE
  5
25D
102
{ACAD_REACTORS
330
31E
330
31F
102
}
330
A0
100
AcDbEntity
  8
0
  6
Continuous
 62
     2
100
AcDbLine
 10
-23.05641734176641
 20
9.35906298102216
 30
0.0
 11
-21.65369312401811
 21
9.35906298102216
 31
0.0
  0
LINE
  5
25E
102
{ACAD_REACTORS
330
31E
330
31F
102
}
330
A0
100
AcDbEntity
  8
0
  6
Continuous
 62
     2
100
AcDbLine
 10
-23.05164617095841
 20
10.93992197479716
 30
0.0
 11
-21.65369312401811
 21
9.35906298102216
 31
0.0
  0
LINE
  5
25F
102
{ACAD_REACTORS
330
31E
330
31F
102
}
330
A0
100
AcDbEntity
  8
0
  6
Continuous
 62
     2
100
AcDbLine
 10
-23.05164617095841
 20
10.93992197479716
 30
0.0
 11
-21.74911654019189
 21
12.41287250483336
 31
0.0
  0
LINE
  5
260
102
{ACAD_REACTORS
330
31E
330
31F
102
}
330
A0
100
AcDbEntity
  8
0
  6
Continuous
 62
     2
100
AcDbLine
 10
-23.7530082798319
 20
11.73304918327787
 30
0.0
 11
-23.15184075793911
 21
12.41287250483336
 31
0.0
  0
LINE
  5
261
102
{ACAD_REACTORS
330
31E
330
31F
102
}
330
A0
100
AcDbEntity
  8
0
  6
Continuous
 62
     2
100
AcDbLine
 10
-24.3541758017237
 20
12.41287250483336
 30
0.0
 11
-23.7530082798319
 21
11.73304918327787
 31
0.0
  0
LINE
  5
262
102
{ACAD_REACTORS
330
31E
330
31F
102
}
330
A0
100
AcDbEntity
  8
0
  6
Continuous
 62
     2
100
AcDbLine
 10
-24.3541758017237
 20
12.41287250483336
 30
0.0
 11
-25.75690001947299
 21
12.41287250483336
 31
0.0
  0
LINE
  5
263
102
{ACAD_REACTORS
330
314
330
315
102
}
330
A0
100
AcDbEntity
  8
0
  6
Continuous
 62
     2
100
AcDbLine
 10
-23.6575848636592
 20
5.99987250484787
 30
0.0
 11
-22.46479216149149
 21
5.99987250484787
 31
0.0
  0
LINE
  5
264
102
{ACAD_REACTORS
330
314
330
315
102
}
330
A0
100
AcDbEntity
  8
0
  6
Continuous
 62
     2
100
AcDbLine
 10
-22.46479216149149
 20
5.99987250484787
 30
0.0
 11
-22.46479216149149
 21
8.26841672253536
 31
0.0
  0
LINE
  5
265
102
{ACAD_REACTORS
330
314
330
315
102
}
330
A0
100
AcDbEntity
  8
0
  6
Continuous
 62
     2
100
AcDbLine
 10
-22.46479216149149
 20
8.26841672253536
 30
0.0
 11
-21.65369312401811
 21
8.26841672253536
 31
0.0
  0
LINE
  5
266
102
{ACAD_REACTORS
330
314
330
315
102
}
330
A0
100
AcDbEntity
  8
0
  6
Continuous
 62
     2
100
AcDbLine
 10
-21.65369312401811
 20
8.26841672253536
 30
0.0
 11
-21.65369312401811
 21
9.05368202865895
 31
0.0
  0
LINE
  5
267
102
{ACAD_REACTORS
330
314
330
315
102
}
330
A0
100
AcDbEntity
  8
0
  6
Continuous
 62
     2
100
AcDbLine
 10
-25.03863864264679
 20
9.05368202865847
 30
0.0
 11
-21.65369312401811
 21
9.05368202865895
 31
0.0
  0
LINE
  5
268
102
{ACAD_REACTORS
330
314
330
315
102
}
330
A0
100
AcDbEntity
  8
0
  6
Continuous
 62
     2
100
AcDbLine
 10
-23.6575848636592
 20
8.26841672253536
 30
0.0
 11
-23.6575848636592
 21
5.99987250484787
 31
0.0
  0
LINE
  5
269
102
{ACAD_REACTORS
330
316
330
317
102
}
330
A0
100
AcDbEntity
  8
0
  6
Continuous
 62
     2
100
AcDbLine
 10
-46.2870712991384
 20
7.97875265441238
 30
0.0
 11
-46.2870712991384
 21
8.56060406110745
 31
0.0
  0
LINE
  5
26A
102
{ACAD_REACTORS
330
316
330
317
102
}
330
A0
100
AcDbEntity
  8
0
  6
Continuous
 62
     2
100
AcDbLine
 10
-46.2870712991384
 20
10.77888726104368
 30
0.0
 11
-46.2870712991384
 21
11.38442254955047
 31
0.0
  0
LINE
  5
26B
330
A0
100
AcDbEntity
  8
1
  6
Continuous
 62
     6
100
AcDbLine
 10
-67.75689271453518
 20
-1.29362749516844
 30
0.0
 11
-53.80169724128521
 21
-1.29362749516855
 31
0.0
  0
LINE
  5
26C
330
A0
100
AcDbEntity
  8
1
  6
Continuous
 62
     6
100
AcDbLine
 10
-117.7568927145354
 20
-1.29362749516844
 30
0.0
 11
-122.8016972412852
 21
-1.29362749516844
 31
0.0
  0
LINE
  5
26D
330
A0
100
AcDbEntity
  8
1
  6
Continuous
 62
     6
100
AcDbLine
 10
32.24310728546479
 20
-1.29362749516844
 30
0.0
 11
75.7431072854648
 21
-1.29362749516844
 31
0.0
  0
LINE
  5
26E
330
A0
100
AcDbEntity
  8
1
  6
Continuous
 62
     6
100
AcDbLine
 10
-17.75689271453521
 20
-1.29362749516844
 30
0.0
 11
-35.60169724128519
 21
-1.29362749516844
 31
0.0
  0
LINE
  5
26F
330
A0
100
AcDbEntity
  8
1
  6
Continuous
 62
     2
100
AcDbLine
 10
75.7431072854648
 20
-1.29362749516844
 30
0.0
 11
80.7431072854638
 21
-1.29362749516844
 31
0.0
  0
LINE
  5
270
330
A0
100
AcDbEntity
  8
1
  6
Continuous
 62
     2
100
AcDbLine
 10
75.7431072854648
 20
-1.29362749516844
 30
0.0
 11
75.7431072854648
 21
-6.29362749516855
 31
0.0
  0
LINE
  5
271
330
A0
100
AcDbEntity
  8
1
  6
Continuous
 62
     6
100
AcDbLine
 10
-53.80169724128521
 20
15.70637250483156
 30
0.0
 11
-17.40169724128529
 21
15.70637250483156
 31
0.0
  0
LINE
  5
272
330
A0
100
AcDbEntity
  8
1
  6
Continuous
 62
     2
100
AcDbLine
 10
80.7431072854638
 20
-6.29362749516855
 30
0.0
 11
80.7431072854638
 21
-1.29362749516844
 31
0.0
  0
LINE
  5
273
330
A0
100
AcDbEntity
  8
1
  6
Continuous
 62
     2
100
AcDbLine
 10
80.7431072854638
 20
-6.29362749516855
 30
0.0
 11
75.7431072854648
 21
-6.29362749516855
 31
0.0
  0
LINE
  5
274
330
A0
100
AcDbEntity
  8
1
  6
Continuous
 62
     2
100
AcDbLine
 10
75.7431072854648
 20
-6.29362749516855
 30
0.0
 11
32.24310728546479
 21
-6.29362749516855
 31
0.0
  0
LINE
  5
275
330
A0
100
AcDbEntity
  8
1
  6
Continuous
 62
     6
100
AcDbLine
 10
75.7431072854665
 20
15.70637250483156
 30
0.0
 11
75.7431072854657
 21
48.70637250483168
 31
0.0
  0
LINE
  5
276
330
A0
100
AcDbEntity
  8
1
  6
Continuous
 62
     2
100
AcDbLine
 10
80.7431072854638
 20
203.7063725048316
 30
0.0
 11
-67.75689271453518
 21
203.7063725048316
 31
0.0
  0
LINE
  5
277
330
A0
100
AcDbEntity
  8
1
  6
Continuous
 62
     6
100
AcDbLine
 10
75.7431072854638
 20
183.7063725048316
 30
0.0
 11
-211.2568927145343
 21
183.7063725048316
 31
0.0
  0
LINE
  5
278
330
A0
100
AcDbEntity
  8
1
  6
Continuous
 62
     2
100
AcDbLine
 10
75.7431072854657
 20
48.70637250483168
 30
0.0
 11
80.7431072854638
 21
48.70637250483168
 31
0.0
  0
LINE
  5
279
330
A0
100
AcDbEntity
  8
1
  6
Continuous
 62
     6
100
AcDbLine
 10
75.7431072854657
 20
48.70637250483168
 30
0.0
 11
75.7431072854652
 21
98.70637250483148
 31
0.0
  0
LINE
  5
27A
330
A0
100
AcDbEntity
  8
1
  6
Continuous
 62
     2
100
AcDbLine
 10
80.7431072854638
 20
48.70637250483168
 30
0.0
 11
80.7431072854638
 21
98.70637250483148
 31
0.0
  0
LINE
  5
27B
330
A0
100
AcDbEntity
  8
1
  6
Continuous
 62
     2
100
AcDbLine
 10
75.7431072854652
 20
98.70637250483148
 30
0.0
 11
80.7431072854638
 21
98.70637250483148
 31
0.0
  0
LINE
  5
27C
330
A0
100
AcDbEntity
  8
1
  6
Continuous
 62
     6
100
AcDbLine
 10
75.7431072854652
 20
98.70637250483148
 30
0.0
 11
75.74310728546399
 21
148.7063725048316
 31
0.0
  0
LINE
  5
27D
330
A0
100
AcDbEntity
  8
1
  6
Continuous
 62
     2
100
AcDbLine
 10
80.7431072854638
 20
98.70637250483148
 30
0.0
 11
80.7431072854638
 21
148.7063725048316
 31
0.0
  0
LINE
  5
27E
330
A0
100
AcDbEntity
  8
1
  6
Continuous
 62
     2
100
AcDbLine
 10
75.74310728546399
 20
148.7063725048316
 30
0.0
 11
80.7431072854638
 21
148.7063725048316
 31
0.0
  0
LINE
  5
27F
330
A0
100
AcDbEntity
  8
1
  6
Continuous
 62
     6
100
AcDbLine
 10
75.74310728546399
 20
148.7063725048316
 30
0.0
 11
75.7431072854638
 21
183.7063725048316
 31
0.0
  0
LINE
  5
280
330
A0
100
AcDbEntity
  8
1
  6
Continuous
 62
     2
100
AcDbLine
 10
80.7431072854638
 20
148.7063725048316
 30
0.0
 11
80.7431072854638
 21
203.7063725048316
 31
0.0
  0
LINE
  5
281
330
A0
100
AcDbEntity
  8
1
  6
Continuous
 62
     2
100
AcDbLine
 10
80.7431072854638
 20
-1.29362749516844
 30
0.0
 11
80.7431072854638
 21
48.70637250483168
 31
0.0
  0
LINE
  5
282
330
A0
100
AcDbEntity
  8
1
  6
Continuous
 62
     2
100
AcDbLine
 10
-67.75689271453518
 20
203.7063725048316
 30
0.0
 11
-216.2568927145343
 21
203.7063725048316
 31
0.0
  0
LINE
  5
283
330
A0
100
AcDbEntity
  8
1
  6
Continuous
 62
     2
100
AcDbLine
 10
-67.75689271453518
 20
203.7063725048316
 30
0.0
 11
-67.75689271453518
 21
194.4976806601302
 31
0.0
  0
LINE
  5
284
330
A0
100
AcDbEntity
  8
1
  6
Continuous
 62
     2
100
AcDbLine
 10
-216.2568927145343
 20
-6.29362749516855
 30
0.0
 11
-211.2568927145333
 21
-6.29362749516855
 31
0.0
  0
LINE
  5
285
330
A0
100
AcDbEntity
  8
1
  6
Continuous
 62
     2
100
AcDbLine
 10
-216.2568927145343
 20
203.7063725048316
 30
0.0
 11
-216.2568927145343
 21
148.7063725048316
 31
0.0
  0
LINE
  5
286
330
A0
100
AcDbEntity
  8
1
  6
Continuous
 62
     6
100
AcDbLine
 10
-211.2568927145343
 20
183.7063725048316
 30
0.0
 11
-211.2568927145342
 21
148.7063725048316
 31
0.0
  0
LINE
  5
287
330
A0
100
AcDbEntity
  8
1
  6
Continuous
 62
     2
100
AcDbLine
 10
-216.2568927145343
 20
148.7063725048316
 30
0.0
 11
-211.2568927145342
 21
148.7063725048316
 31
0.0
  0
LINE
  5
288
330
A0
100
AcDbEntity
  8
1
  6
Continuous
 62
     2
100
AcDbLine
 10
-216.2568927145343
 20
148.7063725048316
 30
0.0
 11
-216.2568927145343
 21
98.70637250483148
 31
0.0
  0
LINE
  5
289
330
A0
100
AcDbEntity
  8
1
  6
Continuous
 62
     6
100
AcDbLine
 10
-211.2568927145342
 20
148.7063725048316
 30
0.0
 11
-211.2568927145337
 21
98.70637250483148
 31
0.0
  0
LINE
  5
28A
330
A0
100
AcDbEntity
  8
1
  6
Continuous
 62
     2
100
AcDbLine
 10
-216.2568927145343
 20
98.70637250483148
 30
0.0
 11
-211.2568927145337
 21
98.70637250483148
 31
0.0
  0
LINE
  5
28B
330
A0
100
AcDbEntity
  8
1
  6
Continuous
 62
     2
100
AcDbLine
 10
-216.2568927145343
 20
98.70637250483148
 30
0.0
 11
-216.2568927145343
 21
48.70637250483168
 31
0.0
  0
LINE
  5
28C
330
A0
100
AcDbEntity
  8
1
  6
Continuous
 62
     6
100
AcDbLine
 10
-211.2568927145337
 20
98.70637250483148
 30
0.0
 11
-211.2568927145335
 21
48.70637250483168
 31
0.0
  0
LINE
  5
28D
330
A0
100
AcDbEntity
  8
1
  6
Continuous
 62
     2
100
AcDbLine
 10
-216.2568927145343
 20
48.70637250483168
 30
0.0
 11
-211.2568927145335
 21
48.70637250483168
 31
0.0
  0
LINE
  5
28E
330
A0
100
AcDbEntity
  8
1
  6
Continuous
 62
     2
100
AcDbLine
 10
-216.2568927145343
 20
48.70637250483168
 30
0.0
 11
-216.2568927145343
 21
-1.29362749516844
 31
0.0
  0
LINE
  5
28F
330
A0
100
AcDbEntity
  8
1
  6
Continuous
 62
     6
100
AcDbLine
 10
-211.2568927145335
 20
48.70637250483168
 30
0.0
 11
-211.2568927145333
 21
-1.29362749516844
 31
0.0
  0
LINE
  5
290
330
A0
100
AcDbEntity
  8
1
  6
Continuous
 62
     2
100
AcDbLine
 10
-167.7568927145352
 20
-6.29362749516855
 30
0.0
 11
-167.7568927145352
 21
-1.29362749516844
 31
0.0
  0
LINE
  5
291
330
A0
100
AcDbEntity
  8
1
  6
Continuous
 62
     2
100
AcDbLine
 10
-167.7568927145352
 20
-6.29362749516855
 30
0.0
 11
-117.7568927145354
 21
-6.29362749516855
 31
0.0
  0
LINE
  5
292
330
A0
100
AcDbEntity
  8
1
  6
Continuous
 62
     2
100
AcDbLine
 10
-117.7568927145354
 20
-6.29362749516855
 30
0.0
 11
-117.7568927145354
 21
-1.29362749516844
 31
0.0
  0
LINE
  5
293
330
A0
100
AcDbEntity
  8
1
  6
Continuous
 62
     2
100
AcDbLine
 10
-117.7568927145354
 20
-6.29362749516855
 30
0.0
 11
-67.75689271453518
 21
-6.29362749516855
 31
0.0
  0
LINE
  5
294
330
A0
100
AcDbEntity
  8
1
  6
Continuous
 62
     2
100
AcDbLine
 10
-67.75689271453518
 20
-6.29362749516855
 30
0.0
 11
-67.75689271453518
 21
-1.29362749516844
 31
0.0
  0
LINE
  5
295
330
A0
100
AcDbEntity
  8
1
  6
Continuous
 62
     2
100
AcDbLine
 10
-67.75689271453518
 20
-6.29362749516855
 30
0.0
 11
-17.75689271453521
 21
-6.29362749516855
 31
0.0
  0
LINE
  5
296
330
A0
100
AcDbEntity
  8
1
  6
Continuous
 62
     2
100
AcDbLine
 10
-17.75689271453521
 20
-6.29362749516855
 30
0.0
 11
-17.75689271453521
 21
-1.29362749516844
 31
0.0
  0
LINE
  5
297
330
A0
100
AcDbEntity
  8
1
  6
Continuous
 62
     2
100
AcDbLine
 10
32.24310728546479
 20
-6.29362749516855
 30
0.0
 11
32.24310728546479
 21
-1.29362749516844
 31
0.0
  0
LINE
  5
298
330
A0
100
AcDbEntity
  8
1
  6
Continuous
 62
     2
100
AcDbLine
 10
32.24310728546479
 20
-6.29362749516855
 30
0.0
 11
-17.75689271453521
 21
-6.29362749516855
 31
0.0
  0
LINE
  5
299
330
A0
100
AcDbEntity
  8
1
  6
Continuous
 62
     2
100
AcDbLine
 10
-211.2568927145333
 20
-1.29362749516844
 30
0.0
 11
-211.2568927145333
 21
-6.29362749516855
 31
0.0
  0
LINE
  5
29A
330
A0
100
AcDbEntity
  8
1
  6
Continuous
 62
     2
100
AcDbLine
 10
-211.2568927145333
 20
-6.29362749516855
 30
0.0
 11
-167.7568927145352
 21
-6.29362749516855
 31
0.0
  0
LINE
  5
29B
330
A0
100
AcDbEntity
  8
1
  6
Continuous
 62
     2
100
AcDbLine
 10
-211.2568927145333
 20
-1.29362749516844
 30
0.0
 11
-216.2568927145343
 21
-1.29362749516844
 31
0.0
  0
LINE
  5
29C
330
A0
100
AcDbEntity
  8
1
  6
Continuous
 62
     2
100
AcDbLine
 10
-216.2568927145343
 20
-1.29362749516844
 30
0.0
 11
-216.2568927145343
 21
-6.29362749516855
 31
0.0
  0
LINE
  5
29D
330
A0
100
AcDbEntity
  8
1
  6
Continuous
 62
     6
100
AcDbLine
 10
75.7431072854648
 20
-1.29362749516844
 30
0.0
 11
75.7431072854661
 21
7.20637250483156
 31
0.0
  0
LINE
  5
29E
330
A0
100
AcDbEntity
  8
1
  6
Continuous
 62
     6
100
AcDbLine
 10
-17.40169724128529
 20
-1.29362749516855
 30
0.0
 11
32.24310728546479
 21
-1.29362749516844
 31
0.0
  0
LINE
  5
29F
330
A0
100
AcDbEntity
  8
1
  6
Continuous
 62
     6
100
AcDbLine
 10
-170.0568927145354
 20
-1.29362749516855
 30
0.0
 11
-167.7568927145352
 21
-1.29362749516844
 31
0.0
  0
LINE
  5
2A0
330
A0
100
AcDbEntity
  8
1
  6
Continuous
 62
     6
100
AcDbLine
 10
-67.75689271453518
 20
-1.29362749516844
 30
0.0
 11
-117.7568927145354
 21
-1.29362749516844
 31
0.0
  0
LINE
  5
2A1
330
A0
100
AcDbEntity
  8
1
  6
Continuous
 62
     7
100
AcDbLine
 10
-53.80169724128521
 20
15.70637250483156
 30
0.0
 11
-53.80169724128521
 21
2.95637250483145
 31
0.0
  0
LINE
  5
2A2
330
A0
100
AcDbEntity
  8
1
  6
Continuous
 62
     7
100
AcDbLine
 10
-17.40169724128529
 20
15.70637250483156
 30
0.0
 11
-17.40169724128529
 21
2.95637250483156
 31
0.0
  0
LINE
  5
2A3
330
A0
100
AcDbEntity
  8
1
  6
Continuous
 62
     6
100
AcDbLine
 10
-170.0568927145354
 20
-1.29362749516855
 30
0.0
 11
-176.2568927145334
 21
-1.29362749516844
 31
0.0
  0
LINE
  5
2A4
330
A0
100
AcDbEntity
  8
1
  6
Continuous
 62
     6
100
AcDbLine
 10
-17.40169724128529
 20
-1.29362749516855
 30
0.0
 11
-17.75689271453521
 21
-1.29362749516844
 31
0.0
  0
LINE
  5
2A5
330
A0
100
AcDbEntity
  8
1
  6
Continuous
 62
     6
100
AcDbLine
 10
75.7431072854665
 20
15.70637250483156
 30
0.0
 11
75.7431072854661
 21
7.20637250483156
 31
0.0
  0
LINE
  5
2A6
330
A0
100
AcDbEntity
  8
1
  6
Continuous
 62
     6
100
AcDbLine
 10
-176.2568927145334
 20
-1.29362749516844
 30
0.0
 11
-211.2568927145333
 21
-1.29362749516844
 31
0.0
  0
LINE
  5
2A7
330
A0
100
AcDbEntity
  8
1
  6
Continuous
 62
     2
100
AcDbLine
 10
-49.56504235472261
 20
21.08137250483148
 30
0.0
 11
-44.56504235472261
 21
22.33137250483148
 31
0.0
  0
LINE
  5
2A8
330
A0
100
AcDbEntity
  8
1
  6
Continuous
 62
     2
100
AcDbLine
 10
-49.56504235472261
 20
18.58137250483148
 30
0.0
 11
-49.56504235472261
 21
21.08137250483148
 31
0.0
  0
LINE
  5
2A9
330
A0
100
AcDbEntity
  8
1
  6
Continuous
 62
     2
100
AcDbLine
 10
-44.56504235472261
 20
17.33137250483148
 30
0.0
 11
-49.56504235472261
 21
18.58137250483148
 31
0.0
  0
LINE
  5
2AA
330
A0
100
AcDbEntity
  8
1
  6
Continuous
 62
     2
100
AcDbLine
 10
-44.56504235472261
 20
22.33137250483148
 30
0.0
 11
-44.56504235472261
 21
17.33137250483148
 31
0.0
  0
LINE
  5
2AB
330
A0
100
AcDbEntity
  8
1
  6
Continuous
 62
     7
100
AcDbLine
 10
-53.80169724128521
 20
2.95637250483145
 30
0.0
 11
-35.60169724128519
 21
2.95637250483156
 31
0.0
  0
LINE
  5
2AC
330
A0
100
AcDbEntity
  8
1
  6
Continuous
 62
     7
100
AcDbLine
 10
-53.80169724128521
 20
2.95637250483145
 30
0.0
 11
-53.80169724128521
 21
-1.29362749516855
 31
0.0
  0
LINE
  5
2AD
330
A0
100
AcDbEntity
  8
1
  6
Continuous
 62
     7
100
AcDbLine
 10
-17.40169724128529
 20
2.95637250483156
 30
0.0
 11
-17.40169724128529
 21
-1.29362749516855
 31
0.0
  0
LINE
  5
2AE
330
A0
100
AcDbEntity
  8
1
  6
Continuous
 62
     7
100
AcDbLine
 10
-35.60169724128519
 20
2.95637250483156
 30
0.0
 11
-35.60169724128519
 21
-1.29362749516844
 31
0.0
  0
LINE
  5
2AF
330
A0
100
AcDbEntity
  8
1
  6
Continuous
 62
     6
100
AcDbLine
 10
-35.60169724128519
 20
-1.29362749516844
 30
0.0
 11
-53.80169724128521
 21
-1.29362749516855
 31
0.0
  0
LINE
  5
2B0
330
A0
100
AcDbEntity
  8
1
  6
Continuous
 62
     7
100
AcDbLine
 10
-35.60169724128519
 20
2.95637250483156
 30
0.0
 11
-17.40169724128529
 21
2.95637250483156
 31
0.0
  0
LINE
  5
2B1
330
A0
100
AcDbEntity
  8
1
  6
Continuous
 62
     6
100
AcDbLine
 10
-53.80169724128521
 20
24.20637250483156
 30
0.0
 11
75.7431072854665
 21
24.20637250483156
 31
0.0
  0
ARC
  5
2B2
102
{ACAD_REACTORS
330
31A
330
31B
102
}
330
A0
100
AcDbEntity
  8
0
  6
Continuous
 62
     2
100
AcDbCircle
 10
-38.41004924232522
 20
7.52677726675316
 30
0.0
 40
0.7717997786796947
100
AcDbArc
 50
321.8795802028417
 51
38.12041979715329
  0
ARC
  5
2B3
102
{ACAD_REACTORS
330
31A
330
31B
102
}
330
A0
100
AcDbEntity
  8
0
  6
Continuous
 62
     2
100
AcDbCircle
 10
-38.2103092059788
 20
7.37004608863316
 30
0.0
 40
0.5179085730137298
100
AcDbArc
 50
218.1204197971936
 51
321.8795802028005
  0
ARC
  5
2B4
102
{ACAD_REACTORS
330
31A
330
31B
102
}
330
A0
100
AcDbEntity
  8
0
  6
Continuous
 62
     2
100
AcDbCircle
 10
-38.0105691696327
 20
7.52677726675316
 30
0.0
 40
0.7717997786794577
100
AcDbArc
 50
141.879580202836
 51
218.120419797169
  0
ARC
  5
2B5
102
{ACAD_REACTORS
330
31A
330
31B
102
}
330
A0
100
AcDbEntity
  8
0
  6
Continuous
 62
     2
100
AcDbCircle
 10
-38.2103092059788
 20
7.68350844487367
 30
0.0
 40
0.5179085730132943
100
AcDbArc
 50
38.12041979714752
 51
141.8795802028583
  0
ARC
  5
2B6
102
{ACAD_REACTORS
330
312
330
313
102
}
330
A0
100
AcDbEntity
  8
0
  6
Continuous
 62
     2
100
AcDbCircle
 10
-41.27232334154269
 20
6.11631090134497
 30
0.0
 40
2.227384008973478
100
AcDbArc
 50
58.06909105004071
 51
71.55192388186705
  0
ARC
  5
2B7
102
{ACAD_REACTORS
330
312
330
313
102
}
330
A0
100
AcDbEntity
  8
0
  6
Continuous
 62
     2
100
AcDbCircle
 10
-41.01059564058392
 20
7.73184869609216
 30
0.0
 40
0.5115800601948742
100
AcDbArc
 50
113.3722778881985
 51
151.4785267423038
  0
ARC
  5
2B8
102
{ACAD_REACTORS
330
312
330
313
102
}
330
A0
100
AcDbEntity
  8
0
  6
Continuous
 62
     2
100
AcDbCircle
 10
-40.63323838250361
 20
7.52677726675316
 30
0.0
 40
0.941059735333242
100
AcDbArc
 50
151.4785267422665
 51
208.5214732577062
  0
ARC
  5
2B9
102
{ACAD_REACTORS
330
312
330
313
102
}
330
A0
100
AcDbEntity
  8
0
  6
Continuous
 62
     2
100
AcDbCircle
 10
-41.43019621663561
 20
10.83945821200956
 30
0.0
 40
4.852596863498138
100
AcDbArc
 50
275.1581447696248
 51
285.9799912583529
  0
ARC
  5
2BA
102
{ACAD_REACTORS
330
312
330
313
102
}
330
A0
100
AcDbEntity
  8
0
  6
Continuous
 62
     2
100
AcDbCircle
 10
-41.1413401218997
 20
7.63956762878797
 30
0.0
 40
1.639695123939387
100
AcDbArc
 50
195.0618917770896
 51
275.1581447696393
  0
ARC
  5
2BB
102
{ACAD_REACTORS
330
312
330
313
102
}
330
A0
100
AcDbEntity
  8
0
  6
Continuous
 62
     2
100
AcDbCircle
 10
-41.56046796536251
 20
7.52677726675316
 30
0.0
 40
1.205656168390937
100
AcDbArc
 50
164.9381082228763
 51
195.0618917770949
  0
ARC
  5
2BC
102
{ACAD_REACTORS
330
312
330
313
102
}
330
A0
100
AcDbEntity
  8
0
  6
Continuous
 62
     2
100
AcDbCircle
 10
-41.1413401218997
 20
7.41398690471826
 30
0.0
 40
1.639695123940506
100
AcDbArc
 50
84.84185523036261
 51
164.9381082228864
  0
ARC
  5
2BD
102
{ACAD_REACTORS
330
316
330
317
102
}
330
A0
100
AcDbEntity
  8
0
  6
Continuous
 62
     2
100
AcDbCircle
 10
-45.97135437606161
 20
8.56060406110745
 30
0.0
 40
0.3157169230765328
100
AcDbArc
 50
115.3740086783519
 51
180.0
  0
ARC
  5
2BE
102
{ACAD_REACTORS
330
316
330
317
102
}
330
A0
100
AcDbEntity
  8
0
  6
Continuous
 62
     2
100
AcDbCircle
 10
-45.97135437606161
 20
10.77888726104368
 30
0.0
 40
0.3157169230767849
100
AcDbArc
 50
180.0
 51
244.6259913216483
  0
ARC
  5
2BF
102
{ACAD_REACTORS
330
316
330
317
102
}
330
A0
100
AcDbEntity
  8
0
  6
Continuous
 62
     2
100
AcDbCircle
 10
-45.96573824075159
 20
9.68158760198136
 30
0.0
 40
2.018561131933266
100
AcDbArc
 50
269.8110329575858
 51
90.18896704241416
  0
ARC
  5
2C0
102
{ACAD_REACTORS
330
316
330
317
102
}
330
A0
100
AcDbEntity
  8
0
  6
Continuous
 62
     2
100
AcDbCircle
 10
-45.97135437606161
 20
7.97875265441238
 30
0.0
 40
0.3157169230767849
100
AcDbArc
 50
180.0
 51
269.8110329574542
  0
ARC
  5
2C1
102
{ACAD_REACTORS
330
314
330
315
102
}
330
A0
100
AcDbEntity
  8
0
  6
Continuous
 62
     2
100
AcDbCircle
 10
-24.907894161331
 20
7.73184869609216
 30
0.0
 40
0.5115800601944146
100
AcDbArc
 50
109.3371432194857
 51
151.4785267424226
  0
ARC
  5
2C2
102
{ACAD_REACTORS
330
314
330
315
102
}
330
A0
100
AcDbEntity
  8
0
  6
Continuous
 62
     2
100
AcDbCircle
 10
-24.907894161331
 20
7.32170583741467
 30
0.0
 40
0.5115800601960243
100
AcDbArc
 50
208.5214732576863
 51
246.6277221118453
  0
ARC
  5
2C3
102
{ACAD_REACTORS
330
314
330
315
102
}
330
A0
100
AcDbEntity
  8
0
  6
Continuous
 62
     2
100
AcDbCircle
 10
-25.4577664861084
 20
7.52677726675316
 30
0.0
 40
1.205656168392999
100
AcDbArc
 50
164.9381082229027
 51
195.061891777096
  0
ARC
  5
2C4
102
{ACAD_REACTORS
330
314
330
315
102
}
330
A0
100
AcDbEntity
  8
0
  6
Continuous
 62
     2
100
AcDbCircle
 10
-25.03863864264679
 20
7.41398690471826
 30
0.0
 40
1.639695123940214
100
AcDbArc
 50
90.0
 51
164.9381082228949
  0
ARC
  5
2C5
102
{ACAD_REACTORS
330
318
330
319
102
}
330
A0
100
AcDbEntity
  8
0
  6
Continuous
 62
     2
100
AcDbCircle
 10
-34.46563373535051
 20
10.88596774292748
 30
0.0
 40
1.526904761905879
100
AcDbArc
 50
90.0
 51
270.0
  0
ARC
  5
2C6
102
{ACAD_REACTORS
330
31C
330
31D
102
}
330
A0
100
AcDbEntity
  8
0
  6
Continuous
 62
     2
100
AcDbCircle
 10
-41.20832448057629
 20
11.39690283472217
 30
0.0
 40
0.35286382467112
100
AcDbArc
 50
270.0
 51
90.0
  0
ARC
  5
2C7
102
{ACAD_REACTORS
330
316
330
317
102
}
330
A0
100
AcDbEntity
  8
0
  6
Continuous
 62
     2
100
AcDbCircle
 10
-48.54690306259332
 20
11.38460002619857
 30
0.0
 40
0.3157169230762005
100
AcDbArc
 50
90.0
 51
180.0
  0
ARC
  5
2C8
102
{ACAD_REACTORS
330
316
330
317
102
}
330
A0
100
AcDbEntity
  8
0
  6
Continuous
 62
     2
100
AcDbCircle
 10
-46.5484853540087
 20
9.66974566107586
 30
0.0
 40
0.9118975235576192
100
AcDbArc
 50
115.1944106485286
 51
244.8055893514874
  0
ARC
  5
2C9
102
{ACAD_REACTORS
330
316
330
317
102
}
330
A0
100
AcDbEntity
  8
0
  6
Continuous
 62
     2
100
AcDbCircle
 10
-47.07106980158369
 20
8.55891591501307
 30
0.0
 40
0.315716923076593
100
AcDbArc
 50
0.0
 51
64.80558935146027
  0
ARC
  5
2CA
102
{ACAD_REACTORS
330
316
330
317
102
}
330
A0
100
AcDbEntity
  8
0
  6
Continuous
 62
     2
100
AcDbCircle
 10
-49.1407977393398
 20
6.42411712023116
 30
0.0
 40
0.4242446153828041
100
AcDbArc
 50
180.0
 51
270.0
  0
ARC
  5
2CB
102
{ACAD_REACTORS
330
318
330
319
102
}
330
A0
100
AcDbEntity
  8
0
  6
Continuous
 62
     2
100
AcDbCircle
 10
-34.24936172518531
 20
11.04269892104796
 30
0.0
 40
0.5179085730135332
100
AcDbArc
 50
38.12041979714301
 51
141.8795802028488
  0
ARC
  5
2CC
102
{ACAD_REACTORS
330
318
330
319
102
}
330
A0
100
AcDbEntity
  8
0
  6
Continuous
 62
     2
100
AcDbCircle
 10
-34.04962168883901
 20
10.88596774292748
 30
0.0
 40
0.7717997786796724
100
AcDbArc
 50
141.8795802028404
 51
218.1204197971566
  0
ARC
  5
2CD
102
{ACAD_REACTORS
330
31A
330
31B
102
}
330
A0
100
AcDbEntity
  8
0
  6
Continuous
 62
     2
100
AcDbCircle
 10
-38.2103092059788
 20
8.06535227705646
 30
0.0
 40
2.065479772208509
100
AcDbArc
 50
242.4518518243402
 51
297.5481481756871
  0
ARC
  5
2CE
102
{ACAD_REACTORS
330
31A
330
31B
102
}
330
A0
100
AcDbEntity
  8
0
  6
Continuous
 62
     2
100
AcDbCircle
 10
-38.2103092059788
 20
6.98820225645036
 30
0.0
 40
2.065479772208568
100
AcDbArc
 50
62.45185182430637
 51
117.5481481756664
  0
ARC
  5
2CF
102
{ACAD_REACTORS
330
31A
330
31B
102
}
330
A0
100
AcDbEntity
  8
0
  6
Continuous
 62
     2
100
AcDbCircle
 10
-38.4912490978121
 20
7.52677726675316
 30
0.0
 40
1.45803408365149
100
AcDbArc
 50
117.5481481756624
 51
242.4518518243375
  0
ARC
  5
2D0
102
{ACAD_REACTORS
330
31A
330
31B
102
}
330
A0
100
AcDbEntity
  8
0
  6
Continuous
 62
     2
100
AcDbCircle
 10
-37.9293693141455
 20
7.52677726675316
 30
0.0
 40
1.458034083651999
100
AcDbArc
 50
297.5481481757009
 51
62.4518518242992
  0
ARC
  5
2D1
102
{ACAD_REACTORS
330
318
330
319
102
}
330
A0
100
AcDbEntity
  8
0
  6
Continuous
 62
     2
100
AcDbCircle
 10
-34.24936172518531
 20
10.72923656480705
 30
0.0
 40
0.5179085730134372
100
AcDbArc
 50
218.1204197971511
 51
321.8795802028571
  0
ARC
  5
2D2
102
{ACAD_REACTORS
330
318
330
319
102
}
330
A0
100
AcDbEntity
  8
0
  6
Continuous
 62
     2
100
AcDbCircle
 10
-34.4491017615315
 20
10.88596774292748
 30
0.0
 40
0.7717997786796529
100
AcDbArc
 50
321.879580202844
 51
38.12041979715892
  0
ARC
  5
2D3
102
{ACAD_REACTORS
330
316
330
317
102
}
330
A0
100
AcDbEntity
  8
0
  6
Continuous
 62
     2
100
AcDbCircle
 10
-43.667485648623
 20
6.42411712023116
 30
0.0
 40
0.4242446153832873
100
AcDbArc
 50
270.0
 51
0.0
  0
ARC
  5
2D4
102
{ACAD_REACTORS
330
316
330
317
102
}
330
A0
100
AcDbEntity
  8
0
  6
Continuous
 62
     2
100
AcDbCircle
 10
-43.667485648623
 20
11.98862788943137
 30
0.0
 40
0.424244615383877
100
AcDbArc
 50
0.0
 51
90.0
  0
ARC
  5
2D5
102
{ACAD_REACTORS
330
316
330
317
102
}
330
A0
100
AcDbEntity
  8
0
  6
Continuous
 62
     2
100
AcDbCircle
 10
-49.1407977393398
 20
11.98862788943137
 30
0.0
 40
0.4242446153837989
100
AcDbArc
 50
90.0
 51
180.0
  0
ARC
  5
2D6
102
{ACAD_REACTORS
330
316
330
317
102
}
330
A0
100
AcDbEntity
  8
0
  6
Continuous
 62
     2
100
AcDbCircle
 10
-47.07106980158369
 20
7.02814498348147
 30
0.0
 40
0.3157169230767067
100
AcDbArc
 50
270.0
 51
0.0
  0
ARC
  5
2D7
102
{ACAD_REACTORS
330
316
330
317
102
}
330
A0
100
AcDbEntity
  8
0
  6
Continuous
 62
     2
100
AcDbCircle
 10
-47.07106980158369
 20
10.78057540713806
 30
0.0
 40
0.3157169230761203
100
AcDbArc
 50
295.1944106485397
 51
0.0
  0
ARC
  5
2D8
102
{ACAD_REACTORS
330
316
330
317
102
}
330
A0
100
AcDbEntity
  8
0
  6
Continuous
 62
     2
100
AcDbCircle
 10
-47.07106980158369
 20
11.38460002619857
 30
0.0
 40
0.315716923076593
100
AcDbArc
 50
0.0
 51
90.0
  0
ARC
  5
2D9
102
{ACAD_REACTORS
330
316
330
317
102
}
330
A0
100
AcDbEntity
  8
0
  6
Continuous
 62
     2
100
AcDbCircle
 10
-48.54690306259332
 20
7.02814498348147
 30
0.0
 40
0.3157169230756764
100
AcDbArc
 50
180.0
 51
270.0
  0
ARC
  5
2DA
102
{ACAD_REACTORS
330
31C
330
31D
102
}
330
A0
100
AcDbEntity
  8
0
  6
Continuous
 62
     2
100
AcDbCircle
 10
-40.76685195433791
 20
11.35750686349968
 30
0.0
 40
1.05536564133371
100
AcDbArc
 50
270.0
 51
90.0
  0
ARC
  5
2DB
102
{ACAD_REACTORS
330
314
330
315
102
}
330
A0
100
AcDbEntity
  8
0
  6
Continuous
 62
     2
100
AcDbCircle
 10
-25.03863864264679
 20
7.63956762878797
 30
0.0
 40
1.639695123940445
100
AcDbArc
 50
195.0618917771012
 51
275.1581447696765
  0
ARC
  5
2DC
102
{ACAD_REACTORS
330
314
330
315
102
}
330
A0
100
AcDbEntity
  8
0
  6
Continuous
 62
     2
100
AcDbCircle
 10
-25.32749473738261
 20
10.83945821200956
 30
0.0
 40
4.852596863498825
100
AcDbArc
 50
275.1581447696364
 51
285.9799912583387
  0
ARC
  5
2DD
102
{ACAD_REACTORS
330
314
330
315
102
}
330
A0
100
AcDbEntity
  8
0
  6
Continuous
 62
     2
100
AcDbCircle
 10
-25.1696218622898
 20
8.93724363216126
 30
0.0
 40
2.227384008972746
100
AcDbArc
 50
288.4480761181335
 51
301.9309089499396
  0
ARC
  5
2DE
102
{ACAD_REACTORS
330
314
330
315
102
}
330
A0
100
AcDbEntity
  8
0
  6
Continuous
 62
     2
100
AcDbCircle
 10
-24.7514541286279
 20
7.68369785612467
 30
0.0
 40
0.9059297849852787
100
AcDbArc
 50
246.6277221118185
 51
288.4480761180817
  0
ARC
  5
2DF
102
{ACAD_REACTORS
330
314
330
315
102
}
330
A0
100
AcDbEntity
  8
0
  6
Continuous
 62
     2
100
AcDbCircle
 10
-24.53053690324961
 20
7.52677726675316
 30
0.0
 40
0.941059735334896
100
AcDbArc
 50
151.4785267423625
 51
208.5214732576694
  0
ARC
  5
2E0
102
{ACAD_REACTORS
330
314
330
315
102
}
330
A0
100
AcDbEntity
  8
0
  6
Continuous
 62
     2
100
AcDbCircle
 10
-24.7612241632273
 20
7.31389371570927
 30
0.0
 40
0.9545230068260935
100
AcDbArc
 50
90.0
 51
109.337143219432
  0
ARC
  5
2E1
102
{ACAD_REACTORS
330
316
330
317
102
}
330
A0
100
AcDbEntity
  8
0
  6
Continuous
 62
     2
100
AcDbCircle
 10
-45.97135437606161
 20
11.38442254955047
 30
0.0
 40
0.315716923076064
100
AcDbArc
 50
90.18896704254594
 51
180.0
  0
ARC
  5
2E2
102
{ACAD_REACTORS
330
316
330
317
102
}
330
A0
100
AcDbEntity
  8
0
  6
Continuous
 62
     2
100
AcDbCircle
 10
-46.49739707414949
 20
9.66974566107586
 30
0.0
 40
0.911848150144459
100
AcDbArc
 50
295.3740086781764
 51
64.62599132180748
  0
ARC
  5
2E3
102
{ACAD_REACTORS
330
312
330
313
102
}
330
A0
100
AcDbEntity
  8
0
  6
Continuous
 62
     2
100
AcDbCircle
 10
-41.27232334154269
 20
8.93724363216185
 30
0.0
 40
2.227384008972739
100
AcDbArc
 50
288.448076118133
 51
301.9309089499593
  0
ARC
  5
2E4
102
{ACAD_REACTORS
330
312
330
313
102
}
330
A0
100
AcDbEntity
  8
0
  6
Continuous
 62
     2
100
AcDbCircle
 10
-40.85415560788189
 20
7.68369785612467
 30
0.0
 40
0.9059297849849192
100
AcDbArc
 50
246.627722111871
 51
288.4480761181589
  0
ARC
  5
2E5
102
{ACAD_REACTORS
330
312
330
313
102
}
330
A0
100
AcDbEntity
  8
0
  6
Continuous
 62
     2
100
AcDbCircle
 10
-41.01059564058392
 20
7.32170583741467
 30
0.0
 40
0.511580060194791
100
AcDbArc
 50
208.5214732576963
 51
246.6277221118281
  0
ARC
  5
2E6
102
{ACAD_REACTORS
330
312
330
313
102
}
330
A0
100
AcDbEntity
  8
0
  6
Continuous
 62
     2
100
AcDbCircle
 10
-40.85415560788189
 20
7.36985667738156
 30
0.0
 40
0.9059297849853251
100
AcDbArc
 50
71.55192388185306
 51
113.372277888129
  0
ARC
  5
2E7
102
{ACAD_REACTORS
330
312
330
313
102
}
330
A0
100
AcDbEntity
  8
0
  6
Continuous
 62
     2
100
AcDbCircle
 10
-41.43019621663561
 20
4.21409632149727
 30
0.0
 40
4.852596863498068
100
AcDbArc
 50
74.02000874164739
 51
84.84185523037515
  0
CIRCLE
  5
2E8
102
{ACAD_REACTORS
330
316
330
317
102
}
330
A0
100
AcDbEntity
  8
0
  6
Continuous
 62
     2
100
AcDbCircle
 10
-46.5212120888223
 20
9.66974566107586
 30
0.0
 40
0.4709789327785145
  0
CIRCLE
  5
2E9
330
A0
100
AcDbEntity
  8
1
  6
Continuous
 62
     2
100
AcDbCircle
 10
-41.06504235472261
 20
19.83137250483148
 30
0.0
 40
1.249999999999915
  0
CIRCLE
  5
2EA
330
A0
100
AcDbEntity
  8
1
  6
Continuous
 62
     2
100
AcDbCircle
 10
-41.06504235472261
 20
19.83137250483148
 30
0.0
 40
2.5
  0
TEXT
  5
2EB
330
A0
100
AcDbEntity
  8
1
 62
     7
100
AcDbText
 10
1.57185048072858
 20
17.00637250483146
 30
0.0
 40
2.5
  1
/
 41
0.9
  7
CONVERTER_11
100
AcDbText
  0
TEXT
  5
2ED
330
A0
100
AcDbEntity
  8
1
 62
     7
100
AcDbText
 10
3.72821497777059
 20
17.00637250483146
 30
0.0
 40
2.5
  1
02
 41
0.81
  7
CONVERTER_12
100
AcDbText
  0
TEXT
  5
2EE
330
A0
100
AcDbEntity
  8
1
 62
     3
100
AcDbText
 10
41.32469900378769
 20
17.00637250483146
 30
0.0
 40
2.5
  1
01.04.2021
 41
0.81
  7
CONVERTER_12
100
AcDbText
  0
MTEXT
  5
2EF
330
A0
100
AcDbEntity
  8
1
 62
     2
100
AcDbMText
 10
41.32469900378769
 20
23.20637250483148
 30
0.0
 40
1.8
 41
0.0
 71
     1
 72
     1
  1
date
  7
CONVERTER_11
 73
     1
 44
1.32052821128451
  0
MTEXT
  5
2F0
330
A0
100
AcDbEntity
  8
1
 62
     2
100
AcDbMText
 10
11.4983027587148
 20
14.70637250483148
 30
0.0
 40
1.8
 41
0.0
 71
     1
 72
     1
  1
document-type
  7
CONVERTER_11
 73
     1
 44
1.20048019207683
  0
TEXT
  5
2F1
330
A0
100
AcDbEntity
  8
1
 62
     3
100
AcDbText
 10
11.4983027587148
 20
8.50637250483146
 30
0.0
 40
2.5
  1
TECDOC 2D_Productdrawing
 41
0.81
  7
CONVERTER_12
100
AcDbText
  0
MTEXT
  5
2F3
330
A0
100
AcDbEntity
  8
1
 62
     2
100
AcDbMText
 10
-16.30169724128521
 20
23.20637250483156
 30
0.0
 40
1.8
 41
0.0
 71
     1
 72
     1
  1
document-No. / RI
  7
CONVERTER_13
 73
     1
 44
1.32052821128451
  0
TEXT
  5
2F4
330
A0
100
AcDbEntity
  8
1
 62
     7
100
AcDbText
 10
-16.30169724128521
 20
17.00637250483146
 30
0.0
 40
2.5
  1
00649770
 41
0.81
  7
CONVERTER_12
100
AcDbText
  0
MTEXT
  5
2F6
330
A0
100
AcDbEntity
  8
1
 62
     3
100
AcDbMText
 10
71.2839031446271
 20
17.00637250483166
 30
0.0
 40
2.5
 41
0.0
 71
     8
 72
     1
  1
1:1
  7
CONVERTER_14
 73
     1
 44
1.32052821128451
  0
MTEXT
  5
2F7
330
A0
100
AcDbEntity
  8
1
 62
     2
100
AcDbMText
 10
67.92469900378751
 20
23.20637250483156
 30
0.0
 40
1.8
 41
0.0
 71
     1
 72
     1
  1
scale
  7
CONVERTER_11
 73
     1
 44
1.20048019207683
  0
MTEXT
  5
2F8
330
A0
100
AcDbEntity
  8
1
 62
     2
100
AcDbMText
 10
-16.30169724128521
 20
14.70637250483156
 30
0.0
 40
1.8
 41
0.0
 71
     1
 72
     1
  1
ident.-No.
  7
CONVERTER_11
 73
     1
 44
1.20048019207683
  0
TEXT
  5
2F9
330
A0
100
AcDbEntity
  8
1
 62
     7
100
AcDbText
 10
-15.90169724128549
 20
8.50637250483146
 30
0.0
 40
2.5
  1
0801620
 41
0.81
  7
CONVERTER_12
100
AcDbText
  0
MTEXT
  5
2FA
330
A0
100
AcDbEntity
  8
1
 62
     2
100
AcDbMText
 10
-88.23971196633272
 20
11.45637250483148
 30
0.0
 40
2.0
 41
0.0
 71
     5
 72
     1
  1
General Information\P- Simplified representation\P- Document excluded from change process\P- Linear dimensions [mm]
  7
CONVERTER_11
 73
     1
 44
1.20048019207683
  0
MTEXT
  5
2FB
330
A0
100
AcDbEntity
  8
1
 62
     7
100
AcDbMText
 10
78.2431072854638
 20
73.70637250483347
 30
0.0
 40
3.5
 41
0.0
 71
     5
 72
     1
  1
C
  7
CONVERTER_11
 73
     1
 44
1.20048019207683
  0
MTEXT
  5
2FC
330
A0
100
AcDbEntity
  8
1
 62
     7
100
AcDbMText
 10
78.2431072854638
 20
176.2063725048316
 30
0.0
 40
3.5
 41
0.0
 71
     5
 72
     1
  1
A
  7
CONVERTER_11
 73
     1
 44
1.20048019207683
  0
MTEXT
  5
2FD
330
A0
100
AcDbEntity
  8
1
 62
     7
100
AcDbMText
 10
78.2431072854638
 20
123.7063725048335
 30
0.0
 40
3.5
 41
0.0
 71
     5
 72
     1
  1
B
  7
CONVERTER_11
 73
     1
 44
1.20048019207683
  0
MTEXT
  5
2FE
330
A0
100
AcDbEntity
  8
1
 62
     7
100
AcDbMText
 10
78.2431072854638
 20
21.20637250483156
 30
0.0
 40
3.5
 41
0.0
 71
     5
 72
     1
  1
D
  7
CONVERTER_11
 73
     1
 44
1.20048019207683
  0
MTEXT
  5
2FF
330
A0
100
AcDbEntity
  8
1
 62
     7
100
AcDbMText
 10
-192.0068927145348
 20
-3.79362749516855
 30
0.0
 40
3.5
 41
0.0
 71
     5
 72
     1
  1
1
  7
CONVERTER_11
 73
     1
 44
1.20048019207683
  0
MTEXT
  5
300
330
A0
100
AcDbEntity
  8
1
 62
     7
100
AcDbMText
 10
-142.7568927145352
 20
-3.79362749516855
 30
0.0
 40
3.5
 41
0.0
 71
     5
 72
     1
  1
2
  7
CONVERTER_11
 73
     1
 44
1.20048019207683
  0
MTEXT
  5
301
330
A0
100
AcDbEntity
  8
1
 62
     7
100
AcDbMText
 10
-92.75689271453518
 20
-3.79362749516855
 30
0.0
 40
3.5
 41
0.0
 71
     5
 72
     1
  1
3
  7
CONVERTER_11
 73
     1
 44
1.20048019207683
  0
MTEXT
  5
302
330
A0
100
AcDbEntity
  8
1
 62
     7
100
AcDbMText
 10
-42.7568927145353
 20
-3.79362749516855
 30
0.0
 40
3.5
 41
0.0
 71
     5
 72
     1
  1
4
  7
CONVERTER_11
 73
     1
 44
1.20048019207683
  0
MTEXT
  5
303
330
A0
100
AcDbEntity
  8
1
 62
     7
100
AcDbMText
 10
7.24310728546479
 20
-3.79362749516855
 30
0.0
 40
3.5
 41
0.0
 71
     5
 72
     1
  1
5
  7
CONVERTER_11
 73
     1
 44
1.20048019207683
  0
MTEXT
  5
304
330
A0
100
AcDbEntity
  8
1
 62
     7
100
AcDbMText
 10
56.49310728546399
 20
-3.79362749516855
 30
0.0
 40
3.5
 41
0.0
 71
     5
 72
     1
  1
6
  7
CONVERTER_11
 73
     1
 44
1.20048019207683
  0
MTEXT
  5
305
330
A0
100
AcDbEntity
  8
1
 62
     7
100
AcDbMText
 10
-213.7568927145343
 20
176.2063725048316
 30
0.0
 40
3.5
 41
0.0
 71
     5
 72
     1
  1
A
  7
CONVERTER_11
 73
     1
 44
1.20048019207683
  0
MTEXT
  5
306
330
A0
100
AcDbEntity
  8
1
 62
     7
100
AcDbMText
 10
-213.7568927145343
 20
123.7063725048316
 30
0.0
 40
3.5
 41
0.0
 71
     5
 72
     1
  1
B
  7
CONVERTER_11
 73
     1
 44
1.20048019207683
  0
MTEXT
  5
307
330
A0
100
AcDbEntity
  8
1
 62
     7
100
AcDbMText
 10
-213.7568927145343
 20
73.70637250483156
 30
0.0
 40
3.5
 41
0.0
 71
     5
 72
     1
  1
C
  7
CONVERTER_11
 73
     1
 44
1.20048019207683
  0
MTEXT
  5
308
330
A0
100
AcDbEntity
  8
1
 62
     7
100
AcDbMText
 10
-213.7568927145343
 20
21.20637250483156
 30
0.0
 40
3.5
 41
0.0
 71
     5
 72
     1
  1
D
  7
CONVERTER_11
 73
     1
 44
1.20048019207683
  0
MTEXT
  5
309
330
A0
100
AcDbEntity
  8
1
 62
     3
100
AcDbMText
 10
-27.60169724128531
 20
19.83137250483156
 30
0.0
 40
2.5
 41
0.0
 71
     5
 72
     1
  1
DIN A4
  7
CONVERTER_11
 73
     1
 44
1.20048019207683
  0
MTEXT
  5
30A
330
A0
100
AcDbEntity
  8
1
 62
     2
100
AcDbMText
 10
-16.40169724128529
 20
6.20637250483156
 30
0.0
 40
1.8
 41
0.0
 71
     1
 72
     1
  1
description
  7
CONVERTER_11
 73
     1
 44
1.20048019207683
  0
MTEXT
  5
30B
330
A0
100
AcDbEntity
  8
1
 62
     7
100
AcDbMText
 10
29.17070502209029
 20
1.95637250483179
 30
0.0
 40
3.0
 41
0.0
 71
     5
 72
     1
  1
CES-SRG-BK-10
  7
CONVERTER_12
 73
     1
 44
1.20048019207683
  0
TEXT
  5
30C
330
A0
100
AcDbEntity
  8
1
 62
     2
100
AcDbText
 10
-29.36638843147171
 20
-0.04362749516855
 30
0.0
 40
1.8
  1
1
 41
0.9
  7
CONVERTER_11
100
AcDbText
  0
TEXT
  5
30D
330
A0
100
AcDbEntity
  8
1
 62
     2
100
AcDbText
 10
-44.15543227094321
 20
-0.09287614897045
 30
0.0
 40
1.8
  1
1
 41
0.9
  7
CONVERTER_11
100
AcDbText
  0
TEXT
  5
30E
330
A0
100
AcDbEntity
  8
1
 62
     2
100
AcDbText
 10
-52.80169724128521
 20
-0.05264471016011
 30
0.0
 40
1.8
  1
page
 41
0.9
  7
CONVERTER_11
100
AcDbText
  0
TEXT
  5
30F
330
A0
100
AcDbEntity
  8
1
 62
     2
100
AcDbText
 10
-34.60169724128539
 20
-0.05264471016005
 30
0.0
 40
1.8
  1
of
 41
0.9
  7
CONVERTER_11
100
AcDbText
  0
MTEXT
  5
310
330
A0
100
AcDbEntity
  8
1
 62
     3
100
AcDbMText
 10
-28.39871508967531
 20
185.4976806601304
 30
0.0
 40
1.8
 41
0.0
 71
     7
 72
     1
  3
Transfer or duplication of this document as well as the utilisation or\Pcommunication of its content are not permitted unless express consent\Pis granted. Violations give rise to claims for damages. All rights reserved\Pin case of patent, utility mo
  1
del or design patent registrations.
  7
CONVERTER_11
 73
     1
 44
0.99639855942377
  0
MTEXT
  5
311
330
A0
100
AcDbEntity
  8
1
 62
     3
100
AcDbMText
 10
-211.2518249284634
 20
185.4976806601304
 30
0.0
 40
1.8
 41
0.0
 71
     7
 72
     1
  3
Weitergabe sowie Vervielfältigung dieses Dokuments, Verwertung und \PMitteilung seines Inhalts sind verboten, soweit nicht ausdrücklich gestattet. \PZuwiderhandlungen verpflichten zu Schadenersatz. Alle Rechte für den Fall\Pder Patent-, Gebrauchsmus
  1
ter- oder Designeintragung vorbehalten.
  7
CONVERTER_11
 73
     1
 44
0.99639855942377
  0
HATCH
  5
312
330
A0
100
AcDbEntity
  8
1
  6
Continuous
 62
     2
100
AcDbHatch
 10
0.0
 20
0.0
 30
0.0
210
0.0
220
0.0
230
1.0
  2
_USER
 70
     0
 71
     1
 91
        1
 92
        1
 93
       14
 72
     2
 10
-41.56046796536251
 20
7.526777266753157
 40
1.205656168390937
 50
164.9381082228763
 51
195.0618917770949
 73
     1
 72
     2
 10
-41.1413401218997
 20
7.639567628787972
 40
1.639695123939387
 50
195.0618917770896
 51
275.1581447696393
 73
     1
 72
     2
 10
-41.43019621663561
 20
10.83945821200956
 40
4.852596863498138
 50
275.1581447696248
 51
285.9799912583529
 73
     1
 72
     1
 10
-40.09426829951781
 20
6.174375906208752
 11
-40.09426829951781
 21
7.046892913011959
 72
     2
 10
-41.27232334154269
 20
8.937243632161852
 40
2.227384008972739
 50
58.0690910500407
 51
71.55192388186703
 73
     0
 72
     2
 10
-40.85415560788189
 20
7.683697856124667
 40
0.9059297849849192
 50
71.55192388184112
 51
113.372277888129
 73
     0
 72
     2
 10
-41.01059564058392
 20
7.321705837414669
 40
0.511580060194791
 50
113.3722778881719
 51
151.4785267423037
 73
     0
 72
     2
 10
-40.63323838250361
 20
7.526777266753157
 40
0.941059735333242
 50
151.4785267422938
 51
208.5214732577335
 73
     0
 72
     2
 10
-41.01059564058392
 20
7.731848696092158
 40
0.5115800601948742
 50
208.5214732576962
 51
246.6277221118015
 73
     0
 72
     2
 10
-40.85415560788189
 20
7.369856677381563
 40
0.9059297849853251
 50
246.627722111871
 51
288.4480761181469
 73
     0
 72
     2
 10
-41.27232334154269
 20
6.116310901344974
 40
2.227384008973478
 50
288.448076118133
 51
301.9309089499593
 73
     0
 72
     1
 10
-40.09426829951781
 20
8.006661620494867
 11
-40.09426829951781
 21
8.87917862729816
 72
     2
 10
-41.43019621663561
 20
4.214096321497266
 40
4.852596863498068
 50
74.02000874164739
 51
84.84185523037515
 73
     1
 72
     2
 10
-41.1413401218997
 20
7.413986904718257
 40
1.639695123940506
 50
84.84185523036261
 51
164.9381082228864
 73
     1
 97
       14
330
2E7
330
200
330
2B6
330
2E6
330
2B7
330
2B8
330
2E5
330
2E4
330
2E3
330
201
330
2B9
330
2BA
330
2BB
330
2BC
 75
     1
 76
     0
 52
45.0
 41
0.1
 77
     0
 78
     1
 53
45.0
 43
0.0
 44
0.0
 45
-0.0707106781186548
 46
0.0707106781186548
 79
     0
 98
        1
 10
0.0
 20
0.0
  0
HATCH
  5
313
330
A0
100
AcDbEntity
  8
1
  6
Continuous
 62
     2
100
AcDbHatch
 10
0.0
 20
0.0
 30
0.0
210
0.0
220
0.0
230
1.0
  2
_USER
 70
     0
 71
     1
 91
        1
 92
        1
 93
       14
 72
     2
 10
-41.56046796536251
 20
7.526777266753157
 40
1.205656168390937
 50
164.9381082228763
 51
195.0618917770949
 73
     1
 72
     2
 10
-41.1413401218997
 20
7.639567628787972
 40
1.639695123939387
 50
195.0618917770896
 51
275.1581447696393
 73
     1
 72
     2
 10
-41.43019621663561
 20
10.83945821200956
 40
4.852596863498138
 50
275.1581447696248
 51
285.9799912583529
 73
     1
 72
     1
 10
-40.09426829951781
 20
6.174375906208752
 11
-40.09426829951781
 21
7.046892913011959
 72
     2
 10
-41.27232334154269
 20
8.937243632161852
 40
2.227384008972739
 50
58.0690910500407
 51
71.55192388186703
 73
     0
 72
     2
 10
-40.85415560788189
 20
7.683697856124667
 40
0.9059297849849192
 50
71.55192388184112
 51
113.372277888129
 73
     0
 72
     2
 10
-41.01059564058392
 20
7.321705837414669
 40
0.511580060194791
 50
113.3722778881719
 51
151.4785267423037
 73
     0
 72
     2
 10
-40.63323838250361
 20
7.526777266753157
 40
0.941059735333242
 50
151.4785267422938
 51
208.5214732577335
 73
     0
 72
     2
 10
-41.01059564058392
 20
7.731848696092158
 40
0.5115800601948742
 50
208.5214732576962
 51
246.6277221118015
 73
     0
 72
     2
 10
-40.85415560788189
 20
7.369856677381563
 40
0.9059297849853251
 50
246.627722111871
 51
288.4480761181469
 73
     0
 72
     2
 10
-41.27232334154269
 20
6.116310901344974
 40
2.227384008973478
 50
288.448076118133
 51
301.9309089499593
 73
     0
 72
     1
 10
-40.09426829951781
 20
8.006661620494867
 11
-40.09426829951781
 21
8.87917862729816
 72
     2
 10
-41.43019621663561
 20
4.214096321497266
 40
4.852596863498068
 50
74.02000874164739
 51
84.84185523037515
 73
     1
 72
     2
 10
-41.1413401218997
 20
7.413986904718257
 40
1.639695123940506
 50
84.84185523036261
 51
164.9381082228864
 73
     1
 97
       14
330
2E7
330
200
330
2B6
330
2E6
330
2B7
330
2B8
330
2E5
330
2E4
330
2E3
330
201
330
2B9
330
2BA
330
2BB
330
2BC
 75
     1
 76
     0
 52
45.0
 41
0.1
 77
     0
 78
     1
 53
45.0
 43
0.0
 44
0.0
 45
-0.0707106781186548
 46
0.0707106781186548
 79
     0
 98
        1
 10
0.0
 20
0.0
  0
HATCH
  5
314
330
A0
100
AcDbEntity
  8
1
  6
Continuous
 62
     2
100
AcDbHatch
 10
0.0
 20
0.0
 30
0.0
210
0.0
220
0.0
230
1.0
  2
_USER
 70
     0
 71
     1
 91
        1
 92
        1
 93
       18
 72
     2
 10
-25.03863864264679
 20
7.413986904718257
 40
1.639695123940214
 50
90.0
 51
164.9381082228949
 73
     1
 72
     2
 10
-25.4577664861084
 20
7.526777266753157
 40
1.205656168392999
 50
164.9381082229027
 51
195.061891777096
 73
     1
 72
     2
 10
-25.03863864264679
 20
7.639567628787972
 40
1.639695123940445
 50
195.0618917771012
 51
275.1581447696765
 73
     1
 72
     2
 10
-25.32749473738261
 20
10.83945821200956
 40
4.852596863498825
 50
275.1581447696364
 51
285.9799912583387
 73
     1
 72
     1
 10
-23.99156682026589
 20
6.174375906208155
 11
-23.99156682026589
 21
7.046892913011476
 72
     2
 10
-25.1696218622898
 20
8.937243632161255
 40
2.227384008972746
 50
58.06909105006035
 51
71.55192388186651
 73
     0
 72
     2
 10
-24.7514541286279
 20
7.683697856124667
 40
0.9059297849852787
 50
71.55192388191827
 51
113.3722778881815
 73
     0
 72
     2
 10
-24.907894161331
 20
7.321705837414669
 40
0.5115800601960243
 50
113.3722778881547
 51
151.4785267423137
 73
     0
 72
     2
 10
-24.53053690324961
 20
7.526777266753157
 40
0.941059735334896
 50
151.4785267423306
 51
208.5214732576375
 73
     0
 72
     2
 10
-24.907894161331
 20
7.731848696092158
 40
0.5115800601944146
 50
208.5214732575774
 51
250.6628567805143
 73
     0
 72
     2
 10
-24.7612241632273
 20
7.31389371570927
 40
0.9545230068260935
 50
250.662856780568
 51
270.0
 73
     0
 72
     1
 10
-24.7612241632273
 20
8.268416722535363
 11
-23.6575848636592
 21
8.268416722535363
 72
     1
 10
-23.6575848636592
 20
8.268416722535363
 11
-23.6575848636592
 21
5.999872504847872
 72
     1
 10
-23.6575848636592
 20
5.999872504847872
 11
-22.46479216149149
 21
5.999872504847872
 72
     1
 10
-22.46479216149149
 20
5.999872504847872
 11
-22.46479216149149
 21
8.268416722535363
 72
     1
 10
-22.46479216149149
 20
8.268416722535363
 11
-21.65369312401811
 21
8.268416722535363
 72
     1
 10
-21.65369312401811
 20
8.268416722535363
 11
-21.65369312401811
 21
9.053682028658955
 72
     1
 10
-21.65369312401811
 20
9.053682028658955
 11
-25.03863864264679
 21
9.053682028658471
 97
       18
330
266
330
265
330
264
330
263
330
268
330
202
330
2E0
330
2C1
330
2DF
330
2C2
330
2DE
330
2DD
330
203
330
2DC
330
2DB
330
2C3
330
2C4
330
267
 75
     1
 76
     0
 52
45.0
 41
0.1
 77
     0
 78
     1
 53
45.0
 43
0.0
 44
0.0
 45
-0.0707106781186548
 46
0.0707106781186548
 79
     0
 98
        1
 10
0.0
 20
0.0
  0
HATCH
  5
315
330
A0
100
AcDbEntity
  8
1
  6
Continuous
 62
     2
100
AcDbHatch
 10
0.0
 20
0.0
 30
0.0
210
0.0
220
0.0
230
1.0
  2
_USER
 70
     0
 71
     1
 91
        1
 92
        1
 93
       18
 72
     2
 10
-25.03863864264679
 20
7.413986904718257
 40
1.639695123940214
 50
90.0
 51
164.9381082228949
 73
     1
 72
     2
 10
-25.4577664861084
 20
7.526777266753157
 40
1.205656168392999
 50
164.9381082229027
 51
195.061891777096
 73
     1
 72
     2
 10
-25.03863864264679
 20
7.639567628787972
 40
1.639695123940445
 50
195.0618917771012
 51
275.1581447696765
 73
     1
 72
     2
 10
-25.32749473738261
 20
10.83945821200956
 40
4.852596863498825
 50
275.1581447696364
 51
285.9799912583387
 73
     1
 72
     1
 10
-23.99156682026589
 20
6.174375906208155
 11
-23.99156682026589
 21
7.046892913011476
 72
     2
 10
-25.1696218622898
 20
8.937243632161255
 40
2.227384008972746
 50
58.06909105006035
 51
71.55192388186651
 73
     0
 72
     2
 10
-24.7514541286279
 20
7.683697856124667
 40
0.9059297849852787
 50
71.55192388191827
 51
113.3722778881815
 73
     0
 72
     2
 10
-24.907894161331
 20
7.321705837414669
 40
0.5115800601960243
 50
113.3722778881547
 51
151.4785267423137
 73
     0
 72
     2
 10
-24.53053690324961
 20
7.526777266753157
 40
0.941059735334896
 50
151.4785267423306
 51
208.5214732576375
 73
     0
 72
     2
 10
-24.907894161331
 20
7.731848696092158
 40
0.5115800601944146
 50
208.5214732575774
 51
250.6628567805143
 73
     0
 72
     2
 10
-24.7612241632273
 20
7.31389371570927
 40
0.9545230068260935
 50
250.662856780568
 51
270.0
 73
     0
 72
     1
 10
-24.7612241632273
 20
8.268416722535363
 11
-23.6575848636592
 21
8.268416722535363
 72
     1
 10
-23.6575848636592
 20
8.268416722535363
 11
-23.6575848636592
 21
5.999872504847872
 72
     1
 10
-23.6575848636592
 20
5.999872504847872
 11
-22.46479216149149
 21
5.999872504847872
 72
     1
 10
-22.46479216149149
 20
5.999872504847872
 11
-22.46479216149149
 21
8.268416722535363
 72
     1
 10
-22.46479216149149
 20
8.268416722535363
 11
-21.65369312401811
 21
8.268416722535363
 72
     1
 10
-21.65369312401811
 20
8.268416722535363
 11
-21.65369312401811
 21
9.053682028658955
 72
     1
 10
-21.65369312401811
 20
9.053682028658955
 11
-25.03863864264679
 21
9.053682028658471
 97
       18
330
266
330
265
330
264
330
263
330
268
330
202
330
2E0
330
2C1
330
2DF
330
2C2
330
2DE
330
2DD
330
203
330
2DC
330
2DB
330
2C3
330
2C4
330
267
 75
     1
 76
     0
 52
45.0
 41
0.1
 77
     0
 78
     1
 53
45.0
 43
0.0
 44
0.0
 45
-0.0707106781186548
 46
0.0707106781186548
 79
     0
 98
        1
 10
0.0
 20
0.0
  0
HATCH
  5
316
330
A0
100
AcDbEntity
  8
1
  6
Continuous
 62
     2
100
AcDbHatch
 10
0.0
 20
0.0
 30
0.0
210
0.0
220
0.0
230
1.0
  2
_USER
 70
     0
 71
     1
 91
        4
 92
        1
 93
        8
 72
     2
 10
-49.1407977393398
 20
11.98862788943137
 40
0.4242446153837989
 50
90.0
 51
180.0
 73
     1
 72
     1
 10
-49.56504235472261
 20
11.98862788943137
 11
-49.56504235472261
 21
6.424117120231159
 72
     2
 10
-49.1407977393398
 20
6.424117120231159
 40
0.4242446153828041
 50
180.0
 51
270.0
 73
     1
 72
     1
 10
-49.1407977393398
 20
5.999872504847872
 11
-43.667485648623
 21
5.999872504847872
 72
     2
 10
-43.667485648623
 20
6.424117120231159
 40
0.4242446153832873
 50
270.0
 51
360.0
 73
     1
 72
     1
 10
-43.24324103323912
 20
6.424117120231159
 11
-43.24324103323912
 21
11.98862788943137
 72
     2
 10
-43.667485648623
 20
11.98862788943137
 40
0.424244615383877
 50
0.0
 51
90.0
 73
     1
 72
     1
 10
-43.667485648623
 20
12.41287250481517
 11
-49.1407977393398
 21
12.41287250481517
 97
        8
330
2D4
330
231
330
2D3
330
232
330
2CA
330
22F
330
2D5
330
230
 92
       16
 93
        1
 72
     2
 10
-46.5212120888223
 20
9.669745661075865
 40
0.4709789327785145
 50
0.0
 51
360.0
 73
     1
 97
        1
330
2E8
 92
       16
 93
        8
 72
     2
 10
-46.49739707414949
 20
9.669745661075865
 40
0.911848150144459
 50
295.3740086781764
 51
424.6259913218075
 73
     1
 72
     2
 10
-45.97135437606161
 20
10.77888726104368
 40
0.3157169230767849
 50
115.3740086783517
 51
180.0
 73
     0
 72
     1
 10
-46.2870712991384
 20
10.77888726104368
 11
-46.2870712991384
 21
11.38442254955047
 72
     2
 10
-45.97135437606161
 20
11.38442254955047
 40
0.315716923076064
 50
180.0
 51
269.8110329574541
 73
     0
 72
     2
 10
-45.96573824075159
 20
9.681587601981363
 40
2.018561131933266
 50
269.8110329575858
 51
450.1889670424142
 73
     0
 72
     2
 10
-45.97135437606161
 20
7.978752654412375
 40
0.3157169230767849
 50
90.18896704254585
 51
180.0
 73
     0
 72
     1
 10
-46.2870712991384
 20
7.978752654412375
 11
-46.2870712991384
 21
8.560604061107455
 72
     2
 10
-45.97135437606161
 20
8.560604061107455
 40
0.3157169230765328
 50
180.0
 51
244.6259913216482
 73
     0
 97
        8
330
2E2
330
2BE
330
26A
330
2E1
330
2BF
330
2C0
330
269
330
2BD
 92
       16
 93
       12
 72
     1
 10
-48.54690306259332
 20
6.712428060404761
 11
-47.07106980158369
 21
6.712428060404761
 72
     2
 10
-47.07106980158369
 20
7.028144983481468
 40
0.3157169230767067
 50
270.0
 51
360.0
 73
     1
 72
     1
 10
-46.7553528785071
 20
7.028144983481468
 11
-46.7553528785071
 21
8.558915915013074
 72
     2
 10
-47.07106980158369
 20
8.558915915013074
 40
0.315716923076593
 50
0.0
 51
64.80558935146027
 73
     1
 72
     2
 10
-46.5484853540087
 20
9.669745661075865
 40
0.9118975235576192
 50
115.1944106485127
 51
244.8055893514714
 73
     0
 72
     2
 10
-47.07106980158369
 20
10.78057540713806
 40
0.3157169230761203
 50
295.1944106485397
 51
360.0
 73
     1
 72
     1
 10
-46.7553528785071
 20
10.78057540713806
 11
-46.7553528785071
 21
11.38460002619857
 72
     2
 10
-47.07106980158369
 20
11.38460002619857
 40
0.315716923076593
 50
0.0
 51
90.0
 73
     1
 72
     1
 10
-47.07106980158369
 20
11.70031694927477
 11
-48.54690306259332
 21
11.70031694927477
 72
     2
 10
-48.54690306259332
 20
11.38460002619857
 40
0.3157169230762005
 50
90.0
 51
180.0
 73
     1
 72
     1
 10
-48.862619985669
 20
11.38460002619857
 11
-48.862619985669
 21
7.028144983481468
 72
     2
 10
-48.54690306259332
 20
7.028144983481468
 40
0.3157169230756764
 50
180.0
 51
270.0
 73
     1
 97
       12
330
236
330
2C7
330
235
330
2D8
330
234
330
2D7
330
2C8
330
2C9
330
233
330
2D6
330
22E
330
2D9
 75
     1
 76
     0
 52
45.0
 41
0.1
 77
     0
 78
     1
 53
45.0
 43
0.0
 44
0.0
 45
-0.0707106781186548
 46
0.0707106781186548
 79
     0
 98
        1
 10
0.0
 20
0.0
  0
HATCH
  5
317
330
A0
100
AcDbEntity
  8
1
  6
Continuous
 62
     2
100
AcDbHatch
 10
0.0
 20
0.0
 30
0.0
210
0.0
220
0.0
230
1.0
  2
_USER
 70
     0
 71
     1
 91
        4
 92
        1
 93
        8
 72
     2
 10
-49.1407977393398
 20
11.98862788943137
 40
0.4242446153837989
 50
90.0
 51
180.0
 73
     1
 72
     1
 10
-49.56504235472261
 20
11.98862788943137
 11
-49.56504235472261
 21
6.424117120231159
 72
     2
 10
-49.1407977393398
 20
6.424117120231159
 40
0.4242446153828041
 50
180.0
 51
270.0
 73
     1
 72
     1
 10
-49.1407977393398
 20
5.999872504847872
 11
-43.667485648623
 21
5.999872504847872
 72
     2
 10
-43.667485648623
 20
6.424117120231159
 40
0.4242446153832873
 50
270.0
 51
360.0
 73
     1
 72
     1
 10
-43.24324103323912
 20
6.424117120231159
 11
-43.24324103323912
 21
11.98862788943137
 72
     2
 10
-43.667485648623
 20
11.98862788943137
 40
0.424244615383877
 50
0.0
 51
90.0
 73
     1
 72
     1
 10
-43.667485648623
 20
12.41287250481517
 11
-49.1407977393398
 21
12.41287250481517
 97
        8
330
2D4
330
231
330
2D3
330
232
330
2CA
330
22F
330
2D5
330
230
 92
       16
 93
        1
 72
     2
 10
-46.5212120888223
 20
9.669745661075865
 40
0.4709789327785145
 50
0.0
 51
360.0
 73
     1
 97
        1
330
2E8
 92
       16
 93
        8
 72
     2
 10
-46.49739707414949
 20
9.669745661075865
 40
0.911848150144459
 50
295.3740086781764
 51
424.6259913218075
 73
     1
 72
     2
 10
-45.97135437606161
 20
10.77888726104368
 40
0.3157169230767849
 50
115.3740086783517
 51
180.0
 73
     0
 72
     1
 10
-46.2870712991384
 20
10.77888726104368
 11
-46.2870712991384
 21
11.38442254955047
 72
     2
 10
-45.97135437606161
 20
11.38442254955047
 40
0.315716923076064
 50
180.0
 51
269.8110329574541
 73
     0
 72
     2
 10
-45.96573824075159
 20
9.681587601981363
 40
2.018561131933266
 50
269.8110329575858
 51
450.1889670424142
 73
     0
 72
     2
 10
-45.97135437606161
 20
7.978752654412375
 40
0.3157169230767849
 50
90.18896704254585
 51
180.0
 73
     0
 72
     1
 10
-46.2870712991384
 20
7.978752654412375
 11
-46.2870712991384
 21
8.560604061107455
 72
     2
 10
-45.97135437606161
 20
8.560604061107455
 40
0.3157169230765328
 50
180.0
 51
244.6259913216482
 73
     0
 97
        8
330
2E2
330
2BE
330
26A
330
2E1
330
2BF
330
2C0
330
269
330
2BD
 92
       16
 93
       12
 72
     1
 10
-48.54690306259332
 20
6.712428060404761
 11
-47.07106980158369
 21
6.712428060404761
 72
     2
 10
-47.07106980158369
 20
7.028144983481468
 40
0.3157169230767067
 50
270.0
 51
360.0
 73
     1
 72
     1
 10
-46.7553528785071
 20
7.028144983481468
 11
-46.7553528785071
 21
8.558915915013074
 72
     2
 10
-47.07106980158369
 20
8.558915915013074
 40
0.315716923076593
 50
0.0
 51
64.80558935146027
 73
     1
 72
     2
 10
-46.5484853540087
 20
9.669745661075865
 40
0.9118975235576192
 50
115.1944106485127
 51
244.8055893514714
 73
     0
 72
     2
 10
-47.07106980158369
 20
10.78057540713806
 40
0.3157169230761203
 50
295.1944106485397
 51
360.0
 73
     1
 72
     1
 10
-46.7553528785071
 20
10.78057540713806
 11
-46.7553528785071
 21
11.38460002619857
 72
     2
 10
-47.07106980158369
 20
11.38460002619857
 40
0.315716923076593
 50
0.0
 51
90.0
 73
     1
 72
     1
 10
-47.07106980158369
 20
11.70031694927477
 11
-48.54690306259332
 21
11.70031694927477
 72
     2
 10
-48.54690306259332
 20
11.38460002619857
 40
0.3157169230762005
 50
90.0
 51
180.0
 73
     1
 72
     1
 10
-48.862619985669
 20
11.38460002619857
 11
-48.862619985669
 21
7.028144983481468
 72
     2
 10
-48.54690306259332
 20
7.028144983481468
 40
0.3157169230756764
 50
180.0
 51
270.0
 73
     1
 97
       12
330
236
330
2C7
330
235
330
2D8
330
234
330
2D7
330
2C8
330
2C9
330
233
330
2D6
330
22E
330
2D9
 75
     1
 76
     0
 52
45.0
 41
0.1
 77
     0
 78
     1
 53
45.0
 43
0.0
 44
0.0
 45
-0.0707106781186548
 46
0.0707106781186548
 79
     0
 98
        1
 10
0.0
 20
0.0
  0
HATCH
  5
318
330
A0
100
AcDbEntity
  8
1
  6
Continuous
 62
     2
100
AcDbHatch
 10
0.0
 20
0.0
 30
0.0
210
0.0
220
0.0
230
1.0
  2
_USER
 70
     0
 71
     1
 91
        2
 92
        1
 93
       12
 72
     2
 10
-34.46563373535051
 20
10.88596774292748
 40
1.526904761905879
 50
90.0
 51
270.0
 73
     1
 72
     1
 10
-34.46563373535051
 20
9.359062981022163
 11
-31.31531401156951
 21
9.359062981022163
 72
     1
 10
-31.31531401156951
 20
9.359062981022163
 11
-31.31531401156951
 21
10.05707658646466
 72
     1
 10
-31.31531401156951
 20
10.05707658646466
 11
-32.65124183799719
 21
10.05707658646466
 72
     1
 10
-32.65124183799719
 20
10.05707658646466
 11
-32.65124183799719
 21
10.53696094020637
 72
     1
 10
-32.65124183799719
 20
10.53696094020637
 11
-31.31531401156951
 21
10.53696094020637
 72
     1
 10
-31.31531401156951
 20
10.53696094020637
 11
-31.31531401156951
 21
11.23497454564867
 72
     1
 10
-31.31531401156951
 20
11.23497454564867
 11
-32.65124183799719
 21
11.23497454564867
 72
     1
 10
-32.65124183799719
 20
11.23497454564867
 11
-32.65124183799719
 21
11.71485889939038
 72
     1
 10
-32.65124183799719
 20
11.71485889939038
 11
-31.31531401156951
 21
11.71485889939038
 72
     1
 10
-31.31531401156951
 20
11.71485889939038
 11
-31.31531401156951
 21
12.41287250483336
 72
     1
 10
-31.31531401156951
 20
12.41287250483336
 11
-34.46563373535051
 21
12.41287250483336
 97
       12
330
225
330
21F
330
246
330
245
330
244
330
243
330
220
330
221
330
222
330
223
330
2C5
330
224
 92
       16
 93
        4
 72
     2
 10
-34.04962168883901
 20
10.88596774292748
 40
0.7717997786796724
 50
141.8795802028404
 51
218.1204197971566
 73
     1
 72
     2
 10
-34.24936172518531
 20
10.72923656480705
 40
0.5179085730134372
 50
218.1204197971511
 51
321.8795802028571
 73
     1
 72
     2
 10
-34.4491017615315
 20
10.88596774292748
 40
0.7717997786796529
 50
321.879580202844
 51
398.1204197971589
 73
     1
 72
     2
 10
-34.24936172518531
 20
11.04269892104796
 40
0.5179085730135332
 50
38.12041979714301
 51
141.8795802028488
 73
     1
 97
        4
330
2D2
330
2D1
330
2CC
330
2CB
 75
     1
 76
     0
 52
45.0
 41
0.1
 77
     0
 78
     1
 53
45.0
 43
0.0
 44
0.0
 45
-0.0707106781186548
 46
0.0707106781186548
 79
     0
 98
        1
 10
0.0
 20
0.0
  0
HATCH
  5
319
330
A0
100
AcDbEntity
  8
1
  6
Continuous
 62
     2
100
AcDbHatch
 10
0.0
 20
0.0
 30
0.0
210
0.0
220
0.0
230
1.0
  2
_USER
 70
     0
 71
     1
 91
        2
 92
        1
 93
       12
 72
     2
 10
-34.46563373535051
 20
10.88596774292748
 40
1.526904761905879
 50
90.0
 51
270.0
 73
     1
 72
     1
 10
-34.46563373535051
 20
9.359062981022163
 11
-31.31531401156951
 21
9.359062981022163
 72
     1
 10
-31.31531401156951
 20
9.359062981022163
 11
-31.31531401156951
 21
10.05707658646466
 72
     1
 10
-31.31531401156951
 20
10.05707658646466
 11
-32.65124183799719
 21
10.05707658646466
 72
     1
 10
-32.65124183799719
 20
10.05707658646466
 11
-32.65124183799719
 21
10.53696094020637
 72
     1
 10
-32.65124183799719
 20
10.53696094020637
 11
-31.31531401156951
 21
10.53696094020637
 72
     1
 10
-31.31531401156951
 20
10.53696094020637
 11
-31.31531401156951
 21
11.23497454564867
 72
     1
 10
-31.31531401156951
 20
11.23497454564867
 11
-32.65124183799719
 21
11.23497454564867
 72
     1
 10
-32.65124183799719
 20
11.23497454564867
 11
-32.65124183799719
 21
11.71485889939038
 72
     1
 10
-32.65124183799719
 20
11.71485889939038
 11
-31.31531401156951
 21
11.71485889939038
 72
     1
 10
-31.31531401156951
 20
11.71485889939038
 11
-31.31531401156951
 21
12.41287250483336
 72
     1
 10
-31.31531401156951
 20
12.41287250483336
 11
-34.46563373535051
 21
12.41287250483336
 97
       12
330
225
330
21F
330
246
330
245
330
244
330
243
330
220
330
221
330
222
330
223
330
2C5
330
224
 92
       16
 93
        4
 72
     2
 10
-34.04962168883901
 20
10.88596774292748
 40
0.7717997786796724
 50
141.8795802028404
 51
218.1204197971566
 73
     1
 72
     2
 10
-34.24936172518531
 20
10.72923656480705
 40
0.5179085730134372
 50
218.1204197971511
 51
321.8795802028571
 73
     1
 72
     2
 10
-34.4491017615315
 20
10.88596774292748
 40
0.7717997786796529
 50
321.879580202844
 51
398.1204197971589
 73
     1
 72
     2
 10
-34.24936172518531
 20
11.04269892104796
 40
0.5179085730135332
 50
38.12041979714301
 51
141.8795802028488
 73
     1
 97
        4
330
2D2
330
2D1
330
2CC
330
2CB
 75
     1
 76
     0
 52
45.0
 41
0.1
 77
     0
 78
     1
 53
45.0
 43
0.0
 44
0.0
 45
-0.0707106781186548
 46
0.0707106781186548
 79
     0
 98
        1
 10
0.0
 20
0.0
  0
HATCH
  5
31A
330
A0
100
AcDbEntity
  8
1
  6
Continuous
 62
     2
100
AcDbHatch
 10
0.0
 20
0.0
 30
0.0
210
0.0
220
0.0
230
1.0
  2
_USER
 70
     0
 71
     1
 91
        2
 92
        1
 93
        4
 72
     2
 10
-38.4912490978121
 20
7.526777266753157
 40
1.45803408365149
 50
117.5481481756624
 51
242.4518518243375
 73
     1
 72
     2
 10
-38.2103092059788
 20
8.065352277056462
 40
2.065479772208509
 50
242.4518518243402
 51
297.5481481756871
 73
     1
 72
     2
 10
-37.9293693141455
 20
7.526777266753157
 40
1.458034083651999
 50
297.5481481757009
 51
422.4518518242992
 73
     1
 72
     2
 10
-38.2103092059788
 20
6.988202256450364
 40
2.065479772208568
 50
62.45185182430637
 51
117.5481481756664
 73
     1
 97
        4
330
2D0
330
2CD
330
2CF
330
2CE
 92
       16
 93
        4
 72
     2
 10
-38.2103092059788
 20
7.683508444873667
 40
0.5179085730132943
 50
38.12041979714752
 51
141.8795802028583
 73
     1
 72
     2
 10
-38.0105691696327
 20
7.526777266753157
 40
0.7717997786794577
 50
141.879580202836
 51
218.120419797169
 73
     1
 72
     2
 10
-38.2103092059788
 20
7.37004608863316
 40
0.5179085730137298
 50
218.1204197971936
 51
321.8795802028005
 73
     1
 72
     2
 10
-38.41004924232522
 20
7.526777266753157
 40
0.7717997786796947
 50
321.8795802028417
 51
398.1204197971533
 73
     1
 97
        4
330
2B3
330
2B4
330
2B5
330
2B2
 75
     1
 76
     0
 52
45.0
 41
0.1
 77
     0
 78
     1
 53
45.0
 43
0.0
 44
0.0
 45
-0.0707106781186548
 46
0.0707106781186548
 79
     0
 98
        1
 10
0.0
 20
0.0
  0
HATCH
  5
31B
330
A0
100
AcDbEntity
  8
1
  6
Continuous
 62
     2
100
AcDbHatch
 10
0.0
 20
0.0
 30
0.0
210
0.0
220
0.0
230
1.0
  2
_USER
 70
     0
 71
     1
 91
        2
 92
        1
 93
        4
 72
     2
 10
-38.4912490978121
 20
7.526777266753157
 40
1.45803408365149
 50
117.5481481756624
 51
242.4518518243375
 73
     1
 72
     2
 10
-38.2103092059788
 20
8.065352277056462
 40
2.065479772208509
 50
242.4518518243402
 51
297.5481481756871
 73
     1
 72
     2
 10
-37.9293693141455
 20
7.526777266753157
 40
1.458034083651999
 50
297.5481481757009
 51
422.4518518242992
 73
     1
 72
     2
 10
-38.2103092059788
 20
6.988202256450364
 40
2.065479772208568
 50
62.45185182430637
 51
117.5481481756664
 73
     1
 97
        4
330
2D0
330
2CD
330
2CF
330
2CE
 92
       16
 93
        4
 72
     2
 10
-38.2103092059788
 20
7.683508444873667
 40
0.5179085730132943
 50
38.12041979714752
 51
141.8795802028583
 73
     1
 72
     2
 10
-38.0105691696327
 20
7.526777266753157
 40
0.7717997786794577
 50
141.879580202836
 51
218.120419797169
 73
     1
 72
     2
 10
-38.2103092059788
 20
7.37004608863316
 40
0.5179085730137298
 50
218.1204197971936
 51
321.8795802028005
 73
     1
 72
     2
 10
-38.41004924232522
 20
7.526777266753157
 40
0.7717997786796947
 50
321.8795802028417
 51
398.1204197971533
 73
     1
 97
        4
330
2B3
330
2B4
330
2B5
330
2B2
 75
     1
 76
     0
 52
45.0
 41
0.1
 77
     0
 78
     1
 53
45.0
 43
0.0
 44
0.0
 45
-0.0707106781186548
 46
0.0707106781186548
 79
     0
 98
        1
 10
0.0
 20
0.0
  0
HATCH
  5
31C
330
A0
100
AcDbEntity
  8
1
  6
Continuous
 62
     2
100
AcDbHatch
 10
0.0
 20
0.0
 30
0.0
210
0.0
220
0.0
230
1.0
  2
_USER
 70
     0
 71
     1
 91
        2
 92
        1
 93
        6
 72
     1
 10
-42.76612395237231
 20
12.41287250483336
 11
-42.76612395237231
 21
9.359062981022163
 72
     1
 10
-42.76612395237231
 20
9.359062981022163
 11
-41.52561954211819
 21
9.359062981022163
 72
     1
 10
-41.52561954211819
 20
9.359062981022163
 11
-41.52561954211819
 21
10.30214122216597
 72
     1
 10
-41.52561954211819
 20
10.30214122216597
 11
-40.76685195433791
 21
10.30214122216597
 72
     2
 10
-40.76685195433791
 20
11.35750686349968
 40
1.05536564133371
 50
270.0
 51
450.0
 73
     1
 72
     1
 10
-40.76685195433791
 20
12.41287250483336
 11
-42.76612395237231
 21
12.41287250483336
 97
        6
330
2DA
330
237
330
22D
330
22C
330
239
330
238
 92
       16
 93
        4
 72
     1
 10
-41.20832448057629
 20
11.74976665939326
 11
-41.52561954211819
 21
11.74976665939326
 72
     1
 10
-41.52561954211819
 20
11.74976665939326
 11
-41.52561954211819
 21
11.04403901005105
 72
     1
 10
-41.52561954211819
 20
11.04403901005105
 11
-41.20832448057629
 21
11.04403901005105
 72
     2
 10
-41.20832448057629
 20
11.39690283472217
 40
0.35286382467112
 50
270.0
 51
450.0
 73
     1
 97
        4
330
23A
330
22B
330
23B
330
2C6
 75
     1
 76
     0
 52
45.0
 41
0.1
 77
     0
 78
     1
 53
45.0
 43
0.0
 44
0.0
 45
-0.0707106781186548
 46
0.0707106781186548
 79
     0
 98
        1
 10
0.0
 20
0.0
  0
HATCH
  5
31D
330
A0
100
AcDbEntity
  8
1
  6
Continuous
 62
     2
100
AcDbHatch
 10
0.0
 20
0.0
 30
0.0
210
0.0
220
0.0
230
1.0
  2
_USER
 70
     0
 71
     1
 91
        2
 92
        1
 93
        6
 72
     1
 10
-42.76612395237231
 20
12.41287250483336
 11
-42.76612395237231
 21
9.359062981022163
 72
     1
 10
-42.76612395237231
 20
9.359062981022163
 11
-41.52561954211819
 21
9.359062981022163
 72
     1
 10
-41.52561954211819
 20
9.359062981022163
 11
-41.52561954211819
 21
10.30214122216597
 72
     1
 10
-41.52561954211819
 20
10.30214122216597
 11
-40.76685195433791
 21
10.30214122216597
 72
     2
 10
-40.76685195433791
 20
11.35750686349968
 40
1.05536564133371
 50
270.0
 51
450.0
 73
     1
 72
     1
 10
-40.76685195433791
 20
12.41287250483336
 11
-42.76612395237231
 21
12.41287250483336
 97
        6
330
2DA
330
237
330
22D
330
22C
330
239
330
238
 92
       16
 93
        4
 72
     1
 10
-41.20832448057629
 20
11.74976665939326
 11
-41.52561954211819
 21
11.74976665939326
 72
     1
 10
-41.52561954211819
 20
11.74976665939326
 11
-41.52561954211819
 21
11.04403901005105
 72
     1
 10
-41.52561954211819
 20
11.04403901005105
 11
-41.20832448057629
 21
11.04403901005105
 72
     2
 10
-41.20832448057629
 20
11.39690283472217
 40
0.35286382467112
 50
270.0
 51
450.0
 73
     1
 97
        4
330
23A
330
22B
330
23B
330
2C6
 75
     1
 76
     0
 52
45.0
 41
0.1
 77
     0
 78
     1
 53
45.0
 43
0.0
 44
0.0
 45
-0.0707106781186548
 46
0.0707106781186548
 79
     0
 98
        1
 10
0.0
 20
0.0
  0
HATCH
  5
31E
330
A0
100
AcDbEntity
  8
1
  6
Continuous
 62
     2
100
AcDbHatch
 10
0.0
 20
0.0
 30
0.0
210
0.0
220
0.0
230
1.0
  2
_USER
 70
     0
 71
     1
 91
        1
 92
        1
 93
       12
 72
     1
 10
-23.15184075793911
 20
12.41287250483336
 11
-21.74911654019189
 21
12.41287250483336
 72
     1
 10
-21.74911654019189
 20
12.41287250483336
 11
-23.05164617095841
 21
10.93992197479716
 72
     1
 10
-23.05164617095841
 20
10.93992197479716
 11
-21.65369312401811
 21
9.359062981022163
 72
     1
 10
-21.65369312401811
 20
9.359062981022163
 11
-23.05641734176641
 21
9.359062981022163
 72
     1
 10
-23.05641734176641
 20
9.359062981022163
 11
-23.7530082798319
 21
10.14679476631588
 72
     1
 10
-23.7530082798319
 20
10.14679476631588
 11
-24.4495992178976
 21
9.359062981022163
 72
     1
 10
-24.4495992178976
 20
9.359062981022163
 11
-25.85232343564582
 21
9.359062981022163
 72
     1
 10
-25.85232343564582
 20
9.359062981022163
 11
-24.45437038870551
 21
10.93992197479716
 72
     1
 10
-24.45437038870551
 20
10.93992197479716
 11
-25.75690001947299
 21
12.41287250483336
 72
     1
 10
-25.75690001947299
 20
12.41287250483336
 11
-24.3541758017237
 21
12.41287250483336
 72
     1
 10
-24.3541758017237
 20
12.41287250483336
 11
-23.7530082798319
 21
11.73304918327787
 72
     1
 10
-23.7530082798319
 20
11.73304918327787
 11
-23.15184075793911
 21
12.41287250483336
 97
       12
330
206
330
25F
330
25E
330
25D
330
25C
330
207
330
208
330
204
330
205
330
262
330
261
330
260
 75
     1
 76
     0
 52
45.0
 41
0.1
 77
     0
 78
     1
 53
45.0
 43
0.0
 44
0.0
 45
-0.0707106781186548
 46
0.0707106781186548
 79
     0
 98
        1
 10
0.0
 20
0.0
  0
HATCH
  5
31F
330
A0
100
AcDbEntity
  8
1
  6
Continuous
 62
     2
100
AcDbHatch
 10
0.0
 20
0.0
 30
0.0
210
0.0
220
0.0
230
1.0
  2
_USER
 70
     0
 71
     1
 91
        1
 92
        1
 93
       12
 72
     1
 10
-23.15184075793911
 20
12.41287250483336
 11
-21.74911654019189
 21
12.41287250483336
 72
     1
 10
-21.74911654019189
 20
12.41287250483336
 11
-23.05164617095841
 21
10.93992197479716
 72
     1
 10
-23.05164617095841
 20
10.93992197479716
 11
-21.65369312401811
 21
9.359062981022163
 72
     1
 10
-21.65369312401811
 20
9.359062981022163
 11
-23.05641734176641
 21
9.359062981022163
 72
     1
 10
-23.05641734176641
 20
9.359062981022163
 11
-23.7530082798319
 21
10.14679476631588
 72
     1
 10
-23.7530082798319
 20
10.14679476631588
 11
-24.4495992178976
 21
9.359062981022163
 72
     1
 10
-24.4495992178976
 20
9.359062981022163
 11
-25.85232343564582
 21
9.359062981022163
 72
     1
 10
-25.85232343564582
 20
9.359062981022163
 11
-24.45437038870551
 21
10.93992197479716
 72
     1
 10
-24.45437038870551
 20
10.93992197479716
 11
-25.75690001947299
 21
12.41287250483336
 72
     1
 10
-25.75690001947299
 20
12.41287250483336
 11
-24.3541758017237
 21
12.41287250483336
 72
     1
 10
-24.3541758017237
 20
12.41287250483336
 11
-23.7530082798319
 21
11.73304918327787
 72
     1
 10
-23.7530082798319
 20
11.73304918327787
 11
-23.15184075793911
 21
12.41287250483336
 97
       12
330
206
330
25F
330
25E
330
25D
330
25C
330
207
330
208
330
204
330
205
330
262
330
261
330
260
 75
     1
 76
     0
 52
45.0
 41
0.1
 77
     0
 78
     1
 53
45.0
 43
0.0
 44
0.0
 45
-0.0707106781186548
 46
0.0707106781186548
 79
     0
 98
        1
 10
0.0
 20
0.0
  0
HATCH
  5
320
330
A0
100
AcDbEntity
  8
1
  6
Continuous
 62
     2
100
AcDbHatch
 10
0.0
 20
0.0
 30
0.0
210
0.0
220
0.0
230
1.0
  2
_USER
 70
     0
 71
     1
 91
        1
 92
        1
 93
        4
 72
     1
 10
-25.97160270586269
 20
12.41287250483336
 11
-25.97160270586269
 21
9.359062981022163
 72
     1
 10
-25.97160270586269
 20
9.359062981022163
 11
-27.21210711611559
 21
9.359062981022163
 72
     1
 10
-27.21210711611559
 20
9.359062981022163
 11
-27.21210711611559
 21
12.41287250483336
 72
     1
 10
-27.21210711611559
 20
12.41287250483336
 11
-25.97160270586269
 21
12.41287250483336
 97
        4
330
25A
330
209
330
259
330
25B
 75
     1
 76
     0
 52
45.0
 41
0.1
 77
     0
 78
     1
 53
45.0
 43
0.0
 44
0.0
 45
-0.0707106781186548
 46
0.0707106781186548
 79
     0
 98
        1
 10
0.0
 20
0.0
  0
HATCH
  5
321
330
A0
100
AcDbEntity
  8
1
  6
Continuous
 62
     2
100
AcDbHatch
 10
0.0
 20
0.0
 30
0.0
210
0.0
220
0.0
230
1.0
  2
_USER
 70
     0
 71
     1
 91
        1
 92
        1
 93
        4
 72
     1
 10
-25.97160270586269
 20
12.41287250483336
 11
-25.97160270586269
 21
9.359062981022163
 72
     1
 10
-25.97160270586269
 20
9.359062981022163
 11
-27.21210711611559
 21
9.359062981022163
 72
     1
 10
-27.21210711611559
 20
9.359062981022163
 11
-27.21210711611559
 21
12.41287250483336
 72
     1
 10
-27.21210711611559
 20
12.41287250483336
 11
-25.97160270586269
 21
12.41287250483336
 97
        4
330
25A
330
209
330
259
330
25B
 75
     1
 76
     0
 52
45.0
 41
0.1
 77
     0
 78
     1
 53
45.0
 43
0.0
 44
0.0
 45
-0.0707106781186548
 46
0.0707106781186548
 79
     0
 98
        1
 10
0.0
 20
0.0
  0
HATCH
  5
322
330
A0
100
AcDbEntity
  8
1
  6
Continuous
 62
     2
100
AcDbHatch
 10
0.0
 20
0.0
 30
0.0
210
0.0
220
0.0
230
1.0
  2
_USER
 70
     0
 71
     1
 91
        2
 92
        1
 93
        8
 72
     1
 10
-26.36204670939469
 20
5.999872504847872
 11
-27.60255111964861
 21
5.999872504847872
 72
     1
 10
-27.60255111964861
 20
5.999872504847872
 11
-27.81403117312439
 21
6.540833049065753
 72
     1
 10
-27.81403117312439
 20
6.540833049065753
 11
-28.9464727497982
 21
6.540833049065753
 72
     1
 10
-28.9464727497982
 20
6.540833049065753
 11
-29.15795280327401
 21
5.999872504847872
 72
     1
 10
-29.15795280327401
 20
5.999872504847872
 11
-30.398457213527
 21
5.999872504847872
 72
     1
 10
-30.398457213527
 20
5.999872504847872
 11
-29.00050416658769
 21
9.053682028658955
 72
     1
 10
-29.00050416658769
 20
9.053682028658955
 11
-27.75999975633499
 21
9.053682028658955
 72
     1
 10
-27.75999975633499
 20
9.053682028658955
 11
-26.36204670939469
 21
5.999872504847872
 97
        8
330
255
330
20F
330
254
330
257
330
20C
330
256
330
20D
330
20E
 92
       16
 93
        3
 72
     1
 10
-28.6804171986532
 20
7.221396314372356
 11
-28.0800867242707
 21
7.221396314372356
 72
     1
 10
-28.0800867242707
 20
7.221396314372356
 11
-28.3802519614608
 21
7.989211280359058
 72
     1
 10
-28.3802519614608
 20
7.989211280359058
 11
-28.6804171986532
 21
7.221396314372356
 97
        3
330
20B
330
20A
330
258
 75
     1
 76
     0
 52
45.0
 41
0.1
 77
     0
 78
     1
 53
45.0
 43
0.0
 44
0.0
 45
-0.0707106781186548
 46
0.0707106781186548
 79
     0
 98
        1
 10
0.0
 20
0.0
  0
HATCH
  5
323
330
A0
100
AcDbEntity
  8
1
  6
Continuous
 62
     2
100
AcDbHatch
 10
0.0
 20
0.0
 30
0.0
210
0.0
220
0.0
230
1.0
  2
_USER
 70
     0
 71
     1
 91
        2
 92
        1
 93
        8
 72
     1
 10
-26.36204670939469
 20
5.999872504847872
 11
-27.60255111964861
 21
5.999872504847872
 72
     1
 10
-27.60255111964861
 20
5.999872504847872
 11
-27.81403117312439
 21
6.540833049065753
 72
     1
 10
-27.81403117312439
 20
6.540833049065753
 11
-28.9464727497982
 21
6.540833049065753
 72
     1
 10
-28.9464727497982
 20
6.540833049065753
 11
-29.15795280327401
 21
5.999872504847872
 72
     1
 10
-29.15795280327401
 20
5.999872504847872
 11
-30.398457213527
 21
5.999872504847872
 72
     1
 10
-30.398457213527
 20
5.999872504847872
 11
-29.00050416658769
 21
9.053682028658955
 72
     1
 10
-29.00050416658769
 20
9.053682028658955
 11
-27.75999975633499
 21
9.053682028658955
 72
     1
 10
-27.75999975633499
 20
9.053682028658955
 11
-26.36204670939469
 21
5.999872504847872
 97
        8
330
255
330
20F
330
254
330
257
330
20C
330
256
330
20D
330
20E
 92
       16
 93
        3
 72
     1
 10
-28.6804171986532
 20
7.221396314372356
 11
-28.0800867242707
 21
7.221396314372356
 72
     1
 10
-28.0800867242707
 20
7.221396314372356
 11
-28.3802519614608
 21
7.989211280359058
 72
     1
 10
-28.3802519614608
 20
7.989211280359058
 11
-28.6804171986532
 21
7.221396314372356
 97
        3
330
20B
330
20A
330
258
 75
     1
 76
     0
 52
45.0
 41
0.1
 77
     0
 78
     1
 53
45.0
 43
0.0
 44
0.0
 45
-0.0707106781186548
 46
0.0707106781186548
 79
     0
 98
        1
 10
0.0
 20
0.0
  0
HATCH
  5
324
330
A0
100
AcDbEntity
  8
1
  6
Continuous
 62
     2
100
AcDbHatch
 10
0.0
 20
0.0
 30
0.0
210
0.0
220
0.0
230
1.0
  2
_USER
 70
     0
 71
     1
 91
        1
 92
        1
 93
        8
 72
     1
 10
-32.55596935270921
 20
9.053682028658955
 11
-32.55596935270921
 21
8.268416722535363
 72
     1
 10
-32.55596935270921
 20
8.268416722535363
 11
-31.74487031523461
 21
8.268416722535363
 72
     1
 10
-31.74487031523461
 20
8.268416722535363
 11
-31.74487031523461
 21
5.999872504847872
 72
     1
 10
-31.74487031523461
 20
5.999872504847872
 11
-30.55207761306809
 21
5.999872504847872
 72
     1
 10
-30.55207761306809
 20
5.999872504847872
 11
-30.55207761306809
 21
8.268416722535363
 72
     1
 10
-30.55207761306809
 20
8.268416722535363
 11
-29.74097857559559
 21
8.268416722535363
 72
     1
 10
-29.74097857559559
 20
8.268416722535363
 11
-29.74097857559559
 21
9.053682028658955
 72
     1
 10
-29.74097857559559
 20
9.053682028658955
 11
-32.55596935270921
 21
9.053682028658955
 97
        8
330
251
330
250
330
24F
330
210
330
211
330
253
330
212
330
252
 75
     1
 76
     0
 52
45.0
 41
0.1
 77
     0
 78
     1
 53
45.0
 43
0.0
 44
0.0
 45
-0.0707106781186548
 46
0.0707106781186548
 79
     0
 98
        1
 10
0.0
 20
0.0
  0
HATCH
  5
325
330
A0
100
AcDbEntity
  8
1
  6
Continuous
 62
     2
100
AcDbHatch
 10
0.0
 20
0.0
 30
0.0
210
0.0
220
0.0
230
1.0
  2
_USER
 70
     0
 71
     1
 91
        1
 92
        1
 93
        8
 72
     1
 10
-32.55596935270921
 20
9.053682028658955
 11
-32.55596935270921
 21
8.268416722535363
 72
     1
 10
-32.55596935270921
 20
8.268416722535363
 11
-31.74487031523461
 21
8.268416722535363
 72
     1
 10
-31.74487031523461
 20
8.268416722535363
 11
-31.74487031523461
 21
5.999872504847872
 72
     1
 10
-31.74487031523461
 20
5.999872504847872
 11
-30.55207761306809
 21
5.999872504847872
 72
     1
 10
-30.55207761306809
 20
5.999872504847872
 11
-30.55207761306809
 21
8.268416722535363
 72
     1
 10
-30.55207761306809
 20
8.268416722535363
 11
-29.74097857559559
 21
8.268416722535363
 72
     1
 10
-29.74097857559559
 20
8.268416722535363
 11
-29.74097857559559
 21
9.053682028658955
 72
     1
 10
-29.74097857559559
 20
9.053682028658955
 11
-32.55596935270921
 21
9.053682028658955
 97
        8
330
251
330
250
330
24F
330
210
330
211
330
253
330
212
330
252
 75
     1
 76
     0
 52
45.0
 41
0.1
 77
     0
 78
     1
 53
45.0
 43
0.0
 44
0.0
 45
-0.0707106781186548
 46
0.0707106781186548
 79
     0
 98
        1
 10
0.0
 20
0.0
  0
HATCH
  5
326
330
A0
100
AcDbEntity
  8
1
  6
Continuous
 62
     2
100
AcDbHatch
 10
0.0
 20
0.0
 30
0.0
210
0.0
220
0.0
230
1.0
  2
_USER
 70
     0
 71
     1
 91
        1
 92
        1
 93
       10
 72
     1
 10
-29.88396276897009
 20
12.41287250483336
 11
-31.07675547113661
 21
12.41287250483336
 72
     1
 10
-31.07675547113661
 20
12.41287250483336
 11
-31.07675547113661
 21
9.359062981022163
 72
     1
 10
-31.07675547113661
 20
9.359062981022163
 11
-29.88396276897009
 21
9.359062981022163
 72
     1
 10
-29.88396276897009
 20
9.359062981022163
 11
-29.88396276897009
 21
10.66783849122686
 72
     1
 10
-29.88396276897009
 20
10.66783849122686
 11
-28.64345835871609
 21
9.359062981022163
 72
     1
 10
-28.64345835871609
 20
9.359062981022163
 11
-27.45066565654949
 21
9.359062981022163
 72
     1
 10
-27.45066565654949
 20
9.359062981022163
 11
-27.45066565654949
 21
12.41287250483336
 72
     1
 10
-27.45066565654949
 20
12.41287250483336
 11
-28.64345835871609
 21
12.41287250483336
 72
     1
 10
-28.64345835871609
 20
12.41287250483336
 11
-28.64345835871609
 21
11.10409699462818
 72
     1
 10
-28.64345835871609
 20
11.10409699462818
 11
-29.88396276897009
 21
12.41287250483336
 97
       10
330
24B
330
215
330
216
330
217
330
218
330
24E
330
213
330
24D
330
24C
330
214
 75
     1
 76
     0
 52
45.0
 41
0.1
 77
     0
 78
     1
 53
45.0
 43
0.0
 44
0.0
 45
-0.0707106781186548
 46
0.0707106781186548
 79
     0
 98
        1
 10
0.0
 20
0.0
  0
HATCH
  5
327
330
A0
100
AcDbEntity
  8
1
  6
Continuous
 62
     2
100
AcDbHatch
 10
0.0
 20
0.0
 30
0.0
210
0.0
220
0.0
230
1.0
  2
_USER
 70
     0
 71
     1
 91
        1
 92
        1
 93
       10
 72
     1
 10
-29.88396276897009
 20
12.41287250483336
 11
-31.07675547113661
 21
12.41287250483336
 72
     1
 10
-31.07675547113661
 20
12.41287250483336
 11
-31.07675547113661
 21
9.359062981022163
 72
     1
 10
-31.07675547113661
 20
9.359062981022163
 11
-29.88396276897009
 21
9.359062981022163
 72
     1
 10
-29.88396276897009
 20
9.359062981022163
 11
-29.88396276897009
 21
10.66783849122686
 72
     1
 10
-29.88396276897009
 20
10.66783849122686
 11
-28.64345835871609
 21
9.359062981022163
 72
     1
 10
-28.64345835871609
 20
9.359062981022163
 11
-27.45066565654949
 21
9.359062981022163
 72
     1
 10
-27.45066565654949
 20
9.359062981022163
 11
-27.45066565654949
 21
12.41287250483336
 72
     1
 10
-27.45066565654949
 20
12.41287250483336
 11
-28.64345835871609
 21
12.41287250483336
 72
     1
 10
-28.64345835871609
 20
12.41287250483336
 11
-28.64345835871609
 21
11.10409699462818
 72
     1
 10
-28.64345835871609
 20
11.10409699462818
 11
-29.88396276897009
 21
12.41287250483336
 97
       10
330
24B
330
215
330
216
330
217
330
218
330
24E
330
213
330
24D
330
24C
330
214
 75
     1
 76
     0
 52
45.0
 41
0.1
 77
     0
 78
     1
 53
45.0
 43
0.0
 44
0.0
 45
-0.0707106781186548
 46
0.0707106781186548
 79
     0
 98
        1
 10
0.0
 20
0.0
  0
HATCH
  5
328
330
A0
100
AcDbEntity
  8
1
  6
Continuous
 62
     2
100
AcDbHatch
 10
0.0
 20
0.0
 30
0.0
210
0.0
220
0.0
230
1.0
  2
_USER
 70
     0
 71
     1
 91
        1
 92
        1
 93
       10
 72
     1
 10
-35.13240158938871
 20
9.053682028658955
 11
-36.3251942915563
 21
9.053682028658955
 72
     1
 10
-36.3251942915563
 20
9.053682028658955
 11
-36.3251942915563
 21
5.999872504847872
 72
     1
 10
-36.3251942915563
 20
5.999872504847872
 11
-35.13240158938871
 21
5.999872504847872
 72
     1
 10
-35.13240158938871
 20
5.999872504847872
 11
-35.13240158938871
 21
7.308648015052455
 72
     1
 10
-35.13240158938871
 20
7.308648015052455
 11
-33.89189717913581
 21
5.999872504847872
 72
     1
 10
-33.89189717913581
 20
5.999872504847872
 11
-32.69910447696941
 21
5.999872504847872
 72
     1
 10
-32.69910447696941
 20
5.999872504847872
 11
-32.69910447696941
 21
9.053682028658955
 72
     1
 10
-32.69910447696941
 20
9.053682028658955
 11
-33.89189717913581
 21
9.053682028658955
 72
     1
 10
-33.89189717913581
 20
9.053682028658955
 11
-33.89189717913581
 21
7.74490651845386
 72
     1
 10
-33.89189717913581
 20
7.74490651845386
 11
-35.13240158938871
 21
9.053682028658955
 97
       10
330
21A
330
21B
330
21C
330
248
330
21D
330
21E
330
247
330
24A
330
249
330
219
 75
     1
 76
     0
 52
45.0
 41
0.1
 77
     0
 78
     1
 53
45.0
 43
0.0
 44
0.0
 45
-0.0707106781186548
 46
0.0707106781186548
 79
     0
 98
        1
 10
0.0
 20
0.0
  0
HATCH
  5
329
330
A0
100
AcDbEntity
  8
1
  6
Continuous
 62
     2
100
AcDbHatch
 10
0.0
 20
0.0
 30
0.0
210
0.0
220
0.0
230
1.0
  2
_USER
 70
     0
 71
     1
 91
        1
 92
        1
 93
       10
 72
     1
 10
-35.13240158938871
 20
9.053682028658955
 11
-36.3251942915563
 21
9.053682028658955
 72
     1
 10
-36.3251942915563
 20
9.053682028658955
 11
-36.3251942915563
 21
5.999872504847872
 72
     1
 10
-36.3251942915563
 20
5.999872504847872
 11
-35.13240158938871
 21
5.999872504847872
 72
     1
 10
-35.13240158938871
 20
5.999872504847872
 11
-35.13240158938871
 21
7.308648015052455
 72
     1
 10
-35.13240158938871
 20
7.308648015052455
 11
-33.89189717913581
 21
5.999872504847872
 72
     1
 10
-33.89189717913581
 20
5.999872504847872
 11
-32.69910447696941
 21
5.999872504847872
 72
     1
 10
-32.69910447696941
 20
5.999872504847872
 11
-32.69910447696941
 21
9.053682028658955
 72
     1
 10
-32.69910447696941
 20
9.053682028658955
 11
-33.89189717913581
 21
9.053682028658955
 72
     1
 10
-33.89189717913581
 20
9.053682028658955
 11
-33.89189717913581
 21
7.74490651845386
 72
     1
 10
-33.89189717913581
 20
7.74490651845386
 11
-35.13240158938871
 21
9.053682028658955
 97
       10
330
21A
330
21B
330
21C
330
248
330
21D
330
21E
330
247
330
24A
330
249
330
219
 75
     1
 76
     0
 52
45.0
 41
0.1
 77
     0
 78
     1
 53
45.0
 43
0.0
 44
0.0
 45
-0.0707106781186548
 46
0.0707106781186548
 79
     0
 98
        1
 10
0.0
 20
0.0
  0
HATCH
  5
32A
330
A0
100
AcDbEntity
  8
1
  6
Continuous
 62
     2
100
AcDbHatch
 10
0.0
 20
0.0
 30
0.0
210
0.0
220
0.0
230
1.0
  2
_USER
 70
     0
 71
     1
 91
        1
 92
        1
 93
       12
 72
     1
 10
-36.13419652832411
 20
12.41287250483336
 11
-36.13419652832411
 21
9.359062981022163
 72
     1
 10
-36.13419652832411
 20
9.359062981022163
 11
-37.32698923049051
 21
9.359062981022163
 72
     1
 10
-37.32698923049051
 20
9.359062981022163
 11
-37.32698923049051
 21
10.49333508986598
 72
     1
 10
-37.32698923049051
 20
10.49333508986598
 11
-38.37664680839799
 21
10.49333508986598
 72
     1
 10
-38.37664680839799
 20
10.49333508986598
 11
-38.37664680839799
 21
9.359062981022163
 72
     1
 10
-38.37664680839799
 20
9.359062981022163
 11
-39.56943951056459
 21
9.359062981022163
 72
     1
 10
-39.56943951056459
 20
9.359062981022163
 11
-39.56943951056459
 21
12.41287250483336
 72
     1
 10
-39.56943951056459
 20
12.41287250483336
 11
-38.37664680839799
 21
12.41287250483336
 72
     1
 10
-38.37664680839799
 20
12.41287250483336
 11
-38.37664680839799
 21
11.34403917149876
 72
     1
 10
-38.37664680839799
 20
11.34403917149876
 11
-37.32698923049051
 21
11.34403917149876
 72
     1
 10
-37.32698923049051
 20
11.34403917149876
 11
-37.32698923049051
 21
12.41287250483336
 72
     1
 10
-37.32698923049051
 20
12.41287250483336
 11
-36.13419652832411
 21
12.41287250483336
 97
       12
330
242
330
241
330
240
330
228
330
229
330
23F
330
22A
330
23E
330
23D
330
23C
330
226
330
227
 75
     1
 76
     0
 52
45.0
 41
0.1
 77
     0
 78
     1
 53
45.0
 43
0.0
 44
0.0
 45
-0.0707106781186548
 46
0.0707106781186548
 79
     0
 98
        1
 10
0.0
 20
0.0
  0
HATCH
  5
32B
330
A0
100
AcDbEntity
  8
1
  6
Continuous
 62
     2
100
AcDbHatch
 10
0.0
 20
0.0
 30
0.0
210
0.0
220
0.0
230
1.0
  2
_USER
 70
     0
 71
     1
 91
        1
 92
        1
 93
       12
 72
     1
 10
-36.13419652832411
 20
12.41287250483336
 11
-36.13419652832411
 21
9.359062981022163
 72
     1
 10
-36.13419652832411
 20
9.359062981022163
 11
-37.32698923049051
 21
9.359062981022163
 72
     1
 10
-37.32698923049051
 20
9.359062981022163
 11
-37.32698923049051
 21
10.49333508986598
 72
     1
 10
-37.32698923049051
 20
10.49333508986598
 11
-38.37664680839799
 21
10.49333508986598
 72
     1
 10
-38.37664680839799
 20
10.49333508986598
 11
-38.37664680839799
 21
9.359062981022163
 72
     1
 10
-38.37664680839799
 20
9.359062981022163
 11
-39.56943951056459
 21
9.359062981022163
 72
     1
 10
-39.56943951056459
 20
9.359062981022163
 11
-39.56943951056459
 21
12.41287250483336
 72
     1
 10
-39.56943951056459
 20
12.41287250483336
 11
-38.37664680839799
 21
12.41287250483336
 72
     1
 10
-38.37664680839799
 20
12.41287250483336
 11
-38.37664680839799
 21
11.34403917149876
 72
     1
 10
-38.37664680839799
 20
11.34403917149876
 11
-37.32698923049051
 21
11.34403917149876
 72
     1
 10
-37.32698923049051
 20
11.34403917149876
 11
-37.32698923049051
 21
12.41287250483336
 72
     1
 10
-37.32698923049051
 20
12.41287250483336
 11
-36.13419652832411
 21
12.41287250483336
 97
       12
330
242
330
241
330
240
330
228
330
229
330
23F
330
22A
330
23E
330
23D
330
23C
330
226
330
227
 75
     1
 76
     0
 52
45.0
 41
0.1
 77
     0
 78
     1
 53
45.0
 43
0.0
 44
0.0
 45
-0.0707106781186548
 46
0.0707106781186548
 79
     0
 98
        1
 10
0.0
 20
0.0
  0
ENDBLK
  5
A2
330
A0
100
AcDbEntity
  8
0
100
AcDbBlockEnd
  0
BLOCK
  5
A4
330
A3
100
AcDbEntity
  8
0
100
AcDbBlockBegin
  2
_punkt
 70
     0
 10
75.7431072854648
 20
-1.29362749516844
 30
0.0
  3
_punkt
  1

  0
LINE
  5
32C
330
A3
100
AcDbEntity
  8
1
  6
Continuous
 62
     2
100
AcDbLine
 10
75.7431072854648
 20
-1.29362749516844
 30
0.0
 11
75.7431072854648
 21
-6.29362749516855
 31
0.0
  0
LINE
  5
32D
330
A3
100
AcDbEntity
  8
1
  6
Continuous
 62
     2
100
AcDbLine
 10
75.7431072854648
 20
-1.29362749516844
 30
0.0
 11
80.7431072854638
 21
-1.29362749516844
 31
0.0
  0
ENDBLK
  5
A5
330
A3
100
AcDbEntity
  8
0
100
AcDbBlockEnd
  0
BLOCK
  5
A9
330
A6
100
AcDbEntity
  8
0
100
AcDbBlockBegin
  2
A4I_CS
 70
     0
 10
75.7431072854648
 20
-6.29362749516855
 30
0.0
  3
A4I_CS
  1

  0
INSERT
  5
A7
330
A6
100
AcDbEntity
  8
1
100
AcDbBlockReference
  2
_rahmen
 10
75.7431072854648
 20
-6.29362749516855
 30
0.0
  0
INSERT
  5
A8
330
A6
100
AcDbEntity
  8
1
100
AcDbBlockReference
  2
_punkt
 10
75.7431072854648
 20
-1.29362749516844
 30
0.0
  0
ENDBLK
  5
AA
330
A6
100
AcDbEntity
  8
0
100
AcDbBlockEnd
  0
BLOCK
  5
B3
330
AB
100
AcDbEntity
  8
0
100
AcDbBlockBegin
  2
1
 70
     0
 10
0.0
 20
0.0
 30
0.0
  3
1
  1

  0
INSERT
  5
AC
330
AB
100
AcDbEntity
  8
0
100
AcDbBlockReference
  2
AllgSicht1
 10
52.0000000000101
 20
56.99999999994407
 30
0.0
  0
INSERT
  5
AD
330
AB
100
AcDbEntity
  8
0
100
AcDbBlockReference
  2
Drfsicht1
 10
-103.7499999999965
 20
90.99999952312405
 30
0.0
  0
INSERT
  5
AE
330
AB
100
AcDbEntity
  8
0
100
AcDbBlockReference
  2
Rckans1
 10
0.74999999999636
 20
145.9999999999591
 30
0.0
  0
INSERT
  5
AF
330
AB
100
AcDbEntity
  8
0
100
AcDbBlockReference
  2
SA_Links1
 10
-43.19035079409829
 20
145.9999999999181
 30
0.0
  0
INSERT
  5
B0
330
AB
100
AcDbEntity
  8
0
100
AcDbBlockReference
  2
SA_Rechts1
 10
-155.499999999993
 20
145.9999999999591
 30
0.0
  0
INSERT
  5
B1
330
AB
100
AcDbEntity
  8
0
100
AcDbBlockReference
  2
Vordans1
 10
-103.7499999999965
 20
145.9999999999591
 30
0.0
  0
INSERT
  5
B2
330
AB
100
AcDbEntity
  8
0
100
AcDbBlockReference
  2
A4I_CS
 10
75.7431072854648
 20
-6.29362749516855
 30
0.0
  0
ENDBLK
  5
B4
330
AB
100
AcDbEntity
  8
0
100
AcDbBlockEnd
  0
BLOCK
  5
16A
330
163
100
AcDbEntity
  8
0
100
AcDbBlockBegin
  2
*D17
 70
     1
 10
0.0
 20
0.0
 30
0.0
  3
*D17
  1

  0
LINE
  5
164
330
163
100
AcDbEntity
  8
1
  6
Continuous
 62
     2
100
AcDbLine
 10
-53.440349886576
 20
120.029772285886
 30
0.0
 11
-32.94034988657601
 21
120.029772285886
 31
0.0
  0
LINE
  5
165
330
163
100
AcDbEntity
  8
1
  6
Continuous
 62
     2
100
AcDbLine
 10
-53.440349886576
 20
134.2499994969396
 30
0.0
 11
-53.440349886576
 21
118.029772285886
 31
0.0
  0
LINE
  5
166
330
163
100
AcDbEntity
  8
1
  6
Continuous
 62
     2
100
AcDbLine
 10
-32.94034988657601
 20
134.2499994969376
 30
0.0
 11
-32.94034988657601
 21
118.029772285886
 31
0.0
  0
SOLID
  5
167
330
163
100
AcDbEntity
  8
1
 62
     2
100
AcDbTrace
 10
-49.940349886576
 20
120.4905560274419
 30
0.0
 11
-49.940349886576
 21
119.5689885443301
 31
0.0
 12
-53.440349886576
 22
120.029772285886
 32
0.0
 13
-53.440349886576
 23
120.029772285886
 33
0.0
  0
SOLID
  5
168
330
163
100
AcDbEntity
  8
1
 62
     2
100
AcDbTrace
 10
-36.44034988657601
 20
119.5689885443301
 30
0.0
 11
-36.44034988657601
 21
120.4905560274419
 31
0.0
 12
-32.94034988657601
 22
120.029772285886
 32
0.0
 13
-32.94034988657601
 23
120.029772285886
 33
0.0
  0
MTEXT
  5
169
330
163
100
AcDbEntity
  8
1
 62
     3
100
AcDbMText
 10
-48.0028507940983
 20
122.379772285886
 30
0.0
 40
3.5
 41
0.0
 71
     7
 72
     1
  1
20,5
  7
CONVERTER_11
 11
0.9999999999970619
 21
2.424068405545306E-6
 31
0.0
 73
     1
 44
0.60024009603842
  0
ENDBLK
  5
16B
330
163
100
AcDbEntity
  8
0
100
AcDbBlockEnd
  0
BLOCK
  5
1E6
330
1DF
100
AcDbEntity
  8
0
100
AcDbBlockBegin
  2
*D18
 70
     1
 10
0.0
 20
0.0
 30
0.0
  3
*D18
  1

  0
LINE
  5
1E0
330
1DF
100
AcDbEntity
  8
1
  6
Continuous
 62
     2
100
AcDbLine
 10
-80.80380103519282
 20
131.2499994969804
 30
0.0
 11
-80.80380103519282
 21
160.7499994969822
 31
0.0
  0
LINE
  5
1E1
330
1DF
100
AcDbEntity
  8
1
  6
Continuous
 62
     2
100
AcDbLine
 10
-105.5538475772629
 20
131.2499994969804
 30
0.0
 11
-78.80380103519282
 21
131.2499994969804
 31
0.0
  0
LINE
  5
1E2
330
1DF
100
AcDbEntity
  8
1
  6
Continuous
 62
     2
100
AcDbLine
 10
-112.2499999999625
 20
160.7499994969822
 30
0.0
 11
-78.80380103519282
 21
160.7499994969822
 31
0.0
  0
SOLID
  5
1E3
330
1DF
100
AcDbEntity
  8
1
 62
     2
100
AcDbTrace
 10
-81.2645847767487
 20
134.7499994969804
 30
0.0
 11
-80.34301729363693
 21
134.7499994969804
 31
0.0
 12
-80.80380103519282
 22
131.2499994969804
 32
0.0
 13
-80.80380103519282
 23
131.2499994969804
 33
0.0
  0
SOLID
  5
1E4
330
1DF
100
AcDbEntity
  8
1
 62
     2
100
AcDbTrace
 10
-80.34301729363693
 20
157.2499994969822
 30
0.0
 11
-81.2645847767487
 21
157.2499994969822
 31
0.0
 12
-80.80380103519282
 22
160.7499994969822
 32
0.0
 13
-80.80380103519282
 23
160.7499994969822
 33
0.0
  0
MTEXT
  5
1E5
330
1DF
100
AcDbEntity
  8
1
 62
     3
100
AcDbMText
 10
-83.15380103519281
 20
140.780761614758
 30
0.0
 40
3.5
 41
0.0
 71
     7
 72
     1
  1
29,5
  7
CONVERTER_11
 11
0.0
 21
1.0
 31
0.0
 73
     1
 44
0.60024009603842
  0
ENDBLK
  5
1E7
330
1DF
100
AcDbEntity
  8
0
100
AcDbBlockEnd
  0
BLOCK
  5
1F1
330
1EA
100
AcDbEntity
  8
0
100
AcDbBlockBegin
  2
*D19
 70
     1
 10
0.0
 20
0.0
 30
0.0
  3
*D19
  1

  0
LINE
  5
1EB
330
1EA
100
AcDbEntity
  8
1
  6
Continuous
 62
     2
100
AcDbLine
 10
-95.24999999996902
 20
120.029772285886
 30
0.0
 11
-112.2499999999689
 21
120.029772285886
 31
0.0
  0
LINE
  5
1EC
330
1EA
100
AcDbEntity
  8
1
  6
Continuous
 62
     2
100
AcDbLine
 10
-95.24999999996902
 20
134.249999496978
 30
0.0
 11
-95.24999999996902
 21
118.029772285886
 31
0.0
  0
LINE
  5
1ED
330
1EA
100
AcDbEntity
  8
1
  6
Continuous
 62
     2
100
AcDbLine
 10
-112.2499999999689
 20
134.249999496982
 30
0.0
 11
-112.2499999999689
 21
118.029772285886
 31
0.0
  0
SOLID
  5
1EE
330
1EA
100
AcDbEntity
  8
1
 62
     2
100
AcDbTrace
 10
-98.74999999996902
 20
119.5689885443301
 30
0.0
 11
-98.74999999996902
 21
120.4905560274419
 31
0.0
 12
-95.24999999996902
 22
120.029772285886
 32
0.0
 13
-95.24999999996902
 23
120.029772285886
 33
0.0
  0
SOLID
  5
1EF
330
1EA
100
AcDbEntity
  8
1
 62
     2
100
AcDbTrace
 10
-108.7499999999689
 20
120.4905560274419
 30
0.0
 11
-108.7499999999689
 21
119.5689885443301
 31
0.0
 12
-112.2499999999689
 22
120.029772285886
 32
0.0
 13
-112.2499999999689
 23
120.029772285886
 33
0.0
  0
MTEXT
  5
1F0
330
1EA
100
AcDbEntity
  8
1
 62
     3
100
AcDbMText
 10
-106.33516440094
 20
122.029772285886
 30
0.0
 40
3.5
 41
0.0
 71
     7
 72
     1
  1
17
  7
CONVERTER_11
 11
0.9999999999970619
 21
2.424068405545306E-6
 31
0.0
 73
     1
 44
0.60024009603842
  0
ENDBLK
  5
1F2
330
1EA
100
AcDbEntity
  8
0
100
AcDbBlockEnd
  0
ENDSEC
  0
SECTION
  2
ENTITIES
  0
INSERT
  5
B5
330
1F
100
AcDbEntity
  8
1
100
AcDbBlockReference
  2
1
 10
0.0
 20
0.0
 30
0.0
  0
ENDSEC
  0
SECTION
  2
OBJECTS
  0
DICTIONARY
  5
C
330
0
100
AcDbDictionary
281
     1
  3
ACAD_DETAILVIEWSTYLE
350
373
  3
ACAD_GROUP
350
D
  3
ACAD_LAYOUT
350
1A
  3
ACAD_MATERIAL
350
43
  3
ACAD_MLEADERSTYLE
350
6B
  3
ACAD_MLINESTYLE
350
17
  3
ACAD_PLOTSETTINGS
350
19
  3
ACAD_PLOTSTYLENAME
350
E
  3
ACAD_SCALELIST
350
47
  3
ACAD_SECTIONVIEWSTYLE
350
374
  3
ACAD_TABLESTYLE
350
69
  3
ACAD_VISUALSTYLE
350
2A
  3
ACDB_RECOMPOSE_DATA
350
370
  3
AcDbVariableDictionary
350
330
  0
DICTIONARY
  5
32E
330
8
100
AcDbDictionary
280
     1
281
     1
  3
ACAD_XREC_ROUNDTRIP
360
32F
  0
DICTIONARY
  5
373
102
{ACAD_REACTORS
330
C
102
}
330
C
100
AcDbDictionary
281
     1
  0
DICTIONARY
  5
D
102
{ACAD_REACTORS
330
C
102
}
330
C
100
AcDbDictionary
281
     1
  0
DICTIONARY
  5
1A
102
{ACAD_REACTORS
330
C
102
}
330
C
100
AcDbDictionary
281
     1
  3
Layout1
350
1E
  3
Layout2
350
26
  3
Model
350
22
  0
DICTIONARY
  5
43
102
{ACAD_REACTORS
330
C
102
}
330
C
100
AcDbDictionary
281
     1
  3
ByBlock
350
45
  3
ByLayer
350
44
  3
Global
350
46
  0
DICTIONARY
  5
6B
102
{ACAD_REACTORS
330
C
102
}
330
C
100
AcDbDictionary
281
     1
  3
Standard
350
6C
  0
DICTIONARY
  5
17
102
{ACAD_REACTORS
330
C
102
}
330
C
100
AcDbDictionary
281
     1
  3
Standard
350
18
  0
DICTIONARY
  5
19
102
{ACAD_REACTORS
330
C
102
}
330
C
100
AcDbDictionary
281
     1
  0
ACDBDICTIONARYWDFLT
  5
E
102
{ACAD_REACTORS
330
C
102
}
330
C
100
AcDbDictionary
281
     1
  3
Normal
350
F
100
AcDbDictionaryWithDefault
340
F
  0
DICTIONARY
  5
47
102
{ACAD_REACTORS
330
C
102
}
330
C
100
AcDbDictionary
281
     1
  3
A0
350
48
  3
A1
350
49
  3
A2
350
4A
  3
A3
350
4B
  3
A4
350
4C
  3
A5
350
4D
  3
A6
350
4E
  3
A7
350
4F
  3
A8
350
50
  3
A9
350
51
  3
B0
350
52
  3
B1
350
53
  3
B2
350
54
  3
B3
350
55
  3
B4
350
56
  3
B5
350
57
  3
B6
350
58
  3
B7
350
59
  3
B8
350
5A
  3
B9
350
5B
  3
C0
350
5C
  3
C1
350
5D
  3
C2
350
5E
  3
C3
350
5F
  3
C4
350
60
  3
C5
350
61
  3
C6
350
62
  3
C7
350
63
  3
C8
350
64
  3
C9
350
65
  3
D0
350
66
  3
D1
350
67
  3
D2
350
68
  0
DICTIONARY
  5
374
102
{ACAD_REACTORS
330
C
102
}
330
C
100
AcDbDictionary
281
     1
  0
DICTIONARY
  5
69
102
{ACAD_REACTORS
330
C
102
}
330
C
100
AcDbDictionary
281
     1
  3
Standard
350
6A
  0
DICTIONARY
  5
2A
102
{ACAD_REACTORS
330
C
102
}
330
C
100
AcDbDictionary
281
     1
  3
2dWireframe
350
2F
  3
Basic
350
32
  3
Brighten
350
36
  3
ColorChange
350
3A
  3
Conceptual
350
34
  3
Dim
350
35
  3
EdgeColorOff
350
3D
  3
Facepattern
350
39
  3
Flat
350
2B
  3
FlatWithEdges
350
2C
  3
Gouraud
350
2D
  3
GouraudWithEdges
350
2E
  3
Hidden
350
31
  3
JitterOff
350
3B
  3
Linepattern
350
38
  3
OverhangOff
350
3C
  3
Realistic
350
33
  3
Shaded
350
42
  3
Shaded with edges
350
41
  3
Shades of Gray
350
3E
  3
Sketchy
350
3F
  3
Thicken
350
37
  3
Wireframe
350
30
  3
X-Ray
350
40
  0
XRECORD
  5
370
102
{ACAD_REACTORS
330
C
102
}
330
C
100
AcDbXrecord
280
     1
 90
        1
330
6A
  0
DICTIONARY
  5
330
102
{ACAD_REACTORS
330
C
102
}
330
C
100
AcDbDictionary
281
     1
  3
CANNOSCALE
350
331
  3
CMLEADERSTYLE
350
372
  3
CTABLESTYLE
350
371
  3
MSLTSCALE
350
332
  3
XCLIPFRAME
350
333
  0
XRECORD
  5
32F
102
{ACAD_REACTORS
330
32E
102
}
330
32E
100
AcDbXrecord
280
     1
102
VTR_0.000_0.000_1.000_1.000_VISUALSTYLE
340
2F
102
VTR_0.000_0.000_1.000_1.000_GRIDDISPLAY
 70
     3
102
VTR_0.000_0.000_1.000_1.000_GRIDMAJOR
 70
     5
102
VTR_0.000_0.000_1.000_1.000_DEFAULTLIGHTING
280
     1
102
VTR_0.000_0.000_1.000_1.000_DEFAULTLIGHTINGTYPE
 70
     1
102
VTR_0.000_0.000_1.000_1.000_BRIGHTNESS
141
0.0
102
VTR_0.000_0.000_1.000_1.000_CONTRAST
142
0.0
  0
LAYOUT
  5
1E
102
{ACAD_REACTORS
330
1A
102
}
330
1A
100
AcDbPlotSettings
  1

  2
none_device
  4

  6

 40
0.0
 41
0.0
 42
0.0
 43
0.0
 44
0.0
 45
0.0
 46
0.0
 47
0.0
 48
0.0
 49
0.0
140
0.0
141
0.0
142
1.0
143
1.0
 70
   688
 72
     0
 73
     0
 74
     5
  7

 75
    16
 76
     0
 77
     2
 78
   300
147
1.0
148
0.0
149
0.0
100
AcDbLayout
  1
Layout1
 70
     1
 71
     1
 10
0.0
 20
0.0
 11
12.0
 21
9.0
 12
0.0
 22
0.0
 32
0.0
 14
1.00000000000000E+20
 24
1.00000000000000E+20
 34
1.00000000000000E+20
 15
-1.00000000000000E+20
 25
-1.00000000000000E+20
 35
-1.00000000000000E+20
146
0.0
 13
0.0
 23
0.0
 33
0.0
 16
1.0
 26
0.0
 36
0.0
 17
0.0
 27
1.0
 37
0.0
 76
     0
330
1B
  0
LAYOUT
  5
26
102
{ACAD_REACTORS
330
1A
102
}
330
1A
100
AcDbPlotSettings
  1

  2
none_device
  4

  6

 40
0.0
 41
0.0
 42
0.0
 43
0.0
 44
0.0
 45
0.0
 46
0.0
 47
0.0
 48
0.0
 49
0.0
140
0.0
141
0.0
142
1.0
143
1.0
 70
   688
 72
     0
 73
     0
 74
     5
  7

 75
    16
 76
     0
 77
     2
 78
   300
147
1.0
148
0.0
149
0.0
100
AcDbLayout
  1
Layout2
 70
     1
 71
     2
 10
0.0
 20
0.0
 11
0.0
 21
0.0
 12
0.0
 22
0.0
 32
0.0
 14
0.0
 24
0.0
 34
0.0
 15
0.0
 25
0.0
 35
0.0
146
0.0
 13
0.0
 23
0.0
 33
0.0
 16
1.0
 26
0.0
 36
0.0
 17
0.0
 27
1.0
 37
0.0
 76
     0
330
23
  0
LAYOUT
  5
22
102
{ACAD_REACTORS
330
1A
102
}
330
1A
100
AcDbPlotSettings
  1

  2
none_device
  4
Letter_(8.50_x_11.00_Inches)
  6

 40
6.35
 41
6.35
 42
6.35000508
 43
6.35000508
 44
215.9
 45
279.4
 46
0.0
 47
0.0
 48
0.0
 49
0.0
140
0.0
141
0.0
142
1.0
143
1.0
 70
  1712
 72
     0
 73
     0
 74
     0
  7

 75
     0
 76
     0
 77
     2
 78
   300
147
1.0
148
0.0
149
0.0
100
AcDbLayout
  1
Model
 70
     1
 71
     0
 10
0.0
 20
0.0
 11
12.0
 21
9.0
 12
0.0
 22
0.0
 32
0.0
 14
-216.2568927145343
 24
-6.29362749516855
 34
0.0
 15
80.7431072854638
 25
203.7063725048316
 35
0.0
146
0.0
 13
0.0
 23
0.0
 33
0.0
 16
1.0
 26
0.0
 36
0.0
 17
0.0
 27
1.0
 37
0.0
 76
     0
330
1F
331
29
  0
MATERIAL
  5
45
102
{ACAD_REACTORS
330
43
102
}
102
{ACAD_XDICTIONARY
360
366
102
}
330
43
100
AcDbMaterial
  1
ByBlock
  0
MATERIAL
  5
44
102
{ACAD_REACTORS
330
43
102
}
102
{ACAD_XDICTIONARY
360
364
102
}
330
43
100
AcDbMaterial
  1
ByLayer
  0
MATERIAL
  5
46
102
{ACAD_REACTORS
330
43
102
}
102
{ACAD_XDICTIONARY
360
368
102
}
330
43
100
AcDbMaterial
  1
Global
  0
MLEADERSTYLE
  5
6C
102
{ACAD_REACTORS
330
6B
102
}
102
{ACAD_XDICTIONARY
360
36E
102
}
330
6B
100
AcDbMLeaderStyle
170
     2
171
     1
172
     0
 90
        2
 40
0.0
 41
0.0
173
     1
 91
-1056964608
340
14
 92
       -2
290
     1
 42
0.09
291
     1
 43
0.36
  3
Standard
341
0
 44
0.18
300

342
11
174
     1
178
     6
175
     1
176
     0
 93
-1056964608
 45
0.18
292
     0
297
     0
 46
0.18
343
0
 94
-1056964608
 47
1.0
 49
1.0
140
1.0
293
     1
141
0.0
294
     1
177
     0
142
1.0
295
     0
296
     0
143
0.125
1001
ACAD_MLEADERVER
1070
     2
  0
MLINESTYLE
  5
18
102
{ACAD_REACTORS
330
17
102
}
330
17
100
AcDbMlineStyle
  2
Standard
 70
     0
  3

 62
   256
 51
90.0
 52
90.0
 71
     2
 49
0.5
 62
   256
  6
BYLAYER
 49
-0.5
 62
   256
  6
BYLAYER
  0
ACDBPLACEHOLDER
  5
F
102
{ACAD_REACTORS
330
E
102
}
330
E
  0
SCALE
  5
48
102
{ACAD_REACTORS
330
47
102
}
330
47
100
AcDbScale
 70
     0
300
1:1
140
1.0
141
1.0
290
     1
  0
SCALE
  5
49
102
{ACAD_REACTORS
330
47
102
}
330
47
100
AcDbScale
 70
     0
300
1:2
140
1.0
141
2.0
290
     0
  0
SCALE
  5
4A
102
{ACAD_REACTORS
330
47
102
}
330
47
100
AcDbScale
 70
     0
300
1:4
140
1.0
141
4.0
290
     0
  0
SCALE
  5
4B
102
{ACAD_REACTORS
330
47
102
}
330
47
100
AcDbScale
 70
     0
300
1:5
140
1.0
141
5.0
290
     0
  0
SCALE
  5
4C
102
{ACAD_REACTORS
330
47
102
}
330
47
100
AcDbScale
 70
     0
300
1:8
140
1.0
141
8.0
290
     0
  0
SCALE
  5
4D
102
{ACAD_REACTORS
330
47
102
}
330
47
100
AcDbScale
 70
     0
300
1:10
140
1.0
141
10.0
290
     0
  0
SCALE
  5
4E
102
{ACAD_REACTORS
330
47
102
}
330
47
100
AcDbScale
 70
     0
300
1:16
140
1.0
141
16.0
290
     0
  0
SCALE
  5
4F
102
{ACAD_REACTORS
330
47
102
}
330
47
100
AcDbScale
 70
     0
300
1:20
140
1.0
141
20.0
290
     0
  0
SCALE
  5
50
102
{ACAD_REACTORS
330
47
102
}
330
47
100
AcDbScale
 70
     0
300
1:30
140
1.0
141
30.0
290
     0
  0
SCALE
  5
51
102
{ACAD_REACTORS
330
47
102
}
330
47
100
AcDbScale
 70
     0
300
1:40
140
1.0
141
40.0
290
     0
  0
SCALE
  5
52
102
{ACAD_REACTORS
330
47
102
}
330
47
100
AcDbScale
 70
     0
300
1:50
140
1.0
141
50.0
290
     0
  0
SCALE
  5
53
102
{ACAD_REACTORS
330
47
102
}
330
47
100
AcDbScale
 70
     0
300
1:100
140
1.0
141
100.0
290
     0
  0
SCALE
  5
54
102
{ACAD_REACTORS
330
47
102
}
330
47
100
AcDbScale
 70
     0
300
2:1
140
2.0
141
1.0
290
     0
  0
SCALE
  5
55
102
{ACAD_REACTORS
330
47
102
}
330
47
100
AcDbScale
 70
     0
300
4:1
140
4.0
141
1.0
290
     0
  0
SCALE
  5
56
102
{ACAD_REACTORS
330
47
102
}
330
47
100
AcDbScale
 70
     0
300
8:1
140
8.0
141
1.0
290
     0
  0
SCALE
  5
57
102
{ACAD_REACTORS
330
47
102
}
330
47
100
AcDbScale
 70
     0
300
10:1
140
10.0
141
1.0
290
     0
  0
SCALE
  5
58
102
{ACAD_REACTORS
330
47
102
}
330
47
100
AcDbScale
 70
     0
300
100:1
140
100.0
141
1.0
290
     0
  0
SCALE
  5
59
102
{ACAD_REACTORS
330
47
102
}
330
47
100
AcDbScale
 70
     0
300
1/128" = 1'-0"
140
0.0078125
141
12.0
290
     0
  0
SCALE
  5
5A
102
{ACAD_REACTORS
330
47
102
}
330
47
100
AcDbScale
 70
     0
300
1/64" = 1'-0"
140
0.015625
141
12.0
290
     0
  0
SCALE
  5
5B
102
{ACAD_REACTORS
330
47
102
}
330
47
100
AcDbScale
 70
     0
300
1/32" = 1'-0"
140
0.03125
141
12.0
290
     0
  0
SCALE
  5
5C
102
{ACAD_REACTORS
330
47
102
}
330
47
100
AcDbScale
 70
     0
300
1/16" = 1'-0"
140
0.0625
141
12.0
290
     0
  0
SCALE
  5
5D
102
{ACAD_REACTORS
330
47
102
}
330
47
100
AcDbScale
 70
     0
300
3/32" = 1'-0"
140
0.09375
141
12.0
290
     0
  0
SCALE
  5
5E
102
{ACAD_REACTORS
330
47
102
}
330
47
100
AcDbScale
 70
     0
300
1/8" = 1'-0"
140
0.125
141
12.0
290
     0
  0
SCALE
  5
5F
102
{ACAD_REACTORS
330
47
102
}
330
47
100
AcDbScale
 70
     0
300
3/16" = 1'-0"
140
0.1875
141
12.0
290
     0
  0
SCALE
  5
60
102
{ACAD_REACTORS
330
47
102
}
330
47
100
AcDbScale
 70
     0
300
1/4" = 1'-0"
140
0.25
141
12.0
290
     0
  0
SCALE
  5
61
102
{ACAD_REACTORS
330
47
102
}
330
47
100
AcDbScale
 70
     0
300
3/8" = 1'-0"
140
0.375
141
12.0
290
     0
  0
SCALE
  5
62
102
{ACAD_REACTORS
330
47
102
}
330
47
100
AcDbScale
 70
     0
300
1/2" = 1'-0"
140
0.5
141
12.0
290
     0
  0
SCALE
  5
63
102
{ACAD_REACTORS
330
47
102
}
330
47
100
AcDbScale
 70
     0
300
3/4" = 1'-0"
140
0.75
141
12.0
290
     0
  0
SCALE
  5
64
102
{ACAD_REACTORS
330
47
102
}
330
47
100
AcDbScale
 70
     0
300
1" = 1'-0"
140
1.0
141
12.0
290
     0
  0
SCALE
  5
65
102
{ACAD_REACTORS
330
47
102
}
330
47
100
AcDbScale
 70
     0
300
1-1/2" = 1'-0"
140
1.5
141
12.0
290
     0
  0
SCALE
  5
66
102
{ACAD_REACTORS
330
47
102
}
330
47
100
AcDbScale
 70
     0
300
3" = 1'-0"
140
3.0
141
12.0
290
     0
  0
SCALE
  5
67
102
{ACAD_REACTORS
330
47
102
}
330
47
100
AcDbScale
 70
     0
300
6" = 1'-0"
140
6.0
141
12.0
290
     0
  0
SCALE
  5
68
102
{ACAD_REACTORS
330
47
102
}
330
47
100
AcDbScale
 70
     0
300
1'-0" = 1'-0"
140
12.0
141
12.0
290
     0
  0
TABLESTYLE
  5
6A
102
{ACAD_REACTORS
330
69
102
}
102
{ACAD_XDICTIONARY
360
36A
102
}
330
69
100
AcDbTableStyle
  3
Standard
 70
     0
 71
     0
 40
0.06
 41
0.06
280
     0
281
     0
  7
Standard
140
0.18
170
     2
 62
     0
 63
   257
283
     0
274
    -2
284
     1
 64
     0
275
    -2
285
     1
 65
     0
276
    -2
286
     1
 66
     0
277
    -2
287
     1
 67
     0
278
    -2
288
     1
 68
     0
279
    -2
289
     1
 69
     0
  7
Standard
140
0.25
170
     5
 62
     0
 63
   257
283
     0
274
    -2
284
     1
 64
     0
275
    -2
285
     1
 65
     0
276
    -2
286
     1
 66
     0
277
    -2
287
     1
 67
     0
278
    -2
288
     1
 68
     0
279
    -2
289
     1
 69
     0
  7
Standard
140
0.18
170
     5
 62
     0
 63
   257
283
     0
274
    -2
284
     1
 64
     0
275
    -2
285
     1
 65
     0
276
    -2
286
     1
 66
     0
277
    -2
287
     1
 67
     0
278
    -2
288
     1
 68
     0
279
    -2
289
     1
 69
     0
  0
VISUALSTYLE
  5
2F
102
{ACAD_REACTORS
330
2A
102
}
102
{ACAD_XDICTIONARY
360
33C
102
}
330
2A
100
AcDbVisualStyle
  2
2dWireframe
 70
     4
 71
     0
 72
     2
 73
     0
 90
        0
 40
0.6
 41
30.0
 62
     5
 63
     7
421
 16777215
 74
     1
 91
        4
 64
     7
 65
   257
 75
     1
175
     1
 42
1.0
 92
        0
 66
   257
 43
1.0
 76
     1
 77
     6
 78
     2
 67
     7
 79
     5
170
     0
171
     0
290
     0
174
     0
 93
        1
 44
0.0
173
     0
291
     0
 45
0.0
1001
ACAD
1000
AcDbSavedByObjectVersion
1070
     0
  0
VISUALSTYLE
  5
32
102
{ACAD_REACTORS
330
2A
102
}
102
{ACAD_XDICTIONARY
360
342
102
}
330
2A
100
AcDbVisualStyle
  2
Basic
 70
     7
 71
     1
 72
     0
 73
     1
 90
        0
 40
0.6
 41
30.0
 62
     5
 63
     7
421
 16777215
 74
     0
 91
        4
 64
     7
 65
   257
 75
     1
175
     1
 42
1.0
 92
        8
 66
     7
 43
1.0
 76
     1
 77
     6
 78
     2
 67
     7
 79
     5
170
     0
171
     0
290
     0
174
     0
 93
        1
 44
0.0
173
     0
291
     1
 45
0.0
1001
ACAD
1000
AcDbSavedByObjectVersion
1070
     0
  0
VISUALSTYLE
  5
36
102
{ACAD_REACTORS
330
2A
102
}
102
{ACAD_XDICTIONARY
360
34A
102
}
330
2A
100
AcDbVisualStyle
  2
Brighten
 70
    12
 71
     2
 72
     2
 73
     0
 90
        0
 40
0.6
 41
30.0
 62
     5
 63
     7
421
 16777215
 74
     1
 91
        4
 64
     7
 65
   257
 75
     1
175
     1
 42
1.0
 92
        8
 66
     7
 43
1.0
 76
     1
 77
     6
 78
     2
 67
     7
 79
     5
170
     0
171
     0
290
     0
174
     0
 93
        1
 44
50.0
173
     0
291
     1
 45
0.0
1001
ACAD
1000
AcDbSavedByObjectVersion
1070
     0
  0
VISUALSTYLE
  5
3A
102
{ACAD_REACTORS
330
2A
102
}
102
{ACAD_XDICTIONARY
360
352
102
}
330
2A
100
AcDbVisualStyle
  2
ColorChange
 70
    16
 71
     2
 72
     2
 73
     3
 90
        0
 40
0.6
 41
30.0
 62
     5
 63
     8
421
  8421504
 74
     1
 91
        4
 64
     7
 65
   257
 75
     1
175
     1
 42
1.0
 92
        8
 66
     8
424
  8421504
 43
1.0
 76
     1
 77
     6
 78
     2
 67
     7
 79
     5
170
     0
171
     0
290
     0
174
     0
 93
        1
 44
0.0
173
     0
291
     1
 45
0.0
1001
ACAD
1000
AcDbSavedByObjectVersion
1070
     0
  0
VISUALSTYLE
  5
34
102
{ACAD_REACTORS
330
2A
102
}
102
{ACAD_XDICTIONARY
360
346
102
}
330
2A
100
AcDbVisualStyle
  2
Conceptual
 70
     9
 71
     3
 72
     2
 73
     0
 90
        0
 40
0.6
 41
30.0
 62
     5
 63
     7
421
 16777215
 74
     2
 91
        2
 64
     7
 65
   257
 75
     1
175
     1
 42
179.0
 92
        8
 66
     7
 43
1.0
 76
     1
 77
     6
 78
     2
 67
     7
 79
     3
170
     0
171
     0
290
     0
174
     0
 93
        1
 44
0.0
173
     0
291
     0
 45
0.0
1001
ACAD
1000
AcDbSavedByObjectVersion
1070
     0
  0
VISUALSTYLE
  5
35
102
{ACAD_REACTORS
330
2A
102
}
102
{ACAD_XDICTIONARY
360
348
102
}
330
2A
100
AcDbVisualStyle
  2
Dim
 70
    11
 71
     2
 72
     2
 73
     0
 90
        0
 40
0.6
 41
30.0
 62
     5
 63
     7
421
 16777215
 74
     1
 91
        4
 64
     7
 65
   257
 75
     1
175
     1
 42
1.0
 92
        8
 66
     7
 43
1.0
 76
     1
 77
     6
 78
     2
 67
     7
 79
     5
170
     0
171
     0
290
     0
174
     0
 93
        1
 44
-50.0
173
     0
291
     1
 45
0.0
1001
ACAD
1000
AcDbSavedByObjectVersion
1070
     0
  0
VISUALSTYLE
  5
3D
102
{ACAD_REACTORS
330
2A
102
}
102
{ACAD_XDICTIONARY
360
358
102
}
330
2A
100
AcDbVisualStyle
  2
EdgeColorOff
 70
    22
 71
     2
 72
     2
 73
     0
 90
        0
 40
0.6
 41
30.0
 62
     5
 63
     7
421
 16777215
 74
     1
 91
        4
 64
     7
 65
   257
 75
     1
175
     1
 42
1.0
 92
        8
 66
     7
 43
1.0
 76
     1
 77
     6
 78
     2
 67
     7
 79
     5
170
     0
171
     0
290
     0
174
     0
 93
        1
 44
0.0
173
     0
291
     1
 45
0.0
1001
ACAD
1000
AcDbSavedByObjectVersion
1070
     0
  0
VISUALSTYLE
  5
39
102
{ACAD_REACTORS
330
2A
102
}
102
{ACAD_XDICTIONARY
360
350
102
}
330
2A
100
AcDbVisualStyle
  2
Facepattern
 70
    15
 71
     2
 72
     2
 73
     0
 90
        0
 40
0.6
 41
30.0
 62
     5
 63
     7
421
 16777215
 74
     1
 91
        4
 64
     7
 65
   257
 75
     1
175
     1
 42
1.0
 92
        8
 66
     7
 43
1.0
 76
     1
 77
     6
 78
     2
 67
     7
 79
     5
170
     0
171
     0
290
     0
174
     0
 93
        1
 44
0.0
173
     0
291
     1
 45
0.0
1001
ACAD
1000
AcDbSavedByObjectVersion
1070
     0
  0
VISUALSTYLE
  5
2B
102
{ACAD_REACTORS
330
2A
102
}
102
{ACAD_XDICTIONARY
360
334
102
}
330
2A
100
AcDbVisualStyle
  2
Flat
 70
     0
 71
     2
 72
     1
 73
     1
 90
        2
 40
0.6
 41
30.0
 62
     5
 63
     7
421
 16777215
 74
     0
 91
        0
 64
     7
 65
   257
 75
     1
175
     1
 42
1.0
 92
        8
 66
     7
 43
1.0
 76
     1
 77
     6
 78
     2
 67
     7
 79
     5
170
     0
171
     0
290
     0
174
     0
 93
       13
 44
0.0
173
     0
291
     1
 45
0.0
1001
ACAD
1000
AcDbSavedByObjectVersion
1070
     0
  0
VISUALSTYLE
  5
2C
102
{ACAD_REACTORS
330
2A
102
}
102
{ACAD_XDICTIONARY
360
336
102
}
330
2A
100
AcDbVisualStyle
  2
FlatWithEdges
 70
     1
 71
     2
 72
     1
 73
     1
 90
        2
 40
0.6
 41
30.0
 62
     5
 63
     7
421
 16777215
 74
     1
 91
        0
 64
     7
 65
   257
 75
     1
175
     1
 42
1.0
 92
        0
 66
   257
 43
1.0
 76
     1
 77
     6
 78
     2
 67
     7
 79
     5
170
     0
171
     0
290
     0
174
     0
 93
       13
 44
0.0
173
     0
291
     1
 45
0.0
1001
ACAD
1000
AcDbSavedByObjectVersion
1070
     0
  0
VISUALSTYLE
  5
2D
102
{ACAD_REACTORS
330
2A
102
}
102
{ACAD_XDICTIONARY
360
338
102
}
330
2A
100
AcDbVisualStyle
  2
Gouraud
 70
     2
 71
     2
 72
     2
 73
     1
 90
        2
 40
0.6
 41
30.0
 62
     5
 63
     7
421
 16777215
 74
     0
 91
        0
 64
     7
 65
   257
 75
     1
175
     1
 42
1.0
 92
        0
 66
     7
 43
1.0
 76
     1
 77
     6
 78
     2
 67
     7
 79
     5
170
     0
171
     0
290
     0
174
     0
 93
       13
 44
0.0
173
     0
291
     1
 45
0.0
1001
ACAD
1000
AcDbSavedByObjectVersion
1070
     0
  0
VISUALSTYLE
  5
2E
102
{ACAD_REACTORS
330
2A
102
}
102
{ACAD_XDICTIONARY
360
33A
102
}
330
2A
100
AcDbVisualStyle
  2
GouraudWithEdges
 70
     3
 71
     2
 72
     2
 73
     1
 90
        2
 40
0.6
 41
30.0
 62
     5
 63
     7
421
 16777215
 74
     1
 91
        0
 64
     7
 65
   257
 75
     1
175
     1
 42
1.0
 92
        0
 66
   257
 43
1.0
 76
     1
 77
     6
 78
     2
 67
     7
 79
     5
170
     0
171
     0
290
     0
174
     0
 93
       13
 44
0.0
173
     0
291
     1
 45
0.0
1001
ACAD
1000
AcDbSavedByObjectVersion
1070
     0
  0
VISUALSTYLE
  5
31
102
{ACAD_REACTORS
330
2A
102
}
102
{ACAD_XDICTIONARY
360
340
102
}
330
2A
100
AcDbVisualStyle
  2
Hidden
 70
     6
 71
     1
 72
     2
 73
     2
 90
        0
 40
0.6
 41
30.0
 62
     5
 63
     7
421
 16777215
 74
     2
 91
        2
 64
     7
 65
   257
 75
     2
175
     1
 42
40.0
 92
        0
 66
   257
 43
1.0
 76
     1
 77
     6
 78
     2
 67
     7
 79
     3
170
     0
171
     0
290
     0
174
     0
 93
        1
 44
0.0
173
     0
291
     0
 45
0.0
1001
ACAD
1000
AcDbSavedByObjectVersion
1070
     0
  0
VISUALSTYLE
  5
3B
102
{ACAD_REACTORS
330
2A
102
}
102
{ACAD_XDICTIONARY
360
354
102
}
330
2A
100
AcDbVisualStyle
  2
JitterOff
 70
    20
 71
     2
 72
     2
 73
     0
 90
        0
 40
0.6
 41
30.0
 62
     5
 63
     7
421
 16777215
 74
     1
 91
        4
 64
     7
 65
   257
 75
     1
175
     1
 42
1.0
 92
       10
 66
     7
 43
1.0
 76
     1
 77
     6
 78
     2
 67
     7
 79
     5
170
     0
171
     0
290
     0
174
     0
 93
        1
 44
0.0
173
     0
291
     1
 45
0.0
1001
ACAD
1000
AcDbSavedByObjectVersion
1070
     0
  0
VISUALSTYLE
  5
38
102
{ACAD_REACTORS
330
2A
102
}
102
{ACAD_XDICTIONARY
360
34E
102
}
330
2A
100
AcDbVisualStyle
  2
Linepattern
 70
    14
 71
     2
 72
     2
 73
     0
 90
        0
 40
0.6
 41
30.0
 62
     5
 63
     7
421
 16777215
 74
     1
 91
        4
 64
     7
 65
   257
 75
     7
175
     7
 42
1.0
 92
        8
 66
     7
 43
1.0
 76
     1
 77
     6
 78
     2
 67
     7
 79
     5
170
     0
171
     0
290
     0
174
     0
 93
        1
 44
0.0
173
     0
291
     1
 45
0.0
1001
ACAD
1000
AcDbSavedByObjectVersion
1070
     0
  0
VISUALSTYLE
  5
3C
102
{ACAD_REACTORS
330
2A
102
}
102
{ACAD_XDICTIONARY
360
356
102
}
330
2A
100
AcDbVisualStyle
  2
OverhangOff
 70
    21
 71
     2
 72
     2
 73
     0
 90
        0
 40
0.6
 41
30.0
 62
     5
 63
     7
421
 16777215
 74
     1
 91
        4
 64
     7
 65
   257
 75
     1
175
     1
 42
1.0
 92
        9
 66
     7
 43
1.0
 76
     1
 77
     6
 78
     2
 67
     7
 79
     5
170
     0
171
     0
290
     0
174
     0
 93
        1
 44
0.0
173
     0
291
     1
 45
0.0
1001
ACAD
1000
AcDbSavedByObjectVersion
1070
     0
  0
VISUALSTYLE
  5
33
102
{ACAD_REACTORS
330
2A
102
}
102
{ACAD_XDICTIONARY
360
344
102
}
330
2A
100
AcDbVisualStyle
  2
Realistic
 70
     8
 71
     2
 72
     3
 73
     0
 90
        2
 40
0.6
 41
30.0
 62
     5
 63
     7
421
 16777215
 74
     0
 91
        0
 64
     7
 65
   257
 75
     1
175
     1
 42
1.0
 92
        8
 66
   257
 43
1.0
 76
     1
 77
     6
 78
     2
 67
     7
 79
     3
170
     0
171
     0
290
     0
174
     0
 93
       13
 44
0.0
173
     0
291
     0
 45
0.0
1001
ACAD
1000
AcDbSavedByObjectVersion
1070
     0
  0
VISUALSTYLE
  5
42
102
{ACAD_REACTORS
330
2A
102
}
102
{ACAD_XDICTIONARY
360
362
102
}
330
2A
100
AcDbVisualStyle
  2
Shaded
 70
    27
 71
     2
 72
     2
 73
     1
 90
        2
 40
0.6
 41
30.0
 62
     5
 63
     7
421
 16777215
 74
     0
 91
        4
 64
     7
 65
   257
 75
     1
175
     1
 42
1.0
 92
        8
 66
   257
 43
1.0
 76
     1
 77
     6
 78
     2
 67
     8
425
  7895160
 79
     3
170
     0
171
     0
290
     0
174
     0
 93
        5
 44
0.0
173
     0
291
     0
 45
0.0
1001
ACAD
1000
AcDbSavedByObjectVersion
1070
     0
  0
VISUALSTYLE
  5
41
102
{ACAD_REACTORS
330
2A
102
}
102
{ACAD_XDICTIONARY
360
360
102
}
330
2A
100
AcDbVisualStyle
  2
Shaded with edges
 70
    26
 71
     2
 72
     2
 73
     1
 90
        2
 40
0.6
 41
30.0
 62
     5
 63
     7
421
 16777215
 74
     1
 91
       10
 64
     7
 65
   257
 75
     2
175
     1
 42
1.0
 92
        8
 66
   257
 43
1.0
 76
     1
 77
     6
 78
     2
 67
     7
 79
     3
170
     0
171
     0
290
     0
174
     0
 93
        5
 44
0.0
173
     0
291
     0
 45
0.0
1001
ACAD
1000
AcDbSavedByObjectVersion
1070
     0
  0
VISUALSTYLE
  5
3E
102
{ACAD_REACTORS
330
2A
102
}
102
{ACAD_XDICTIONARY
360
35A
102
}
330
2A
100
AcDbVisualStyle
  2
Shades of Gray
 70
    23
 71
     2
 72
     2
 73
     3
 90
        0
 40
0.6
 41
30.0
 62
     5
 63
     7
421
 16777215
 74
     2
 91
        2
 64
     7
 65
     7
 75
     1
175
     1
 42
40.0
 92
        8
 66
     7
 43
1.0
 76
     1
 77
     6
 78
     2
 67
     7
 79
     3
170
     0
171
     0
290
     0
174
     0
 93
        1
 44
0.0
173
     0
291
     0
 45
0.0
1001
ACAD
1000
AcDbSavedByObjectVersion
1070
     0
  0
VISUALSTYLE
  5
3F
102
{ACAD_REACTORS
330
2A
102
}
102
{ACAD_XDICTIONARY
360
35C
102
}
330
2A
100
AcDbVisualStyle
  2
Sketchy
 70
    24
 71
     1
 72
     2
 73
     2
 90
        0
 40
0.6
 41
30.0
 62
     5
 63
     7
421
 16777215
 74
     2
 91
        2
 64
     7
 65
     7
 75
     1
175
     1
 42
40.0
 92
       11
 66
     7
 43
1.0
 76
     1
 77
     6
 78
     2
 67
     7
 79
     6
170
     0
171
     0
290
     0
174
     0
 93
        1
 44
0.0
173
     0
291
     0
 45
0.0
1001
ACAD
1000
AcDbSavedByObjectVersion
1070
     0
  0
VISUALSTYLE
  5
37
102
{ACAD_REACTORS
330
2A
102
}
102
{ACAD_XDICTIONARY
360
34C
102
}
330
2A
100
AcDbVisualStyle
  2
Thicken
 70
    13
 71
     2
 72
     2
 73
     0
 90
        0
 40
0.6
 41
30.0
 62
     5
 63
     7
421
 16777215
 74
     1
 91
        4
 64
     7
 65
   257
 75
     1
175
     1
 42
1.0
 92
       12
 66
     7
 43
1.0
 76
     1
 77
     6
 78
     2
 67
     7
 79
     5
170
     0
171
     0
290
     0
174
     0
 93
        1
 44
0.0
173
     0
291
     1
 45
0.0
1001
ACAD
1000
AcDbSavedByObjectVersion
1070
     0
  0
VISUALSTYLE
  5
30
102
{ACAD_REACTORS
330
2A
102
}
102
{ACAD_XDICTIONARY
360
33E
102
}
330
2A
100
AcDbVisualStyle
  2
Wireframe
 70
     5
 71
     0
 72
     2
 73
     0
 90
        0
 40
0.6
 41
30.0
 62
     5
 63
     7
421
 16777215
 74
     1
 91
        4
 64
     7
 65
   257
 75
     1
175
     1
 42
1.0
 92
        0
 66
   257
 43
1.0
 76
     1
 77
     6
 78
     2
 67
     7
 79
     3
170
     0
171
     0
290
     0
174
     0
 93
        1
 44
0.0
173
     0
291
     0
 45
0.0
1001
ACAD
1000
AcDbSavedByObjectVersion
1070
     0
  0
VISUALSTYLE
  5
40
102
{ACAD_REACTORS
330
2A
102
}
102
{ACAD_XDICTIONARY
360
35E
102
}
330
2A
100
AcDbVisualStyle
  2
X-Ray
 70
    25
 71
     2
 72
     2
 73
     1
 90
        1
 40
0.5
 41
30.0
 62
     5
 63
     7
421
 16777215
 74
     1
 91
        0
 64
     7
 65
   257
 75
     1
175
     1
 42
1.0
 92
        8
 66
     7
 43
1.0
 76
     1
 77
     6
 78
     2
 67
     7
 79
     3
170
     0
171
     0
290
     0
174
     0
 93
       13
 44
0.0
173
     0
291
     0
 45
0.0
1001
ACAD
1000
AcDbSavedByObjectVersion
1070
     0
  0
DICTIONARYVAR
  5
331
102
{ACAD_REACTORS
330
330
102
}
330
330
100
DictionaryVariables
280
     0
  1
1:1
  0
DICTIONARYVAR
  5
372
102
{ACAD_REACTORS
330
330
102
}
330
330
100
DictionaryVariables
280
     0
  1
Standard
  0
DICTIONARYVAR
  5
371
102
{ACAD_REACTORS
330
330
102
}
330
330
100
DictionaryVariables
280
     0
  1
Standard
  0
DICTIONARYVAR
  5
332
102
{ACAD_REACTORS
330
330
102
}
330
330
100
DictionaryVariables
280
     0
  1
1
  0
DICTIONARYVAR
  5
333
102
{ACAD_REACTORS
330
330
102
}
330
330
100
DictionaryVariables
280
     0
  1
2
  0
DICTIONARY
  5
366
330
45
100
AcDbDictionary
280
     1
281
     1
  3
ACAD_XREC_ROUNDTRIP
360
367
  0
DICTIONARY
  5
364
330
44
100
AcDbDictionary
280
     1
281
     1
  3
ACAD_XREC_ROUNDTRIP
360
365
  0
DICTIONARY
  5
368
330
46
100
AcDbDictionary
280
     1
281
     1
  3
ACAD_XREC_ROUNDTRIP
360
369
  0
DICTIONARY
  5
36E
330
6C
100
AcDbDictionary
280
     1
281
     1
  3
ACAD_XREC_ROUNDTRIP
360
36F
  0
DICTIONARY
  5
36A
330
6A
100
AcDbDictionary
280
     1
281
     1
  3
ACAD_ROUNDTRIP_2008_TABLESTYLE_CELLSTYLEMAP
360
36C
  3
ACAD_XREC_ROUNDTRIP
360
36B
  0
DICTIONARY
  5
33C
330
2F
100
AcDbDictionary
280
     1
281
     1
  3
ACAD_XREC_ROUNDTRIP
360
33D
  0
DICTIONARY
  5
342
330
32
100
AcDbDictionary
280
     1
281
     1
  3
ACAD_XREC_ROUNDTRIP
360
343
  0
DICTIONARY
  5
34A
330
36
100
AcDbDictionary
280
     1
281
     1
  3
ACAD_XREC_ROUNDTRIP
360
34B
  0
DICTIONARY
  5
352
330
3A
100
AcDbDictionary
280
     1
281
     1
  3
ACAD_XREC_ROUNDTRIP
360
353
  0
DICTIONARY
  5
346
330
34
100
AcDbDictionary
280
     1
281
     1
  3
ACAD_XREC_ROUNDTRIP
360
347
  0
DICTIONARY
  5
348
330
35
100
AcDbDictionary
280
     1
281
     1
  3
ACAD_XREC_ROUNDTRIP
360
349
  0
DICTIONARY
  5
358
330
3D
100
AcDbDictionary
280
     1
281
     1
  3
ACAD_XREC_ROUNDTRIP
360
359
  0
DICTIONARY
  5
350
330
39
100
AcDbDictionary
280
     1
281
     1
  3
ACAD_XREC_ROUNDTRIP
360
351
  0
DICTIONARY
  5
334
330
2B
100
AcDbDictionary
280
     1
281
     1
  3
ACAD_XREC_ROUNDTRIP
360
335
  0
DICTIONARY
  5
336
330
2C
100
AcDbDictionary
280
     1
281
     1
  3
ACAD_XREC_ROUNDTRIP
360
337
  0
DICTIONARY
  5
338
330
2D
100
AcDbDictionary
280
     1
281
     1
  3
ACAD_XREC_ROUNDTRIP
360
339
  0
DICTIONARY
  5
33A
330
2E
100
AcDbDictionary
280
     1
281
     1
  3
ACAD_XREC_ROUNDTRIP
360
33B
  0
DICTIONARY
  5
340
330
31
100
AcDbDictionary
280
     1
281
     1
  3
ACAD_XREC_ROUNDTRIP
360
341
  0
DICTIONARY
  5
354
330
3B
100
AcDbDictionary
280
     1
281
     1
  3
ACAD_XREC_ROUNDTRIP
360
355
  0
DICTIONARY
  5
34E
330
38
100
AcDbDictionary
280
     1
281
     1
  3
ACAD_XREC_ROUNDTRIP
360
34F
  0
DICTIONARY
  5
356
330
3C
100
AcDbDictionary
280
     1
281
     1
  3
ACAD_XREC_ROUNDTRIP
360
357
  0
DICTIONARY
  5
344
330
33
100
AcDbDictionary
280
     1
281
     1
  3
ACAD_XREC_ROUNDTRIP
360
345
  0
DICTIONARY
  5
362
330
42
100
AcDbDictionary
280
     1
281
     1
  3
ACAD_XREC_ROUNDTRIP
360
363
  0
DICTIONARY
  5
360
330
41
100
AcDbDictionary
280
     1
281
     1
  3
ACAD_XREC_ROUNDTRIP
360
361
  0
DICTIONARY
  5
35A
330
3E
100
AcDbDictionary
280
     1
281
     1
  3
ACAD_XREC_ROUNDTRIP
360
35B
  0
DICTIONARY
  5
35C
330
3F
100
AcDbDictionary
280
     1
281
     1
  3
ACAD_XREC_ROUNDTRIP
360
35D
  0
DICTIONARY
  5
34C
330
37
100
AcDbDictionary
280
     1
281
     1
  3
ACAD_XREC_ROUNDTRIP
360
34D
  0
DICTIONARY
  5
33E
330
30
100
AcDbDictionary
280
     1
281
     1
  3
ACAD_XREC_ROUNDTRIP
360
33F
  0
DICTIONARY
  5
35E
330
40
100
AcDbDictionary
280
     1
281
     1
  3
ACAD_XREC_ROUNDTRIP
360
35F
  0
XRECORD
  5
367
102
{ACAD_REACTORS
330
366
102
}
330
366
100
AcDbXrecord
280
     1
102
MATERIAL
148
0.0
149
0.0
149
0.0
 93
        0
 94
      127
282
     0
 72
     1
 77
     1
171
     1
175
     1
179
     1
273
     0
  0
XRECORD
  5
365
102
{ACAD_REACTORS
330
364
102
}
330
364
100
AcDbXrecord
280
     1
102
MATERIAL
148
0.0
149
0.0
149
0.0
 93
        0
 94
      127
282
     0
 72
     1
 77
     1
171
     1
175
     1
179
     1
273
     0
  0
XRECORD
  5
369
102
{ACAD_REACTORS
330
368
102
}
330
368
100
AcDbXrecord
280
     1
102
MATERIAL
148
0.0
149
0.0
149
0.0
 93
        0
 94
      127
282
     0
 72
     1
 77
     1
171
     1
175
     1
179
     1
273
     0
  0
XRECORD
  5
36F
102
{ACAD_REACTORS
330
36E
102
}
330
36E
100
AcDbXrecord
280
     1
102
ACAD_ROUNDTRIP_2010_MLEADER_STYLE
  0
CELLSTYLEMAP
  5
36C
102
{ACAD_REACTORS
330
36A
102
}
330
36A
100
AcDbCellStyleMap
 90
        3
300
CELLSTYLE
  1
TABLEFORMAT_BEGIN
 90
        5
170
     1
 91
        0
 92
    32768
 62
   257
 93
        1
300
CONTENTFORMAT
  1
CONTENTFORMAT_BEGIN
 90
        0
 91
        0
 92
        4
 93
        0
300

 40
0.0
140
1.0
 94
        5
 62
     0
340
11
144
0.25
309
CONTENTFORMAT_END
171
     1
301
MARGIN
  1
CELLMARGIN_BEGIN
 40
0.06
 40
0.06
 40
0.06
 40
0.06
 40
0.06
 40
0.06
309
CELLMARGIN_END
 94
        6
 95
        1
302
GRIDFORMAT
  1
GRIDFORMAT_BEGIN
 90
        0
 91
        1
 62
     0
 92
       -2
340
14
 93
        0
 40
0.045
309
GRIDFORMAT_END
 95
        2
302
GRIDFORMAT
  1
GRIDFORMAT_BEGIN
 90
        0
 91
        1
 62
     0
 92
       -2
340
14
 93
        0
 40
0.045
309
GRIDFORMAT_END
 95
        4
302
GRIDFORMAT
  1
GRIDFORMAT_BEGIN
 90
        0
 91
        1
 62
     0
 92
       -2
340
14
 93
        0
 40
0.045
309
GRIDFORMAT_END
 95
        8
302
GRIDFORMAT
  1
GRIDFORMAT_BEGIN
 90
        0
 91
        1
 62
     0
 92
       -2
340
14
 93
        0
 40
0.045
309
GRIDFORMAT_END
 95
       16
302
GRIDFORMAT
  1
GRIDFORMAT_BEGIN
 90
        0
 91
        1
 62
     0
 92
       -2
340
14
 93
        0
 40
0.045
309
GRIDFORMAT_END
 95
       32
302
GRIDFORMAT
  1
GRIDFORMAT_BEGIN
 90
        0
 91
        1
 62
     0
 92
       -2
340
14
 93
        0
 40
0.045
309
GRIDFORMAT_END
309
TABLEFORMAT_END
  1
CELLSTYLE_BEGIN
 90
        1
 91
        1
300
_TITLE
309
CELLSTYLE_END
300
CELLSTYLE
  1
TABLEFORMAT_BEGIN
 90
        5
170
     1
 91
        0
 92
        0
 62
   257
 93
        1
300
CONTENTFORMAT
  1
CONTENTFORMAT_BEGIN
 90
        0
 91
        0
 92
        4
 93
        0
300

 40
0.0
140
1.0
 94
        5
 62
     0
340
11
144
0.18
309
CONTENTFORMAT_END
171
     1
301
MARGIN
  1
CELLMARGIN_BEGIN
 40
0.06
 40
0.06
 40
0.06
 40
0.06
 40
0.06
 40
0.06
309
CELLMARGIN_END
 94
        6
 95
        1
302
GRIDFORMAT
  1
GRIDFORMAT_BEGIN
 90
        0
 91
        1
 62
     0
 92
       -2
340
14
 93
        0
 40
0.045
309
GRIDFORMAT_END
 95
        2
302
GRIDFORMAT
  1
GRIDFORMAT_BEGIN
 90
        0
 91
        1
 62
     0
 92
       -2
340
14
 93
        0
 40
0.045
309
GRIDFORMAT_END
 95
        4
302
GRIDFORMAT
  1
GRIDFORMAT_BEGIN
 90
        0
 91
        1
 62
     0
 92
       -2
340
14
 93
        0
 40
0.045
309
GRIDFORMAT_END
 95
        8
302
GRIDFORMAT
  1
GRIDFORMAT_BEGIN
 90
        0
 91
        1
 62
     0
 92
       -2
340
14
 93
        0
 40
0.045
309
GRIDFORMAT_END
 95
       16
302
GRIDFORMAT
  1
GRIDFORMAT_BEGIN
 90
        0
 91
        1
 62
     0
 92
       -2
340
14
 93
        0
 40
0.045
309
GRIDFORMAT_END
 95
       32
302
GRIDFORMAT
  1
GRIDFORMAT_BEGIN
 90
        0
 91
        1
 62
     0
 92
       -2
340
14
 93
        0
 40
0.045
309
GRIDFORMAT_END
309
TABLEFORMAT_END
  1
CELLSTYLE_BEGIN
 90
        2
 91
        1
300
_HEADER
309
CELLSTYLE_END
300
CELLSTYLE
  1
TABLEFORMAT_BEGIN
 90
        5
170
     1
 91
        0
 92
        0
 62
   257
 93
        1
300
CONTENTFORMAT
  1
CONTENTFORMAT_BEGIN
 90
        0
 91
        0
 92
        4
 93
        0
300

 40
0.0
140
1.0
 94
        2
 62
     0
340
11
144
0.18
309
CONTENTFORMAT_END
171
     1
301
MARGIN
  1
CELLMARGIN_BEGIN
 40
0.06
 40
0.06
 40
0.06
 40
0.06
 40
0.06
 40
0.06
309
CELLMARGIN_END
 94
        6
 95
        1
302
GRIDFORMAT
  1
GRIDFORMAT_BEGIN
 90
        0
 91
        1
 62
     0
 92
       -2
340
14
 93
        0
 40
0.045
309
GRIDFORMAT_END
 95
        2
302
GRIDFORMAT
  1
GRIDFORMAT_BEGIN
 90
        0
 91
        1
 62
     0
 92
       -2
340
14
 93
        0
 40
0.045
309
GRIDFORMAT_END
 95
        4
302
GRIDFORMAT
  1
GRIDFORMAT_BEGIN
 90
        0
 91
        1
 62
     0
 92
       -2
340
14
 93
        0
 40
0.045
309
GRIDFORMAT_END
 95
        8
302
GRIDFORMAT
  1
GRIDFORMAT_BEGIN
 90
        0
 91
        1
 62
     0
 92
       -2
340
14
 93
        0
 40
0.045
309
GRIDFORMAT_END
 95
       16
302
GRIDFORMAT
  1
GRIDFORMAT_BEGIN
 90
        0
 91
        1
 62
     0
 92
       -2
340
14
 93
        0
 40
0.045
309
GRIDFORMAT_END
 95
       32
302
GRIDFORMAT
  1
GRIDFORMAT_BEGIN
 90
        0
 91
        1
 62
     0
 92
       -2
340
14
 93
        0
 40
0.045
309
GRIDFORMAT_END
309
TABLEFORMAT_END
  1
CELLSTYLE_BEGIN
 90
        3
 91
        2
300
_DATA
309
CELLSTYLE_END
  0
XRECORD
  5
36B
102
{ACAD_REACTORS
330
36A
102
}
330
36A
100
AcDbXrecord
280
     1
102
ACAD_ROUNDTRIP_PRE2007_TABLESTYLE
 90
        4
 91
        0
  1

 92
        4
 93
        0
  2

 94
        4
 95
        0
  3

  0
XRECORD
  5
33D
102
{ACAD_REACTORS
330
33C
102
}
330
33C
100
AcDbXrecord
280
     1
102
RTVSPropertyOp0
 70
     1
102
RTVSPropertyOp1
 70
     1
102
RTVSPropertyOp2
 70
     1
102
RTVSPropertyOp3
 70
     1
102
RTVSPropertyOp4
 70
     1
102
RTVSPropertyOp5
 70
     1
102
RTVSPropertyOp6
 70
     1
102
RTVSPropertyOp7
 70
     1
102
RTVSPropertyOp8
 70
     1
102
RTVSPropertyOp9
 70
     1
102
RTVSPropertyOp10
 70
     1
102
RTVSPropertyOp11
 70
     1
102
RTVSPropertyOp12
 70
     1
102
RTVSPropertyOp13
 70
     1
102
RTVSPropertyOp14
 70
     1
102
RTVSPropertyOp15
 70
     1
102
RTVSPropertyOp16
 70
     1
102
RTVSPropertyOp17
 70
     1
102
RTVSPropertyOp18
 70
     1
102
RTVSPropertyOp19
 70
     1
102
RTVSPropertyOp20
 70
     1
102
RTVSPropertyOp21
 70
     1
102
RTVSPropertyOp22
 70
     1
102
RTVSPropertyOp23
 70
     1
102
RTVSPropertyOp24
 70
     1
102
RTVSPropertyOp25
 70
     1
102
RTVSPropertyOp26
 70
     1
102
RTVSPropertyOp27
 70
     1
102
RTVSPropertyOp28
 70
     1
102
RTVSPropertyOp29
 70
     1
102
RTVSPropertyOp30
 70
     1
102
RTVSPropertyOp31
 70
     1
102
RTVSPropertyOp32
 70
     1
102
RTVSPropertyOp33
 70
     1
102
RTVSPropertyOp34
 70
     1
102
RTVSPropertyOp35
 70
     1
102
RTVSPropertyOp36
 70
     1
102
RTVSPropertyOp37
 70
     1
102
RTVSPropertyOp38
 70
     1
102
RTVSPropertyOp39
 70
     1
102
RTVSPropertyOp40
 70
     1
102
RTVSPropertyOp41
 70
     1
102
RTVSPropertyOp42
 70
     1
102
RTVSPropertyOp43
 70
     1
102
RTVSPropertyOp44
 70
     1
102
RTVSPropertyOp45
 70
     1
102
RTVSPropertyOp46
 70
     1
102
RTVSPropertyOp47
 70
     1
102
RTVSPropertyOp48
 70
     1
102
RTVSPropertyOp49
 70
     1
102
RTVSPropertyOp50
 70
     1
102
RTVSPropertyOp51
 70
     0
102
RTVSPropertyOp52
 70
     0
102
RTVSPropertyOp53
 70
     1
102
RTVSPropertyOp54
 70
     1
102
RTVSPropertyOp55
 70
     1
102
RTVSPropertyOp56
 70
     1
102
RTVSPropertyOp57
 70
     1
102
RTVSPost2010Prop28
280
     1
102
RTVSPost2010PropOp28
 70
     1
102
RTVSPost2010Prop29
280
     1
102
RTVSPost2010PropOp29
 70
     1
102
RTVSPost2010Prop30
280
     0
102
RTVSPost2010PropOp30
 70
     1
102
RTVSPost2010Prop31
280
     0
102
RTVSPost2010PropOp31
 70
     1
102
RTVSPost2010Prop32
280
     0
102
RTVSPost2010PropOp32
 70
     1
102
RTVSPost2010Prop33
280
     0
102
RTVSPost2010PropOp33
 70
     1
102
RTVSPost2010Prop34
280
     0
102
RTVSPost2010PropOp34
 70
     1
102
RTVSPost2010Prop35
280
     0
102
RTVSPost2010PropOp35
 70
     1
102
RTVSPost2010Prop36
280
     0
102
RTVSPost2010PropOp36
 70
     1
102
RTVSPost2010Prop37
 90
       50
102
RTVSPost2010PropOp37
 70
     1
102
RTVSPost2010Prop38
140
0.0
102
RTVSPost2010PropOp38
 70
     1
102
RTVSPost2010Prop39
140
1.0
102
RTVSPost2010PropOp39
 70
     1
102
RTVSPost2010Prop40
 90
        0
102
RTVSPost2010PropOp40
 70
     1
102
RTVSPost2010Prop41ColorIndex
 90
       18
102
RTVSPost2010Prop41ColorRGB
 90
        0
102
RTVSPost2010PropOp41
 70
     1
102
RTVSPost2010Prop42
 90
       50
102
RTVSPost2010PropOp42
 70
     1
102
RTVSPost2010Prop43
 90
        3
102
RTVSPost2010PropOp43
 70
     1
102
RTVSPost2010Prop44ColorIndex
 90
        5
102
RTVSPost2010Prop44ColorRGB
 90
      255
102
RTVSPost2010PropOp44
 70
     1
102
RTVSPost2010Prop45
280
     0
102
RTVSPost2010PropOp45
 70
     1
102
RTVSPost2010Prop46
 90
       50
102
RTVSPost2010PropOp46
 70
     1
102
RTVSPost2010Prop47
 90
       50
102
RTVSPost2010PropOp47
 70
     1
102
RTVSPost2010Prop48
 90
       50
102
RTVSPost2010PropOp48
 70
     1
102
RTVSPost2010Prop49
280
     0
102
RTVSPost2010PropOp49
 70
     1
102
RTVSPost2010Prop50
 90
       50
102
RTVSPost2010PropOp50
 70
     1
102
RTVSPost2010Prop51ColorIndex
 90
      256
102
RTVSPost2010Prop51ColorRGB
 90
-16777216
102
RTVSPost2010PropOp51
 70
     0
102
RTVSPost2010Prop52
140
1.0
102
RTVSPost2010PropOp52
 70
     0
102
RTVSPost2010Prop53
 90
        2
102
RTVSPost2010PropOp53
 70
     1
102
RTVSPost2010Prop54
  1
strokes_ogs.tif
102
RTVSPost2010PropOp54
 70
     1
102
RTVSPost2010Prop55
280
     0
102
RTVSPost2010PropOp55
 70
     1
102
RTVSPost2010Prop56
140
1.0
102
RTVSPost2010PropOp56
 70
     1
102
RTVSPost2010Prop57
140
1.0
102
RTVSPost2010PropOp57
 70
     1
  0
XRECORD
  5
343
102
{ACAD_REACTORS
330
342
102
}
330
342
100
AcDbXrecord
280
     1
102
RTVSPropertyOp0
 70
     1
102
RTVSPropertyOp1
 70
     1
102
RTVSPropertyOp2
 70
     1
102
RTVSPropertyOp3
 70
     1
102
RTVSPropertyOp4
 70
     1
102
RTVSPropertyOp5
 70
     1
102
RTVSPropertyOp6
 70
     1
102
RTVSPropertyOp7
 70
     1
102
RTVSPropertyOp8
 70
     1
102
RTVSPropertyOp9
 70
     1
102
RTVSPropertyOp10
 70
     1
102
RTVSPropertyOp11
 70
     1
102
RTVSPropertyOp12
 70
     1
102
RTVSPropertyOp13
 70
     1
102
RTVSPropertyOp14
 70
     1
102
RTVSPropertyOp15
 70
     1
102
RTVSPropertyOp16
 70
     1
102
RTVSPropertyOp17
 70
     1
102
RTVSPropertyOp18
 70
     1
102
RTVSPropertyOp19
 70
     1
102
RTVSPropertyOp20
 70
     1
102
RTVSPropertyOp21
 70
     1
102
RTVSPropertyOp22
 70
     1
102
RTVSPropertyOp23
 70
     1
102
RTVSPropertyOp24
 70
     1
102
RTVSPropertyOp25
 70
     1
102
RTVSPropertyOp26
 70
     1
102
RTVSPropertyOp27
 70
     1
102
RTVSPropertyOp28
 70
     1
102
RTVSPropertyOp29
 70
     1
102
RTVSPropertyOp30
 70
     1
102
RTVSPropertyOp31
 70
     1
102
RTVSPropertyOp32
 70
     1
102
RTVSPropertyOp33
 70
     1
102
RTVSPropertyOp34
 70
     1
102
RTVSPropertyOp35
 70
     1
102
RTVSPropertyOp36
 70
     1
102
RTVSPropertyOp37
 70
     1
102
RTVSPropertyOp38
 70
     1
102
RTVSPropertyOp39
 70
     1
102
RTVSPropertyOp40
 70
     1
102
RTVSPropertyOp41
 70
     1
102
RTVSPropertyOp42
 70
     1
102
RTVSPropertyOp43
 70
     1
102
RTVSPropertyOp44
 70
     1
102
RTVSPropertyOp45
 70
     1
102
RTVSPropertyOp46
 70
     1
102
RTVSPropertyOp47
 70
     1
102
RTVSPropertyOp48
 70
     1
102
RTVSPropertyOp49
 70
     1
102
RTVSPropertyOp50
 70
     1
102
RTVSPropertyOp51
 70
     0
102
RTVSPropertyOp52
 70
     0
102
RTVSPropertyOp53
 70
     1
102
RTVSPropertyOp54
 70
     1
102
RTVSPropertyOp55
 70
     1
102
RTVSPropertyOp56
 70
     1
102
RTVSPropertyOp57
 70
     1
102
RTVSPost2010Prop28
280
     0
102
RTVSPost2010PropOp28
 70
     1
102
RTVSPost2010Prop29
280
     1
102
RTVSPost2010PropOp29
 70
     1
102
RTVSPost2010Prop30
280
     1
102
RTVSPost2010PropOp30
 70
     1
102
RTVSPost2010Prop31
280
     0
102
RTVSPost2010PropOp31
 70
     1
102
RTVSPost2010Prop32
280
     0
102
RTVSPost2010PropOp32
 70
     1
102
RTVSPost2010Prop33
280
     0
102
RTVSPost2010PropOp33
 70
     1
102
RTVSPost2010Prop34
280
     0
102
RTVSPost2010PropOp34
 70
     1
102
RTVSPost2010Prop35
280
     0
102
RTVSPost2010PropOp35
 70
     1
102
RTVSPost2010Prop36
280
     0
102
RTVSPost2010PropOp36
 70
     1
102
RTVSPost2010Prop37
 90
       50
102
RTVSPost2010PropOp37
 70
     1
102
RTVSPost2010Prop38
140
0.0
102
RTVSPost2010PropOp38
 70
     1
102
RTVSPost2010Prop39
140
1.0
102
RTVSPost2010PropOp39
 70
     1
102
RTVSPost2010Prop40
 90
        0
102
RTVSPost2010PropOp40
 70
     1
102
RTVSPost2010Prop41ColorIndex
 90
       18
102
RTVSPost2010Prop41ColorRGB
 90
        0
102
RTVSPost2010PropOp41
 70
     1
102
RTVSPost2010Prop42
 90
       50
102
RTVSPost2010PropOp42
 70
     1
102
RTVSPost2010Prop43
 90
        3
102
RTVSPost2010PropOp43
 70
     1
102
RTVSPost2010Prop44ColorIndex
 90
        5
102
RTVSPost2010Prop44ColorRGB
 90
      255
102
RTVSPost2010PropOp44
 70
     1
102
RTVSPost2010Prop45
280
     0
102
RTVSPost2010PropOp45
 70
     1
102
RTVSPost2010Prop46
 90
       50
102
RTVSPost2010PropOp46
 70
     1
102
RTVSPost2010Prop47
 90
       50
102
RTVSPost2010PropOp47
 70
     1
102
RTVSPost2010Prop48
 90
       50
102
RTVSPost2010PropOp48
 70
     1
102
RTVSPost2010Prop49
280
     0
102
RTVSPost2010PropOp49
 70
     1
102
RTVSPost2010Prop50
 90
       50
102
RTVSPost2010PropOp50
 70
     1
102
RTVSPost2010Prop51ColorIndex
 90
      256
102
RTVSPost2010Prop51ColorRGB
 90
-16777216
102
RTVSPost2010PropOp51
 70
     0
102
RTVSPost2010Prop52
140
1.0
102
RTVSPost2010PropOp52
 70
     0
102
RTVSPost2010Prop53
 90
        2
102
RTVSPost2010PropOp53
 70
     1
102
RTVSPost2010Prop54
  1
strokes_ogs.tif
102
RTVSPost2010PropOp54
 70
     1
102
RTVSPost2010Prop55
280
     0
102
RTVSPost2010PropOp55
 70
     1
102
RTVSPost2010Prop56
140
1.0
102
RTVSPost2010PropOp56
 70
     1
102
RTVSPost2010Prop57
140
1.0
102
RTVSPost2010PropOp57
 70
     1
  0
XRECORD
  5
34B
102
{ACAD_REACTORS
330
34A
102
}
330
34A
100
AcDbXrecord
280
     1
102
RTVSPropertyOp0
 70
     1
102
RTVSPropertyOp1
 70
     1
102
RTVSPropertyOp2
 70
     1
102
RTVSPropertyOp3
 70
     1
102
RTVSPropertyOp4
 70
     1
102
RTVSPropertyOp5
 70
     1
102
RTVSPropertyOp6
 70
     1
102
RTVSPropertyOp7
 70
     1
102
RTVSPropertyOp8
 70
     1
102
RTVSPropertyOp9
 70
     1
102
RTVSPropertyOp10
 70
     1
102
RTVSPropertyOp11
 70
     1
102
RTVSPropertyOp12
 70
     1
102
RTVSPropertyOp13
 70
     1
102
RTVSPropertyOp14
 70
     1
102
RTVSPropertyOp15
 70
     1
102
RTVSPropertyOp16
 70
     1
102
RTVSPropertyOp17
 70
     1
102
RTVSPropertyOp18
 70
     1
102
RTVSPropertyOp19
 70
     1
102
RTVSPropertyOp20
 70
     1
102
RTVSPropertyOp21
 70
     1
102
RTVSPropertyOp22
 70
     1
102
RTVSPropertyOp23
 70
     1
102
RTVSPropertyOp24
 70
     1
102
RTVSPropertyOp25
 70
     1
102
RTVSPropertyOp26
 70
     1
102
RTVSPropertyOp27
 70
     1
102
RTVSPropertyOp28
 70
     1
102
RTVSPropertyOp29
 70
     1
102
RTVSPropertyOp30
 70
     1
102
RTVSPropertyOp31
 70
     1
102
RTVSPropertyOp32
 70
     1
102
RTVSPropertyOp33
 70
     1
102
RTVSPropertyOp34
 70
     1
102
RTVSPropertyOp35
 70
     1
102
RTVSPropertyOp36
 70
     1
102
RTVSPropertyOp37
 70
     1
102
RTVSPropertyOp38
 70
     1
102
RTVSPropertyOp39
 70
     1
102
RTVSPropertyOp40
 70
     1
102
RTVSPropertyOp41
 70
     1
102
RTVSPropertyOp42
 70
     1
102
RTVSPropertyOp43
 70
     1
102
RTVSPropertyOp44
 70
     1
102
RTVSPropertyOp45
 70
     1
102
RTVSPropertyOp46
 70
     1
102
RTVSPropertyOp47
 70
     1
102
RTVSPropertyOp48
 70
     1
102
RTVSPropertyOp49
 70
     1
102
RTVSPropertyOp50
 70
     1
102
RTVSPropertyOp51
 70
     0
102
RTVSPropertyOp52
 70
     0
102
RTVSPropertyOp53
 70
     1
102
RTVSPropertyOp54
 70
     1
102
RTVSPropertyOp55
 70
     1
102
RTVSPropertyOp56
 70
     1
102
RTVSPropertyOp57
 70
     1
102
RTVSPost2010Prop28
280
     0
102
RTVSPost2010PropOp28
 70
     1
102
RTVSPost2010Prop29
280
     1
102
RTVSPost2010PropOp29
 70
     1
102
RTVSPost2010Prop30
280
     1
102
RTVSPost2010PropOp30
 70
     1
102
RTVSPost2010Prop31
280
     0
102
RTVSPost2010PropOp31
 70
     1
102
RTVSPost2010Prop32
280
     0
102
RTVSPost2010PropOp32
 70
     1
102
RTVSPost2010Prop33
280
     0
102
RTVSPost2010PropOp33
 70
     1
102
RTVSPost2010Prop34
280
     0
102
RTVSPost2010PropOp34
 70
     1
102
RTVSPost2010Prop35
280
     0
102
RTVSPost2010PropOp35
 70
     1
102
RTVSPost2010Prop36
280
     0
102
RTVSPost2010PropOp36
 70
     1
102
RTVSPost2010Prop37
 90
       50
102
RTVSPost2010PropOp37
 70
     1
102
RTVSPost2010Prop38
140
0.0
102
RTVSPost2010PropOp38
 70
     1
102
RTVSPost2010Prop39
140
1.0
102
RTVSPost2010PropOp39
 70
     1
102
RTVSPost2010Prop40
 90
        0
102
RTVSPost2010PropOp40
 70
     1
102
RTVSPost2010Prop41ColorIndex
 90
       18
102
RTVSPost2010Prop41ColorRGB
 90
        0
102
RTVSPost2010PropOp41
 70
     1
102
RTVSPost2010Prop42
 90
       50
102
RTVSPost2010PropOp42
 70
     1
102
RTVSPost2010Prop43
 90
        3
102
RTVSPost2010PropOp43
 70
     1
102
RTVSPost2010Prop44ColorIndex
 90
        5
102
RTVSPost2010Prop44ColorRGB
 90
      255
102
RTVSPost2010PropOp44
 70
     1
102
RTVSPost2010Prop45
280
     0
102
RTVSPost2010PropOp45
 70
     1
102
RTVSPost2010Prop46
 90
       50
102
RTVSPost2010PropOp46
 70
     1
102
RTVSPost2010Prop47
 90
       50
102
RTVSPost2010PropOp47
 70
     1
102
RTVSPost2010Prop48
 90
       50
102
RTVSPost2010PropOp48
 70
     1
102
RTVSPost2010Prop49
280
     0
102
RTVSPost2010PropOp49
 70
     1
102
RTVSPost2010Prop50
 90
       50
102
RTVSPost2010PropOp50
 70
     1
102
RTVSPost2010Prop51ColorIndex
 90
      256
102
RTVSPost2010Prop51ColorRGB
 90
-16777216
102
RTVSPost2010PropOp51
 70
     0
102
RTVSPost2010Prop52
140
1.0
102
RTVSPost2010PropOp52
 70
     0
102
RTVSPost2010Prop53
 90
        2
102
RTVSPost2010PropOp53
 70
     1
102
RTVSPost2010Prop54
  1
strokes_ogs.tif
102
RTVSPost2010PropOp54
 70
     1
102
RTVSPost2010Prop55
280
     0
102
RTVSPost2010PropOp55
 70
     1
102
RTVSPost2010Prop56
140
1.0
102
RTVSPost2010PropOp56
 70
     1
102
RTVSPost2010Prop57
140
1.0
102
RTVSPost2010PropOp57
 70
     1
  0
XRECORD
  5
353
102
{ACAD_REACTORS
330
352
102
}
330
352
100
AcDbXrecord
280
     1
102
RTVSPropertyOp0
 70
     1
102
RTVSPropertyOp1
 70
     1
102
RTVSPropertyOp2
 70
     1
102
RTVSPropertyOp3
 70
     1
102
RTVSPropertyOp4
 70
     1
102
RTVSPropertyOp5
 70
     1
102
RTVSPropertyOp6
 70
     1
102
RTVSPropertyOp7
 70
     1
102
RTVSPropertyOp8
 70
     1
102
RTVSPropertyOp9
 70
     1
102
RTVSPropertyOp10
 70
     1
102
RTVSPropertyOp11
 70
     1
102
RTVSPropertyOp12
 70
     1
102
RTVSPropertyOp13
 70
     1
102
RTVSPropertyOp14
 70
     1
102
RTVSPropertyOp15
 70
     1
102
RTVSPropertyOp16
 70
     1
102
RTVSPropertyOp17
 70
     1
102
RTVSPropertyOp18
 70
     1
102
RTVSPropertyOp19
 70
     1
102
RTVSPropertyOp20
 70
     1
102
RTVSPropertyOp21
 70
     1
102
RTVSPropertyOp22
 70
     1
102
RTVSPropertyOp23
 70
     1
102
RTVSPropertyOp24
 70
     1
102
RTVSPropertyOp25
 70
     1
102
RTVSPropertyOp26
 70
     1
102
RTVSPropertyOp27
 70
     1
102
RTVSPropertyOp28
 70
     1
102
RTVSPropertyOp29
 70
     1
102
RTVSPropertyOp30
 70
     1
102
RTVSPropertyOp31
 70
     1
102
RTVSPropertyOp32
 70
     1
102
RTVSPropertyOp33
 70
     1
102
RTVSPropertyOp34
 70
     1
102
RTVSPropertyOp35
 70
     1
102
RTVSPropertyOp36
 70
     1
102
RTVSPropertyOp37
 70
     1
102
RTVSPropertyOp38
 70
     1
102
RTVSPropertyOp39
 70
     1
102
RTVSPropertyOp40
 70
     1
102
RTVSPropertyOp41
 70
     1
102
RTVSPropertyOp42
 70
     1
102
RTVSPropertyOp43
 70
     1
102
RTVSPropertyOp44
 70
     1
102
RTVSPropertyOp45
 70
     1
102
RTVSPropertyOp46
 70
     1
102
RTVSPropertyOp47
 70
     1
102
RTVSPropertyOp48
 70
     1
102
RTVSPropertyOp49
 70
     1
102
RTVSPropertyOp50
 70
     1
102
RTVSPropertyOp51
 70
     0
102
RTVSPropertyOp52
 70
     0
102
RTVSPropertyOp53
 70
     1
102
RTVSPropertyOp54
 70
     1
102
RTVSPropertyOp55
 70
     1
102
RTVSPropertyOp56
 70
     1
102
RTVSPropertyOp57
 70
     1
102
RTVSPost2010Prop28
280
     0
102
RTVSPost2010PropOp28
 70
     1
102
RTVSPost2010Prop29
280
     1
102
RTVSPost2010PropOp29
 70
     1
102
RTVSPost2010Prop30
280
     1
102
RTVSPost2010PropOp30
 70
     1
102
RTVSPost2010Prop31
280
     0
102
RTVSPost2010PropOp31
 70
     1
102
RTVSPost2010Prop32
280
     0
102
RTVSPost2010PropOp32
 70
     1
102
RTVSPost2010Prop33
280
     0
102
RTVSPost2010PropOp33
 70
     1
102
RTVSPost2010Prop34
280
     0
102
RTVSPost2010PropOp34
 70
     1
102
RTVSPost2010Prop35
280
     0
102
RTVSPost2010PropOp35
 70
     1
102
RTVSPost2010Prop36
280
     0
102
RTVSPost2010PropOp36
 70
     1
102
RTVSPost2010Prop37
 90
       50
102
RTVSPost2010PropOp37
 70
     1
102
RTVSPost2010Prop38
140
0.0
102
RTVSPost2010PropOp38
 70
     1
102
RTVSPost2010Prop39
140
1.0
102
RTVSPost2010PropOp39
 70
     1
102
RTVSPost2010Prop40
 90
        0
102
RTVSPost2010PropOp40
 70
     1
102
RTVSPost2010Prop41ColorIndex
 90
       18
102
RTVSPost2010Prop41ColorRGB
 90
        0
102
RTVSPost2010PropOp41
 70
     1
102
RTVSPost2010Prop42
 90
       50
102
RTVSPost2010PropOp42
 70
     1
102
RTVSPost2010Prop43
 90
        3
102
RTVSPost2010PropOp43
 70
     1
102
RTVSPost2010Prop44ColorIndex
 90
        5
102
RTVSPost2010Prop44ColorRGB
 90
      255
102
RTVSPost2010PropOp44
 70
     1
102
RTVSPost2010Prop45
280
     0
102
RTVSPost2010PropOp45
 70
     1
102
RTVSPost2010Prop46
 90
       50
102
RTVSPost2010PropOp46
 70
     1
102
RTVSPost2010Prop47
 90
       50
102
RTVSPost2010PropOp47
 70
     1
102
RTVSPost2010Prop48
 90
       50
102
RTVSPost2010PropOp48
 70
     1
102
RTVSPost2010Prop49
280
     0
102
RTVSPost2010PropOp49
 70
     1
102
RTVSPost2010Prop50
 90
       50
102
RTVSPost2010PropOp50
 70
     1
102
RTVSPost2010Prop51ColorIndex
 90
      256
102
RTVSPost2010Prop51ColorRGB
 90
-16777216
102
RTVSPost2010PropOp51
 70
     0
102
RTVSPost2010Prop52
140
1.0
102
RTVSPost2010PropOp52
 70
     0
102
RTVSPost2010Prop53
 90
        2
102
RTVSPost2010PropOp53
 70
     1
102
RTVSPost2010Prop54
  1
strokes_ogs.tif
102
RTVSPost2010PropOp54
 70
     1
102
RTVSPost2010Prop55
280
     0
102
RTVSPost2010PropOp55
 70
     1
102
RTVSPost2010Prop56
140
1.0
102
RTVSPost2010PropOp56
 70
     1
102
RTVSPost2010Prop57
140
1.0
102
RTVSPost2010PropOp57
 70
     1
  0
XRECORD
  5
347
102
{ACAD_REACTORS
330
346
102
}
330
346
100
AcDbXrecord
280
     1
102
RTVSPropertyOp0
 70
     1
102
RTVSPropertyOp1
 70
     1
102
RTVSPropertyOp2
 70
     1
102
RTVSPropertyOp3
 70
     1
102
RTVSPropertyOp4
 70
     1
102
RTVSPropertyOp5
 70
     1
102
RTVSPropertyOp6
 70
     1
102
RTVSPropertyOp7
 70
     1
102
RTVSPropertyOp8
 70
     1
102
RTVSPropertyOp9
 70
     1
102
RTVSPropertyOp10
 70
     1
102
RTVSPropertyOp11
 70
     1
102
RTVSPropertyOp12
 70
     1
102
RTVSPropertyOp13
 70
     1
102
RTVSPropertyOp14
 70
     1
102
RTVSPropertyOp15
 70
     1
102
RTVSPropertyOp16
 70
     1
102
RTVSPropertyOp17
 70
     1
102
RTVSPropertyOp18
 70
     1
102
RTVSPropertyOp19
 70
     1
102
RTVSPropertyOp20
 70
     1
102
RTVSPropertyOp21
 70
     1
102
RTVSPropertyOp22
 70
     1
102
RTVSPropertyOp23
 70
     1
102
RTVSPropertyOp24
 70
     1
102
RTVSPropertyOp25
 70
     1
102
RTVSPropertyOp26
 70
     1
102
RTVSPropertyOp27
 70
     1
102
RTVSPropertyOp28
 70
     1
102
RTVSPropertyOp29
 70
     1
102
RTVSPropertyOp30
 70
     1
102
RTVSPropertyOp31
 70
     1
102
RTVSPropertyOp32
 70
     1
102
RTVSPropertyOp33
 70
     1
102
RTVSPropertyOp34
 70
     1
102
RTVSPropertyOp35
 70
     1
102
RTVSPropertyOp36
 70
     1
102
RTVSPropertyOp37
 70
     1
102
RTVSPropertyOp38
 70
     1
102
RTVSPropertyOp39
 70
     1
102
RTVSPropertyOp40
 70
     1
102
RTVSPropertyOp41
 70
     1
102
RTVSPropertyOp42
 70
     1
102
RTVSPropertyOp43
 70
     1
102
RTVSPropertyOp44
 70
     1
102
RTVSPropertyOp45
 70
     1
102
RTVSPropertyOp46
 70
     1
102
RTVSPropertyOp47
 70
     1
102
RTVSPropertyOp48
 70
     1
102
RTVSPropertyOp49
 70
     1
102
RTVSPropertyOp50
 70
     1
102
RTVSPropertyOp51
 70
     0
102
RTVSPropertyOp52
 70
     0
102
RTVSPropertyOp53
 70
     1
102
RTVSPropertyOp54
 70
     1
102
RTVSPropertyOp55
 70
     1
102
RTVSPropertyOp56
 70
     1
102
RTVSPropertyOp57
 70
     1
102
RTVSPost2010Prop28
280
     0
102
RTVSPost2010PropOp28
 70
     1
102
RTVSPost2010Prop29
280
     1
102
RTVSPost2010PropOp29
 70
     1
102
RTVSPost2010Prop30
280
     1
102
RTVSPost2010PropOp30
 70
     1
102
RTVSPost2010Prop31
280
     0
102
RTVSPost2010PropOp31
 70
     1
102
RTVSPost2010Prop32
280
     0
102
RTVSPost2010PropOp32
 70
     1
102
RTVSPost2010Prop33
280
     0
102
RTVSPost2010PropOp33
 70
     1
102
RTVSPost2010Prop34
280
     0
102
RTVSPost2010PropOp34
 70
     1
102
RTVSPost2010Prop35
280
     0
102
RTVSPost2010PropOp35
 70
     1
102
RTVSPost2010Prop36
280
     0
102
RTVSPost2010PropOp36
 70
     1
102
RTVSPost2010Prop37
 90
       50
102
RTVSPost2010PropOp37
 70
     1
102
RTVSPost2010Prop38
140
0.0
102
RTVSPost2010PropOp38
 70
     1
102
RTVSPost2010Prop39
140
1.0
102
RTVSPost2010PropOp39
 70
     1
102
RTVSPost2010Prop40
 90
        0
102
RTVSPost2010PropOp40
 70
     1
102
RTVSPost2010Prop41ColorIndex
 90
       18
102
RTVSPost2010Prop41ColorRGB
 90
        0
102
RTVSPost2010PropOp41
 70
     1
102
RTVSPost2010Prop42
 90
       50
102
RTVSPost2010PropOp42
 70
     1
102
RTVSPost2010Prop43
 90
        3
102
RTVSPost2010PropOp43
 70
     1
102
RTVSPost2010Prop44ColorIndex
 90
        5
102
RTVSPost2010Prop44ColorRGB
 90
      255
102
RTVSPost2010PropOp44
 70
     1
102
RTVSPost2010Prop45
280
     0
102
RTVSPost2010PropOp45
 70
     1
102
RTVSPost2010Prop46
 90
       50
102
RTVSPost2010PropOp46
 70
     1
102
RTVSPost2010Prop47
 90
       50
102
RTVSPost2010PropOp47
 70
     1
102
RTVSPost2010Prop48
 90
       50
102
RTVSPost2010PropOp48
 70
     1
102
RTVSPost2010Prop49
280
     0
102
RTVSPost2010PropOp49
 70
     1
102
RTVSPost2010Prop50
 90
       50
102
RTVSPost2010PropOp50
 70
     1
102
RTVSPost2010Prop51ColorIndex
 90
      256
102
RTVSPost2010Prop51ColorRGB
 90
-16777216
102
RTVSPost2010PropOp51
 70
     0
102
RTVSPost2010Prop52
140
1.0
102
RTVSPost2010PropOp52
 70
     0
102
RTVSPost2010Prop53
 90
        2
102
RTVSPost2010PropOp53
 70
     1
102
RTVSPost2010Prop54
  1
strokes_ogs.tif
102
RTVSPost2010PropOp54
 70
     1
102
RTVSPost2010Prop55
280
     0
102
RTVSPost2010PropOp55
 70
     1
102
RTVSPost2010Prop56
140
1.0
102
RTVSPost2010PropOp56
 70
     1
102
RTVSPost2010Prop57
140
1.0
102
RTVSPost2010PropOp57
 70
     1
  0
XRECORD
  5
349
102
{ACAD_REACTORS
330
348
102
}
330
348
100
AcDbXrecord
280
     1
102
RTVSPropertyOp0
 70
     1
102
RTVSPropertyOp1
 70
     1
102
RTVSPropertyOp2
 70
     1
102
RTVSPropertyOp3
 70
     1
102
RTVSPropertyOp4
 70
     1
102
RTVSPropertyOp5
 70
     1
102
RTVSPropertyOp6
 70
     1
102
RTVSPropertyOp7
 70
     1
102
RTVSPropertyOp8
 70
     1
102
RTVSPropertyOp9
 70
     1
102
RTVSPropertyOp10
 70
     1
102
RTVSPropertyOp11
 70
     1
102
RTVSPropertyOp12
 70
     1
102
RTVSPropertyOp13
 70
     1
102
RTVSPropertyOp14
 70
     1
102
RTVSPropertyOp15
 70
     1
102
RTVSPropertyOp16
 70
     1
102
RTVSPropertyOp17
 70
     1
102
RTVSPropertyOp18
 70
     1
102
RTVSPropertyOp19
 70
     1
102
RTVSPropertyOp20
 70
     1
102
RTVSPropertyOp21
 70
     1
102
RTVSPropertyOp22
 70
     1
102
RTVSPropertyOp23
 70
     1
102
RTVSPropertyOp24
 70
     1
102
RTVSPropertyOp25
 70
     1
102
RTVSPropertyOp26
 70
     1
102
RTVSPropertyOp27
 70
     1
102
RTVSPropertyOp28
 70
     1
102
RTVSPropertyOp29
 70
     1
102
RTVSPropertyOp30
 70
     1
102
RTVSPropertyOp31
 70
     1
102
RTVSPropertyOp32
 70
     1
102
RTVSPropertyOp33
 70
     1
102
RTVSPropertyOp34
 70
     1
102
RTVSPropertyOp35
 70
     1
102
RTVSPropertyOp36
 70
     1
102
RTVSPropertyOp37
 70
     1
102
RTVSPropertyOp38
 70
     1
102
RTVSPropertyOp39
 70
     1
102
RTVSPropertyOp40
 70
     1
102
RTVSPropertyOp41
 70
     1
102
RTVSPropertyOp42
 70
     1
102
RTVSPropertyOp43
 70
     1
102
RTVSPropertyOp44
 70
     1
102
RTVSPropertyOp45
 70
     1
102
RTVSPropertyOp46
 70
     1
102
RTVSPropertyOp47
 70
     1
102
RTVSPropertyOp48
 70
     1
102
RTVSPropertyOp49
 70
     1
102
RTVSPropertyOp50
 70
     1
102
RTVSPropertyOp51
 70
     0
102
RTVSPropertyOp52
 70
     0
102
RTVSPropertyOp53
 70
     1
102
RTVSPropertyOp54
 70
     1
102
RTVSPropertyOp55
 70
     1
102
RTVSPropertyOp56
 70
     1
102
RTVSPropertyOp57
 70
     1
102
RTVSPost2010Prop28
280
     0
102
RTVSPost2010PropOp28
 70
     1
102
RTVSPost2010Prop29
280
     1
102
RTVSPost2010PropOp29
 70
     1
102
RTVSPost2010Prop30
280
     1
102
RTVSPost2010PropOp30
 70
     1
102
RTVSPost2010Prop31
280
     0
102
RTVSPost2010PropOp31
 70
     1
102
RTVSPost2010Prop32
280
     0
102
RTVSPost2010PropOp32
 70
     1
102
RTVSPost2010Prop33
280
     0
102
RTVSPost2010PropOp33
 70
     1
102
RTVSPost2010Prop34
280
     0
102
RTVSPost2010PropOp34
 70
     1
102
RTVSPost2010Prop35
280
     0
102
RTVSPost2010PropOp35
 70
     1
102
RTVSPost2010Prop36
280
     0
102
RTVSPost2010PropOp36
 70
     1
102
RTVSPost2010Prop37
 90
       50
102
RTVSPost2010PropOp37
 70
     1
102
RTVSPost2010Prop38
140
0.0
102
RTVSPost2010PropOp38
 70
     1
102
RTVSPost2010Prop39
140
1.0
102
RTVSPost2010PropOp39
 70
     1
102
RTVSPost2010Prop40
 90
        0
102
RTVSPost2010PropOp40
 70
     1
102
RTVSPost2010Prop41ColorIndex
 90
       18
102
RTVSPost2010Prop41ColorRGB
 90
        0
102
RTVSPost2010PropOp41
 70
     1
102
RTVSPost2010Prop42
 90
       50
102
RTVSPost2010PropOp42
 70
     1
102
RTVSPost2010Prop43
 90
        3
102
RTVSPost2010PropOp43
 70
     1
102
RTVSPost2010Prop44ColorIndex
 90
        5
102
RTVSPost2010Prop44ColorRGB
 90
      255
102
RTVSPost2010PropOp44
 70
     1
102
RTVSPost2010Prop45
280
     0
102
RTVSPost2010PropOp45
 70
     1
102
RTVSPost2010Prop46
 90
       50
102
RTVSPost2010PropOp46
 70
     1
102
RTVSPost2010Prop47
 90
       50
102
RTVSPost2010PropOp47
 70
     1
102
RTVSPost2010Prop48
 90
       50
102
RTVSPost2010PropOp48
 70
     1
102
RTVSPost2010Prop49
280
     0
102
RTVSPost2010PropOp49
 70
     1
102
RTVSPost2010Prop50
 90
       50
102
RTVSPost2010PropOp50
 70
     1
102
RTVSPost2010Prop51ColorIndex
 90
      256
102
RTVSPost2010Prop51ColorRGB
 90
-16777216
102
RTVSPost2010PropOp51
 70
     0
102
RTVSPost2010Prop52
140
1.0
102
RTVSPost2010PropOp52
 70
     0
102
RTVSPost2010Prop53
 90
        2
102
RTVSPost2010PropOp53
 70
     1
102
RTVSPost2010Prop54
  1
strokes_ogs.tif
102
RTVSPost2010PropOp54
 70
     1
102
RTVSPost2010Prop55
280
     0
102
RTVSPost2010PropOp55
 70
     1
102
RTVSPost2010Prop56
140
1.0
102
RTVSPost2010PropOp56
 70
     1
102
RTVSPost2010Prop57
140
1.0
102
RTVSPost2010PropOp57
 70
     1
  0
XRECORD
  5
359
102
{ACAD_REACTORS
330
358
102
}
330
358
100
AcDbXrecord
280
     1
102
RTVSPropertyOp0
 70
     0
102
RTVSPropertyOp1
 70
     0
102
RTVSPropertyOp2
 70
     0
102
RTVSPropertyOp3
 70
     0
102
RTVSPropertyOp4
 70
     0
102
RTVSPropertyOp5
 70
     0
102
RTVSPropertyOp6
 70
     0
102
RTVSPropertyOp7
 70
     0
102
RTVSPropertyOp8
 70
     0
102
RTVSPropertyOp9
 70
     0
102
RTVSPropertyOp10
 70
     0
102
RTVSPropertyOp11
 70
     0
102
RTVSPropertyOp12
 70
     0
102
RTVSPropertyOp13
 70
     0
102
RTVSPropertyOp14
 70
     2
102
RTVSPropertyOp15
 70
     0
102
RTVSPropertyOp16
 70
     0
102
RTVSPropertyOp17
 70
     0
102
RTVSPropertyOp18
 70
     0
102
RTVSPropertyOp19
 70
     0
102
RTVSPropertyOp20
 70
     0
102
RTVSPropertyOp21
 70
     0
102
RTVSPropertyOp22
 70
     0
102
RTVSPropertyOp23
 70
     0
102
RTVSPropertyOp24
 70
     0
102
RTVSPropertyOp25
 70
     0
102
RTVSPropertyOp26
 70
     0
102
RTVSPropertyOp27
 70
     0
102
RTVSPropertyOp28
 70
     0
102
RTVSPropertyOp29
 70
     0
102
RTVSPropertyOp30
 70
     0
102
RTVSPropertyOp31
 70
     0
102
RTVSPropertyOp32
 70
     0
102
RTVSPropertyOp33
 70
     0
102
RTVSPropertyOp34
 70
     0
102
RTVSPropertyOp35
 70
     0
102
RTVSPropertyOp36
 70
     0
102
RTVSPropertyOp37
 70
     0
102
RTVSPropertyOp38
 70
     0
102
RTVSPropertyOp39
 70
     0
102
RTVSPropertyOp40
 70
     0
102
RTVSPropertyOp41
 70
     0
102
RTVSPropertyOp42
 70
     0
102
RTVSPropertyOp43
 70
     0
102
RTVSPropertyOp44
 70
     0
102
RTVSPropertyOp45
 70
     0
102
RTVSPropertyOp46
 70
     0
102
RTVSPropertyOp47
 70
     0
102
RTVSPropertyOp48
 70
     0
102
RTVSPropertyOp49
 70
     0
102
RTVSPropertyOp50
 70
     0
102
RTVSPropertyOp51
 70
     0
102
RTVSPropertyOp52
 70
     0
102
RTVSPropertyOp53
 70
     0
102
RTVSPropertyOp54
 70
     0
102
RTVSPropertyOp55
 70
     0
102
RTVSPropertyOp56
 70
     0
102
RTVSPropertyOp57
 70
     0
102
RTVSPost2010Prop28
280
     0
102
RTVSPost2010PropOp28
 70
     0
102
RTVSPost2010Prop29
280
     1
102
RTVSPost2010PropOp29
 70
     0
102
RTVSPost2010Prop30
280
     1
102
RTVSPost2010PropOp30
 70
     0
102
RTVSPost2010Prop31
280
     0
102
RTVSPost2010PropOp31
 70
     0
102
RTVSPost2010Prop32
280
     0
102
RTVSPost2010PropOp32
 70
     0
102
RTVSPost2010Prop33
280
     0
102
RTVSPost2010PropOp33
 70
     0
102
RTVSPost2010Prop34
280
     0
102
RTVSPost2010PropOp34
 70
     0
102
RTVSPost2010Prop35
280
     0
102
RTVSPost2010PropOp35
 70
     0
102
RTVSPost2010Prop36
280
     0
102
RTVSPost2010PropOp36
 70
     0
102
RTVSPost2010Prop37
 90
       50
102
RTVSPost2010PropOp37
 70
     0
102
RTVSPost2010Prop38
140
0.0
102
RTVSPost2010PropOp38
 70
     0
102
RTVSPost2010Prop39
140
1.0
102
RTVSPost2010PropOp39
 70
     0
102
RTVSPost2010Prop40
 90
        0
102
RTVSPost2010PropOp40
 70
     0
102
RTVSPost2010Prop41ColorIndex
 90
       18
102
RTVSPost2010Prop41ColorRGB
 90
        0
102
RTVSPost2010PropOp41
 70
     0
102
RTVSPost2010Prop42
 90
       50
102
RTVSPost2010PropOp42
 70
     0
102
RTVSPost2010Prop43
 90
        3
102
RTVSPost2010PropOp43
 70
     0
102
RTVSPost2010Prop44ColorIndex
 90
        5
102
RTVSPost2010Prop44ColorRGB
 90
      255
102
RTVSPost2010PropOp44
 70
     0
102
RTVSPost2010Prop45
280
     0
102
RTVSPost2010PropOp45
 70
     0
102
RTVSPost2010Prop46
 90
       50
102
RTVSPost2010PropOp46
 70
     0
102
RTVSPost2010Prop47
 90
       50
102
RTVSPost2010PropOp47
 70
     0
102
RTVSPost2010Prop48
 90
       50
102
RTVSPost2010PropOp48
 70
     0
102
RTVSPost2010Prop49
280
     0
102
RTVSPost2010PropOp49
 70
     0
102
RTVSPost2010Prop50
 90
       50
102
RTVSPost2010PropOp50
 70
     0
102
RTVSPost2010Prop51ColorIndex
 90
      256
102
RTVSPost2010Prop51ColorRGB
 90
-16777216
102
RTVSPost2010PropOp51
 70
     0
102
RTVSPost2010Prop52
140
1.0
102
RTVSPost2010PropOp52
 70
     0
102
RTVSPost2010Prop53
 90
        2
102
RTVSPost2010PropOp53
 70
     0
102
RTVSPost2010Prop54
  1
strokes_ogs.tif
102
RTVSPost2010PropOp54
 70
     0
102
RTVSPost2010Prop55
280
     0
102
RTVSPost2010PropOp55
 70
     0
102
RTVSPost2010Prop56
140
1.0
102
RTVSPost2010PropOp56
 70
     0
102
RTVSPost2010Prop57
140
1.0
102
RTVSPost2010PropOp57
 70
     0
  0
XRECORD
  5
351
102
{ACAD_REACTORS
330
350
102
}
330
350
100
AcDbXrecord
280
     1
102
RTVSPropertyOp0
 70
     1
102
RTVSPropertyOp1
 70
     1
102
RTVSPropertyOp2
 70
     1
102
RTVSPropertyOp3
 70
     1
102
RTVSPropertyOp4
 70
     1
102
RTVSPropertyOp5
 70
     1
102
RTVSPropertyOp6
 70
     1
102
RTVSPropertyOp7
 70
     1
102
RTVSPropertyOp8
 70
     1
102
RTVSPropertyOp9
 70
     1
102
RTVSPropertyOp10
 70
     1
102
RTVSPropertyOp11
 70
     1
102
RTVSPropertyOp12
 70
     1
102
RTVSPropertyOp13
 70
     1
102
RTVSPropertyOp14
 70
     1
102
RTVSPropertyOp15
 70
     1
102
RTVSPropertyOp16
 70
     1
102
RTVSPropertyOp17
 70
     1
102
RTVSPropertyOp18
 70
     1
102
RTVSPropertyOp19
 70
     1
102
RTVSPropertyOp20
 70
     1
102
RTVSPropertyOp21
 70
     1
102
RTVSPropertyOp22
 70
     1
102
RTVSPropertyOp23
 70
     1
102
RTVSPropertyOp24
 70
     1
102
RTVSPropertyOp25
 70
     1
102
RTVSPropertyOp26
 70
     1
102
RTVSPropertyOp27
 70
     1
102
RTVSPropertyOp28
 70
     1
102
RTVSPropertyOp29
 70
     1
102
RTVSPropertyOp30
 70
     1
102
RTVSPropertyOp31
 70
     1
102
RTVSPropertyOp32
 70
     1
102
RTVSPropertyOp33
 70
     1
102
RTVSPropertyOp34
 70
     1
102
RTVSPropertyOp35
 70
     1
102
RTVSPropertyOp36
 70
     1
102
RTVSPropertyOp37
 70
     1
102
RTVSPropertyOp38
 70
     1
102
RTVSPropertyOp39
 70
     1
102
RTVSPropertyOp40
 70
     1
102
RTVSPropertyOp41
 70
     1
102
RTVSPropertyOp42
 70
     1
102
RTVSPropertyOp43
 70
     1
102
RTVSPropertyOp44
 70
     1
102
RTVSPropertyOp45
 70
     1
102
RTVSPropertyOp46
 70
     1
102
RTVSPropertyOp47
 70
     1
102
RTVSPropertyOp48
 70
     1
102
RTVSPropertyOp49
 70
     1
102
RTVSPropertyOp50
 70
     1
102
RTVSPropertyOp51
 70
     0
102
RTVSPropertyOp52
 70
     0
102
RTVSPropertyOp53
 70
     1
102
RTVSPropertyOp54
 70
     1
102
RTVSPropertyOp55
 70
     1
102
RTVSPropertyOp56
 70
     1
102
RTVSPropertyOp57
 70
     1
102
RTVSPost2010Prop28
280
     0
102
RTVSPost2010PropOp28
 70
     1
102
RTVSPost2010Prop29
280
     1
102
RTVSPost2010PropOp29
 70
     1
102
RTVSPost2010Prop30
280
     1
102
RTVSPost2010PropOp30
 70
     1
102
RTVSPost2010Prop31
280
     0
102
RTVSPost2010PropOp31
 70
     1
102
RTVSPost2010Prop32
280
     0
102
RTVSPost2010PropOp32
 70
     1
102
RTVSPost2010Prop33
280
     0
102
RTVSPost2010PropOp33
 70
     1
102
RTVSPost2010Prop34
280
     0
102
RTVSPost2010PropOp34
 70
     1
102
RTVSPost2010Prop35
280
     0
102
RTVSPost2010PropOp35
 70
     1
102
RTVSPost2010Prop36
280
     0
102
RTVSPost2010PropOp36
 70
     1
102
RTVSPost2010Prop37
 90
       50
102
RTVSPost2010PropOp37
 70
     1
102
RTVSPost2010Prop38
140
0.0
102
RTVSPost2010PropOp38
 70
     1
102
RTVSPost2010Prop39
140
1.0
102
RTVSPost2010PropOp39
 70
     1
102
RTVSPost2010Prop40
 90
        0
102
RTVSPost2010PropOp40
 70
     1
102
RTVSPost2010Prop41ColorIndex
 90
       18
102
RTVSPost2010Prop41ColorRGB
 90
        0
102
RTVSPost2010PropOp41
 70
     1
102
RTVSPost2010Prop42
 90
       50
102
RTVSPost2010PropOp42
 70
     1
102
RTVSPost2010Prop43
 90
        3
102
RTVSPost2010PropOp43
 70
     1
102
RTVSPost2010Prop44ColorIndex
 90
        5
102
RTVSPost2010Prop44ColorRGB
 90
      255
102
RTVSPost2010PropOp44
 70
     1
102
RTVSPost2010Prop45
280
     0
102
RTVSPost2010PropOp45
 70
     1
102
RTVSPost2010Prop46
 90
       50
102
RTVSPost2010PropOp46
 70
     1
102
RTVSPost2010Prop47
 90
       50
102
RTVSPost2010PropOp47
 70
     1
102
RTVSPost2010Prop48
 90
       50
102
RTVSPost2010PropOp48
 70
     1
102
RTVSPost2010Prop49
280
     0
102
RTVSPost2010PropOp49
 70
     1
102
RTVSPost2010Prop50
 90
       50
102
RTVSPost2010PropOp50
 70
     1
102
RTVSPost2010Prop51ColorIndex
 90
      256
102
RTVSPost2010Prop51ColorRGB
 90
-16777216
102
RTVSPost2010PropOp51
 70
     0
102
RTVSPost2010Prop52
140
1.0
102
RTVSPost2010PropOp52
 70
     0
102
RTVSPost2010Prop53
 90
        2
102
RTVSPost2010PropOp53
 70
     1
102
RTVSPost2010Prop54
  1
strokes_ogs.tif
102
RTVSPost2010PropOp54
 70
     1
102
RTVSPost2010Prop55
280
     0
102
RTVSPost2010PropOp55
 70
     1
102
RTVSPost2010Prop56
140
1.0
102
RTVSPost2010PropOp56
 70
     1
102
RTVSPost2010Prop57
140
1.0
102
RTVSPost2010PropOp57
 70
     1
  0
XRECORD
  5
335
102
{ACAD_REACTORS
330
334
102
}
330
334
100
AcDbXrecord
280
     1
102
RTVSPropertyOp0
 70
     1
102
RTVSPropertyOp1
 70
     1
102
RTVSPropertyOp2
 70
     1
102
RTVSPropertyOp3
 70
     1
102
RTVSPropertyOp4
 70
     1
102
RTVSPropertyOp5
 70
     1
102
RTVSPropertyOp6
 70
     1
102
RTVSPropertyOp7
 70
     1
102
RTVSPropertyOp8
 70
     1
102
RTVSPropertyOp9
 70
     1
102
RTVSPropertyOp10
 70
     1
102
RTVSPropertyOp11
 70
     1
102
RTVSPropertyOp12
 70
     1
102
RTVSPropertyOp13
 70
     1
102
RTVSPropertyOp14
 70
     1
102
RTVSPropertyOp15
 70
     1
102
RTVSPropertyOp16
 70
     1
102
RTVSPropertyOp17
 70
     1
102
RTVSPropertyOp18
 70
     1
102
RTVSPropertyOp19
 70
     1
102
RTVSPropertyOp20
 70
     1
102
RTVSPropertyOp21
 70
     1
102
RTVSPropertyOp22
 70
     1
102
RTVSPropertyOp23
 70
     1
102
RTVSPropertyOp24
 70
     1
102
RTVSPropertyOp25
 70
     1
102
RTVSPropertyOp26
 70
     1
102
RTVSPropertyOp27
 70
     1
102
RTVSPropertyOp28
 70
     1
102
RTVSPropertyOp29
 70
     1
102
RTVSPropertyOp30
 70
     1
102
RTVSPropertyOp31
 70
     1
102
RTVSPropertyOp32
 70
     1
102
RTVSPropertyOp33
 70
     1
102
RTVSPropertyOp34
 70
     1
102
RTVSPropertyOp35
 70
     1
102
RTVSPropertyOp36
 70
     1
102
RTVSPropertyOp37
 70
     1
102
RTVSPropertyOp38
 70
     1
102
RTVSPropertyOp39
 70
     1
102
RTVSPropertyOp40
 70
     1
102
RTVSPropertyOp41
 70
     1
102
RTVSPropertyOp42
 70
     1
102
RTVSPropertyOp43
 70
     1
102
RTVSPropertyOp44
 70
     1
102
RTVSPropertyOp45
 70
     1
102
RTVSPropertyOp46
 70
     1
102
RTVSPropertyOp47
 70
     1
102
RTVSPropertyOp48
 70
     1
102
RTVSPropertyOp49
 70
     1
102
RTVSPropertyOp50
 70
     1
102
RTVSPropertyOp51
 70
     0
102
RTVSPropertyOp52
 70
     0
102
RTVSPropertyOp53
 70
     1
102
RTVSPropertyOp54
 70
     1
102
RTVSPropertyOp55
 70
     1
102
RTVSPropertyOp56
 70
     1
102
RTVSPropertyOp57
 70
     1
102
RTVSPost2010Prop28
280
     0
102
RTVSPost2010PropOp28
 70
     1
102
RTVSPost2010Prop29
280
     1
102
RTVSPost2010PropOp29
 70
     1
102
RTVSPost2010Prop30
280
     1
102
RTVSPost2010PropOp30
 70
     1
102
RTVSPost2010Prop31
280
     0
102
RTVSPost2010PropOp31
 70
     1
102
RTVSPost2010Prop32
280
     0
102
RTVSPost2010PropOp32
 70
     1
102
RTVSPost2010Prop33
280
     0
102
RTVSPost2010PropOp33
 70
     1
102
RTVSPost2010Prop34
280
     0
102
RTVSPost2010PropOp34
 70
     1
102
RTVSPost2010Prop35
280
     0
102
RTVSPost2010PropOp35
 70
     1
102
RTVSPost2010Prop36
280
     0
102
RTVSPost2010PropOp36
 70
     1
102
RTVSPost2010Prop37
 90
       50
102
RTVSPost2010PropOp37
 70
     1
102
RTVSPost2010Prop38
140
0.0
102
RTVSPost2010PropOp38
 70
     1
102
RTVSPost2010Prop39
140
1.0
102
RTVSPost2010PropOp39
 70
     1
102
RTVSPost2010Prop40
 90
        0
102
RTVSPost2010PropOp40
 70
     1
102
RTVSPost2010Prop41ColorIndex
 90
       18
102
RTVSPost2010Prop41ColorRGB
 90
        0
102
RTVSPost2010PropOp41
 70
     1
102
RTVSPost2010Prop42
 90
       50
102
RTVSPost2010PropOp42
 70
     1
102
RTVSPost2010Prop43
 90
        3
102
RTVSPost2010PropOp43
 70
     1
102
RTVSPost2010Prop44ColorIndex
 90
        5
102
RTVSPost2010Prop44ColorRGB
 90
      255
102
RTVSPost2010PropOp44
 70
     1
102
RTVSPost2010Prop45
280
     0
102
RTVSPost2010PropOp45
 70
     1
102
RTVSPost2010Prop46
 90
       50
102
RTVSPost2010PropOp46
 70
     1
102
RTVSPost2010Prop47
 90
       50
102
RTVSPost2010PropOp47
 70
     1
102
RTVSPost2010Prop48
 90
       50
102
RTVSPost2010PropOp48
 70
     1
102
RTVSPost2010Prop49
280
     0
102
RTVSPost2010PropOp49
 70
     1
102
RTVSPost2010Prop50
 90
       50
102
RTVSPost2010PropOp50
 70
     1
102
RTVSPost2010Prop51ColorIndex
 90
      256
102
RTVSPost2010Prop51ColorRGB
 90
-16777216
102
RTVSPost2010PropOp51
 70
     0
102
RTVSPost2010Prop52
140
1.0
102
RTVSPost2010PropOp52
 70
     0
102
RTVSPost2010Prop53
 90
        2
102
RTVSPost2010PropOp53
 70
     1
102
RTVSPost2010Prop54
  1
strokes_ogs.tif
102
RTVSPost2010PropOp54
 70
     1
102
RTVSPost2010Prop55
280
     0
102
RTVSPost2010PropOp55
 70
     1
102
RTVSPost2010Prop56
140
1.0
102
RTVSPost2010PropOp56
 70
     1
102
RTVSPost2010Prop57
140
1.0
102
RTVSPost2010PropOp57
 70
     1
  0
XRECORD
  5
337
102
{ACAD_REACTORS
330
336
102
}
330
336
100
AcDbXrecord
280
     1
102
RTVSPropertyOp0
 70
     1
102
RTVSPropertyOp1
 70
     1
102
RTVSPropertyOp2
 70
     1
102
RTVSPropertyOp3
 70
     1
102
RTVSPropertyOp4
 70
     1
102
RTVSPropertyOp5
 70
     1
102
RTVSPropertyOp6
 70
     1
102
RTVSPropertyOp7
 70
     1
102
RTVSPropertyOp8
 70
     1
102
RTVSPropertyOp9
 70
     1
102
RTVSPropertyOp10
 70
     1
102
RTVSPropertyOp11
 70
     1
102
RTVSPropertyOp12
 70
     1
102
RTVSPropertyOp13
 70
     1
102
RTVSPropertyOp14
 70
     1
102
RTVSPropertyOp15
 70
     1
102
RTVSPropertyOp16
 70
     1
102
RTVSPropertyOp17
 70
     1
102
RTVSPropertyOp18
 70
     1
102
RTVSPropertyOp19
 70
     1
102
RTVSPropertyOp20
 70
     1
102
RTVSPropertyOp21
 70
     1
102
RTVSPropertyOp22
 70
     1
102
RTVSPropertyOp23
 70
     1
102
RTVSPropertyOp24
 70
     1
102
RTVSPropertyOp25
 70
     1
102
RTVSPropertyOp26
 70
     1
102
RTVSPropertyOp27
 70
     1
102
RTVSPropertyOp28
 70
     1
102
RTVSPropertyOp29
 70
     1
102
RTVSPropertyOp30
 70
     1
102
RTVSPropertyOp31
 70
     1
102
RTVSPropertyOp32
 70
     1
102
RTVSPropertyOp33
 70
     1
102
RTVSPropertyOp34
 70
     1
102
RTVSPropertyOp35
 70
     1
102
RTVSPropertyOp36
 70
     1
102
RTVSPropertyOp37
 70
     1
102
RTVSPropertyOp38
 70
     1
102
RTVSPropertyOp39
 70
     1
102
RTVSPropertyOp40
 70
     1
102
RTVSPropertyOp41
 70
     1
102
RTVSPropertyOp42
 70
     1
102
RTVSPropertyOp43
 70
     1
102
RTVSPropertyOp44
 70
     1
102
RTVSPropertyOp45
 70
     1
102
RTVSPropertyOp46
 70
     1
102
RTVSPropertyOp47
 70
     1
102
RTVSPropertyOp48
 70
     1
102
RTVSPropertyOp49
 70
     1
102
RTVSPropertyOp50
 70
     1
102
RTVSPropertyOp51
 70
     0
102
RTVSPropertyOp52
 70
     0
102
RTVSPropertyOp53
 70
     1
102
RTVSPropertyOp54
 70
     1
102
RTVSPropertyOp55
 70
     1
102
RTVSPropertyOp56
 70
     1
102
RTVSPropertyOp57
 70
     1
102
RTVSPost2010Prop28
280
     0
102
RTVSPost2010PropOp28
 70
     1
102
RTVSPost2010Prop29
280
     1
102
RTVSPost2010PropOp29
 70
     1
102
RTVSPost2010Prop30
280
     1
102
RTVSPost2010PropOp30
 70
     1
102
RTVSPost2010Prop31
280
     0
102
RTVSPost2010PropOp31
 70
     1
102
RTVSPost2010Prop32
280
     0
102
RTVSPost2010PropOp32
 70
     1
102
RTVSPost2010Prop33
280
     0
102
RTVSPost2010PropOp33
 70
     1
102
RTVSPost2010Prop34
280
     0
102
RTVSPost2010PropOp34
 70
     1
102
RTVSPost2010Prop35
280
     0
102
RTVSPost2010PropOp35
 70
     1
102
RTVSPost2010Prop36
280
     0
102
RTVSPost2010PropOp36
 70
     1
102
RTVSPost2010Prop37
 90
       50
102
RTVSPost2010PropOp37
 70
     1
102
RTVSPost2010Prop38
140
0.0
102
RTVSPost2010PropOp38
 70
     1
102
RTVSPost2010Prop39
140
1.0
102
RTVSPost2010PropOp39
 70
     1
102
RTVSPost2010Prop40
 90
        0
102
RTVSPost2010PropOp40
 70
     1
102
RTVSPost2010Prop41ColorIndex
 90
       18
102
RTVSPost2010Prop41ColorRGB
 90
        0
102
RTVSPost2010PropOp41
 70
     1
102
RTVSPost2010Prop42
 90
       50
102
RTVSPost2010PropOp42
 70
     1
102
RTVSPost2010Prop43
 90
        3
102
RTVSPost2010PropOp43
 70
     1
102
RTVSPost2010Prop44ColorIndex
 90
        5
102
RTVSPost2010Prop44ColorRGB
 90
      255
102
RTVSPost2010PropOp44
 70
     1
102
RTVSPost2010Prop45
280
     0
102
RTVSPost2010PropOp45
 70
     1
102
RTVSPost2010Prop46
 90
       50
102
RTVSPost2010PropOp46
 70
     1
102
RTVSPost2010Prop47
 90
       50
102
RTVSPost2010PropOp47
 70
     1
102
RTVSPost2010Prop48
 90
       50
102
RTVSPost2010PropOp48
 70
     1
102
RTVSPost2010Prop49
280
     0
102
RTVSPost2010PropOp49
 70
     1
102
RTVSPost2010Prop50
 90
       50
102
RTVSPost2010PropOp50
 70
     1
102
RTVSPost2010Prop51ColorIndex
 90
      256
102
RTVSPost2010Prop51ColorRGB
 90
-16777216
102
RTVSPost2010PropOp51
 70
     0
102
RTVSPost2010Prop52
140
1.0
102
RTVSPost2010PropOp52
 70
     0
102
RTVSPost2010Prop53
 90
        2
102
RTVSPost2010PropOp53
 70
     1
102
RTVSPost2010Prop54
  1
strokes_ogs.tif
102
RTVSPost2010PropOp54
 70
     1
102
RTVSPost2010Prop55
280
     0
102
RTVSPost2010PropOp55
 70
     1
102
RTVSPost2010Prop56
140
1.0
102
RTVSPost2010PropOp56
 70
     1
102
RTVSPost2010Prop57
140
1.0
102
RTVSPost2010PropOp57
 70
     1
  0
XRECORD
  5
339
102
{ACAD_REACTORS
330
338
102
}
330
338
100
AcDbXrecord
280
     1
102
RTVSPropertyOp0
 70
     1
102
RTVSPropertyOp1
 70
     1
102
RTVSPropertyOp2
 70
     1
102
RTVSPropertyOp3
 70
     1
102
RTVSPropertyOp4
 70
     1
102
RTVSPropertyOp5
 70
     1
102
RTVSPropertyOp6
 70
     1
102
RTVSPropertyOp7
 70
     1
102
RTVSPropertyOp8
 70
     1
102
RTVSPropertyOp9
 70
     1
102
RTVSPropertyOp10
 70
     1
102
RTVSPropertyOp11
 70
     1
102
RTVSPropertyOp12
 70
     1
102
RTVSPropertyOp13
 70
     1
102
RTVSPropertyOp14
 70
     1
102
RTVSPropertyOp15
 70
     1
102
RTVSPropertyOp16
 70
     1
102
RTVSPropertyOp17
 70
     1
102
RTVSPropertyOp18
 70
     1
102
RTVSPropertyOp19
 70
     1
102
RTVSPropertyOp20
 70
     1
102
RTVSPropertyOp21
 70
     1
102
RTVSPropertyOp22
 70
     1
102
RTVSPropertyOp23
 70
     1
102
RTVSPropertyOp24
 70
     1
102
RTVSPropertyOp25
 70
     1
102
RTVSPropertyOp26
 70
     1
102
RTVSPropertyOp27
 70
     1
102
RTVSPropertyOp28
 70
     1
102
RTVSPropertyOp29
 70
     1
102
RTVSPropertyOp30
 70
     1
102
RTVSPropertyOp31
 70
     1
102
RTVSPropertyOp32
 70
     1
102
RTVSPropertyOp33
 70
     1
102
RTVSPropertyOp34
 70
     1
102
RTVSPropertyOp35
 70
     1
102
RTVSPropertyOp36
 70
     1
102
RTVSPropertyOp37
 70
     1
102
RTVSPropertyOp38
 70
     1
102
RTVSPropertyOp39
 70
     1
102
RTVSPropertyOp40
 70
     1
102
RTVSPropertyOp41
 70
     1
102
RTVSPropertyOp42
 70
     1
102
RTVSPropertyOp43
 70
     1
102
RTVSPropertyOp44
 70
     1
102
RTVSPropertyOp45
 70
     1
102
RTVSPropertyOp46
 70
     1
102
RTVSPropertyOp47
 70
     1
102
RTVSPropertyOp48
 70
     1
102
RTVSPropertyOp49
 70
     1
102
RTVSPropertyOp50
 70
     1
102
RTVSPropertyOp51
 70
     0
102
RTVSPropertyOp52
 70
     0
102
RTVSPropertyOp53
 70
     1
102
RTVSPropertyOp54
 70
     1
102
RTVSPropertyOp55
 70
     1
102
RTVSPropertyOp56
 70
     1
102
RTVSPropertyOp57
 70
     1
102
RTVSPost2010Prop28
280
     0
102
RTVSPost2010PropOp28
 70
     1
102
RTVSPost2010Prop29
280
     1
102
RTVSPost2010PropOp29
 70
     1
102
RTVSPost2010Prop30
280
     1
102
RTVSPost2010PropOp30
 70
     1
102
RTVSPost2010Prop31
280
     0
102
RTVSPost2010PropOp31
 70
     1
102
RTVSPost2010Prop32
280
     0
102
RTVSPost2010PropOp32
 70
     1
102
RTVSPost2010Prop33
280
     0
102
RTVSPost2010PropOp33
 70
     1
102
RTVSPost2010Prop34
280
     0
102
RTVSPost2010PropOp34
 70
     1
102
RTVSPost2010Prop35
280
     0
102
RTVSPost2010PropOp35
 70
     1
102
RTVSPost2010Prop36
280
     0
102
RTVSPost2010PropOp36
 70
     1
102
RTVSPost2010Prop37
 90
       50
102
RTVSPost2010PropOp37
 70
     1
102
RTVSPost2010Prop38
140
0.0
102
RTVSPost2010PropOp38
 70
     1
102
RTVSPost2010Prop39
140
1.0
102
RTVSPost2010PropOp39
 70
     1
102
RTVSPost2010Prop40
 90
        0
102
RTVSPost2010PropOp40
 70
     1
102
RTVSPost2010Prop41ColorIndex
 90
       18
102
RTVSPost2010Prop41ColorRGB
 90
        0
102
RTVSPost2010PropOp41
 70
     1
102
RTVSPost2010Prop42
 90
       50
102
RTVSPost2010PropOp42
 70
     1
102
RTVSPost2010Prop43
 90
        3
102
RTVSPost2010PropOp43
 70
     1
102
RTVSPost2010Prop44ColorIndex
 90
        5
102
RTVSPost2010Prop44ColorRGB
 90
      255
102
RTVSPost2010PropOp44
 70
     1
102
RTVSPost2010Prop45
280
     0
102
RTVSPost2010PropOp45
 70
     1
102
RTVSPost2010Prop46
 90
       50
102
RTVSPost2010PropOp46
 70
     1
102
RTVSPost2010Prop47
 90
       50
102
RTVSPost2010PropOp47
 70
     1
102
RTVSPost2010Prop48
 90
       50
102
RTVSPost2010PropOp48
 70
     1
102
RTVSPost2010Prop49
280
     0
102
RTVSPost2010PropOp49
 70
     1
102
RTVSPost2010Prop50
 90
       50
102
RTVSPost2010PropOp50
 70
     1
102
RTVSPost2010Prop51ColorIndex
 90
      256
102
RTVSPost2010Prop51ColorRGB
 90
-16777216
102
RTVSPost2010PropOp51
 70
     0
102
RTVSPost2010Prop52
140
1.0
102
RTVSPost2010PropOp52
 70
     0
102
RTVSPost2010Prop53
 90
        2
102
RTVSPost2010PropOp53
 70
     1
102
RTVSPost2010Prop54
  1
strokes_ogs.tif
102
RTVSPost2010PropOp54
 70
     1
102
RTVSPost2010Prop55
280
     0
102
RTVSPost2010PropOp55
 70
     1
102
RTVSPost2010Prop56
140
1.0
102
RTVSPost2010PropOp56
 70
     1
102
RTVSPost2010Prop57
140
1.0
102
RTVSPost2010PropOp57
 70
     1
  0
XRECORD
  5
33B
102
{ACAD_REACTORS
330
33A
102
}
330
33A
100
AcDbXrecord
280
     1
102
RTVSPropertyOp0
 70
     1
102
RTVSPropertyOp1
 70
     1
102
RTVSPropertyOp2
 70
     1
102
RTVSPropertyOp3
 70
     1
102
RTVSPropertyOp4
 70
     1
102
RTVSPropertyOp5
 70
     1
102
RTVSPropertyOp6
 70
     1
102
RTVSPropertyOp7
 70
     1
102
RTVSPropertyOp8
 70
     1
102
RTVSPropertyOp9
 70
     1
102
RTVSPropertyOp10
 70
     1
102
RTVSPropertyOp11
 70
     1
102
RTVSPropertyOp12
 70
     1
102
RTVSPropertyOp13
 70
     1
102
RTVSPropertyOp14
 70
     1
102
RTVSPropertyOp15
 70
     1
102
RTVSPropertyOp16
 70
     1
102
RTVSPropertyOp17
 70
     1
102
RTVSPropertyOp18
 70
     1
102
RTVSPropertyOp19
 70
     1
102
RTVSPropertyOp20
 70
     1
102
RTVSPropertyOp21
 70
     1
102
RTVSPropertyOp22
 70
     1
102
RTVSPropertyOp23
 70
     1
102
RTVSPropertyOp24
 70
     1
102
RTVSPropertyOp25
 70
     1
102
RTVSPropertyOp26
 70
     1
102
RTVSPropertyOp27
 70
     1
102
RTVSPropertyOp28
 70
     1
102
RTVSPropertyOp29
 70
     1
102
RTVSPropertyOp30
 70
     1
102
RTVSPropertyOp31
 70
     1
102
RTVSPropertyOp32
 70
     1
102
RTVSPropertyOp33
 70
     1
102
RTVSPropertyOp34
 70
     1
102
RTVSPropertyOp35
 70
     1
102
RTVSPropertyOp36
 70
     1
102
RTVSPropertyOp37
 70
     1
102
RTVSPropertyOp38
 70
     1
102
RTVSPropertyOp39
 70
     1
102
RTVSPropertyOp40
 70
     1
102
RTVSPropertyOp41
 70
     1
102
RTVSPropertyOp42
 70
     1
102
RTVSPropertyOp43
 70
     1
102
RTVSPropertyOp44
 70
     1
102
RTVSPropertyOp45
 70
     1
102
RTVSPropertyOp46
 70
     1
102
RTVSPropertyOp47
 70
     1
102
RTVSPropertyOp48
 70
     1
102
RTVSPropertyOp49
 70
     1
102
RTVSPropertyOp50
 70
     1
102
RTVSPropertyOp51
 70
     0
102
RTVSPropertyOp52
 70
     0
102
RTVSPropertyOp53
 70
     1
102
RTVSPropertyOp54
 70
     1
102
RTVSPropertyOp55
 70
     1
102
RTVSPropertyOp56
 70
     1
102
RTVSPropertyOp57
 70
     1
102
RTVSPost2010Prop28
280
     0
102
RTVSPost2010PropOp28
 70
     1
102
RTVSPost2010Prop29
280
     1
102
RTVSPost2010PropOp29
 70
     1
102
RTVSPost2010Prop30
280
     1
102
RTVSPost2010PropOp30
 70
     1
102
RTVSPost2010Prop31
280
     0
102
RTVSPost2010PropOp31
 70
     1
102
RTVSPost2010Prop32
280
     0
102
RTVSPost2010PropOp32
 70
     1
102
RTVSPost2010Prop33
280
     0
102
RTVSPost2010PropOp33
 70
     1
102
RTVSPost2010Prop34
280
     0
102
RTVSPost2010PropOp34
 70
     1
102
RTVSPost2010Prop35
280
     0
102
RTVSPost2010PropOp35
 70
     1
102
RTVSPost2010Prop36
280
     0
102
RTVSPost2010PropOp36
 70
     1
102
RTVSPost2010Prop37
 90
       50
102
RTVSPost2010PropOp37
 70
     1
102
RTVSPost2010Prop38
140
0.0
102
RTVSPost2010PropOp38
 70
     1
102
RTVSPost2010Prop39
140
1.0
102
RTVSPost2010PropOp39
 70
     1
102
RTVSPost2010Prop40
 90
        0
102
RTVSPost2010PropOp40
 70
     1
102
RTVSPost2010Prop41ColorIndex
 90
       18
102
RTVSPost2010Prop41ColorRGB
 90
        0
102
RTVSPost2010PropOp41
 70
     1
102
RTVSPost2010Prop42
 90
       50
102
RTVSPost2010PropOp42
 70
     1
102
RTVSPost2010Prop43
 90
        3
102
RTVSPost2010PropOp43
 70
     1
102
RTVSPost2010Prop44ColorIndex
 90
        5
102
RTVSPost2010Prop44ColorRGB
 90
      255
102
RTVSPost2010PropOp44
 70
     1
102
RTVSPost2010Prop45
280
     0
102
RTVSPost2010PropOp45
 70
     1
102
RTVSPost2010Prop46
 90
       50
102
RTVSPost2010PropOp46
 70
     1
102
RTVSPost2010Prop47
 90
       50
102
RTVSPost2010PropOp47
 70
     1
102
RTVSPost2010Prop48
 90
       50
102
RTVSPost2010PropOp48
 70
     1
102
RTVSPost2010Prop49
280
     0
102
RTVSPost2010PropOp49
 70
     1
102
RTVSPost2010Prop50
 90
       50
102
RTVSPost2010PropOp50
 70
     1
102
RTVSPost2010Prop51ColorIndex
 90
      256
102
RTVSPost2010Prop51ColorRGB
 90
-16777216
102
RTVSPost2010PropOp51
 70
     0
102
RTVSPost2010Prop52
140
1.0
102
RTVSPost2010PropOp52
 70
     0
102
RTVSPost2010Prop53
 90
        2
102
RTVSPost2010PropOp53
 70
     1
102
RTVSPost2010Prop54
  1
strokes_ogs.tif
102
RTVSPost2010PropOp54
 70
     1
102
RTVSPost2010Prop55
280
     0
102
RTVSPost2010PropOp55
 70
     1
102
RTVSPost2010Prop56
140
1.0
102
RTVSPost2010PropOp56
 70
     1
102
RTVSPost2010Prop57
140
1.0
102
RTVSPost2010PropOp57
 70
     1
  0
XRECORD
  5
341
102
{ACAD_REACTORS
330
340
102
}
330
340
100
AcDbXrecord
280
     1
102
RTVSPropertyOp0
 70
     1
102
RTVSPropertyOp1
 70
     1
102
RTVSPropertyOp2
 70
     1
102
RTVSPropertyOp3
 70
     1
102
RTVSPropertyOp4
 70
     1
102
RTVSPropertyOp5
 70
     1
102
RTVSPropertyOp6
 70
     1
102
RTVSPropertyOp7
 70
     1
102
RTVSPropertyOp8
 70
     1
102
RTVSPropertyOp9
 70
     1
102
RTVSPropertyOp10
 70
     1
102
RTVSPropertyOp11
 70
     1
102
RTVSPropertyOp12
 70
     1
102
RTVSPropertyOp13
 70
     1
102
RTVSPropertyOp14
 70
     1
102
RTVSPropertyOp15
 70
     1
102
RTVSPropertyOp16
 70
     1
102
RTVSPropertyOp17
 70
     1
102
RTVSPropertyOp18
 70
     1
102
RTVSPropertyOp19
 70
     1
102
RTVSPropertyOp20
 70
     1
102
RTVSPropertyOp21
 70
     1
102
RTVSPropertyOp22
 70
     1
102
RTVSPropertyOp23
 70
     1
102
RTVSPropertyOp24
 70
     1
102
RTVSPropertyOp25
 70
     1
102
RTVSPropertyOp26
 70
     1
102
RTVSPropertyOp27
 70
     1
102
RTVSPropertyOp28
 70
     1
102
RTVSPropertyOp29
 70
     1
102
RTVSPropertyOp30
 70
     1
102
RTVSPropertyOp31
 70
     1
102
RTVSPropertyOp32
 70
     1
102
RTVSPropertyOp33
 70
     1
102
RTVSPropertyOp34
 70
     1
102
RTVSPropertyOp35
 70
     1
102
RTVSPropertyOp36
 70
     1
102
RTVSPropertyOp37
 70
     1
102
RTVSPropertyOp38
 70
     1
102
RTVSPropertyOp39
 70
     1
102
RTVSPropertyOp40
 70
     1
102
RTVSPropertyOp41
 70
     1
102
RTVSPropertyOp42
 70
     1
102
RTVSPropertyOp43
 70
     1
102
RTVSPropertyOp44
 70
     1
102
RTVSPropertyOp45
 70
     1
102
RTVSPropertyOp46
 70
     1
102
RTVSPropertyOp47
 70
     1
102
RTVSPropertyOp48
 70
     1
102
RTVSPropertyOp49
 70
     1
102
RTVSPropertyOp50
 70
     1
102
RTVSPropertyOp51
 70
     0
102
RTVSPropertyOp52
 70
     0
102
RTVSPropertyOp53
 70
     1
102
RTVSPropertyOp54
 70
     1
102
RTVSPropertyOp55
 70
     1
102
RTVSPropertyOp56
 70
     1
102
RTVSPropertyOp57
 70
     1
102
RTVSPost2010Prop28
280
     0
102
RTVSPost2010PropOp28
 70
     1
102
RTVSPost2010Prop29
280
     1
102
RTVSPost2010PropOp29
 70
     1
102
RTVSPost2010Prop30
280
     1
102
RTVSPost2010PropOp30
 70
     1
102
RTVSPost2010Prop31
280
     0
102
RTVSPost2010PropOp31
 70
     1
102
RTVSPost2010Prop32
280
     0
102
RTVSPost2010PropOp32
 70
     1
102
RTVSPost2010Prop33
280
     0
102
RTVSPost2010PropOp33
 70
     1
102
RTVSPost2010Prop34
280
     0
102
RTVSPost2010PropOp34
 70
     1
102
RTVSPost2010Prop35
280
     0
102
RTVSPost2010PropOp35
 70
     1
102
RTVSPost2010Prop36
280
     0
102
RTVSPost2010PropOp36
 70
     1
102
RTVSPost2010Prop37
 90
       50
102
RTVSPost2010PropOp37
 70
     1
102
RTVSPost2010Prop38
140
0.0
102
RTVSPost2010PropOp38
 70
     1
102
RTVSPost2010Prop39
140
1.0
102
RTVSPost2010PropOp39
 70
     1
102
RTVSPost2010Prop40
 90
        0
102
RTVSPost2010PropOp40
 70
     1
102
RTVSPost2010Prop41ColorIndex
 90
       18
102
RTVSPost2010Prop41ColorRGB
 90
        0
102
RTVSPost2010PropOp41
 70
     1
102
RTVSPost2010Prop42
 90
       50
102
RTVSPost2010PropOp42
 70
     1
102
RTVSPost2010Prop43
 90
        3
102
RTVSPost2010PropOp43
 70
     1
102
RTVSPost2010Prop44ColorIndex
 90
        5
102
RTVSPost2010Prop44ColorRGB
 90
      255
102
RTVSPost2010PropOp44
 70
     1
102
RTVSPost2010Prop45
280
     0
102
RTVSPost2010PropOp45
 70
     1
102
RTVSPost2010Prop46
 90
       50
102
RTVSPost2010PropOp46
 70
     1
102
RTVSPost2010Prop47
 90
       50
102
RTVSPost2010PropOp47
 70
     1
102
RTVSPost2010Prop48
 90
       50
102
RTVSPost2010PropOp48
 70
     1
102
RTVSPost2010Prop49
280
     0
102
RTVSPost2010PropOp49
 70
     1
102
RTVSPost2010Prop50
 90
       50
102
RTVSPost2010PropOp50
 70
     1
102
RTVSPost2010Prop51ColorIndex
 90
      256
102
RTVSPost2010Prop51ColorRGB
 90
-16777216
102
RTVSPost2010PropOp51
 70
     0
102
RTVSPost2010Prop52
140
1.0
102
RTVSPost2010PropOp52
 70
     0
102
RTVSPost2010Prop53
 90
        2
102
RTVSPost2010PropOp53
 70
     1
102
RTVSPost2010Prop54
  1
strokes_ogs.tif
102
RTVSPost2010PropOp54
 70
     1
102
RTVSPost2010Prop55
280
     0
102
RTVSPost2010PropOp55
 70
     1
102
RTVSPost2010Prop56
140
1.0
102
RTVSPost2010PropOp56
 70
     1
102
RTVSPost2010Prop57
140
1.0
102
RTVSPost2010PropOp57
 70
     1
  0
XRECORD
  5
355
102
{ACAD_REACTORS
330
354
102
}
330
354
100
AcDbXrecord
280
     1
102
RTVSPropertyOp0
 70
     0
102
RTVSPropertyOp1
 70
     0
102
RTVSPropertyOp2
 70
     0
102
RTVSPropertyOp3
 70
     0
102
RTVSPropertyOp4
 70
     0
102
RTVSPropertyOp5
 70
     0
102
RTVSPropertyOp6
 70
     0
102
RTVSPropertyOp7
 70
     0
102
RTVSPropertyOp8
 70
     0
102
RTVSPropertyOp9
 70
     0
102
RTVSPropertyOp10
 70
     0
102
RTVSPropertyOp11
 70
     0
102
RTVSPropertyOp12
 70
     0
102
RTVSPropertyOp13
 70
     0
102
RTVSPropertyOp14
 70
     2
102
RTVSPropertyOp15
 70
     0
102
RTVSPropertyOp16
 70
     0
102
RTVSPropertyOp17
 70
     0
102
RTVSPropertyOp18
 70
     0
102
RTVSPropertyOp19
 70
     0
102
RTVSPropertyOp20
 70
     0
102
RTVSPropertyOp21
 70
     0
102
RTVSPropertyOp22
 70
     0
102
RTVSPropertyOp23
 70
     0
102
RTVSPropertyOp24
 70
     0
102
RTVSPropertyOp25
 70
     0
102
RTVSPropertyOp26
 70
     0
102
RTVSPropertyOp27
 70
     0
102
RTVSPropertyOp28
 70
     0
102
RTVSPropertyOp29
 70
     0
102
RTVSPropertyOp30
 70
     0
102
RTVSPropertyOp31
 70
     0
102
RTVSPropertyOp32
 70
     0
102
RTVSPropertyOp33
 70
     0
102
RTVSPropertyOp34
 70
     0
102
RTVSPropertyOp35
 70
     0
102
RTVSPropertyOp36
 70
     0
102
RTVSPropertyOp37
 70
     0
102
RTVSPropertyOp38
 70
     0
102
RTVSPropertyOp39
 70
     0
102
RTVSPropertyOp40
 70
     0
102
RTVSPropertyOp41
 70
     0
102
RTVSPropertyOp42
 70
     0
102
RTVSPropertyOp43
 70
     0
102
RTVSPropertyOp44
 70
     0
102
RTVSPropertyOp45
 70
     0
102
RTVSPropertyOp46
 70
     0
102
RTVSPropertyOp47
 70
     0
102
RTVSPropertyOp48
 70
     0
102
RTVSPropertyOp49
 70
     0
102
RTVSPropertyOp50
 70
     0
102
RTVSPropertyOp51
 70
     0
102
RTVSPropertyOp52
 70
     0
102
RTVSPropertyOp53
 70
     0
102
RTVSPropertyOp54
 70
     0
102
RTVSPropertyOp55
 70
     0
102
RTVSPropertyOp56
 70
     0
102
RTVSPropertyOp57
 70
     0
102
RTVSPost2010Prop28
280
     0
102
RTVSPost2010PropOp28
 70
     0
102
RTVSPost2010Prop29
280
     1
102
RTVSPost2010PropOp29
 70
     0
102
RTVSPost2010Prop30
280
     1
102
RTVSPost2010PropOp30
 70
     0
102
RTVSPost2010Prop31
280
     0
102
RTVSPost2010PropOp31
 70
     0
102
RTVSPost2010Prop32
280
     0
102
RTVSPost2010PropOp32
 70
     0
102
RTVSPost2010Prop33
280
     0
102
RTVSPost2010PropOp33
 70
     0
102
RTVSPost2010Prop34
280
     0
102
RTVSPost2010PropOp34
 70
     0
102
RTVSPost2010Prop35
280
     0
102
RTVSPost2010PropOp35
 70
     0
102
RTVSPost2010Prop36
280
     0
102
RTVSPost2010PropOp36
 70
     0
102
RTVSPost2010Prop37
 90
       50
102
RTVSPost2010PropOp37
 70
     0
102
RTVSPost2010Prop38
140
0.0
102
RTVSPost2010PropOp38
 70
     0
102
RTVSPost2010Prop39
140
1.0
102
RTVSPost2010PropOp39
 70
     0
102
RTVSPost2010Prop40
 90
        0
102
RTVSPost2010PropOp40
 70
     0
102
RTVSPost2010Prop41ColorIndex
 90
       18
102
RTVSPost2010Prop41ColorRGB
 90
        0
102
RTVSPost2010PropOp41
 70
     0
102
RTVSPost2010Prop42
 90
       50
102
RTVSPost2010PropOp42
 70
     0
102
RTVSPost2010Prop43
 90
        3
102
RTVSPost2010PropOp43
 70
     0
102
RTVSPost2010Prop44ColorIndex
 90
        5
102
RTVSPost2010Prop44ColorRGB
 90
      255
102
RTVSPost2010PropOp44
 70
     0
102
RTVSPost2010Prop45
280
     0
102
RTVSPost2010PropOp45
 70
     0
102
RTVSPost2010Prop46
 90
       50
102
RTVSPost2010PropOp46
 70
     0
102
RTVSPost2010Prop47
 90
       50
102
RTVSPost2010PropOp47
 70
     0
102
RTVSPost2010Prop48
 90
       50
102
RTVSPost2010PropOp48
 70
     0
102
RTVSPost2010Prop49
280
     0
102
RTVSPost2010PropOp49
 70
     0
102
RTVSPost2010Prop50
 90
       50
102
RTVSPost2010PropOp50
 70
     0
102
RTVSPost2010Prop51ColorIndex
 90
      256
102
RTVSPost2010Prop51ColorRGB
 90
-16777216
102
RTVSPost2010PropOp51
 70
     0
102
RTVSPost2010Prop52
140
1.0
102
RTVSPost2010PropOp52
 70
     0
102
RTVSPost2010Prop53
 90
        2
102
RTVSPost2010PropOp53
 70
     0
102
RTVSPost2010Prop54
  1
strokes_ogs.tif
102
RTVSPost2010PropOp54
 70
     0
102
RTVSPost2010Prop55
280
     0
102
RTVSPost2010PropOp55
 70
     0
102
RTVSPost2010Prop56
140
1.0
102
RTVSPost2010PropOp56
 70
     0
102
RTVSPost2010Prop57
140
1.0
102
RTVSPost2010PropOp57
 70
     0
  0
XRECORD
  5
34F
102
{ACAD_REACTORS
330
34E
102
}
330
34E
100
AcDbXrecord
280
     1
102
RTVSPropertyOp0
 70
     1
102
RTVSPropertyOp1
 70
     1
102
RTVSPropertyOp2
 70
     1
102
RTVSPropertyOp3
 70
     1
102
RTVSPropertyOp4
 70
     1
102
RTVSPropertyOp5
 70
     1
102
RTVSPropertyOp6
 70
     1
102
RTVSPropertyOp7
 70
     1
102
RTVSPropertyOp8
 70
     1
102
RTVSPropertyOp9
 70
     1
102
RTVSPropertyOp10
 70
     1
102
RTVSPropertyOp11
 70
     1
102
RTVSPropertyOp12
 70
     1
102
RTVSPropertyOp13
 70
     1
102
RTVSPropertyOp14
 70
     1
102
RTVSPropertyOp15
 70
     1
102
RTVSPropertyOp16
 70
     1
102
RTVSPropertyOp17
 70
     1
102
RTVSPropertyOp18
 70
     1
102
RTVSPropertyOp19
 70
     1
102
RTVSPropertyOp20
 70
     1
102
RTVSPropertyOp21
 70
     1
102
RTVSPropertyOp22
 70
     1
102
RTVSPropertyOp23
 70
     1
102
RTVSPropertyOp24
 70
     1
102
RTVSPropertyOp25
 70
     1
102
RTVSPropertyOp26
 70
     1
102
RTVSPropertyOp27
 70
     1
102
RTVSPropertyOp28
 70
     1
102
RTVSPropertyOp29
 70
     1
102
RTVSPropertyOp30
 70
     1
102
RTVSPropertyOp31
 70
     1
102
RTVSPropertyOp32
 70
     1
102
RTVSPropertyOp33
 70
     1
102
RTVSPropertyOp34
 70
     1
102
RTVSPropertyOp35
 70
     1
102
RTVSPropertyOp36
 70
     1
102
RTVSPropertyOp37
 70
     1
102
RTVSPropertyOp38
 70
     1
102
RTVSPropertyOp39
 70
     1
102
RTVSPropertyOp40
 70
     1
102
RTVSPropertyOp41
 70
     1
102
RTVSPropertyOp42
 70
     1
102
RTVSPropertyOp43
 70
     1
102
RTVSPropertyOp44
 70
     1
102
RTVSPropertyOp45
 70
     1
102
RTVSPropertyOp46
 70
     1
102
RTVSPropertyOp47
 70
     1
102
RTVSPropertyOp48
 70
     1
102
RTVSPropertyOp49
 70
     1
102
RTVSPropertyOp50
 70
     1
102
RTVSPropertyOp51
 70
     0
102
RTVSPropertyOp52
 70
     0
102
RTVSPropertyOp53
 70
     1
102
RTVSPropertyOp54
 70
     1
102
RTVSPropertyOp55
 70
     1
102
RTVSPropertyOp56
 70
     1
102
RTVSPropertyOp57
 70
     1
102
RTVSPost2010Prop28
280
     0
102
RTVSPost2010PropOp28
 70
     1
102
RTVSPost2010Prop29
280
     1
102
RTVSPost2010PropOp29
 70
     1
102
RTVSPost2010Prop30
280
     1
102
RTVSPost2010PropOp30
 70
     1
102
RTVSPost2010Prop31
280
     0
102
RTVSPost2010PropOp31
 70
     1
102
RTVSPost2010Prop32
280
     0
102
RTVSPost2010PropOp32
 70
     1
102
RTVSPost2010Prop33
280
     0
102
RTVSPost2010PropOp33
 70
     1
102
RTVSPost2010Prop34
280
     0
102
RTVSPost2010PropOp34
 70
     1
102
RTVSPost2010Prop35
280
     0
102
RTVSPost2010PropOp35
 70
     1
102
RTVSPost2010Prop36
280
     0
102
RTVSPost2010PropOp36
 70
     1
102
RTVSPost2010Prop37
 90
       50
102
RTVSPost2010PropOp37
 70
     1
102
RTVSPost2010Prop38
140
0.0
102
RTVSPost2010PropOp38
 70
     1
102
RTVSPost2010Prop39
140
1.0
102
RTVSPost2010PropOp39
 70
     1
102
RTVSPost2010Prop40
 90
        0
102
RTVSPost2010PropOp40
 70
     1
102
RTVSPost2010Prop41ColorIndex
 90
       18
102
RTVSPost2010Prop41ColorRGB
 90
        0
102
RTVSPost2010PropOp41
 70
     1
102
RTVSPost2010Prop42
 90
       50
102
RTVSPost2010PropOp42
 70
     1
102
RTVSPost2010Prop43
 90
        3
102
RTVSPost2010PropOp43
 70
     1
102
RTVSPost2010Prop44ColorIndex
 90
        5
102
RTVSPost2010Prop44ColorRGB
 90
      255
102
RTVSPost2010PropOp44
 70
     1
102
RTVSPost2010Prop45
280
     0
102
RTVSPost2010PropOp45
 70
     1
102
RTVSPost2010Prop46
 90
       50
102
RTVSPost2010PropOp46
 70
     1
102
RTVSPost2010Prop47
 90
       50
102
RTVSPost2010PropOp47
 70
     1
102
RTVSPost2010Prop48
 90
       50
102
RTVSPost2010PropOp48
 70
     1
102
RTVSPost2010Prop49
280
     0
102
RTVSPost2010PropOp49
 70
     1
102
RTVSPost2010Prop50
 90
       50
102
RTVSPost2010PropOp50
 70
     1
102
RTVSPost2010Prop51ColorIndex
 90
      256
102
RTVSPost2010Prop51ColorRGB
 90
-16777216
102
RTVSPost2010PropOp51
 70
     0
102
RTVSPost2010Prop52
140
1.0
102
RTVSPost2010PropOp52
 70
     0
102
RTVSPost2010Prop53
 90
        2
102
RTVSPost2010PropOp53
 70
     1
102
RTVSPost2010Prop54
  1
strokes_ogs.tif
102
RTVSPost2010PropOp54
 70
     1
102
RTVSPost2010Prop55
280
     0
102
RTVSPost2010PropOp55
 70
     1
102
RTVSPost2010Prop56
140
1.0
102
RTVSPost2010PropOp56
 70
     1
102
RTVSPost2010Prop57
140
1.0
102
RTVSPost2010PropOp57
 70
     1
  0
XRECORD
  5
357
102
{ACAD_REACTORS
330
356
102
}
330
356
100
AcDbXrecord
280
     1
102
RTVSPropertyOp0
 70
     0
102
RTVSPropertyOp1
 70
     0
102
RTVSPropertyOp2
 70
     0
102
RTVSPropertyOp3
 70
     0
102
RTVSPropertyOp4
 70
     0
102
RTVSPropertyOp5
 70
     0
102
RTVSPropertyOp6
 70
     0
102
RTVSPropertyOp7
 70
     0
102
RTVSPropertyOp8
 70
     0
102
RTVSPropertyOp9
 70
     0
102
RTVSPropertyOp10
 70
     0
102
RTVSPropertyOp11
 70
     0
102
RTVSPropertyOp12
 70
     0
102
RTVSPropertyOp13
 70
     0
102
RTVSPropertyOp14
 70
     2
102
RTVSPropertyOp15
 70
     0
102
RTVSPropertyOp16
 70
     0
102
RTVSPropertyOp17
 70
     0
102
RTVSPropertyOp18
 70
     0
102
RTVSPropertyOp19
 70
     0
102
RTVSPropertyOp20
 70
     0
102
RTVSPropertyOp21
 70
     0
102
RTVSPropertyOp22
 70
     0
102
RTVSPropertyOp23
 70
     0
102
RTVSPropertyOp24
 70
     0
102
RTVSPropertyOp25
 70
     0
102
RTVSPropertyOp26
 70
     0
102
RTVSPropertyOp27
 70
     0
102
RTVSPropertyOp28
 70
     0
102
RTVSPropertyOp29
 70
     0
102
RTVSPropertyOp30
 70
     0
102
RTVSPropertyOp31
 70
     0
102
RTVSPropertyOp32
 70
     0
102
RTVSPropertyOp33
 70
     0
102
RTVSPropertyOp34
 70
     0
102
RTVSPropertyOp35
 70
     0
102
RTVSPropertyOp36
 70
     0
102
RTVSPropertyOp37
 70
     0
102
RTVSPropertyOp38
 70
     0
102
RTVSPropertyOp39
 70
     0
102
RTVSPropertyOp40
 70
     0
102
RTVSPropertyOp41
 70
     0
102
RTVSPropertyOp42
 70
     0
102
RTVSPropertyOp43
 70
     0
102
RTVSPropertyOp44
 70
     0
102
RTVSPropertyOp45
 70
     0
102
RTVSPropertyOp46
 70
     0
102
RTVSPropertyOp47
 70
     0
102
RTVSPropertyOp48
 70
     0
102
RTVSPropertyOp49
 70
     0
102
RTVSPropertyOp50
 70
     0
102
RTVSPropertyOp51
 70
     0
102
RTVSPropertyOp52
 70
     0
102
RTVSPropertyOp53
 70
     0
102
RTVSPropertyOp54
 70
     0
102
RTVSPropertyOp55
 70
     0
102
RTVSPropertyOp56
 70
     0
102
RTVSPropertyOp57
 70
     0
102
RTVSPost2010Prop28
280
     0
102
RTVSPost2010PropOp28
 70
     0
102
RTVSPost2010Prop29
280
     1
102
RTVSPost2010PropOp29
 70
     0
102
RTVSPost2010Prop30
280
     1
102
RTVSPost2010PropOp30
 70
     0
102
RTVSPost2010Prop31
280
     0
102
RTVSPost2010PropOp31
 70
     0
102
RTVSPost2010Prop32
280
     0
102
RTVSPost2010PropOp32
 70
     0
102
RTVSPost2010Prop33
280
     0
102
RTVSPost2010PropOp33
 70
     0
102
RTVSPost2010Prop34
280
     0
102
RTVSPost2010PropOp34
 70
     0
102
RTVSPost2010Prop35
280
     0
102
RTVSPost2010PropOp35
 70
     0
102
RTVSPost2010Prop36
280
     0
102
RTVSPost2010PropOp36
 70
     0
102
RTVSPost2010Prop37
 90
       50
102
RTVSPost2010PropOp37
 70
     0
102
RTVSPost2010Prop38
140
0.0
102
RTVSPost2010PropOp38
 70
     0
102
RTVSPost2010Prop39
140
1.0
102
RTVSPost2010PropOp39
 70
     0
102
RTVSPost2010Prop40
 90
        0
102
RTVSPost2010PropOp40
 70
     0
102
RTVSPost2010Prop41ColorIndex
 90
       18
102
RTVSPost2010Prop41ColorRGB
 90
        0
102
RTVSPost2010PropOp41
 70
     0
102
RTVSPost2010Prop42
 90
       50
102
RTVSPost2010PropOp42
 70
     0
102
RTVSPost2010Prop43
 90
        3
102
RTVSPost2010PropOp43
 70
     0
102
RTVSPost2010Prop44ColorIndex
 90
        5
102
RTVSPost2010Prop44ColorRGB
 90
      255
102
RTVSPost2010PropOp44
 70
     0
102
RTVSPost2010Prop45
280
     0
102
RTVSPost2010PropOp45
 70
     0
102
RTVSPost2010Prop46
 90
       50
102
RTVSPost2010PropOp46
 70
     0
102
RTVSPost2010Prop47
 90
       50
102
RTVSPost2010PropOp47
 70
     0
102
RTVSPost2010Prop48
 90
       50
102
RTVSPost2010PropOp48
 70
     0
102
RTVSPost2010Prop49
280
     0
102
RTVSPost2010PropOp49
 70
     0
102
RTVSPost2010Prop50
 90
       50
102
RTVSPost2010PropOp50
 70
     0
102
RTVSPost2010Prop51ColorIndex
 90
      256
102
RTVSPost2010Prop51ColorRGB
 90
-16777216
102
RTVSPost2010PropOp51
 70
     0
102
RTVSPost2010Prop52
140
1.0
102
RTVSPost2010PropOp52
 70
     0
102
RTVSPost2010Prop53
 90
        2
102
RTVSPost2010PropOp53
 70
     0
102
RTVSPost2010Prop54
  1
strokes_ogs.tif
102
RTVSPost2010PropOp54
 70
     0
102
RTVSPost2010Prop55
280
     0
102
RTVSPost2010PropOp55
 70
     0
102
RTVSPost2010Prop56
140
1.0
102
RTVSPost2010PropOp56
 70
     0
102
RTVSPost2010Prop57
140
1.0
102
RTVSPost2010PropOp57
 70
     0
  0
XRECORD
  5
345
102
{ACAD_REACTORS
330
344
102
}
330
344
100
AcDbXrecord
280
     1
102
RTVSPropertyOp0
 70
     1
102
RTVSPropertyOp1
 70
     1
102
RTVSPropertyOp2
 70
     1
102
RTVSPropertyOp3
 70
     1
102
RTVSPropertyOp4
 70
     1
102
RTVSPropertyOp5
 70
     1
102
RTVSPropertyOp6
 70
     1
102
RTVSPropertyOp7
 70
     1
102
RTVSPropertyOp8
 70
     1
102
RTVSPropertyOp9
 70
     1
102
RTVSPropertyOp10
 70
     1
102
RTVSPropertyOp11
 70
     1
102
RTVSPropertyOp12
 70
     1
102
RTVSPropertyOp13
 70
     1
102
RTVSPropertyOp14
 70
     1
102
RTVSPropertyOp15
 70
     1
102
RTVSPropertyOp16
 70
     1
102
RTVSPropertyOp17
 70
     1
102
RTVSPropertyOp18
 70
     1
102
RTVSPropertyOp19
 70
     1
102
RTVSPropertyOp20
 70
     1
102
RTVSPropertyOp21
 70
     1
102
RTVSPropertyOp22
 70
     1
102
RTVSPropertyOp23
 70
     1
102
RTVSPropertyOp24
 70
     1
102
RTVSPropertyOp25
 70
     1
102
RTVSPropertyOp26
 70
     1
102
RTVSPropertyOp27
 70
     1
102
RTVSPropertyOp28
 70
     1
102
RTVSPropertyOp29
 70
     1
102
RTVSPropertyOp30
 70
     1
102
RTVSPropertyOp31
 70
     1
102
RTVSPropertyOp32
 70
     1
102
RTVSPropertyOp33
 70
     1
102
RTVSPropertyOp34
 70
     1
102
RTVSPropertyOp35
 70
     1
102
RTVSPropertyOp36
 70
     1
102
RTVSPropertyOp37
 70
     1
102
RTVSPropertyOp38
 70
     1
102
RTVSPropertyOp39
 70
     1
102
RTVSPropertyOp40
 70
     1
102
RTVSPropertyOp41
 70
     1
102
RTVSPropertyOp42
 70
     1
102
RTVSPropertyOp43
 70
     1
102
RTVSPropertyOp44
 70
     1
102
RTVSPropertyOp45
 70
     1
102
RTVSPropertyOp46
 70
     1
102
RTVSPropertyOp47
 70
     1
102
RTVSPropertyOp48
 70
     1
102
RTVSPropertyOp49
 70
     1
102
RTVSPropertyOp50
 70
     1
102
RTVSPropertyOp51
 70
     0
102
RTVSPropertyOp52
 70
     0
102
RTVSPropertyOp53
 70
     1
102
RTVSPropertyOp54
 70
     1
102
RTVSPropertyOp55
 70
     1
102
RTVSPropertyOp56
 70
     1
102
RTVSPropertyOp57
 70
     1
102
RTVSPost2010Prop28
280
     0
102
RTVSPost2010PropOp28
 70
     1
102
RTVSPost2010Prop29
280
     1
102
RTVSPost2010PropOp29
 70
     1
102
RTVSPost2010Prop30
280
     1
102
RTVSPost2010PropOp30
 70
     1
102
RTVSPost2010Prop31
280
     0
102
RTVSPost2010PropOp31
 70
     1
102
RTVSPost2010Prop32
280
     0
102
RTVSPost2010PropOp32
 70
     1
102
RTVSPost2010Prop33
280
     0
102
RTVSPost2010PropOp33
 70
     1
102
RTVSPost2010Prop34
280
     0
102
RTVSPost2010PropOp34
 70
     1
102
RTVSPost2010Prop35
280
     0
102
RTVSPost2010PropOp35
 70
     1
102
RTVSPost2010Prop36
280
     0
102
RTVSPost2010PropOp36
 70
     1
102
RTVSPost2010Prop37
 90
       50
102
RTVSPost2010PropOp37
 70
     1
102
RTVSPost2010Prop38
140
0.0
102
RTVSPost2010PropOp38
 70
     1
102
RTVSPost2010Prop39
140
1.0
102
RTVSPost2010PropOp39
 70
     1
102
RTVSPost2010Prop40
 90
        0
102
RTVSPost2010PropOp40
 70
     1
102
RTVSPost2010Prop41ColorIndex
 90
       18
102
RTVSPost2010Prop41ColorRGB
 90
        0
102
RTVSPost2010PropOp41
 70
     1
102
RTVSPost2010Prop42
 90
       50
102
RTVSPost2010PropOp42
 70
     1
102
RTVSPost2010Prop43
 90
        3
102
RTVSPost2010PropOp43
 70
     1
102
RTVSPost2010Prop44ColorIndex
 90
        5
102
RTVSPost2010Prop44ColorRGB
 90
      255
102
RTVSPost2010PropOp44
 70
     1
102
RTVSPost2010Prop45
280
     0
102
RTVSPost2010PropOp45
 70
     1
102
RTVSPost2010Prop46
 90
       50
102
RTVSPost2010PropOp46
 70
     1
102
RTVSPost2010Prop47
 90
       50
102
RTVSPost2010PropOp47
 70
     1
102
RTVSPost2010Prop48
 90
       50
102
RTVSPost2010PropOp48
 70
     1
102
RTVSPost2010Prop49
280
     0
102
RTVSPost2010PropOp49
 70
     1
102
RTVSPost2010Prop50
 90
       50
102
RTVSPost2010PropOp50
 70
     1
102
RTVSPost2010Prop51ColorIndex
 90
      256
102
RTVSPost2010Prop51ColorRGB
 90
-16777216
102
RTVSPost2010PropOp51
 70
     0
102
RTVSPost2010Prop52
140
1.0
102
RTVSPost2010PropOp52
 70
     0
102
RTVSPost2010Prop53
 90
        2
102
RTVSPost2010PropOp53
 70
     1
102
RTVSPost2010Prop54
  1
strokes_ogs.tif
102
RTVSPost2010PropOp54
 70
     1
102
RTVSPost2010Prop55
280
     0
102
RTVSPost2010PropOp55
 70
     1
102
RTVSPost2010Prop56
140
1.0
102
RTVSPost2010PropOp56
 70
     1
102
RTVSPost2010Prop57
140
1.0
102
RTVSPost2010PropOp57
 70
     1
  0
XRECORD
  5
363
102
{ACAD_REACTORS
330
362
102
}
330
362
100
AcDbXrecord
280
     1
102
RTVSPropertyOp0
 70
     1
102
RTVSPropertyOp1
 70
     1
102
RTVSPropertyOp2
 70
     1
102
RTVSPropertyOp3
 70
     1
102
RTVSPropertyOp4
 70
     1
102
RTVSPropertyOp5
 70
     1
102
RTVSPropertyOp6
 70
     1
102
RTVSPropertyOp7
 70
     1
102
RTVSPropertyOp8
 70
     1
102
RTVSPropertyOp9
 70
     1
102
RTVSPropertyOp10
 70
     1
102
RTVSPropertyOp11
 70
     1
102
RTVSPropertyOp12
 70
     1
102
RTVSPropertyOp13
 70
     1
102
RTVSPropertyOp14
 70
     1
102
RTVSPropertyOp15
 70
     1
102
RTVSPropertyOp16
 70
     1
102
RTVSPropertyOp17
 70
     1
102
RTVSPropertyOp18
 70
     1
102
RTVSPropertyOp19
 70
     1
102
RTVSPropertyOp20
 70
     1
102
RTVSPropertyOp21
 70
     1
102
RTVSPropertyOp22
 70
     1
102
RTVSPropertyOp23
 70
     1
102
RTVSPropertyOp24
 70
     1
102
RTVSPropertyOp25
 70
     1
102
RTVSPropertyOp26
 70
     1
102
RTVSPropertyOp27
 70
     1
102
RTVSPropertyOp28
 70
     1
102
RTVSPropertyOp29
 70
     1
102
RTVSPropertyOp30
 70
     1
102
RTVSPropertyOp31
 70
     1
102
RTVSPropertyOp32
 70
     1
102
RTVSPropertyOp33
 70
     1
102
RTVSPropertyOp34
 70
     1
102
RTVSPropertyOp35
 70
     1
102
RTVSPropertyOp36
 70
     1
102
RTVSPropertyOp37
 70
     1
102
RTVSPropertyOp38
 70
     1
102
RTVSPropertyOp39
 70
     1
102
RTVSPropertyOp40
 70
     1
102
RTVSPropertyOp41
 70
     1
102
RTVSPropertyOp42
 70
     1
102
RTVSPropertyOp43
 70
     1
102
RTVSPropertyOp44
 70
     1
102
RTVSPropertyOp45
 70
     1
102
RTVSPropertyOp46
 70
     1
102
RTVSPropertyOp47
 70
     1
102
RTVSPropertyOp48
 70
     1
102
RTVSPropertyOp49
 70
     1
102
RTVSPropertyOp50
 70
     1
102
RTVSPropertyOp51
 70
     0
102
RTVSPropertyOp52
 70
     0
102
RTVSPropertyOp53
 70
     1
102
RTVSPropertyOp54
 70
     1
102
RTVSPropertyOp55
 70
     1
102
RTVSPropertyOp56
 70
     1
102
RTVSPropertyOp57
 70
     1
102
RTVSPost2010Prop28
280
     0
102
RTVSPost2010PropOp28
 70
     1
102
RTVSPost2010Prop29
280
     1
102
RTVSPost2010PropOp29
 70
     1
102
RTVSPost2010Prop30
280
     1
102
RTVSPost2010PropOp30
 70
     1
102
RTVSPost2010Prop31
280
     0
102
RTVSPost2010PropOp31
 70
     1
102
RTVSPost2010Prop32
280
     0
102
RTVSPost2010PropOp32
 70
     1
102
RTVSPost2010Prop33
280
     0
102
RTVSPost2010PropOp33
 70
     1
102
RTVSPost2010Prop34
280
     0
102
RTVSPost2010PropOp34
 70
     1
102
RTVSPost2010Prop35
280
     0
102
RTVSPost2010PropOp35
 70
     1
102
RTVSPost2010Prop36
280
     0
102
RTVSPost2010PropOp36
 70
     1
102
RTVSPost2010Prop37
 90
       50
102
RTVSPost2010PropOp37
 70
     1
102
RTVSPost2010Prop38
140
0.0
102
RTVSPost2010PropOp38
 70
     1
102
RTVSPost2010Prop39
140
1.0
102
RTVSPost2010PropOp39
 70
     1
102
RTVSPost2010Prop40
 90
        0
102
RTVSPost2010PropOp40
 70
     1
102
RTVSPost2010Prop41ColorIndex
 90
       18
102
RTVSPost2010Prop41ColorRGB
 90
        0
102
RTVSPost2010PropOp41
 70
     1
102
RTVSPost2010Prop42
 90
       50
102
RTVSPost2010PropOp42
 70
     1
102
RTVSPost2010Prop43
 90
        3
102
RTVSPost2010PropOp43
 70
     1
102
RTVSPost2010Prop44ColorIndex
 90
        5
102
RTVSPost2010Prop44ColorRGB
 90
      255
102
RTVSPost2010PropOp44
 70
     1
102
RTVSPost2010Prop45
280
     0
102
RTVSPost2010PropOp45
 70
     1
102
RTVSPost2010Prop46
 90
       50
102
RTVSPost2010PropOp46
 70
     1
102
RTVSPost2010Prop47
 90
       50
102
RTVSPost2010PropOp47
 70
     1
102
RTVSPost2010Prop48
 90
       50
102
RTVSPost2010PropOp48
 70
     1
102
RTVSPost2010Prop49
280
     0
102
RTVSPost2010PropOp49
 70
     1
102
RTVSPost2010Prop50
 90
       50
102
RTVSPost2010PropOp50
 70
     1
102
RTVSPost2010Prop51ColorIndex
 90
      256
102
RTVSPost2010Prop51ColorRGB
 90
-16777216
102
RTVSPost2010PropOp51
 70
     0
102
RTVSPost2010Prop52
140
1.0
102
RTVSPost2010PropOp52
 70
     0
102
RTVSPost2010Prop53
 90
        2
102
RTVSPost2010PropOp53
 70
     1
102
RTVSPost2010Prop54
  1
strokes_ogs.tif
102
RTVSPost2010PropOp54
 70
     1
102
RTVSPost2010Prop55
280
     0
102
RTVSPost2010PropOp55
 70
     1
102
RTVSPost2010Prop56
140
1.0
102
RTVSPost2010PropOp56
 70
     1
102
RTVSPost2010Prop57
140
1.0
102
RTVSPost2010PropOp57
 70
     1
  0
XRECORD
  5
361
102
{ACAD_REACTORS
330
360
102
}
330
360
100
AcDbXrecord
280
     1
102
RTVSPropertyOp0
 70
     1
102
RTVSPropertyOp1
 70
     1
102
RTVSPropertyOp2
 70
     1
102
RTVSPropertyOp3
 70
     1
102
RTVSPropertyOp4
 70
     1
102
RTVSPropertyOp5
 70
     1
102
RTVSPropertyOp6
 70
     1
102
RTVSPropertyOp7
 70
     1
102
RTVSPropertyOp8
 70
     1
102
RTVSPropertyOp9
 70
     1
102
RTVSPropertyOp10
 70
     1
102
RTVSPropertyOp11
 70
     1
102
RTVSPropertyOp12
 70
     1
102
RTVSPropertyOp13
 70
     1
102
RTVSPropertyOp14
 70
     1
102
RTVSPropertyOp15
 70
     1
102
RTVSPropertyOp16
 70
     1
102
RTVSPropertyOp17
 70
     1
102
RTVSPropertyOp18
 70
     1
102
RTVSPropertyOp19
 70
     1
102
RTVSPropertyOp20
 70
     1
102
RTVSPropertyOp21
 70
     1
102
RTVSPropertyOp22
 70
     1
102
RTVSPropertyOp23
 70
     1
102
RTVSPropertyOp24
 70
     1
102
RTVSPropertyOp25
 70
     1
102
RTVSPropertyOp26
 70
     1
102
RTVSPropertyOp27
 70
     1
102
RTVSPropertyOp28
 70
     1
102
RTVSPropertyOp29
 70
     1
102
RTVSPropertyOp30
 70
     1
102
RTVSPropertyOp31
 70
     1
102
RTVSPropertyOp32
 70
     1
102
RTVSPropertyOp33
 70
     1
102
RTVSPropertyOp34
 70
     1
102
RTVSPropertyOp35
 70
     1
102
RTVSPropertyOp36
 70
     1
102
RTVSPropertyOp37
 70
     1
102
RTVSPropertyOp38
 70
     1
102
RTVSPropertyOp39
 70
     1
102
RTVSPropertyOp40
 70
     1
102
RTVSPropertyOp41
 70
     1
102
RTVSPropertyOp42
 70
     1
102
RTVSPropertyOp43
 70
     1
102
RTVSPropertyOp44
 70
     1
102
RTVSPropertyOp45
 70
     1
102
RTVSPropertyOp46
 70
     1
102
RTVSPropertyOp47
 70
     1
102
RTVSPropertyOp48
 70
     1
102
RTVSPropertyOp49
 70
     1
102
RTVSPropertyOp50
 70
     1
102
RTVSPropertyOp51
 70
     0
102
RTVSPropertyOp52
 70
     0
102
RTVSPropertyOp53
 70
     1
102
RTVSPropertyOp54
 70
     1
102
RTVSPropertyOp55
 70
     1
102
RTVSPropertyOp56
 70
     1
102
RTVSPropertyOp57
 70
     1
102
RTVSPost2010Prop28
280
     0
102
RTVSPost2010PropOp28
 70
     1
102
RTVSPost2010Prop29
280
     1
102
RTVSPost2010PropOp29
 70
     1
102
RTVSPost2010Prop30
280
     1
102
RTVSPost2010PropOp30
 70
     1
102
RTVSPost2010Prop31
280
     0
102
RTVSPost2010PropOp31
 70
     1
102
RTVSPost2010Prop32
280
     0
102
RTVSPost2010PropOp32
 70
     1
102
RTVSPost2010Prop33
280
     0
102
RTVSPost2010PropOp33
 70
     1
102
RTVSPost2010Prop34
280
     0
102
RTVSPost2010PropOp34
 70
     1
102
RTVSPost2010Prop35
280
     0
102
RTVSPost2010PropOp35
 70
     1
102
RTVSPost2010Prop36
280
     0
102
RTVSPost2010PropOp36
 70
     1
102
RTVSPost2010Prop37
 90
       50
102
RTVSPost2010PropOp37
 70
     1
102
RTVSPost2010Prop38
140
0.0
102
RTVSPost2010PropOp38
 70
     1
102
RTVSPost2010Prop39
140
1.0
102
RTVSPost2010PropOp39
 70
     1
102
RTVSPost2010Prop40
 90
        0
102
RTVSPost2010PropOp40
 70
     1
102
RTVSPost2010Prop41ColorIndex
 90
       18
102
RTVSPost2010Prop41ColorRGB
 90
        0
102
RTVSPost2010PropOp41
 70
     1
102
RTVSPost2010Prop42
 90
       50
102
RTVSPost2010PropOp42
 70
     1
102
RTVSPost2010Prop43
 90
        3
102
RTVSPost2010PropOp43
 70
     1
102
RTVSPost2010Prop44ColorIndex
 90
        5
102
RTVSPost2010Prop44ColorRGB
 90
      255
102
RTVSPost2010PropOp44
 70
     1
102
RTVSPost2010Prop45
280
     0
102
RTVSPost2010PropOp45
 70
     1
102
RTVSPost2010Prop46
 90
       50
102
RTVSPost2010PropOp46
 70
     1
102
RTVSPost2010Prop47
 90
       50
102
RTVSPost2010PropOp47
 70
     1
102
RTVSPost2010Prop48
 90
       50
102
RTVSPost2010PropOp48
 70
     1
102
RTVSPost2010Prop49
280
     0
102
RTVSPost2010PropOp49
 70
     1
102
RTVSPost2010Prop50
 90
       50
102
RTVSPost2010PropOp50
 70
     1
102
RTVSPost2010Prop51ColorIndex
 90
      256
102
RTVSPost2010Prop51ColorRGB
 90
-16777216
102
RTVSPost2010PropOp51
 70
     0
102
RTVSPost2010Prop52
140
1.0
102
RTVSPost2010PropOp52
 70
     0
102
RTVSPost2010Prop53
 90
        2
102
RTVSPost2010PropOp53
 70
     1
102
RTVSPost2010Prop54
  1
strokes_ogs.tif
102
RTVSPost2010PropOp54
 70
     1
102
RTVSPost2010Prop55
280
     0
102
RTVSPost2010PropOp55
 70
     1
102
RTVSPost2010Prop56
140
1.0
102
RTVSPost2010PropOp56
 70
     1
102
RTVSPost2010Prop57
140
1.0
102
RTVSPost2010PropOp57
 70
     1
  0
XRECORD
  5
35B
102
{ACAD_REACTORS
330
35A
102
}
330
35A
100
AcDbXrecord
280
     1
102
RTVSPropertyOp0
 70
     1
102
RTVSPropertyOp1
 70
     1
102
RTVSPropertyOp2
 70
     1
102
RTVSPropertyOp3
 70
     1
102
RTVSPropertyOp4
 70
     1
102
RTVSPropertyOp5
 70
     1
102
RTVSPropertyOp6
 70
     1
102
RTVSPropertyOp7
 70
     1
102
RTVSPropertyOp8
 70
     1
102
RTVSPropertyOp9
 70
     1
102
RTVSPropertyOp10
 70
     1
102
RTVSPropertyOp11
 70
     1
102
RTVSPropertyOp12
 70
     1
102
RTVSPropertyOp13
 70
     1
102
RTVSPropertyOp14
 70
     1
102
RTVSPropertyOp15
 70
     1
102
RTVSPropertyOp16
 70
     1
102
RTVSPropertyOp17
 70
     1
102
RTVSPropertyOp18
 70
     1
102
RTVSPropertyOp19
 70
     1
102
RTVSPropertyOp20
 70
     1
102
RTVSPropertyOp21
 70
     1
102
RTVSPropertyOp22
 70
     1
102
RTVSPropertyOp23
 70
     1
102
RTVSPropertyOp24
 70
     1
102
RTVSPropertyOp25
 70
     1
102
RTVSPropertyOp26
 70
     1
102
RTVSPropertyOp27
 70
     1
102
RTVSPropertyOp28
 70
     1
102
RTVSPropertyOp29
 70
     1
102
RTVSPropertyOp30
 70
     1
102
RTVSPropertyOp31
 70
     1
102
RTVSPropertyOp32
 70
     1
102
RTVSPropertyOp33
 70
     1
102
RTVSPropertyOp34
 70
     1
102
RTVSPropertyOp35
 70
     1
102
RTVSPropertyOp36
 70
     1
102
RTVSPropertyOp37
 70
     1
102
RTVSPropertyOp38
 70
     1
102
RTVSPropertyOp39
 70
     1
102
RTVSPropertyOp40
 70
     1
102
RTVSPropertyOp41
 70
     1
102
RTVSPropertyOp42
 70
     1
102
RTVSPropertyOp43
 70
     1
102
RTVSPropertyOp44
 70
     1
102
RTVSPropertyOp45
 70
     1
102
RTVSPropertyOp46
 70
     1
102
RTVSPropertyOp47
 70
     1
102
RTVSPropertyOp48
 70
     1
102
RTVSPropertyOp49
 70
     1
102
RTVSPropertyOp50
 70
     1
102
RTVSPropertyOp51
 70
     0
102
RTVSPropertyOp52
 70
     0
102
RTVSPropertyOp53
 70
     1
102
RTVSPropertyOp54
 70
     1
102
RTVSPropertyOp55
 70
     1
102
RTVSPropertyOp56
 70
     1
102
RTVSPropertyOp57
 70
     1
102
RTVSPost2010Prop28
280
     0
102
RTVSPost2010PropOp28
 70
     1
102
RTVSPost2010Prop29
280
     1
102
RTVSPost2010PropOp29
 70
     1
102
RTVSPost2010Prop30
280
     1
102
RTVSPost2010PropOp30
 70
     1
102
RTVSPost2010Prop31
280
     0
102
RTVSPost2010PropOp31
 70
     1
102
RTVSPost2010Prop32
280
     0
102
RTVSPost2010PropOp32
 70
     1
102
RTVSPost2010Prop33
280
     0
102
RTVSPost2010PropOp33
 70
     1
102
RTVSPost2010Prop34
280
     0
102
RTVSPost2010PropOp34
 70
     1
102
RTVSPost2010Prop35
280
     0
102
RTVSPost2010PropOp35
 70
     1
102
RTVSPost2010Prop36
280
     0
102
RTVSPost2010PropOp36
 70
     1
102
RTVSPost2010Prop37
 90
       50
102
RTVSPost2010PropOp37
 70
     1
102
RTVSPost2010Prop38
140
0.0
102
RTVSPost2010PropOp38
 70
     1
102
RTVSPost2010Prop39
140
1.0
102
RTVSPost2010PropOp39
 70
     1
102
RTVSPost2010Prop40
 90
        0
102
RTVSPost2010PropOp40
 70
     1
102
RTVSPost2010Prop41ColorIndex
 90
       18
102
RTVSPost2010Prop41ColorRGB
 90
        0
102
RTVSPost2010PropOp41
 70
     1
102
RTVSPost2010Prop42
 90
       50
102
RTVSPost2010PropOp42
 70
     1
102
RTVSPost2010Prop43
 90
        3
102
RTVSPost2010PropOp43
 70
     1
102
RTVSPost2010Prop44ColorIndex
 90
        5
102
RTVSPost2010Prop44ColorRGB
 90
      255
102
RTVSPost2010PropOp44
 70
     1
102
RTVSPost2010Prop45
280
     0
102
RTVSPost2010PropOp45
 70
     1
102
RTVSPost2010Prop46
 90
       50
102
RTVSPost2010PropOp46
 70
     1
102
RTVSPost2010Prop47
 90
       50
102
RTVSPost2010PropOp47
 70
     1
102
RTVSPost2010Prop48
 90
       50
102
RTVSPost2010PropOp48
 70
     1
102
RTVSPost2010Prop49
280
     0
102
RTVSPost2010PropOp49
 70
     1
102
RTVSPost2010Prop50
 90
       50
102
RTVSPost2010PropOp50
 70
     1
102
RTVSPost2010Prop51ColorIndex
 90
      256
102
RTVSPost2010Prop51ColorRGB
 90
-16777216
102
RTVSPost2010PropOp51
 70
     0
102
RTVSPost2010Prop52
140
1.0
102
RTVSPost2010PropOp52
 70
     0
102
RTVSPost2010Prop53
 90
        2
102
RTVSPost2010PropOp53
 70
     1
102
RTVSPost2010Prop54
  1
strokes_ogs.tif
102
RTVSPost2010PropOp54
 70
     1
102
RTVSPost2010Prop55
280
     0
102
RTVSPost2010PropOp55
 70
     1
102
RTVSPost2010Prop56
140
1.0
102
RTVSPost2010PropOp56
 70
     1
102
RTVSPost2010Prop57
140
1.0
102
RTVSPost2010PropOp57
 70
     1
  0
XRECORD
  5
35D
102
{ACAD_REACTORS
330
35C
102
}
330
35C
100
AcDbXrecord
280
     1
102
RTVSPropertyOp0
 70
     1
102
RTVSPropertyOp1
 70
     1
102
RTVSPropertyOp2
 70
     1
102
RTVSPropertyOp3
 70
     1
102
RTVSPropertyOp4
 70
     1
102
RTVSPropertyOp5
 70
     1
102
RTVSPropertyOp6
 70
     1
102
RTVSPropertyOp7
 70
     1
102
RTVSPropertyOp8
 70
     1
102
RTVSPropertyOp9
 70
     1
102
RTVSPropertyOp10
 70
     1
102
RTVSPropertyOp11
 70
     1
102
RTVSPropertyOp12
 70
     1
102
RTVSPropertyOp13
 70
     1
102
RTVSPropertyOp14
 70
     1
102
RTVSPropertyOp15
 70
     1
102
RTVSPropertyOp16
 70
     1
102
RTVSPropertyOp17
 70
     1
102
RTVSPropertyOp18
 70
     1
102
RTVSPropertyOp19
 70
     1
102
RTVSPropertyOp20
 70
     1
102
RTVSPropertyOp21
 70
     1
102
RTVSPropertyOp22
 70
     1
102
RTVSPropertyOp23
 70
     1
102
RTVSPropertyOp24
 70
     1
102
RTVSPropertyOp25
 70
     1
102
RTVSPropertyOp26
 70
     1
102
RTVSPropertyOp27
 70
     1
102
RTVSPropertyOp28
 70
     1
102
RTVSPropertyOp29
 70
     1
102
RTVSPropertyOp30
 70
     1
102
RTVSPropertyOp31
 70
     1
102
RTVSPropertyOp32
 70
     1
102
RTVSPropertyOp33
 70
     1
102
RTVSPropertyOp34
 70
     1
102
RTVSPropertyOp35
 70
     1
102
RTVSPropertyOp36
 70
     1
102
RTVSPropertyOp37
 70
     1
102
RTVSPropertyOp38
 70
     1
102
RTVSPropertyOp39
 70
     1
102
RTVSPropertyOp40
 70
     1
102
RTVSPropertyOp41
 70
     1
102
RTVSPropertyOp42
 70
     1
102
RTVSPropertyOp43
 70
     1
102
RTVSPropertyOp44
 70
     1
102
RTVSPropertyOp45
 70
     1
102
RTVSPropertyOp46
 70
     1
102
RTVSPropertyOp47
 70
     1
102
RTVSPropertyOp48
 70
     1
102
RTVSPropertyOp49
 70
     1
102
RTVSPropertyOp50
 70
     1
102
RTVSPropertyOp51
 70
     0
102
RTVSPropertyOp52
 70
     0
102
RTVSPropertyOp53
 70
     1
102
RTVSPropertyOp54
 70
     1
102
RTVSPropertyOp55
 70
     1
102
RTVSPropertyOp56
 70
     1
102
RTVSPropertyOp57
 70
     1
102
RTVSPost2010Prop28
280
     0
102
RTVSPost2010PropOp28
 70
     1
102
RTVSPost2010Prop29
280
     1
102
RTVSPost2010PropOp29
 70
     1
102
RTVSPost2010Prop30
280
     1
102
RTVSPost2010PropOp30
 70
     1
102
RTVSPost2010Prop31
280
     0
102
RTVSPost2010PropOp31
 70
     1
102
RTVSPost2010Prop32
280
     0
102
RTVSPost2010PropOp32
 70
     1
102
RTVSPost2010Prop33
280
     0
102
RTVSPost2010PropOp33
 70
     1
102
RTVSPost2010Prop34
280
     0
102
RTVSPost2010PropOp34
 70
     1
102
RTVSPost2010Prop35
280
     0
102
RTVSPost2010PropOp35
 70
     1
102
RTVSPost2010Prop36
280
     0
102
RTVSPost2010PropOp36
 70
     1
102
RTVSPost2010Prop37
 90
       50
102
RTVSPost2010PropOp37
 70
     1
102
RTVSPost2010Prop38
140
0.0
102
RTVSPost2010PropOp38
 70
     1
102
RTVSPost2010Prop39
140
1.0
102
RTVSPost2010PropOp39
 70
     1
102
RTVSPost2010Prop40
 90
        0
102
RTVSPost2010PropOp40
 70
     1
102
RTVSPost2010Prop41ColorIndex
 90
       18
102
RTVSPost2010Prop41ColorRGB
 90
        0
102
RTVSPost2010PropOp41
 70
     1
102
RTVSPost2010Prop42
 90
       50
102
RTVSPost2010PropOp42
 70
     1
102
RTVSPost2010Prop43
 90
        3
102
RTVSPost2010PropOp43
 70
     1
102
RTVSPost2010Prop44ColorIndex
 90
        5
102
RTVSPost2010Prop44ColorRGB
 90
      255
102
RTVSPost2010PropOp44
 70
     1
102
RTVSPost2010Prop45
280
     0
102
RTVSPost2010PropOp45
 70
     1
102
RTVSPost2010Prop46
 90
       50
102
RTVSPost2010PropOp46
 70
     1
102
RTVSPost2010Prop47
 90
       50
102
RTVSPost2010PropOp47
 70
     1
102
RTVSPost2010Prop48
 90
       50
102
RTVSPost2010PropOp48
 70
     1
102
RTVSPost2010Prop49
280
     0
102
RTVSPost2010PropOp49
 70
     1
102
RTVSPost2010Prop50
 90
       50
102
RTVSPost2010PropOp50
 70
     1
102
RTVSPost2010Prop51ColorIndex
 90
      256
102
RTVSPost2010Prop51ColorRGB
 90
-16777216
102
RTVSPost2010PropOp51
 70
     0
102
RTVSPost2010Prop52
140
1.0
102
RTVSPost2010PropOp52
 70
     0
102
RTVSPost2010Prop53
 90
        2
102
RTVSPost2010PropOp53
 70
     1
102
RTVSPost2010Prop54
  1
strokes_ogs.tif
102
RTVSPost2010PropOp54
 70
     1
102
RTVSPost2010Prop55
280
     0
102
RTVSPost2010PropOp55
 70
     1
102
RTVSPost2010Prop56
140
1.0
102
RTVSPost2010PropOp56
 70
     1
102
RTVSPost2010Prop57
140
1.0
102
RTVSPost2010PropOp57
 70
     1
  0
XRECORD
  5
34D
102
{ACAD_REACTORS
330
34C
102
}
330
34C
100
AcDbXrecord
280
     1
102
RTVSPropertyOp0
 70
     1
102
RTVSPropertyOp1
 70
     1
102
RTVSPropertyOp2
 70
     1
102
RTVSPropertyOp3
 70
     1
102
RTVSPropertyOp4
 70
     1
102
RTVSPropertyOp5
 70
     1
102
RTVSPropertyOp6
 70
     1
102
RTVSPropertyOp7
 70
     1
102
RTVSPropertyOp8
 70
     1
102
RTVSPropertyOp9
 70
     1
102
RTVSPropertyOp10
 70
     1
102
RTVSPropertyOp11
 70
     1
102
RTVSPropertyOp12
 70
     1
102
RTVSPropertyOp13
 70
     1
102
RTVSPropertyOp14
 70
     1
102
RTVSPropertyOp15
 70
     1
102
RTVSPropertyOp16
 70
     1
102
RTVSPropertyOp17
 70
     1
102
RTVSPropertyOp18
 70
     1
102
RTVSPropertyOp19
 70
     1
102
RTVSPropertyOp20
 70
     1
102
RTVSPropertyOp21
 70
     1
102
RTVSPropertyOp22
 70
     1
102
RTVSPropertyOp23
 70
     1
102
RTVSPropertyOp24
 70
     1
102
RTVSPropertyOp25
 70
     1
102
RTVSPropertyOp26
 70
     1
102
RTVSPropertyOp27
 70
     1
102
RTVSPropertyOp28
 70
     1
102
RTVSPropertyOp29
 70
     1
102
RTVSPropertyOp30
 70
     1
102
RTVSPropertyOp31
 70
     1
102
RTVSPropertyOp32
 70
     1
102
RTVSPropertyOp33
 70
     1
102
RTVSPropertyOp34
 70
     1
102
RTVSPropertyOp35
 70
     1
102
RTVSPropertyOp36
 70
     1
102
RTVSPropertyOp37
 70
     1
102
RTVSPropertyOp38
 70
     1
102
RTVSPropertyOp39
 70
     1
102
RTVSPropertyOp40
 70
     1
102
RTVSPropertyOp41
 70
     1
102
RTVSPropertyOp42
 70
     1
102
RTVSPropertyOp43
 70
     1
102
RTVSPropertyOp44
 70
     1
102
RTVSPropertyOp45
 70
     1
102
RTVSPropertyOp46
 70
     1
102
RTVSPropertyOp47
 70
     1
102
RTVSPropertyOp48
 70
     1
102
RTVSPropertyOp49
 70
     1
102
RTVSPropertyOp50
 70
     1
102
RTVSPropertyOp51
 70
     0
102
RTVSPropertyOp52
 70
     0
102
RTVSPropertyOp53
 70
     1
102
RTVSPropertyOp54
 70
     1
102
RTVSPropertyOp55
 70
     1
102
RTVSPropertyOp56
 70
     1
102
RTVSPropertyOp57
 70
     1
102
RTVSPost2010Prop28
280
     0
102
RTVSPost2010PropOp28
 70
     1
102
RTVSPost2010Prop29
280
     1
102
RTVSPost2010PropOp29
 70
     1
102
RTVSPost2010Prop30
280
     1
102
RTVSPost2010PropOp30
 70
     1
102
RTVSPost2010Prop31
280
     0
102
RTVSPost2010PropOp31
 70
     1
102
RTVSPost2010Prop32
280
     0
102
RTVSPost2010PropOp32
 70
     1
102
RTVSPost2010Prop33
280
     0
102
RTVSPost2010PropOp33
 70
     1
102
RTVSPost2010Prop34
280
     0
102
RTVSPost2010PropOp34
 70
     1
102
RTVSPost2010Prop35
280
     0
102
RTVSPost2010PropOp35
 70
     1
102
RTVSPost2010Prop36
280
     0
102
RTVSPost2010PropOp36
 70
     1
102
RTVSPost2010Prop37
 90
       50
102
RTVSPost2010PropOp37
 70
     1
102
RTVSPost2010Prop38
140
0.0
102
RTVSPost2010PropOp38
 70
     1
102
RTVSPost2010Prop39
140
1.0
102
RTVSPost2010PropOp39
 70
     1
102
RTVSPost2010Prop40
 90
        0
102
RTVSPost2010PropOp40
 70
     1
102
RTVSPost2010Prop41ColorIndex
 90
       18
102
RTVSPost2010Prop41ColorRGB
 90
        0
102
RTVSPost2010PropOp41
 70
     1
102
RTVSPost2010Prop42
 90
       50
102
RTVSPost2010PropOp42
 70
     1
102
RTVSPost2010Prop43
 90
        3
102
RTVSPost2010PropOp43
 70
     1
102
RTVSPost2010Prop44ColorIndex
 90
        5
102
RTVSPost2010Prop44ColorRGB
 90
      255
102
RTVSPost2010PropOp44
 70
     1
102
RTVSPost2010Prop45
280
     0
102
RTVSPost2010PropOp45
 70
     1
102
RTVSPost2010Prop46
 90
       50
102
RTVSPost2010PropOp46
 70
     1
102
RTVSPost2010Prop47
 90
       50
102
RTVSPost2010PropOp47
 70
     1
102
RTVSPost2010Prop48
 90
       50
102
RTVSPost2010PropOp48
 70
     1
102
RTVSPost2010Prop49
280
     0
102
RTVSPost2010PropOp49
 70
     1
102
RTVSPost2010Prop50
 90
       50
102
RTVSPost2010PropOp50
 70
     1
102
RTVSPost2010Prop51ColorIndex
 90
      256
102
RTVSPost2010Prop51ColorRGB
 90
-16777216
102
RTVSPost2010PropOp51
 70
     0
102
RTVSPost2010Prop52
140
1.0
102
RTVSPost2010PropOp52
 70
     0
102
RTVSPost2010Prop53
 90
        2
102
RTVSPost2010PropOp53
 70
     1
102
RTVSPost2010Prop54
  1
strokes_ogs.tif
102
RTVSPost2010PropOp54
 70
     1
102
RTVSPost2010Prop55
280
     0
102
RTVSPost2010PropOp55
 70
     1
102
RTVSPost2010Prop56
140
1.0
102
RTVSPost2010PropOp56
 70
     1
102
RTVSPost2010Prop57
140
1.0
102
RTVSPost2010PropOp57
 70
     1
  0
XRECORD
  5
33F
102
{ACAD_REACTORS
330
33E
102
}
330
33E
100
AcDbXrecord
280
     1
102
RTVSPropertyOp0
 70
     1
102
RTVSPropertyOp1
 70
     1
102
RTVSPropertyOp2
 70
     1
102
RTVSPropertyOp3
 70
     1
102
RTVSPropertyOp4
 70
     1
102
RTVSPropertyOp5
 70
     1
102
RTVSPropertyOp6
 70
     1
102
RTVSPropertyOp7
 70
     1
102
RTVSPropertyOp8
 70
     1
102
RTVSPropertyOp9
 70
     1
102
RTVSPropertyOp10
 70
     1
102
RTVSPropertyOp11
 70
     1
102
RTVSPropertyOp12
 70
     1
102
RTVSPropertyOp13
 70
     1
102
RTVSPropertyOp14
 70
     1
102
RTVSPropertyOp15
 70
     1
102
RTVSPropertyOp16
 70
     1
102
RTVSPropertyOp17
 70
     1
102
RTVSPropertyOp18
 70
     1
102
RTVSPropertyOp19
 70
     1
102
RTVSPropertyOp20
 70
     1
102
RTVSPropertyOp21
 70
     1
102
RTVSPropertyOp22
 70
     1
102
RTVSPropertyOp23
 70
     1
102
RTVSPropertyOp24
 70
     1
102
RTVSPropertyOp25
 70
     1
102
RTVSPropertyOp26
 70
     1
102
RTVSPropertyOp27
 70
     1
102
RTVSPropertyOp28
 70
     1
102
RTVSPropertyOp29
 70
     1
102
RTVSPropertyOp30
 70
     1
102
RTVSPropertyOp31
 70
     1
102
RTVSPropertyOp32
 70
     1
102
RTVSPropertyOp33
 70
     1
102
RTVSPropertyOp34
 70
     1
102
RTVSPropertyOp35
 70
     1
102
RTVSPropertyOp36
 70
     1
102
RTVSPropertyOp37
 70
     1
102
RTVSPropertyOp38
 70
     1
102
RTVSPropertyOp39
 70
     1
102
RTVSPropertyOp40
 70
     1
102
RTVSPropertyOp41
 70
     1
102
RTVSPropertyOp42
 70
     1
102
RTVSPropertyOp43
 70
     1
102
RTVSPropertyOp44
 70
     1
102
RTVSPropertyOp45
 70
     1
102
RTVSPropertyOp46
 70
     1
102
RTVSPropertyOp47
 70
     1
102
RTVSPropertyOp48
 70
     1
102
RTVSPropertyOp49
 70
     1
102
RTVSPropertyOp50
 70
     1
102
RTVSPropertyOp51
 70
     0
102
RTVSPropertyOp52
 70
     0
102
RTVSPropertyOp53
 70
     1
102
RTVSPropertyOp54
 70
     1
102
RTVSPropertyOp55
 70
     1
102
RTVSPropertyOp56
 70
     1
102
RTVSPropertyOp57
 70
     1
102
RTVSPost2010Prop28
280
     0
102
RTVSPost2010PropOp28
 70
     1
102
RTVSPost2010Prop29
280
     1
102
RTVSPost2010PropOp29
 70
     1
102
RTVSPost2010Prop30
280
     1
102
RTVSPost2010PropOp30
 70
     1
102
RTVSPost2010Prop31
280
     0
102
RTVSPost2010PropOp31
 70
     1
102
RTVSPost2010Prop32
280
     0
102
RTVSPost2010PropOp32
 70
     1
102
RTVSPost2010Prop33
280
     0
102
RTVSPost2010PropOp33
 70
     1
102
RTVSPost2010Prop34
280
     0
102
RTVSPost2010PropOp34
 70
     1
102
RTVSPost2010Prop35
280
     0
102
RTVSPost2010PropOp35
 70
     1
102
RTVSPost2010Prop36
280
     0
102
RTVSPost2010PropOp36
 70
     1
102
RTVSPost2010Prop37
 90
       50
102
RTVSPost2010PropOp37
 70
     1
102
RTVSPost2010Prop38
140
0.0
102
RTVSPost2010PropOp38
 70
     1
102
RTVSPost2010Prop39
140
1.0
102
RTVSPost2010PropOp39
 70
     1
102
RTVSPost2010Prop40
 90
        0
102
RTVSPost2010PropOp40
 70
     1
102
RTVSPost2010Prop41ColorIndex
 90
       18
102
RTVSPost2010Prop41ColorRGB
 90
        0
102
RTVSPost2010PropOp41
 70
     1
102
RTVSPost2010Prop42
 90
       50
102
RTVSPost2010PropOp42
 70
     1
102
RTVSPost2010Prop43
 90
        3
102
RTVSPost2010PropOp43
 70
     1
102
RTVSPost2010Prop44ColorIndex
 90
        5
102
RTVSPost2010Prop44ColorRGB
 90
      255
102
RTVSPost2010PropOp44
 70
     1
102
RTVSPost2010Prop45
280
     0
102
RTVSPost2010PropOp45
 70
     1
102
RTVSPost2010Prop46
 90
       50
102
RTVSPost2010PropOp46
 70
     1
102
RTVSPost2010Prop47
 90
       50
102
RTVSPost2010PropOp47
 70
     1
102
RTVSPost2010Prop48
 90
       50
102
RTVSPost2010PropOp48
 70
     1
102
RTVSPost2010Prop49
280
     0
102
RTVSPost2010PropOp49
 70
     1
102
RTVSPost2010Prop50
 90
       50
102
RTVSPost2010PropOp50
 70
     1
102
RTVSPost2010Prop51ColorIndex
 90
      256
102
RTVSPost2010Prop51ColorRGB
 90
-16777216
102
RTVSPost2010PropOp51
 70
     0
102
RTVSPost2010Prop52
140
1.0
102
RTVSPost2010PropOp52
 70
     0
102
RTVSPost2010Prop53
 90
        2
102
RTVSPost2010PropOp53
 70
     1
102
RTVSPost2010Prop54
  1
strokes_ogs.tif
102
RTVSPost2010PropOp54
 70
     1
102
RTVSPost2010Prop55
280
     0
102
RTVSPost2010PropOp55
 70
     1
102
RTVSPost2010Prop56
140
1.0
102
RTVSPost2010PropOp56
 70
     1
102
RTVSPost2010Prop57
140
1.0
102
RTVSPost2010PropOp57
 70
     1
  0
XRECORD
  5
35F
102
{ACAD_REACTORS
330
35E
102
}
330
35E
100
AcDbXrecord
280
     1
102
RTVSPropertyOp0
 70
     1
102
RTVSPropertyOp1
 70
     1
102
RTVSPropertyOp2
 70
     1
102
RTVSPropertyOp3
 70
     1
102
RTVSPropertyOp4
 70
     1
102
RTVSPropertyOp5
 70
     1
102
RTVSPropertyOp6
 70
     1
102
RTVSPropertyOp7
 70
     1
102
RTVSPropertyOp8
 70
     1
102
RTVSPropertyOp9
 70
     1
102
RTVSPropertyOp10
 70
     1
102
RTVSPropertyOp11
 70
     1
102
RTVSPropertyOp12
 70
     1
102
RTVSPropertyOp13
 70
     1
102
RTVSPropertyOp14
 70
     1
102
RTVSPropertyOp15
 70
     1
102
RTVSPropertyOp16
 70
     1
102
RTVSPropertyOp17
 70
     1
102
RTVSPropertyOp18
 70
     1
102
RTVSPropertyOp19
 70
     1
102
RTVSPropertyOp20
 70
     1
102
RTVSPropertyOp21
 70
     1
102
RTVSPropertyOp22
 70
     1
102
RTVSPropertyOp23
 70
     1
102
RTVSPropertyOp24
 70
     1
102
RTVSPropertyOp25
 70
     1
102
RTVSPropertyOp26
 70
     1
102
RTVSPropertyOp27
 70
     1
102
RTVSPropertyOp28
 70
     1
102
RTVSPropertyOp29
 70
     1
102
RTVSPropertyOp30
 70
     1
102
RTVSPropertyOp31
 70
     1
102
RTVSPropertyOp32
 70
     1
102
RTVSPropertyOp33
 70
     1
102
RTVSPropertyOp34
 70
     1
102
RTVSPropertyOp35
 70
     1
102
RTVSPropertyOp36
 70
     1
102
RTVSPropertyOp37
 70
     1
102
RTVSPropertyOp38
 70
     1
102
RTVSPropertyOp39
 70
     1
102
RTVSPropertyOp40
 70
     1
102
RTVSPropertyOp41
 70
     1
102
RTVSPropertyOp42
 70
     1
102
RTVSPropertyOp43
 70
     1
102
RTVSPropertyOp44
 70
     1
102
RTVSPropertyOp45
 70
     1
102
RTVSPropertyOp46
 70
     1
102
RTVSPropertyOp47
 70
     1
102
RTVSPropertyOp48
 70
     1
102
RTVSPropertyOp49
 70
     1
102
RTVSPropertyOp50
 70
     1
102
RTVSPropertyOp51
 70
     0
102
RTVSPropertyOp52
 70
     0
102
RTVSPropertyOp53
 70
     1
102
RTVSPropertyOp54
 70
     1
102
RTVSPropertyOp55
 70
     1
102
RTVSPropertyOp56
 70
     1
102
RTVSPropertyOp57
 70
     1
102
RTVSPost2010Prop28
280
     0
102
RTVSPost2010PropOp28
 70
     1
102
RTVSPost2010Prop29
280
     1
102
RTVSPost2010PropOp29
 70
     1
102
RTVSPost2010Prop30
280
     1
102
RTVSPost2010PropOp30
 70
     1
102
RTVSPost2010Prop31
280
     0
102
RTVSPost2010PropOp31
 70
     1
102
RTVSPost2010Prop32
280
     0
102
RTVSPost2010PropOp32
 70
     1
102
RTVSPost2010Prop33
280
     0
102
RTVSPost2010PropOp33
 70
     1
102
RTVSPost2010Prop34
280
     0
102
RTVSPost2010PropOp34
 70
     1
102
RTVSPost2010Prop35
280
     0
102
RTVSPost2010PropOp35
 70
     1
102
RTVSPost2010Prop36
280
     0
102
RTVSPost2010PropOp36
 70
     1
102
RTVSPost2010Prop37
 90
       50
102
RTVSPost2010PropOp37
 70
     1
102
RTVSPost2010Prop38
140
0.0
102
RTVSPost2010PropOp38
 70
     1
102
RTVSPost2010Prop39
140
1.0
102
RTVSPost2010PropOp39
 70
     1
102
RTVSPost2010Prop40
 90
        0
102
RTVSPost2010PropOp40
 70
     1
102
RTVSPost2010Prop41ColorIndex
 90
       18
102
RTVSPost2010Prop41ColorRGB
 90
        0
102
RTVSPost2010PropOp41
 70
     1
102
RTVSPost2010Prop42
 90
       50
102
RTVSPost2010PropOp42
 70
     1
102
RTVSPost2010Prop43
 90
        3
102
RTVSPost2010PropOp43
 70
     1
102
RTVSPost2010Prop44ColorIndex
 90
        5
102
RTVSPost2010Prop44ColorRGB
 90
      255
102
RTVSPost2010PropOp44
 70
     1
102
RTVSPost2010Prop45
280
     0
102
RTVSPost2010PropOp45
 70
     1
102
RTVSPost2010Prop46
 90
       50
102
RTVSPost2010PropOp46
 70
     1
102
RTVSPost2010Prop47
 90
       50
102
RTVSPost2010PropOp47
 70
     1
102
RTVSPost2010Prop48
 90
       50
102
RTVSPost2010PropOp48
 70
     1
102
RTVSPost2010Prop49
280
     0
102
RTVSPost2010PropOp49
 70
     1
102
RTVSPost2010Prop50
 90
       50
102
RTVSPost2010PropOp50
 70
     1
102
RTVSPost2010Prop51ColorIndex
 90
      256
102
RTVSPost2010Prop51ColorRGB
 90
-16777216
102
RTVSPost2010PropOp51
 70
     0
102
RTVSPost2010Prop52
140
1.0
102
RTVSPost2010PropOp52
 70
     0
102
RTVSPost2010Prop53
 90
        2
102
RTVSPost2010PropOp53
 70
     1
102
RTVSPost2010Prop54
  1
strokes_ogs.tif
102
RTVSPost2010PropOp54
 70
     1
102
RTVSPost2010Prop55
280
     0
102
RTVSPost2010PropOp55
 70
     1
102
RTVSPost2010Prop56
140
1.0
102
RTVSPost2010PropOp56
 70
     1
102
RTVSPost2010Prop57
140
1.0
102
RTVSPost2010PropOp57
 70
     1
  0
ENDSEC
  0
EOF
