  0
SECTION
  2
HEADER
  9
$ACADVER
  1
AC1018
  9
$ACADMAINTVER
 70
     0
  9
$DWGCODEPAGE
  3
ANSI_1252
  9
$INSBASE
 10
0.0
 20
0.0
 30
0.0
  9
$EXTMIN
 10
-278.2568927145345
 20
-49.29362749516849
 30
0.0
  9
$EXTMAX
 10
141.7431072854639
 20
247.7063725048315
 30
0.0
  9
$LIMMIN
 10
0.0
 20
0.0
  9
$LIMMAX
 10
12.0
 20
9.0
  9
$ORTHOMODE
 70
     0
  9
$REGENMODE
 70
     1
  9
$FILLMODE
 70
     1
  9
$QTEXTMODE
 70
     0
  9
$MIRRTEXT
 70
     1
  9
$LTSCALE
 40
1.0
  9
$ATTMODE
 70
     1
  9
$TEXTSIZE
 40
0.2
  9
$TRACEWID
 40
0.05
  9
$TEXTSTYLE
  7
Standard
  9
$CLAYER
  8
0
  9
$CELTYPE
  6
ByLayer
  9
$CECOLOR
 62
   256
  9
$CELTSCALE
 40
1.0
  9
$DISPSILH
 70
     0
  9
$DIMSCALE
 40
1.0
  9
$DIMASZ
 40
0.18
  9
$DIMEXO
 40
0.0625
  9
$DIMDLI
 40
0.38
  9
$DIMRND
 40
0.0
  9
$DIMDLE
 40
0.0
  9
$DIMEXE
 40
0.18
  9
$DIMTP
 40
0.0
  9
$DIMTM
 40
0.0
  9
$DIMTXT
 40
0.18
  9
$DIMCEN
 40
0.09
  9
$DIMTSZ
 40
0.0
  9
$DIMTOL
 70
     0
  9
$DIMLIM
 70
     0
  9
$DIMTIH
 70
     1
  9
$DIMTOH
 70
     1
  9
$DIMSE1
 70
     0
  9
$DIMSE2
 70
     0
  9
$DIMTAD
 70
     0
  9
$DIMZIN
 70
     0
  9
$DIMBLK
  1

  9
$DIMASO
 70
     1
  9
$DIMSHO
 70
     1
  9
$DIMPOST
  1

  9
$DIMAPOST
  1

  9
$DIMALT
 70
     0
  9
$DIMALTD
 70
     2
  9
$DIMALTF
 40
25.4
  9
$DIMLFAC
 40
1.0
  9
$DIMTOFL
 70
     0
  9
$DIMTVP
 40
0.0
  9
$DIMTIX
 70
     0
  9
$DIMSOXD
 70
     0
  9
$DIMSAH
 70
     0
  9
$DIMBLK1
  1

  9
$DIMBLK2
  1

  9
$DIMSTYLE
  2
Standard
  9
$DIMCLRD
 70
     0
  9
$DIMCLRE
 70
     0
  9
$DIMCLRT
 70
     0
  9
$DIMTFAC
 40
1.0
  9
$DIMGAP
 40
0.09
  9
$DIMJUST
 70
     0
  9
$DIMSD1
 70
     0
  9
$DIMSD2
 70
     0
  9
$DIMTOLJ
 70
     1
  9
$DIMTZIN
 70
     0
  9
$DIMALTZ
 70
     0
  9
$DIMALTTZ
 70
     0
  9
$DIMUPT
 70
     0
  9
$DIMDEC
 70
     4
  9
$DIMTDEC
 70
     4
  9
$DIMALTU
 70
     2
  9
$DIMALTTD
 70
     2
  9
$DIMTXSTY
  7
Standard
  9
$DIMAUNIT
 70
     0
  9
$DIMADEC
 70
     0
  9
$DIMALTRND
 40
0.0
  9
$DIMAZIN
 70
     0
  9
$DIMDSEP
 70
    46
  9
$DIMATFIT
 70
     3
  9
$DIMFRAC
 70
     0
  9
$DIMLDRBLK
  1

  9
$DIMLUNIT
 70
     2
  9
$DIMLWD
 70
    -2
  9
$DIMLWE
 70
    -2
  9
$DIMTMOVE
 70
     0
  9
$LUNITS
 70
     2
  9
$LUPREC
 70
     4
  9
$SKETCHINC
 40
0.1
  9
$FILLETRAD
 40
0.5
  9
$AUNITS
 70
     0
  9
$AUPREC
 70
     0
  9
$MENU
  1
.
  9
$ELEVATION
 40
0.0
  9
$PELEVATION
 40
0.0
  9
$THICKNESS
 40
0.0
  9
$LIMCHECK
 70
     0
  9
$CHAMFERA
 40
0.0
  9
$CHAMFERB
 40
0.0
  9
$CHAMFERC
 40
0.0
  9
$CHAMFERD
 40
0.0
  9
$SKPOLY
 70
     0
  9
$TDCREATE
 40
2459306.465950752
  9
$TDUCREATE
 40
2459306.382617419
  9
$TDUPDATE
 40
2459306.465950926
  9
$TDUUPDATE
 40
2459306.382617593
  9
$TDINDWG
 40
0.0000000116
  9
$TDUSRTIMER
 40
0.0000000116
  9
$USRTIMER
 70
     1
  9
$ANGBASE
 50
0.0
  9
$ANGDIR
 70
     0
  9
$PDMODE
 70
     0
  9
$PDSIZE
 40
0.0
  9
$PLINEWID
 40
0.0
  9
$SPLFRAME
 70
     0
  9
$SPLINETYPE
 70
     6
  9
$SPLINESEGS
 70
     8
  9
$HANDSEED
  5
342
  9
$SURFTAB1
 70
     6
  9
$SURFTAB2
 70
     6
  9
$SURFTYPE
 70
     6
  9
$SURFU
 70
     6
  9
$SURFV
 70
     6
  9
$UCSBASE
  2

  9
$UCSNAME
  2

  9
$UCSORG
 10
0.0
 20
0.0
 30
0.0
  9
$UCSXDIR
 10
1.0
 20
0.0
 30
0.0
  9
$UCSYDIR
 10
0.0
 20
1.0
 30
0.0
  9
$UCSORTHOREF
  2

  9
$UCSORTHOVIEW
 70
     0
  9
$UCSORGTOP
 10
0.0
 20
0.0
 30
0.0
  9
$UCSORGBOTTOM
 10
0.0
 20
0.0
 30
0.0
  9
$UCSORGLEFT
 10
0.0
 20
0.0
 30
0.0
  9
$UCSORGRIGHT
 10
0.0
 20
0.0
 30
0.0
  9
$UCSORGFRONT
 10
0.0
 20
0.0
 30
0.0
  9
$UCSORGBACK
 10
0.0
 20
0.0
 30
0.0
  9
$PUCSBASE
  2

  9
$PUCSNAME
  2

  9
$PUCSORG
 10
0.0
 20
0.0
 30
0.0
  9
$PUCSXDIR
 10
1.0
 20
0.0
 30
0.0
  9
$PUCSYDIR
 10
0.0
 20
1.0
 30
0.0
  9
$PUCSORTHOREF
  2

  9
$PUCSORTHOVIEW
 70
     0
  9
$PUCSORGTOP
 10
0.0
 20
0.0
 30
0.0
  9
$PUCSORGBOTTOM
 10
0.0
 20
0.0
 30
0.0
  9
$PUCSORGLEFT
 10
0.0
 20
0.0
 30
0.0
  9
$PUCSORGRIGHT
 10
0.0
 20
0.0
 30
0.0
  9
$PUCSORGFRONT
 10
0.0
 20
0.0
 30
0.0
  9
$PUCSORGBACK
 10
0.0
 20
0.0
 30
0.0
  9
$USERI1
 70
     0
  9
$USERI2
 70
     0
  9
$USERI3
 70
     0
  9
$USERI4
 70
     0
  9
$USERI5
 70
     0
  9
$USERR1
 40
20.1
  9
$USERR2
 40
0.0
  9
$USERR3
 40
0.0
  9
$USERR4
 40
0.0
  9
$USERR5
 40
0.0
  9
$WORLDVIEW
 70
     1
  9
$SHADEDGE
 70
     3
  9
$SHADEDIF
 70
    70
  9
$TILEMODE
 70
     1
  9
$MAXACTVP
 70
    64
  9
$PINSBASE
 10
0.0
 20
0.0
 30
0.0
  9
$PLIMCHECK
 70
     0
  9
$PEXTMIN
 10
1.00000000000000E+20
 20
1.00000000000000E+20
 30
1.00000000000000E+20
  9
$PEXTMAX
 10
-1.00000000000000E+20
 20
-1.00000000000000E+20
 30
-1.00000000000000E+20
  9
$PLIMMIN
 10
0.0
 20
0.0
  9
$PLIMMAX
 10
12.0
 20
9.0
  9
$UNITMODE
 70
     0
  9
$VISRETAIN
 70
     1
  9
$PLINEGEN
 70
     0
  9
$PSLTSCALE
 70
     1
  9
$TREEDEPTH
 70
  3020
  9
$CMLSTYLE
  2
Standard
  9
$CMLJUST
 70
     0
  9
$CMLSCALE
 40
1.0
  9
$PROXYGRAPHICS
 70
     1
  9
$MEASUREMENT
 70
     1
  9
$CELWEIGHT
370
    -1
  9
$ENDCAPS
280
     0
  9
$JOINSTYLE
280
     0
  9
$LWDISPLAY
290
     0
  9
$INSUNITS
 70
     4
  9
$HYPERLINKBASE
  1

  9
$STYLESHEET
  1

  9
$XEDIT
290
     1
  9
$CEPSNTYPE
380
     0
  9
$PSTYLEMODE
290
     1
  9
$FINGERPRINTGUID
  2
{a2c12b4b-380d-4e12-943c-458cb4c09db2}
  9
$VERSIONGUID
  2
{FAEB1C32-E019-11D5-929B-00C0DF256EC4}
  9
$EXTNAMES
290
     1
  9
$PSVPSCALE
 40
0.0
  9
$OLESTARTUP
290
     0
  9
$SORTENTS
280
   127
  9
$INDEXCTL
280
     0
  9
$HIDETEXT
280
     1
  9
$XCLIPFRAME
290
     0
  9
$HALOGAP
280
     0
  9
$OBSCOLOR
 70
   257
  9
$OBSLTYPE
280
     0
  9
$INTERSECTIONDISPLAY
280
     0
  9
$INTERSECTIONCOLOR
 70
   257
  9
$DIMASSOC
280
     2
  9
$PROJECTNAME
  1

  0
ENDSEC
  0
SECTION
  2
CLASSES
  0
CLASS
  1
ACDBDICTIONARYWDFLT
  2
AcDbDictionaryWithDefault
  3
ObjectDBX Classes
 90
        0
 91
        3
280
     0
281
     0
  0
CLASS
  1
VISUALSTYLE
  2
AcDbVisualStyle
  3
ObjectDBX Classes
 90
     4095
 91
        3
280
     0
281
     0
  0
CLASS
  1
MATERIAL
  2
AcDbMaterial
  3
ObjectDBX Classes
 90
     1153
 91
        3
280
     0
281
     0
  0
CLASS
  1
SCALE
  2
AcDbScale
  3
ObjectDBX Classes
 90
     1153
 91
        3
280
     0
281
     0
  0
CLASS
  1
TABLESTYLE
  2
AcDbTableStyle
  3
ObjectDBX Classes
 90
     4095
 91
        3
280
     0
281
     0
  0
CLASS
  1
MLEADERSTYLE
  2
AcDbMLeaderStyle
  3
ACDB_MLEADERSTYLE_CLASS
 90
     4095
 91
        3
280
     0
281
     0
  0
CLASS
  1
SUN
  2
AcDbSun
  3
SCENEOE
 90
     1153
 91
        3
280
     0
281
     0
  0
CLASS
  1
DICTIONARYVAR
  2
AcDbDictionaryVar
  3
ObjectDBX Classes
 90
        0
 91
        3
280
     0
281
     0
  0
CLASS
  1
CELLSTYLEMAP
  2
AcDbCellStyleMap
  3
ObjectDBX Classes
 90
     1152
 91
        3
280
     0
281
     0
  0
ENDSEC
  0
SECTION
  2
TABLES
  0
TABLE
  2
VPORT
  5
8
102
{ACAD_XDICTIONARY
360
2FB
102
}
330
0
100
AcDbSymbolTable
 70
     1
  0
VPORT
  5
29
330
8
100
AcDbSymbolTableRecord
100
AcDbViewportTableRecord
  2
*Active
 70
     0
 10
0.0
 20
0.0
 11
1.0
 21
1.0
 12
-68.2568927145353
 22
99.2063725048315
 13
0.0
 23
0.0
 14
0.5
 24
0.5
 15
0.5
 25
0.5
 16
0.0
 26
0.0
 36
1.0
 17
0.0
 27
0.0
 37
0.0
 40
326.7
 41
1.60267857142857
 42
50.0
 43
0.0
 44
0.0
 50
0.0
 51
0.0
 71
     0
 72
   100
 73
     1
 74
     3
 75
     0
 76
     0
 77
     0
 78
     0
281
     0
 65
     1
110
0.0
120
0.0
130
0.0
111
1.0
121
0.0
131
0.0
112
0.0
122
1.0
132
0.0
 79
     0
146
0.0
  0
ENDTAB
  0
TABLE
  2
LTYPE
  5
5
330
0
100
AcDbSymbolTable
 70
     8
  0
LTYPE
  5
14
330
5
100
AcDbSymbolTableRecord
100
AcDbLinetypeTableRecord
  2
ByBlock
 70
     0
  3

 72
    65
 73
     0
 40
0.0
  0
LTYPE
  5
15
330
5
100
AcDbSymbolTableRecord
100
AcDbLinetypeTableRecord
  2
ByLayer
 70
     0
  3

 72
    65
 73
     0
 40
0.0
  0
LTYPE
  5
16
330
5
100
AcDbSymbolTableRecord
100
AcDbLinetypeTableRecord
  2
Continuous
 70
     0
  3
Solid line
 72
    65
 73
     0
 40
0.0
  0
LTYPE
  5
6E
330
5
100
AcDbSymbolTableRecord
100
AcDbLinetypeTableRecord
  2
DASHED
 70
     0
  3
Dashed
 72
    65
 73
     2
 40
15.0
 49
7.0
 74
     0
 49
-8.0
 74
     0
  0
LTYPE
  5
6F
330
5
100
AcDbSymbolTableRecord
100
AcDbLinetypeTableRecord
  2
DOTTED
 70
     0
  3
Dotted
 72
    65
 73
     2
 40
1.0
 49
0.0
 74
     0
 49
-1.0
 74
     0
  0
LTYPE
  5
70
330
5
100
AcDbSymbolTableRecord
100
AcDbLinetypeTableRecord
  2
DOT_CENTER
 70
     0
  3
Dot_Center
 72
    65
 73
     4
 40
14.0
 49
12.0
 74
     0
 49
-1.0
 74
     0
 49
0.0
 74
     0
 49
-1.0
 74
     0
  0
LTYPE
  5
71
330
5
100
AcDbSymbolTableRecord
100
AcDbLinetypeTableRecord
  2
LONG_DASHED
 70
     0
  3
Long_Dashed
 72
    65
 73
     2
 40
15.0
 49
10.0
 74
     0
 49
-5.0
 74
     0
  0
LTYPE
  5
72
330
5
100
AcDbSymbolTableRecord
100
AcDbLinetypeTableRecord
  2
DASH_CENTER
 70
     0
  3
Dash_Center
 72
    65
 73
     4
 40
14.0
 49
11.0
 74
     0
 49
-1.0
 74
     0
 49
1.0
 74
     0
 49
-1.0
 74
     0
  0
LTYPE
  5
73
330
5
100
AcDbSymbolTableRecord
100
AcDbLinetypeTableRecord
  2
PHANTOM
 70
     0
  3
Phantom
 72
    65
 73
     6
 40
13.0
 49
10.0
 74
     0
 49
-1.0
 74
     0
 49
0.0
 74
     0
 49
-1.0
 74
     0
 49
0.0
 74
     0
 49
-1.0
 74
     0
  0
LTYPE
  5
74
330
5
100
AcDbSymbolTableRecord
100
AcDbLinetypeTableRecord
  2
CENTER_DASH_DASH
 70
     0
  3
Center_Dash_Dash
 72
    65
 73
     6
 40
14.0
 49
9.0
 74
     0
 49
-1.0
 74
     0
 49
1.0
 74
     0
 49
-1.0
 74
     0
 49
1.0
 74
     0
 49
-1.0
 74
     0
  0
ENDTAB
  0
TABLE
  2
LAYER
  5
2
330
0
100
AcDbSymbolTable
 70
     2
  0
LAYER
  5
10
330
2
100
AcDbSymbolTableRecord
100
AcDbLayerTableRecord
  2
0
 70
     0
 62
     7
  6
Continuous
370
    -3
390
F
  0
LAYER
  5
75
330
2
100
AcDbSymbolTableRecord
100
AcDbLayerTableRecord
  2
1
 70
     0
 62
     7
  6
Continuous
370
    -3
390
F
  0
ENDTAB
  0
TABLE
  2
STYLE
  5
3
330
0
100
AcDbSymbolTable
 70
     5
  0
STYLE
  5
11
330
3
100
AcDbSymbolTableRecord
100
AcDbTextStyleTableRecord
  2
Standard
 70
     0
 40
0.0
 41
1.0
 50
0.0
 71
     0
 42
0.2
  3
txt
  4

  0
STYLE
  5
EC
330
3
100
AcDbSymbolTableRecord
100
AcDbTextStyleTableRecord
  2
CONVERTER_11
 70
     0
 40
0.0
 41
0.9
 50
0.0
 71
     0
 42
0.2
  3
txt.shx
  4

  0
STYLE
  5
2BB
330
3
100
AcDbSymbolTableRecord
100
AcDbTextStyleTableRecord
  2
CONVERTER_12
 70
     0
 40
0.0
 41
0.81
 50
0.0
 71
     0
 42
0.2
  3
txt.shx
  4

  0
STYLE
  5
2C3
330
3
100
AcDbSymbolTableRecord
100
AcDbTextStyleTableRecord
  2
CONVERTER_13
 70
     0
 40
0.0
 41
0.72
 50
0.0
 71
     0
 42
0.2
  3
txt.shx
  4

  0
STYLE
  5
2C6
330
3
100
AcDbSymbolTableRecord
100
AcDbTextStyleTableRecord
  2
CONVERTER_14
 70
     0
 40
0.0
 41
0.855
 50
0.0
 71
     0
 42
0.2
  3
txt.shx
  4

  0
ENDTAB
  0
TABLE
  2
VIEW
  5
6
330
0
100
AcDbSymbolTable
 70
     0
  0
ENDTAB
  0
TABLE
  2
UCS
  5
7
330
0
100
AcDbSymbolTable
 70
     0
  0
ENDTAB
  0
TABLE
  2
APPID
  5
9
330
0
100
AcDbSymbolTable
 70
     2
  0
APPID
  5
12
330
9
100
AcDbSymbolTableRecord
100
AcDbRegAppTableRecord
  2
ACAD
 70
     0
  0
APPID
  5
33A
330
9
100
AcDbSymbolTableRecord
100
AcDbRegAppTableRecord
  2
ACAD_MLEADERVER
 70
     0
  0
ENDTAB
  0
TABLE
  2
DIMSTYLE
  5
A
330
0
100
AcDbSymbolTable
 70
     4
100
AcDbDimStyleTable
  0
DIMSTYLE
105
27
330
A
100
AcDbSymbolTableRecord
100
AcDbDimStyleTableRecord
  2
Standard
 70
     0
178
     0
340
11
  0
DIMSTYLE
105
10A
102
{ACAD_REACTORS
330
10B
102
}
330
A
100
AcDbSymbolTableRecord
100
AcDbDimStyleTableRecord
  2
ME10_DIM_10
 70
     0
 41
1.75
 42
0.0
 44
0.75
 73
     0
 74
     0
 77
     1
 78
     8
140
1.75
147
0.75
172
     1
173
     1
174
     1
175
     1
176
     2
177
     2
178
     3
340
EC
  0
DIMSTYLE
105
1A1
102
{ACAD_REACTORS
330
1A2
102
}
330
A
100
AcDbSymbolTableRecord
100
AcDbDimStyleTableRecord
  2
ME10_DIM_11
 70
     0
 41
1.75
 42
0.0
 44
1.0
 73
     0
 74
     0
 77
     1
 78
     8
140
1.75
147
1.0
172
     1
173
     1
174
     1
175
     1
176
     2
177
     2
178
     3
340
EC
  0
DIMSTYLE
105
1AC
102
{ACAD_REACTORS
330
1AD
102
}
330
A
100
AcDbSymbolTableRecord
100
AcDbDimStyleTableRecord
  2
ME10_DIM_12
 70
     0
 41
1.75
 42
0.0
 44
1.0
 73
     0
 74
     0
 77
     1
 78
     8
140
1.75
147
1.0
172
     1
173
     1
174
     1
175
     1
176
     2
177
     2
178
     3
340
EC
  0
ENDTAB
  0
TABLE
  2
BLOCK_RECORD
  5
1
330
0
100
AcDbSymbolTable
 70
    20
  0
BLOCK_RECORD
  5
1F
330
1
100
AcDbSymbolTableRecord
100
AcDbBlockTableRecord
  2
*Model_Space
340
22
  0
BLOCK_RECORD
  5
1B
330
1
100
AcDbSymbolTableRecord
100
AcDbBlockTableRecord
  2
*Paper_Space
340
1E
  0
BLOCK_RECORD
  5
23
330
1
100
AcDbSymbolTableRecord
100
AcDbBlockTableRecord
  2
*Paper_Space0
340
26
  0
BLOCK_RECORD
  5
76
330
1
100
AcDbSymbolTableRecord
100
AcDbBlockTableRecord
  2
CES_SRG_BK_11-select__1
340
0
102
{BLKREFS
331
7A
102
}
  0
BLOCK_RECORD
  5
79
330
1
100
AcDbSymbolTableRecord
100
AcDbBlockTableRecord
  2
AllgSicht2
340
0
102
{BLKREFS
331
AC
102
}
  0
BLOCK_RECORD
  5
7D
330
1
100
AcDbSymbolTableRecord
100
AcDbBlockTableRecord
  2
CES_SRG_BK_11-select__2
340
0
102
{BLKREFS
331
81
102
}
  0
BLOCK_RECORD
  5
80
330
1
100
AcDbSymbolTableRecord
100
AcDbBlockTableRecord
  2
Drfsicht2
340
0
102
{BLKREFS
331
AD
102
}
  0
BLOCK_RECORD
  5
84
330
1
100
AcDbSymbolTableRecord
100
AcDbBlockTableRecord
  2
CES_SRG_BK_11-select__3
340
0
102
{BLKREFS
331
88
102
}
  0
BLOCK_RECORD
  5
87
330
1
100
AcDbSymbolTableRecord
100
AcDbBlockTableRecord
  2
Rckans2
340
0
102
{BLKREFS
331
AE
102
}
  0
BLOCK_RECORD
  5
8B
330
1
100
AcDbSymbolTableRecord
100
AcDbBlockTableRecord
  2
CES_SRG_BK_11-select__4
340
0
102
{BLKREFS
331
8F
102
}
  0
BLOCK_RECORD
  5
8E
330
1
100
AcDbSymbolTableRecord
100
AcDbBlockTableRecord
  2
SA_Links2
340
0
102
{BLKREFS
331
AF
102
}
  0
BLOCK_RECORD
  5
92
330
1
100
AcDbSymbolTableRecord
100
AcDbBlockTableRecord
  2
CES_SRG_BK_11-select__5
340
0
102
{BLKREFS
331
96
102
}
  0
BLOCK_RECORD
  5
95
330
1
100
AcDbSymbolTableRecord
100
AcDbBlockTableRecord
  2
SA_Rechts2
340
0
102
{BLKREFS
331
B0
102
}
  0
BLOCK_RECORD
  5
99
330
1
100
AcDbSymbolTableRecord
100
AcDbBlockTableRecord
  2
CES_SRG_BK_11-select__6
340
0
102
{BLKREFS
331
9D
102
}
  0
BLOCK_RECORD
  5
9C
330
1
100
AcDbSymbolTableRecord
100
AcDbBlockTableRecord
  2
Vordans2
340
0
102
{BLKREFS
331
B1
102
}
  0
BLOCK_RECORD
  5
A0
330
1
100
AcDbSymbolTableRecord
100
AcDbBlockTableRecord
  2
_rahmen
340
0
102
{BLKREFS
331
A7
102
}
  0
BLOCK_RECORD
  5
A3
330
1
100
AcDbSymbolTableRecord
100
AcDbBlockTableRecord
  2
_punkt
340
0
102
{BLKREFS
331
A8
102
}
  0
BLOCK_RECORD
  5
A6
330
1
100
AcDbSymbolTableRecord
100
AcDbBlockTableRecord
  2
A3I_CS
340
0
102
{BLKREFS
331
B2
102
}
  0
BLOCK_RECORD
  5
AB
330
1
100
AcDbSymbolTableRecord
100
AcDbBlockTableRecord
  2
1
340
0
102
{BLKREFS
331
B5
102
}
  0
BLOCK_RECORD
  5
101
330
1
100
AcDbSymbolTableRecord
100
AcDbBlockTableRecord
  2
*D17
340
0
  0
BLOCK_RECORD
  5
198
330
1
100
AcDbSymbolTableRecord
100
AcDbBlockTableRecord
  2
*D18
340
0
  0
BLOCK_RECORD
  5
1A3
330
1
100
AcDbSymbolTableRecord
100
AcDbBlockTableRecord
  2
*D19
340
0
  0
ENDTAB
  0
ENDSEC
  0
SECTION
  2
BLOCKS
  0
BLOCK
  5
20
330
1F
100
AcDbEntity
  8
0
100
AcDbBlockBegin
  2
*Model_Space
 70
     0
 10
0.0
 20
0.0
 30
0.0
  3
*Model_Space
  1

  0
ENDBLK
  5
21
330
1F
100
AcDbEntity
  8
0
100
AcDbBlockEnd
  0
BLOCK
  5
1C
330
1B
100
AcDbEntity
 67
     1
  8
0
100
AcDbBlockBegin
  2
*Paper_Space
 70
     0
 10
0.0
 20
0.0
 30
0.0
  3
*Paper_Space
  1

  0
ENDBLK
  5
1D
330
1B
100
AcDbEntity
 67
     1
  8
0
100
AcDbBlockEnd
  0
BLOCK
  5
24
330
23
100
AcDbEntity
  8
0
100
AcDbBlockBegin
  2
*Paper_Space0
 70
     0
 10
0.0
 20
0.0
 30
0.0
  3
*Paper_Space0
  1

  0
ENDBLK
  5
25
330
23
100
AcDbEntity
  8
0
100
AcDbBlockEnd
  0
BLOCK
  5
77
330
76
100
AcDbEntity
  8
0
100
AcDbBlockBegin
  2
CES_SRG_BK_11-select__1
 70
     0
 10
35.76378361410497
 20
-2.50162214549065
 30
0.0
  3
CES_SRG_BK_11-select__1
  1

  0
LINE
  5
B6
330
76
100
AcDbEntity
  8
0
  6
Continuous
 62
     7
100
AcDbLine
 10
39.22788522924822
 20
23.69805105479808
 30
0.0
 11
39.22788522924697
 21
18.50189863209182
 31
0.0
  0
LINE
  5
B7
330
76
100
AcDbEntity
  8
0
  6
Continuous
 62
     7
100
AcDbLine
 10
39.22788522924697
 20
18.50189863209182
 30
0.0
 11
43.35113919077232
 21
22.07274130902758
 31
0.0
  0
LINE
  5
B8
330
76
100
AcDbEntity
  8
0
  6
Continuous
 62
     7
100
AcDbLine
 10
51.18625000889726
 20
26.30814631898956
 30
0.0
 11
60.23621547844461
 21
23.69564631898744
 31
0.0
  0
LINE
  5
B9
330
76
100
AcDbEntity
  8
0
  6
Continuous
 62
     7
100
AcDbLine
 10
50.48621547844458
 20
15.25189863208918
 30
0.0
 11
60.23621547844461
 21
23.69564631898744
 31
0.0
  0
LINE
  5
BA
330
76
100
AcDbEntity
  8
0
  6
Continuous
 62
     7
100
AcDbLine
 10
60.23621547844032
 20
5.9421255414076
 30
0.0
 11
60.23621547844461
 21
23.69564631898744
 31
0.0
  0
LINE
  5
BB
330
76
100
AcDbEntity
  8
0
  6
Continuous
 62
     7
100
AcDbLine
 10
51.18625000889726
 20
26.30814631898956
 30
0.0
 11
51.00323730700508
 21
26.64965266993576
 31
0.0
  0
LINE
  5
BC
330
76
100
AcDbEntity
  8
0
  6
Continuous
 62
     7
100
AcDbLine
 10
51.00323730700508
 20
26.64965266993576
 30
0.0
 11
50.32022460511286
 21
26.55814631898976
 31
0.0
  0
LINE
  5
BD
330
76
100
AcDbEntity
  8
0
  6
Continuous
 62
     7
100
AcDbLine
 10
46.22343092374764
 20
24.23636413989408
 30
0.0
 11
49.08374784578065
 21
26.71347125724917
 31
0.0
  0
LINE
  5
BE
330
76
100
AcDbEntity
  8
0
  6
Continuous
 62
     7
100
AcDbLine
 10
45.60463126772257
 20
27.92446123927227
 30
0.0
 11
49.08374784578065
 21
26.71347125724917
 31
0.0
  0
LINE
  5
BF
330
76
100
AcDbEntity
  8
0
  6
Continuous
 62
     7
100
AcDbLine
 10
48.97788522924822
 20
32.14179874169635
 30
0.0
 11
45.51378361411044
 21
33.14179874169717
 31
0.0
  0
LINE
  5
C0
330
76
100
AcDbEntity
  8
0
  6
Continuous
 62
     7
100
AcDbLine
 10
50.48621547844458
 20
15.25189863208918
 30
0.0
 11
48.62426086030813
 21
15.7893986320896
 31
0.0
  0
LINE
  5
C1
330
76
100
AcDbEntity
  8
0
  6
Continuous
 62
     7
100
AcDbLine
 10
47.75823545652368
 20
16.03939863208981
 30
0.0
 11
39.22788522924697
 21
18.50189863209182
 31
0.0
  0
LINE
  5
C2
330
76
100
AcDbEntity
  8
0
  6
Continuous
 62
     7
100
AcDbLine
 10
46.97343092374712
 20
22.9627578712678
 30
0.0
 11
46.22343092374712
 21
22.31323881842948
 31
0.0
  0
LINE
  5
C3
330
76
100
AcDbEntity
  8
0
  6
Continuous
 62
     7
100
AcDbLine
 10
42.60113919077278
 20
23.15224883640807
 30
0.0
 11
46.22343092374712
 21
22.31323881842948
 31
0.0
  0
LINE
  5
C4
330
76
100
AcDbEntity
  8
0
  6
Continuous
 62
     7
100
AcDbLine
 10
46.22343092374712
 20
22.31323881842948
 30
0.0
 11
46.22343092374764
 21
24.23636413989408
 31
0.0
  0
LINE
  5
C5
330
76
100
AcDbEntity
  8
0
  6
Continuous
 62
     7
100
AcDbLine
 10
46.97343092374661
 20
21.10973796970083
 30
0.0
 11
46.97343092374712
 21
22.9627578712678
 31
0.0
  0
LINE
  5
C6
330
76
100
AcDbEntity
  8
0
  6
Continuous
 62
     7
100
AcDbLine
 10
43.35113919077232
 20
22.07274130902758
 30
0.0
 11
46.97343092374661
 21
21.10973796970083
 31
0.0
  0
LINE
  5
C7
330
76
100
AcDbEntity
  8
0
  6
Continuous
 62
     7
100
AcDbLine
 10
48.3337478457796
 20
22.28780698137926
 30
0.0
 11
46.97343092374661
 21
21.10973796970083
 31
0.0
  0
LINE
  5
C8
330
76
100
AcDbEntity
  8
0
  6
Continuous
 62
     7
100
AcDbLine
 10
43.35113919077257
 20
22.97853077064448
 30
0.0
 11
43.35113919077232
 21
22.07274130902758
 31
0.0
  0
LINE
  5
C9
330
76
100
AcDbEntity
  8
0
  6
Continuous
 62
     7
100
AcDbLine
 10
35.76378361411044
 20
24.69805105479892
 30
0.0
 11
39.22788522924822
 21
23.69805105479808
 31
0.0
  0
LINE
  5
CA
330
76
100
AcDbEntity
  8
0
  6
Continuous
 62
     7
100
AcDbLine
 10
42.6011391907734
 20
25.323360800569
 30
0.0
 11
42.60113919077278
 21
23.15224883640807
 31
0.0
  0
LINE
  5
CB
330
76
100
AcDbEntity
  8
0
  6
Continuous
 62
     7
100
AcDbLine
 10
48.81700298192266
 20
26.80631820578931
 30
0.0
 11
48.97788522924697
 21
26.94564631899008
 31
0.0
  0
LINE
  5
CC
330
76
100
AcDbEntity
  8
0
  6
Continuous
 62
     7
100
AcDbLine
 10
42.6011391907734
 20
25.323360800569
 30
0.0
 11
46.22343092374764
 21
24.23636413989408
 31
0.0
  0
LINE
  5
CD
330
76
100
AcDbEntity
  8
0
  6
Continuous
 62
     7
100
AcDbLine
 10
45.60463126772257
 20
27.92446123927227
 30
0.0
 11
42.6011391907734
 21
25.323360800569
 31
0.0
  0
LINE
  5
CE
330
76
100
AcDbEntity
  8
0
  6
Continuous
 62
     7
100
AcDbLine
 10
39.22788522924822
 20
23.69805105479808
 30
0.0
 11
48.97788522924822
 21
32.14179874169635
 31
0.0
  0
LINE
  5
CF
330
76
100
AcDbEntity
  8
0
  6
Continuous
 62
     7
100
AcDbLine
 10
35.76378361411044
 20
24.69805105479892
 30
0.0
 11
45.51378361411044
 21
33.14179874169717
 31
0.0
  0
LINE
  5
D0
330
76
100
AcDbEntity
  8
0
  6
Continuous
 62
     7
100
AcDbLine
 10
40.41817749754023
 20
-0.49884539575509
 30
0.0
 11
40.10706510498198
 21
0.4945804855497
 31
0.0
  0
LINE
  5
D1
330
76
100
AcDbEntity
  8
0
  6
Continuous
 62
     7
100
AcDbLine
 10
47.75823545651946
 20
-1.71412214549005
 30
0.0
 11
35.76378361410497
 21
1.74837785451281
 31
0.0
  0
LINE
  5
D2
330
76
100
AcDbEntity
  8
0
  6
Continuous
 62
     7
100
AcDbLine
 10
47.75823545651946
 20
-1.71412214549005
 30
0.0
 11
47.94124815841171
 21
-2.05562849643628
 31
0.0
  0
LINE
  5
D3
330
76
100
AcDbEntity
  8
0
  6
Continuous
 62
     7
100
AcDbLine
 10
47.94124815841171
 20
-2.05562849643628
 30
0.0
 11
48.62426086030392
 21
-1.96412214549025
 31
0.0
  0
LINE
  5
D4
330
76
100
AcDbEntity
  8
0
  6
Continuous
 62
     7
100
AcDbLine
 10
47.94124815841593
 20
15.69789228114358
 30
0.0
 11
47.94124815841171
 21
-2.05562849643628
 31
0.0
  0
LINE
  5
D5
330
76
100
AcDbEntity
  8
0
  6
Continuous
 62
     7
100
AcDbLine
 10
49.08374784578011
 20
24.79034593578457
 30
0.0
 11
48.33374784578011
 21
24.14082688294624
 31
0.0
  0
LINE
  5
D6
330
76
100
AcDbEntity
  8
0
  6
Continuous
 62
     7
100
AcDbLine
 10
49.08374784578065
 20
26.71347125724917
 30
0.0
 11
49.08374784578011
 21
24.79034593578457
 31
0.0
  0
LINE
  5
D7
330
76
100
AcDbEntity
  8
0
  6
Continuous
 62
     7
100
AcDbLine
 10
48.97788522924697
 20
26.94564631899008
 30
0.0
 11
50.32022460511286
 21
26.55814631898976
 31
0.0
  0
LINE
  5
D8
330
76
100
AcDbEntity
  8
0
  6
Continuous
 62
     7
100
AcDbLine
 10
48.62426086030813
 20
15.7893986320896
 30
0.0
 11
48.62426086030392
 21
-1.96412214549025
 31
0.0
  0
LINE
  5
D9
330
76
100
AcDbEntity
  8
0
  6
Continuous
 62
     7
100
AcDbLine
 10
50.48621547844458
 20
15.25189863208918
 30
0.0
 11
50.48621547844034
 21
-2.50162214549065
 31
0.0
  0
LINE
  5
DA
330
76
100
AcDbEntity
  8
0
  6
Continuous
 62
     7
100
AcDbLine
 10
48.33374784578011
 20
24.14082688294624
 30
0.0
 11
48.3337478457796
 21
22.28780698137926
 31
0.0
  0
LINE
  5
DB
330
76
100
AcDbEntity
  8
0
  6
Continuous
 62
     7
100
AcDbLine
 10
47.75823545652368
 20
16.03939863208981
 30
0.0
 11
47.94124815841593
 21
15.69789228114358
 31
0.0
  0
LINE
  5
DC
330
76
100
AcDbEntity
  8
0
  6
Continuous
 62
     7
100
AcDbLine
 10
48.97788522924822
 20
32.14179874169635
 30
0.0
 11
48.97788522924697
 21
26.94564631899008
 31
0.0
  0
LINE
  5
DD
330
76
100
AcDbEntity
  8
0
  6
Continuous
 62
     7
100
AcDbLine
 10
47.75823545652368
 20
16.03939863208981
 30
0.0
 11
47.75823545651946
 21
-1.71412214549005
 31
0.0
  0
LINE
  5
DE
330
76
100
AcDbEntity
  8
0
  6
Continuous
 62
     7
100
AcDbLine
 10
47.94124815841593
 20
15.69789228114358
 30
0.0
 11
48.62426086030813
 21
15.7893986320896
 31
0.0
  0
LINE
  5
DF
330
76
100
AcDbEntity
  8
0
  6
Continuous
 62
     7
100
AcDbLine
 10
50.48621547844034
 20
-2.50162214549065
 30
0.0
 11
48.62426086030392
 21
-1.96412214549025
 31
0.0
  0
LINE
  5
E0
330
76
100
AcDbEntity
  8
0
  6
Continuous
 62
     7
100
AcDbLine
 10
35.76378361410497
 20
1.74837785451281
 30
0.0
 11
35.76378361411044
 21
24.69805105479892
 31
0.0
  0
LINE
  5
E1
330
76
100
AcDbEntity
  8
0
  6
Continuous
 62
     7
100
AcDbLine
 10
60.23621547844032
 20
5.9421255414076
 30
0.0
 11
50.48621547844034
 21
-2.50162214549065
 31
0.0
  0
SPLINE
  5
E2
330
76
100
AcDbEntity
  8
0
  6
Continuous
 62
     7
100
AcDbSpline
210
0.0
220
0.0
230
1.0
 70
  1064
 71
     3
 72
    13
 73
     9
 74
     7
 42
0.000000001
 43
0.0000000001
 44
0.00000001
 40
0.0
 40
0.0
 40
0.0
 40
0.0
 40
0.7457446158564651
 40
1.415882897615359
 40
2.003599245454819
 40
2.509700337464957
 40
2.946465370273546
 40
3.341737997087219
 40
3.341737997087219
 40
3.341737997087219
 40
3.341737997087219
 10
58.11121547844246
 20
12.97858194715558
 30
0.0
 10
58.1048724477994
 20
13.227335066915
 30
0.0
 10
58.09282946120221
 20
13.69962179917744
 30
0.0
 10
57.98509163274645
 20
14.3606867597642
 30
0.0
 10
57.81269716335059
 20
14.92627091864509
 30
0.0
 10
57.57150296530828
 20
15.37760941459642
 30
0.0
 10
57.26799243086008
 20
15.72108001306353
 30
0.0
 10
57.00946063355836
 20
15.82965900433731
 30
0.0
 10
56.88664101806299
 20
15.88124116231592
 30
0.0
 11
58.11121547844246
 21
12.97858194715558
 31
0.0
 11
58.07440646085365
 21
13.7234175761686
 31
0.0
 11
57.96496496379672
 21
14.3845589190103
 31
0.0
 11
57.78582058630072
 21
14.94430689605719
 31
0.0
 11
57.54176921115636
 21
15.38767721925444
 31
0.0
 11
57.23934398822934
 21
15.70280050454233
 31
0.0
 11
56.88664101806299
 21
15.88124116231592
 31
0.0
  0
SPLINE
  5
E3
330
76
100
AcDbEntity
  8
0
  6
Continuous
 62
     7
100
AcDbSpline
210
0.0
220
0.0
230
1.0
 70
  1064
 71
     3
 72
    17
 73
    13
 74
    11
 42
0.000000001
 43
0.0000000001
 44
0.00000001
 40
0.0
 40
0.0
 40
0.0
 40
0.0
 40
0.5258803522791594
 40
1.14137047376395
 40
1.892778032939238
 40
2.787096055332324
 40
3.807507068012689
 40
4.923123280182081
 40
6.094688671295718
 40
7.278600879045259
 40
8.430343067661173
 40
9.50781373377035
 40
9.50781373377035
 40
9.50781373377035
 40
9.50781373377035
 10
53.8357899388219
 20
5.312783011180841
 30
0.0
 10
54.0128040825689
 20
5.291262977792556
 30
0.0
 10
54.39699549693267
 20
5.244555912608647
 30
0.0
 10
54.99115416061456
 20
5.524308514755181
 30
0.0
 10
55.57699441969556
 20
5.997884905210206
 30
0.0
 10
56.1523502539907
 20
6.683182197581649
 30
0.0
 10
56.69166857938376
 20
7.539261942618156
 30
0.0
 10
57.17244319229994
 20
8.533846188342542
 30
0.0
 10
57.57340293028378
 20
9.621148476755174
 30
0.0
 10
57.8725517214144
 20
10.75243512702054
 30
0.0
 10
58.07013994148996
 20
11.87603714412415
 30
0.0
 10
58.09783116659205
 20
12.61932177722929
 30
0.0
 10
58.11121547844246
 20
12.97858194715558
 30
0.0
 11
53.8357899388219
 21
5.312783011180841
 31
0.0
 11
54.3613329509241
 21
5.293949587708904
 31
0.0
 11
54.93329375963511
 21
5.521301560730639
 31
0.0
 11
55.52512022540159
 21
5.984286174469294
 31
0.0
 11
56.10933770011343
 21
6.661408516706667
 31
0.0
 11
56.65882466492569
 21
7.521235656089247
 31
0.0
 11
57.14807239398952
 21
8.523850333850802
 31
0.0
 11
57.5543678326429
 21
9.622708596813789
 31
0.0
 11
57.85885001113054
 21
10.76679719432745
 31
0.0
 11
58.04738305944885
 21
11.90300375974961
 31
0.0
 11
58.11121547844246
 21
12.97858194715558
 31
0.0
  0
SPLINE
  5
E4
330
76
100
AcDbEntity
  8
0
  6
Continuous
 62
     7
100
AcDbSpline
210
0.0
220
0.0
230
1.0
 70
  1064
 71
     3
 72
    21
 73
    17
 74
    15
 42
0.000000001
 43
0.0000000001
 44
0.00000001
 40
0.0
 40
0.0
 40
0.0
 40
0.0
 40
0.5475962288933051
 40
1.194783966793654
 40
1.990564648892272
 40
2.939582949372405
 40
4.020326570118168
 40
5.196090125232571
 40
6.421410999486977
 40
7.646731873741381
 40
8.822495428855788
 40
9.903239049601552
 40
10.85225735008168
 40
11.6480380321803
 40
12.29522577008065
 40
12.84282199897395
 40
12.84282199897395
 40
12.84282199897395
 40
12.84282199897395
 10
56.88664101806299
 20
15.88124116231592
 30
0.0
 10
56.70197499865536
 20
15.90229727822548
 30
0.0
 10
56.29905769131841
 20
15.94823897672459
 30
0.0
 10
55.68007558833382
 20
15.6387306487181
 30
0.0
 10
55.07230790825059
 20
15.12420868346288
 30
0.0
 10
54.47868415497845
 20
14.38447680770726
 30
0.0
 10
53.92808236989848
 20
13.46676848667658
 30
0.0
 10
53.4452348592185
 20
12.40872427271018
 30
0.0
 10
53.05431049099862
 20
11.26295819449672
 30
0.0
 10
52.7744695530135
 20
10.08512509210898
 30
0.0
 10
52.61916011274402
 20
8.932528781581805
 30
0.0
 10
52.59597164210233
 20
7.862569351018444
 30
0.0
 10
52.7040369124747
 20
6.920277301918365
 30
0.0
 10
52.94409320010406
 20
6.16100963867082
 30
0.0
 10
53.30289831817601
 20
5.569238453020505
 30
0.0
 10
53.66831245699535
 20
5.393381967886838
 30
0.0
 10
53.8357899388219
 20
5.312783011180841
 30
0.0
 11
56.88664101806299
 21
15.88124116231592
 31
0.0
 11
56.33923663796021
 21
15.89573539544171
 31
0.0
 11
55.74279039463094
 21
15.64453060840728
 31
0.0
 11
55.12721031304241
 21
15.14022112578972
 31
0.0
 11
54.5233641793385
 21
14.40809710753187
 31
0.0
 11
53.96153158101712
 21
13.48486858715328
 31
0.0
 11
53.46988468940546
 21
12.41683147839982
 31
0.0
 11
53.0730774108734
 21
11.25754065137594
 31
0.0
 11
52.79100645789111
 21
10.06512830013103
 31
0.0
 11
52.63781704718355
 21
8.899386932522876
 31
0.0
 11
52.62118964444198
 21
7.818771228928359
 31
0.0
 11
52.74195914309439
 21
6.877468695470378
 31
0.0
 11
52.99406855162822
 21
6.122678832505029
 31
0.0
 11
53.36487707929179
 21
5.592251644266547
 31
0.0
 11
53.8357899388219
 21
5.312783011180841
 31
0.0
  0
SPLINE
  5
E5
330
76
100
AcDbEntity
  8
0
  6
Continuous
 62
     7
100
AcDbSpline
210
0.0
220
0.0
230
1.0
 70
  1064
 71
     3
 72
    11
 73
     7
 74
     5
 42
0.000000001
 43
0.0000000001
 44
0.00000001
 40
0.0
 40
0.0
 40
0.0
 40
0.0
 40
0.3766024589415602
 40
0.6915266369969177
 40
0.9435619909942029
 40
1.151652787050258
 40
1.151652787050258
 40
1.151652787050258
 40
1.151652787050258
 10
42.17788522924748
 20
23.22173708271718
 30
0.0
 10
42.17341258161439
 20
23.34779555750772
 30
0.0
 10
42.16519978917252
 20
23.57926720785228
 30
0.0
 10
42.08446543687242
 20
23.88288583749943
 30
0.0
 10
41.95785524832322
 20
24.12201759309363
 30
0.0
 10
41.81806856543833
 20
24.19256777907157
 30
0.0
 10
41.75485041566185
 20
24.22447390249985
 30
0.0
 11
42.17788522924748
 21
23.22173708271718
 31
0.0
 11
42.14935435698281
 21
23.59725724916107
 31
0.0
 11
42.06547609807724
 21
23.90080572543287
 31
0.0
 11
41.93128794845856
 21
24.11414902724345
 31
0.0
 11
41.75485041566185
 21
24.22447390249985
 31
0.0
  0
SPLINE
  5
E6
330
76
100
AcDbEntity
  8
0
  6
Continuous
 62
     7
100
AcDbSpline
210
0.0
220
0.0
230
1.0
 70
  1064
 71
     3
 72
    15
 73
    11
 74
     9
 42
0.000000001
 43
0.0000000001
 44
0.00000001
 40
0.0
 40
0.0
 40
0.0
 40
0.0
 40
0.229852911974301
 40
0.5160607998329527
 40
0.8791221737910078
 40
1.313105872362612
 40
1.798319181630529
 40
2.307922958140884
 40
2.812142237556473
 40
3.281830617084542
 40
3.281830617084542
 40
3.281830617084542
 40
3.281830617084542
 10
40.70092004283312
 20
20.57355199574409
 30
0.0
 10
40.7791075256661
 20
20.56787253835827
 30
0.0
 10
40.95465237319425
 20
20.55512115282189
 30
0.0
 10
41.21274435904284
 20
20.72463703918946
 30
0.0
 10
41.46064780731276
 20
20.98452826684927
 30
0.0
 10
41.69377239215859
 20
21.346857002682
 30
0.0
 10
41.89560468391135
 20
21.77912101281004
 30
0.0
 10
42.0507251429044
 20
22.25505996404914
 30
0.0
 10
42.15543313771148
 20
22.74036114685198
 30
0.0
 10
42.17058021790838
 20
23.06511661731895
 30
0.0
 10
42.17788522924748
 20
23.22173708271718
 30
0.0
 11
40.70092004283312
 21
20.57355199574409
 31
0.0
 11
40.93071341347407
 21
20.57878384999823
 31
0.0
 11
41.18201534370949
 21
20.71575937567749
 31
0.0
 11
41.43663727913373
 21
20.97456669867706
 31
0.0
 11
41.67615025850252
 21
21.33647191131684
 31
0.0
 11
41.88321837332352
 21
21.77528252098334
 31
0.0
 11
42.04285509917887
 21
22.25923719335167
 31
0.0
 11
42.14350532081283
 21
22.7533086608458
 31
0.0
 11
42.17788522924748
 21
23.22173708271718
 31
0.0
  0
SPLINE
  5
E7
330
76
100
AcDbEntity
  8
0
  6
Continuous
 62
     7
100
AcDbSpline
210
0.0
220
0.0
230
1.0
 70
  1064
 71
     3
 72
    19
 73
    15
 74
    13
 42
0.000000001
 43
0.0000000001
 44
0.00000001
 40
0.0
 40
0.0
 40
0.0
 40
0.0
 40
0.2225611229058423
 40
0.4971528408223506
 40
0.8438580853671696
 40
1.258513177648497
 40
1.724069573307515
 40
2.216624054942629
 40
2.709178536577737
 40
3.174734932236749
 40
3.589390024518071
 40
3.93609526906289
 40
4.2106869869794
 40
4.433248109885242
 40
4.433248109885242
 40
4.433248109885242
 40
4.433248109885242
 10
41.75485041566185
 20
24.22447390249985
 30
0.0
 10
41.67924669188489
 20
24.23052882112754
 30
0.0
 10
41.51036452184226
 20
24.24405416387305
 30
0.0
 10
41.25989108058032
 20
24.08653996169281
 30
0.0
 10
41.01839200919589
 20
23.84194548617237
 30
0.0
 10
40.78943601037422
 20
23.49917859850822
 30
0.0
 10
40.58867738987652
 20
23.08724812688136
 30
0.0
 10
40.42868959502337
 20
22.62972085639939
 30
0.0
 10
40.32022988964564
 20
22.15731870775265
 30
0.0
 10
40.27056887436087
 20
21.70177011460399
 30
0.0
 10
40.28162713041393
 20
21.28971707960913
 30
0.0
 10
40.35561863424613
 20
20.95404831982458
 30
0.0
 10
40.48361228420926
 20
20.68728007914515
 30
0.0
 10
40.63372076065298
 20
20.60872075408164
 30
0.0
 10
40.70092004283312
 20
20.57355199574409
 30
0.0
 11
41.75485041566185
 21
24.22447390249985
 31
0.0
 11
41.53231149167371
 21
24.22133035063465
 31
0.0
 11
41.289026577782
 21
24.09399981794995
 31
0.0
 11
41.04157495053809
 21
23.8511578582621
 31
0.0
 11
40.80681996493815
 21
23.50935537071624
 31
0.0
 11
40.60076009812428
 21
23.09188431019248
 31
0.0
 11
40.4374374496268
 21
22.62719556829432
 31
0.0
 11
40.32798291814818
 21
22.14695644046536
 31
0.0
 11
40.27985477852378
 21
21.68389441733836
 31
0.0
 11
40.29633383569806
 21
21.2695669086798
 31
0.0
 11
40.3762961010923
 21
20.93220869946634
 31
0.0
 11
40.51429319685759
 21
20.69481153132524
 31
0.0
 11
40.70092004283312
 21
20.57355199574409
 31
0.0
  0
SPLINE
  5
E8
330
76
100
AcDbEntity
  8
0
  6
Continuous
 62
     7
100
AcDbSpline
210
0.0
220
0.0
230
1.0
 70
  1064
 71
     3
 72
    11
 73
     7
 74
     5
 42
0.000000001
 43
0.0000000001
 44
0.00000001
 40
0.0
 40
0.0
 40
0.0
 40
0.0
 40
0.3766024589415572
 40
0.6915266369969182
 40
0.9435619909941988
 40
1.151652787050252
 40
1.151652787050252
 40
1.151652787050252
 40
1.151652787050252
 10
47.92788522924749
 20
28.20138315447696
 30
0.0
 10
47.92341258161439
 20
28.32744162926749
 30
0.0
 10
47.91519978917251
 20
28.55891327961207
 30
0.0
 10
47.83446543687241
 20
28.8625319092592
 30
0.0
 10
47.70785524832325
 20
29.10166366485341
 30
0.0
 10
47.56806856543835
 20
29.17221385083135
 30
0.0
 10
47.50485041566186
 20
29.20411997425963
 30
0.0
 11
47.92788522924749
 21
28.20138315447696
 31
0.0
 11
47.89935435698281
 21
28.57690332092085
 31
0.0
 11
47.81547609807724
 21
28.88045179719266
 31
0.0
 11
47.68128794845857
 21
29.09379509900323
 31
0.0
 11
47.50485041566186
 21
29.20411997425963
 31
0.0
  0
SPLINE
  5
E9
330
76
100
AcDbEntity
  8
0
  6
Continuous
 62
     7
100
AcDbSpline
210
0.0
220
0.0
230
1.0
 70
  1064
 71
     3
 72
    13
 73
     9
 74
     7
 42
0.000000001
 43
0.0000000001
 44
0.00000001
 40
0.0
 40
0.0
 40
0.0
 40
0.0
 40
0.2139874779891313
 40
0.475133736167662
 40
0.802894369158621
 40
1.194942496085157
 40
1.637084715653253
 40
2.108651799284261
 40
2.108651799284261
 40
2.108651799284261
 40
2.108651799284261
 10
47.50485041566186
 20
29.20411997425963
 30
0.0
 10
47.43228249422399
 20
29.21056684536233
 30
0.0
 10
47.27115406022706
 20
29.22488134016146
 30
0.0
 10
47.02984838992018
 20
29.08105784327564
 30
0.0
 10
46.7959809898456
 20
28.8541990561038
 30
0.0
 10
46.57302882676213
 20
28.53407874426764
 30
0.0
 10
46.37141521942153
 20
28.1471142530378
 30
0.0
 10
46.27075890708976
 20
27.85924926170135
 30
0.0
 10
46.21880999551584
 20
27.71068160014774
 30
0.0
 11
47.50485041566186
 21
29.20411997425963
 31
0.0
 11
47.29086452708713
 21
29.20329344985172
 31
0.0
 11
47.05706463714833
 21
29.08695350550177
 31
0.0
 11
46.8182520150677
 21
28.86246394374731
 31
0.0
 11
46.58954540557428
 21
28.54403809621105
 31
0.0
 11
46.38542402054381
 21
28.15183380926472
 31
0.0
 11
46.21880999551584
 21
27.71068160014774
 31
0.0
  0
SPLINE
  5
EA
330
76
100
AcDbEntity
  8
0
  6
Continuous
 62
     7
100
AcDbSpline
210
0.0
220
0.0
230
1.0
 70
  1064
 71
     3
 72
     9
 73
     5
 74
     3
 42
0.000000001
 43
0.0000000001
 44
0.00000001
 40
0.0
 40
0.0
 40
0.0
 40
0.0
 40
0.5415267026532466
 40
1.045780652216668
 40
1.045780652216668
 40
1.045780652216668
 40
1.045780652216668
 10
47.77376209484575
 20
27.16944322179329
 30
0.0
 10
47.81828010818909
 20
27.34493168277751
 30
0.0
 10
47.90425198394558
 20
27.68382990919922
 30
0.0
 10
47.92019691875918
 20
28.03301383624316
 30
0.0
 10
47.92788522924749
 20
28.20138315447696
 30
0.0
 11
47.77376209484575
 21
27.16944322179329
 31
0.0
 11
47.88853923268938
 21
27.6986665952831
 31
0.0
 11
47.92788522924749
 21
28.20138315447696
 31
0.0
  0
SPLINE
  5
EB
330
76
100
AcDbEntity
  8
0
  6
Continuous
 62
     7
100
AcDbSpline
210
0.0
220
0.0
230
1.0
 70
  1064
 71
     3
 72
    17
 73
    13
 74
    11
 42
0.000000001
 43
0.0000000001
 44
0.00000001
 40
0.0
 40
0.0
 40
0.0
 40
0.0
 40
0.261145811319048
 40
0.5806503526263975
 40
0.9629386800357951
 40
1.395689917896215
 40
1.857467596866865
 40
2.322564778821822
 40
2.764819070973975
 40
3.16133473337275
 40
3.496942824021354
 40
3.770946873225379
 40
3.770946873225379
 40
3.770946873225379
 40
3.770946873225379
 10
40.41817749754023
 20
-0.4988453957550938
 30
0.0
 10
40.4580898125492
 20
-0.5774965276559403
 30
0.0
 10
40.54683373721359
 20
-0.7523750904153385
 30
0.0
 10
40.819648925424
 20
-0.9403468416950354
 30
0.0
 10
41.1661758399566
 20
-1.090709792298142
 30
0.0
 10
41.5835430754467
 20
-1.187188686957768
 30
0.0
 10
42.03629023784402
 20
-1.225755150753885
 30
0.0
 10
42.49328945066895
 20
-1.202444449620776
 30
0.0
 10
42.92261905524224
 20
-1.120211321153236
 30
0.0
 10
43.28846225462171
 20
-0.9816729673831635
 30
0.0
 10
43.58392217586093
 20
-0.8050314563916553
 30
0.0
 10
43.69680909643331
 20
-0.6334553801728919
 30
0.0
 10
43.74754868494355
 20
-0.5563366018867733
 30
0.0
 11
40.41817749754023
 21
-0.4988453957550938
 31
0.0
 11
40.55323925030984
 21
-0.7223525733858778
 31
0.0
 11
40.80507855558966
 21
-0.9189743392126137
 31
0.0
 11
41.15460868982021
 21
-1.073806664758571
 31
0.0
 11
41.57533465674176
 21
-1.175114576133973
 31
0.0
 11
42.03536761941868
 21
-1.215218142439559
 31
0.0
 11
42.49983793968033
 21
-1.191078794545519
 31
0.0
 11
42.93353980237875
 21
-1.104525046557841
 31
0.0
 11
43.30360068328633
 21
-0.9621185374958942
 31
0.0
 11
43.58196953863667
 21
-0.774652346382733
 31
0.0
 11
43.74754868494355
 21
-0.5563366018867733
 31
0.0
  0
ENDBLK
  5
78
330
76
100
AcDbEntity
  8
0
100
AcDbBlockEnd
  0
BLOCK
  5
7B
330
79
100
AcDbEntity
  8
0
100
AcDbBlockBegin
  2
AllgSicht2
 70
     0
 10
48.00000000000989
 20
14.02105102099556
 30
0.0
  3
AllgSicht2
  1

  0
INSERT
  5
7A
330
79
100
AcDbEntity
  8
0
100
AcDbBlockReference
  2
CES_SRG_BK_11-select__1
 10
35.76378361410497
 20
-2.50162214549065
 30
0.0
  0
MTEXT
  5
ED
330
79
100
AcDbEntity
  8
1
 62
     6
100
AcDbMText
 10
47.99999954627482
 20
-5.00162214549066
 30
0.0
 40
2.5
 41
0.0
 71
     2
 72
     1
  1
 
  7
CONVERTER_11
 73
     1
 44
1.32052821128451
  0
ENDBLK
  5
7C
330
79
100
AcDbEntity
  8
0
100
AcDbBlockEnd
  0
BLOCK
  5
7E
330
7D
100
AcDbEntity
  8
0
100
AcDbBlockBegin
  2
CES_SRG_BK_11-select__2
 70
     0
 10
-60.37499999996264
 20
28.24999861560173
 30
0.0
  3
CES_SRG_BK_11-select__2
  1

  0
LINE
  5
EE
330
7D
100
AcDbEntity
  8
0
  6
Continuous
 62
     7
100
AcDbLine
 10
-60.37499999996264
 20
28.74999861560173
 30
0.0
 11
-56.37499999996405
 21
28.74999861560172
 31
0.0
  0
LINE
  5
EF
330
7D
100
AcDbEntity
  8
0
  6
Continuous
 62
     7
100
AcDbLine
 10
-56.37499999996298
 20
35.49650653865272
 30
0.0
 11
-56.37499999996298
 21
41.50349069255106
 31
0.0
  0
LINE
  5
F0
330
7D
100
AcDbEntity
  8
0
  6
Continuous
 62
     7
100
AcDbLine
 10
-56.37499999996405
 20
48.24999861560172
 30
0.0
 11
-54.82499999996406
 21
48.24999861560172
 31
0.0
  0
LINE
  5
F1
330
7D
100
AcDbEntity
  8
0
  6
Continuous
 62
     7
100
AcDbLine
 10
-56.37499999996298
 20
41.50349069255106
 30
0.0
 11
-56.37499999996405
 21
48.24999861560172
 31
0.0
  0
LINE
  5
F2
330
7D
100
AcDbEntity
  8
0
  6
Continuous
 62
     7
100
AcDbLine
 10
-56.37499999996405
 20
28.74999861560172
 30
0.0
 11
-56.37499999996298
 21
35.49650653865272
 31
0.0
  0
LINE
  5
F3
330
7D
100
AcDbEntity
  8
0
  6
Continuous
 62
     7
100
AcDbLine
 10
-60.37499999996264
 20
28.74999861560173
 30
0.0
 11
-60.37499999996264
 21
48.24999861560173
 31
0.0
  0
LINE
  5
F4
330
7D
100
AcDbEntity
  8
0
  6
Continuous
 62
     7
100
AcDbLine
 10
-46.52499999996408
 20
28.74999861560172
 30
0.0
 11
-46.02499999996403
 21
28.24999861560173
 31
0.0
  0
LINE
  5
F5
330
7D
100
AcDbEntity
  8
0
  6
Continuous
 62
     7
100
AcDbLine
 10
-43.37499999996416
 20
28.74999861560173
 30
0.0
 11
-43.37499999996417
 21
48.24999861560173
 31
0.0
  0
LINE
  5
F6
330
7D
100
AcDbEntity
  8
0
  6
Continuous
 62
     7
100
AcDbLine
 10
-43.37499999996416
 20
28.74999861560173
 30
0.0
 11
-45.52499999996406
 21
28.74999861560172
 31
0.0
  0
LINE
  5
F7
330
7D
100
AcDbEntity
  8
0
  6
Continuous
 62
     7
100
AcDbLine
 10
-46.02499999996403
 20
28.24999861560173
 30
0.0
 11
-45.52499999996406
 21
28.74999861560172
 31
0.0
  0
LINE
  5
F8
330
7D
100
AcDbEntity
  8
0
  6
Continuous
 62
     7
100
AcDbLine
 10
-53.82499999996409
 20
48.24999861560173
 30
0.0
 11
-54.32499999996404
 21
48.74999861560169
 31
0.0
  0
LINE
  5
F9
330
7D
100
AcDbEntity
  8
0
  6
Continuous
 62
     7
100
AcDbLine
 10
-46.52499999996408
 20
28.74999861560172
 30
0.0
 11
-56.37499999996405
 21
28.74999861560172
 31
0.0
  0
LINE
  5
FA
330
7D
100
AcDbEntity
  8
0
  6
Continuous
 62
     7
100
AcDbLine
 10
-52.27499999996302
 20
35.63968169356888
 30
0.0
 11
-52.27499999996302
 21
41.36031553763489
 31
0.0
  0
LINE
  5
FB
330
7D
100
AcDbEntity
  8
0
  6
Continuous
 62
     7
100
AcDbLine
 10
-56.37499999996298
 20
41.50349069255106
 30
0.0
 11
-52.27499999996302
 21
41.36031553763489
 31
0.0
  0
LINE
  5
FC
330
7D
100
AcDbEntity
  8
0
  6
Continuous
 62
     7
100
AcDbLine
 10
-54.32499999996404
 20
48.74999861560169
 30
0.0
 11
-54.82499999996406
 21
48.24999861560172
 31
0.0
  0
LINE
  5
FD
330
7D
100
AcDbEntity
  8
0
  6
Continuous
 62
     7
100
AcDbLine
 10
-53.82499999996409
 20
48.24999861560173
 30
0.0
 11
-43.37499999996417
 21
48.24999861560173
 31
0.0
  0
LINE
  5
FE
330
7D
100
AcDbEntity
  8
0
  6
Continuous
 62
     7
100
AcDbLine
 10
-56.37499999996405
 20
48.24999861560172
 30
0.0
 11
-60.37499999996264
 21
48.24999861560173
 31
0.0
  0
LINE
  5
FF
330
7D
100
AcDbEntity
  8
0
  6
Continuous
 62
     7
100
AcDbLine
 10
-56.37499999996298
 20
35.49650653865272
 30
0.0
 11
-52.27499999996302
 21
35.63968169356888
 31
0.0
  0
ENDBLK
  5
7F
330
7D
100
AcDbEntity
  8
0
100
AcDbBlockEnd
  0
BLOCK
  5
82
330
80
100
AcDbEntity
  8
0
100
AcDbBlockBegin
  2
Drfsicht2
 70
     0
 10
-51.8749999999966
 20
38.49999952312396
 30
0.0
  3
Drfsicht2
  1

  0
INSERT
  5
81
330
80
100
AcDbEntity
  8
0
100
AcDbBlockReference
  2
CES_SRG_BK_11-select__2
 10
-60.37499999996264
 20
28.24999861560173
 30
0.0
  0
MTEXT
  5
100
330
80
100
AcDbEntity
  8
1
 62
     6
100
AcDbMText
 10
-51.87499999996339
 20
25.74999861560173
 30
0.0
 40
2.5
 41
0.0
 71
     2
 72
     1
  1
 
  7
CONVERTER_11
 73
     1
 44
1.32052821128451
  0
DIMENSION
  5
10B
330
80
100
AcDbEntity
  8
1
100
AcDbDimension
  2
*D17
 10
-66.87253695117784
 20
48.74999861560169
 30
0.0
 11
-68.58503695117784
 21
38.1109844701877
 31
0.0
 70
    32
  1
<>
 71
     5
 42
-1.0
 53
90.0
  3
ME10_DIM_10
100
AcDbAlignedDimension
 13
-46.02499999996403
 23
28.24999861560173
 33
0.0
 14
-54.32499999996404
 24
48.74999861560169
 34
0.0
 50
90.0
100
AcDbRotatedDimension
  0
ENDBLK
  5
83
330
80
100
AcDbEntity
  8
0
100
AcDbBlockEnd
  0
BLOCK
  5
85
330
84
100
AcDbEntity
  8
0
100
AcDbBlockBegin
  2
CES_SRG_BK_11-select__3
 70
     0
 10
18.37499999996415
 20
71.74999949698045
 30
0.0
  3
CES_SRG_BK_11-select__3
  1

  0
LINE
  5
10C
330
84
100
AcDbEntity
  8
0
  6
Continuous
 62
     7
100
AcDbLine
 10
28.82499999996892
 20
74.74999949698045
 30
0.0
 11
29.32499999996891
 21
74.74999949698058
 31
0.0
  0
LINE
  5
10D
330
84
100
AcDbEntity
  8
0
  6
Continuous
 62
     7
100
AcDbLine
 10
32.87499999996901
 20
74.74999949698145
 30
0.0
 11
29.82499999996888
 21
74.74999949698068
 31
0.0
  0
LINE
  5
10E
330
84
100
AcDbEntity
  8
0
  6
Continuous
 62
     7
100
AcDbLine
 10
35.37499999996894
 20
74.74999949698201
 30
0.0
 11
32.87499999996901
 21
74.74999949698145
 31
0.0
  0
LINE
  5
10F
330
84
100
AcDbEntity
  8
0
  6
Continuous
 62
     7
100
AcDbLine
 10
29.32499999996891
 20
74.74999949698058
 30
0.0
 11
29.82499999996888
 21
74.74999949698068
 31
0.0
  0
LINE
  5
110
330
84
100
AcDbEntity
  8
0
  6
Continuous
 62
     7
100
AcDbLine
 10
28.82499999996892
 20
74.74999949698045
 30
0.0
 11
27.87499999996902
 21
74.74999949698025
 31
0.0
  0
LINE
  5
111
330
84
100
AcDbEntity
  8
0
  6
Continuous
 62
     7
100
AcDbLine
 10
27.87499999996902
 20
74.74999949698025
 30
0.0
 11
18.37499999996904
 21
74.74999949697798
 31
0.0
  0
LINE
  5
112
330
84
100
AcDbEntity
  8
0
  6
Continuous
 62
     7
100
AcDbLine
 10
28.82499999996892
 20
74.74999949698045
 30
0.0
 11
28.82499999996408
 21
95.24999949698052
 31
0.0
  0
LINE
  5
113
330
84
100
AcDbEntity
  8
0
  6
Continuous
 62
     7
100
AcDbLine
 10
18.37499999996904
 20
74.74999949697798
 30
0.0
 11
18.37499999996415
 21
95.24999949697805
 31
0.0
  0
LINE
  5
114
330
84
100
AcDbEntity
  8
0
  6
Continuous
 62
     7
100
AcDbLine
 10
35.37499999996263
 20
101.2499994969821
 30
0.0
 11
35.37499999996894
 21
74.74999949698201
 31
0.0
  0
LINE
  5
115
330
84
100
AcDbEntity
  8
0
  6
Continuous
 62
     7
100
AcDbLine
 10
28.6788475772631
 20
71.74999949698045
 30
0.0
 11
27.87499999996902
 21
74.74999949698025
 31
0.0
  0
LINE
  5
116
330
84
100
AcDbEntity
  8
0
  6
Continuous
 62
     7
100
AcDbLine
 10
30.37499999996973
 20
71.74999949698085
 30
0.0
 11
32.07115242267636
 21
71.74999949698127
 31
0.0
  0
LINE
  5
117
330
84
100
AcDbEntity
  8
0
  6
Continuous
 62
     7
100
AcDbLine
 10
28.6788475772631
 20
71.74999949698045
 30
0.0
 11
30.37499999996973
 21
71.74999949698085
 31
0.0
  0
LINE
  5
118
330
84
100
AcDbEntity
  8
0
  6
Continuous
 62
     7
100
AcDbLine
 10
28.82499999996408
 20
95.24999949698052
 30
0.0
 11
27.27499999996402
 21
95.24999949698017
 31
0.0
  0
LINE
  5
119
330
84
100
AcDbEntity
  8
0
  6
Continuous
 62
     7
100
AcDbLine
 10
27.27499999996353
 20
97.3896825749471
 30
0.0
 11
27.27499999996402
 21
95.24999949698017
 31
0.0
  0
LINE
  5
11A
330
84
100
AcDbEntity
  8
0
  6
Continuous
 62
     7
100
AcDbLine
 10
28.82499999996408
 20
95.24999949698052
 30
0.0
 11
29.32499999996401
 21
95.24999949698064
 31
0.0
  0
LINE
  5
11B
330
84
100
AcDbEntity
  8
0
  6
Continuous
 62
     7
100
AcDbLine
 10
31.37499999996403
 20
95.24999949698113
 30
0.0
 11
29.82499999996404
 21
95.24999949698076
 31
0.0
  0
LINE
  5
11C
330
84
100
AcDbEntity
  8
0
  6
Continuous
 62
     7
100
AcDbLine
 10
27.27499999996299
 20
99.61031641901309
 30
0.0
 11
27.27499999996353
 21
97.3896825749471
 31
0.0
  0
LINE
  5
11D
330
84
100
AcDbEntity
  8
0
  6
Continuous
 62
     7
100
AcDbLine
 10
31.37499999996356
 20
97.24650742003189
 30
0.0
 11
27.27499999996353
 21
97.3896825749471
 31
0.0
  0
LINE
  5
11E
330
84
100
AcDbEntity
  8
0
  6
Continuous
 62
     7
100
AcDbLine
 10
27.27499999996402
 20
95.24999949698017
 30
0.0
 11
18.37499999996415
 21
95.24999949697805
 31
0.0
  0
LINE
  5
11F
330
84
100
AcDbEntity
  8
0
  6
Continuous
 62
     7
100
AcDbLine
 10
31.37499999996261
 20
101.2499994969811
 30
0.0
 11
31.37499999996297
 21
99.75349157393025
 31
0.0
  0
LINE
  5
120
330
84
100
AcDbEntity
  8
0
  6
Continuous
 62
     7
100
AcDbLine
 10
31.37499999996356
 20
97.24650742003189
 30
0.0
 11
31.37499999996403
 21
95.24999949698113
 31
0.0
  0
LINE
  5
121
330
84
100
AcDbEntity
  8
0
  6
Continuous
 62
     7
100
AcDbLine
 10
31.37499999996297
 20
99.75349157393025
 30
0.0
 11
31.37499999996356
 21
97.24650742003189
 31
0.0
  0
LINE
  5
122
330
84
100
AcDbEntity
  8
0
  6
Continuous
 62
     7
100
AcDbLine
 10
31.37499999996261
 20
101.2499994969811
 30
0.0
 11
35.37499999996263
 21
101.2499994969821
 31
0.0
  0
LINE
  5
123
330
84
100
AcDbEntity
  8
0
  6
Continuous
 62
     7
100
AcDbLine
 10
31.37499999996297
 20
99.75349157393025
 30
0.0
 11
27.27499999996299
 21
99.61031641901309
 31
0.0
  0
LINE
  5
124
330
84
100
AcDbEntity
  8
0
  6
Continuous
 62
     7
100
AcDbLine
 10
29.32499999996401
 20
95.24999949698064
 30
0.0
 11
29.82499999996404
 21
95.24999949698076
 31
0.0
  0
LINE
  5
125
330
84
100
AcDbEntity
  8
0
  6
Continuous
 62
     7
100
AcDbLine
 10
29.32499999996891
 20
74.74999949698058
 30
0.0
 11
29.32499999996401
 21
95.24999949698064
 31
0.0
  0
LINE
  5
126
330
84
100
AcDbEntity
  8
0
  6
Continuous
 62
     7
100
AcDbLine
 10
29.82499999996404
 20
95.24999949698076
 30
0.0
 11
29.82499999996888
 21
74.74999949698068
 31
0.0
  0
LINE
  5
127
330
84
100
AcDbEntity
  8
0
  6
Continuous
 62
     7
100
AcDbLine
 10
32.07115242267636
 20
71.74999949698127
 30
0.0
 11
32.87499999996901
 21
74.74999949698145
 31
0.0
  0
LINE
  5
128
330
84
100
AcDbEntity
  8
1
  6
DOT_CENTER
 62
     2
100
AcDbLine
 10
30.37499999996973
 20
71.74999949698085
 30
0.0
 11
30.37499999996901
 21
74.74999949698085
 31
0.0
  0
ENDBLK
  5
86
330
84
100
AcDbEntity
  8
0
100
AcDbBlockEnd
  0
BLOCK
  5
89
330
87
100
AcDbEntity
  8
0
100
AcDbBlockBegin
  2
Rckans2
 70
     0
 10
26.87499999999658
 20
86.49999999995906
 30
0.0
  3
Rckans2
  1

  0
INSERT
  5
88
330
87
100
AcDbEntity
  8
0
100
AcDbBlockReference
  2
CES_SRG_BK_11-select__3
 10
18.37499999996415
 20
71.74999949698045
 30
0.0
  0
MTEXT
  5
129
330
87
100
AcDbEntity
  8
1
 62
     6
100
AcDbMText
 10
26.87499999996651
 20
69.24999949698045
 30
0.0
 40
2.5
 41
0.0
 71
     2
 72
     1
  1
 
  7
CONVERTER_11
 73
     1
 44
1.32052821128451
  0
ENDBLK
  5
8A
330
87
100
AcDbEntity
  8
0
100
AcDbBlockEnd
  0
BLOCK
  5
8C
330
8B
100
AcDbEntity
  8
0
100
AcDbBlockBegin
  2
CES_SRG_BK_11-select__4
 70
     0
 10
-22.47608567848307
 20
71.74999949694
 30
0.0
  3
CES_SRG_BK_11-select__4
  1

  0
LINE
  5
12A
330
8B
100
AcDbEntity
  8
0
  6
Continuous
 62
     7
100
AcDbLine
 10
-8.17223810118973
 20
71.74999949694
 30
0.0
 11
-4.77993325577646
 21
71.74999949694
 31
0.0
  0
LINE
  5
12B
330
8B
100
AcDbEntity
  8
0
  6
Continuous
 62
     7
100
AcDbLine
 10
-22.47608567848305
 20
74.74999949693972
 30
0.0
 11
-21.97608567848308
 21
74.74999949694116
 31
0.0
  0
LINE
  5
12C
330
8B
100
AcDbEntity
  8
0
  6
Continuous
 62
     7
100
AcDbLine
 10
-4.77993325577646
 20
71.74999949694
 30
0.0
 11
-3.97608567848309
 21
74.74999949693999
 31
0.0
  0
LINE
  5
12D
330
8B
100
AcDbEntity
  8
0
  6
Continuous
 62
     7
100
AcDbLine
 10
-8.17223810118973
 20
71.74999949694
 30
0.0
 11
-8.97608567848309
 21
74.74999949693999
 31
0.0
  0
LINE
  5
12E
330
8B
100
AcDbEntity
  8
0
  6
Continuous
 62
     7
100
AcDbLine
 10
-22.47608567848307
 20
95.24999949693978
 30
0.0
 11
-21.9760856784831
 21
95.2499994969399
 31
0.0
  0
LINE
  5
12F
330
8B
100
AcDbEntity
  8
0
  6
Continuous
 62
     7
100
AcDbLine
 10
-2.4760856784831
 20
95.24999949693796
 30
0.0
 11
-1.97608567848312
 21
95.24999949693785
 31
0.0
  0
LINE
  5
130
330
8B
100
AcDbEntity
  8
0
  6
Continuous
 62
     7
100
AcDbLine
 10
-22.47608567848305
 20
74.74999949693972
 30
0.0
 11
-22.47608567848307
 21
95.24999949693978
 31
0.0
  0
LINE
  5
131
330
8B
100
AcDbEntity
  8
0
  6
Continuous
 62
     7
100
AcDbLine
 10
-2.47608567848309
 20
74.74999949694117
 30
0.0
 11
-1.97608567848307
 21
74.74999949693778
 31
0.0
  0
LINE
  5
132
330
8B
100
AcDbEntity
  8
0
  6
Continuous
 62
     7
100
AcDbLine
 10
-1.97608567848312
 20
95.24999949693785
 30
0.0
 11
-1.97608567848307
 21
74.74999949693778
 31
0.0
  0
LINE
  5
133
330
8B
100
AcDbEntity
  8
0
  6
Continuous
 62
     7
100
AcDbLine
 10
-3.97608567848309
 20
74.74999949693999
 30
0.0
 11
-8.97608567848309
 21
74.74999949693999
 31
0.0
  0
LINE
  5
134
330
8B
100
AcDbEntity
  8
0
  6
Continuous
 62
     7
100
AcDbLine
 10
-2.47608567848309
 20
74.74999949694117
 30
0.0
 11
-3.97608567848309
 21
74.74999949693999
 31
0.0
  0
LINE
  5
135
330
8B
100
AcDbEntity
  8
0
  6
Continuous
 62
     7
100
AcDbLine
 10
-8.97608567848309
 20
74.74999949693999
 30
0.0
 11
-21.97608567848308
 21
74.74999949694116
 31
0.0
  0
LINE
  5
136
330
8B
100
AcDbEntity
  8
0
  6
Continuous
 62
     7
100
AcDbLine
 10
-21.97608567848312
 20
101.2499994969412
 30
0.0
 11
-21.9760856784831
 21
95.2499994969399
 31
0.0
  0
LINE
  5
137
330
8B
100
AcDbEntity
  8
0
  6
Continuous
 62
     7
100
AcDbLine
 10
-21.9760856784831
 20
95.2499994969399
 30
0.0
 11
-21.97608567848308
 21
74.74999949694116
 31
0.0
  0
LINE
  5
138
330
8B
100
AcDbEntity
  8
0
  6
Continuous
 62
     7
100
AcDbLine
 10
-2.47608567848312
 20
101.2499994969412
 30
0.0
 11
-21.97608567848312
 21
101.2499994969412
 31
0.0
  0
LINE
  5
139
330
8B
100
AcDbEntity
  8
0
  6
Continuous
 62
     7
100
AcDbLine
 10
-2.4760856784831
 20
95.24999949693796
 30
0.0
 11
-2.47608567848312
 21
101.2499994969412
 31
0.0
  0
LINE
  5
13A
330
8B
100
AcDbEntity
  8
0
  6
Continuous
 62
     7
100
AcDbLine
 10
-2.47608567848309
 20
74.74999949694117
 30
0.0
 11
-2.4760856784831
 21
95.24999949693796
 31
0.0
  0
LINE
  5
13B
330
8B
100
AcDbEntity
  8
1
  6
DOT_CENTER
 62
     2
100
AcDbLine
 10
-6.4760856784831
 20
71.74999949694
 30
0.0
 11
-6.47608567848309
 21
74.74999949694
 31
0.0
  0
LINE
  5
13C
330
8B
100
AcDbEntity
  8
1
  6
DOT_CENTER
 62
     2
100
AcDbLine
 10
-15.8860856784831
 20
97.74999949694076
 30
0.0
 11
-20.0660856784831
 21
97.74999949694076
 31
0.0
  0
LINE
  5
13D
330
8B
100
AcDbEntity
  8
1
  6
DOT_CENTER
 62
     2
100
AcDbLine
 10
-17.9760856784831
 20
99.83999949694075
 30
0.0
 11
-17.9760856784831
 21
95.65999949694077
 31
0.0
  0
LINE
  5
13E
330
8B
100
AcDbEntity
  8
1
  6
DOT_CENTER
 62
     2
100
AcDbLine
 10
-6.17608567848308
 20
84.9999994969412
 30
0.0
 11
-18.27608567848308
 21
84.9999994969412
 31
0.0
  0
LINE
  5
13F
330
8B
100
AcDbEntity
  8
1
  6
DOT_CENTER
 62
     2
100
AcDbLine
 10
-12.22608567848308
 20
91.0499994969412
 30
0.0
 11
-12.22608567848308
 21
78.9499994969412
 31
0.0
  0
LINE
  5
140
330
8B
100
AcDbEntity
  8
1
  6
DOT_CENTER
 62
     2
100
AcDbLine
 10
-4.3860856784831
 20
97.74999949694163
 30
0.0
 11
-8.5660856784831
 21
97.74999949694163
 31
0.0
  0
LINE
  5
141
330
8B
100
AcDbEntity
  8
1
  6
DOT_CENTER
 62
     2
100
AcDbLine
 10
-6.4760856784831
 20
99.83999949694163
 30
0.0
 11
-6.4760856784831
 21
95.65999949694162
 31
0.0
  0
CIRCLE
  5
142
330
8B
100
AcDbEntity
  8
0
  6
Continuous
 62
     7
100
AcDbCircle
 10
-6.4760856784831
 20
97.74999949694163
 30
0.0
 40
1.899999999999999
  0
CIRCLE
  5
143
330
8B
100
AcDbEntity
  8
0
  6
Continuous
 62
     7
100
AcDbCircle
 10
-17.9760856784831
 20
97.74999949694076
 30
0.0
 40
1.900000000000002
  0
CIRCLE
  5
144
330
8B
100
AcDbEntity
  8
0
  6
Continuous
 62
     7
100
AcDbCircle
 10
-12.22608567848308
 20
84.9999994969412
 30
0.0
 40
5.5
  0
ENDBLK
  5
8D
330
8B
100
AcDbEntity
  8
0
100
AcDbBlockEnd
  0
BLOCK
  5
90
330
8E
100
AcDbEntity
  8
0
100
AcDbBlockBegin
  2
SA_Links2
 70
     0
 10
-12.22608658600535
 20
86.4999999999182
 30
0.0
  3
SA_Links2
  1

  0
INSERT
  5
8F
330
8E
100
AcDbEntity
  8
0
100
AcDbBlockReference
  2
CES_SRG_BK_11-select__4
 10
-22.47608567848307
 20
71.74999949694
 30
0.0
  0
MTEXT
  5
145
330
8E
100
AcDbEntity
  8
1
 62
     6
100
AcDbMText
 10
-12.22608567848308
 20
57.85276271345701
 30
0.0
 40
2.5
 41
0.0
 71
     2
 72
     1
  1
 
  7
CONVERTER_11
 73
     1
 44
1.32052821128451
  0
ENDBLK
  5
91
330
8E
100
AcDbEntity
  8
0
100
AcDbBlockEnd
  0
BLOCK
  5
93
330
92
100
AcDbEntity
  8
0
100
AcDbBlockBegin
  2
CES_SRG_BK_11-select__5
 70
     0
 10
-108.0000009075153
 20
71.74999949698075
 30
0.0
  3
CES_SRG_BK_11-select__5
  1

  0
LINE
  5
146
330
92
100
AcDbEntity
  8
0
  6
Continuous
 62
     7
100
AcDbLine
 10
-96.38968398548228
 20
97.38968257494696
 30
0.0
 11
-96.38968398548243
 21
95.24999949698004
 31
0.0
  0
LINE
  5
147
330
92
100
AcDbEntity
  8
0
  6
Continuous
 62
     7
100
AcDbLine
 10
-99.11031782954844
 20
95.24999949698004
 30
0.0
 11
-99.1103178295483
 21
97.38968257494697
 31
0.0
  0
LINE
  5
148
330
92
100
AcDbEntity
  8
0
  6
Continuous
 62
     7
100
AcDbLine
 10
-96.38968398548243
 20
95.24999949698004
 30
0.0
 11
-96.24650883056626
 21
95.249999496981
 31
0.0
  0
LINE
  5
149
330
92
100
AcDbEntity
  8
0
  6
Continuous
 62
     7
100
AcDbLine
 10
-99.2534929844646
 20
95.24999949698102
 30
0.0
 11
-99.11031782954844
 21
95.24999949698004
 31
0.0
  0
LINE
  5
14A
330
92
100
AcDbEntity
  8
0
  6
Continuous
 62
     7
100
AcDbLine
 10
-99.25349298446446
 20
97.24650742003178
 30
0.0
 11
-99.2534929844646
 21
95.24999949698102
 31
0.0
  0
LINE
  5
14B
330
92
100
AcDbEntity
  8
0
  6
Continuous
 62
     7
100
AcDbLine
 10
-99.11031782954844
 20
95.24999949698004
 30
0.0
 11
-96.38968398548243
 21
95.24999949698004
 31
0.0
  0
LINE
  5
14C
330
92
100
AcDbEntity
  8
0
  6
Continuous
 62
     7
100
AcDbLine
 10
-99.1103178295483
 20
97.38968257494697
 30
0.0
 11
-99.25349298446446
 21
97.24650742003178
 31
0.0
  0
LINE
  5
14D
330
92
100
AcDbEntity
  8
0
  6
Continuous
 62
     7
100
AcDbLine
 10
-100.7534929844645
 20
97.24650742003179
 30
0.0
 11
-100.6103178295483
 21
97.38968257494697
 31
0.0
  0
LINE
  5
14E
330
92
100
AcDbEntity
  8
0
  6
Continuous
 62
     7
100
AcDbLine
 10
-108.0000009075153
 20
95.24999949697857
 30
0.0
 11
-107.5000009075153
 21
95.24999949698102
 31
0.0
  0
LINE
  5
14F
330
92
100
AcDbEntity
  8
0
  6
Continuous
 62
     7
100
AcDbLine
 10
-107.5000009075153
 20
101.249999496981
 30
0.0
 11
-107.5000009075153
 21
95.24999949698102
 31
0.0
  0
LINE
  5
150
330
92
100
AcDbEntity
  8
0
  6
Continuous
 62
     7
100
AcDbLine
 10
-100.7534929844643
 20
99.75349157393012
 30
0.0
 11
-100.7534929844645
 21
97.24650742003179
 31
0.0
  0
LINE
  5
151
330
92
100
AcDbEntity
  8
0
  6
Continuous
 62
     7
100
AcDbLine
 10
-107.5000009075153
 20
95.24999949698102
 30
0.0
 11
-107.5000009075153
 21
74.74999949697788
 31
0.0
  0
LINE
  5
152
330
92
100
AcDbEntity
  8
0
  6
Continuous
 62
     7
100
AcDbLine
 10
-108.0000009075153
 20
95.24999949697857
 30
0.0
 11
-108.0000009075153
 21
74.7499994969785
 31
0.0
  0
LINE
  5
153
330
92
100
AcDbEntity
  8
0
  6
Continuous
 62
     7
100
AcDbLine
 10
-88.00000090751527
 20
95.2499994969804
 30
0.0
 11
-87.50000090751531
 21
95.24999949698051
 31
0.0
  0
LINE
  5
154
330
92
100
AcDbEntity
  8
0
  6
Continuous
 62
     7
100
AcDbLine
 10
-88.00000090751527
 20
101.249999496981
 30
0.0
 11
-88.00000090751527
 21
95.2499994969804
 31
0.0
  0
LINE
  5
155
330
92
100
AcDbEntity
  8
0
  6
Continuous
 62
     7
100
AcDbLine
 10
-94.74650883056594
 20
99.75349157393012
 30
0.0
 11
-100.7534929844643
 21
99.75349157393012
 31
0.0
  0
LINE
  5
156
330
92
100
AcDbEntity
  8
0
  6
Continuous
 62
     7
100
AcDbLine
 10
-107.5000009075153
 20
101.249999496981
 30
0.0
 11
-88.00000090751527
 21
101.249999496981
 31
0.0
  0
LINE
  5
157
330
92
100
AcDbEntity
  8
0
  6
Continuous
 62
     7
100
AcDbLine
 10
-105.1961533302219
 20
71.74999949698075
 30
0.0
 11
-101.8038484848087
 21
71.74999949698075
 31
0.0
  0
LINE
  5
158
330
92
100
AcDbEntity
  8
0
  6
Continuous
 62
     7
100
AcDbLine
 10
-101.0000009075153
 20
74.74999949698072
 30
0.0
 11
-106.0000009075153
 21
74.74999949698073
 31
0.0
  0
LINE
  5
159
330
92
100
AcDbEntity
  8
0
  6
Continuous
 62
     7
100
AcDbLine
 10
-106.0000009075153
 20
74.74999949698073
 30
0.0
 11
-107.5000009075153
 21
74.74999949697788
 31
0.0
  0
LINE
  5
15A
330
92
100
AcDbEntity
  8
0
  6
Continuous
 62
     7
100
AcDbLine
 10
-88.0000009075153
 20
74.74999949698034
 30
0.0
 11
-87.50000090751534
 21
74.74999949698045
 31
0.0
  0
LINE
  5
15B
330
92
100
AcDbEntity
  8
0
  6
Continuous
 62
     7
100
AcDbLine
 10
-88.0000009075153
 20
74.74999949698034
 30
0.0
 11
-101.0000009075153
 21
74.74999949698072
 31
0.0
  0
LINE
  5
15C
330
92
100
AcDbEntity
  8
0
  6
Continuous
 62
     7
100
AcDbLine
 10
-105.1961533302219
 20
71.74999949698075
 30
0.0
 11
-106.0000009075153
 21
74.74999949698073
 31
0.0
  0
LINE
  5
15D
330
92
100
AcDbEntity
  8
0
  6
Continuous
 62
     7
100
AcDbLine
 10
-101.8038484848087
 20
71.74999949698075
 30
0.0
 11
-101.0000009075153
 21
74.74999949698072
 31
0.0
  0
LINE
  5
15E
330
92
100
AcDbEntity
  8
0
  6
Continuous
 62
     7
100
AcDbLine
 10
-108.0000009075153
 20
74.7499994969785
 30
0.0
 11
-107.5000009075153
 21
74.74999949697788
 31
0.0
  0
LINE
  5
15F
330
92
100
AcDbEntity
  8
0
  6
Continuous
 62
     7
100
AcDbLine
 10
-96.24650883056613
 20
97.24650742003178
 30
0.0
 11
-94.74650883056613
 21
97.24650742003178
 31
0.0
  0
LINE
  5
160
330
92
100
AcDbEntity
  8
0
  6
Continuous
 62
     7
100
AcDbLine
 10
-96.24650883056626
 20
95.249999496981
 30
0.0
 11
-96.24650883056613
 21
97.24650742003178
 31
0.0
  0
LINE
  5
161
330
92
100
AcDbEntity
  8
0
  6
Continuous
 62
     7
100
AcDbLine
 10
-96.24650883056626
 20
95.249999496981
 30
0.0
 11
-88.00000090751527
 21
95.2499994969804
 31
0.0
  0
LINE
  5
162
330
92
100
AcDbEntity
  8
0
  6
Continuous
 62
     7
100
AcDbLine
 10
-100.7534929844645
 20
97.24650742003179
 30
0.0
 11
-99.25349298446446
 21
97.24650742003178
 31
0.0
  0
LINE
  5
163
330
92
100
AcDbEntity
  8
0
  6
Continuous
 62
     7
100
AcDbLine
 10
-107.5000009075153
 20
95.24999949698102
 30
0.0
 11
-99.2534929844646
 21
95.24999949698102
 31
0.0
  0
LINE
  5
164
330
92
100
AcDbEntity
  8
0
  6
Continuous
 62
     7
100
AcDbLine
 10
-87.50000090751534
 20
74.74999949698045
 30
0.0
 11
-87.50000090751531
 21
95.24999949698051
 31
0.0
  0
LINE
  5
165
330
92
100
AcDbEntity
  8
0
  6
Continuous
 62
     7
100
AcDbLine
 10
-88.0000009075153
 20
74.74999949698034
 30
0.0
 11
-88.00000090751527
 21
95.2499994969804
 31
0.0
  0
LINE
  5
166
330
92
100
AcDbEntity
  8
0
  6
Continuous
 62
     7
100
AcDbLine
 10
-99.1103178295483
 20
97.38968257494697
 30
0.0
 11
-100.6103178295483
 21
97.38968257494697
 31
0.0
  0
LINE
  5
167
330
92
100
AcDbEntity
  8
0
  6
Continuous
 62
     7
100
AcDbLine
 10
-94.88968398548228
 20
97.38968257494696
 30
0.0
 11
-96.38968398548228
 21
97.38968257494696
 31
0.0
  0
LINE
  5
168
330
92
100
AcDbEntity
  8
0
  6
Continuous
 62
     7
100
AcDbLine
 10
-94.74650883056613
 20
97.24650742003178
 30
0.0
 11
-94.74650883056594
 21
99.75349157393012
 31
0.0
  0
LINE
  5
169
330
92
100
AcDbEntity
  8
0
  6
Continuous
 62
     7
100
AcDbLine
 10
-94.74650883056613
 20
97.24650742003178
 30
0.0
 11
-94.88968398548228
 21
97.38968257494696
 31
0.0
  0
LINE
  5
16A
330
92
100
AcDbEntity
  8
0
  6
Continuous
 62
     7
100
AcDbLine
 10
-94.88968398548211
 20
99.61031641901297
 30
0.0
 11
-94.88968398548228
 21
97.38968257494696
 31
0.0
  0
LINE
  5
16B
330
92
100
AcDbEntity
  8
0
  6
Continuous
 62
     7
100
AcDbLine
 10
-96.38968398548228
 20
97.38968257494696
 30
0.0
 11
-96.24650883056613
 21
97.24650742003178
 31
0.0
  0
LINE
  5
16C
330
92
100
AcDbEntity
  8
0
  6
Continuous
 62
     7
100
AcDbLine
 10
-100.6103178295481
 20
99.61031641901299
 30
0.0
 11
-94.88968398548211
 21
99.61031641901297
 31
0.0
  0
LINE
  5
16D
330
92
100
AcDbEntity
  8
0
  6
Continuous
 62
     7
100
AcDbLine
 10
-100.6103178295483
 20
97.38968257494697
 30
0.0
 11
-100.6103178295481
 21
99.61031641901299
 31
0.0
  0
LINE
  5
16E
330
92
100
AcDbEntity
  8
0
  6
Continuous
 62
     7
100
AcDbLine
 10
-100.7534929844643
 20
99.75349157393012
 30
0.0
 11
-100.6103178295481
 21
99.61031641901299
 31
0.0
  0
LINE
  5
16F
330
92
100
AcDbEntity
  8
0
  6
Continuous
 62
     7
100
AcDbLine
 10
-94.74650883056594
 20
99.75349157393012
 30
0.0
 11
-94.88968398548211
 21
99.61031641901297
 31
0.0
  0
LINE
  5
170
330
92
100
AcDbEntity
  8
1
  6
DOT_CENTER
 62
     2
100
AcDbLine
 10
-103.5000009075153
 20
71.74999949698075
 30
0.0
 11
-103.5000009075153
 21
74.74999949698073
 31
0.0
  0
LINE
  5
171
330
92
100
AcDbEntity
  8
1
  6
DOT_CENTER
 62
     2
100
AcDbLine
 10
-91.7000009075153
 20
84.99999949697789
 30
0.0
 11
-103.8000009075153
 21
84.99999949697789
 31
0.0
  0
LINE
  5
172
330
92
100
AcDbEntity
  8
1
  6
DOT_CENTER
 62
     2
100
AcDbLine
 10
-97.7500009075153
 20
91.04999949697789
 30
0.0
 11
-97.7500009075153
 21
78.9499994969779
 31
0.0
  0
LINE
  5
173
330
92
100
AcDbEntity
  8
1
  6
DOT_CENTER
 62
     2
100
AcDbLine
 10
-89.9100009075153
 20
97.74999949698054
 30
0.0
 11
-94.09000090751528
 21
97.74999949698054
 31
0.0
  0
LINE
  5
174
330
92
100
AcDbEntity
  8
1
  6
DOT_CENTER
 62
     2
100
AcDbLine
 10
-92.00000090751529
 20
99.83999949698052
 30
0.0
 11
-92.00000090751529
 21
95.65999949698055
 31
0.0
  0
LINE
  5
175
330
92
100
AcDbEntity
  8
1
  6
DOT_CENTER
 62
     2
100
AcDbLine
 10
-101.4100009075153
 20
97.7499994969814
 30
0.0
 11
-105.5900009075153
 21
97.7499994969814
 31
0.0
  0
LINE
  5
176
330
92
100
AcDbEntity
  8
1
  6
DOT_CENTER
 62
     2
100
AcDbLine
 10
-103.5000009075153
 20
99.8399994969814
 30
0.0
 11
-103.5000009075153
 21
95.6599994969814
 31
0.0
  0
CIRCLE
  5
177
330
92
100
AcDbEntity
  8
0
  6
Continuous
 62
     7
100
AcDbCircle
 10
-103.5000009075153
 20
97.7499994969814
 30
0.0
 40
1.900000000000006
  0
CIRCLE
  5
178
330
92
100
AcDbEntity
  8
0
  6
Continuous
 62
     7
100
AcDbCircle
 10
-92.00000090751529
 20
97.74999949698054
 30
0.0
 40
1.899999999999991
  0
CIRCLE
  5
179
330
92
100
AcDbEntity
  8
0
  6
Continuous
 62
     7
100
AcDbCircle
 10
-97.7500009075153
 20
84.99999949697789
 30
0.0
 40
5.5
  0
ENDBLK
  5
94
330
92
100
AcDbEntity
  8
0
100
AcDbBlockEnd
  0
BLOCK
  5
97
330
95
100
AcDbEntity
  8
0
100
AcDbBlockBegin
  2
SA_Rechts2
 70
     0
 10
-97.74999999999304
 20
86.49999999995893
 30
0.0
  3
SA_Rechts2
  1

  0
INSERT
  5
96
330
95
100
AcDbEntity
  8
0
100
AcDbBlockReference
  2
CES_SRG_BK_11-select__5
 10
-108.0000009075153
 20
71.74999949698075
 30
0.0
  0
MTEXT
  5
17A
330
95
100
AcDbEntity
  8
1
 62
     6
100
AcDbMText
 10
-97.7500009075153
 20
69.24999949698076
 30
0.0
 40
2.5
 41
0.0
 71
     2
 72
     1
  1
 
  7
CONVERTER_11
 73
     1
 44
1.32052821128451
  0
ENDBLK
  5
98
330
95
100
AcDbEntity
  8
0
100
AcDbBlockEnd
  0
BLOCK
  5
9A
330
99
100
AcDbEntity
  8
0
100
AcDbBlockBegin
  2
CES_SRG_BK_11-select__6
 70
     0
 10
-60.37499999996899
 20
71.74999949698051
 30
0.0
  3
CES_SRG_BK_11-select__6
  1

  0
LINE
  5
17B
330
99
100
AcDbEntity
  8
0
  6
Continuous
 62
     7
100
AcDbLine
 10
-43.37499999996907
 20
74.74999949697805
 30
0.0
 11
-45.52499999996893
 21
74.74999949697856
 31
0.0
  0
LINE
  5
17C
330
99
100
AcDbEntity
  8
0
  6
Continuous
 62
     7
100
AcDbLine
 10
-46.02499999996891
 20
74.74999949697867
 30
0.0
 11
-45.52499999996893
 21
74.74999949697856
 31
0.0
  0
LINE
  5
17D
330
99
100
AcDbEntity
  8
0
  6
Continuous
 62
     7
100
AcDbLine
 10
-46.52499999996896
 20
74.74999949697879
 30
0.0
 11
-46.02499999996891
 21
74.74999949697867
 31
0.0
  0
LINE
  5
17E
330
99
100
AcDbEntity
  8
0
  6
Continuous
 62
     7
100
AcDbLine
 10
-57.07115242267641
 20
71.74999949698132
 30
0.0
 11
-53.67884757726314
 21
71.74999949698051
 31
0.0
  0
LINE
  5
17F
330
99
100
AcDbEntity
  8
0
  6
Continuous
 62
     7
100
AcDbLine
 10
-53.67884757726314
 20
71.74999949698051
 30
0.0
 11
-52.87499999996906
 21
74.74999949698031
 31
0.0
  0
LINE
  5
180
330
99
100
AcDbEntity
  8
0
  6
Continuous
 62
     7
100
AcDbLine
 10
-60.37499999996268
 20
101.2499994969821
 30
0.0
 11
-56.37499999996265
 21
101.2499994969812
 31
0.0
  0
LINE
  5
181
330
99
100
AcDbEntity
  8
0
  6
Continuous
 62
     7
100
AcDbLine
 10
-56.37499999996265
 20
101.2499994969812
 30
0.0
 11
-56.37499999996301
 21
99.75349157393029
 31
0.0
  0
LINE
  5
182
330
99
100
AcDbEntity
  8
0
  6
Continuous
 62
     7
100
AcDbLine
 10
-56.37499999996361
 20
97.24650742003195
 30
0.0
 11
-56.37499999996408
 21
95.24999949698119
 31
0.0
  0
LINE
  5
183
330
99
100
AcDbEntity
  8
0
  6
Continuous
 62
     7
100
AcDbLine
 10
-56.37499999996301
 20
99.75349157393029
 30
0.0
 11
-56.37499999996361
 21
97.24650742003195
 31
0.0
  0
LINE
  5
184
330
99
100
AcDbEntity
  8
0
  6
Continuous
 62
     7
100
AcDbLine
 10
-60.37499999996899
 20
74.74999949698207
 30
0.0
 11
-60.37499999996268
 21
101.2499994969821
 31
0.0
  0
LINE
  5
185
330
99
100
AcDbEntity
  8
0
  6
Continuous
 62
     7
100
AcDbLine
 10
-52.27499999996408
 20
95.24999949698021
 30
0.0
 11
-52.27499999996357
 21
97.38968257494714
 31
0.0
  0
LINE
  5
186
330
99
100
AcDbEntity
  8
0
  6
Continuous
 62
     7
100
AcDbLine
 10
-56.37499999996361
 20
97.24650742003195
 30
0.0
 11
-52.27499999996357
 21
97.38968257494714
 31
0.0
  0
LINE
  5
187
330
99
100
AcDbEntity
  8
0
  6
Continuous
 62
     7
100
AcDbLine
 10
-52.27499999996357
 20
97.38968257494714
 30
0.0
 11
-52.27499999996304
 21
99.61031641901315
 31
0.0
  0
LINE
  5
188
330
99
100
AcDbEntity
  8
0
  6
Continuous
 62
     7
100
AcDbLine
 10
-56.37499999996301
 20
99.75349157393029
 30
0.0
 11
-52.27499999996304
 21
99.61031641901315
 31
0.0
  0
LINE
  5
189
330
99
100
AcDbEntity
  8
0
  6
Continuous
 62
     7
100
AcDbLine
 10
-43.3749999999642
 20
95.24999949697812
 30
0.0
 11
-43.37499999996907
 21
74.74999949697805
 31
0.0
  0
LINE
  5
18A
330
99
100
AcDbEntity
  8
0
  6
Continuous
 62
     7
100
AcDbLine
 10
-46.02499999996407
 20
95.24999949697875
 30
0.0
 11
-45.52499999996408
 21
95.24999949697862
 31
0.0
  0
LINE
  5
18B
330
99
100
AcDbEntity
  8
0
  6
Continuous
 62
     7
100
AcDbLine
 10
-45.52499999996408
 20
95.24999949697862
 30
0.0
 11
-45.52499999996893
 21
74.74999949697856
 31
0.0
  0
LINE
  5
18C
330
99
100
AcDbEntity
  8
0
  6
Continuous
 62
     7
100
AcDbLine
 10
-46.02499999996407
 20
95.24999949697875
 30
0.0
 11
-46.02499999996891
 21
74.74999949697867
 31
0.0
  0
LINE
  5
18D
330
99
100
AcDbEntity
  8
0
  6
Continuous
 62
     7
100
AcDbLine
 10
-43.3749999999642
 20
95.24999949697812
 30
0.0
 11
-45.52499999996408
 21
95.24999949697862
 31
0.0
  0
LINE
  5
18E
330
99
100
AcDbEntity
  8
0
  6
Continuous
 62
     7
100
AcDbLine
 10
-46.5249999999641
 20
95.24999949697886
 30
0.0
 11
-46.02499999996407
 21
95.24999949697875
 31
0.0
  0
LINE
  5
18F
330
99
100
AcDbEntity
  8
0
  6
Continuous
 62
     7
100
AcDbLine
 10
-52.27499999996408
 20
95.24999949698021
 30
0.0
 11
-56.37499999996408
 21
95.24999949698119
 31
0.0
  0
LINE
  5
190
330
99
100
AcDbEntity
  8
0
  6
Continuous
 62
     7
100
AcDbLine
 10
-46.5249999999641
 20
95.24999949697886
 30
0.0
 11
-52.27499999996408
 21
95.24999949698021
 31
0.0
  0
LINE
  5
191
330
99
100
AcDbEntity
  8
0
  6
Continuous
 62
     7
100
AcDbLine
 10
-46.5249999999641
 20
95.24999949697886
 30
0.0
 11
-46.52499999996896
 21
74.74999949697879
 31
0.0
  0
LINE
  5
192
330
99
100
AcDbEntity
  8
0
  6
Continuous
 62
     7
100
AcDbLine
 10
-52.87499999996906
 20
74.74999949698031
 30
0.0
 11
-57.87499999996906
 21
74.74999949698149
 31
0.0
  0
LINE
  5
193
330
99
100
AcDbEntity
  8
0
  6
Continuous
 62
     7
100
AcDbLine
 10
-57.87499999996906
 20
74.74999949698149
 30
0.0
 11
-60.37499999996899
 21
74.74999949698207
 31
0.0
  0
LINE
  5
194
330
99
100
AcDbEntity
  8
0
  6
Continuous
 62
     7
100
AcDbLine
 10
-46.52499999996896
 20
74.74999949697879
 30
0.0
 11
-52.87499999996906
 21
74.74999949698031
 31
0.0
  0
LINE
  5
195
330
99
100
AcDbEntity
  8
0
  6
Continuous
 62
     7
100
AcDbLine
 10
-57.07115242267641
 20
71.74999949698132
 30
0.0
 11
-57.87499999996906
 21
74.74999949698149
 31
0.0
  0
LINE
  5
196
330
99
100
AcDbEntity
  8
1
  6
DOT_CENTER
 62
     2
100
AcDbLine
 10
-55.37499999996977
 20
71.7499994969809
 30
0.0
 11
-55.37499999996906
 21
74.7499994969809
 31
0.0
  0
ENDBLK
  5
9B
330
99
100
AcDbEntity
  8
0
100
AcDbBlockEnd
  0
BLOCK
  5
9E
330
9C
100
AcDbEntity
  8
0
100
AcDbBlockBegin
  2
Vordans2
 70
     0
 10
-51.87499999999663
 20
86.4999999999591
 30
0.0
  3
Vordans2
  1

  0
INSERT
  5
9D
330
9C
100
AcDbEntity
  8
0
100
AcDbBlockReference
  2
CES_SRG_BK_11-select__6
 10
-60.37499999996899
 20
71.74999949698051
 30
0.0
  0
MTEXT
  5
197
330
9C
100
AcDbEntity
  8
1
 62
     6
100
AcDbMText
 10
-45.87376847557341
 20
58.02776271345702
 30
0.0
 40
2.5
 41
0.0
 71
     2
 72
     1
  1
 
  7
CONVERTER_11
 73
     1
 44
1.32052821128451
  0
DIMENSION
  5
1A2
330
9C
100
AcDbEntity
  8
1
100
AcDbDimension
  2
*D18
 10
-66.87253695117784
 20
71.74999949698048
 30
0.0
 11
-68.83503695117784
 21
85.71016899145103
 31
0.0
 70
    32
  1
<>
 71
     5
 42
-1.0
 53
90.0
  3
ME10_DIM_11
100
AcDbAlignedDimension
 13
-60.37499999996268
 23
101.2499994969821
 33
0.0
 14
-53.67884757726314
 24
71.74999949698051
 34
0.0
 50
90.0
100
AcDbRotatedDimension
  0
DIMENSION
  5
1AD
330
9C
100
AcDbEntity
  8
1
100
AcDbDimension
  2
*D19
 10
-43.37499999996906
 20
65.02776271345704
 30
0.0
 11
-51.87499999999681
 21
66.90276271345704
 31
0.0
 70
    32
  1
<>
 71
     5
 42
-1.0
 53
0.00013888888889
  3
ME10_DIM_12
100
AcDbAlignedDimension
 13
-60.37499999996899
 23
74.74999949698207
 33
0.0
 14
-43.37499999996907
 24
74.74999949697805
 34
0.0
100
AcDbRotatedDimension
  0
ENDBLK
  5
9F
330
9C
100
AcDbEntity
  8
0
100
AcDbBlockEnd
  0
BLOCK
  5
A1
330
A0
100
AcDbEntity
  8
0
100
AcDbBlockBegin
  2
_rahmen
 70
     0
 10
136.7431072854663
 20
-49.29362749516849
 30
0.0
  3
_rahmen
  1

  0
LINE
  5
1AE
330
A0
100
AcDbEntity
  8
1
  6
DOT_CENTER
 62
     2
100
AcDbLine
 10
11.18495764527887
 20
-23.16862749516918
 30
0.0
 11
16.68495764527887
 21
-23.16862749516918
 31
0.0
  0
LINE
  5
1AF
330
A0
100
AcDbEntity
  8
1
  6
PHANTOM
 62
     2
100
AcDbLine
 10
19.93495764527887
 20
-20.41862749516906
 30
0.0
 11
19.93495764527887
 21
-25.91862749516906
 31
0.0
  0
LINE
  5
1B0
330
A0
100
AcDbEntity
  8
1
  6
PHANTOM
 62
     2
100
AcDbLine
 10
22.68495764527887
 20
-23.16862749516918
 30
0.0
 11
17.18495764527887
 21
-23.16862749516918
 31
0.0
  0
LINE
  5
1B1
330
A0
100
AcDbEntity
  8
1
  6
Continuous
 62
     6
100
AcDbLine
 10
7.19830275871635
 20
-18.79362749516906
 30
0.0
 11
136.7431072854681
 21
-18.79362749516906
 31
0.0
  0
LINE
  5
1B2
330
A0
100
AcDbEntity
  8
1
  6
Continuous
 62
     7
100
AcDbLine
 10
25.39830275871626
 20
-40.04362749516901
 30
0.0
 11
43.59830275871627
 21
-40.04362749516901
 31
0.0
  0
LINE
  5
1B3
330
A0
100
AcDbEntity
  8
1
  6
Continuous
 62
     6
100
AcDbLine
 10
25.39830275871626
 20
-44.29362749516901
 30
0.0
 11
7.19830275871635
 21
-44.29362749516906
 31
0.0
  0
LINE
  5
1B4
330
A0
100
AcDbEntity
  8
1
  6
Continuous
 62
     7
100
AcDbLine
 10
25.39830275871626
 20
-40.04362749516901
 30
0.0
 11
25.39830275871626
 21
-44.29362749516901
 31
0.0
  0
LINE
  5
1B5
330
A0
100
AcDbEntity
  8
1
  6
Continuous
 62
     7
100
AcDbLine
 10
43.59830275871627
 20
-40.04362749516901
 30
0.0
 11
43.59830275871627
 21
-44.29362749516906
 31
0.0
  0
LINE
  5
1B6
330
A0
100
AcDbEntity
  8
1
  6
Continuous
 62
     7
100
AcDbLine
 10
7.19830275871635
 20
-40.04362749516906
 30
0.0
 11
7.19830275871635
 21
-44.29362749516906
 31
0.0
  0
LINE
  5
1B7
330
A0
100
AcDbEntity
  8
1
  6
Continuous
 62
     7
100
AcDbLine
 10
7.19830275871635
 20
-40.04362749516906
 30
0.0
 11
25.39830275871626
 21
-40.04362749516901
 31
0.0
  0
LINE
  5
1B8
330
A0
100
AcDbEntity
  8
1
  6
Continuous
 62
     2
100
AcDbLine
 10
16.43495764527887
 20
-20.66862749516918
 30
0.0
 11
16.43495764527887
 21
-25.66862749516918
 31
0.0
  0
LINE
  5
1B9
330
A0
100
AcDbEntity
  8
1
  6
Continuous
 62
     2
100
AcDbLine
 10
16.43495764527887
 20
-25.66862749516918
 30
0.0
 11
11.43495764527887
 21
-24.41862749516918
 31
0.0
  0
LINE
  5
1BA
330
A0
100
AcDbEntity
  8
1
  6
Continuous
 62
     2
100
AcDbLine
 10
11.43495764527887
 20
-24.41862749516918
 30
0.0
 11
11.43495764527887
 21
-21.91862749516918
 31
0.0
  0
LINE
  5
1BB
330
A0
100
AcDbEntity
  8
1
  6
Continuous
 62
     2
100
AcDbLine
 10
11.43495764527887
 20
-21.91862749516918
 30
0.0
 11
16.43495764527887
 21
-20.66862749516918
 31
0.0
  0
LINE
  5
1BC
330
A0
100
AcDbEntity
  8
1
  6
Continuous
 62
     6
100
AcDbLine
 10
136.7431072854681
 20
-27.29362749516906
 30
0.0
 11
136.7431072854675
 21
-35.79362749516906
 31
0.0
  0
LINE
  5
1BD
330
A0
100
AcDbEntity
  8
1
  6
Continuous
 62
     6
100
AcDbLine
 10
43.59830275871627
 20
-44.29362749516906
 30
0.0
 11
43.24310728546627
 21
-44.29362749516901
 31
0.0
  0
LINE
  5
1BE
330
A0
100
AcDbEntity
  8
1
  6
Continuous
 62
     7
100
AcDbLine
 10
43.59830275871627
 20
-27.29362749516906
 30
0.0
 11
43.59830275871627
 21
-40.04362749516901
 31
0.0
  0
LINE
  5
1BF
330
A0
100
AcDbEntity
  8
1
  6
Continuous
 62
     7
100
AcDbLine
 10
7.19830275871635
 20
-27.29362749516906
 30
0.0
 11
7.19830275871635
 21
-40.04362749516906
 31
0.0
  0
LINE
  5
1C0
330
A0
100
AcDbEntity
  8
1
  6
Continuous
 62
     6
100
AcDbLine
 10
43.59830275871627
 20
-44.29362749516906
 30
0.0
 11
93.24310728546627
 21
-44.29362749516901
 31
0.0
  0
LINE
  5
1C1
330
A0
100
AcDbEntity
  8
1
  6
Continuous
 62
     6
100
AcDbLine
 10
136.7431072854662
 20
-44.29362749516901
 30
0.0
 11
136.7431072854675
 21
-35.79362749516906
 31
0.0
  0
LINE
  5
1C2
330
A0
100
AcDbEntity
  8
1
  6
Continuous
 62
     6
100
AcDbLine
 10
7.19830275871635
 20
-27.29362749516906
 30
0.0
 11
43.59830275871627
 21
-27.29362749516906
 31
0.0
  0
LINE
  5
1C3
330
A0
100
AcDbEntity
  8
1
  6
Continuous
 62
     6
100
AcDbLine
 10
43.24310728546627
 20
-44.29362749516901
 30
0.0
 11
25.39830275871626
 21
-44.29362749516901
 31
0.0
  0
LINE
  5
1C4
330
A0
100
AcDbEntity
  8
1
  6
Continuous
 62
     6
100
AcDbLine
 10
93.24310728546627
 20
-44.29362749516901
 30
0.0
 11
136.7431072854662
 21
-44.29362749516901
 31
0.0
  0
LINE
  5
1C5
102
{ACAD_REACTORS
330
2F3
330
2F4
102
}
330
A0
100
AcDbEntity
  8
0
  6
Continuous
 62
     2
100
AcDbLine
 10
14.71292870086316
 20
-32.221112738957
 30
0.0
 11
14.71292870086316
 21
-31.61557745045019
 31
0.0
  0
LINE
  5
1C6
102
{ACAD_REACTORS
330
2F3
330
2F4
102
}
330
A0
100
AcDbEntity
  8
0
  6
Continuous
 62
     2
100
AcDbLine
 10
14.71292870086316
 20
-35.02124734558817
 30
0.0
 11
14.71292870086316
 21
-34.43939593889309
 31
0.0
  0
LINE
  5
1C7
102
{ACAD_REACTORS
330
2F5
330
2F6
102
}
330
A0
100
AcDbEntity
  8
0
  6
Continuous
 62
     2
100
AcDbLine
 10
37.34241513634225
 20
-34.73158327746529
 30
0.0
 11
37.34241513634225
 21
-37.0001274951527
 31
0.0
  0
LINE
  5
1C8
102
{ACAD_REACTORS
330
2F5
330
2F6
102
}
330
A0
100
AcDbEntity
  8
0
  6
Continuous
 62
     2
100
AcDbLine
 10
35.96136135735475
 20
-33.94631797134218
 30
0.0
 11
39.34630687598335
 21
-33.94631797134156
 31
0.0
  0
LINE
  5
1C9
102
{ACAD_REACTORS
330
2F5
330
2F6
102
}
330
A0
100
AcDbEntity
  8
0
  6
Continuous
 62
     2
100
AcDbLine
 10
39.34630687598335
 20
-34.73158327746529
 30
0.0
 11
39.34630687598335
 21
-33.94631797134156
 31
0.0
  0
LINE
  5
1CA
102
{ACAD_REACTORS
330
2F5
330
2F6
102
}
330
A0
100
AcDbEntity
  8
0
  6
Continuous
 62
     2
100
AcDbLine
 10
38.53520783850996
 20
-34.73158327746529
 30
0.0
 11
39.34630687598335
 21
-34.73158327746529
 31
0.0
  0
LINE
  5
1CB
102
{ACAD_REACTORS
330
2F5
330
2F6
102
}
330
A0
100
AcDbEntity
  8
0
  6
Continuous
 62
     2
100
AcDbLine
 10
38.53520783850996
 20
-37.0001274951527
 30
0.0
 11
38.53520783850996
 21
-34.73158327746529
 31
0.0
  0
LINE
  5
1CC
102
{ACAD_REACTORS
330
2F5
330
2F6
102
}
330
A0
100
AcDbEntity
  8
0
  6
Continuous
 62
     2
100
AcDbLine
 10
37.34241513634225
 20
-37.0001274951527
 30
0.0
 11
38.53520783850996
 21
-37.0001274951527
 31
0.0
  0
LINE
  5
1CD
102
{ACAD_REACTORS
330
2EB
330
2EC
102
}
330
A0
100
AcDbEntity
  8
0
  6
Continuous
 62
     2
100
AcDbLine
 10
36.64582419827775
 20
-30.58712749516729
 30
0.0
 11
35.24309998052857
 21
-30.58712749516729
 31
0.0
  0
LINE
  5
1CE
102
{ACAD_REACTORS
330
2EB
330
2EC
102
}
330
A0
100
AcDbEntity
  8
0
  6
Continuous
 62
     2
100
AcDbLine
 10
36.64582419827775
 20
-30.58712749516729
 30
0.0
 11
37.24699172016966
 21
-31.26695081672278
 31
0.0
  0
LINE
  5
1CF
102
{ACAD_REACTORS
330
2EB
330
2EC
102
}
330
A0
100
AcDbEntity
  8
0
  6
Continuous
 62
     2
100
AcDbLine
 10
37.24699172016966
 20
-31.26695081672278
 30
0.0
 11
37.84815924206245
 21
-30.58712749516729
 31
0.0
  0
LINE
  5
1D0
102
{ACAD_REACTORS
330
2EB
330
2EC
102
}
330
A0
100
AcDbEntity
  8
0
  6
Continuous
 62
     2
100
AcDbLine
 10
37.94835382904307
 20
-32.0600780252035
 30
0.0
 11
39.25088345980967
 21
-30.58712749516729
 31
0.0
  0
LINE
  5
1D1
102
{ACAD_REACTORS
330
2EB
330
2EC
102
}
330
A0
100
AcDbEntity
  8
0
  6
Continuous
 62
     2
100
AcDbLine
 10
37.94835382904307
 20
-32.0600780252035
 30
0.0
 11
39.34630687598335
 21
-33.64093701897838
 31
0.0
  0
LINE
  5
1D2
102
{ACAD_REACTORS
330
2EB
330
2EC
102
}
330
A0
100
AcDbEntity
  8
0
  6
Continuous
 62
     2
100
AcDbLine
 10
37.94358265823504
 20
-33.64093701897838
 30
0.0
 11
39.34630687598335
 21
-33.64093701897838
 31
0.0
  0
LINE
  5
1D3
102
{ACAD_REACTORS
330
2EB
330
2EC
102
}
330
A0
100
AcDbEntity
  8
0
  6
Continuous
 62
     2
100
AcDbLine
 10
37.24699172016966
 20
-32.85320523368466
 30
0.0
 11
37.94358265823504
 21
-33.64093701897838
 31
0.0
  0
LINE
  5
1D4
102
{ACAD_REACTORS
330
2E9
330
2EA
102
}
330
A0
100
AcDbEntity
  8
0
  6
Continuous
 62
     2
100
AcDbLine
 10
33.78789288388595
 20
-30.58712749516729
 30
0.0
 11
35.02839729413887
 21
-30.58712749516729
 31
0.0
  0
LINE
  5
1D5
102
{ACAD_REACTORS
330
2E9
330
2EA
102
}
330
A0
100
AcDbEntity
  8
0
  6
Continuous
 62
     2
100
AcDbLine
 10
35.02839729413887
 20
-30.58712749516729
 30
0.0
 11
35.02839729413887
 21
-33.64093701897838
 31
0.0
  0
LINE
  5
1D6
102
{ACAD_REACTORS
330
2E9
330
2EA
102
}
330
A0
100
AcDbEntity
  8
0
  6
Continuous
 62
     2
100
AcDbLine
 10
33.78789288388595
 20
-33.64093701897838
 30
0.0
 11
33.78789288388595
 21
-30.58712749516729
 31
0.0
  0
LINE
  5
1D7
102
{ACAD_REACTORS
330
2E7
330
2E8
102
}
330
A0
100
AcDbEntity
  8
0
  6
Continuous
 62
     2
100
AcDbLine
 10
32.31958280134836
 20
-35.7786036856283
 30
0.0
 11
32.61974803854065
 21
-35.0107887196416
 31
0.0
  0
LINE
  5
1D8
102
{ACAD_REACTORS
330
2E7
330
2E8
102
}
330
A0
100
AcDbEntity
  8
0
  6
Continuous
 62
     2
100
AcDbLine
 10
31.84204719672746
 20
-37.0001274951527
 30
0.0
 11
32.05352725020325
 21
-36.4591669509349
 31
0.0
  0
LINE
  5
1D9
102
{ACAD_REACTORS
330
2E7
330
2E8
102
}
330
A0
100
AcDbEntity
  8
0
  6
Continuous
 62
     2
100
AcDbLine
 10
31.99949583341376
 20
-33.94631797134156
 30
0.0
 11
30.60154278647457
 21
-37.0001274951527
 31
0.0
  0
LINE
  5
1DA
102
{ACAD_REACTORS
330
2E7
330
2E8
102
}
330
A0
100
AcDbEntity
  8
0
  6
Continuous
 62
     2
100
AcDbLine
 10
34.63795329060685
 20
-37.0001274951527
 30
0.0
 11
33.39744888035295
 21
-37.0001274951527
 31
0.0
  0
LINE
  5
1DB
102
{ACAD_REACTORS
330
2E7
330
2E8
102
}
330
A0
100
AcDbEntity
  8
0
  6
Continuous
 62
     2
100
AcDbLine
 10
32.05352725020325
 20
-36.4591669509349
 30
0.0
 11
33.18596882687717
 21
-36.4591669509349
 31
0.0
  0
LINE
  5
1DC
102
{ACAD_REACTORS
330
2E5
330
2E6
102
}
330
A0
100
AcDbEntity
  8
0
  6
Continuous
 62
     2
100
AcDbLine
 10
28.44403064729227
 20
-34.73158327746529
 30
0.0
 11
29.25512968476696
 21
-34.73158327746529
 31
0.0
  0
LINE
  5
1DD
102
{ACAD_REACTORS
330
2E5
330
2E6
102
}
330
A0
100
AcDbEntity
  8
0
  6
Continuous
 62
     2
100
AcDbLine
 10
31.25902142440597
 20
-33.94631797134156
 30
0.0
 11
28.44403064729227
 21
-33.94631797134156
 31
0.0
  0
LINE
  5
1DE
102
{ACAD_REACTORS
330
2E5
330
2E6
102
}
330
A0
100
AcDbEntity
  8
0
  6
Continuous
 62
     2
100
AcDbLine
 10
31.25902142440597
 20
-34.73158327746529
 30
0.0
 11
31.25902142440597
 21
-33.94631797134156
 31
0.0
  0
LINE
  5
1DF
102
{ACAD_REACTORS
330
2E5
330
2E6
102
}
330
A0
100
AcDbEntity
  8
0
  6
Continuous
 62
     2
100
AcDbLine
 10
30.44792238693336
 20
-34.73158327746529
 30
0.0
 11
31.25902142440597
 21
-34.73158327746529
 31
0.0
  0
LINE
  5
1E0
102
{ACAD_REACTORS
330
2E5
330
2E6
102
}
330
A0
100
AcDbEntity
  8
0
  6
Continuous
 62
     2
100
AcDbLine
 10
30.44792238693336
 20
-37.0001274951527
 30
0.0
 11
30.44792238693336
 21
-34.73158327746529
 31
0.0
  0
LINE
  5
1E1
102
{ACAD_REACTORS
330
2E3
330
2E4
102
}
330
A0
100
AcDbEntity
  8
0
  6
Continuous
 62
     2
100
AcDbLine
 10
31.11603723103136
 20
-33.64093701897838
 30
0.0
 11
31.11603723103136
 21
-32.33216150877365
 31
0.0
  0
LINE
  5
1E2
102
{ACAD_REACTORS
330
2E3
330
2E4
102
}
330
A0
100
AcDbEntity
  8
0
  6
Continuous
 62
     2
100
AcDbLine
 10
29.92324452886496
 20
-30.58712749516729
 30
0.0
 11
29.92324452886496
 21
-33.64093701897838
 31
0.0
  0
LINE
  5
1E3
102
{ACAD_REACTORS
330
2E3
330
2E4
102
}
330
A0
100
AcDbEntity
  8
0
  6
Continuous
 62
     2
100
AcDbLine
 10
31.11603723103136
 20
-30.58712749516729
 30
0.0
 11
29.92324452886496
 21
-30.58712749516729
 31
0.0
  0
LINE
  5
1E4
102
{ACAD_REACTORS
330
2E3
330
2E4
102
}
330
A0
100
AcDbEntity
  8
0
  6
Continuous
 62
     2
100
AcDbLine
 10
32.35654164128545
 20
-30.58712749516729
 30
0.0
 11
32.35654164128545
 21
-31.89590300537236
 31
0.0
  0
LINE
  5
1E5
102
{ACAD_REACTORS
330
2E1
330
2E2
102
}
330
A0
100
AcDbEntity
  8
0
  6
Continuous
 62
     2
100
AcDbLine
 10
24.67480570844526
 20
-33.94631797134156
 30
0.0
 11
24.67480570844526
 21
-37.0001274951527
 31
0.0
  0
LINE
  5
1E6
102
{ACAD_REACTORS
330
2E1
330
2E2
102
}
330
A0
100
AcDbEntity
  8
0
  6
Continuous
 62
     2
100
AcDbLine
 10
25.86759841061277
 20
-33.94631797134156
 30
0.0
 11
24.67480570844526
 21
-33.94631797134156
 31
0.0
  0
LINE
  5
1E7
102
{ACAD_REACTORS
330
2E1
330
2E2
102
}
330
A0
100
AcDbEntity
  8
0
  6
Continuous
 62
     2
100
AcDbLine
 10
27.10810282086575
 20
-37.0001274951527
 30
0.0
 11
28.30089552303215
 21
-37.0001274951527
 31
0.0
  0
LINE
  5
1E8
102
{ACAD_REACTORS
330
2E1
330
2E2
102
}
330
A0
100
AcDbEntity
  8
0
  6
Continuous
 62
     2
100
AcDbLine
 10
24.67480570844526
 20
-37.0001274951527
 30
0.0
 11
25.86759841061277
 21
-37.0001274951527
 31
0.0
  0
LINE
  5
1E9
102
{ACAD_REACTORS
330
2F1
330
2F2
102
}
330
A0
100
AcDbEntity
  8
0
  6
Continuous
 62
     2
100
AcDbLine
 10
28.34875816200434
 20
-31.76502545435187
 30
0.0
 11
28.34875816200434
 21
-31.28514110061019
 31
0.0
  0
LINE
  5
1EA
102
{ACAD_REACTORS
330
2F1
330
2F2
102
}
330
A0
100
AcDbEntity
  8
0
  6
Continuous
 62
     2
100
AcDbLine
 10
29.68468598843197
 20
-31.76502545435187
 30
0.0
 11
28.34875816200434
 21
-31.76502545435187
 31
0.0
  0
LINE
  5
1EB
102
{ACAD_REACTORS
330
2F1
330
2F2
102
}
330
A0
100
AcDbEntity
  8
0
  6
Continuous
 62
     2
100
AcDbLine
 10
29.68468598843197
 20
-32.46303905979426
 30
0.0
 11
29.68468598843197
 21
-31.76502545435187
 31
0.0
  0
LINE
  5
1EC
102
{ACAD_REACTORS
330
2F1
330
2F2
102
}
330
A0
100
AcDbEntity
  8
0
  6
Continuous
 62
     2
100
AcDbLine
 10
28.34875816200434
 20
-32.46303905979426
 30
0.0
 11
29.68468598843197
 21
-32.46303905979426
 31
0.0
  0
LINE
  5
1ED
102
{ACAD_REACTORS
330
2DF
330
2E0
102
}
330
A0
100
AcDbEntity
  8
0
  6
Continuous
 62
     2
100
AcDbLine
 10
24.86580347167745
 20
-30.58712749516729
 30
0.0
 11
24.86580347167745
 21
-33.64093701897838
 31
0.0
  0
LINE
  5
1EE
102
{ACAD_REACTORS
330
2DF
330
2E0
102
}
330
A0
100
AcDbEntity
  8
0
  6
Continuous
 62
     2
100
AcDbLine
 10
24.86580347167745
 20
-33.64093701897838
 30
0.0
 11
23.67301076951097
 21
-33.64093701897838
 31
0.0
  0
LINE
  5
1EF
102
{ACAD_REACTORS
330
2DF
330
2E0
102
}
330
A0
100
AcDbEntity
  8
0
  6
Continuous
 62
     2
100
AcDbLine
 10
23.67301076951097
 20
-33.64093701897838
 30
0.0
 11
23.67301076951097
 21
-32.5066649101347
 31
0.0
  0
LINE
  5
1F0
102
{ACAD_REACTORS
330
2DF
330
2E0
102
}
330
A0
100
AcDbEntity
  8
0
  6
Continuous
 62
     2
100
AcDbLine
 10
22.62335319160357
 20
-33.64093701897838
 30
0.0
 11
21.43056048943697
 21
-33.64093701897838
 31
0.0
  0
LINE
  5
1F1
102
{ACAD_REACTORS
330
2DF
330
2E0
102
}
330
A0
100
AcDbEntity
  8
0
  6
Continuous
 62
     2
100
AcDbLine
 10
21.43056048943697
 20
-30.58712749516729
 30
0.0
 11
22.62335319160357
 21
-30.58712749516729
 31
0.0
  0
LINE
  5
1F2
102
{ACAD_REACTORS
330
2DF
330
2E0
102
}
330
A0
100
AcDbEntity
  8
0
  6
Continuous
 62
     2
100
AcDbLine
 10
22.62335319160357
 20
-30.58712749516729
 30
0.0
 11
22.62335319160357
 21
-31.65596082850186
 31
0.0
  0
LINE
  5
1F3
102
{ACAD_REACTORS
330
2DF
330
2E0
102
}
330
A0
100
AcDbEntity
  8
0
  6
Continuous
 62
     2
100
AcDbLine
 10
22.62335319160357
 20
-31.65596082850186
 30
0.0
 11
23.67301076951097
 21
-31.65596082850186
 31
0.0
  0
LINE
  5
1F4
102
{ACAD_REACTORS
330
2ED
330
2EE
102
}
330
A0
100
AcDbEntity
  8
0
  6
Continuous
 62
     2
100
AcDbLine
 10
19.47438045788326
 20
-31.25023334060728
 30
0.0
 11
19.79167551942527
 21
-31.25023334060728
 31
0.0
  0
LINE
  5
1F5
102
{ACAD_REACTORS
330
2ED
330
2EE
102
}
330
A0
100
AcDbEntity
  8
0
  6
Continuous
 62
     2
100
AcDbLine
 10
19.47438045788326
 20
-31.95596098994957
 30
0.0
 11
19.79167551942527
 21
-31.95596098994957
 31
0.0
  0
LINE
  5
1F6
102
{ACAD_REACTORS
330
2ED
330
2EE
102
}
330
A0
100
AcDbEntity
  8
0
  6
Continuous
 62
     2
100
AcDbLine
 10
18.23387604762925
 20
-30.58712749516729
 30
0.0
 11
18.23387604762925
 21
-33.64093701897838
 31
0.0
  0
LINE
  5
1F7
102
{ACAD_REACTORS
330
2ED
330
2EE
102
}
330
A0
100
AcDbEntity
  8
0
  6
Continuous
 62
     2
100
AcDbLine
 10
18.23387604762925
 20
-30.58712749516729
 30
0.0
 11
20.23314804566365
 21
-30.58712749516729
 31
0.0
  0
LINE
  5
1F8
102
{ACAD_REACTORS
330
2ED
330
2EE
102
}
330
A0
100
AcDbEntity
  8
0
  6
Continuous
 62
     2
100
AcDbLine
 10
19.47438045788326
 20
-32.69785877783465
 30
0.0
 11
20.23314804566365
 21
-32.69785877783465
 31
0.0
  0
LINE
  5
1F9
102
{ACAD_REACTORS
330
2F3
330
2F4
102
}
330
A0
100
AcDbEntity
  8
0
  6
Continuous
 62
     2
100
AcDbLine
 10
12.13738001433256
 20
-31.61539997380197
 30
0.0
 11
12.13738001433256
 21
-35.9718550165191
 31
0.0
  0
LINE
  5
1FA
102
{ACAD_REACTORS
330
2F3
330
2F4
102
}
330
A0
100
AcDbEntity
  8
0
  6
Continuous
 62
     2
100
AcDbLine
 10
12.45309693740816
 20
-31.29968305072589
 30
0.0
 11
13.92893019841776
 21
-31.29968305072589
 31
0.0
  0
LINE
  5
1FB
102
{ACAD_REACTORS
330
2F3
330
2F4
102
}
330
A0
100
AcDbEntity
  8
0
  6
Continuous
 62
     2
100
AcDbLine
 10
14.24464712149435
 20
-32.2194245928626
 30
0.0
 11
14.24464712149435
 21
-31.61539997380197
 31
0.0
  0
LINE
  5
1FC
102
{ACAD_REACTORS
330
2F3
330
2F4
102
}
330
A0
100
AcDbEntity
  8
0
  6
Continuous
 62
     2
100
AcDbLine
 10
14.24464712149435
 20
-35.9718550165191
 30
0.0
 11
14.24464712149435
 21
-34.44108408498749
 31
0.0
  0
LINE
  5
1FD
102
{ACAD_REACTORS
330
2F3
330
2F4
102
}
330
A0
100
AcDbEntity
  8
0
  6
Continuous
 62
     2
100
AcDbLine
 10
17.33251435137856
 20
-37.0001274951527
 30
0.0
 11
11.85920226066165
 21
-37.0001274951527
 31
0.0
  0
LINE
  5
1FE
102
{ACAD_REACTORS
330
2F3
330
2F4
102
}
330
A0
100
AcDbEntity
  8
0
  6
Continuous
 62
     2
100
AcDbLine
 10
17.75675896676245
 20
-31.01137211056926
 30
0.0
 11
17.75675896676245
 21
-36.5758828797695
 31
0.0
  0
LINE
  5
1FF
102
{ACAD_REACTORS
330
2F3
330
2F4
102
}
330
A0
100
AcDbEntity
  8
0
  6
Continuous
 62
     2
100
AcDbLine
 10
11.85920226066165
 20
-30.58712749518537
 30
0.0
 11
17.33251435137856
 21
-30.58712749518537
 31
0.0
  0
LINE
  5
200
102
{ACAD_REACTORS
330
2F3
330
2F4
102
}
330
A0
100
AcDbEntity
  8
0
  6
Continuous
 62
     2
100
AcDbLine
 10
11.43495764527887
 20
-31.01137211056926
 30
0.0
 11
11.43495764527887
 21
-36.5758828797695
 31
0.0
  0
LINE
  5
201
102
{ACAD_REACTORS
330
2F3
330
2F4
102
}
330
A0
100
AcDbEntity
  8
0
  6
Continuous
 62
     2
100
AcDbLine
 10
13.92893019841776
 20
-36.28757193959581
 30
0.0
 11
12.45309693740816
 21
-36.28757193959581
 31
0.0
  0
LINE
  5
202
102
{ACAD_REACTORS
330
2ED
330
2EE
102
}
330
A0
100
AcDbEntity
  8
0
  6
Continuous
 62
     2
100
AcDbLine
 10
19.47438045788326
 20
-33.64093701897838
 30
0.0
 11
19.47438045788326
 21
-32.69785877783465
 31
0.0
  0
LINE
  5
203
102
{ACAD_REACTORS
330
2ED
330
2EE
102
}
330
A0
100
AcDbEntity
  8
0
  6
Continuous
 62
     2
100
AcDbLine
 10
18.23387604762925
 20
-33.64093701897838
 30
0.0
 11
19.47438045788326
 21
-33.64093701897838
 31
0.0
  0
LINE
  5
204
102
{ACAD_REACTORS
330
2ED
330
2EE
102
}
330
A0
100
AcDbEntity
  8
0
  6
Continuous
 62
     2
100
AcDbLine
 10
19.47438045788326
 20
-31.95596098994957
 30
0.0
 11
19.47438045788326
 21
-31.25023334060728
 31
0.0
  0
LINE
  5
205
102
{ACAD_REACTORS
330
2DF
330
2E0
102
}
330
A0
100
AcDbEntity
  8
0
  6
Continuous
 62
     2
100
AcDbLine
 10
21.43056048943697
 20
-30.58712749516729
 30
0.0
 11
21.43056048943697
 21
-33.64093701897838
 31
0.0
  0
LINE
  5
206
102
{ACAD_REACTORS
330
2DF
330
2E0
102
}
330
A0
100
AcDbEntity
  8
0
  6
Continuous
 62
     2
100
AcDbLine
 10
22.62335319160357
 20
-32.5066649101347
 30
0.0
 11
22.62335319160357
 21
-33.64093701897838
 31
0.0
  0
LINE
  5
207
102
{ACAD_REACTORS
330
2DF
330
2E0
102
}
330
A0
100
AcDbEntity
  8
0
  6
Continuous
 62
     2
100
AcDbLine
 10
23.67301076951097
 20
-32.5066649101347
 30
0.0
 11
22.62335319160357
 21
-32.5066649101347
 31
0.0
  0
LINE
  5
208
102
{ACAD_REACTORS
330
2DF
330
2E0
102
}
330
A0
100
AcDbEntity
  8
0
  6
Continuous
 62
     2
100
AcDbLine
 10
23.67301076951097
 20
-30.58712749516729
 30
0.0
 11
24.86580347167745
 21
-30.58712749516729
 31
0.0
  0
LINE
  5
209
102
{ACAD_REACTORS
330
2DF
330
2E0
102
}
330
A0
100
AcDbEntity
  8
0
  6
Continuous
 62
     2
100
AcDbLine
 10
23.67301076951097
 20
-31.65596082850186
 30
0.0
 11
23.67301076951097
 21
-30.58712749516729
 31
0.0
  0
LINE
  5
20A
102
{ACAD_REACTORS
330
2F1
330
2F2
102
}
330
A0
100
AcDbEntity
  8
0
  6
Continuous
 62
     2
100
AcDbLine
 10
29.68468598843197
 20
-31.28514110061019
 30
0.0
 11
29.68468598843197
 21
-30.58712749516729
 31
0.0
  0
LINE
  5
20B
102
{ACAD_REACTORS
330
2F1
330
2F2
102
}
330
A0
100
AcDbEntity
  8
0
  6
Continuous
 62
     2
100
AcDbLine
 10
26.53436626465106
 20
-30.58712749516729
 30
0.0
 11
29.68468598843197
 21
-30.58712749516729
 31
0.0
  0
LINE
  5
20C
102
{ACAD_REACTORS
330
2F1
330
2F2
102
}
330
A0
100
AcDbEntity
  8
0
  6
Continuous
 62
     2
100
AcDbLine
 10
26.53436626465106
 20
-33.64093701897838
 30
0.0
 11
29.68468598843197
 21
-33.64093701897838
 31
0.0
  0
LINE
  5
20D
102
{ACAD_REACTORS
330
2F1
330
2F2
102
}
330
A0
100
AcDbEntity
  8
0
  6
Continuous
 62
     2
100
AcDbLine
 10
29.68468598843197
 20
-33.64093701897838
 30
0.0
 11
29.68468598843197
 21
-32.94292341353599
 31
0.0
  0
LINE
  5
20E
102
{ACAD_REACTORS
330
2F1
330
2F2
102
}
330
A0
100
AcDbEntity
  8
0
  6
Continuous
 62
     2
100
AcDbLine
 10
29.68468598843197
 20
-32.94292341353599
 30
0.0
 11
28.34875816200434
 21
-32.94292341353599
 31
0.0
  0
LINE
  5
20F
102
{ACAD_REACTORS
330
2F1
330
2F2
102
}
330
A0
100
AcDbEntity
  8
0
  6
Continuous
 62
     2
100
AcDbLine
 10
28.34875816200434
 20
-32.94292341353599
 30
0.0
 11
28.34875816200434
 21
-32.46303905979426
 31
0.0
  0
LINE
  5
210
102
{ACAD_REACTORS
330
2F1
330
2F2
102
}
330
A0
100
AcDbEntity
  8
0
  6
Continuous
 62
     2
100
AcDbLine
 10
28.34875816200434
 20
-31.28514110061019
 30
0.0
 11
29.68468598843197
 21
-31.28514110061019
 31
0.0
  0
LINE
  5
211
102
{ACAD_REACTORS
330
2E1
330
2E2
102
}
330
A0
100
AcDbEntity
  8
0
  6
Continuous
 62
     2
100
AcDbLine
 10
25.86759841061277
 20
-37.0001274951527
 30
0.0
 11
25.86759841061277
 21
-35.6913519849482
 31
0.0
  0
LINE
  5
212
102
{ACAD_REACTORS
330
2E1
330
2E2
102
}
330
A0
100
AcDbEntity
  8
0
  6
Continuous
 62
     2
100
AcDbLine
 10
25.86759841061277
 20
-35.6913519849482
 30
0.0
 11
27.10810282086575
 21
-37.0001274951527
 31
0.0
  0
LINE
  5
213
102
{ACAD_REACTORS
330
2E1
330
2E2
102
}
330
A0
100
AcDbEntity
  8
0
  6
Continuous
 62
     2
100
AcDbLine
 10
28.30089552303215
 20
-37.0001274951527
 30
0.0
 11
28.30089552303215
 21
-33.94631797134156
 31
0.0
  0
LINE
  5
214
102
{ACAD_REACTORS
330
2E1
330
2E2
102
}
330
A0
100
AcDbEntity
  8
0
  6
Continuous
 62
     2
100
AcDbLine
 10
28.30089552303215
 20
-33.94631797134156
 30
0.0
 11
27.10810282086575
 21
-33.94631797134156
 31
0.0
  0
LINE
  5
215
102
{ACAD_REACTORS
330
2E1
330
2E2
102
}
330
A0
100
AcDbEntity
  8
0
  6
Continuous
 62
     2
100
AcDbLine
 10
27.10810282086575
 20
-33.94631797134156
 30
0.0
 11
27.10810282086575
 21
-35.25509348154679
 31
0.0
  0
LINE
  5
216
102
{ACAD_REACTORS
330
2E1
330
2E2
102
}
330
A0
100
AcDbEntity
  8
0
  6
Continuous
 62
     2
100
AcDbLine
 10
27.10810282086575
 20
-35.25509348154679
 30
0.0
 11
25.86759841061277
 21
-33.94631797134156
 31
0.0
  0
LINE
  5
217
102
{ACAD_REACTORS
330
2E3
330
2E4
102
}
330
A0
100
AcDbEntity
  8
0
  6
Continuous
 62
     2
100
AcDbLine
 10
31.11603723103136
 20
-32.33216150877365
 30
0.0
 11
32.35654164128545
 21
-33.64093701897838
 31
0.0
  0
LINE
  5
218
102
{ACAD_REACTORS
330
2E3
330
2E4
102
}
330
A0
100
AcDbEntity
  8
0
  6
Continuous
 62
     2
100
AcDbLine
 10
32.35654164128545
 20
-33.64093701897838
 30
0.0
 11
33.54933434345205
 21
-33.64093701897838
 31
0.0
  0
LINE
  5
219
102
{ACAD_REACTORS
330
2E3
330
2E4
102
}
330
A0
100
AcDbEntity
  8
0
  6
Continuous
 62
     2
100
AcDbLine
 10
33.54933434345205
 20
-33.64093701897838
 30
0.0
 11
33.54933434345205
 21
-30.58712749516729
 31
0.0
  0
LINE
  5
21A
102
{ACAD_REACTORS
330
2E3
330
2E4
102
}
330
A0
100
AcDbEntity
  8
0
  6
Continuous
 62
     2
100
AcDbLine
 10
33.54933434345205
 20
-30.58712749516729
 30
0.0
 11
32.35654164128545
 21
-30.58712749516729
 31
0.0
  0
LINE
  5
21B
102
{ACAD_REACTORS
330
2E3
330
2E4
102
}
330
A0
100
AcDbEntity
  8
0
  6
Continuous
 62
     2
100
AcDbLine
 10
32.35654164128545
 20
-31.89590300537236
 30
0.0
 11
31.11603723103136
 21
-30.58712749516729
 31
0.0
  0
LINE
  5
21C
102
{ACAD_REACTORS
330
2E3
330
2E4
102
}
330
A0
100
AcDbEntity
  8
0
  6
Continuous
 62
     2
100
AcDbLine
 10
29.92324452886496
 20
-33.64093701897838
 30
0.0
 11
31.11603723103136
 21
-33.64093701897838
 31
0.0
  0
LINE
  5
21D
102
{ACAD_REACTORS
330
2E5
330
2E6
102
}
330
A0
100
AcDbEntity
  8
0
  6
Continuous
 62
     2
100
AcDbLine
 10
28.44403064729227
 20
-33.94631797134156
 30
0.0
 11
28.44403064729227
 21
-34.73158327746529
 31
0.0
  0
LINE
  5
21E
102
{ACAD_REACTORS
330
2E5
330
2E6
102
}
330
A0
100
AcDbEntity
  8
0
  6
Continuous
 62
     2
100
AcDbLine
 10
29.25512968476696
 20
-34.73158327746529
 30
0.0
 11
29.25512968476696
 21
-37.0001274951527
 31
0.0
  0
LINE
  5
21F
102
{ACAD_REACTORS
330
2E5
330
2E6
102
}
330
A0
100
AcDbEntity
  8
0
  6
Continuous
 62
     2
100
AcDbLine
 10
29.25512968476696
 20
-37.0001274951527
 30
0.0
 11
30.44792238693336
 21
-37.0001274951527
 31
0.0
  0
LINE
  5
220
102
{ACAD_REACTORS
330
2E7
330
2E8
102
}
330
A0
100
AcDbEntity
  8
0
  6
Continuous
 62
     2
100
AcDbLine
 10
33.39744888035295
 20
-37.0001274951527
 30
0.0
 11
33.18596882687717
 21
-36.4591669509349
 31
0.0
  0
LINE
  5
221
102
{ACAD_REACTORS
330
2E7
330
2E8
102
}
330
A0
100
AcDbEntity
  8
0
  6
Continuous
 62
     2
100
AcDbLine
 10
33.24000024366657
 20
-33.94631797134156
 30
0.0
 11
34.63795329060685
 21
-37.0001274951527
 31
0.0
  0
LINE
  5
222
102
{ACAD_REACTORS
330
2E7
330
2E8
102
}
330
A0
100
AcDbEntity
  8
0
  6
Continuous
 62
     2
100
AcDbLine
 10
31.99949583341376
 20
-33.94631797134156
 30
0.0
 11
33.24000024366657
 21
-33.94631797134156
 31
0.0
  0
LINE
  5
223
102
{ACAD_REACTORS
330
2E7
330
2E8
102
}
330
A0
100
AcDbEntity
  8
0
  6
Continuous
 62
     2
100
AcDbLine
 10
30.60154278647457
 20
-37.0001274951527
 30
0.0
 11
31.84204719672746
 21
-37.0001274951527
 31
0.0
  0
LINE
  5
224
102
{ACAD_REACTORS
330
2E7
330
2E8
102
}
330
A0
100
AcDbEntity
  8
0
  6
Continuous
 62
     2
100
AcDbLine
 10
32.31958280134836
 20
-35.7786036856283
 30
0.0
 11
32.91991327573086
 21
-35.7786036856283
 31
0.0
  0
LINE
  5
225
102
{ACAD_REACTORS
330
2E7
330
2E8
102
}
330
A0
100
AcDbEntity
  8
0
  6
Continuous
 62
     2
100
AcDbLine
 10
32.91991327573086
 20
-35.7786036856283
 30
0.0
 11
32.61974803854065
 21
-35.0107887196416
 31
0.0
  0
LINE
  5
226
102
{ACAD_REACTORS
330
2E9
330
2EA
102
}
330
A0
100
AcDbEntity
  8
0
  6
Continuous
 62
     2
100
AcDbLine
 10
35.02839729413887
 20
-33.64093701897838
 30
0.0
 11
33.78789288388595
 21
-33.64093701897838
 31
0.0
  0
LINE
  5
227
102
{ACAD_REACTORS
330
2EB
330
2EC
102
}
330
A0
100
AcDbEntity
  8
0
  6
Continuous
 62
     2
100
AcDbLine
 10
36.55040078210385
 20
-33.64093701897838
 30
0.0
 11
35.14767656435575
 21
-33.64093701897838
 31
0.0
  0
LINE
  5
228
102
{ACAD_REACTORS
330
2EB
330
2EC
102
}
330
A0
100
AcDbEntity
  8
0
  6
Continuous
 62
     2
100
AcDbLine
 10
36.55040078210385
 20
-33.64093701897838
 30
0.0
 11
37.24699172016966
 21
-32.85320523368466
 31
0.0
  0
LINE
  5
229
102
{ACAD_REACTORS
330
2EB
330
2EC
102
}
330
A0
100
AcDbEntity
  8
0
  6
Continuous
 62
     2
100
AcDbLine
 10
37.84815924206245
 20
-30.58712749516729
 30
0.0
 11
39.25088345980967
 21
-30.58712749516729
 31
0.0
  0
LINE
  5
22A
102
{ACAD_REACTORS
330
2EB
330
2EC
102
}
330
A0
100
AcDbEntity
  8
0
  6
Continuous
 62
     2
100
AcDbLine
 10
35.24309998052857
 20
-30.58712749516729
 30
0.0
 11
36.54562961129605
 21
-32.0600780252035
 31
0.0
  0
LINE
  5
22B
102
{ACAD_REACTORS
330
2EB
330
2EC
102
}
330
A0
100
AcDbEntity
  8
0
  6
Continuous
 62
     2
100
AcDbLine
 10
35.14767656435575
 20
-33.64093701897838
 30
0.0
 11
36.54562961129605
 21
-32.0600780252035
 31
0.0
  0
LINE
  5
22C
102
{ACAD_REACTORS
330
2F5
330
2F6
102
}
330
A0
100
AcDbEntity
  8
0
  6
Continuous
 62
     2
100
AcDbLine
 10
37.00843317973556
 20
-35.95310708698906
 30
0.0
 11
37.00843317973556
 21
-36.82562409379239
 31
0.0
  0
LINE
  5
22D
102
{ACAD_REACTORS
330
2F5
330
2F6
102
}
330
A0
100
AcDbEntity
  8
0
  6
Continuous
 62
     2
100
AcDbLine
 10
36.23877583677415
 20
-34.73158327746529
 30
0.0
 11
37.34241513634225
 21
-34.73158327746529
 31
0.0
  0
LINE
  5
22E
102
{ACAD_REACTORS
330
2F7
330
2F8
102
}
330
A0
100
AcDbEntity
  8
0
  6
Continuous
 62
     2
100
AcDbLine
 10
20.90573170048376
 20
-35.95310708698855
 30
0.0
 11
20.90573170048376
 21
-36.82562409379187
 31
0.0
  0
LINE
  5
22F
102
{ACAD_REACTORS
330
2F7
330
2F8
102
}
330
A0
100
AcDbEntity
  8
0
  6
Continuous
 62
     2
100
AcDbLine
 10
20.90573170048376
 20
-34.99333837950576
 30
0.0
 11
20.90573170048376
 21
-34.12082137270249
 31
0.0
  0
LINE
  5
230
330
A0
100
AcDbEntity
  8
1
  6
Continuous
 62
     7
100
AcDbLine
 10
136.7431072854675
 20
-35.79362749516906
 30
0.0
 11
43.59830275871627
 21
-35.79362749516906
 31
0.0
  0
LINE
  5
231
330
A0
100
AcDbEntity
  8
1
  6
Continuous
 62
     7
100
AcDbLine
 10
127.8246990037889
 20
-18.79362749516906
 30
0.0
 11
127.8246990037889
 21
-27.29362749516906
 31
0.0
  0
LINE
  5
232
330
A0
100
AcDbEntity
  8
1
  6
Continuous
 62
     7
100
AcDbLine
 10
101.3246990037892
 20
-18.79362749516906
 30
0.0
 11
101.3246990037892
 21
-27.29362749516906
 31
0.0
  0
LINE
  5
233
330
A0
100
AcDbEntity
  8
1
  6
Continuous
 62
     7
100
AcDbLine
 10
43.59830275871627
 20
-27.29362749516906
 30
0.0
 11
43.59830275871627
 21
-18.79362749516906
 31
0.0
  0
LINE
  5
234
330
A0
100
AcDbEntity
  8
1
  6
Continuous
 62
     7
100
AcDbLine
 10
7.19830275871635
 20
-27.29362749516906
 30
0.0
 11
7.19830275871635
 21
-18.79362749516906
 31
0.0
  0
LINE
  5
235
330
A0
100
AcDbEntity
  8
1
  6
Continuous
 62
     6
100
AcDbLine
 10
43.59830275871627
 20
-27.29362749516906
 30
0.0
 11
136.7431072854681
 21
-27.29362749516906
 31
0.0
  0
LINE
  5
236
330
A0
100
AcDbEntity
  8
1
  6
Continuous
 62
     7
100
AcDbLine
 10
71.49830275871626
 20
-35.79362749516906
 30
0.0
 11
71.49830275871626
 21
-27.29362749516906
 31
0.0
  0
LINE
  5
237
330
A0
100
AcDbEntity
  8
1
  6
Continuous
 62
     6
100
AcDbLine
 10
136.7431072854681
 20
-27.29362749516906
 30
0.0
 11
136.7431072854681
 21
-18.79362749516906
 31
0.0
  0
LINE
  5
238
330
A0
100
AcDbEntity
  8
1
  6
Continuous
 62
     2
100
AcDbLine
 10
0.07644061879967
 20
-44.29362749517139
 30
0.0
 11
0.07644061879967
 21
-44.29362749516849
 31
0.0
  0
LINE
  5
239
330
A0
100
AcDbEntity
  8
1
  6
Continuous
 62
     6
100
AcDbLine
 10
-136.5902260478668
 20
-44.29362749516849
 30
0.0
 11
7.19830275871635
 21
-44.29362749517156
 31
0.0
  0
LINE
  5
23A
330
A0
100
AcDbEntity
  8
1
  6
Continuous
 62
     6
100
AcDbLine
 10
136.7431072854662
 20
-44.29362749516901
 30
0.0
 11
136.7431072854658
 21
-35.79362749516906
 31
0.0
  0
LINE
  5
23B
330
A0
100
AcDbEntity
  8
1
  6
Continuous
 62
     6
100
AcDbLine
 10
-258.2568927145335
 20
-44.29362749516849
 30
0.0
 11
-258.2568927145344
 21
242.7063725048317
 31
0.0
  0
LINE
  5
23C
330
A0
100
AcDbEntity
  8
1
  6
Continuous
 62
     2
100
AcDbLine
 10
-278.2568927145345
 20
99.20637250483153
 30
0.0
 11
-278.2568927145345
 21
-49.29362749516849
 31
0.0
  0
LINE
  5
23D
330
A0
100
AcDbEntity
  8
1
  6
Continuous
 62
     2
100
AcDbLine
 10
-278.2568927145345
 20
99.20637250483153
 30
0.0
 11
-268.2568927145344
 21
99.20637250483153
 31
0.0
  0
LINE
  5
23E
330
A0
100
AcDbEntity
  8
1
  6
Continuous
 62
     2
100
AcDbLine
 10
-278.2568927145345
 20
247.7063725048315
 30
0.0
 11
-278.2568927145345
 21
99.20637250483153
 31
0.0
  0
LINE
  5
23F
330
A0
100
AcDbEntity
  8
1
  6
Continuous
 62
     2
100
AcDbLine
 10
-48.25689271453655
 20
247.7063725048315
 30
0.0
 11
-68.25689271453373
 21
247.7063725048315
 31
0.0
  0
LINE
  5
240
330
A0
100
AcDbEntity
  8
1
  6
Continuous
 62
     2
100
AcDbLine
 10
-48.25689271453655
 20
247.7063725048315
 30
0.0
 11
-48.25689271453655
 21
243.7063725048317
 31
0.0
  0
LINE
  5
241
330
A0
100
AcDbEntity
  8
1
  6
Continuous
 62
     2
100
AcDbLine
 10
-258.2568927145344
 20
247.7063725048315
 30
0.0
 11
-278.2568927145345
 21
247.7063725048315
 31
0.0
  0
LINE
  5
242
330
A0
100
AcDbEntity
  8
1
  6
Continuous
 62
     2
100
AcDbLine
 10
-258.2568927145344
 20
247.7063725048315
 30
0.0
 11
-258.2568927145344
 21
243.7063725048317
 31
0.0
  0
LINE
  5
243
330
A0
100
AcDbEntity
  8
1
  6
Continuous
 62
     2
100
AcDbLine
 10
-204.9235593812004
 20
247.7063725048315
 30
0.0
 11
-258.2568927145344
 21
247.7063725048315
 31
0.0
  0
LINE
  5
244
330
A0
100
AcDbEntity
  8
1
  6
Continuous
 62
     6
100
AcDbLine
 10
-204.9235593812004
 20
242.7063725048317
 30
0.0
 11
-136.5902260478668
 21
242.7063725048315
 31
0.0
  0
LINE
  5
245
330
A0
100
AcDbEntity
  8
1
  6
Continuous
 62
     2
100
AcDbLine
 10
-204.9235593812004
 20
242.7063725048317
 30
0.0
 11
-204.9235593812004
 21
247.7063725048315
 31
0.0
  0
LINE
  5
246
330
A0
100
AcDbEntity
  8
1
  6
Continuous
 62
     2
100
AcDbLine
 10
-136.5902260478668
 20
247.7063725048315
 30
0.0
 11
-204.9235593812004
 21
247.7063725048315
 31
0.0
  0
LINE
  5
247
330
A0
100
AcDbEntity
  8
1
  6
Continuous
 62
     6
100
AcDbLine
 10
-136.5902260478668
 20
242.7063725048315
 30
0.0
 11
-68.25689271453373
 21
242.7063725048315
 31
0.0
  0
LINE
  5
248
330
A0
100
AcDbEntity
  8
1
  6
Continuous
 62
     2
100
AcDbLine
 10
-136.5902260478668
 20
242.7063725048315
 30
0.0
 11
-136.5902260478668
 21
247.7063725048315
 31
0.0
  0
LINE
  5
249
330
A0
100
AcDbEntity
  8
1
  6
Continuous
 62
     2
100
AcDbLine
 10
-68.25689271453373
 20
247.7063725048315
 30
0.0
 11
-136.5902260478668
 21
247.7063725048315
 31
0.0
  0
LINE
  5
24A
330
A0
100
AcDbEntity
  8
1
  6
Continuous
 62
     6
100
AcDbLine
 10
-68.25689271453373
 20
242.7063725048315
 30
0.0
 11
0.07644061879967
 21
242.7063725048315
 31
0.0
  0
LINE
  5
24B
330
A0
100
AcDbEntity
  8
1
  6
Continuous
 62
     2
100
AcDbLine
 10
-68.25689271453373
 20
242.7063725048315
 30
0.0
 11
-68.25689271453373
 21
247.7063725048315
 31
0.0
  0
LINE
  5
24C
330
A0
100
AcDbEntity
  8
1
  6
Continuous
 62
     2
100
AcDbLine
 10
0.07644061879967
 20
247.7063725048315
 30
0.0
 11
-48.25689271453655
 21
247.7063725048315
 31
0.0
  0
LINE
  5
24D
330
A0
100
AcDbEntity
  8
1
  6
Continuous
 62
     6
100
AcDbLine
 10
0.07644061879967
 20
242.7063725048315
 30
0.0
 11
68.40977395213285
 21
242.7063725048315
 31
0.0
  0
LINE
  5
24E
330
A0
100
AcDbEntity
  8
1
  6
Continuous
 62
     2
100
AcDbLine
 10
0.07644061879967
 20
242.7063725048315
 30
0.0
 11
0.07644061879967
 21
247.7063725048315
 31
0.0
  0
LINE
  5
24F
330
A0
100
AcDbEntity
  8
1
  6
Continuous
 62
     2
100
AcDbLine
 10
68.40977395213285
 20
247.7063725048315
 30
0.0
 11
0.07644061879967
 21
247.7063725048315
 31
0.0
  0
LINE
  5
250
330
A0
100
AcDbEntity
  8
1
  6
Continuous
 62
     6
100
AcDbLine
 10
68.40977395213285
 20
242.7063725048315
 30
0.0
 11
136.7431072854638
 21
242.7063725048315
 31
0.0
  0
LINE
  5
251
330
A0
100
AcDbEntity
  8
1
  6
Continuous
 62
     2
100
AcDbLine
 10
68.40977395213285
 20
242.7063725048315
 30
0.0
 11
68.40977395213285
 21
247.7063725048315
 31
0.0
  0
LINE
  5
252
330
A0
100
AcDbEntity
  8
1
  6
Continuous
 62
     2
100
AcDbLine
 10
136.7431072854638
 20
247.7063725048315
 30
0.0
 11
68.40977395213285
 21
247.7063725048315
 31
0.0
  0
LINE
  5
253
330
A0
100
AcDbEntity
  8
1
  6
Continuous
 62
     6
100
AcDbLine
 10
-258.2568927145344
 20
242.7063725048317
 30
0.0
 11
-204.9235593812004
 21
242.7063725048317
 31
0.0
  0
LINE
  5
254
330
A0
100
AcDbEntity
  8
1
  6
Continuous
 62
     6
100
AcDbLine
 10
136.7431072854663
 20
70.50637250483172
 30
0.0
 11
136.7431072854662
 21
13.10637250483163
 31
0.0
  0
LINE
  5
255
330
A0
100
AcDbEntity
  8
1
  6
Continuous
 62
     2
100
AcDbLine
 10
136.7431072854663
 20
70.50637250483172
 30
0.0
 11
141.7431072854638
 21
70.50637250483172
 31
0.0
  0
LINE
  5
256
330
A0
100
AcDbEntity
  8
1
  6
Continuous
 62
     2
100
AcDbLine
 10
141.7431072854638
 20
127.9063725048315
 30
0.0
 11
141.7431072854638
 21
70.50637250483172
 31
0.0
  0
LINE
  5
257
330
A0
100
AcDbEntity
  8
1
  6
Continuous
 62
     6
100
AcDbLine
 10
136.7431072854663
 20
127.9063725048315
 30
0.0
 11
136.7431072854663
 21
70.50637250483172
 31
0.0
  0
LINE
  5
258
330
A0
100
AcDbEntity
  8
1
  6
Continuous
 62
     2
100
AcDbLine
 10
136.7431072854663
 20
127.9063725048315
 30
0.0
 11
141.7431072854638
 21
127.9063725048315
 31
0.0
  0
LINE
  5
259
330
A0
100
AcDbEntity
  8
1
  6
Continuous
 62
     2
100
AcDbLine
 10
141.7431072854638
 20
185.3063725048314
 30
0.0
 11
141.7431072854638
 21
127.9063725048315
 31
0.0
  0
LINE
  5
25A
330
A0
100
AcDbEntity
  8
1
  6
Continuous
 62
     6
100
AcDbLine
 10
136.7431072854643
 20
185.3063725048314
 30
0.0
 11
136.7431072854663
 21
127.9063725048315
 31
0.0
  0
LINE
  5
25B
330
A0
100
AcDbEntity
  8
1
  6
Continuous
 62
     2
100
AcDbLine
 10
136.7431072854643
 20
185.3063725048314
 30
0.0
 11
141.7431072854638
 21
185.3063725048314
 31
0.0
  0
LINE
  5
25C
330
A0
100
AcDbEntity
  8
1
  6
Continuous
 62
     2
100
AcDbLine
 10
141.7431072854638
 20
242.7063725048315
 30
0.0
 11
141.7431072854638
 21
185.3063725048314
 31
0.0
  0
LINE
  5
25D
330
A0
100
AcDbEntity
  8
1
  6
Continuous
 62
     2
100
AcDbLine
 10
136.7431072854638
 20
242.7063725048315
 30
0.0
 11
141.7431072854638
 21
242.7063725048315
 31
0.0
  0
LINE
  5
25E
330
A0
100
AcDbEntity
  8
1
  6
Continuous
 62
     2
100
AcDbLine
 10
136.7431072854638
 20
242.7063725048315
 30
0.0
 11
136.7431072854638
 21
247.7063725048315
 31
0.0
  0
LINE
  5
25F
330
A0
100
AcDbEntity
  8
1
  6
Continuous
 62
     2
100
AcDbLine
 10
141.7431072854638
 20
247.7063725048315
 30
0.0
 11
141.7431072854638
 21
242.7063725048315
 31
0.0
  0
LINE
  5
260
330
A0
100
AcDbEntity
  8
1
  6
Continuous
 62
     6
100
AcDbLine
 10
136.7431072854638
 20
242.7063725048315
 30
0.0
 11
136.7431072854643
 21
185.3063725048314
 31
0.0
  0
LINE
  5
261
330
A0
100
AcDbEntity
  8
1
  6
Continuous
 62
     2
100
AcDbLine
 10
141.7431072854638
 20
247.7063725048315
 30
0.0
 11
136.7431072854638
 21
247.7063725048315
 31
0.0
  0
LINE
  5
262
330
A0
100
AcDbEntity
  8
1
  6
Continuous
 62
     2
100
AcDbLine
 10
141.7431072854638
 20
-44.29362749516849
 30
0.0
 11
141.7431072854638
 21
13.10637250483163
 31
0.0
  0
LINE
  5
263
330
A0
100
AcDbEntity
  8
1
  6
Continuous
 62
     2
100
AcDbLine
 10
141.7431072854638
 20
-44.29362749516849
 30
0.0
 11
141.7431072854638
 21
-49.29362749516849
 31
0.0
  0
LINE
  5
264
330
A0
100
AcDbEntity
  8
1
  6
Continuous
 62
     2
100
AcDbLine
 10
141.7431072854638
 20
-49.29362749516849
 30
0.0
 11
136.7431072854663
 21
-49.29362749516849
 31
0.0
  0
LINE
  5
265
330
A0
100
AcDbEntity
  8
1
  6
Continuous
 62
     2
100
AcDbLine
 10
0.07644061879967
 20
-49.29362749516849
 30
0.0
 11
68.40977395213285
 21
-49.29362749516849
 31
0.0
  0
LINE
  5
266
330
A0
100
AcDbEntity
  8
1
  6
Continuous
 62
     2
100
AcDbLine
 10
-48.25689271453655
 20
-49.29362749516849
 30
0.0
 11
0.07644061879967
 21
-49.29362749516849
 31
0.0
  0
LINE
  5
267
330
A0
100
AcDbEntity
  8
1
  6
Continuous
 62
     2
100
AcDbLine
 10
-48.25689271453655
 20
-49.29362749516849
 30
0.0
 11
-48.25689271453655
 21
-45.29362749516849
 31
0.0
  0
LINE
  5
268
330
A0
100
AcDbEntity
  8
1
  6
Continuous
 62
     2
100
AcDbLine
 10
-48.25689271453655
 20
-49.29362749516849
 30
0.0
 11
-68.25689271453373
 21
-49.29362749516849
 31
0.0
  0
LINE
  5
269
330
A0
100
AcDbEntity
  8
1
  6
Continuous
 62
     2
100
AcDbLine
 10
-258.2568927145344
 20
-49.29362749516849
 30
0.0
 11
-204.9235593812004
 21
-49.29362749516849
 31
0.0
  0
LINE
  5
26A
330
A0
100
AcDbEntity
  8
1
  6
Continuous
 62
     2
100
AcDbLine
 10
-258.2568927145344
 20
-49.29362749516849
 30
0.0
 11
-258.2568927145344
 21
-45.29362749516849
 31
0.0
  0
LINE
  5
26B
330
A0
100
AcDbEntity
  8
1
  6
Continuous
 62
     2
100
AcDbLine
 10
-136.5902260478668
 20
-49.29362749516849
 30
0.0
 11
-136.5902260478668
 21
-44.29362749516849
 31
0.0
  0
LINE
  5
26C
330
A0
100
AcDbEntity
  8
1
  6
Continuous
 62
     6
100
AcDbLine
 10
-204.9235593812004
 20
-44.29362749516849
 30
0.0
 11
-258.2568927145335
 21
-44.29362749516849
 31
0.0
  0
LINE
  5
26D
330
A0
100
AcDbEntity
  8
1
  6
Continuous
 62
     6
100
AcDbLine
 10
-204.9235593812004
 20
-44.29362749516849
 30
0.0
 11
-136.5902260478668
 21
-44.29362749516849
 31
0.0
  0
LINE
  5
26E
330
A0
100
AcDbEntity
  8
1
  6
Continuous
 62
     2
100
AcDbLine
 10
-204.9235593812004
 20
-49.29362749516849
 30
0.0
 11
-136.5902260478668
 21
-49.29362749516849
 31
0.0
  0
LINE
  5
26F
330
A0
100
AcDbEntity
  8
1
  6
Continuous
 62
     2
100
AcDbLine
 10
-204.9235593812004
 20
-49.29362749516849
 30
0.0
 11
-204.9235593812004
 21
-44.29362749516849
 31
0.0
  0
LINE
  5
270
330
A0
100
AcDbEntity
  8
1
  6
Continuous
 62
     2
100
AcDbLine
 10
-258.2568927145344
 20
-49.29362749516849
 30
0.0
 11
-278.2568927145345
 21
-49.29362749516849
 31
0.0
  0
LINE
  5
271
330
A0
100
AcDbEntity
  8
1
  6
Continuous
 62
     2
100
AcDbLine
 10
141.7431072854638
 20
13.10637250483163
 30
0.0
 11
136.7431072854662
 21
13.10637250483163
 31
0.0
  0
LINE
  5
272
330
A0
100
AcDbEntity
  8
1
  6
Continuous
 62
     2
100
AcDbLine
 10
141.7431072854638
 20
13.10637250483163
 30
0.0
 11
141.7431072854638
 21
70.50637250483172
 31
0.0
  0
LINE
  5
273
330
A0
100
AcDbEntity
  8
1
  6
Continuous
 62
     2
100
AcDbLine
 10
-68.25689271453373
 20
-49.29362749516849
 30
0.0
 11
-68.25689271453373
 21
-44.29362749516849
 31
0.0
  0
LINE
  5
274
330
A0
100
AcDbEntity
  8
1
  6
Continuous
 62
     2
100
AcDbLine
 10
0.07644061879967
 20
-49.29362749516849
 30
0.0
 11
0.07644061879967
 21
-44.29362749517139
 31
0.0
  0
LINE
  5
275
330
A0
100
AcDbEntity
  8
1
  6
Continuous
 62
     2
100
AcDbLine
 10
68.40977395213285
 20
-49.29362749516849
 30
0.0
 11
68.40977395213285
 21
-44.29362749516849
 31
0.0
  0
LINE
  5
276
330
A0
100
AcDbEntity
  8
1
  6
Continuous
 62
     2
100
AcDbLine
 10
68.40977395213285
 20
-49.29362749516849
 30
0.0
 11
136.7431072854663
 21
-49.29362749516849
 31
0.0
  0
LINE
  5
277
330
A0
100
AcDbEntity
  8
1
  6
Continuous
 62
     2
100
AcDbLine
 10
-68.25689271453373
 20
-49.29362749516849
 30
0.0
 11
-136.5902260478668
 21
-49.29362749516849
 31
0.0
  0
LINE
  5
278
330
A0
100
AcDbEntity
  8
1
  6
Continuous
 62
     6
100
AcDbLine
 10
136.7431072854653
 20
-23.04362749516906
 30
0.0
 11
136.7431072854662
 21
13.10637250483163
 31
0.0
  0
LINE
  5
279
330
A0
100
AcDbEntity
  8
1
  6
Continuous
 62
     6
100
AcDbLine
 10
136.7431072854663
 20
-27.29362749516906
 30
0.0
 11
136.7431072854653
 21
-23.04362749516906
 31
0.0
  0
LINE
  5
27A
330
A0
100
AcDbEntity
  8
1
  6
Continuous
 62
     6
100
AcDbLine
 10
136.7431072854658
 20
-35.79362749516906
 30
0.0
 11
136.7431072854663
 21
-27.29362749516906
 31
0.0
  0
LINE
  5
27B
330
A0
100
AcDbEntity
  8
1
  6
Continuous
 62
     6
100
AcDbLine
 10
68.40977395213285
 20
-44.29362749516849
 30
0.0
 11
136.7431072854662
 21
-44.29362749516901
 31
0.0
  0
ARC
  5
27C
102
{ACAD_REACTORS
330
2F7
330
2F8
102
}
330
A0
100
AcDbEntity
  8
0
  6
Continuous
 62
     2
100
AcDbCircle
 10
19.56980378336596
 20
-38.7859036785033
 30
0.0
 40
4.852596863497992
100
AcDbArc
 50
74.02000874164713
 51
84.84185523037617
  0
ARC
  5
27D
102
{ACAD_REACTORS
330
2F7
330
2F8
102
}
330
A0
100
AcDbEntity
  8
0
  6
Continuous
 62
     2
100
AcDbCircle
 10
20.14584439211967
 20
-35.63014332261901
 30
0.0
 40
0.9059297849853554
100
AcDbArc
 50
71.55192388186009
 51
113.3722778881302
  0
ARC
  5
27E
102
{ACAD_REACTORS
330
2F7
330
2F8
102
}
330
A0
100
AcDbEntity
  8
0
  6
Continuous
 62
     2
100
AcDbCircle
 10
19.98940435941756
 20
-35.67829416258599
 30
0.0
 40
0.5115800601947458
100
AcDbArc
 50
208.5214732576837
 51
246.6277221118286
  0
ARC
  5
27F
102
{ACAD_REACTORS
330
2F7
330
2F8
102
}
330
A0
100
AcDbEntity
  8
0
  6
Continuous
 62
     2
100
AcDbCircle
 10
20.14584439211967
 20
-35.31630214387599
 30
0.0
 40
0.9059297849848247
100
AcDbArc
 50
246.6277221118667
 51
288.4480761181537
  0
ARC
  5
280
102
{ACAD_REACTORS
330
2F7
330
2F8
102
}
330
A0
100
AcDbEntity
  8
0
  6
Continuous
 62
     2
100
AcDbCircle
 10
19.72767665845876
 20
-34.0627563678388
 30
0.0
 40
2.227384008972719
100
AcDbArc
 50
288.4480761181337
 51
301.9309089499639
  0
ARC
  5
281
102
{ACAD_REACTORS
330
2F3
330
2F4
102
}
330
A0
100
AcDbEntity
  8
0
  6
Continuous
 62
     2
100
AcDbCircle
 10
14.50260292585205
 20
-33.33025433892476
 30
0.0
 40
0.9118481501443934
100
AcDbArc
 50
295.3740086781803
 51
64.62599132180901
  0
ARC
  5
282
102
{ACAD_REACTORS
330
2F3
330
2F4
102
}
330
A0
100
AcDbEntity
  8
0
  6
Continuous
 62
     2
100
AcDbCircle
 10
15.02864562393995
 20
-31.61557745045019
 30
0.0
 40
0.3157169230761815
100
AcDbArc
 50
90.18896704256616
 51
180.0
  0
ARC
  5
283
102
{ACAD_REACTORS
330
2F5
330
2F6
102
}
330
A0
100
AcDbEntity
  8
0
  6
Continuous
 62
     2
100
AcDbCircle
 10
36.23877583677415
 20
-35.68610628429138
 30
0.0
 40
0.9545230068260864
100
AcDbArc
 50
90.0
 51
109.3371432194283
  0
ARC
  5
284
102
{ACAD_REACTORS
330
2F5
330
2F6
102
}
330
A0
100
AcDbEntity
  8
0
  6
Continuous
 62
     2
100
AcDbCircle
 10
36.46946309675195
 20
-35.4732227332475
 30
0.0
 40
0.9410597353350386
100
AcDbArc
 50
151.4785267423569
 51
208.521473257667
  0
ARC
  5
285
102
{ACAD_REACTORS
330
2F5
330
2F6
102
}
330
A0
100
AcDbEntity
  8
0
  6
Continuous
 62
     2
100
AcDbCircle
 10
36.24854587137367
 20
-35.31630214387599
 30
0.0
 40
0.9059297849852208
100
AcDbArc
 50
246.6277221118088
 51
288.4480761180769
  0
ARC
  5
286
102
{ACAD_REACTORS
330
2F5
330
2F6
102
}
330
A0
100
AcDbEntity
  8
0
  6
Continuous
 62
     2
100
AcDbCircle
 10
35.83037813771165
 20
-34.06275636783926
 30
0.0
 40
2.227384008972759
100
AcDbArc
 50
288.4480761181334
 51
301.9309089499395
  0
ARC
  5
287
102
{ACAD_REACTORS
330
2F5
330
2F6
102
}
330
A0
100
AcDbEntity
  8
0
  6
Continuous
 62
     2
100
AcDbCircle
 10
35.67250526261887
 20
-32.16054178799095
 30
0.0
 40
4.852596863498889
100
AcDbArc
 50
275.1581447696373
 51
285.9799912583383
  0
ARC
  5
288
102
{ACAD_REACTORS
330
2F5
330
2F6
102
}
330
A0
100
AcDbEntity
  8
0
  6
Continuous
 62
     2
100
AcDbCircle
 10
35.96136135735475
 20
-35.3604323712126
 30
0.0
 40
1.639695123940496
100
AcDbArc
 50
195.0618917771008
 51
275.1581447696772
  0
ARC
  5
289
102
{ACAD_REACTORS
330
2ED
330
2EE
102
}
330
A0
100
AcDbEntity
  8
0
  6
Continuous
 62
     2
100
AcDbCircle
 10
20.23314804566365
 20
-31.642493136501
 30
0.0
 40
1.055365641333648
100
AcDbArc
 50
270.0
 51
90.0
  0
ARC
  5
28A
102
{ACAD_REACTORS
330
2F3
330
2F4
102
}
330
A0
100
AcDbEntity
  8
0
  6
Continuous
 62
     2
100
AcDbCircle
 10
12.45309693740816
 20
-35.9718550165191
 30
0.0
 40
0.3157169230756001
100
AcDbArc
 50
180.0
 51
270.0
  0
ARC
  5
28B
102
{ACAD_REACTORS
330
2F3
330
2F4
102
}
330
A0
100
AcDbEntity
  8
0
  6
Continuous
 62
     2
100
AcDbCircle
 10
13.92893019841776
 20
-31.61539997380197
 30
0.0
 40
0.3157169230765895
100
AcDbArc
 50
0.0
 51
90.0
  0
ARC
  5
28C
102
{ACAD_REACTORS
330
2F3
330
2F4
102
}
330
A0
100
AcDbEntity
  8
0
  6
Continuous
 62
     2
100
AcDbCircle
 10
13.92893019841776
 20
-32.2194245928626
 30
0.0
 40
0.3157169230760594
100
AcDbArc
 50
295.1944106485677
 51
0.0
  0
ARC
  5
28D
102
{ACAD_REACTORS
330
2F3
330
2F4
102
}
330
A0
100
AcDbEntity
  8
0
  6
Continuous
 62
     2
100
AcDbCircle
 10
13.92893019841776
 20
-35.9718550165191
 30
0.0
 40
0.3157169230767067
100
AcDbArc
 50
270.0
 51
0.0
  0
ARC
  5
28E
102
{ACAD_REACTORS
330
2F3
330
2F4
102
}
330
A0
100
AcDbEntity
  8
0
  6
Continuous
 62
     2
100
AcDbCircle
 10
11.85920226066165
 20
-31.01137211056926
 30
0.0
 40
0.4242446153838877
100
AcDbArc
 50
90.0
 51
180.0
  0
ARC
  5
28F
102
{ACAD_REACTORS
330
2F3
330
2F4
102
}
330
A0
100
AcDbEntity
  8
0
  6
Continuous
 62
     2
100
AcDbCircle
 10
17.33251435137856
 20
-31.01137211056926
 30
0.0
 40
0.4242446153838912
100
AcDbArc
 50
0.0
 51
90.0
  0
ARC
  5
290
102
{ACAD_REACTORS
330
2F3
330
2F4
102
}
330
A0
100
AcDbEntity
  8
0
  6
Continuous
 62
     2
100
AcDbCircle
 10
17.33251435137856
 20
-36.5758828797695
 30
0.0
 40
0.4242446153831949
100
AcDbArc
 50
270.0
 51
0.0
  0
ARC
  5
291
102
{ACAD_REACTORS
330
2F1
330
2F2
102
}
330
A0
100
AcDbEntity
  8
0
  6
Continuous
 62
     2
100
AcDbCircle
 10
26.55089823847007
 20
-32.11403225707306
 30
0.0
 40
0.7717997786795551
100
AcDbArc
 50
321.8795802028383
 51
38.12041979715777
  0
ARC
  5
292
102
{ACAD_REACTORS
330
2F1
330
2F2
102
}
330
A0
100
AcDbEntity
  8
0
  6
Continuous
 62
     2
100
AcDbCircle
 10
26.75063827481625
 20
-32.2707634351936
 30
0.0
 40
0.5179085730134552
100
AcDbArc
 50
218.1204197971346
 51
321.8795802028587
  0
ARC
  5
293
102
{ACAD_REACTORS
330
2EF
330
2F0
102
}
330
A0
100
AcDbEntity
  8
0
  6
Continuous
 62
     2
100
AcDbCircle
 10
23.07063068585595
 20
-35.4732227332475
 30
0.0
 40
1.458034083652024
100
AcDbArc
 50
297.5481481757057
 51
62.45185182429758
  0
ARC
  5
294
102
{ACAD_REACTORS
330
2EF
330
2F0
102
}
330
A0
100
AcDbEntity
  8
0
  6
Continuous
 62
     2
100
AcDbCircle
 10
22.50875090218935
 20
-35.4732227332475
 30
0.0
 40
1.458034083651618
100
AcDbArc
 50
117.54814817566
 51
242.4518518243368
  0
ARC
  5
295
102
{ACAD_REACTORS
330
2EF
330
2F0
102
}
330
A0
100
AcDbEntity
  8
0
  6
Continuous
 62
     2
100
AcDbCircle
 10
22.78969079402276
 20
-36.01179774355029
 30
0.0
 40
2.065479772208689
100
AcDbArc
 50
62.45185182430801
 51
117.5481481756674
  0
ARC
  5
296
102
{ACAD_REACTORS
330
2EF
330
2F0
102
}
330
A0
100
AcDbEntity
  8
0
  6
Continuous
 62
     2
100
AcDbCircle
 10
22.78969079402276
 20
-34.93464772294408
 30
0.0
 40
2.065479772208637
100
AcDbArc
 50
242.4518518243384
 51
297.548148175686
  0
ARC
  5
297
102
{ACAD_REACTORS
330
2F1
330
2F2
102
}
330
A0
100
AcDbEntity
  8
0
  6
Continuous
 62
     2
100
AcDbCircle
 10
26.95037831116247
 20
-32.11403225707306
 30
0.0
 40
0.7717997786796224
100
AcDbArc
 50
141.8795802028486
 51
218.1204197971553
  0
ARC
  5
298
102
{ACAD_REACTORS
330
2F1
330
2F2
102
}
330
A0
100
AcDbEntity
  8
0
  6
Continuous
 62
     2
100
AcDbCircle
 10
26.75063827481625
 20
-31.95730107895258
 30
0.0
 40
0.5179085730133681
100
AcDbArc
 50
38.12041979714011
 51
141.8795802028667
  0
ARC
  5
299
102
{ACAD_REACTORS
330
2F3
330
2F4
102
}
330
A0
100
AcDbEntity
  8
0
  6
Continuous
 62
     2
100
AcDbCircle
 10
11.85920226066165
 20
-36.5758828797695
 30
0.0
 40
0.424244615382781
100
AcDbArc
 50
180.0
 51
270.0
  0
ARC
  5
29A
102
{ACAD_REACTORS
330
2F3
330
2F4
102
}
330
A0
100
AcDbEntity
  8
0
  6
Continuous
 62
     2
100
AcDbCircle
 10
13.92893019841776
 20
-34.44108408498749
 30
0.0
 40
0.3157169230765895
100
AcDbArc
 50
0.0
 51
64.80558935144546
  0
ARC
  5
29B
102
{ACAD_REACTORS
330
2F3
330
2F4
102
}
330
A0
100
AcDbEntity
  8
0
  6
Continuous
 62
     2
100
AcDbCircle
 10
14.45151464599275
 20
-33.33025433892476
 30
0.0
 40
0.9118975235576456
100
AcDbArc
 50
115.1944106485198
 51
244.8055893514909
  0
ARC
  5
29C
102
{ACAD_REACTORS
330
2F3
330
2F4
102
}
330
A0
100
AcDbEntity
  8
0
  6
Continuous
 62
     2
100
AcDbCircle
 10
12.45309693740816
 20
-31.61539997380197
 30
0.0
 40
0.3157169230760815
100
AcDbArc
 50
90.0
 51
180.0
  0
ARC
  5
29D
102
{ACAD_REACTORS
330
2ED
330
2EE
102
}
330
A0
100
AcDbEntity
  8
0
  6
Continuous
 62
     2
100
AcDbCircle
 10
19.79167551942527
 20
-31.60309716527848
 30
0.0
 40
0.3528638246710898
100
AcDbArc
 50
270.0
 51
90.0
  0
ARC
  5
29E
102
{ACAD_REACTORS
330
2F1
330
2F2
102
}
330
A0
100
AcDbEntity
  8
0
  6
Continuous
 62
     2
100
AcDbCircle
 10
26.53436626465106
 20
-32.11403225707306
 30
0.0
 40
1.526904761905772
100
AcDbArc
 50
90.0
 51
270.0
  0
ARC
  5
29F
102
{ACAD_REACTORS
330
2F5
330
2F6
102
}
330
A0
100
AcDbEntity
  8
0
  6
Continuous
 62
     2
100
AcDbCircle
 10
35.96136135735475
 20
-35.58601309528228
 30
0.0
 40
1.639695123940101
100
AcDbArc
 50
90.0
 51
164.938108222899
  0
ARC
  5
2A0
102
{ACAD_REACTORS
330
2F5
330
2F6
102
}
330
A0
100
AcDbEntity
  8
0
  6
Continuous
 62
     2
100
AcDbCircle
 10
35.54223351389305
 20
-35.4732227332475
 30
0.0
 40
1.205656168392972
100
AcDbArc
 50
164.9381082229017
 51
195.0618917770924
  0
ARC
  5
2A1
102
{ACAD_REACTORS
330
2F5
330
2F6
102
}
330
A0
100
AcDbEntity
  8
0
  6
Continuous
 62
     2
100
AcDbCircle
 10
36.09210583867045
 20
-35.67829416258599
 30
0.0
 40
0.5115800601959967
100
AcDbArc
 50
208.5214732576881
 51
246.6277221118403
  0
ARC
  5
2A2
102
{ACAD_REACTORS
330
2F5
330
2F6
102
}
330
A0
100
AcDbEntity
  8
0
  6
Continuous
 62
     2
100
AcDbCircle
 10
36.09210583867045
 20
-35.26815130390838
 30
0.0
 40
0.5115800601944048
100
AcDbArc
 50
109.3371432194823
 51
151.4785267424182
  0
ARC
  5
2A3
102
{ACAD_REACTORS
330
2F3
330
2F4
102
}
330
A0
100
AcDbEntity
  8
0
  6
Continuous
 62
     2
100
AcDbCircle
 10
15.02864562393995
 20
-35.02124734558817
 30
0.0
 40
0.3157169230767902
100
AcDbArc
 50
180.0
 51
269.8110329574338
  0
ARC
  5
2A4
102
{ACAD_REACTORS
330
2F3
330
2F4
102
}
330
A0
100
AcDbEntity
  8
0
  6
Continuous
 62
     2
100
AcDbCircle
 10
15.03426175924997
 20
-33.31841239801918
 30
0.0
 40
2.018561131933273
100
AcDbArc
 50
269.8110329575827
 51
90.18896704241733
  0
ARC
  5
2A5
102
{ACAD_REACTORS
330
2F3
330
2F4
102
}
330
A0
100
AcDbEntity
  8
0
  6
Continuous
 62
     2
100
AcDbCircle
 10
15.02864562393995
 20
-32.221112738957
 30
0.0
 40
0.3157169230767902
100
AcDbArc
 50
180.0
 51
244.6259913216363
  0
ARC
  5
2A6
102
{ACAD_REACTORS
330
2F3
330
2F4
102
}
330
A0
100
AcDbEntity
  8
0
  6
Continuous
 62
     2
100
AcDbCircle
 10
15.02864562393995
 20
-34.43939593889309
 30
0.0
 40
0.3157169230765369
100
AcDbArc
 50
115.3740086783504
 51
180.0
  0
ARC
  5
2A7
102
{ACAD_REACTORS
330
2F7
330
2F8
102
}
330
A0
100
AcDbEntity
  8
0
  6
Continuous
 62
     2
100
AcDbCircle
 10
19.85865987810186
 20
-35.58601309528228
 30
0.0
 40
1.639695123940499
100
AcDbArc
 50
84.84185523036545
 51
164.9381082228903
  0
ARC
  5
2A8
102
{ACAD_REACTORS
330
2F7
330
2F8
102
}
330
A0
100
AcDbEntity
  8
0
  6
Continuous
 62
     2
100
AcDbCircle
 10
19.43953203463906
 20
-35.4732227332475
 30
0.0
 40
1.205656168390975
100
AcDbArc
 50
164.9381082228762
 51
195.0618917770942
  0
ARC
  5
2A9
102
{ACAD_REACTORS
330
2F7
330
2F8
102
}
330
A0
100
AcDbEntity
  8
0
  6
Continuous
 62
     2
100
AcDbCircle
 10
19.85865987810186
 20
-35.3604323712126
 30
0.0
 40
1.639695123939432
100
AcDbArc
 50
195.061891777092
 51
275.1581447696361
  0
ARC
  5
2AA
102
{ACAD_REACTORS
330
2F7
330
2F8
102
}
330
A0
100
AcDbEntity
  8
0
  6
Continuous
 62
     2
100
AcDbCircle
 10
19.56980378336596
 20
-32.16054178799095
 30
0.0
 40
4.852596863498278
100
AcDbArc
 50
275.1581447696237
 51
285.9799912583526
  0
ARC
  5
2AB
102
{ACAD_REACTORS
330
2F7
330
2F8
102
}
330
A0
100
AcDbEntity
  8
0
  6
Continuous
 62
     2
100
AcDbCircle
 10
20.36676161749796
 20
-35.4732227332475
 30
0.0
 40
0.9410597353333356
100
AcDbArc
 50
151.4785267422696
 51
208.5214732576966
  0
ARC
  5
2AC
102
{ACAD_REACTORS
330
2F7
330
2F8
102
}
330
A0
100
AcDbEntity
  8
0
  6
Continuous
 62
     2
100
AcDbCircle
 10
19.98940435941756
 20
-35.26815130390838
 30
0.0
 40
0.5115800601948264
100
AcDbArc
 50
113.3722778881938
 51
151.4785267423163
  0
ARC
  5
2AD
102
{ACAD_REACTORS
330
2F7
330
2F8
102
}
330
A0
100
AcDbEntity
  8
0
  6
Continuous
 62
     2
100
AcDbCircle
 10
19.72767665845876
 20
-36.88368909865557
 30
0.0
 40
2.227384008973475
100
AcDbArc
 50
58.06909105003702
 51
71.55192388186683
  0
ARC
  5
2AE
102
{ACAD_REACTORS
330
2EF
330
2F0
102
}
330
A0
100
AcDbEntity
  8
0
  6
Continuous
 62
     2
100
AcDbCircle
 10
22.78969079402276
 20
-35.31649155512696
 30
0.0
 40
0.5179085730132779
100
AcDbArc
 50
38.12041979716494
 51
141.8795802028564
  0
ARC
  5
2AF
102
{ACAD_REACTORS
330
2EF
330
2F0
102
}
330
A0
100
AcDbEntity
  8
0
  6
Continuous
 62
     2
100
AcDbCircle
 10
22.98943083036875
 20
-35.4732227332475
 30
0.0
 40
0.7717997786795553
100
AcDbArc
 50
141.8795802028276
 51
218.1204197971616
  0
ARC
  5
2B0
102
{ACAD_REACTORS
330
2EF
330
2F0
102
}
330
A0
100
AcDbEntity
  8
0
  6
Continuous
 62
     2
100
AcDbCircle
 10
22.78969079402276
 20
-35.62995391136735
 30
0.0
 40
0.5179085730138395
100
AcDbArc
 50
218.1204197971881
 51
321.8795802027906
  0
ARC
  5
2B1
102
{ACAD_REACTORS
330
2EF
330
2F0
102
}
330
A0
100
AcDbEntity
  8
0
  6
Continuous
 62
     2
100
AcDbCircle
 10
22.58995075767635
 20
-35.4732227332475
 30
0.0
 40
0.771799778679528
100
AcDbArc
 50
321.8795802028434
 51
38.12041979716737
  0
CIRCLE
  5
2B2
330
A0
100
AcDbEntity
  8
1
  6
Continuous
 62
     2
100
AcDbCircle
 10
19.93495764527887
 20
-23.16862749516918
 30
0.0
 40
2.5
  0
CIRCLE
  5
2B3
330
A0
100
AcDbEntity
  8
1
  6
Continuous
 62
     2
100
AcDbCircle
 10
19.93495764527887
 20
-23.16862749516918
 30
0.0
 40
1.25
  0
CIRCLE
  5
2B4
102
{ACAD_REACTORS
330
2F3
330
2F4
102
}
330
A0
100
AcDbEntity
  8
0
  6
Continuous
 62
     2
100
AcDbCircle
 10
14.47878791117927
 20
-33.33025433892476
 30
0.0
 40
0.4709789327784808
  0
MTEXT
  5
2B5
330
A0
100
AcDbEntity
  8
1
 62
     3
100
AcDbMText
 10
-259.8342194031806
 20
-44.26671339566786
 30
0.0
 40
1.8
 41
0.0
 71
     7
 72
     1
  3
Weitergabe sowie Vervielfältigung dieses Dokuments, Verwertung und \PMitteilung seines Inhalts sind verboten, soweit nicht ausdrücklich gestattet. \PZuwiderhandlungen verpflichten zu Schadenersatz. Alle Rechte für den Fall\Pder Patent-, Gebrauchsmus
  1
ter- oder Designeintragung vorbehalten.
  7
CONVERTER_11
 11
0.0
 21
1.0
 31
0.0
 73
     1
 44
0.99639855942377
  0
MTEXT
  5
2B6
330
A0
100
AcDbEntity
  8
1
 62
     3
100
AcDbMText
 10
-259.9884257142744
 20
128.6926566184852
 30
0.0
 40
1.8
 41
0.0
 71
     7
 72
     1
  3
Transfer or duplication of this document as well as the utilisation or\Pcommunication of its content are not permitted unless express consent\Pis granted. Violations give rise to claims for damages. All rights reserved\Pin case of patent, utility mo
  1
del or design patent registrations.
  7
CONVERTER_11
 11
0.0
 21
1.0
 31
0.0
 73
     1
 44
0.99639855942377
  0
TEXT
  5
2B7
330
A0
100
AcDbEntity
  8
1
 62
     2
100
AcDbText
 10
26.39830275871617
 20
-43.05264471016056
 30
0.0
 40
1.8
  1
of
 41
0.9
  7
CONVERTER_11
100
AcDbText
  0
TEXT
  5
2B8
330
A0
100
AcDbEntity
  8
1
 62
     2
100
AcDbText
 10
8.19830275871635
 20
-43.05264471016079
 30
0.0
 40
1.8
  1
page
 41
0.9
  7
CONVERTER_11
100
AcDbText
  0
TEXT
  5
2B9
330
A0
100
AcDbEntity
  8
1
 62
     2
100
AcDbText
 10
16.84456772905836
 20
-43.09287614897096
 30
0.0
 40
1.8
  1
1
 41
0.9
  7
CONVERTER_11
100
AcDbText
  0
TEXT
  5
2BA
330
A0
100
AcDbEntity
  8
1
 62
     2
100
AcDbText
 10
31.63361156852986
 20
-43.04362749516906
 30
0.0
 40
1.8
  1
1
 41
0.9
  7
CONVERTER_11
100
AcDbText
  0
MTEXT
  5
2BC
330
A0
100
AcDbEntity
  8
1
 62
     7
100
AcDbMText
 10
90.17070502209177
 20
-41.04362749516889
 30
0.0
 40
3.0
 41
0.0
 71
     5
 72
     1
  1
CES-SRG-BK-11
  7
CONVERTER_12
 73
     1
 44
1.20048019207683
  0
MTEXT
  5
2BD
330
A0
100
AcDbEntity
  8
1
 62
     2
100
AcDbMText
 10
44.59830275871627
 20
-36.79362749516906
 30
0.0
 40
1.8
 41
0.0
 71
     1
 72
     1
  1
description
  7
CONVERTER_11
 73
     1
 44
1.20048019207683
  0
MTEXT
  5
2BE
330
A0
100
AcDbEntity
  8
1
 62
     3
100
AcDbMText
 10
33.39830275871626
 20
-23.16862749516906
 30
0.0
 40
2.5
 41
0.0
 71
     5
 72
     1
  1
DIN A3
  7
CONVERTER_11
 73
     1
 44
1.20048019207683
  0
MTEXT
  5
2BF
330
A0
100
AcDbEntity
  8
1
 62
     2
100
AcDbMText
 10
-27.21272051049326
 20
-31.54362749517026
 30
0.0
 40
2.0
 41
0.0
 71
     5
 72
     1
  1
General Information\P- Simplified representation\P- Document excluded from change process\P- Linear dimensions [mm]
  7
CONVERTER_11
 73
     1
 44
1.20048019207683
  0
TEXT
  5
2C0
330
A0
100
AcDbEntity
  8
1
 62
     7
100
AcDbText
 10
45.09830275871605
 20
-34.49362749516905
 30
0.0
 40
2.5
  1
0801618
 41
0.81
  7
CONVERTER_12
100
AcDbText
  0
MTEXT
  5
2C1
330
A0
100
AcDbEntity
  8
1
 62
     2
100
AcDbMText
 10
44.69830275871627
 20
-28.29362749516906
 30
0.0
 40
1.8
 41
0.0
 71
     1
 72
     1
  1
ident.-No.
  7
CONVERTER_11
 73
     1
 44
1.20048019207683
  0
MTEXT
  5
2C2
330
A0
100
AcDbEntity
  8
1
 62
     2
100
AcDbMText
 10
128.924699003789
 20
-19.79362749516906
 30
0.0
 40
1.8
 41
0.0
 71
     1
 72
     1
  1
scale
  7
CONVERTER_11
 73
     1
 44
1.20048019207683
  0
MTEXT
  5
2C4
330
A0
100
AcDbEntity
  8
1
 62
     3
100
AcDbMText
 10
132.2839031446286
 20
-25.99362749516899
 30
0.0
 40
2.5
 41
0.0
 71
     8
 72
     1
  1
2:1
  7
CONVERTER_13
 73
     1
 44
1.32052821128451
  0
TEXT
  5
2C5
330
A0
100
AcDbEntity
  8
1
 62
     7
100
AcDbText
 10
44.69830275871627
 20
-25.99362749516905
 30
0.0
 40
2.5
  1
00649826
 41
0.81
  7
CONVERTER_12
100
AcDbText
  0
MTEXT
  5
2C7
330
A0
100
AcDbEntity
  8
1
 62
     2
100
AcDbMText
 10
44.69830275871627
 20
-19.79362749516906
 30
0.0
 40
1.8
 41
0.0
 71
     1
 72
     1
  1
document-No. / RI
  7
CONVERTER_14
 73
     1
 44
1.32052821128451
  0
TEXT
  5
2C8
330
A0
100
AcDbEntity
  8
1
 62
     3
100
AcDbText
 10
72.49830275871626
 20
-34.49362749516905
 30
0.0
 40
2.5
  1
TECDOC 2D_Productdrawing
 41
0.81
  7
CONVERTER_12
100
AcDbText
  0
MTEXT
  5
2C9
330
A0
100
AcDbEntity
  8
1
 62
     2
100
AcDbMText
 10
72.49830275871626
 20
-28.29362749516906
 30
0.0
 40
1.8
 41
0.0
 71
     1
 72
     1
  1
document-type
  7
CONVERTER_11
 73
     1
 44
1.20048019207683
  0
MTEXT
  5
2CA
330
A0
100
AcDbEntity
  8
1
 62
     2
100
AcDbMText
 10
102.3246990037892
 20
-19.79362749516906
 30
0.0
 40
1.8
 41
0.0
 71
     1
 72
     1
  1
date
  7
CONVERTER_11
 73
     1
 44
1.32052821128451
  0
TEXT
  5
2CB
330
A0
100
AcDbEntity
  8
1
 62
     3
100
AcDbText
 10
102.3246990037892
 20
-25.99362749516905
 30
0.0
 40
2.5
  1
01.04.2021
 41
0.81
  7
CONVERTER_12
100
AcDbText
  0
TEXT
  5
2CC
330
A0
100
AcDbEntity
  8
1
 62
     7
100
AcDbText
 10
64.72821497777205
 20
-25.99362749516905
 30
0.0
 40
2.5
  1
01
 41
0.81
  7
CONVERTER_12
100
AcDbText
  0
TEXT
  5
2CD
330
A0
100
AcDbEntity
  8
1
 62
     7
100
AcDbText
 10
62.57185048073006
 20
-25.99362749516905
 30
0.0
 40
2.5
  1
/
 41
0.9
  7
CONVERTER_11
100
AcDbText
  0
TEXT
  5
2CE
330
A0
100
AcDbEntity
  8
1
 62
     7
100
AcDbText
 10
-240.2568927145335
 20
243.7063725048317
 30
0.0
 40
2.5
  1
1
 41
0.9
  7
CONVERTER_11
100
AcDbText
  0
TEXT
  5
2CF
330
A0
100
AcDbEntity
  8
1
 62
     7
100
AcDbText
 10
-171.9235593812004
 20
243.7063725048317
 30
0.0
 40
2.5
  1
2
 41
0.9
  7
CONVERTER_11
100
AcDbText
  0
TEXT
  5
2D0
330
A0
100
AcDbEntity
  8
1
 62
     7
100
AcDbText
 10
-103.5902260478668
 20
243.7063725048317
 30
0.0
 40
2.5
  1
3
 41
0.9
  7
CONVERTER_11
100
AcDbText
  0
TEXT
  5
2D1
330
A0
100
AcDbEntity
  8
1
 62
     7
100
AcDbText
 10
-35.25689271453373
 20
243.7063725048317
 30
0.0
 40
2.5
  1
4
 41
0.9
  7
CONVERTER_11
100
AcDbText
  0
TEXT
  5
2D2
330
A0
100
AcDbEntity
  8
1
 62
     7
100
AcDbText
 10
33.07644061879967
 20
243.7063725048317
 30
0.0
 40
2.5
  1
5
 41
0.9
  7
CONVERTER_11
100
AcDbText
  0
TEXT
  5
2D3
330
A0
100
AcDbEntity
  8
1
 62
     7
100
AcDbText
 10
101.4097739521329
 20
243.7063725048317
 30
0.0
 40
2.5
  1
6
 41
0.9
  7
CONVERTER_11
100
AcDbText
  0
TEXT
  5
2D4
330
A0
100
AcDbEntity
  8
1
 62
     7
100
AcDbText
 10
137.7431072854663
 20
212.8063725048314
 30
0.0
 40
2.5
  1
A
 41
0.9
  7
CONVERTER_11
100
AcDbText
  0
TEXT
  5
2D5
330
A0
100
AcDbEntity
  8
1
 62
     7
100
AcDbText
 10
137.7431072854663
 20
155.4063725048315
 30
0.0
 40
2.5
  1
B
 41
0.9
  7
CONVERTER_11
100
AcDbText
  0
TEXT
  5
2D6
330
A0
100
AcDbEntity
  8
1
 62
     7
100
AcDbText
 10
137.7431072854663
 20
98.00637250483172
 30
0.0
 40
2.5
  1
C
 41
0.9
  7
CONVERTER_11
100
AcDbText
  0
TEXT
  5
2D7
330
A0
100
AcDbEntity
  8
1
 62
     7
100
AcDbText
 10
137.7431072854663
 20
40.60637250483163
 30
0.0
 40
2.5
  1
D
 41
0.9
  7
CONVERTER_11
100
AcDbText
  0
TEXT
  5
2D8
330
A0
100
AcDbEntity
  8
1
 62
     7
100
AcDbText
 10
-171.9235593812004
 20
-48.29362749516849
 30
0.0
 40
2.5
  1
2
 41
0.9
  7
CONVERTER_11
100
AcDbText
  0
TEXT
  5
2D9
330
A0
100
AcDbEntity
  8
1
 62
     7
100
AcDbText
 10
-240.2568927145335
 20
-48.29362749516849
 30
0.0
 40
2.5
  1
1
 41
0.9
  7
CONVERTER_11
100
AcDbText
  0
TEXT
  5
2DA
330
A0
100
AcDbEntity
  8
1
 62
     7
100
AcDbText
 10
137.7431072854663
 20
-16.79362749516849
 30
0.0
 40
2.5
  1
E
 41
0.9
  7
CONVERTER_11
100
AcDbText
  0
TEXT
  5
2DB
330
A0
100
AcDbEntity
  8
1
 62
     7
100
AcDbText
 10
-103.5902260478668
 20
-48.29362749516849
 30
0.0
 40
2.5
  1
3
 41
0.9
  7
CONVERTER_11
100
AcDbText
  0
TEXT
  5
2DC
330
A0
100
AcDbEntity
  8
1
 62
     7
100
AcDbText
 10
-35.25689271453373
 20
-48.29362749516849
 30
0.0
 40
2.5
  1
4
 41
0.9
  7
CONVERTER_11
100
AcDbText
  0
TEXT
  5
2DD
330
A0
100
AcDbEntity
  8
1
 62
     7
100
AcDbText
 10
33.07644061879947
 20
-48.29362749516849
 30
0.0
 40
2.5
  1
5
 41
0.9
  7
CONVERTER_11
100
AcDbText
  0
TEXT
  5
2DE
330
A0
100
AcDbEntity
  8
1
 62
     7
100
AcDbText
 10
101.4097739521329
 20
-48.29362749516849
 30
0.0
 40
2.5
  1
6
 41
0.9
  7
CONVERTER_11
100
AcDbText
  0
HATCH
  5
2DF
330
A0
100
AcDbEntity
  8
1
  6
Continuous
 62
     2
100
AcDbHatch
 10
0.0
 20
0.0
 30
0.0
210
0.0
220
0.0
230
1.0
  2
CUSTOM0
 70
     0
 71
     1
 91
        1
 92
        1
 93
       12
 72
     1
 10
24.86580347167745
 20
-33.64093701897838
 11
23.67301076951097
 21
-33.64093701897838
 72
     1
 10
23.67301076951097
 20
-33.64093701897838
 11
23.67301076951097
 21
-32.5066649101347
 72
     1
 10
23.67301076951097
 20
-32.5066649101347
 11
22.62335319160357
 21
-32.5066649101347
 72
     1
 10
22.62335319160357
 20
-32.5066649101347
 11
22.62335319160357
 21
-33.64093701897838
 72
     1
 10
22.62335319160357
 20
-33.64093701897838
 11
21.43056048943697
 21
-33.64093701897838
 72
     1
 10
21.43056048943697
 20
-33.64093701897838
 11
21.43056048943697
 21
-30.58712749516729
 72
     1
 10
21.43056048943697
 20
-30.58712749516729
 11
22.62335319160357
 21
-30.58712749516729
 72
     1
 10
22.62335319160357
 20
-30.58712749516729
 11
22.62335319160357
 21
-31.65596082850186
 72
     1
 10
22.62335319160357
 20
-31.65596082850186
 11
23.67301076951097
 21
-31.65596082850186
 72
     1
 10
23.67301076951097
 20
-31.65596082850186
 11
23.67301076951097
 21
-30.58712749516729
 72
     1
 10
23.67301076951097
 20
-30.58712749516729
 11
24.86580347167745
 21
-30.58712749516729
 72
     1
 10
24.86580347167745
 20
-30.58712749516729
 11
24.86580347167745
 21
-33.64093701897838
 97
       12
330
208
330
209
330
1F3
330
1F2
330
1F1
330
205
330
1F0
330
206
330
207
330
1EF
330
1EE
330
1ED
 75
     1
 76
     2
 52
45.0
 41
0.1
 77
     0
 78
     1
 53
45.0
 43
62.7811309658083
 44
-72.3161373035813
 45
-0.1414213562373095
 46
0.0
 79
     0
 98
        1
 10
0.0
 20
0.0
  0
HATCH
  5
2E0
330
A0
100
AcDbEntity
  8
1
  6
Continuous
 62
     2
100
AcDbHatch
 10
0.0
 20
0.0
 30
0.0
210
0.0
220
0.0
230
1.0
  2
CUSTOM1
 70
     0
 71
     1
 91
        1
 92
        1
 93
       12
 72
     1
 10
24.86580347167745
 20
-33.64093701897838
 11
23.67301076951097
 21
-33.64093701897838
 72
     1
 10
23.67301076951097
 20
-33.64093701897838
 11
23.67301076951097
 21
-32.5066649101347
 72
     1
 10
23.67301076951097
 20
-32.5066649101347
 11
22.62335319160357
 21
-32.5066649101347
 72
     1
 10
22.62335319160357
 20
-32.5066649101347
 11
22.62335319160357
 21
-33.64093701897838
 72
     1
 10
22.62335319160357
 20
-33.64093701897838
 11
21.43056048943697
 21
-33.64093701897838
 72
     1
 10
21.43056048943697
 20
-33.64093701897838
 11
21.43056048943697
 21
-30.58712749516729
 72
     1
 10
21.43056048943697
 20
-30.58712749516729
 11
22.62335319160357
 21
-30.58712749516729
 72
     1
 10
22.62335319160357
 20
-30.58712749516729
 11
22.62335319160357
 21
-31.65596082850186
 72
     1
 10
22.62335319160357
 20
-31.65596082850186
 11
23.67301076951097
 21
-31.65596082850186
 72
     1
 10
23.67301076951097
 20
-31.65596082850186
 11
23.67301076951097
 21
-30.58712749516729
 72
     1
 10
23.67301076951097
 20
-30.58712749516729
 11
24.86580347167745
 21
-30.58712749516729
 72
     1
 10
24.86580347167745
 20
-30.58712749516729
 11
24.86580347167745
 21
-33.64093701897838
 97
       12
330
208
330
209
330
1F3
330
1F2
330
1F1
330
205
330
1F0
330
206
330
207
330
1EF
330
1EE
330
1ED
 75
     1
 76
     2
 52
45.0
 41
0.1
 77
     0
 78
     1
 53
45.0
 43
62.7811309658083
 44
-72.3161373035813
 45
-0.1414213562373095
 46
0.0
 79
     0
 98
        1
 10
0.0
 20
0.0
  0
HATCH
  5
2E1
330
A0
100
AcDbEntity
  8
1
  6
Continuous
 62
     2
100
AcDbHatch
 10
0.0
 20
0.0
 30
0.0
210
0.0
220
0.0
230
1.0
  2
CUSTOM2
 70
     0
 71
     1
 91
        1
 92
        1
 93
       10
 72
     1
 10
27.10810282086575
 20
-35.25509348154679
 11
25.86759841061277
 21
-33.94631797134156
 72
     1
 10
25.86759841061277
 20
-33.94631797134156
 11
24.67480570844526
 21
-33.94631797134156
 72
     1
 10
24.67480570844526
 20
-33.94631797134156
 11
24.67480570844526
 21
-37.0001274951527
 72
     1
 10
24.67480570844526
 20
-37.0001274951527
 11
25.86759841061277
 21
-37.0001274951527
 72
     1
 10
25.86759841061277
 20
-37.0001274951527
 11
25.86759841061277
 21
-35.6913519849482
 72
     1
 10
25.86759841061277
 20
-35.6913519849482
 11
27.10810282086575
 21
-37.0001274951527
 72
     1
 10
27.10810282086575
 20
-37.0001274951527
 11
28.30089552303215
 21
-37.0001274951527
 72
     1
 10
28.30089552303215
 20
-37.0001274951527
 11
28.30089552303215
 21
-33.94631797134156
 72
     1
 10
28.30089552303215
 20
-33.94631797134156
 11
27.10810282086575
 21
-33.94631797134156
 72
     1
 10
27.10810282086575
 20
-33.94631797134156
 11
27.10810282086575
 21
-35.25509348154679
 97
       10
330
216
330
1E6
330
1E5
330
1E8
330
211
330
212
330
1E7
330
213
330
214
330
215
 75
     1
 76
     2
 52
45.0
 41
0.1
 77
     0
 78
     1
 53
45.0
 43
62.7811309658083
 44
-72.3161373035813
 45
-0.1414213562373095
 46
0.0
 79
     0
 98
        1
 10
0.0
 20
0.0
  0
HATCH
  5
2E2
330
A0
100
AcDbEntity
  8
1
  6
Continuous
 62
     2
100
AcDbHatch
 10
0.0
 20
0.0
 30
0.0
210
0.0
220
0.0
230
1.0
  2
CUSTOM3
 70
     0
 71
     1
 91
        1
 92
        1
 93
       10
 72
     1
 10
27.10810282086575
 20
-35.25509348154679
 11
25.86759841061277
 21
-33.94631797134156
 72
     1
 10
25.86759841061277
 20
-33.94631797134156
 11
24.67480570844526
 21
-33.94631797134156
 72
     1
 10
24.67480570844526
 20
-33.94631797134156
 11
24.67480570844526
 21
-37.0001274951527
 72
     1
 10
24.67480570844526
 20
-37.0001274951527
 11
25.86759841061277
 21
-37.0001274951527
 72
     1
 10
25.86759841061277
 20
-37.0001274951527
 11
25.86759841061277
 21
-35.6913519849482
 72
     1
 10
25.86759841061277
 20
-35.6913519849482
 11
27.10810282086575
 21
-37.0001274951527
 72
     1
 10
27.10810282086575
 20
-37.0001274951527
 11
28.30089552303215
 21
-37.0001274951527
 72
     1
 10
28.30089552303215
 20
-37.0001274951527
 11
28.30089552303215
 21
-33.94631797134156
 72
     1
 10
28.30089552303215
 20
-33.94631797134156
 11
27.10810282086575
 21
-33.94631797134156
 72
     1
 10
27.10810282086575
 20
-33.94631797134156
 11
27.10810282086575
 21
-35.25509348154679
 97
       10
330
216
330
1E6
330
1E5
330
1E8
330
211
330
212
330
1E7
330
213
330
214
330
215
 75
     1
 76
     2
 52
45.0
 41
0.1
 77
     0
 78
     1
 53
45.0
 43
62.7811309658083
 44
-72.3161373035813
 45
-0.1414213562373095
 46
0.0
 79
     0
 98
        1
 10
0.0
 20
0.0
  0
HATCH
  5
2E3
330
A0
100
AcDbEntity
  8
1
  6
Continuous
 62
     2
100
AcDbHatch
 10
0.0
 20
0.0
 30
0.0
210
0.0
220
0.0
230
1.0
  2
CUSTOM4
 70
     0
 71
     1
 91
        1
 92
        1
 93
       10
 72
     1
 10
32.35654164128545
 20
-31.89590300537236
 11
31.11603723103136
 21
-30.58712749516729
 72
     1
 10
31.11603723103136
 20
-30.58712749516729
 11
29.92324452886496
 21
-30.58712749516729
 72
     1
 10
29.92324452886496
 20
-30.58712749516729
 11
29.92324452886496
 21
-33.64093701897838
 72
     1
 10
29.92324452886496
 20
-33.64093701897838
 11
31.11603723103136
 21
-33.64093701897838
 72
     1
 10
31.11603723103136
 20
-33.64093701897838
 11
31.11603723103136
 21
-32.33216150877365
 72
     1
 10
31.11603723103136
 20
-32.33216150877365
 11
32.35654164128545
 21
-33.64093701897838
 72
     1
 10
32.35654164128545
 20
-33.64093701897838
 11
33.54933434345205
 21
-33.64093701897838
 72
     1
 10
33.54933434345205
 20
-33.64093701897838
 11
33.54933434345205
 21
-30.58712749516729
 72
     1
 10
33.54933434345205
 20
-30.58712749516729
 11
32.35654164128545
 21
-30.58712749516729
 72
     1
 10
32.35654164128545
 20
-30.58712749516729
 11
32.35654164128545
 21
-31.89590300537236
 97
       10
330
21B
330
1E3
330
1E2
330
21C
330
1E1
330
217
330
218
330
219
330
21A
330
1E4
 75
     1
 76
     2
 52
45.0
 41
0.1
 77
     0
 78
     1
 53
45.0
 43
62.7811309658083
 44
-72.3161373035813
 45
-0.1414213562373095
 46
0.0
 79
     0
 98
        1
 10
0.0
 20
0.0
  0
HATCH
  5
2E4
330
A0
100
AcDbEntity
  8
1
  6
Continuous
 62
     2
100
AcDbHatch
 10
0.0
 20
0.0
 30
0.0
210
0.0
220
0.0
230
1.0
  2
CUSTOM5
 70
     0
 71
     1
 91
        1
 92
        1
 93
       10
 72
     1
 10
32.35654164128545
 20
-31.89590300537236
 11
31.11603723103136
 21
-30.58712749516729
 72
     1
 10
31.11603723103136
 20
-30.58712749516729
 11
29.92324452886496
 21
-30.58712749516729
 72
     1
 10
29.92324452886496
 20
-30.58712749516729
 11
29.92324452886496
 21
-33.64093701897838
 72
     1
 10
29.92324452886496
 20
-33.64093701897838
 11
31.11603723103136
 21
-33.64093701897838
 72
     1
 10
31.11603723103136
 20
-33.64093701897838
 11
31.11603723103136
 21
-32.33216150877365
 72
     1
 10
31.11603723103136
 20
-32.33216150877365
 11
32.35654164128545
 21
-33.64093701897838
 72
     1
 10
32.35654164128545
 20
-33.64093701897838
 11
33.54933434345205
 21
-33.64093701897838
 72
     1
 10
33.54933434345205
 20
-33.64093701897838
 11
33.54933434345205
 21
-30.58712749516729
 72
     1
 10
33.54933434345205
 20
-30.58712749516729
 11
32.35654164128545
 21
-30.58712749516729
 72
     1
 10
32.35654164128545
 20
-30.58712749516729
 11
32.35654164128545
 21
-31.89590300537236
 97
       10
330
21B
330
1E3
330
1E2
330
21C
330
1E1
330
217
330
218
330
219
330
21A
330
1E4
 75
     1
 76
     2
 52
45.0
 41
0.1
 77
     0
 78
     1
 53
45.0
 43
62.7811309658083
 44
-72.3161373035813
 45
-0.1414213562373095
 46
0.0
 79
     0
 98
        1
 10
0.0
 20
0.0
  0
HATCH
  5
2E5
330
A0
100
AcDbEntity
  8
1
  6
Continuous
 62
     2
100
AcDbHatch
 10
0.0
 20
0.0
 30
0.0
210
0.0
220
0.0
230
1.0
  2
CUSTOM6
 70
     0
 71
     1
 91
        1
 92
        1
 93
        8
 72
     1
 10
31.25902142440597
 20
-33.94631797134156
 11
28.44403064729227
 21
-33.94631797134156
 72
     1
 10
28.44403064729227
 20
-33.94631797134156
 11
28.44403064729227
 21
-34.73158327746529
 72
     1
 10
28.44403064729227
 20
-34.73158327746529
 11
29.25512968476696
 21
-34.73158327746529
 72
     1
 10
29.25512968476696
 20
-34.73158327746529
 11
29.25512968476696
 21
-37.0001274951527
 72
     1
 10
29.25512968476696
 20
-37.0001274951527
 11
30.44792238693336
 21
-37.0001274951527
 72
     1
 10
30.44792238693336
 20
-37.0001274951527
 11
30.44792238693336
 21
-34.73158327746529
 72
     1
 10
30.44792238693336
 20
-34.73158327746529
 11
31.25902142440597
 21
-34.73158327746529
 72
     1
 10
31.25902142440597
 20
-34.73158327746529
 11
31.25902142440597
 21
-33.94631797134156
 97
        8
330
1DD
330
21D
330
1DC
330
21E
330
21F
330
1E0
330
1DF
330
1DE
 75
     1
 76
     2
 52
45.0
 41
0.1
 77
     0
 78
     1
 53
45.0
 43
62.7811309658083
 44
-72.3161373035813
 45
-0.1414213562373095
 46
0.0
 79
     0
 98
        1
 10
0.0
 20
0.0
  0
HATCH
  5
2E6
330
A0
100
AcDbEntity
  8
1
  6
Continuous
 62
     2
100
AcDbHatch
 10
0.0
 20
0.0
 30
0.0
210
0.0
220
0.0
230
1.0
  2
CUSTOM7
 70
     0
 71
     1
 91
        1
 92
        1
 93
        8
 72
     1
 10
31.25902142440597
 20
-33.94631797134156
 11
28.44403064729227
 21
-33.94631797134156
 72
     1
 10
28.44403064729227
 20
-33.94631797134156
 11
28.44403064729227
 21
-34.73158327746529
 72
     1
 10
28.44403064729227
 20
-34.73158327746529
 11
29.25512968476696
 21
-34.73158327746529
 72
     1
 10
29.25512968476696
 20
-34.73158327746529
 11
29.25512968476696
 21
-37.0001274951527
 72
     1
 10
29.25512968476696
 20
-37.0001274951527
 11
30.44792238693336
 21
-37.0001274951527
 72
     1
 10
30.44792238693336
 20
-37.0001274951527
 11
30.44792238693336
 21
-34.73158327746529
 72
     1
 10
30.44792238693336
 20
-34.73158327746529
 11
31.25902142440597
 21
-34.73158327746529
 72
     1
 10
31.25902142440597
 20
-34.73158327746529
 11
31.25902142440597
 21
-33.94631797134156
 97
        8
330
1DD
330
21D
330
1DC
330
21E
330
21F
330
1E0
330
1DF
330
1DE
 75
     1
 76
     2
 52
45.0
 41
0.1
 77
     0
 78
     1
 53
45.0
 43
62.7811309658083
 44
-72.3161373035813
 45
-0.1414213562373095
 46
0.0
 79
     0
 98
        1
 10
0.0
 20
0.0
  0
HATCH
  5
2E7
330
A0
100
AcDbEntity
  8
1
  6
Continuous
 62
     2
100
AcDbHatch
 10
0.0
 20
0.0
 30
0.0
210
0.0
220
0.0
230
1.0
  2
CUSTOM8
 70
     0
 71
     1
 91
        2
 92
        1
 93
        8
 72
     1
 10
33.39744888035295
 20
-37.0001274951527
 11
33.18596882687717
 21
-36.4591669509349
 72
     1
 10
33.18596882687717
 20
-36.4591669509349
 11
32.05352725020325
 21
-36.4591669509349
 72
     1
 10
32.05352725020325
 20
-36.4591669509349
 11
31.84204719672746
 21
-37.0001274951527
 72
     1
 10
31.84204719672746
 20
-37.0001274951527
 11
30.60154278647457
 21
-37.0001274951527
 72
     1
 10
30.60154278647457
 20
-37.0001274951527
 11
31.99949583341376
 21
-33.94631797134156
 72
     1
 10
31.99949583341376
 20
-33.94631797134156
 11
33.24000024366657
 21
-33.94631797134156
 72
     1
 10
33.24000024366657
 20
-33.94631797134156
 11
34.63795329060685
 21
-37.0001274951527
 72
     1
 10
34.63795329060685
 20
-37.0001274951527
 11
33.39744888035295
 21
-37.0001274951527
 97
        8
330
221
330
222
330
1D9
330
223
330
1D8
330
1DB
330
220
330
1DA
 92
       16
 93
        3
 72
     1
 10
32.31958280134836
 20
-35.7786036856283
 11
32.61974803854065
 21
-35.0107887196416
 72
     1
 10
32.61974803854065
 20
-35.0107887196416
 11
32.91991327573086
 21
-35.7786036856283
 72
     1
 10
32.91991327573086
 20
-35.7786036856283
 11
32.31958280134836
 21
-35.7786036856283
 97
        3
330
1D7
330
225
330
224
 75
     1
 76
     2
 52
45.0
 41
0.1
 77
     0
 78
     1
 53
45.0
 43
62.7811309658083
 44
-72.3161373035813
 45
-0.1414213562373095
 46
0.0
 79
     0
 98
        1
 10
0.0
 20
0.0
  0
HATCH
  5
2E8
330
A0
100
AcDbEntity
  8
1
  6
Continuous
 62
     2
100
AcDbHatch
 10
0.0
 20
0.0
 30
0.0
210
0.0
220
0.0
230
1.0
  2
CUSTOM9
 70
     0
 71
     1
 91
        2
 92
        1
 93
        8
 72
     1
 10
33.39744888035295
 20
-37.0001274951527
 11
33.18596882687717
 21
-36.4591669509349
 72
     1
 10
33.18596882687717
 20
-36.4591669509349
 11
32.05352725020325
 21
-36.4591669509349
 72
     1
 10
32.05352725020325
 20
-36.4591669509349
 11
31.84204719672746
 21
-37.0001274951527
 72
     1
 10
31.84204719672746
 20
-37.0001274951527
 11
30.60154278647457
 21
-37.0001274951527
 72
     1
 10
30.60154278647457
 20
-37.0001274951527
 11
31.99949583341376
 21
-33.94631797134156
 72
     1
 10
31.99949583341376
 20
-33.94631797134156
 11
33.24000024366657
 21
-33.94631797134156
 72
     1
 10
33.24000024366657
 20
-33.94631797134156
 11
34.63795329060685
 21
-37.0001274951527
 72
     1
 10
34.63795329060685
 20
-37.0001274951527
 11
33.39744888035295
 21
-37.0001274951527
 97
        8
330
221
330
222
330
1D9
330
223
330
1D8
330
1DB
330
220
330
1DA
 92
       16
 93
        3
 72
     1
 10
32.31958280134836
 20
-35.7786036856283
 11
32.61974803854065
 21
-35.0107887196416
 72
     1
 10
32.61974803854065
 20
-35.0107887196416
 11
32.91991327573086
 21
-35.7786036856283
 72
     1
 10
32.91991327573086
 20
-35.7786036856283
 11
32.31958280134836
 21
-35.7786036856283
 97
        3
330
1D7
330
225
330
224
 75
     1
 76
     2
 52
45.0
 41
0.1
 77
     0
 78
     1
 53
45.0
 43
62.7811309658083
 44
-72.3161373035813
 45
-0.1414213562373095
 46
0.0
 79
     0
 98
        1
 10
0.0
 20
0.0
  0
HATCH
  5
2E9
330
A0
100
AcDbEntity
  8
1
  6
Continuous
 62
     2
100
AcDbHatch
 10
0.0
 20
0.0
 30
0.0
210
0.0
220
0.0
230
1.0
  2
CUSTOM10
 70
     0
 71
     1
 91
        1
 92
        1
 93
        4
 72
     1
 10
35.02839729413887
 20
-33.64093701897838
 11
33.78789288388595
 21
-33.64093701897838
 72
     1
 10
33.78789288388595
 20
-33.64093701897838
 11
33.78789288388595
 21
-30.58712749516729
 72
     1
 10
33.78789288388595
 20
-30.58712749516729
 11
35.02839729413887
 21
-30.58712749516729
 72
     1
 10
35.02839729413887
 20
-30.58712749516729
 11
35.02839729413887
 21
-33.64093701897838
 97
        4
330
1D4
330
1D6
330
226
330
1D5
 75
     1
 76
     2
 52
45.0
 41
0.1
 77
     0
 78
     1
 53
45.0
 43
62.7811309658083
 44
-72.3161373035813
 45
-0.1414213562373095
 46
0.0
 79
     0
 98
        1
 10
0.0
 20
0.0
  0
HATCH
  5
2EA
330
A0
100
AcDbEntity
  8
1
  6
Continuous
 62
     2
100
AcDbHatch
 10
0.0
 20
0.0
 30
0.0
210
0.0
220
0.0
230
1.0
  2
CUSTOM11
 70
     0
 71
     1
 91
        1
 92
        1
 93
        4
 72
     1
 10
35.02839729413887
 20
-33.64093701897838
 11
33.78789288388595
 21
-33.64093701897838
 72
     1
 10
33.78789288388595
 20
-33.64093701897838
 11
33.78789288388595
 21
-30.58712749516729
 72
     1
 10
33.78789288388595
 20
-30.58712749516729
 11
35.02839729413887
 21
-30.58712749516729
 72
     1
 10
35.02839729413887
 20
-30.58712749516729
 11
35.02839729413887
 21
-33.64093701897838
 97
        4
330
1D4
330
1D6
330
226
330
1D5
 75
     1
 76
     2
 52
45.0
 41
0.1
 77
     0
 78
     1
 53
45.0
 43
62.7811309658083
 44
-72.3161373035813
 45
-0.1414213562373095
 46
0.0
 79
     0
 98
        1
 10
0.0
 20
0.0
  0
HATCH
  5
2EB
330
A0
100
AcDbEntity
  8
1
  6
Continuous
 62
     2
100
AcDbHatch
 10
0.0
 20
0.0
 30
0.0
210
0.0
220
0.0
230
1.0
  2
CUSTOM12
 70
     0
 71
     1
 91
        1
 92
        1
 93
       12
 72
     1
 10
39.25088345980967
 20
-30.58712749516729
 11
37.94835382904307
 21
-32.0600780252035
 72
     1
 10
37.94835382904307
 20
-32.0600780252035
 11
39.34630687598335
 21
-33.64093701897838
 72
     1
 10
39.34630687598335
 20
-33.64093701897838
 11
37.94358265823504
 21
-33.64093701897838
 72
     1
 10
37.94358265823504
 20
-33.64093701897838
 11
37.24699172016966
 21
-32.85320523368466
 72
     1
 10
37.24699172016966
 20
-32.85320523368466
 11
36.55040078210385
 21
-33.64093701897838
 72
     1
 10
36.55040078210385
 20
-33.64093701897838
 11
35.14767656435575
 21
-33.64093701897838
 72
     1
 10
35.14767656435575
 20
-33.64093701897838
 11
36.54562961129605
 21
-32.0600780252035
 72
     1
 10
36.54562961129605
 20
-32.0600780252035
 11
35.24309998052857
 21
-30.58712749516729
 72
     1
 10
35.24309998052857
 20
-30.58712749516729
 11
36.64582419827775
 21
-30.58712749516729
 72
     1
 10
36.64582419827775
 20
-30.58712749516729
 11
37.24699172016966
 21
-31.26695081672278
 72
     1
 10
37.24699172016966
 20
-31.26695081672278
 11
37.84815924206245
 21
-30.58712749516729
 72
     1
 10
37.84815924206245
 20
-30.58712749516729
 11
39.25088345980967
 21
-30.58712749516729
 97
       12
330
1CF
330
1CE
330
1CD
330
22A
330
22B
330
227
330
228
330
1D3
330
1D2
330
1D1
330
1D0
330
229
 75
     1
 76
     2
 52
45.0
 41
0.1
 77
     0
 78
     1
 53
45.0
 43
62.7811309658083
 44
-72.3161373035813
 45
-0.1414213562373095
 46
0.0
 79
     0
 98
        1
 10
0.0
 20
0.0
  0
HATCH
  5
2EC
330
A0
100
AcDbEntity
  8
1
  6
Continuous
 62
     2
100
AcDbHatch
 10
0.0
 20
0.0
 30
0.0
210
0.0
220
0.0
230
1.0
  2
CUSTOM13
 70
     0
 71
     1
 91
        1
 92
        1
 93
       12
 72
     1
 10
39.25088345980967
 20
-30.58712749516729
 11
37.94835382904307
 21
-32.0600780252035
 72
     1
 10
37.94835382904307
 20
-32.0600780252035
 11
39.34630687598335
 21
-33.64093701897838
 72
     1
 10
39.34630687598335
 20
-33.64093701897838
 11
37.94358265823504
 21
-33.64093701897838
 72
     1
 10
37.94358265823504
 20
-33.64093701897838
 11
37.24699172016966
 21
-32.85320523368466
 72
     1
 10
37.24699172016966
 20
-32.85320523368466
 11
36.55040078210385
 21
-33.64093701897838
 72
     1
 10
36.55040078210385
 20
-33.64093701897838
 11
35.14767656435575
 21
-33.64093701897838
 72
     1
 10
35.14767656435575
 20
-33.64093701897838
 11
36.54562961129605
 21
-32.0600780252035
 72
     1
 10
36.54562961129605
 20
-32.0600780252035
 11
35.24309998052857
 21
-30.58712749516729
 72
     1
 10
35.24309998052857
 20
-30.58712749516729
 11
36.64582419827775
 21
-30.58712749516729
 72
     1
 10
36.64582419827775
 20
-30.58712749516729
 11
37.24699172016966
 21
-31.26695081672278
 72
     1
 10
37.24699172016966
 20
-31.26695081672278
 11
37.84815924206245
 21
-30.58712749516729
 72
     1
 10
37.84815924206245
 20
-30.58712749516729
 11
39.25088345980967
 21
-30.58712749516729
 97
       12
330
1CF
330
1CE
330
1CD
330
22A
330
22B
330
227
330
228
330
1D3
330
1D2
330
1D1
330
1D0
330
229
 75
     1
 76
     2
 52
45.0
 41
0.1
 77
     0
 78
     1
 53
45.0
 43
62.7811309658083
 44
-72.3161373035813
 45
-0.1414213562373095
 46
0.0
 79
     0
 98
        1
 10
0.0
 20
0.0
  0
HATCH
  5
2ED
330
A0
100
AcDbEntity
  8
1
  6
Continuous
 62
     2
100
AcDbHatch
 10
0.0
 20
0.0
 30
0.0
210
0.0
220
0.0
230
1.0
  2
CUSTOM14
 70
     0
 71
     1
 91
        2
 92
        1
 93
        6
 72
     1
 10
20.23314804566365
 20
-32.69785877783465
 11
19.47438045788326
 21
-32.69785877783465
 72
     1
 10
19.47438045788326
 20
-32.69785877783465
 11
19.47438045788326
 21
-33.64093701897838
 72
     1
 10
19.47438045788326
 20
-33.64093701897838
 11
18.23387604762925
 21
-33.64093701897838
 72
     1
 10
18.23387604762925
 20
-33.64093701897838
 11
18.23387604762925
 21
-30.58712749516729
 72
     1
 10
18.23387604762925
 20
-30.58712749516729
 11
20.23314804566365
 21
-30.58712749516729
 72
     2
 10
20.23314804566365
 20
-31.642493136501
 40
1.055365641333648
 50
270.0
 51
450.0
 73
     0
 97
        6
330
1F7
330
1F6
330
203
330
202
330
1F8
330
289
 92
       16
 93
        4
 72
     2
 10
19.79167551942527
 20
-31.60309716527848
 40
0.3528638246710898
 50
270.0
 51
450.0
 73
     1
 72
     1
 10
19.79167551942527
 20
-31.25023334060728
 11
19.47438045788326
 21
-31.25023334060728
 72
     1
 10
19.47438045788326
 20
-31.25023334060728
 11
19.47438045788326
 21
-31.95596098994957
 72
     1
 10
19.47438045788326
 20
-31.95596098994957
 11
19.79167551942527
 21
-31.95596098994957
 97
        4
330
29D
330
1F4
330
204
330
1F5
 75
     1
 76
     2
 52
45.0
 41
0.1
 77
     0
 78
     1
 53
45.0
 43
62.7811309658083
 44
-72.3161373035813
 45
-0.1414213562373095
 46
0.0
 79
     0
 98
        1
 10
0.0
 20
0.0
  0
HATCH
  5
2EE
330
A0
100
AcDbEntity
  8
1
  6
Continuous
 62
     2
100
AcDbHatch
 10
0.0
 20
0.0
 30
0.0
210
0.0
220
0.0
230
1.0
  2
CUSTOM15
 70
     0
 71
     1
 91
        2
 92
        1
 93
        6
 72
     1
 10
20.23314804566365
 20
-32.69785877783465
 11
19.47438045788326
 21
-32.69785877783465
 72
     1
 10
19.47438045788326
 20
-32.69785877783465
 11
19.47438045788326
 21
-33.64093701897838
 72
     1
 10
19.47438045788326
 20
-33.64093701897838
 11
18.23387604762925
 21
-33.64093701897838
 72
     1
 10
18.23387604762925
 20
-33.64093701897838
 11
18.23387604762925
 21
-30.58712749516729
 72
     1
 10
18.23387604762925
 20
-30.58712749516729
 11
20.23314804566365
 21
-30.58712749516729
 72
     2
 10
20.23314804566365
 20
-31.642493136501
 40
1.055365641333648
 50
270.0
 51
450.0
 73
     0
 97
        6
330
1F7
330
1F6
330
203
330
202
330
1F8
330
289
 92
       16
 93
        4
 72
     2
 10
19.79167551942527
 20
-31.60309716527848
 40
0.3528638246710898
 50
270.0
 51
450.0
 73
     1
 72
     1
 10
19.79167551942527
 20
-31.25023334060728
 11
19.47438045788326
 21
-31.25023334060728
 72
     1
 10
19.47438045788326
 20
-31.25023334060728
 11
19.47438045788326
 21
-31.95596098994957
 72
     1
 10
19.47438045788326
 20
-31.95596098994957
 11
19.79167551942527
 21
-31.95596098994957
 97
        4
330
29D
330
1F4
330
204
330
1F5
 75
     1
 76
     2
 52
45.0
 41
0.1
 77
     0
 78
     1
 53
45.0
 43
62.7811309658083
 44
-72.3161373035813
 45
-0.1414213562373095
 46
0.0
 79
     0
 98
        1
 10
0.0
 20
0.0
  0
HATCH
  5
2EF
330
A0
100
AcDbEntity
  8
1
  6
Continuous
 62
     2
100
AcDbHatch
 10
0.0
 20
0.0
 30
0.0
210
0.0
220
0.0
230
1.0
  2
CUSTOM16
 70
     0
 71
     1
 91
        2
 92
        1
 93
        4
 72
     2
 10
22.78969079402276
 20
-36.01179774355029
 40
2.065479772208689
 50
62.45185182430801
 51
117.5481481756674
 73
     1
 72
     2
 10
22.50875090218935
 20
-35.4732227332475
 40
1.458034083651618
 50
117.54814817566
 51
242.4518518243368
 73
     1
 72
     2
 10
22.78969079402276
 20
-34.93464772294408
 40
2.065479772208637
 50
242.4518518243384
 51
297.548148175686
 73
     1
 72
     2
 10
23.07063068585595
 20
-35.4732227332475
 40
1.458034083652024
 50
297.5481481757057
 51
422.4518518242976
 73
     1
 97
        4
330
295
330
294
330
296
330
293
 92
       16
 93
        4
 72
     2
 10
22.58995075767635
 20
-35.4732227332475
 40
0.771799778679528
 50
321.8795802028434
 51
398.1204197971674
 73
     1
 72
     2
 10
22.78969079402276
 20
-35.31649155512696
 40
0.5179085730132779
 50
38.12041979716494
 51
141.8795802028564
 73
     1
 72
     2
 10
22.98943083036875
 20
-35.4732227332475
 40
0.7717997786795553
 50
141.8795802028276
 51
218.1204197971616
 73
     1
 72
     2
 10
22.78969079402276
 20
-35.62995391136735
 40
0.5179085730138395
 50
218.1204197971881
 51
321.8795802027906
 73
     1
 97
        4
330
2B1
330
2AE
330
2AF
330
2B0
 75
     1
 76
     2
 52
45.0
 41
0.1
 77
     0
 78
     1
 53
45.0
 43
62.7811309658083
 44
-72.3161373035813
 45
-0.1414213562373095
 46
0.0
 79
     0
 98
        1
 10
0.0
 20
0.0
  0
HATCH
  5
2F0
330
A0
100
AcDbEntity
  8
1
  6
Continuous
 62
     2
100
AcDbHatch
 10
0.0
 20
0.0
 30
0.0
210
0.0
220
0.0
230
1.0
  2
CUSTOM17
 70
     0
 71
     1
 91
        2
 92
        1
 93
        4
 72
     2
 10
22.78969079402276
 20
-36.01179774355029
 40
2.065479772208689
 50
62.45185182430801
 51
117.5481481756674
 73
     1
 72
     2
 10
22.50875090218935
 20
-35.4732227332475
 40
1.458034083651618
 50
117.54814817566
 51
242.4518518243368
 73
     1
 72
     2
 10
22.78969079402276
 20
-34.93464772294408
 40
2.065479772208637
 50
242.4518518243384
 51
297.548148175686
 73
     1
 72
     2
 10
23.07063068585595
 20
-35.4732227332475
 40
1.458034083652024
 50
297.5481481757057
 51
422.4518518242976
 73
     1
 97
        4
330
295
330
294
330
296
330
293
 92
       16
 93
        4
 72
     2
 10
22.58995075767635
 20
-35.4732227332475
 40
0.771799778679528
 50
321.8795802028434
 51
398.1204197971674
 73
     1
 72
     2
 10
22.78969079402276
 20
-35.31649155512696
 40
0.5179085730132779
 50
38.12041979716494
 51
141.8795802028564
 73
     1
 72
     2
 10
22.98943083036875
 20
-35.4732227332475
 40
0.7717997786795553
 50
141.8795802028276
 51
218.1204197971616
 73
     1
 72
     2
 10
22.78969079402276
 20
-35.62995391136735
 40
0.5179085730138395
 50
218.1204197971881
 51
321.8795802027906
 73
     1
 97
        4
330
2B1
330
2AE
330
2AF
330
2B0
 75
     1
 76
     2
 52
45.0
 41
0.1
 77
     0
 78
     1
 53
45.0
 43
62.7811309658083
 44
-72.3161373035813
 45
-0.1414213562373095
 46
0.0
 79
     0
 98
        1
 10
0.0
 20
0.0
  0
HATCH
  5
2F1
330
A0
100
AcDbEntity
  8
1
  6
Continuous
 62
     2
100
AcDbHatch
 10
0.0
 20
0.0
 30
0.0
210
0.0
220
0.0
230
1.0
  2
CUSTOM18
 70
     0
 71
     1
 91
        2
 92
        1
 93
       12
 72
     1
 10
29.68468598843197
 20
-31.28514110061019
 11
28.34875816200434
 21
-31.28514110061019
 72
     1
 10
28.34875816200434
 20
-31.28514110061019
 11
28.34875816200434
 21
-31.76502545435187
 72
     1
 10
28.34875816200434
 20
-31.76502545435187
 11
29.68468598843197
 21
-31.76502545435187
 72
     1
 10
29.68468598843197
 20
-31.76502545435187
 11
29.68468598843197
 21
-32.46303905979426
 72
     1
 10
29.68468598843197
 20
-32.46303905979426
 11
28.34875816200434
 21
-32.46303905979426
 72
     1
 10
28.34875816200434
 20
-32.46303905979426
 11
28.34875816200434
 21
-32.94292341353599
 72
     1
 10
28.34875816200434
 20
-32.94292341353599
 11
29.68468598843197
 21
-32.94292341353599
 72
     1
 10
29.68468598843197
 20
-32.94292341353599
 11
29.68468598843197
 21
-33.64093701897838
 72
     1
 10
29.68468598843197
 20
-33.64093701897838
 11
26.53436626465106
 21
-33.64093701897838
 72
     2
 10
26.53436626465106
 20
-32.11403225707306
 40
1.526904761905772
 50
90.0
 51
270.0
 73
     0
 72
     1
 10
26.53436626465106
 20
-30.58712749516729
 11
29.68468598843197
 21
-30.58712749516729
 72
     1
 10
29.68468598843197
 20
-30.58712749516729
 11
29.68468598843197
 21
-31.28514110061019
 97
       12
330
20B
330
29E
330
20C
330
20D
330
20E
330
20F
330
1EC
330
1EB
330
1EA
330
1E9
330
210
330
20A
 92
       16
 93
        4
 72
     2
 10
26.75063827481625
 20
-31.95730107895258
 40
0.5179085730133681
 50
38.12041979714011
 51
141.8795802028667
 73
     1
 72
     2
 10
26.95037831116247
 20
-32.11403225707306
 40
0.7717997786796224
 50
141.8795802028486
 51
218.1204197971553
 73
     1
 72
     2
 10
26.75063827481625
 20
-32.2707634351936
 40
0.5179085730134552
 50
218.1204197971346
 51
321.8795802028587
 73
     1
 72
     2
 10
26.55089823847007
 20
-32.11403225707306
 40
0.7717997786795551
 50
321.8795802028383
 51
398.1204197971578
 73
     1
 97
        4
330
298
330
297
330
292
330
291
 75
     1
 76
     2
 52
45.0
 41
0.1
 77
     0
 78
     1
 53
45.0
 43
62.7811309658083
 44
-72.3161373035813
 45
-0.1414213562373095
 46
0.0
 79
     0
 98
        1
 10
0.0
 20
0.0
  0
HATCH
  5
2F2
330
A0
100
AcDbEntity
  8
1
  6
Continuous
 62
     2
100
AcDbHatch
 10
0.0
 20
0.0
 30
0.0
210
0.0
220
0.0
230
1.0
  2
CUSTOM19
 70
     0
 71
     1
 91
        2
 92
        1
 93
       12
 72
     1
 10
29.68468598843197
 20
-31.28514110061019
 11
28.34875816200434
 21
-31.28514110061019
 72
     1
 10
28.34875816200434
 20
-31.28514110061019
 11
28.34875816200434
 21
-31.76502545435187
 72
     1
 10
28.34875816200434
 20
-31.76502545435187
 11
29.68468598843197
 21
-31.76502545435187
 72
     1
 10
29.68468598843197
 20
-31.76502545435187
 11
29.68468598843197
 21
-32.46303905979426
 72
     1
 10
29.68468598843197
 20
-32.46303905979426
 11
28.34875816200434
 21
-32.46303905979426
 72
     1
 10
28.34875816200434
 20
-32.46303905979426
 11
28.34875816200434
 21
-32.94292341353599
 72
     1
 10
28.34875816200434
 20
-32.94292341353599
 11
29.68468598843197
 21
-32.94292341353599
 72
     1
 10
29.68468598843197
 20
-32.94292341353599
 11
29.68468598843197
 21
-33.64093701897838
 72
     1
 10
29.68468598843197
 20
-33.64093701897838
 11
26.53436626465106
 21
-33.64093701897838
 72
     2
 10
26.53436626465106
 20
-32.11403225707306
 40
1.526904761905772
 50
90.0
 51
270.0
 73
     0
 72
     1
 10
26.53436626465106
 20
-30.58712749516729
 11
29.68468598843197
 21
-30.58712749516729
 72
     1
 10
29.68468598843197
 20
-30.58712749516729
 11
29.68468598843197
 21
-31.28514110061019
 97
       12
330
20B
330
29E
330
20C
330
20D
330
20E
330
20F
330
1EC
330
1EB
330
1EA
330
1E9
330
210
330
20A
 92
       16
 93
        4
 72
     2
 10
26.75063827481625
 20
-31.95730107895258
 40
0.5179085730133681
 50
38.12041979714011
 51
141.8795802028667
 73
     1
 72
     2
 10
26.95037831116247
 20
-32.11403225707306
 40
0.7717997786796224
 50
141.8795802028486
 51
218.1204197971553
 73
     1
 72
     2
 10
26.75063827481625
 20
-32.2707634351936
 40
0.5179085730134552
 50
218.1204197971346
 51
321.8795802028587
 73
     1
 72
     2
 10
26.55089823847007
 20
-32.11403225707306
 40
0.7717997786795551
 50
321.8795802028383
 51
398.1204197971578
 73
     1
 97
        4
330
298
330
297
330
292
330
291
 75
     1
 76
     2
 52
45.0
 41
0.1
 77
     0
 78
     1
 53
45.0
 43
62.7811309658083
 44
-72.3161373035813
 45
-0.1414213562373095
 46
0.0
 79
     0
 98
        1
 10
0.0
 20
0.0
  0
HATCH
  5
2F3
330
A0
100
AcDbEntity
  8
1
  6
Continuous
 62
     2
100
AcDbHatch
 10
0.0
 20
0.0
 30
0.0
210
0.0
220
0.0
230
1.0
  2
CUSTOM20
 70
     0
 71
     1
 91
        4
 92
        1
 93
        8
 72
     1
 10
17.75675896676245
 20
-31.01137211056926
 11
17.75675896676245
 21
-36.5758828797695
 72
     2
 10
17.33251435137856
 20
-36.5758828797695
 40
0.4242446153831949
 50
0.0
 51
90.0
 73
     0
 72
     1
 10
17.33251435137856
 20
-37.0001274951527
 11
11.85920226066165
 21
-37.0001274951527
 72
     2
 10
11.85920226066165
 20
-36.5758828797695
 40
0.424244615382781
 50
90.0
 51
180.0
 73
     0
 72
     1
 10
11.43495764527887
 20
-36.5758828797695
 11
11.43495764527887
 21
-31.01137211056926
 72
     2
 10
11.85920226066165
 20
-31.01137211056926
 40
0.4242446153838877
 50
180.0
 51
270.0
 73
     0
 72
     1
 10
11.85920226066165
 20
-30.58712749518537
 11
17.33251435137856
 21
-30.58712749518537
 72
     2
 10
17.33251435137856
 20
-31.01137211056926
 40
0.4242446153838912
 50
270.0
 51
360.0
 73
     0
 97
        8
330
1FF
330
28E
330
200
330
299
330
1FD
330
290
330
1FE
330
28F
 92
       16
 93
       12
 72
     2
 10
12.45309693740816
 20
-35.9718550165191
 40
0.3157169230756001
 50
180.0
 51
270.0
 73
     1
 72
     1
 10
12.45309693740816
 20
-36.28757193959581
 11
13.92893019841776
 21
-36.28757193959581
 72
     2
 10
13.92893019841776
 20
-35.9718550165191
 40
0.3157169230767067
 50
270.0
 51
360.0
 73
     1
 72
     1
 10
14.24464712149435
 20
-35.9718550165191
 11
14.24464712149435
 21
-34.44108408498749
 72
     2
 10
13.92893019841776
 20
-34.44108408498749
 40
0.3157169230765895
 50
0.0
 51
64.80558935144546
 73
     1
 72
     2
 10
14.45151464599275
 20
-33.33025433892476
 40
0.9118975235576456
 50
115.1944106485091
 51
244.8055893514802
 73
     0
 72
     2
 10
13.92893019841776
 20
-32.2194245928626
 40
0.3157169230760594
 50
295.1944106485677
 51
360.0
 73
     1
 72
     1
 10
14.24464712149435
 20
-32.2194245928626
 11
14.24464712149435
 21
-31.61539997380197
 72
     2
 10
13.92893019841776
 20
-31.61539997380197
 40
0.3157169230765895
 50
0.0
 51
90.0
 73
     1
 72
     1
 10
13.92893019841776
 20
-31.29968305072589
 11
12.45309693740816
 21
-31.29968305072589
 72
     2
 10
12.45309693740816
 20
-31.61539997380197
 40
0.3157169230760815
 50
90.0
 51
180.0
 73
     1
 72
     1
 10
12.13738001433256
 20
-31.61539997380197
 11
12.13738001433256
 21
-35.9718550165191
 97
       12
330
28A
330
201
330
28D
330
1FC
330
29A
330
29B
330
28C
330
1FB
330
28B
330
1FA
330
29C
330
1F9
 92
       16
 93
        8
 72
     2
 10
15.02864562393995
 20
-34.43939593889309
 40
0.3157169230765369
 50
115.3740086783504
 51
180.0
 73
     1
 72
     1
 10
14.71292870086316
 20
-34.43939593889309
 11
14.71292870086316
 21
-35.02124734558817
 72
     2
 10
15.02864562393995
 20
-35.02124734558817
 40
0.3157169230767902
 50
180.0
 51
269.8110329574338
 73
     1
 72
     2
 10
15.03426175924997
 20
-33.31841239801918
 40
2.018561131933273
 50
269.8110329575827
 51
450.1889670424174
 73
     1
 72
     2
 10
15.02864562393995
 20
-31.61557745045019
 40
0.3157169230761815
 50
90.18896704256616
 51
180.0
 73
     1
 72
     1
 10
14.71292870086316
 20
-31.61557745045019
 11
14.71292870086316
 21
-32.221112738957
 72
     2
 10
15.02864562393995
 20
-32.221112738957
 40
0.3157169230767902
 50
180.0
 51
244.6259913216363
 73
     1
 72
     2
 10
14.50260292585205
 20
-33.33025433892476
 40
0.9118481501443934
 50
295.374008678191
 51
424.6259913218198
 73
     0
 97
        8
330
2A6
330
1C6
330
2A3
330
2A4
330
282
330
1C5
330
2A5
330
281
 92
       16
 93
        1
 72
     2
 10
14.47878791117927
 20
-33.33025433892476
 40
0.4709789327784808
 50
0.0
 51
360.0
 73
     1
 97
        1
330
2B4
 75
     1
 76
     2
 52
45.0
 41
0.1
 77
     0
 78
     1
 53
45.0
 43
62.7811309658083
 44
-72.3161373035813
 45
-0.1414213562373095
 46
0.0
 79
     0
 98
        1
 10
0.0
 20
0.0
  0
HATCH
  5
2F4
330
A0
100
AcDbEntity
  8
1
  6
Continuous
 62
     2
100
AcDbHatch
 10
0.0
 20
0.0
 30
0.0
210
0.0
220
0.0
230
1.0
  2
CUSTOM21
 70
     0
 71
     1
 91
        4
 92
        1
 93
        8
 72
     1
 10
17.75675896676245
 20
-31.01137211056926
 11
17.75675896676245
 21
-36.5758828797695
 72
     2
 10
17.33251435137856
 20
-36.5758828797695
 40
0.4242446153831949
 50
0.0
 51
90.0
 73
     0
 72
     1
 10
17.33251435137856
 20
-37.0001274951527
 11
11.85920226066165
 21
-37.0001274951527
 72
     2
 10
11.85920226066165
 20
-36.5758828797695
 40
0.424244615382781
 50
90.0
 51
180.0
 73
     0
 72
     1
 10
11.43495764527887
 20
-36.5758828797695
 11
11.43495764527887
 21
-31.01137211056926
 72
     2
 10
11.85920226066165
 20
-31.01137211056926
 40
0.4242446153838877
 50
180.0
 51
270.0
 73
     0
 72
     1
 10
11.85920226066165
 20
-30.58712749518537
 11
17.33251435137856
 21
-30.58712749518537
 72
     2
 10
17.33251435137856
 20
-31.01137211056926
 40
0.4242446153838912
 50
270.0
 51
360.0
 73
     0
 97
        8
330
1FF
330
28E
330
200
330
299
330
1FD
330
290
330
1FE
330
28F
 92
       16
 93
       12
 72
     2
 10
12.45309693740816
 20
-35.9718550165191
 40
0.3157169230756001
 50
180.0
 51
270.0
 73
     1
 72
     1
 10
12.45309693740816
 20
-36.28757193959581
 11
13.92893019841776
 21
-36.28757193959581
 72
     2
 10
13.92893019841776
 20
-35.9718550165191
 40
0.3157169230767067
 50
270.0
 51
360.0
 73
     1
 72
     1
 10
14.24464712149435
 20
-35.9718550165191
 11
14.24464712149435
 21
-34.44108408498749
 72
     2
 10
13.92893019841776
 20
-34.44108408498749
 40
0.3157169230765895
 50
0.0
 51
64.80558935144546
 73
     1
 72
     2
 10
14.45151464599275
 20
-33.33025433892476
 40
0.9118975235576456
 50
115.1944106485091
 51
244.8055893514802
 73
     0
 72
     2
 10
13.92893019841776
 20
-32.2194245928626
 40
0.3157169230760594
 50
295.1944106485677
 51
360.0
 73
     1
 72
     1
 10
14.24464712149435
 20
-32.2194245928626
 11
14.24464712149435
 21
-31.61539997380197
 72
     2
 10
13.92893019841776
 20
-31.61539997380197
 40
0.3157169230765895
 50
0.0
 51
90.0
 73
     1
 72
     1
 10
13.92893019841776
 20
-31.29968305072589
 11
12.45309693740816
 21
-31.29968305072589
 72
     2
 10
12.45309693740816
 20
-31.61539997380197
 40
0.3157169230760815
 50
90.0
 51
180.0
 73
     1
 72
     1
 10
12.13738001433256
 20
-31.61539997380197
 11
12.13738001433256
 21
-35.9718550165191
 97
       12
330
28A
330
201
330
28D
330
1FC
330
29A
330
29B
330
28C
330
1FB
330
28B
330
1FA
330
29C
330
1F9
 92
       16
 93
        8
 72
     2
 10
15.02864562393995
 20
-34.43939593889309
 40
0.3157169230765369
 50
115.3740086783504
 51
180.0
 73
     1
 72
     1
 10
14.71292870086316
 20
-34.43939593889309
 11
14.71292870086316
 21
-35.02124734558817
 72
     2
 10
15.02864562393995
 20
-35.02124734558817
 40
0.3157169230767902
 50
180.0
 51
269.8110329574338
 73
     1
 72
     2
 10
15.03426175924997
 20
-33.31841239801918
 40
2.018561131933273
 50
269.8110329575827
 51
450.1889670424174
 73
     1
 72
     2
 10
15.02864562393995
 20
-31.61557745045019
 40
0.3157169230761815
 50
90.18896704256616
 51
180.0
 73
     1
 72
     1
 10
14.71292870086316
 20
-31.61557745045019
 11
14.71292870086316
 21
-32.221112738957
 72
     2
 10
15.02864562393995
 20
-32.221112738957
 40
0.3157169230767902
 50
180.0
 51
244.6259913216363
 73
     1
 72
     2
 10
14.50260292585205
 20
-33.33025433892476
 40
0.9118481501443934
 50
295.374008678191
 51
424.6259913218198
 73
     0
 97
        8
330
2A6
330
1C6
330
2A3
330
2A4
330
282
330
1C5
330
2A5
330
281
 92
       16
 93
        1
 72
     2
 10
14.47878791117927
 20
-33.33025433892476
 40
0.4709789327784808
 50
0.0
 51
360.0
 73
     1
 97
        1
330
2B4
 75
     1
 76
     2
 52
45.0
 41
0.1
 77
     0
 78
     1
 53
45.0
 43
62.7811309658083
 44
-72.3161373035813
 45
-0.1414213562373095
 46
0.0
 79
     0
 98
        1
 10
0.0
 20
0.0
  0
HATCH
  5
2F5
330
A0
100
AcDbEntity
  8
1
  6
Continuous
 62
     2
100
AcDbHatch
 10
0.0
 20
0.0
 30
0.0
210
0.0
220
0.0
230
1.0
  2
CUSTOM22
 70
     0
 71
     1
 91
        1
 92
        1
 93
       18
 72
     1
 10
39.34630687598335
 20
-34.73158327746529
 11
38.53520783850996
 21
-34.73158327746529
 72
     1
 10
38.53520783850996
 20
-34.73158327746529
 11
38.53520783850996
 21
-37.0001274951527
 72
     1
 10
38.53520783850996
 20
-37.0001274951527
 11
37.34241513634225
 21
-37.0001274951527
 72
     1
 10
37.34241513634225
 20
-37.0001274951527
 11
37.34241513634225
 21
-34.73158327746529
 72
     1
 10
37.34241513634225
 20
-34.73158327746529
 11
36.23877583677415
 21
-34.73158327746529
 72
     2
 10
36.23877583677415
 20
-35.68610628429138
 40
0.9545230068260864
 50
90.0
 51
109.3371432194283
 73
     1
 72
     2
 10
36.09210583867045
 20
-35.26815130390838
 40
0.5115800601944048
 50
109.3371432194823
 51
151.4785267424182
 73
     1
 72
     2
 10
36.46946309675195
 20
-35.4732227332475
 40
0.9410597353350386
 50
151.4785267423569
 51
208.521473257667
 73
     1
 72
     2
 10
36.09210583867045
 20
-35.67829416258599
 40
0.5115800601959967
 50
208.5214732576881
 51
246.6277221118403
 73
     1
 72
     2
 10
36.24854587137367
 20
-35.31630214387599
 40
0.9059297849852208
 50
246.6277221118088
 51
288.4480761180769
 73
     1
 72
     2
 10
35.83037813771165
 20
-34.06275636783926
 40
2.227384008972759
 50
288.4480761181334
 51
301.9309089499395
 73
     1
 72
     1
 10
37.00843317973556
 20
-35.95310708698906
 11
37.00843317973556
 21
-36.82562409379239
 72
     2
 10
35.67250526261887
 20
-32.16054178799095
 40
4.852596863498889
 50
74.02000874166175
 51
84.84185523036268
 73
     0
 72
     2
 10
35.96136135735475
 20
-35.3604323712126
 40
1.639695123940496
 50
84.84185523032279
 51
164.9381082228992
 73
     0
 72
     2
 10
35.54223351389305
 20
-35.4732227332475
 40
1.205656168392972
 50
164.9381082229076
 51
195.0618917770983
 73
     0
 72
     2
 10
35.96136135735475
 20
-35.58601309528228
 40
1.639695123940101
 50
195.061891777101
 51
270.0
 73
     0
 72
     1
 10
35.96136135735475
 20
-33.94631797134218
 11
39.34630687598335
 21
-33.94631797134156
 72
     1
 10
39.34630687598335
 20
-33.94631797134156
 11
39.34630687598335
 21
-34.73158327746529
 97
       18
330
1C8
330
29F
330
2A0
330
288
330
287
330
22C
330
286
330
285
330
2A1
330
284
330
2A2
330
283
330
22D
330
1C7
330
1CC
330
1CB
330
1CA
330
1C9
 75
     1
 76
     2
 52
45.0
 41
0.1
 77
     0
 78
     1
 53
45.0
 43
62.7811309658083
 44
-72.3161373035813
 45
-0.1414213562373095
 46
0.0
 79
     0
 98
        1
 10
0.0
 20
0.0
  0
HATCH
  5
2F6
330
A0
100
AcDbEntity
  8
1
  6
Continuous
 62
     2
100
AcDbHatch
 10
0.0
 20
0.0
 30
0.0
210
0.0
220
0.0
230
1.0
  2
CUSTOM23
 70
     0
 71
     1
 91
        1
 92
        1
 93
       18
 72
     1
 10
39.34630687598335
 20
-34.73158327746529
 11
38.53520783850996
 21
-34.73158327746529
 72
     1
 10
38.53520783850996
 20
-34.73158327746529
 11
38.53520783850996
 21
-37.0001274951527
 72
     1
 10
38.53520783850996
 20
-37.0001274951527
 11
37.34241513634225
 21
-37.0001274951527
 72
     1
 10
37.34241513634225
 20
-37.0001274951527
 11
37.34241513634225
 21
-34.73158327746529
 72
     1
 10
37.34241513634225
 20
-34.73158327746529
 11
36.23877583677415
 21
-34.73158327746529
 72
     2
 10
36.23877583677415
 20
-35.68610628429138
 40
0.9545230068260864
 50
90.0
 51
109.3371432194283
 73
     1
 72
     2
 10
36.09210583867045
 20
-35.26815130390838
 40
0.5115800601944048
 50
109.3371432194823
 51
151.4785267424182
 73
     1
 72
     2
 10
36.46946309675195
 20
-35.4732227332475
 40
0.9410597353350386
 50
151.4785267423569
 51
208.521473257667
 73
     1
 72
     2
 10
36.09210583867045
 20
-35.67829416258599
 40
0.5115800601959967
 50
208.5214732576881
 51
246.6277221118403
 73
     1
 72
     2
 10
36.24854587137367
 20
-35.31630214387599
 40
0.9059297849852208
 50
246.6277221118088
 51
288.4480761180769
 73
     1
 72
     2
 10
35.83037813771165
 20
-34.06275636783926
 40
2.227384008972759
 50
288.4480761181334
 51
301.9309089499395
 73
     1
 72
     1
 10
37.00843317973556
 20
-35.95310708698906
 11
37.00843317973556
 21
-36.82562409379239
 72
     2
 10
35.67250526261887
 20
-32.16054178799095
 40
4.852596863498889
 50
74.02000874166175
 51
84.84185523036268
 73
     0
 72
     2
 10
35.96136135735475
 20
-35.3604323712126
 40
1.639695123940496
 50
84.84185523032279
 51
164.9381082228992
 73
     0
 72
     2
 10
35.54223351389305
 20
-35.4732227332475
 40
1.205656168392972
 50
164.9381082229076
 51
195.0618917770983
 73
     0
 72
     2
 10
35.96136135735475
 20
-35.58601309528228
 40
1.639695123940101
 50
195.061891777101
 51
270.0
 73
     0
 72
     1
 10
35.96136135735475
 20
-33.94631797134218
 11
39.34630687598335
 21
-33.94631797134156
 72
     1
 10
39.34630687598335
 20
-33.94631797134156
 11
39.34630687598335
 21
-34.73158327746529
 97
       18
330
1C8
330
29F
330
2A0
330
288
330
287
330
22C
330
286
330
285
330
2A1
330
284
330
2A2
330
283
330
22D
330
1C7
330
1CC
330
1CB
330
1CA
330
1C9
 75
     1
 76
     2
 52
45.0
 41
0.1
 77
     0
 78
     1
 53
45.0
 43
62.7811309658083
 44
-72.3161373035813
 45
-0.1414213562373095
 46
0.0
 79
     0
 98
        1
 10
0.0
 20
0.0
  0
HATCH
  5
2F7
330
A0
100
AcDbEntity
  8
1
  6
Continuous
 62
     2
100
AcDbHatch
 10
0.0
 20
0.0
 30
0.0
210
0.0
220
0.0
230
1.0
  2
CUSTOM24
 70
     0
 71
     1
 91
        1
 92
        1
 93
       14
 72
     2
 10
19.85865987810186
 20
-35.58601309528228
 40
1.639695123940499
 50
84.84185523036545
 51
164.9381082228903
 73
     1
 72
     2
 10
19.43953203463906
 20
-35.4732227332475
 40
1.205656168390975
 50
164.9381082228762
 51
195.0618917770942
 73
     1
 72
     2
 10
19.85865987810186
 20
-35.3604323712126
 40
1.639695123939432
 50
195.061891777092
 51
275.1581447696361
 73
     1
 72
     2
 10
19.56980378336596
 20
-32.16054178799095
 40
4.852596863498278
 50
275.1581447696237
 51
285.9799912583526
 73
     1
 72
     1
 10
20.90573170048376
 20
-36.82562409379187
 11
20.90573170048376
 21
-35.95310708698855
 72
     2
 10
19.72767665845876
 20
-34.0627563678388
 40
2.227384008972719
 50
58.06909105003618
 51
71.55192388186632
 73
     0
 72
     2
 10
20.14584439211967
 20
-35.31630214387599
 40
0.9059297849848247
 50
71.55192388184626
 51
113.3722778881332
 73
     0
 72
     2
 10
19.98940435941756
 20
-35.67829416258599
 40
0.5115800601947458
 50
113.3722778881714
 51
151.4785267423163
 73
     0
 72
     2
 10
20.36676161749796
 20
-35.4732227332475
 40
0.9410597353333356
 50
151.4785267423034
 51
208.5214732577304
 73
     0
 72
     2
 10
19.98940435941756
 20
-35.26815130390838
 40
0.5115800601948264
 50
208.5214732576837
 51
246.6277221118062
 73
     0
 72
     2
 10
20.14584439211967
 20
-35.63014332261901
 40
0.9059297849853554
 50
246.6277221118698
 51
288.44807611814
 73
     0
 72
     2
 10
19.72767665845876
 20
-36.88368909865557
 40
2.227384008973475
 50
288.4480761181332
 51
301.9309089499629
 73
     0
 72
     1
 10
20.90573170048376
 20
-34.99333837950576
 11
20.90573170048376
 21
-34.12082137270249
 72
     2
 10
19.56980378336596
 20
-38.7859036785033
 40
4.852596863497992
 50
74.02000874164713
 51
84.84185523037617
 73
     1
 97
       14
330
2A7
330
2A8
330
2A9
330
2AA
330
22E
330
280
330
27F
330
27E
330
2AB
330
2AC
330
27D
330
2AD
330
22F
330
27C
 75
     1
 76
     2
 52
45.0
 41
0.1
 77
     0
 78
     1
 53
45.0
 43
62.7811309658083
 44
-72.3161373035813
 45
-0.1414213562373095
 46
0.0
 79
     0
 98
        1
 10
0.0
 20
0.0
  0
HATCH
  5
2F8
330
A0
100
AcDbEntity
  8
1
  6
Continuous
 62
     2
100
AcDbHatch
 10
0.0
 20
0.0
 30
0.0
210
0.0
220
0.0
230
1.0
  2
CUSTOM25
 70
     0
 71
     1
 91
        1
 92
        1
 93
       14
 72
     2
 10
19.85865987810186
 20
-35.58601309528228
 40
1.639695123940499
 50
84.84185523036545
 51
164.9381082228903
 73
     1
 72
     2
 10
19.43953203463906
 20
-35.4732227332475
 40
1.205656168390975
 50
164.9381082228762
 51
195.0618917770942
 73
     1
 72
     2
 10
19.85865987810186
 20
-35.3604323712126
 40
1.639695123939432
 50
195.061891777092
 51
275.1581447696361
 73
     1
 72
     2
 10
19.56980378336596
 20
-32.16054178799095
 40
4.852596863498278
 50
275.1581447696237
 51
285.9799912583526
 73
     1
 72
     1
 10
20.90573170048376
 20
-36.82562409379187
 11
20.90573170048376
 21
-35.95310708698855
 72
     2
 10
19.72767665845876
 20
-34.0627563678388
 40
2.227384008972719
 50
58.06909105003618
 51
71.55192388186632
 73
     0
 72
     2
 10
20.14584439211967
 20
-35.31630214387599
 40
0.9059297849848247
 50
71.55192388184626
 51
113.3722778881332
 73
     0
 72
     2
 10
19.98940435941756
 20
-35.67829416258599
 40
0.5115800601947458
 50
113.3722778881714
 51
151.4785267423163
 73
     0
 72
     2
 10
20.36676161749796
 20
-35.4732227332475
 40
0.9410597353333356
 50
151.4785267423034
 51
208.5214732577304
 73
     0
 72
     2
 10
19.98940435941756
 20
-35.26815130390838
 40
0.5115800601948264
 50
208.5214732576837
 51
246.6277221118062
 73
     0
 72
     2
 10
20.14584439211967
 20
-35.63014332261901
 40
0.9059297849853554
 50
246.6277221118698
 51
288.44807611814
 73
     0
 72
     2
 10
19.72767665845876
 20
-36.88368909865557
 40
2.227384008973475
 50
288.4480761181332
 51
301.9309089499629
 73
     0
 72
     1
 10
20.90573170048376
 20
-34.99333837950576
 11
20.90573170048376
 21
-34.12082137270249
 72
     2
 10
19.56980378336596
 20
-38.7859036785033
 40
4.852596863497992
 50
74.02000874164713
 51
84.84185523037617
 73
     1
 97
       14
330
2A7
330
2A8
330
2A9
330
2AA
330
22E
330
280
330
27F
330
27E
330
2AB
330
2AC
330
27D
330
2AD
330
22F
330
27C
 75
     1
 76
     2
 52
45.0
 41
0.1
 77
     0
 78
     1
 53
45.0
 43
62.7811309658083
 44
-72.3161373035813
 45
-0.1414213562373095
 46
0.0
 79
     0
 98
        1
 10
0.0
 20
0.0
  0
ENDBLK
  5
A2
330
A0
100
AcDbEntity
  8
0
100
AcDbBlockEnd
  0
BLOCK
  5
A4
330
A3
100
AcDbEntity
  8
0
100
AcDbBlockBegin
  2
_punkt
 70
     0
 10
136.7431072854662
 20
-44.29362749516901
 30
0.0
  3
_punkt
  1

  0
LINE
  5
2F9
330
A3
100
AcDbEntity
  8
1
  6
Continuous
 62
     2
100
AcDbLine
 10
136.7431072854663
 20
-44.29362749516901
 30
0.0
 11
141.7431072854639
 21
-44.29362749516901
 31
0.0
  0
LINE
  5
2FA
330
A3
100
AcDbEntity
  8
1
  6
Continuous
 62
     2
100
AcDbLine
 10
136.7431072854663
 20
-44.29362749516901
 30
0.0
 11
136.7431072854663
 21
-49.29362749516849
 31
0.0
  0
ENDBLK
  5
A5
330
A3
100
AcDbEntity
  8
0
100
AcDbBlockEnd
  0
BLOCK
  5
A9
330
A6
100
AcDbEntity
  8
0
100
AcDbBlockBegin
  2
A3I_CS
 70
     0
 10
136.7431072854663
 20
-49.29362749516849
 30
0.0
  3
A3I_CS
  1

  0
INSERT
  5
A7
330
A6
100
AcDbEntity
  8
1
100
AcDbBlockReference
  2
_rahmen
 10
136.7431072854663
 20
-49.29362749516849
 30
0.0
  0
INSERT
  5
A8
330
A6
100
AcDbEntity
  8
1
100
AcDbBlockReference
  2
_punkt
 10
136.7431072854662
 20
-44.29362749516901
 30
0.0
  0
ENDBLK
  5
AA
330
A6
100
AcDbEntity
  8
0
100
AcDbBlockEnd
  0
BLOCK
  5
B3
330
AB
100
AcDbEntity
  8
0
100
AcDbBlockBegin
  2
1
 70
     0
 10
0.0
 20
0.0
 30
0.0
  3
1
  1

  0
INSERT
  5
AC
330
AB
100
AcDbEntity
  8
0
100
AcDbBlockReference
  2
AllgSicht2
 10
96.00000000001978
 20
28.04210204199112
 30
0.0
 41
2.0
 42
2.0
 43
2.0
  0
INSERT
  5
AD
330
AB
100
AcDbEntity
  8
0
100
AcDbBlockReference
  2
Drfsicht2
 10
-103.7499999999932
 20
76.99999904624792
 30
0.0
 41
2.0
 42
2.0
 43
2.0
  0
INSERT
  5
AE
330
AB
100
AcDbEntity
  8
0
100
AcDbBlockReference
  2
Rckans2
 10
53.74999999999316
 20
172.9999999999181
 30
0.0
 41
2.0
 42
2.0
 43
2.0
  0
INSERT
  5
AF
330
AB
100
AcDbEntity
  8
0
100
AcDbBlockReference
  2
SA_Links2
 10
-24.4521731720107
 20
172.9999999998364
 30
0.0
 41
2.0
 42
2.0
 43
2.0
  0
INSERT
  5
B0
330
AB
100
AcDbEntity
  8
0
100
AcDbBlockReference
  2
SA_Rechts2
 10
-195.4999999999861
 20
172.9999999999179
 30
0.0
 41
2.0
 42
2.0
 43
2.0
  0
INSERT
  5
B1
330
AB
100
AcDbEntity
  8
0
100
AcDbBlockReference
  2
Vordans2
 10
-103.7499999999933
 20
172.9999999999182
 30
0.0
 41
2.0
 42
2.0
 43
2.0
  0
INSERT
  5
B2
330
AB
100
AcDbEntity
  8
0
100
AcDbBlockReference
  2
A3I_CS
 10
136.7431072854663
 20
-49.29362749516849
 30
0.0
  0
ENDBLK
  5
B4
330
AB
100
AcDbEntity
  8
0
100
AcDbBlockEnd
  0
BLOCK
  5
108
330
101
100
AcDbEntity
  8
0
100
AcDbBlockBegin
  2
*D17
 70
     1
 10
0.0
 20
0.0
 30
0.0
  3
*D17
  1

  0
LINE
  5
102
330
101
100
AcDbEntity
  8
1
  6
Continuous
 62
     2
100
AcDbLine
 10
-66.87253695117784
 20
48.74999861560169
 30
0.0
 11
-66.87253695117784
 21
28.24999861560173
 31
0.0
  0
LINE
  5
103
330
101
100
AcDbEntity
  8
1
  6
Continuous
 62
     2
100
AcDbLine
 10
-54.32499999996404
 20
48.74999861560169
 30
0.0
 11
-67.62253695117784
 21
48.74999861560169
 31
0.0
  0
LINE
  5
104
330
101
100
AcDbEntity
  8
1
  6
Continuous
 62
     2
100
AcDbLine
 10
-46.02499999996404
 20
28.24999861560173
 30
0.0
 11
-67.62253695117784
 21
28.24999861560173
 31
0.0
  0
SOLID
  5
105
330
101
100
AcDbEntity
  8
1
 62
     2
100
AcDbTrace
 10
-66.6421450803999
 20
46.99999861560169
 30
0.0
 11
-67.10292882195577
 21
46.99999861560169
 31
0.0
 12
-66.87253695117784
 22
48.74999861560169
 32
0.0
 13
-66.87253695117784
 23
48.74999861560169
 33
0.0
  0
SOLID
  5
106
330
101
100
AcDbEntity
  8
1
 62
     2
100
AcDbTrace
 10
-67.10292882195577
 20
29.99999861560173
 30
0.0
 11
-66.6421450803999
 21
29.99999861560173
 31
0.0
 12
-66.87253695117784
 22
28.24999861560173
 32
0.0
 13
-66.87253695117784
 23
28.24999861560173
 33
0.0
  0
MTEXT
  5
107
330
101
100
AcDbEntity
  8
1
 62
     3
100
AcDbMText
 10
-67.79753695117785
 20
35.7047344701877
 30
0.0
 40
1.75
 41
0.0
 71
     7
 72
     1
  1
20,5
  7
CONVERTER_11
 11
0.0
 21
1.0
 31
0.0
 73
     1
 44
0.60024009603842
  0
ENDBLK
  5
109
330
101
100
AcDbEntity
  8
0
100
AcDbBlockEnd
  0
BLOCK
  5
19F
330
198
100
AcDbEntity
  8
0
100
AcDbBlockBegin
  2
*D18
 70
     1
 10
0.0
 20
0.0
 30
0.0
  3
*D18
  1

  0
LINE
  5
199
330
198
100
AcDbEntity
  8
1
  6
Continuous
 62
     2
100
AcDbLine
 10
-66.87253695117784
 20
71.74999949698048
 30
0.0
 11
-66.87253695117784
 21
101.2499994969822
 31
0.0
  0
LINE
  5
19A
330
198
100
AcDbEntity
  8
1
  6
Continuous
 62
     2
100
AcDbLine
 10
-53.67884757726313
 20
71.74999949698048
 30
0.0
 11
-67.87253695117784
 21
71.74999949698048
 31
0.0
  0
LINE
  5
19B
330
198
100
AcDbEntity
  8
1
  6
Continuous
 62
     2
100
AcDbLine
 10
-60.37499999996263
 20
101.2499994969822
 30
0.0
 11
-67.87253695117784
 21
101.2499994969822
 31
0.0
  0
SOLID
  5
19C
330
198
100
AcDbEntity
  8
1
 62
     2
100
AcDbTrace
 10
-67.10292882195577
 20
73.49999949698048
 30
0.0
 11
-66.6421450803999
 21
73.49999949698048
 31
0.0
 12
-66.87253695117784
 22
71.74999949698048
 32
0.0
 13
-66.87253695117784
 23
71.74999949698048
 33
0.0
  0
SOLID
  5
19D
330
198
100
AcDbEntity
  8
1
 62
     2
100
AcDbTrace
 10
-66.6421450803999
 20
99.49999949698216
 30
0.0
 11
-67.10292882195577
 21
99.49999949698216
 31
0.0
 12
-66.87253695117784
 22
101.2499994969822
 32
0.0
 13
-66.87253695117784
 23
101.2499994969822
 33
0.0
  0
MTEXT
  5
19E
330
198
100
AcDbEntity
  8
1
 62
     3
100
AcDbMText
 10
-68.04753695117785
 20
83.30391899145103
 30
0.0
 40
1.75
 41
0.0
 71
     7
 72
     1
  1
29,5
  7
CONVERTER_11
 11
0.0
 21
1.0
 31
0.0
 73
     1
 44
0.60024009603842
  0
ENDBLK
  5
1A0
330
198
100
AcDbEntity
  8
0
100
AcDbBlockEnd
  0
BLOCK
  5
1AA
330
1A3
100
AcDbEntity
  8
0
100
AcDbBlockBegin
  2
*D19
 70
     1
 10
0.0
 20
0.0
 30
0.0
  3
*D19
  1

  0
LINE
  5
1A4
330
1A3
100
AcDbEntity
  8
1
  6
Continuous
 62
     2
100
AcDbLine
 10
-43.37499999996906
 20
65.02776271345704
 30
0.0
 11
-60.37499999996893
 21
65.02776271345704
 31
0.0
  0
LINE
  5
1A5
330
1A3
100
AcDbEntity
  8
1
  6
Continuous
 62
     2
100
AcDbLine
 10
-43.37499999996906
 20
74.74999949697805
 30
0.0
 11
-43.37499999996906
 21
64.02776271345704
 31
0.0
  0
LINE
  5
1A6
330
1A3
100
AcDbEntity
  8
1
  6
Continuous
 62
     2
100
AcDbLine
 10
-60.37499999996893
 20
74.7499994969821
 30
0.0
 11
-60.37499999996893
 21
64.02776271345704
 31
0.0
  0
SOLID
  5
1A7
330
1A3
100
AcDbEntity
  8
1
 62
     2
100
AcDbTrace
 10
-45.12499999996906
 20
64.7973708426791
 30
0.0
 11
-45.12499999996906
 21
65.25815458423497
 31
0.0
 12
-43.37499999996906
 22
65.02776271345704
 32
0.0
 13
-43.37499999996906
 23
65.02776271345704
 33
0.0
  0
SOLID
  5
1A8
330
1A3
100
AcDbEntity
  8
1
 62
     2
100
AcDbTrace
 10
-58.62499999996893
 20
65.25815458423497
 30
0.0
 11
-58.62499999996893
 21
64.7973708426791
 31
0.0
 12
-60.37499999996893
 22
65.02776271345704
 32
0.0
 13
-60.37499999996893
 23
65.02776271345704
 33
0.0
  0
MTEXT
  5
1A9
330
1A3
100
AcDbEntity
  8
1
 62
     3
100
AcDbMText
 10
-52.92499999999681
 20
66.02776271345704
 30
0.0
 40
1.75
 41
0.0
 71
     7
 72
     1
  1
17
  7
CONVERTER_11
 11
0.9999999999970619
 21
2.424068405545306E-6
 31
0.0
 73
     1
 44
0.60024009603842
  0
ENDBLK
  5
1AB
330
1A3
100
AcDbEntity
  8
0
100
AcDbBlockEnd
  0
ENDSEC
  0
SECTION
  2
ENTITIES
  0
INSERT
  5
B5
330
1F
100
AcDbEntity
  8
1
100
AcDbBlockReference
  2
1
 10
0.0
 20
0.0
 30
0.0
  0
ENDSEC
  0
SECTION
  2
OBJECTS
  0
DICTIONARY
  5
C
330
0
100
AcDbDictionary
281
     1
  3
ACAD_DETAILVIEWSTYLE
350
340
  3
ACAD_GROUP
350
D
  3
ACAD_LAYOUT
350
1A
  3
ACAD_MATERIAL
350
43
  3
ACAD_MLEADERSTYLE
350
6B
  3
ACAD_MLINESTYLE
350
17
  3
ACAD_PLOTSETTINGS
350
19
  3
ACAD_PLOTSTYLENAME
350
E
  3
ACAD_SCALELIST
350
47
  3
ACAD_SECTIONVIEWSTYLE
350
341
  3
ACAD_TABLESTYLE
350
69
  3
ACAD_VISUALSTYLE
350
2A
  3
ACDB_RECOMPOSE_DATA
350
33D
  3
AcDbVariableDictionary
350
2FD
  0
DICTIONARY
  5
2FB
330
8
100
AcDbDictionary
280
     1
281
     1
  3
ACAD_XREC_ROUNDTRIP
360
2FC
  0
DICTIONARY
  5
340
102
{ACAD_REACTORS
330
C
102
}
330
C
100
AcDbDictionary
281
     1
  0
DICTIONARY
  5
D
102
{ACAD_REACTORS
330
C
102
}
330
C
100
AcDbDictionary
281
     1
  0
DICTIONARY
  5
1A
102
{ACAD_REACTORS
330
C
102
}
330
C
100
AcDbDictionary
281
     1
  3
Layout1
350
1E
  3
Layout2
350
26
  3
Model
350
22
  0
DICTIONARY
  5
43
102
{ACAD_REACTORS
330
C
102
}
330
C
100
AcDbDictionary
281
     1
  3
ByBlock
350
45
  3
ByLayer
350
44
  3
Global
350
46
  0
DICTIONARY
  5
6B
102
{ACAD_REACTORS
330
C
102
}
330
C
100
AcDbDictionary
281
     1
  3
Standard
350
6C
  0
DICTIONARY
  5
17
102
{ACAD_REACTORS
330
C
102
}
330
C
100
AcDbDictionary
281
     1
  3
Standard
350
18
  0
DICTIONARY
  5
19
102
{ACAD_REACTORS
330
C
102
}
330
C
100
AcDbDictionary
281
     1
  0
ACDBDICTIONARYWDFLT
  5
E
102
{ACAD_REACTORS
330
C
102
}
330
C
100
AcDbDictionary
281
     1
  3
Normal
350
F
100
AcDbDictionaryWithDefault
340
F
  0
DICTIONARY
  5
47
102
{ACAD_REACTORS
330
C
102
}
330
C
100
AcDbDictionary
281
     1
  3
A0
350
48
  3
A1
350
49
  3
A2
350
4A
  3
A3
350
4B
  3
A4
350
4C
  3
A5
350
4D
  3
A6
350
4E
  3
A7
350
4F
  3
A8
350
50
  3
A9
350
51
  3
B0
350
52
  3
B1
350
53
  3
B2
350
54
  3
B3
350
55
  3
B4
350
56
  3
B5
350
57
  3
B6
350
58
  3
B7
350
59
  3
B8
350
5A
  3
B9
350
5B
  3
C0
350
5C
  3
C1
350
5D
  3
C2
350
5E
  3
C3
350
5F
  3
C4
350
60
  3
C5
350
61
  3
C6
350
62
  3
C7
350
63
  3
C8
350
64
  3
C9
350
65
  3
D0
350
66
  3
D1
350
67
  3
D2
350
68
  0
DICTIONARY
  5
341
102
{ACAD_REACTORS
330
C
102
}
330
C
100
AcDbDictionary
281
     1
  0
DICTIONARY
  5
69
102
{ACAD_REACTORS
330
C
102
}
330
C
100
AcDbDictionary
281
     1
  3
Standard
350
6A
  0
DICTIONARY
  5
2A
102
{ACAD_REACTORS
330
C
102
}
330
C
100
AcDbDictionary
281
     1
  3
2dWireframe
350
2F
  3
Basic
350
32
  3
Brighten
350
36
  3
ColorChange
350
3A
  3
Conceptual
350
34
  3
Dim
350
35
  3
EdgeColorOff
350
3D
  3
Facepattern
350
39
  3
Flat
350
2B
  3
FlatWithEdges
350
2C
  3
Gouraud
350
2D
  3
GouraudWithEdges
350
2E
  3
Hidden
350
31
  3
JitterOff
350
3B
  3
Linepattern
350
38
  3
OverhangOff
350
3C
  3
Realistic
350
33
  3
Shaded
350
42
  3
Shaded with edges
350
41
  3
Shades of Gray
350
3E
  3
Sketchy
350
3F
  3
Thicken
350
37
  3
Wireframe
350
30
  3
X-Ray
350
40
  0
XRECORD
  5
33D
102
{ACAD_REACTORS
330
C
102
}
330
C
100
AcDbXrecord
280
     1
 90
        1
330
6A
  0
DICTIONARY
  5
2FD
102
{ACAD_REACTORS
330
C
102
}
330
C
100
AcDbDictionary
281
     1
  3
CANNOSCALE
350
2FE
  3
CMLEADERSTYLE
350
33F
  3
CTABLESTYLE
350
33E
  3
MSLTSCALE
350
2FF
  3
XCLIPFRAME
350
300
  0
XRECORD
  5
2FC
102
{ACAD_REACTORS
330
2FB
102
}
330
2FB
100
AcDbXrecord
280
     1
102
VTR_0.000_0.000_1.000_1.000_VISUALSTYLE
340
2F
102
VTR_0.000_0.000_1.000_1.000_GRIDDISPLAY
 70
     3
102
VTR_0.000_0.000_1.000_1.000_GRIDMAJOR
 70
     5
102
VTR_0.000_0.000_1.000_1.000_DEFAULTLIGHTING
280
     1
102
VTR_0.000_0.000_1.000_1.000_DEFAULTLIGHTINGTYPE
 70
     1
102
VTR_0.000_0.000_1.000_1.000_BRIGHTNESS
141
0.0
102
VTR_0.000_0.000_1.000_1.000_CONTRAST
142
0.0
  0
LAYOUT
  5
1E
102
{ACAD_REACTORS
330
1A
102
}
330
1A
100
AcDbPlotSettings
  1

  2
none_device
  4

  6

 40
0.0
 41
0.0
 42
0.0
 43
0.0
 44
0.0
 45
0.0
 46
0.0
 47
0.0
 48
0.0
 49
0.0
140
0.0
141
0.0
142
1.0
143
1.0
 70
   688
 72
     0
 73
     0
 74
     5
  7

 75
    16
 76
     0
 77
     2
 78
   300
147
1.0
148
0.0
149
0.0
100
AcDbLayout
  1
Layout1
 70
     1
 71
     1
 10
0.0
 20
0.0
 11
12.0
 21
9.0
 12
0.0
 22
0.0
 32
0.0
 14
1.00000000000000E+20
 24
1.00000000000000E+20
 34
1.00000000000000E+20
 15
-1.00000000000000E+20
 25
-1.00000000000000E+20
 35
-1.00000000000000E+20
146
0.0
 13
0.0
 23
0.0
 33
0.0
 16
1.0
 26
0.0
 36
0.0
 17
0.0
 27
1.0
 37
0.0
 76
     0
330
1B
  0
LAYOUT
  5
26
102
{ACAD_REACTORS
330
1A
102
}
330
1A
100
AcDbPlotSettings
  1

  2
none_device
  4

  6

 40
0.0
 41
0.0
 42
0.0
 43
0.0
 44
0.0
 45
0.0
 46
0.0
 47
0.0
 48
0.0
 49
0.0
140
0.0
141
0.0
142
1.0
143
1.0
 70
   688
 72
     0
 73
     0
 74
     5
  7

 75
    16
 76
     0
 77
     2
 78
   300
147
1.0
148
0.0
149
0.0
100
AcDbLayout
  1
Layout2
 70
     1
 71
     2
 10
0.0
 20
0.0
 11
0.0
 21
0.0
 12
0.0
 22
0.0
 32
0.0
 14
0.0
 24
0.0
 34
0.0
 15
0.0
 25
0.0
 35
0.0
146
0.0
 13
0.0
 23
0.0
 33
0.0
 16
1.0
 26
0.0
 36
0.0
 17
0.0
 27
1.0
 37
0.0
 76
     0
330
23
  0
LAYOUT
  5
22
102
{ACAD_REACTORS
330
1A
102
}
330
1A
100
AcDbPlotSettings
  1

  2
none_device
  4
Letter_(8.50_x_11.00_Inches)
  6

 40
6.35
 41
6.35
 42
6.35000508
 43
6.35000508
 44
215.9
 45
279.4
 46
0.0
 47
0.0
 48
0.0
 49
0.0
140
0.0
141
0.0
142
1.0
143
1.0
 70
  1712
 72
     0
 73
     0
 74
     0
  7

 75
     0
 76
     0
 77
     2
 78
   300
147
1.0
148
0.0
149
0.0
100
AcDbLayout
  1
Model
 70
     1
 71
     0
 10
0.0
 20
0.0
 11
12.0
 21
9.0
 12
0.0
 22
0.0
 32
0.0
 14
-278.2568927145345
 24
-49.29362749516849
 34
0.0
 15
141.7431072854639
 25
247.7063725048315
 35
0.0
146
0.0
 13
0.0
 23
0.0
 33
0.0
 16
1.0
 26
0.0
 36
0.0
 17
0.0
 27
1.0
 37
0.0
 76
     0
330
1F
331
29
  0
MATERIAL
  5
45
102
{ACAD_REACTORS
330
43
102
}
102
{ACAD_XDICTIONARY
360
333
102
}
330
43
100
AcDbMaterial
  1
ByBlock
  0
MATERIAL
  5
44
102
{ACAD_REACTORS
330
43
102
}
102
{ACAD_XDICTIONARY
360
331
102
}
330
43
100
AcDbMaterial
  1
ByLayer
  0
MATERIAL
  5
46
102
{ACAD_REACTORS
330
43
102
}
102
{ACAD_XDICTIONARY
360
335
102
}
330
43
100
AcDbMaterial
  1
Global
  0
MLEADERSTYLE
  5
6C
102
{ACAD_REACTORS
330
6B
102
}
102
{ACAD_XDICTIONARY
360
33B
102
}
330
6B
100
AcDbMLeaderStyle
170
     2
171
     1
172
     0
 90
        2
 40
0.0
 41
0.0
173
     1
 91
-1056964608
340
14
 92
       -2
290
     1
 42
0.09
291
     1
 43
0.36
  3
Standard
341
0
 44
0.18
300

342
11
174
     1
178
     6
175
     1
176
     0
 93
-1056964608
 45
0.18
292
     0
297
     0
 46
0.18
343
0
 94
-1056964608
 47
1.0
 49
1.0
140
1.0
293
     1
141
0.0
294
     1
177
     0
142
1.0
295
     0
296
     0
143
0.125
1001
ACAD_MLEADERVER
1070
     2
  0
MLINESTYLE
  5
18
102
{ACAD_REACTORS
330
17
102
}
330
17
100
AcDbMlineStyle
  2
Standard
 70
     0
  3

 62
   256
 51
90.0
 52
90.0
 71
     2
 49
0.5
 62
   256
  6
BYLAYER
 49
-0.5
 62
   256
  6
BYLAYER
  0
ACDBPLACEHOLDER
  5
F
102
{ACAD_REACTORS
330
E
102
}
330
E
  0
SCALE
  5
48
102
{ACAD_REACTORS
330
47
102
}
330
47
100
AcDbScale
 70
     0
300
1:1
140
1.0
141
1.0
290
     1
  0
SCALE
  5
49
102
{ACAD_REACTORS
330
47
102
}
330
47
100
AcDbScale
 70
     0
300
1:2
140
1.0
141
2.0
290
     0
  0
SCALE
  5
4A
102
{ACAD_REACTORS
330
47
102
}
330
47
100
AcDbScale
 70
     0
300
1:4
140
1.0
141
4.0
290
     0
  0
SCALE
  5
4B
102
{ACAD_REACTORS
330
47
102
}
330
47
100
AcDbScale
 70
     0
300
1:5
140
1.0
141
5.0
290
     0
  0
SCALE
  5
4C
102
{ACAD_REACTORS
330
47
102
}
330
47
100
AcDbScale
 70
     0
300
1:8
140
1.0
141
8.0
290
     0
  0
SCALE
  5
4D
102
{ACAD_REACTORS
330
47
102
}
330
47
100
AcDbScale
 70
     0
300
1:10
140
1.0
141
10.0
290
     0
  0
SCALE
  5
4E
102
{ACAD_REACTORS
330
47
102
}
330
47
100
AcDbScale
 70
     0
300
1:16
140
1.0
141
16.0
290
     0
  0
SCALE
  5
4F
102
{ACAD_REACTORS
330
47
102
}
330
47
100
AcDbScale
 70
     0
300
1:20
140
1.0
141
20.0
290
     0
  0
SCALE
  5
50
102
{ACAD_REACTORS
330
47
102
}
330
47
100
AcDbScale
 70
     0
300
1:30
140
1.0
141
30.0
290
     0
  0
SCALE
  5
51
102
{ACAD_REACTORS
330
47
102
}
330
47
100
AcDbScale
 70
     0
300
1:40
140
1.0
141
40.0
290
     0
  0
SCALE
  5
52
102
{ACAD_REACTORS
330
47
102
}
330
47
100
AcDbScale
 70
     0
300
1:50
140
1.0
141
50.0
290
     0
  0
SCALE
  5
53
102
{ACAD_REACTORS
330
47
102
}
330
47
100
AcDbScale
 70
     0
300
1:100
140
1.0
141
100.0
290
     0
  0
SCALE
  5
54
102
{ACAD_REACTORS
330
47
102
}
330
47
100
AcDbScale
 70
     0
300
2:1
140
2.0
141
1.0
290
     0
  0
SCALE
  5
55
102
{ACAD_REACTORS
330
47
102
}
330
47
100
AcDbScale
 70
     0
300
4:1
140
4.0
141
1.0
290
     0
  0
SCALE
  5
56
102
{ACAD_REACTORS
330
47
102
}
330
47
100
AcDbScale
 70
     0
300
8:1
140
8.0
141
1.0
290
     0
  0
SCALE
  5
57
102
{ACAD_REACTORS
330
47
102
}
330
47
100
AcDbScale
 70
     0
300
10:1
140
10.0
141
1.0
290
     0
  0
SCALE
  5
58
102
{ACAD_REACTORS
330
47
102
}
330
47
100
AcDbScale
 70
     0
300
100:1
140
100.0
141
1.0
290
     0
  0
SCALE
  5
59
102
{ACAD_REACTORS
330
47
102
}
330
47
100
AcDbScale
 70
     0
300
1/128" = 1'-0"
140
0.0078125
141
12.0
290
     0
  0
SCALE
  5
5A
102
{ACAD_REACTORS
330
47
102
}
330
47
100
AcDbScale
 70
     0
300
1/64" = 1'-0"
140
0.015625
141
12.0
290
     0
  0
SCALE
  5
5B
102
{ACAD_REACTORS
330
47
102
}
330
47
100
AcDbScale
 70
     0
300
1/32" = 1'-0"
140
0.03125
141
12.0
290
     0
  0
SCALE
  5
5C
102
{ACAD_REACTORS
330
47
102
}
330
47
100
AcDbScale
 70
     0
300
1/16" = 1'-0"
140
0.0625
141
12.0
290
     0
  0
SCALE
  5
5D
102
{ACAD_REACTORS
330
47
102
}
330
47
100
AcDbScale
 70
     0
300
3/32" = 1'-0"
140
0.09375
141
12.0
290
     0
  0
SCALE
  5
5E
102
{ACAD_REACTORS
330
47
102
}
330
47
100
AcDbScale
 70
     0
300
1/8" = 1'-0"
140
0.125
141
12.0
290
     0
  0
SCALE
  5
5F
102
{ACAD_REACTORS
330
47
102
}
330
47
100
AcDbScale
 70
     0
300
3/16" = 1'-0"
140
0.1875
141
12.0
290
     0
  0
SCALE
  5
60
102
{ACAD_REACTORS
330
47
102
}
330
47
100
AcDbScale
 70
     0
300
1/4" = 1'-0"
140
0.25
141
12.0
290
     0
  0
SCALE
  5
61
102
{ACAD_REACTORS
330
47
102
}
330
47
100
AcDbScale
 70
     0
300
3/8" = 1'-0"
140
0.375
141
12.0
290
     0
  0
SCALE
  5
62
102
{ACAD_REACTORS
330
47
102
}
330
47
100
AcDbScale
 70
     0
300
1/2" = 1'-0"
140
0.5
141
12.0
290
     0
  0
SCALE
  5
63
102
{ACAD_REACTORS
330
47
102
}
330
47
100
AcDbScale
 70
     0
300
3/4" = 1'-0"
140
0.75
141
12.0
290
     0
  0
SCALE
  5
64
102
{ACAD_REACTORS
330
47
102
}
330
47
100
AcDbScale
 70
     0
300
1" = 1'-0"
140
1.0
141
12.0
290
     0
  0
SCALE
  5
65
102
{ACAD_REACTORS
330
47
102
}
330
47
100
AcDbScale
 70
     0
300
1-1/2" = 1'-0"
140
1.5
141
12.0
290
     0
  0
SCALE
  5
66
102
{ACAD_REACTORS
330
47
102
}
330
47
100
AcDbScale
 70
     0
300
3" = 1'-0"
140
3.0
141
12.0
290
     0
  0
SCALE
  5
67
102
{ACAD_REACTORS
330
47
102
}
330
47
100
AcDbScale
 70
     0
300
6" = 1'-0"
140
6.0
141
12.0
290
     0
  0
SCALE
  5
68
102
{ACAD_REACTORS
330
47
102
}
330
47
100
AcDbScale
 70
     0
300
1'-0" = 1'-0"
140
12.0
141
12.0
290
     0
  0
TABLESTYLE
  5
6A
102
{ACAD_REACTORS
330
69
102
}
102
{ACAD_XDICTIONARY
360
337
102
}
330
69
100
AcDbTableStyle
  3
Standard
 70
     0
 71
     0
 40
0.06
 41
0.06
280
     0
281
     0
  7
Standard
140
0.18
170
     2
 62
     0
 63
   257
283
     0
274
    -2
284
     1
 64
     0
275
    -2
285
     1
 65
     0
276
    -2
286
     1
 66
     0
277
    -2
287
     1
 67
     0
278
    -2
288
     1
 68
     0
279
    -2
289
     1
 69
     0
  7
Standard
140
0.25
170
     5
 62
     0
 63
   257
283
     0
274
    -2
284
     1
 64
     0
275
    -2
285
     1
 65
     0
276
    -2
286
     1
 66
     0
277
    -2
287
     1
 67
     0
278
    -2
288
     1
 68
     0
279
    -2
289
     1
 69
     0
  7
Standard
140
0.18
170
     5
 62
     0
 63
   257
283
     0
274
    -2
284
     1
 64
     0
275
    -2
285
     1
 65
     0
276
    -2
286
     1
 66
     0
277
    -2
287
     1
 67
     0
278
    -2
288
     1
 68
     0
279
    -2
289
     1
 69
     0
  0
VISUALSTYLE
  5
2F
102
{ACAD_REACTORS
330
2A
102
}
102
{ACAD_XDICTIONARY
360
309
102
}
330
2A
100
AcDbVisualStyle
  2
2dWireframe
 70
     4
 71
     0
 72
     2
 73
     0
 90
        0
 40
0.6
 41
30.0
 62
     5
 63
     7
421
 16777215
 74
     1
 91
        4
 64
     7
 65
   257
 75
     1
175
     1
 42
1.0
 92
        0
 66
   257
 43
1.0
 76
     1
 77
     6
 78
     2
 67
     7
 79
     5
170
     0
171
     0
290
     0
174
     0
 93
        1
 44
0.0
173
     0
291
     0
 45
0.0
1001
ACAD
1000
AcDbSavedByObjectVersion
1070
     0
  0
VISUALSTYLE
  5
32
102
{ACAD_REACTORS
330
2A
102
}
102
{ACAD_XDICTIONARY
360
30F
102
}
330
2A
100
AcDbVisualStyle
  2
Basic
 70
     7
 71
     1
 72
     0
 73
     1
 90
        0
 40
0.6
 41
30.0
 62
     5
 63
     7
421
 16777215
 74
     0
 91
        4
 64
     7
 65
   257
 75
     1
175
     1
 42
1.0
 92
        8
 66
     7
 43
1.0
 76
     1
 77
     6
 78
     2
 67
     7
 79
     5
170
     0
171
     0
290
     0
174
     0
 93
        1
 44
0.0
173
     0
291
     1
 45
0.0
1001
ACAD
1000
AcDbSavedByObjectVersion
1070
     0
  0
VISUALSTYLE
  5
36
102
{ACAD_REACTORS
330
2A
102
}
102
{ACAD_XDICTIONARY
360
317
102
}
330
2A
100
AcDbVisualStyle
  2
Brighten
 70
    12
 71
     2
 72
     2
 73
     0
 90
        0
 40
0.6
 41
30.0
 62
     5
 63
     7
421
 16777215
 74
     1
 91
        4
 64
     7
 65
   257
 75
     1
175
     1
 42
1.0
 92
        8
 66
     7
 43
1.0
 76
     1
 77
     6
 78
     2
 67
     7
 79
     5
170
     0
171
     0
290
     0
174
     0
 93
        1
 44
50.0
173
     0
291
     1
 45
0.0
1001
ACAD
1000
AcDbSavedByObjectVersion
1070
     0
  0
VISUALSTYLE
  5
3A
102
{ACAD_REACTORS
330
2A
102
}
102
{ACAD_XDICTIONARY
360
31F
102
}
330
2A
100
AcDbVisualStyle
  2
ColorChange
 70
    16
 71
     2
 72
     2
 73
     3
 90
        0
 40
0.6
 41
30.0
 62
     5
 63
     8
421
  8421504
 74
     1
 91
        4
 64
     7
 65
   257
 75
     1
175
     1
 42
1.0
 92
        8
 66
     8
424
  8421504
 43
1.0
 76
     1
 77
     6
 78
     2
 67
     7
 79
     5
170
     0
171
     0
290
     0
174
     0
 93
        1
 44
0.0
173
     0
291
     1
 45
0.0
1001
ACAD
1000
AcDbSavedByObjectVersion
1070
     0
  0
VISUALSTYLE
  5
34
102
{ACAD_REACTORS
330
2A
102
}
102
{ACAD_XDICTIONARY
360
313
102
}
330
2A
100
AcDbVisualStyle
  2
Conceptual
 70
     9
 71
     3
 72
     2
 73
     0
 90
        0
 40
0.6
 41
30.0
 62
     5
 63
     7
421
 16777215
 74
     2
 91
        2
 64
     7
 65
   257
 75
     1
175
     1
 42
179.0
 92
        8
 66
     7
 43
1.0
 76
     1
 77
     6
 78
     2
 67
     7
 79
     3
170
     0
171
     0
290
     0
174
     0
 93
        1
 44
0.0
173
     0
291
     0
 45
0.0
1001
ACAD
1000
AcDbSavedByObjectVersion
1070
     0
  0
VISUALSTYLE
  5
35
102
{ACAD_REACTORS
330
2A
102
}
102
{ACAD_XDICTIONARY
360
315
102
}
330
2A
100
AcDbVisualStyle
  2
Dim
 70
    11
 71
     2
 72
     2
 73
     0
 90
        0
 40
0.6
 41
30.0
 62
     5
 63
     7
421
 16777215
 74
     1
 91
        4
 64
     7
 65
   257
 75
     1
175
     1
 42
1.0
 92
        8
 66
     7
 43
1.0
 76
     1
 77
     6
 78
     2
 67
     7
 79
     5
170
     0
171
     0
290
     0
174
     0
 93
        1
 44
-50.0
173
     0
291
     1
 45
0.0
1001
ACAD
1000
AcDbSavedByObjectVersion
1070
     0
  0
VISUALSTYLE
  5
3D
102
{ACAD_REACTORS
330
2A
102
}
102
{ACAD_XDICTIONARY
360
325
102
}
330
2A
100
AcDbVisualStyle
  2
EdgeColorOff
 70
    22
 71
     2
 72
     2
 73
     0
 90
        0
 40
0.6
 41
30.0
 62
     5
 63
     7
421
 16777215
 74
     1
 91
        4
 64
     7
 65
   257
 75
     1
175
     1
 42
1.0
 92
        8
 66
     7
 43
1.0
 76
     1
 77
     6
 78
     2
 67
     7
 79
     5
170
     0
171
     0
290
     0
174
     0
 93
        1
 44
0.0
173
     0
291
     1
 45
0.0
1001
ACAD
1000
AcDbSavedByObjectVersion
1070
     0
  0
VISUALSTYLE
  5
39
102
{ACAD_REACTORS
330
2A
102
}
102
{ACAD_XDICTIONARY
360
31D
102
}
330
2A
100
AcDbVisualStyle
  2
Facepattern
 70
    15
 71
     2
 72
     2
 73
     0
 90
        0
 40
0.6
 41
30.0
 62
     5
 63
     7
421
 16777215
 74
     1
 91
        4
 64
     7
 65
   257
 75
     1
175
     1
 42
1.0
 92
        8
 66
     7
 43
1.0
 76
     1
 77
     6
 78
     2
 67
     7
 79
     5
170
     0
171
     0
290
     0
174
     0
 93
        1
 44
0.0
173
     0
291
     1
 45
0.0
1001
ACAD
1000
AcDbSavedByObjectVersion
1070
     0
  0
VISUALSTYLE
  5
2B
102
{ACAD_REACTORS
330
2A
102
}
102
{ACAD_XDICTIONARY
360
301
102
}
330
2A
100
AcDbVisualStyle
  2
Flat
 70
     0
 71
     2
 72
     1
 73
     1
 90
        2
 40
0.6
 41
30.0
 62
     5
 63
     7
421
 16777215
 74
     0
 91
        0
 64
     7
 65
   257
 75
     1
175
     1
 42
1.0
 92
        8
 66
     7
 43
1.0
 76
     1
 77
     6
 78
     2
 67
     7
 79
     5
170
     0
171
     0
290
     0
174
     0
 93
       13
 44
0.0
173
     0
291
     1
 45
0.0
1001
ACAD
1000
AcDbSavedByObjectVersion
1070
     0
  0
VISUALSTYLE
  5
2C
102
{ACAD_REACTORS
330
2A
102
}
102
{ACAD_XDICTIONARY
360
303
102
}
330
2A
100
AcDbVisualStyle
  2
FlatWithEdges
 70
     1
 71
     2
 72
     1
 73
     1
 90
        2
 40
0.6
 41
30.0
 62
     5
 63
     7
421
 16777215
 74
     1
 91
        0
 64
     7
 65
   257
 75
     1
175
     1
 42
1.0
 92
        0
 66
   257
 43
1.0
 76
     1
 77
     6
 78
     2
 67
     7
 79
     5
170
     0
171
     0
290
     0
174
     0
 93
       13
 44
0.0
173
     0
291
     1
 45
0.0
1001
ACAD
1000
AcDbSavedByObjectVersion
1070
     0
  0
VISUALSTYLE
  5
2D
102
{ACAD_REACTORS
330
2A
102
}
102
{ACAD_XDICTIONARY
360
305
102
}
330
2A
100
AcDbVisualStyle
  2
Gouraud
 70
     2
 71
     2
 72
     2
 73
     1
 90
        2
 40
0.6
 41
30.0
 62
     5
 63
     7
421
 16777215
 74
     0
 91
        0
 64
     7
 65
   257
 75
     1
175
     1
 42
1.0
 92
        0
 66
     7
 43
1.0
 76
     1
 77
     6
 78
     2
 67
     7
 79
     5
170
     0
171
     0
290
     0
174
     0
 93
       13
 44
0.0
173
     0
291
     1
 45
0.0
1001
ACAD
1000
AcDbSavedByObjectVersion
1070
     0
  0
VISUALSTYLE
  5
2E
102
{ACAD_REACTORS
330
2A
102
}
102
{ACAD_XDICTIONARY
360
307
102
}
330
2A
100
AcDbVisualStyle
  2
GouraudWithEdges
 70
     3
 71
     2
 72
     2
 73
     1
 90
        2
 40
0.6
 41
30.0
 62
     5
 63
     7
421
 16777215
 74
     1
 91
        0
 64
     7
 65
   257
 75
     1
175
     1
 42
1.0
 92
        0
 66
   257
 43
1.0
 76
     1
 77
     6
 78
     2
 67
     7
 79
     5
170
     0
171
     0
290
     0
174
     0
 93
       13
 44
0.0
173
     0
291
     1
 45
0.0
1001
ACAD
1000
AcDbSavedByObjectVersion
1070
     0
  0
VISUALSTYLE
  5
31
102
{ACAD_REACTORS
330
2A
102
}
102
{ACAD_XDICTIONARY
360
30D
102
}
330
2A
100
AcDbVisualStyle
  2
Hidden
 70
     6
 71
     1
 72
     2
 73
     2
 90
        0
 40
0.6
 41
30.0
 62
     5
 63
     7
421
 16777215
 74
     2
 91
        2
 64
     7
 65
   257
 75
     2
175
     1
 42
40.0
 92
        0
 66
   257
 43
1.0
 76
     1
 77
     6
 78
     2
 67
     7
 79
     3
170
     0
171
     0
290
     0
174
     0
 93
        1
 44
0.0
173
     0
291
     0
 45
0.0
1001
ACAD
1000
AcDbSavedByObjectVersion
1070
     0
  0
VISUALSTYLE
  5
3B
102
{ACAD_REACTORS
330
2A
102
}
102
{ACAD_XDICTIONARY
360
321
102
}
330
2A
100
AcDbVisualStyle
  2
JitterOff
 70
    20
 71
     2
 72
     2
 73
     0
 90
        0
 40
0.6
 41
30.0
 62
     5
 63
     7
421
 16777215
 74
     1
 91
        4
 64
     7
 65
   257
 75
     1
175
     1
 42
1.0
 92
       10
 66
     7
 43
1.0
 76
     1
 77
     6
 78
     2
 67
     7
 79
     5
170
     0
171
     0
290
     0
174
     0
 93
        1
 44
0.0
173
     0
291
     1
 45
0.0
1001
ACAD
1000
AcDbSavedByObjectVersion
1070
     0
  0
VISUALSTYLE
  5
38
102
{ACAD_REACTORS
330
2A
102
}
102
{ACAD_XDICTIONARY
360
31B
102
}
330
2A
100
AcDbVisualStyle
  2
Linepattern
 70
    14
 71
     2
 72
     2
 73
     0
 90
        0
 40
0.6
 41
30.0
 62
     5
 63
     7
421
 16777215
 74
     1
 91
        4
 64
     7
 65
   257
 75
     7
175
     7
 42
1.0
 92
        8
 66
     7
 43
1.0
 76
     1
 77
     6
 78
     2
 67
     7
 79
     5
170
     0
171
     0
290
     0
174
     0
 93
        1
 44
0.0
173
     0
291
     1
 45
0.0
1001
ACAD
1000
AcDbSavedByObjectVersion
1070
     0
  0
VISUALSTYLE
  5
3C
102
{ACAD_REACTORS
330
2A
102
}
102
{ACAD_XDICTIONARY
360
323
102
}
330
2A
100
AcDbVisualStyle
  2
OverhangOff
 70
    21
 71
     2
 72
     2
 73
     0
 90
        0
 40
0.6
 41
30.0
 62
     5
 63
     7
421
 16777215
 74
     1
 91
        4
 64
     7
 65
   257
 75
     1
175
     1
 42
1.0
 92
        9
 66
     7
 43
1.0
 76
     1
 77
     6
 78
     2
 67
     7
 79
     5
170
     0
171
     0
290
     0
174
     0
 93
        1
 44
0.0
173
     0
291
     1
 45
0.0
1001
ACAD
1000
AcDbSavedByObjectVersion
1070
     0
  0
VISUALSTYLE
  5
33
102
{ACAD_REACTORS
330
2A
102
}
102
{ACAD_XDICTIONARY
360
311
102
}
330
2A
100
AcDbVisualStyle
  2
Realistic
 70
     8
 71
     2
 72
     3
 73
     0
 90
        2
 40
0.6
 41
30.0
 62
     5
 63
     7
421
 16777215
 74
     0
 91
        0
 64
     7
 65
   257
 75
     1
175
     1
 42
1.0
 92
        8
 66
   257
 43
1.0
 76
     1
 77
     6
 78
     2
 67
     7
 79
     3
170
     0
171
     0
290
     0
174
     0
 93
       13
 44
0.0
173
     0
291
     0
 45
0.0
1001
ACAD
1000
AcDbSavedByObjectVersion
1070
     0
  0
VISUALSTYLE
  5
42
102
{ACAD_REACTORS
330
2A
102
}
102
{ACAD_XDICTIONARY
360
32F
102
}
330
2A
100
AcDbVisualStyle
  2
Shaded
 70
    27
 71
     2
 72
     2
 73
     1
 90
        2
 40
0.6
 41
30.0
 62
     5
 63
     7
421
 16777215
 74
     0
 91
        4
 64
     7
 65
   257
 75
     1
175
     1
 42
1.0
 92
        8
 66
   257
 43
1.0
 76
     1
 77
     6
 78
     2
 67
     8
425
  7895160
 79
     3
170
     0
171
     0
290
     0
174
     0
 93
        5
 44
0.0
173
     0
291
     0
 45
0.0
1001
ACAD
1000
AcDbSavedByObjectVersion
1070
     0
  0
VISUALSTYLE
  5
41
102
{ACAD_REACTORS
330
2A
102
}
102
{ACAD_XDICTIONARY
360
32D
102
}
330
2A
100
AcDbVisualStyle
  2
Shaded with edges
 70
    26
 71
     2
 72
     2
 73
     1
 90
        2
 40
0.6
 41
30.0
 62
     5
 63
     7
421
 16777215
 74
     1
 91
       10
 64
     7
 65
   257
 75
     2
175
     1
 42
1.0
 92
        8
 66
   257
 43
1.0
 76
     1
 77
     6
 78
     2
 67
     7
 79
     3
170
     0
171
     0
290
     0
174
     0
 93
        5
 44
0.0
173
     0
291
     0
 45
0.0
1001
ACAD
1000
AcDbSavedByObjectVersion
1070
     0
  0
VISUALSTYLE
  5
3E
102
{ACAD_REACTORS
330
2A
102
}
102
{ACAD_XDICTIONARY
360
327
102
}
330
2A
100
AcDbVisualStyle
  2
Shades of Gray
 70
    23
 71
     2
 72
     2
 73
     3
 90
        0
 40
0.6
 41
30.0
 62
     5
 63
     7
421
 16777215
 74
     2
 91
        2
 64
     7
 65
     7
 75
     1
175
     1
 42
40.0
 92
        8
 66
     7
 43
1.0
 76
     1
 77
     6
 78
     2
 67
     7
 79
     3
170
     0
171
     0
290
     0
174
     0
 93
        1
 44
0.0
173
     0
291
     0
 45
0.0
1001
ACAD
1000
AcDbSavedByObjectVersion
1070
     0
  0
VISUALSTYLE
  5
3F
102
{ACAD_REACTORS
330
2A
102
}
102
{ACAD_XDICTIONARY
360
329
102
}
330
2A
100
AcDbVisualStyle
  2
Sketchy
 70
    24
 71
     1
 72
     2
 73
     2
 90
        0
 40
0.6
 41
30.0
 62
     5
 63
     7
421
 16777215
 74
     2
 91
        2
 64
     7
 65
     7
 75
     1
175
     1
 42
40.0
 92
       11
 66
     7
 43
1.0
 76
     1
 77
     6
 78
     2
 67
     7
 79
     6
170
     0
171
     0
290
     0
174
     0
 93
        1
 44
0.0
173
     0
291
     0
 45
0.0
1001
ACAD
1000
AcDbSavedByObjectVersion
1070
     0
  0
VISUALSTYLE
  5
37
102
{ACAD_REACTORS
330
2A
102
}
102
{ACAD_XDICTIONARY
360
319
102
}
330
2A
100
AcDbVisualStyle
  2
Thicken
 70
    13
 71
     2
 72
     2
 73
     0
 90
        0
 40
0.6
 41
30.0
 62
     5
 63
     7
421
 16777215
 74
     1
 91
        4
 64
     7
 65
   257
 75
     1
175
     1
 42
1.0
 92
       12
 66
     7
 43
1.0
 76
     1
 77
     6
 78
     2
 67
     7
 79
     5
170
     0
171
     0
290
     0
174
     0
 93
        1
 44
0.0
173
     0
291
     1
 45
0.0
1001
ACAD
1000
AcDbSavedByObjectVersion
1070
     0
  0
VISUALSTYLE
  5
30
102
{ACAD_REACTORS
330
2A
102
}
102
{ACAD_XDICTIONARY
360
30B
102
}
330
2A
100
AcDbVisualStyle
  2
Wireframe
 70
     5
 71
     0
 72
     2
 73
     0
 90
        0
 40
0.6
 41
30.0
 62
     5
 63
     7
421
 16777215
 74
     1
 91
        4
 64
     7
 65
   257
 75
     1
175
     1
 42
1.0
 92
        0
 66
   257
 43
1.0
 76
     1
 77
     6
 78
     2
 67
     7
 79
     3
170
     0
171
     0
290
     0
174
     0
 93
        1
 44
0.0
173
     0
291
     0
 45
0.0
1001
ACAD
1000
AcDbSavedByObjectVersion
1070
     0
  0
VISUALSTYLE
  5
40
102
{ACAD_REACTORS
330
2A
102
}
102
{ACAD_XDICTIONARY
360
32B
102
}
330
2A
100
AcDbVisualStyle
  2
X-Ray
 70
    25
 71
     2
 72
     2
 73
     1
 90
        1
 40
0.5
 41
30.0
 62
     5
 63
     7
421
 16777215
 74
     1
 91
        0
 64
     7
 65
   257
 75
     1
175
     1
 42
1.0
 92
        8
 66
     7
 43
1.0
 76
     1
 77
     6
 78
     2
 67
     7
 79
     3
170
     0
171
     0
290
     0
174
     0
 93
       13
 44
0.0
173
     0
291
     0
 45
0.0
1001
ACAD
1000
AcDbSavedByObjectVersion
1070
     0
  0
DICTIONARYVAR
  5
2FE
102
{ACAD_REACTORS
330
2FD
102
}
330
2FD
100
DictionaryVariables
280
     0
  1
1:1
  0
DICTIONARYVAR
  5
33F
102
{ACAD_REACTORS
330
2FD
102
}
330
2FD
100
DictionaryVariables
280
     0
  1
Standard
  0
DICTIONARYVAR
  5
33E
102
{ACAD_REACTORS
330
2FD
102
}
330
2FD
100
DictionaryVariables
280
     0
  1
Standard
  0
DICTIONARYVAR
  5
2FF
102
{ACAD_REACTORS
330
2FD
102
}
330
2FD
100
DictionaryVariables
280
     0
  1
1
  0
DICTIONARYVAR
  5
300
102
{ACAD_REACTORS
330
2FD
102
}
330
2FD
100
DictionaryVariables
280
     0
  1
2
  0
DICTIONARY
  5
333
330
45
100
AcDbDictionary
280
     1
281
     1
  3
ACAD_XREC_ROUNDTRIP
360
334
  0
DICTIONARY
  5
331
330
44
100
AcDbDictionary
280
     1
281
     1
  3
ACAD_XREC_ROUNDTRIP
360
332
  0
DICTIONARY
  5
335
330
46
100
AcDbDictionary
280
     1
281
     1
  3
ACAD_XREC_ROUNDTRIP
360
336
  0
DICTIONARY
  5
33B
330
6C
100
AcDbDictionary
280
     1
281
     1
  3
ACAD_XREC_ROUNDTRIP
360
33C
  0
DICTIONARY
  5
337
330
6A
100
AcDbDictionary
280
     1
281
     1
  3
ACAD_ROUNDTRIP_2008_TABLESTYLE_CELLSTYLEMAP
360
339
  3
ACAD_XREC_ROUNDTRIP
360
338
  0
DICTIONARY
  5
309
330
2F
100
AcDbDictionary
280
     1
281
     1
  3
ACAD_XREC_ROUNDTRIP
360
30A
  0
DICTIONARY
  5
30F
330
32
100
AcDbDictionary
280
     1
281
     1
  3
ACAD_XREC_ROUNDTRIP
360
310
  0
DICTIONARY
  5
317
330
36
100
AcDbDictionary
280
     1
281
     1
  3
ACAD_XREC_ROUNDTRIP
360
318
  0
DICTIONARY
  5
31F
330
3A
100
AcDbDictionary
280
     1
281
     1
  3
ACAD_XREC_ROUNDTRIP
360
320
  0
DICTIONARY
  5
313
330
34
100
AcDbDictionary
280
     1
281
     1
  3
ACAD_XREC_ROUNDTRIP
360
314
  0
DICTIONARY
  5
315
330
35
100
AcDbDictionary
280
     1
281
     1
  3
ACAD_XREC_ROUNDTRIP
360
316
  0
DICTIONARY
  5
325
330
3D
100
AcDbDictionary
280
     1
281
     1
  3
ACAD_XREC_ROUNDTRIP
360
326
  0
DICTIONARY
  5
31D
330
39
100
AcDbDictionary
280
     1
281
     1
  3
ACAD_XREC_ROUNDTRIP
360
31E
  0
DICTIONARY
  5
301
330
2B
100
AcDbDictionary
280
     1
281
     1
  3
ACAD_XREC_ROUNDTRIP
360
302
  0
DICTIONARY
  5
303
330
2C
100
AcDbDictionary
280
     1
281
     1
  3
ACAD_XREC_ROUNDTRIP
360
304
  0
DICTIONARY
  5
305
330
2D
100
AcDbDictionary
280
     1
281
     1
  3
ACAD_XREC_ROUNDTRIP
360
306
  0
DICTIONARY
  5
307
330
2E
100
AcDbDictionary
280
     1
281
     1
  3
ACAD_XREC_ROUNDTRIP
360
308
  0
DICTIONARY
  5
30D
330
31
100
AcDbDictionary
280
     1
281
     1
  3
ACAD_XREC_ROUNDTRIP
360
30E
  0
DICTIONARY
  5
321
330
3B
100
AcDbDictionary
280
     1
281
     1
  3
ACAD_XREC_ROUNDTRIP
360
322
  0
DICTIONARY
  5
31B
330
38
100
AcDbDictionary
280
     1
281
     1
  3
ACAD_XREC_ROUNDTRIP
360
31C
  0
DICTIONARY
  5
323
330
3C
100
AcDbDictionary
280
     1
281
     1
  3
ACAD_XREC_ROUNDTRIP
360
324
  0
DICTIONARY
  5
311
330
33
100
AcDbDictionary
280
     1
281
     1
  3
ACAD_XREC_ROUNDTRIP
360
312
  0
DICTIONARY
  5
32F
330
42
100
AcDbDictionary
280
     1
281
     1
  3
ACAD_XREC_ROUNDTRIP
360
330
  0
DICTIONARY
  5
32D
330
41
100
AcDbDictionary
280
     1
281
     1
  3
ACAD_XREC_ROUNDTRIP
360
32E
  0
DICTIONARY
  5
327
330
3E
100
AcDbDictionary
280
     1
281
     1
  3
ACAD_XREC_ROUNDTRIP
360
328
  0
DICTIONARY
  5
329
330
3F
100
AcDbDictionary
280
     1
281
     1
  3
ACAD_XREC_ROUNDTRIP
360
32A
  0
DICTIONARY
  5
319
330
37
100
AcDbDictionary
280
     1
281
     1
  3
ACAD_XREC_ROUNDTRIP
360
31A
  0
DICTIONARY
  5
30B
330
30
100
AcDbDictionary
280
     1
281
     1
  3
ACAD_XREC_ROUNDTRIP
360
30C
  0
DICTIONARY
  5
32B
330
40
100
AcDbDictionary
280
     1
281
     1
  3
ACAD_XREC_ROUNDTRIP
360
32C
  0
XRECORD
  5
334
102
{ACAD_REACTORS
330
333
102
}
330
333
100
AcDbXrecord
280
     1
102
MATERIAL
148
0.0
149
0.0
149
0.0
 93
        0
 94
      127
282
     0
 72
     1
 77
     1
171
     1
175
     1
179
     1
273
     0
  0
XRECORD
  5
332
102
{ACAD_REACTORS
330
331
102
}
330
331
100
AcDbXrecord
280
     1
102
MATERIAL
148
0.0
149
0.0
149
0.0
 93
        0
 94
      127
282
     0
 72
     1
 77
     1
171
     1
175
     1
179
     1
273
     0
  0
XRECORD
  5
336
102
{ACAD_REACTORS
330
335
102
}
330
335
100
AcDbXrecord
280
     1
102
MATERIAL
148
0.0
149
0.0
149
0.0
 93
        0
 94
      127
282
     0
 72
     1
 77
     1
171
     1
175
     1
179
     1
273
     0
  0
XRECORD
  5
33C
102
{ACAD_REACTORS
330
33B
102
}
330
33B
100
AcDbXrecord
280
     1
102
ACAD_ROUNDTRIP_2010_MLEADER_STYLE
  0
CELLSTYLEMAP
  5
339
102
{ACAD_REACTORS
330
337
102
}
330
337
100
AcDbCellStyleMap
 90
        3
300
CELLSTYLE
  1
TABLEFORMAT_BEGIN
 90
        5
170
     1
 91
        0
 92
    32768
 62
   257
 93
        1
300
CONTENTFORMAT
  1
CONTENTFORMAT_BEGIN
 90
        0
 91
        0
 92
        4
 93
        0
300

 40
0.0
140
1.0
 94
        5
 62
     0
340
11
144
0.25
309
CONTENTFORMAT_END
171
     1
301
MARGIN
  1
CELLMARGIN_BEGIN
 40
0.06
 40
0.06
 40
0.06
 40
0.06
 40
0.06
 40
0.06
309
CELLMARGIN_END
 94
        6
 95
        1
302
GRIDFORMAT
  1
GRIDFORMAT_BEGIN
 90
        0
 91
        1
 62
     0
 92
       -2
340
14
 93
        0
 40
0.045
309
GRIDFORMAT_END
 95
        2
302
GRIDFORMAT
  1
GRIDFORMAT_BEGIN
 90
        0
 91
        1
 62
     0
 92
       -2
340
14
 93
        0
 40
0.045
309
GRIDFORMAT_END
 95
        4
302
GRIDFORMAT
  1
GRIDFORMAT_BEGIN
 90
        0
 91
        1
 62
     0
 92
       -2
340
14
 93
        0
 40
0.045
309
GRIDFORMAT_END
 95
        8
302
GRIDFORMAT
  1
GRIDFORMAT_BEGIN
 90
        0
 91
        1
 62
     0
 92
       -2
340
14
 93
        0
 40
0.045
309
GRIDFORMAT_END
 95
       16
302
GRIDFORMAT
  1
GRIDFORMAT_BEGIN
 90
        0
 91
        1
 62
     0
 92
       -2
340
14
 93
        0
 40
0.045
309
GRIDFORMAT_END
 95
       32
302
GRIDFORMAT
  1
GRIDFORMAT_BEGIN
 90
        0
 91
        1
 62
     0
 92
       -2
340
14
 93
        0
 40
0.045
309
GRIDFORMAT_END
309
TABLEFORMAT_END
  1
CELLSTYLE_BEGIN
 90
        1
 91
        1
300
_TITLE
309
CELLSTYLE_END
300
CELLSTYLE
  1
TABLEFORMAT_BEGIN
 90
        5
170
     1
 91
        0
 92
        0
 62
   257
 93
        1
300
CONTENTFORMAT
  1
CONTENTFORMAT_BEGIN
 90
        0
 91
        0
 92
        4
 93
        0
300

 40
0.0
140
1.0
 94
        5
 62
     0
340
11
144
0.18
309
CONTENTFORMAT_END
171
     1
301
MARGIN
  1
CELLMARGIN_BEGIN
 40
0.06
 40
0.06
 40
0.06
 40
0.06
 40
0.06
 40
0.06
309
CELLMARGIN_END
 94
        6
 95
        1
302
GRIDFORMAT
  1
GRIDFORMAT_BEGIN
 90
        0
 91
        1
 62
     0
 92
       -2
340
14
 93
        0
 40
0.045
309
GRIDFORMAT_END
 95
        2
302
GRIDFORMAT
  1
GRIDFORMAT_BEGIN
 90
        0
 91
        1
 62
     0
 92
       -2
340
14
 93
        0
 40
0.045
309
GRIDFORMAT_END
 95
        4
302
GRIDFORMAT
  1
GRIDFORMAT_BEGIN
 90
        0
 91
        1
 62
     0
 92
       -2
340
14
 93
        0
 40
0.045
309
GRIDFORMAT_END
 95
        8
302
GRIDFORMAT
  1
GRIDFORMAT_BEGIN
 90
        0
 91
        1
 62
     0
 92
       -2
340
14
 93
        0
 40
0.045
309
GRIDFORMAT_END
 95
       16
302
GRIDFORMAT
  1
GRIDFORMAT_BEGIN
 90
        0
 91
        1
 62
     0
 92
       -2
340
14
 93
        0
 40
0.045
309
GRIDFORMAT_END
 95
       32
302
GRIDFORMAT
  1
GRIDFORMAT_BEGIN
 90
        0
 91
        1
 62
     0
 92
       -2
340
14
 93
        0
 40
0.045
309
GRIDFORMAT_END
309
TABLEFORMAT_END
  1
CELLSTYLE_BEGIN
 90
        2
 91
        1
300
_HEADER
309
CELLSTYLE_END
300
CELLSTYLE
  1
TABLEFORMAT_BEGIN
 90
        5
170
     1
 91
        0
 92
        0
 62
   257
 93
        1
300
CONTENTFORMAT
  1
CONTENTFORMAT_BEGIN
 90
        0
 91
        0
 92
        4
 93
        0
300

 40
0.0
140
1.0
 94
        2
 62
     0
340
11
144
0.18
309
CONTENTFORMAT_END
171
     1
301
MARGIN
  1
CELLMARGIN_BEGIN
 40
0.06
 40
0.06
 40
0.06
 40
0.06
 40
0.06
 40
0.06
309
CELLMARGIN_END
 94
        6
 95
        1
302
GRIDFORMAT
  1
GRIDFORMAT_BEGIN
 90
        0
 91
        1
 62
     0
 92
       -2
340
14
 93
        0
 40
0.045
309
GRIDFORMAT_END
 95
        2
302
GRIDFORMAT
  1
GRIDFORMAT_BEGIN
 90
        0
 91
        1
 62
     0
 92
       -2
340
14
 93
        0
 40
0.045
309
GRIDFORMAT_END
 95
        4
302
GRIDFORMAT
  1
GRIDFORMAT_BEGIN
 90
        0
 91
        1
 62
     0
 92
       -2
340
14
 93
        0
 40
0.045
309
GRIDFORMAT_END
 95
        8
302
GRIDFORMAT
  1
GRIDFORMAT_BEGIN
 90
        0
 91
        1
 62
     0
 92
       -2
340
14
 93
        0
 40
0.045
309
GRIDFORMAT_END
 95
       16
302
GRIDFORMAT
  1
GRIDFORMAT_BEGIN
 90
        0
 91
        1
 62
     0
 92
       -2
340
14
 93
        0
 40
0.045
309
GRIDFORMAT_END
 95
       32
302
GRIDFORMAT
  1
GRIDFORMAT_BEGIN
 90
        0
 91
        1
 62
     0
 92
       -2
340
14
 93
        0
 40
0.045
309
GRIDFORMAT_END
309
TABLEFORMAT_END
  1
CELLSTYLE_BEGIN
 90
        3
 91
        2
300
_DATA
309
CELLSTYLE_END
  0
XRECORD
  5
338
102
{ACAD_REACTORS
330
337
102
}
330
337
100
AcDbXrecord
280
     1
102
ACAD_ROUNDTRIP_PRE2007_TABLESTYLE
 90
        4
 91
        0
  1

 92
        4
 93
        0
  2

 94
        4
 95
        0
  3

  0
XRECORD
  5
30A
102
{ACAD_REACTORS
330
309
102
}
330
309
100
AcDbXrecord
280
     1
102
RTVSPropertyOp0
 70
     1
102
RTVSPropertyOp1
 70
     1
102
RTVSPropertyOp2
 70
     1
102
RTVSPropertyOp3
 70
     1
102
RTVSPropertyOp4
 70
     1
102
RTVSPropertyOp5
 70
     1
102
RTVSPropertyOp6
 70
     1
102
RTVSPropertyOp7
 70
     1
102
RTVSPropertyOp8
 70
     1
102
RTVSPropertyOp9
 70
     1
102
RTVSPropertyOp10
 70
     1
102
RTVSPropertyOp11
 70
     1
102
RTVSPropertyOp12
 70
     1
102
RTVSPropertyOp13
 70
     1
102
RTVSPropertyOp14
 70
     1
102
RTVSPropertyOp15
 70
     1
102
RTVSPropertyOp16
 70
     1
102
RTVSPropertyOp17
 70
     1
102
RTVSPropertyOp18
 70
     1
102
RTVSPropertyOp19
 70
     1
102
RTVSPropertyOp20
 70
     1
102
RTVSPropertyOp21
 70
     1
102
RTVSPropertyOp22
 70
     1
102
RTVSPropertyOp23
 70
     1
102
RTVSPropertyOp24
 70
     1
102
RTVSPropertyOp25
 70
     1
102
RTVSPropertyOp26
 70
     1
102
RTVSPropertyOp27
 70
     1
102
RTVSPropertyOp28
 70
     1
102
RTVSPropertyOp29
 70
     1
102
RTVSPropertyOp30
 70
     1
102
RTVSPropertyOp31
 70
     1
102
RTVSPropertyOp32
 70
     1
102
RTVSPropertyOp33
 70
     1
102
RTVSPropertyOp34
 70
     1
102
RTVSPropertyOp35
 70
     1
102
RTVSPropertyOp36
 70
     1
102
RTVSPropertyOp37
 70
     1
102
RTVSPropertyOp38
 70
     1
102
RTVSPropertyOp39
 70
     1
102
RTVSPropertyOp40
 70
     1
102
RTVSPropertyOp41
 70
     1
102
RTVSPropertyOp42
 70
     1
102
RTVSPropertyOp43
 70
     1
102
RTVSPropertyOp44
 70
     1
102
RTVSPropertyOp45
 70
     1
102
RTVSPropertyOp46
 70
     1
102
RTVSPropertyOp47
 70
     1
102
RTVSPropertyOp48
 70
     1
102
RTVSPropertyOp49
 70
     1
102
RTVSPropertyOp50
 70
     1
102
RTVSPropertyOp51
 70
     0
102
RTVSPropertyOp52
 70
     0
102
RTVSPropertyOp53
 70
     1
102
RTVSPropertyOp54
 70
     1
102
RTVSPropertyOp55
 70
     1
102
RTVSPropertyOp56
 70
     1
102
RTVSPropertyOp57
 70
     1
102
RTVSPost2010Prop28
280
     1
102
RTVSPost2010PropOp28
 70
     1
102
RTVSPost2010Prop29
280
     1
102
RTVSPost2010PropOp29
 70
     1
102
RTVSPost2010Prop30
280
     0
102
RTVSPost2010PropOp30
 70
     1
102
RTVSPost2010Prop31
280
     0
102
RTVSPost2010PropOp31
 70
     1
102
RTVSPost2010Prop32
280
     0
102
RTVSPost2010PropOp32
 70
     1
102
RTVSPost2010Prop33
280
     0
102
RTVSPost2010PropOp33
 70
     1
102
RTVSPost2010Prop34
280
     0
102
RTVSPost2010PropOp34
 70
     1
102
RTVSPost2010Prop35
280
     0
102
RTVSPost2010PropOp35
 70
     1
102
RTVSPost2010Prop36
280
     0
102
RTVSPost2010PropOp36
 70
     1
102
RTVSPost2010Prop37
 90
       50
102
RTVSPost2010PropOp37
 70
     1
102
RTVSPost2010Prop38
140
0.0
102
RTVSPost2010PropOp38
 70
     1
102
RTVSPost2010Prop39
140
1.0
102
RTVSPost2010PropOp39
 70
     1
102
RTVSPost2010Prop40
 90
        0
102
RTVSPost2010PropOp40
 70
     1
102
RTVSPost2010Prop41ColorIndex
 90
       18
102
RTVSPost2010Prop41ColorRGB
 90
        0
102
RTVSPost2010PropOp41
 70
     1
102
RTVSPost2010Prop42
 90
       50
102
RTVSPost2010PropOp42
 70
     1
102
RTVSPost2010Prop43
 90
        3
102
RTVSPost2010PropOp43
 70
     1
102
RTVSPost2010Prop44ColorIndex
 90
        5
102
RTVSPost2010Prop44ColorRGB
 90
      255
102
RTVSPost2010PropOp44
 70
     1
102
RTVSPost2010Prop45
280
     0
102
RTVSPost2010PropOp45
 70
     1
102
RTVSPost2010Prop46
 90
       50
102
RTVSPost2010PropOp46
 70
     1
102
RTVSPost2010Prop47
 90
       50
102
RTVSPost2010PropOp47
 70
     1
102
RTVSPost2010Prop48
 90
       50
102
RTVSPost2010PropOp48
 70
     1
102
RTVSPost2010Prop49
280
     0
102
RTVSPost2010PropOp49
 70
     1
102
RTVSPost2010Prop50
 90
       50
102
RTVSPost2010PropOp50
 70
     1
102
RTVSPost2010Prop51ColorIndex
 90
      256
102
RTVSPost2010Prop51ColorRGB
 90
-16777216
102
RTVSPost2010PropOp51
 70
     0
102
RTVSPost2010Prop52
140
1.0
102
RTVSPost2010PropOp52
 70
     0
102
RTVSPost2010Prop53
 90
        2
102
RTVSPost2010PropOp53
 70
     1
102
RTVSPost2010Prop54
  1
strokes_ogs.tif
102
RTVSPost2010PropOp54
 70
     1
102
RTVSPost2010Prop55
280
     0
102
RTVSPost2010PropOp55
 70
     1
102
RTVSPost2010Prop56
140
1.0
102
RTVSPost2010PropOp56
 70
     1
102
RTVSPost2010Prop57
140
1.0
102
RTVSPost2010PropOp57
 70
     1
  0
XRECORD
  5
310
102
{ACAD_REACTORS
330
30F
102
}
330
30F
100
AcDbXrecord
280
     1
102
RTVSPropertyOp0
 70
     1
102
RTVSPropertyOp1
 70
     1
102
RTVSPropertyOp2
 70
     1
102
RTVSPropertyOp3
 70
     1
102
RTVSPropertyOp4
 70
     1
102
RTVSPropertyOp5
 70
     1
102
RTVSPropertyOp6
 70
     1
102
RTVSPropertyOp7
 70
     1
102
RTVSPropertyOp8
 70
     1
102
RTVSPropertyOp9
 70
     1
102
RTVSPropertyOp10
 70
     1
102
RTVSPropertyOp11
 70
     1
102
RTVSPropertyOp12
 70
     1
102
RTVSPropertyOp13
 70
     1
102
RTVSPropertyOp14
 70
     1
102
RTVSPropertyOp15
 70
     1
102
RTVSPropertyOp16
 70
     1
102
RTVSPropertyOp17
 70
     1
102
RTVSPropertyOp18
 70
     1
102
RTVSPropertyOp19
 70
     1
102
RTVSPropertyOp20
 70
     1
102
RTVSPropertyOp21
 70
     1
102
RTVSPropertyOp22
 70
     1
102
RTVSPropertyOp23
 70
     1
102
RTVSPropertyOp24
 70
     1
102
RTVSPropertyOp25
 70
     1
102
RTVSPropertyOp26
 70
     1
102
RTVSPropertyOp27
 70
     1
102
RTVSPropertyOp28
 70
     1
102
RTVSPropertyOp29
 70
     1
102
RTVSPropertyOp30
 70
     1
102
RTVSPropertyOp31
 70
     1
102
RTVSPropertyOp32
 70
     1
102
RTVSPropertyOp33
 70
     1
102
RTVSPropertyOp34
 70
     1
102
RTVSPropertyOp35
 70
     1
102
RTVSPropertyOp36
 70
     1
102
RTVSPropertyOp37
 70
     1
102
RTVSPropertyOp38
 70
     1
102
RTVSPropertyOp39
 70
     1
102
RTVSPropertyOp40
 70
     1
102
RTVSPropertyOp41
 70
     1
102
RTVSPropertyOp42
 70
     1
102
RTVSPropertyOp43
 70
     1
102
RTVSPropertyOp44
 70
     1
102
RTVSPropertyOp45
 70
     1
102
RTVSPropertyOp46
 70
     1
102
RTVSPropertyOp47
 70
     1
102
RTVSPropertyOp48
 70
     1
102
RTVSPropertyOp49
 70
     1
102
RTVSPropertyOp50
 70
     1
102
RTVSPropertyOp51
 70
     0
102
RTVSPropertyOp52
 70
     0
102
RTVSPropertyOp53
 70
     1
102
RTVSPropertyOp54
 70
     1
102
RTVSPropertyOp55
 70
     1
102
RTVSPropertyOp56
 70
     1
102
RTVSPropertyOp57
 70
     1
102
RTVSPost2010Prop28
280
     0
102
RTVSPost2010PropOp28
 70
     1
102
RTVSPost2010Prop29
280
     1
102
RTVSPost2010PropOp29
 70
     1
102
RTVSPost2010Prop30
280
     1
102
RTVSPost2010PropOp30
 70
     1
102
RTVSPost2010Prop31
280
     0
102
RTVSPost2010PropOp31
 70
     1
102
RTVSPost2010Prop32
280
     0
102
RTVSPost2010PropOp32
 70
     1
102
RTVSPost2010Prop33
280
     0
102
RTVSPost2010PropOp33
 70
     1
102
RTVSPost2010Prop34
280
     0
102
RTVSPost2010PropOp34
 70
     1
102
RTVSPost2010Prop35
280
     0
102
RTVSPost2010PropOp35
 70
     1
102
RTVSPost2010Prop36
280
     0
102
RTVSPost2010PropOp36
 70
     1
102
RTVSPost2010Prop37
 90
       50
102
RTVSPost2010PropOp37
 70
     1
102
RTVSPost2010Prop38
140
0.0
102
RTVSPost2010PropOp38
 70
     1
102
RTVSPost2010Prop39
140
1.0
102
RTVSPost2010PropOp39
 70
     1
102
RTVSPost2010Prop40
 90
        0
102
RTVSPost2010PropOp40
 70
     1
102
RTVSPost2010Prop41ColorIndex
 90
       18
102
RTVSPost2010Prop41ColorRGB
 90
        0
102
RTVSPost2010PropOp41
 70
     1
102
RTVSPost2010Prop42
 90
       50
102
RTVSPost2010PropOp42
 70
     1
102
RTVSPost2010Prop43
 90
        3
102
RTVSPost2010PropOp43
 70
     1
102
RTVSPost2010Prop44ColorIndex
 90
        5
102
RTVSPost2010Prop44ColorRGB
 90
      255
102
RTVSPost2010PropOp44
 70
     1
102
RTVSPost2010Prop45
280
     0
102
RTVSPost2010PropOp45
 70
     1
102
RTVSPost2010Prop46
 90
       50
102
RTVSPost2010PropOp46
 70
     1
102
RTVSPost2010Prop47
 90
       50
102
RTVSPost2010PropOp47
 70
     1
102
RTVSPost2010Prop48
 90
       50
102
RTVSPost2010PropOp48
 70
     1
102
RTVSPost2010Prop49
280
     0
102
RTVSPost2010PropOp49
 70
     1
102
RTVSPost2010Prop50
 90
       50
102
RTVSPost2010PropOp50
 70
     1
102
RTVSPost2010Prop51ColorIndex
 90
      256
102
RTVSPost2010Prop51ColorRGB
 90
-16777216
102
RTVSPost2010PropOp51
 70
     0
102
RTVSPost2010Prop52
140
1.0
102
RTVSPost2010PropOp52
 70
     0
102
RTVSPost2010Prop53
 90
        2
102
RTVSPost2010PropOp53
 70
     1
102
RTVSPost2010Prop54
  1
strokes_ogs.tif
102
RTVSPost2010PropOp54
 70
     1
102
RTVSPost2010Prop55
280
     0
102
RTVSPost2010PropOp55
 70
     1
102
RTVSPost2010Prop56
140
1.0
102
RTVSPost2010PropOp56
 70
     1
102
RTVSPost2010Prop57
140
1.0
102
RTVSPost2010PropOp57
 70
     1
  0
XRECORD
  5
318
102
{ACAD_REACTORS
330
317
102
}
330
317
100
AcDbXrecord
280
     1
102
RTVSPropertyOp0
 70
     1
102
RTVSPropertyOp1
 70
     1
102
RTVSPropertyOp2
 70
     1
102
RTVSPropertyOp3
 70
     1
102
RTVSPropertyOp4
 70
     1
102
RTVSPropertyOp5
 70
     1
102
RTVSPropertyOp6
 70
     1
102
RTVSPropertyOp7
 70
     1
102
RTVSPropertyOp8
 70
     1
102
RTVSPropertyOp9
 70
     1
102
RTVSPropertyOp10
 70
     1
102
RTVSPropertyOp11
 70
     1
102
RTVSPropertyOp12
 70
     1
102
RTVSPropertyOp13
 70
     1
102
RTVSPropertyOp14
 70
     1
102
RTVSPropertyOp15
 70
     1
102
RTVSPropertyOp16
 70
     1
102
RTVSPropertyOp17
 70
     1
102
RTVSPropertyOp18
 70
     1
102
RTVSPropertyOp19
 70
     1
102
RTVSPropertyOp20
 70
     1
102
RTVSPropertyOp21
 70
     1
102
RTVSPropertyOp22
 70
     1
102
RTVSPropertyOp23
 70
     1
102
RTVSPropertyOp24
 70
     1
102
RTVSPropertyOp25
 70
     1
102
RTVSPropertyOp26
 70
     1
102
RTVSPropertyOp27
 70
     1
102
RTVSPropertyOp28
 70
     1
102
RTVSPropertyOp29
 70
     1
102
RTVSPropertyOp30
 70
     1
102
RTVSPropertyOp31
 70
     1
102
RTVSPropertyOp32
 70
     1
102
RTVSPropertyOp33
 70
     1
102
RTVSPropertyOp34
 70
     1
102
RTVSPropertyOp35
 70
     1
102
RTVSPropertyOp36
 70
     1
102
RTVSPropertyOp37
 70
     1
102
RTVSPropertyOp38
 70
     1
102
RTVSPropertyOp39
 70
     1
102
RTVSPropertyOp40
 70
     1
102
RTVSPropertyOp41
 70
     1
102
RTVSPropertyOp42
 70
     1
102
RTVSPropertyOp43
 70
     1
102
RTVSPropertyOp44
 70
     1
102
RTVSPropertyOp45
 70
     1
102
RTVSPropertyOp46
 70
     1
102
RTVSPropertyOp47
 70
     1
102
RTVSPropertyOp48
 70
     1
102
RTVSPropertyOp49
 70
     1
102
RTVSPropertyOp50
 70
     1
102
RTVSPropertyOp51
 70
     0
102
RTVSPropertyOp52
 70
     0
102
RTVSPropertyOp53
 70
     1
102
RTVSPropertyOp54
 70
     1
102
RTVSPropertyOp55
 70
     1
102
RTVSPropertyOp56
 70
     1
102
RTVSPropertyOp57
 70
     1
102
RTVSPost2010Prop28
280
     0
102
RTVSPost2010PropOp28
 70
     1
102
RTVSPost2010Prop29
280
     1
102
RTVSPost2010PropOp29
 70
     1
102
RTVSPost2010Prop30
280
     1
102
RTVSPost2010PropOp30
 70
     1
102
RTVSPost2010Prop31
280
     0
102
RTVSPost2010PropOp31
 70
     1
102
RTVSPost2010Prop32
280
     0
102
RTVSPost2010PropOp32
 70
     1
102
RTVSPost2010Prop33
280
     0
102
RTVSPost2010PropOp33
 70
     1
102
RTVSPost2010Prop34
280
     0
102
RTVSPost2010PropOp34
 70
     1
102
RTVSPost2010Prop35
280
     0
102
RTVSPost2010PropOp35
 70
     1
102
RTVSPost2010Prop36
280
     0
102
RTVSPost2010PropOp36
 70
     1
102
RTVSPost2010Prop37
 90
       50
102
RTVSPost2010PropOp37
 70
     1
102
RTVSPost2010Prop38
140
0.0
102
RTVSPost2010PropOp38
 70
     1
102
RTVSPost2010Prop39
140
1.0
102
RTVSPost2010PropOp39
 70
     1
102
RTVSPost2010Prop40
 90
        0
102
RTVSPost2010PropOp40
 70
     1
102
RTVSPost2010Prop41ColorIndex
 90
       18
102
RTVSPost2010Prop41ColorRGB
 90
        0
102
RTVSPost2010PropOp41
 70
     1
102
RTVSPost2010Prop42
 90
       50
102
RTVSPost2010PropOp42
 70
     1
102
RTVSPost2010Prop43
 90
        3
102
RTVSPost2010PropOp43
 70
     1
102
RTVSPost2010Prop44ColorIndex
 90
        5
102
RTVSPost2010Prop44ColorRGB
 90
      255
102
RTVSPost2010PropOp44
 70
     1
102
RTVSPost2010Prop45
280
     0
102
RTVSPost2010PropOp45
 70
     1
102
RTVSPost2010Prop46
 90
       50
102
RTVSPost2010PropOp46
 70
     1
102
RTVSPost2010Prop47
 90
       50
102
RTVSPost2010PropOp47
 70
     1
102
RTVSPost2010Prop48
 90
       50
102
RTVSPost2010PropOp48
 70
     1
102
RTVSPost2010Prop49
280
     0
102
RTVSPost2010PropOp49
 70
     1
102
RTVSPost2010Prop50
 90
       50
102
RTVSPost2010PropOp50
 70
     1
102
RTVSPost2010Prop51ColorIndex
 90
      256
102
RTVSPost2010Prop51ColorRGB
 90
-16777216
102
RTVSPost2010PropOp51
 70
     0
102
RTVSPost2010Prop52
140
1.0
102
RTVSPost2010PropOp52
 70
     0
102
RTVSPost2010Prop53
 90
        2
102
RTVSPost2010PropOp53
 70
     1
102
RTVSPost2010Prop54
  1
strokes_ogs.tif
102
RTVSPost2010PropOp54
 70
     1
102
RTVSPost2010Prop55
280
     0
102
RTVSPost2010PropOp55
 70
     1
102
RTVSPost2010Prop56
140
1.0
102
RTVSPost2010PropOp56
 70
     1
102
RTVSPost2010Prop57
140
1.0
102
RTVSPost2010PropOp57
 70
     1
  0
XRECORD
  5
320
102
{ACAD_REACTORS
330
31F
102
}
330
31F
100
AcDbXrecord
280
     1
102
RTVSPropertyOp0
 70
     1
102
RTVSPropertyOp1
 70
     1
102
RTVSPropertyOp2
 70
     1
102
RTVSPropertyOp3
 70
     1
102
RTVSPropertyOp4
 70
     1
102
RTVSPropertyOp5
 70
     1
102
RTVSPropertyOp6
 70
     1
102
RTVSPropertyOp7
 70
     1
102
RTVSPropertyOp8
 70
     1
102
RTVSPropertyOp9
 70
     1
102
RTVSPropertyOp10
 70
     1
102
RTVSPropertyOp11
 70
     1
102
RTVSPropertyOp12
 70
     1
102
RTVSPropertyOp13
 70
     1
102
RTVSPropertyOp14
 70
     1
102
RTVSPropertyOp15
 70
     1
102
RTVSPropertyOp16
 70
     1
102
RTVSPropertyOp17
 70
     1
102
RTVSPropertyOp18
 70
     1
102
RTVSPropertyOp19
 70
     1
102
RTVSPropertyOp20
 70
     1
102
RTVSPropertyOp21
 70
     1
102
RTVSPropertyOp22
 70
     1
102
RTVSPropertyOp23
 70
     1
102
RTVSPropertyOp24
 70
     1
102
RTVSPropertyOp25
 70
     1
102
RTVSPropertyOp26
 70
     1
102
RTVSPropertyOp27
 70
     1
102
RTVSPropertyOp28
 70
     1
102
RTVSPropertyOp29
 70
     1
102
RTVSPropertyOp30
 70
     1
102
RTVSPropertyOp31
 70
     1
102
RTVSPropertyOp32
 70
     1
102
RTVSPropertyOp33
 70
     1
102
RTVSPropertyOp34
 70
     1
102
RTVSPropertyOp35
 70
     1
102
RTVSPropertyOp36
 70
     1
102
RTVSPropertyOp37
 70
     1
102
RTVSPropertyOp38
 70
     1
102
RTVSPropertyOp39
 70
     1
102
RTVSPropertyOp40
 70
     1
102
RTVSPropertyOp41
 70
     1
102
RTVSPropertyOp42
 70
     1
102
RTVSPropertyOp43
 70
     1
102
RTVSPropertyOp44
 70
     1
102
RTVSPropertyOp45
 70
     1
102
RTVSPropertyOp46
 70
     1
102
RTVSPropertyOp47
 70
     1
102
RTVSPropertyOp48
 70
     1
102
RTVSPropertyOp49
 70
     1
102
RTVSPropertyOp50
 70
     1
102
RTVSPropertyOp51
 70
     0
102
RTVSPropertyOp52
 70
     0
102
RTVSPropertyOp53
 70
     1
102
RTVSPropertyOp54
 70
     1
102
RTVSPropertyOp55
 70
     1
102
RTVSPropertyOp56
 70
     1
102
RTVSPropertyOp57
 70
     1
102
RTVSPost2010Prop28
280
     0
102
RTVSPost2010PropOp28
 70
     1
102
RTVSPost2010Prop29
280
     1
102
RTVSPost2010PropOp29
 70
     1
102
RTVSPost2010Prop30
280
     1
102
RTVSPost2010PropOp30
 70
     1
102
RTVSPost2010Prop31
280
     0
102
RTVSPost2010PropOp31
 70
     1
102
RTVSPost2010Prop32
280
     0
102
RTVSPost2010PropOp32
 70
     1
102
RTVSPost2010Prop33
280
     0
102
RTVSPost2010PropOp33
 70
     1
102
RTVSPost2010Prop34
280
     0
102
RTVSPost2010PropOp34
 70
     1
102
RTVSPost2010Prop35
280
     0
102
RTVSPost2010PropOp35
 70
     1
102
RTVSPost2010Prop36
280
     0
102
RTVSPost2010PropOp36
 70
     1
102
RTVSPost2010Prop37
 90
       50
102
RTVSPost2010PropOp37
 70
     1
102
RTVSPost2010Prop38
140
0.0
102
RTVSPost2010PropOp38
 70
     1
102
RTVSPost2010Prop39
140
1.0
102
RTVSPost2010PropOp39
 70
     1
102
RTVSPost2010Prop40
 90
        0
102
RTVSPost2010PropOp40
 70
     1
102
RTVSPost2010Prop41ColorIndex
 90
       18
102
RTVSPost2010Prop41ColorRGB
 90
        0
102
RTVSPost2010PropOp41
 70
     1
102
RTVSPost2010Prop42
 90
       50
102
RTVSPost2010PropOp42
 70
     1
102
RTVSPost2010Prop43
 90
        3
102
RTVSPost2010PropOp43
 70
     1
102
RTVSPost2010Prop44ColorIndex
 90
        5
102
RTVSPost2010Prop44ColorRGB
 90
      255
102
RTVSPost2010PropOp44
 70
     1
102
RTVSPost2010Prop45
280
     0
102
RTVSPost2010PropOp45
 70
     1
102
RTVSPost2010Prop46
 90
       50
102
RTVSPost2010PropOp46
 70
     1
102
RTVSPost2010Prop47
 90
       50
102
RTVSPost2010PropOp47
 70
     1
102
RTVSPost2010Prop48
 90
       50
102
RTVSPost2010PropOp48
 70
     1
102
RTVSPost2010Prop49
280
     0
102
RTVSPost2010PropOp49
 70
     1
102
RTVSPost2010Prop50
 90
       50
102
RTVSPost2010PropOp50
 70
     1
102
RTVSPost2010Prop51ColorIndex
 90
      256
102
RTVSPost2010Prop51ColorRGB
 90
-16777216
102
RTVSPost2010PropOp51
 70
     0
102
RTVSPost2010Prop52
140
1.0
102
RTVSPost2010PropOp52
 70
     0
102
RTVSPost2010Prop53
 90
        2
102
RTVSPost2010PropOp53
 70
     1
102
RTVSPost2010Prop54
  1
strokes_ogs.tif
102
RTVSPost2010PropOp54
 70
     1
102
RTVSPost2010Prop55
280
     0
102
RTVSPost2010PropOp55
 70
     1
102
RTVSPost2010Prop56
140
1.0
102
RTVSPost2010PropOp56
 70
     1
102
RTVSPost2010Prop57
140
1.0
102
RTVSPost2010PropOp57
 70
     1
  0
XRECORD
  5
314
102
{ACAD_REACTORS
330
313
102
}
330
313
100
AcDbXrecord
280
     1
102
RTVSPropertyOp0
 70
     1
102
RTVSPropertyOp1
 70
     1
102
RTVSPropertyOp2
 70
     1
102
RTVSPropertyOp3
 70
     1
102
RTVSPropertyOp4
 70
     1
102
RTVSPropertyOp5
 70
     1
102
RTVSPropertyOp6
 70
     1
102
RTVSPropertyOp7
 70
     1
102
RTVSPropertyOp8
 70
     1
102
RTVSPropertyOp9
 70
     1
102
RTVSPropertyOp10
 70
     1
102
RTVSPropertyOp11
 70
     1
102
RTVSPropertyOp12
 70
     1
102
RTVSPropertyOp13
 70
     1
102
RTVSPropertyOp14
 70
     1
102
RTVSPropertyOp15
 70
     1
102
RTVSPropertyOp16
 70
     1
102
RTVSPropertyOp17
 70
     1
102
RTVSPropertyOp18
 70
     1
102
RTVSPropertyOp19
 70
     1
102
RTVSPropertyOp20
 70
     1
102
RTVSPropertyOp21
 70
     1
102
RTVSPropertyOp22
 70
     1
102
RTVSPropertyOp23
 70
     1
102
RTVSPropertyOp24
 70
     1
102
RTVSPropertyOp25
 70
     1
102
RTVSPropertyOp26
 70
     1
102
RTVSPropertyOp27
 70
     1
102
RTVSPropertyOp28
 70
     1
102
RTVSPropertyOp29
 70
     1
102
RTVSPropertyOp30
 70
     1
102
RTVSPropertyOp31
 70
     1
102
RTVSPropertyOp32
 70
     1
102
RTVSPropertyOp33
 70
     1
102
RTVSPropertyOp34
 70
     1
102
RTVSPropertyOp35
 70
     1
102
RTVSPropertyOp36
 70
     1
102
RTVSPropertyOp37
 70
     1
102
RTVSPropertyOp38
 70
     1
102
RTVSPropertyOp39
 70
     1
102
RTVSPropertyOp40
 70
     1
102
RTVSPropertyOp41
 70
     1
102
RTVSPropertyOp42
 70
     1
102
RTVSPropertyOp43
 70
     1
102
RTVSPropertyOp44
 70
     1
102
RTVSPropertyOp45
 70
     1
102
RTVSPropertyOp46
 70
     1
102
RTVSPropertyOp47
 70
     1
102
RTVSPropertyOp48
 70
     1
102
RTVSPropertyOp49
 70
     1
102
RTVSPropertyOp50
 70
     1
102
RTVSPropertyOp51
 70
     0
102
RTVSPropertyOp52
 70
     0
102
RTVSPropertyOp53
 70
     1
102
RTVSPropertyOp54
 70
     1
102
RTVSPropertyOp55
 70
     1
102
RTVSPropertyOp56
 70
     1
102
RTVSPropertyOp57
 70
     1
102
RTVSPost2010Prop28
280
     0
102
RTVSPost2010PropOp28
 70
     1
102
RTVSPost2010Prop29
280
     1
102
RTVSPost2010PropOp29
 70
     1
102
RTVSPost2010Prop30
280
     1
102
RTVSPost2010PropOp30
 70
     1
102
RTVSPost2010Prop31
280
     0
102
RTVSPost2010PropOp31
 70
     1
102
RTVSPost2010Prop32
280
     0
102
RTVSPost2010PropOp32
 70
     1
102
RTVSPost2010Prop33
280
     0
102
RTVSPost2010PropOp33
 70
     1
102
RTVSPost2010Prop34
280
     0
102
RTVSPost2010PropOp34
 70
     1
102
RTVSPost2010Prop35
280
     0
102
RTVSPost2010PropOp35
 70
     1
102
RTVSPost2010Prop36
280
     0
102
RTVSPost2010PropOp36
 70
     1
102
RTVSPost2010Prop37
 90
       50
102
RTVSPost2010PropOp37
 70
     1
102
RTVSPost2010Prop38
140
0.0
102
RTVSPost2010PropOp38
 70
     1
102
RTVSPost2010Prop39
140
1.0
102
RTVSPost2010PropOp39
 70
     1
102
RTVSPost2010Prop40
 90
        0
102
RTVSPost2010PropOp40
 70
     1
102
RTVSPost2010Prop41ColorIndex
 90
       18
102
RTVSPost2010Prop41ColorRGB
 90
        0
102
RTVSPost2010PropOp41
 70
     1
102
RTVSPost2010Prop42
 90
       50
102
RTVSPost2010PropOp42
 70
     1
102
RTVSPost2010Prop43
 90
        3
102
RTVSPost2010PropOp43
 70
     1
102
RTVSPost2010Prop44ColorIndex
 90
        5
102
RTVSPost2010Prop44ColorRGB
 90
      255
102
RTVSPost2010PropOp44
 70
     1
102
RTVSPost2010Prop45
280
     0
102
RTVSPost2010PropOp45
 70
     1
102
RTVSPost2010Prop46
 90
       50
102
RTVSPost2010PropOp46
 70
     1
102
RTVSPost2010Prop47
 90
       50
102
RTVSPost2010PropOp47
 70
     1
102
RTVSPost2010Prop48
 90
       50
102
RTVSPost2010PropOp48
 70
     1
102
RTVSPost2010Prop49
280
     0
102
RTVSPost2010PropOp49
 70
     1
102
RTVSPost2010Prop50
 90
       50
102
RTVSPost2010PropOp50
 70
     1
102
RTVSPost2010Prop51ColorIndex
 90
      256
102
RTVSPost2010Prop51ColorRGB
 90
-16777216
102
RTVSPost2010PropOp51
 70
     0
102
RTVSPost2010Prop52
140
1.0
102
RTVSPost2010PropOp52
 70
     0
102
RTVSPost2010Prop53
 90
        2
102
RTVSPost2010PropOp53
 70
     1
102
RTVSPost2010Prop54
  1
strokes_ogs.tif
102
RTVSPost2010PropOp54
 70
     1
102
RTVSPost2010Prop55
280
     0
102
RTVSPost2010PropOp55
 70
     1
102
RTVSPost2010Prop56
140
1.0
102
RTVSPost2010PropOp56
 70
     1
102
RTVSPost2010Prop57
140
1.0
102
RTVSPost2010PropOp57
 70
     1
  0
XRECORD
  5
316
102
{ACAD_REACTORS
330
315
102
}
330
315
100
AcDbXrecord
280
     1
102
RTVSPropertyOp0
 70
     1
102
RTVSPropertyOp1
 70
     1
102
RTVSPropertyOp2
 70
     1
102
RTVSPropertyOp3
 70
     1
102
RTVSPropertyOp4
 70
     1
102
RTVSPropertyOp5
 70
     1
102
RTVSPropertyOp6
 70
     1
102
RTVSPropertyOp7
 70
     1
102
RTVSPropertyOp8
 70
     1
102
RTVSPropertyOp9
 70
     1
102
RTVSPropertyOp10
 70
     1
102
RTVSPropertyOp11
 70
     1
102
RTVSPropertyOp12
 70
     1
102
RTVSPropertyOp13
 70
     1
102
RTVSPropertyOp14
 70
     1
102
RTVSPropertyOp15
 70
     1
102
RTVSPropertyOp16
 70
     1
102
RTVSPropertyOp17
 70
     1
102
RTVSPropertyOp18
 70
     1
102
RTVSPropertyOp19
 70
     1
102
RTVSPropertyOp20
 70
     1
102
RTVSPropertyOp21
 70
     1
102
RTVSPropertyOp22
 70
     1
102
RTVSPropertyOp23
 70
     1
102
RTVSPropertyOp24
 70
     1
102
RTVSPropertyOp25
 70
     1
102
RTVSPropertyOp26
 70
     1
102
RTVSPropertyOp27
 70
     1
102
RTVSPropertyOp28
 70
     1
102
RTVSPropertyOp29
 70
     1
102
RTVSPropertyOp30
 70
     1
102
RTVSPropertyOp31
 70
     1
102
RTVSPropertyOp32
 70
     1
102
RTVSPropertyOp33
 70
     1
102
RTVSPropertyOp34
 70
     1
102
RTVSPropertyOp35
 70
     1
102
RTVSPropertyOp36
 70
     1
102
RTVSPropertyOp37
 70
     1
102
RTVSPropertyOp38
 70
     1
102
RTVSPropertyOp39
 70
     1
102
RTVSPropertyOp40
 70
     1
102
RTVSPropertyOp41
 70
     1
102
RTVSPropertyOp42
 70
     1
102
RTVSPropertyOp43
 70
     1
102
RTVSPropertyOp44
 70
     1
102
RTVSPropertyOp45
 70
     1
102
RTVSPropertyOp46
 70
     1
102
RTVSPropertyOp47
 70
     1
102
RTVSPropertyOp48
 70
     1
102
RTVSPropertyOp49
 70
     1
102
RTVSPropertyOp50
 70
     1
102
RTVSPropertyOp51
 70
     0
102
RTVSPropertyOp52
 70
     0
102
RTVSPropertyOp53
 70
     1
102
RTVSPropertyOp54
 70
     1
102
RTVSPropertyOp55
 70
     1
102
RTVSPropertyOp56
 70
     1
102
RTVSPropertyOp57
 70
     1
102
RTVSPost2010Prop28
280
     0
102
RTVSPost2010PropOp28
 70
     1
102
RTVSPost2010Prop29
280
     1
102
RTVSPost2010PropOp29
 70
     1
102
RTVSPost2010Prop30
280
     1
102
RTVSPost2010PropOp30
 70
     1
102
RTVSPost2010Prop31
280
     0
102
RTVSPost2010PropOp31
 70
     1
102
RTVSPost2010Prop32
280
     0
102
RTVSPost2010PropOp32
 70
     1
102
RTVSPost2010Prop33
280
     0
102
RTVSPost2010PropOp33
 70
     1
102
RTVSPost2010Prop34
280
     0
102
RTVSPost2010PropOp34
 70
     1
102
RTVSPost2010Prop35
280
     0
102
RTVSPost2010PropOp35
 70
     1
102
RTVSPost2010Prop36
280
     0
102
RTVSPost2010PropOp36
 70
     1
102
RTVSPost2010Prop37
 90
       50
102
RTVSPost2010PropOp37
 70
     1
102
RTVSPost2010Prop38
140
0.0
102
RTVSPost2010PropOp38
 70
     1
102
RTVSPost2010Prop39
140
1.0
102
RTVSPost2010PropOp39
 70
     1
102
RTVSPost2010Prop40
 90
        0
102
RTVSPost2010PropOp40
 70
     1
102
RTVSPost2010Prop41ColorIndex
 90
       18
102
RTVSPost2010Prop41ColorRGB
 90
        0
102
RTVSPost2010PropOp41
 70
     1
102
RTVSPost2010Prop42
 90
       50
102
RTVSPost2010PropOp42
 70
     1
102
RTVSPost2010Prop43
 90
        3
102
RTVSPost2010PropOp43
 70
     1
102
RTVSPost2010Prop44ColorIndex
 90
        5
102
RTVSPost2010Prop44ColorRGB
 90
      255
102
RTVSPost2010PropOp44
 70
     1
102
RTVSPost2010Prop45
280
     0
102
RTVSPost2010PropOp45
 70
     1
102
RTVSPost2010Prop46
 90
       50
102
RTVSPost2010PropOp46
 70
     1
102
RTVSPost2010Prop47
 90
       50
102
RTVSPost2010PropOp47
 70
     1
102
RTVSPost2010Prop48
 90
       50
102
RTVSPost2010PropOp48
 70
     1
102
RTVSPost2010Prop49
280
     0
102
RTVSPost2010PropOp49
 70
     1
102
RTVSPost2010Prop50
 90
       50
102
RTVSPost2010PropOp50
 70
     1
102
RTVSPost2010Prop51ColorIndex
 90
      256
102
RTVSPost2010Prop51ColorRGB
 90
-16777216
102
RTVSPost2010PropOp51
 70
     0
102
RTVSPost2010Prop52
140
1.0
102
RTVSPost2010PropOp52
 70
     0
102
RTVSPost2010Prop53
 90
        2
102
RTVSPost2010PropOp53
 70
     1
102
RTVSPost2010Prop54
  1
strokes_ogs.tif
102
RTVSPost2010PropOp54
 70
     1
102
RTVSPost2010Prop55
280
     0
102
RTVSPost2010PropOp55
 70
     1
102
RTVSPost2010Prop56
140
1.0
102
RTVSPost2010PropOp56
 70
     1
102
RTVSPost2010Prop57
140
1.0
102
RTVSPost2010PropOp57
 70
     1
  0
XRECORD
  5
326
102
{ACAD_REACTORS
330
325
102
}
330
325
100
AcDbXrecord
280
     1
102
RTVSPropertyOp0
 70
     0
102
RTVSPropertyOp1
 70
     0
102
RTVSPropertyOp2
 70
     0
102
RTVSPropertyOp3
 70
     0
102
RTVSPropertyOp4
 70
     0
102
RTVSPropertyOp5
 70
     0
102
RTVSPropertyOp6
 70
     0
102
RTVSPropertyOp7
 70
     0
102
RTVSPropertyOp8
 70
     0
102
RTVSPropertyOp9
 70
     0
102
RTVSPropertyOp10
 70
     0
102
RTVSPropertyOp11
 70
     0
102
RTVSPropertyOp12
 70
     0
102
RTVSPropertyOp13
 70
     0
102
RTVSPropertyOp14
 70
     2
102
RTVSPropertyOp15
 70
     0
102
RTVSPropertyOp16
 70
     0
102
RTVSPropertyOp17
 70
     0
102
RTVSPropertyOp18
 70
     0
102
RTVSPropertyOp19
 70
     0
102
RTVSPropertyOp20
 70
     0
102
RTVSPropertyOp21
 70
     0
102
RTVSPropertyOp22
 70
     0
102
RTVSPropertyOp23
 70
     0
102
RTVSPropertyOp24
 70
     0
102
RTVSPropertyOp25
 70
     0
102
RTVSPropertyOp26
 70
     0
102
RTVSPropertyOp27
 70
     0
102
RTVSPropertyOp28
 70
     0
102
RTVSPropertyOp29
 70
     0
102
RTVSPropertyOp30
 70
     0
102
RTVSPropertyOp31
 70
     0
102
RTVSPropertyOp32
 70
     0
102
RTVSPropertyOp33
 70
     0
102
RTVSPropertyOp34
 70
     0
102
RTVSPropertyOp35
 70
     0
102
RTVSPropertyOp36
 70
     0
102
RTVSPropertyOp37
 70
     0
102
RTVSPropertyOp38
 70
     0
102
RTVSPropertyOp39
 70
     0
102
RTVSPropertyOp40
 70
     0
102
RTVSPropertyOp41
 70
     0
102
RTVSPropertyOp42
 70
     0
102
RTVSPropertyOp43
 70
     0
102
RTVSPropertyOp44
 70
     0
102
RTVSPropertyOp45
 70
     0
102
RTVSPropertyOp46
 70
     0
102
RTVSPropertyOp47
 70
     0
102
RTVSPropertyOp48
 70
     0
102
RTVSPropertyOp49
 70
     0
102
RTVSPropertyOp50
 70
     0
102
RTVSPropertyOp51
 70
     0
102
RTVSPropertyOp52
 70
     0
102
RTVSPropertyOp53
 70
     0
102
RTVSPropertyOp54
 70
     0
102
RTVSPropertyOp55
 70
     0
102
RTVSPropertyOp56
 70
     0
102
RTVSPropertyOp57
 70
     0
102
RTVSPost2010Prop28
280
     0
102
RTVSPost2010PropOp28
 70
     0
102
RTVSPost2010Prop29
280
     1
102
RTVSPost2010PropOp29
 70
     0
102
RTVSPost2010Prop30
280
     1
102
RTVSPost2010PropOp30
 70
     0
102
RTVSPost2010Prop31
280
     0
102
RTVSPost2010PropOp31
 70
     0
102
RTVSPost2010Prop32
280
     0
102
RTVSPost2010PropOp32
 70
     0
102
RTVSPost2010Prop33
280
     0
102
RTVSPost2010PropOp33
 70
     0
102
RTVSPost2010Prop34
280
     0
102
RTVSPost2010PropOp34
 70
     0
102
RTVSPost2010Prop35
280
     0
102
RTVSPost2010PropOp35
 70
     0
102
RTVSPost2010Prop36
280
     0
102
RTVSPost2010PropOp36
 70
     0
102
RTVSPost2010Prop37
 90
       50
102
RTVSPost2010PropOp37
 70
     0
102
RTVSPost2010Prop38
140
0.0
102
RTVSPost2010PropOp38
 70
     0
102
RTVSPost2010Prop39
140
1.0
102
RTVSPost2010PropOp39
 70
     0
102
RTVSPost2010Prop40
 90
        0
102
RTVSPost2010PropOp40
 70
     0
102
RTVSPost2010Prop41ColorIndex
 90
       18
102
RTVSPost2010Prop41ColorRGB
 90
        0
102
RTVSPost2010PropOp41
 70
     0
102
RTVSPost2010Prop42
 90
       50
102
RTVSPost2010PropOp42
 70
     0
102
RTVSPost2010Prop43
 90
        3
102
RTVSPost2010PropOp43
 70
     0
102
RTVSPost2010Prop44ColorIndex
 90
        5
102
RTVSPost2010Prop44ColorRGB
 90
      255
102
RTVSPost2010PropOp44
 70
     0
102
RTVSPost2010Prop45
280
     0
102
RTVSPost2010PropOp45
 70
     0
102
RTVSPost2010Prop46
 90
       50
102
RTVSPost2010PropOp46
 70
     0
102
RTVSPost2010Prop47
 90
       50
102
RTVSPost2010PropOp47
 70
     0
102
RTVSPost2010Prop48
 90
       50
102
RTVSPost2010PropOp48
 70
     0
102
RTVSPost2010Prop49
280
     0
102
RTVSPost2010PropOp49
 70
     0
102
RTVSPost2010Prop50
 90
       50
102
RTVSPost2010PropOp50
 70
     0
102
RTVSPost2010Prop51ColorIndex
 90
      256
102
RTVSPost2010Prop51ColorRGB
 90
-16777216
102
RTVSPost2010PropOp51
 70
     0
102
RTVSPost2010Prop52
140
1.0
102
RTVSPost2010PropOp52
 70
     0
102
RTVSPost2010Prop53
 90
        2
102
RTVSPost2010PropOp53
 70
     0
102
RTVSPost2010Prop54
  1
strokes_ogs.tif
102
RTVSPost2010PropOp54
 70
     0
102
RTVSPost2010Prop55
280
     0
102
RTVSPost2010PropOp55
 70
     0
102
RTVSPost2010Prop56
140
1.0
102
RTVSPost2010PropOp56
 70
     0
102
RTVSPost2010Prop57
140
1.0
102
RTVSPost2010PropOp57
 70
     0
  0
XRECORD
  5
31E
102
{ACAD_REACTORS
330
31D
102
}
330
31D
100
AcDbXrecord
280
     1
102
RTVSPropertyOp0
 70
     1
102
RTVSPropertyOp1
 70
     1
102
RTVSPropertyOp2
 70
     1
102
RTVSPropertyOp3
 70
     1
102
RTVSPropertyOp4
 70
     1
102
RTVSPropertyOp5
 70
     1
102
RTVSPropertyOp6
 70
     1
102
RTVSPropertyOp7
 70
     1
102
RTVSPropertyOp8
 70
     1
102
RTVSPropertyOp9
 70
     1
102
RTVSPropertyOp10
 70
     1
102
RTVSPropertyOp11
 70
     1
102
RTVSPropertyOp12
 70
     1
102
RTVSPropertyOp13
 70
     1
102
RTVSPropertyOp14
 70
     1
102
RTVSPropertyOp15
 70
     1
102
RTVSPropertyOp16
 70
     1
102
RTVSPropertyOp17
 70
     1
102
RTVSPropertyOp18
 70
     1
102
RTVSPropertyOp19
 70
     1
102
RTVSPropertyOp20
 70
     1
102
RTVSPropertyOp21
 70
     1
102
RTVSPropertyOp22
 70
     1
102
RTVSPropertyOp23
 70
     1
102
RTVSPropertyOp24
 70
     1
102
RTVSPropertyOp25
 70
     1
102
RTVSPropertyOp26
 70
     1
102
RTVSPropertyOp27
 70
     1
102
RTVSPropertyOp28
 70
     1
102
RTVSPropertyOp29
 70
     1
102
RTVSPropertyOp30
 70
     1
102
RTVSPropertyOp31
 70
     1
102
RTVSPropertyOp32
 70
     1
102
RTVSPropertyOp33
 70
     1
102
RTVSPropertyOp34
 70
     1
102
RTVSPropertyOp35
 70
     1
102
RTVSPropertyOp36
 70
     1
102
RTVSPropertyOp37
 70
     1
102
RTVSPropertyOp38
 70
     1
102
RTVSPropertyOp39
 70
     1
102
RTVSPropertyOp40
 70
     1
102
RTVSPropertyOp41
 70
     1
102
RTVSPropertyOp42
 70
     1
102
RTVSPropertyOp43
 70
     1
102
RTVSPropertyOp44
 70
     1
102
RTVSPropertyOp45
 70
     1
102
RTVSPropertyOp46
 70
     1
102
RTVSPropertyOp47
 70
     1
102
RTVSPropertyOp48
 70
     1
102
RTVSPropertyOp49
 70
     1
102
RTVSPropertyOp50
 70
     1
102
RTVSPropertyOp51
 70
     0
102
RTVSPropertyOp52
 70
     0
102
RTVSPropertyOp53
 70
     1
102
RTVSPropertyOp54
 70
     1
102
RTVSPropertyOp55
 70
     1
102
RTVSPropertyOp56
 70
     1
102
RTVSPropertyOp57
 70
     1
102
RTVSPost2010Prop28
280
     0
102
RTVSPost2010PropOp28
 70
     1
102
RTVSPost2010Prop29
280
     1
102
RTVSPost2010PropOp29
 70
     1
102
RTVSPost2010Prop30
280
     1
102
RTVSPost2010PropOp30
 70
     1
102
RTVSPost2010Prop31
280
     0
102
RTVSPost2010PropOp31
 70
     1
102
RTVSPost2010Prop32
280
     0
102
RTVSPost2010PropOp32
 70
     1
102
RTVSPost2010Prop33
280
     0
102
RTVSPost2010PropOp33
 70
     1
102
RTVSPost2010Prop34
280
     0
102
RTVSPost2010PropOp34
 70
     1
102
RTVSPost2010Prop35
280
     0
102
RTVSPost2010PropOp35
 70
     1
102
RTVSPost2010Prop36
280
     0
102
RTVSPost2010PropOp36
 70
     1
102
RTVSPost2010Prop37
 90
       50
102
RTVSPost2010PropOp37
 70
     1
102
RTVSPost2010Prop38
140
0.0
102
RTVSPost2010PropOp38
 70
     1
102
RTVSPost2010Prop39
140
1.0
102
RTVSPost2010PropOp39
 70
     1
102
RTVSPost2010Prop40
 90
        0
102
RTVSPost2010PropOp40
 70
     1
102
RTVSPost2010Prop41ColorIndex
 90
       18
102
RTVSPost2010Prop41ColorRGB
 90
        0
102
RTVSPost2010PropOp41
 70
     1
102
RTVSPost2010Prop42
 90
       50
102
RTVSPost2010PropOp42
 70
     1
102
RTVSPost2010Prop43
 90
        3
102
RTVSPost2010PropOp43
 70
     1
102
RTVSPost2010Prop44ColorIndex
 90
        5
102
RTVSPost2010Prop44ColorRGB
 90
      255
102
RTVSPost2010PropOp44
 70
     1
102
RTVSPost2010Prop45
280
     0
102
RTVSPost2010PropOp45
 70
     1
102
RTVSPost2010Prop46
 90
       50
102
RTVSPost2010PropOp46
 70
     1
102
RTVSPost2010Prop47
 90
       50
102
RTVSPost2010PropOp47
 70
     1
102
RTVSPost2010Prop48
 90
       50
102
RTVSPost2010PropOp48
 70
     1
102
RTVSPost2010Prop49
280
     0
102
RTVSPost2010PropOp49
 70
     1
102
RTVSPost2010Prop50
 90
       50
102
RTVSPost2010PropOp50
 70
     1
102
RTVSPost2010Prop51ColorIndex
 90
      256
102
RTVSPost2010Prop51ColorRGB
 90
-16777216
102
RTVSPost2010PropOp51
 70
     0
102
RTVSPost2010Prop52
140
1.0
102
RTVSPost2010PropOp52
 70
     0
102
RTVSPost2010Prop53
 90
        2
102
RTVSPost2010PropOp53
 70
     1
102
RTVSPost2010Prop54
  1
strokes_ogs.tif
102
RTVSPost2010PropOp54
 70
     1
102
RTVSPost2010Prop55
280
     0
102
RTVSPost2010PropOp55
 70
     1
102
RTVSPost2010Prop56
140
1.0
102
RTVSPost2010PropOp56
 70
     1
102
RTVSPost2010Prop57
140
1.0
102
RTVSPost2010PropOp57
 70
     1
  0
XRECORD
  5
302
102
{ACAD_REACTORS
330
301
102
}
330
301
100
AcDbXrecord
280
     1
102
RTVSPropertyOp0
 70
     1
102
RTVSPropertyOp1
 70
     1
102
RTVSPropertyOp2
 70
     1
102
RTVSPropertyOp3
 70
     1
102
RTVSPropertyOp4
 70
     1
102
RTVSPropertyOp5
 70
     1
102
RTVSPropertyOp6
 70
     1
102
RTVSPropertyOp7
 70
     1
102
RTVSPropertyOp8
 70
     1
102
RTVSPropertyOp9
 70
     1
102
RTVSPropertyOp10
 70
     1
102
RTVSPropertyOp11
 70
     1
102
RTVSPropertyOp12
 70
     1
102
RTVSPropertyOp13
 70
     1
102
RTVSPropertyOp14
 70
     1
102
RTVSPropertyOp15
 70
     1
102
RTVSPropertyOp16
 70
     1
102
RTVSPropertyOp17
 70
     1
102
RTVSPropertyOp18
 70
     1
102
RTVSPropertyOp19
 70
     1
102
RTVSPropertyOp20
 70
     1
102
RTVSPropertyOp21
 70
     1
102
RTVSPropertyOp22
 70
     1
102
RTVSPropertyOp23
 70
     1
102
RTVSPropertyOp24
 70
     1
102
RTVSPropertyOp25
 70
     1
102
RTVSPropertyOp26
 70
     1
102
RTVSPropertyOp27
 70
     1
102
RTVSPropertyOp28
 70
     1
102
RTVSPropertyOp29
 70
     1
102
RTVSPropertyOp30
 70
     1
102
RTVSPropertyOp31
 70
     1
102
RTVSPropertyOp32
 70
     1
102
RTVSPropertyOp33
 70
     1
102
RTVSPropertyOp34
 70
     1
102
RTVSPropertyOp35
 70
     1
102
RTVSPropertyOp36
 70
     1
102
RTVSPropertyOp37
 70
     1
102
RTVSPropertyOp38
 70
     1
102
RTVSPropertyOp39
 70
     1
102
RTVSPropertyOp40
 70
     1
102
RTVSPropertyOp41
 70
     1
102
RTVSPropertyOp42
 70
     1
102
RTVSPropertyOp43
 70
     1
102
RTVSPropertyOp44
 70
     1
102
RTVSPropertyOp45
 70
     1
102
RTVSPropertyOp46
 70
     1
102
RTVSPropertyOp47
 70
     1
102
RTVSPropertyOp48
 70
     1
102
RTVSPropertyOp49
 70
     1
102
RTVSPropertyOp50
 70
     1
102
RTVSPropertyOp51
 70
     0
102
RTVSPropertyOp52
 70
     0
102
RTVSPropertyOp53
 70
     1
102
RTVSPropertyOp54
 70
     1
102
RTVSPropertyOp55
 70
     1
102
RTVSPropertyOp56
 70
     1
102
RTVSPropertyOp57
 70
     1
102
RTVSPost2010Prop28
280
     0
102
RTVSPost2010PropOp28
 70
     1
102
RTVSPost2010Prop29
280
     1
102
RTVSPost2010PropOp29
 70
     1
102
RTVSPost2010Prop30
280
     1
102
RTVSPost2010PropOp30
 70
     1
102
RTVSPost2010Prop31
280
     0
102
RTVSPost2010PropOp31
 70
     1
102
RTVSPost2010Prop32
280
     0
102
RTVSPost2010PropOp32
 70
     1
102
RTVSPost2010Prop33
280
     0
102
RTVSPost2010PropOp33
 70
     1
102
RTVSPost2010Prop34
280
     0
102
RTVSPost2010PropOp34
 70
     1
102
RTVSPost2010Prop35
280
     0
102
RTVSPost2010PropOp35
 70
     1
102
RTVSPost2010Prop36
280
     0
102
RTVSPost2010PropOp36
 70
     1
102
RTVSPost2010Prop37
 90
       50
102
RTVSPost2010PropOp37
 70
     1
102
RTVSPost2010Prop38
140
0.0
102
RTVSPost2010PropOp38
 70
     1
102
RTVSPost2010Prop39
140
1.0
102
RTVSPost2010PropOp39
 70
     1
102
RTVSPost2010Prop40
 90
        0
102
RTVSPost2010PropOp40
 70
     1
102
RTVSPost2010Prop41ColorIndex
 90
       18
102
RTVSPost2010Prop41ColorRGB
 90
        0
102
RTVSPost2010PropOp41
 70
     1
102
RTVSPost2010Prop42
 90
       50
102
RTVSPost2010PropOp42
 70
     1
102
RTVSPost2010Prop43
 90
        3
102
RTVSPost2010PropOp43
 70
     1
102
RTVSPost2010Prop44ColorIndex
 90
        5
102
RTVSPost2010Prop44ColorRGB
 90
      255
102
RTVSPost2010PropOp44
 70
     1
102
RTVSPost2010Prop45
280
     0
102
RTVSPost2010PropOp45
 70
     1
102
RTVSPost2010Prop46
 90
       50
102
RTVSPost2010PropOp46
 70
     1
102
RTVSPost2010Prop47
 90
       50
102
RTVSPost2010PropOp47
 70
     1
102
RTVSPost2010Prop48
 90
       50
102
RTVSPost2010PropOp48
 70
     1
102
RTVSPost2010Prop49
280
     0
102
RTVSPost2010PropOp49
 70
     1
102
RTVSPost2010Prop50
 90
       50
102
RTVSPost2010PropOp50
 70
     1
102
RTVSPost2010Prop51ColorIndex
 90
      256
102
RTVSPost2010Prop51ColorRGB
 90
-16777216
102
RTVSPost2010PropOp51
 70
     0
102
RTVSPost2010Prop52
140
1.0
102
RTVSPost2010PropOp52
 70
     0
102
RTVSPost2010Prop53
 90
        2
102
RTVSPost2010PropOp53
 70
     1
102
RTVSPost2010Prop54
  1
strokes_ogs.tif
102
RTVSPost2010PropOp54
 70
     1
102
RTVSPost2010Prop55
280
     0
102
RTVSPost2010PropOp55
 70
     1
102
RTVSPost2010Prop56
140
1.0
102
RTVSPost2010PropOp56
 70
     1
102
RTVSPost2010Prop57
140
1.0
102
RTVSPost2010PropOp57
 70
     1
  0
XRECORD
  5
304
102
{ACAD_REACTORS
330
303
102
}
330
303
100
AcDbXrecord
280
     1
102
RTVSPropertyOp0
 70
     1
102
RTVSPropertyOp1
 70
     1
102
RTVSPropertyOp2
 70
     1
102
RTVSPropertyOp3
 70
     1
102
RTVSPropertyOp4
 70
     1
102
RTVSPropertyOp5
 70
     1
102
RTVSPropertyOp6
 70
     1
102
RTVSPropertyOp7
 70
     1
102
RTVSPropertyOp8
 70
     1
102
RTVSPropertyOp9
 70
     1
102
RTVSPropertyOp10
 70
     1
102
RTVSPropertyOp11
 70
     1
102
RTVSPropertyOp12
 70
     1
102
RTVSPropertyOp13
 70
     1
102
RTVSPropertyOp14
 70
     1
102
RTVSPropertyOp15
 70
     1
102
RTVSPropertyOp16
 70
     1
102
RTVSPropertyOp17
 70
     1
102
RTVSPropertyOp18
 70
     1
102
RTVSPropertyOp19
 70
     1
102
RTVSPropertyOp20
 70
     1
102
RTVSPropertyOp21
 70
     1
102
RTVSPropertyOp22
 70
     1
102
RTVSPropertyOp23
 70
     1
102
RTVSPropertyOp24
 70
     1
102
RTVSPropertyOp25
 70
     1
102
RTVSPropertyOp26
 70
     1
102
RTVSPropertyOp27
 70
     1
102
RTVSPropertyOp28
 70
     1
102
RTVSPropertyOp29
 70
     1
102
RTVSPropertyOp30
 70
     1
102
RTVSPropertyOp31
 70
     1
102
RTVSPropertyOp32
 70
     1
102
RTVSPropertyOp33
 70
     1
102
RTVSPropertyOp34
 70
     1
102
RTVSPropertyOp35
 70
     1
102
RTVSPropertyOp36
 70
     1
102
RTVSPropertyOp37
 70
     1
102
RTVSPropertyOp38
 70
     1
102
RTVSPropertyOp39
 70
     1
102
RTVSPropertyOp40
 70
     1
102
RTVSPropertyOp41
 70
     1
102
RTVSPropertyOp42
 70
     1
102
RTVSPropertyOp43
 70
     1
102
RTVSPropertyOp44
 70
     1
102
RTVSPropertyOp45
 70
     1
102
RTVSPropertyOp46
 70
     1
102
RTVSPropertyOp47
 70
     1
102
RTVSPropertyOp48
 70
     1
102
RTVSPropertyOp49
 70
     1
102
RTVSPropertyOp50
 70
     1
102
RTVSPropertyOp51
 70
     0
102
RTVSPropertyOp52
 70
     0
102
RTVSPropertyOp53
 70
     1
102
RTVSPropertyOp54
 70
     1
102
RTVSPropertyOp55
 70
     1
102
RTVSPropertyOp56
 70
     1
102
RTVSPropertyOp57
 70
     1
102
RTVSPost2010Prop28
280
     0
102
RTVSPost2010PropOp28
 70
     1
102
RTVSPost2010Prop29
280
     1
102
RTVSPost2010PropOp29
 70
     1
102
RTVSPost2010Prop30
280
     1
102
RTVSPost2010PropOp30
 70
     1
102
RTVSPost2010Prop31
280
     0
102
RTVSPost2010PropOp31
 70
     1
102
RTVSPost2010Prop32
280
     0
102
RTVSPost2010PropOp32
 70
     1
102
RTVSPost2010Prop33
280
     0
102
RTVSPost2010PropOp33
 70
     1
102
RTVSPost2010Prop34
280
     0
102
RTVSPost2010PropOp34
 70
     1
102
RTVSPost2010Prop35
280
     0
102
RTVSPost2010PropOp35
 70
     1
102
RTVSPost2010Prop36
280
     0
102
RTVSPost2010PropOp36
 70
     1
102
RTVSPost2010Prop37
 90
       50
102
RTVSPost2010PropOp37
 70
     1
102
RTVSPost2010Prop38
140
0.0
102
RTVSPost2010PropOp38
 70
     1
102
RTVSPost2010Prop39
140
1.0
102
RTVSPost2010PropOp39
 70
     1
102
RTVSPost2010Prop40
 90
        0
102
RTVSPost2010PropOp40
 70
     1
102
RTVSPost2010Prop41ColorIndex
 90
       18
102
RTVSPost2010Prop41ColorRGB
 90
        0
102
RTVSPost2010PropOp41
 70
     1
102
RTVSPost2010Prop42
 90
       50
102
RTVSPost2010PropOp42
 70
     1
102
RTVSPost2010Prop43
 90
        3
102
RTVSPost2010PropOp43
 70
     1
102
RTVSPost2010Prop44ColorIndex
 90
        5
102
RTVSPost2010Prop44ColorRGB
 90
      255
102
RTVSPost2010PropOp44
 70
     1
102
RTVSPost2010Prop45
280
     0
102
RTVSPost2010PropOp45
 70
     1
102
RTVSPost2010Prop46
 90
       50
102
RTVSPost2010PropOp46
 70
     1
102
RTVSPost2010Prop47
 90
       50
102
RTVSPost2010PropOp47
 70
     1
102
RTVSPost2010Prop48
 90
       50
102
RTVSPost2010PropOp48
 70
     1
102
RTVSPost2010Prop49
280
     0
102
RTVSPost2010PropOp49
 70
     1
102
RTVSPost2010Prop50
 90
       50
102
RTVSPost2010PropOp50
 70
     1
102
RTVSPost2010Prop51ColorIndex
 90
      256
102
RTVSPost2010Prop51ColorRGB
 90
-16777216
102
RTVSPost2010PropOp51
 70
     0
102
RTVSPost2010Prop52
140
1.0
102
RTVSPost2010PropOp52
 70
     0
102
RTVSPost2010Prop53
 90
        2
102
RTVSPost2010PropOp53
 70
     1
102
RTVSPost2010Prop54
  1
strokes_ogs.tif
102
RTVSPost2010PropOp54
 70
     1
102
RTVSPost2010Prop55
280
     0
102
RTVSPost2010PropOp55
 70
     1
102
RTVSPost2010Prop56
140
1.0
102
RTVSPost2010PropOp56
 70
     1
102
RTVSPost2010Prop57
140
1.0
102
RTVSPost2010PropOp57
 70
     1
  0
XRECORD
  5
306
102
{ACAD_REACTORS
330
305
102
}
330
305
100
AcDbXrecord
280
     1
102
RTVSPropertyOp0
 70
     1
102
RTVSPropertyOp1
 70
     1
102
RTVSPropertyOp2
 70
     1
102
RTVSPropertyOp3
 70
     1
102
RTVSPropertyOp4
 70
     1
102
RTVSPropertyOp5
 70
     1
102
RTVSPropertyOp6
 70
     1
102
RTVSPropertyOp7
 70
     1
102
RTVSPropertyOp8
 70
     1
102
RTVSPropertyOp9
 70
     1
102
RTVSPropertyOp10
 70
     1
102
RTVSPropertyOp11
 70
     1
102
RTVSPropertyOp12
 70
     1
102
RTVSPropertyOp13
 70
     1
102
RTVSPropertyOp14
 70
     1
102
RTVSPropertyOp15
 70
     1
102
RTVSPropertyOp16
 70
     1
102
RTVSPropertyOp17
 70
     1
102
RTVSPropertyOp18
 70
     1
102
RTVSPropertyOp19
 70
     1
102
RTVSPropertyOp20
 70
     1
102
RTVSPropertyOp21
 70
     1
102
RTVSPropertyOp22
 70
     1
102
RTVSPropertyOp23
 70
     1
102
RTVSPropertyOp24
 70
     1
102
RTVSPropertyOp25
 70
     1
102
RTVSPropertyOp26
 70
     1
102
RTVSPropertyOp27
 70
     1
102
RTVSPropertyOp28
 70
     1
102
RTVSPropertyOp29
 70
     1
102
RTVSPropertyOp30
 70
     1
102
RTVSPropertyOp31
 70
     1
102
RTVSPropertyOp32
 70
     1
102
RTVSPropertyOp33
 70
     1
102
RTVSPropertyOp34
 70
     1
102
RTVSPropertyOp35
 70
     1
102
RTVSPropertyOp36
 70
     1
102
RTVSPropertyOp37
 70
     1
102
RTVSPropertyOp38
 70
     1
102
RTVSPropertyOp39
 70
     1
102
RTVSPropertyOp40
 70
     1
102
RTVSPropertyOp41
 70
     1
102
RTVSPropertyOp42
 70
     1
102
RTVSPropertyOp43
 70
     1
102
RTVSPropertyOp44
 70
     1
102
RTVSPropertyOp45
 70
     1
102
RTVSPropertyOp46
 70
     1
102
RTVSPropertyOp47
 70
     1
102
RTVSPropertyOp48
 70
     1
102
RTVSPropertyOp49
 70
     1
102
RTVSPropertyOp50
 70
     1
102
RTVSPropertyOp51
 70
     0
102
RTVSPropertyOp52
 70
     0
102
RTVSPropertyOp53
 70
     1
102
RTVSPropertyOp54
 70
     1
102
RTVSPropertyOp55
 70
     1
102
RTVSPropertyOp56
 70
     1
102
RTVSPropertyOp57
 70
     1
102
RTVSPost2010Prop28
280
     0
102
RTVSPost2010PropOp28
 70
     1
102
RTVSPost2010Prop29
280
     1
102
RTVSPost2010PropOp29
 70
     1
102
RTVSPost2010Prop30
280
     1
102
RTVSPost2010PropOp30
 70
     1
102
RTVSPost2010Prop31
280
     0
102
RTVSPost2010PropOp31
 70
     1
102
RTVSPost2010Prop32
280
     0
102
RTVSPost2010PropOp32
 70
     1
102
RTVSPost2010Prop33
280
     0
102
RTVSPost2010PropOp33
 70
     1
102
RTVSPost2010Prop34
280
     0
102
RTVSPost2010PropOp34
 70
     1
102
RTVSPost2010Prop35
280
     0
102
RTVSPost2010PropOp35
 70
     1
102
RTVSPost2010Prop36
280
     0
102
RTVSPost2010PropOp36
 70
     1
102
RTVSPost2010Prop37
 90
       50
102
RTVSPost2010PropOp37
 70
     1
102
RTVSPost2010Prop38
140
0.0
102
RTVSPost2010PropOp38
 70
     1
102
RTVSPost2010Prop39
140
1.0
102
RTVSPost2010PropOp39
 70
     1
102
RTVSPost2010Prop40
 90
        0
102
RTVSPost2010PropOp40
 70
     1
102
RTVSPost2010Prop41ColorIndex
 90
       18
102
RTVSPost2010Prop41ColorRGB
 90
        0
102
RTVSPost2010PropOp41
 70
     1
102
RTVSPost2010Prop42
 90
       50
102
RTVSPost2010PropOp42
 70
     1
102
RTVSPost2010Prop43
 90
        3
102
RTVSPost2010PropOp43
 70
     1
102
RTVSPost2010Prop44ColorIndex
 90
        5
102
RTVSPost2010Prop44ColorRGB
 90
      255
102
RTVSPost2010PropOp44
 70
     1
102
RTVSPost2010Prop45
280
     0
102
RTVSPost2010PropOp45
 70
     1
102
RTVSPost2010Prop46
 90
       50
102
RTVSPost2010PropOp46
 70
     1
102
RTVSPost2010Prop47
 90
       50
102
RTVSPost2010PropOp47
 70
     1
102
RTVSPost2010Prop48
 90
       50
102
RTVSPost2010PropOp48
 70
     1
102
RTVSPost2010Prop49
280
     0
102
RTVSPost2010PropOp49
 70
     1
102
RTVSPost2010Prop50
 90
       50
102
RTVSPost2010PropOp50
 70
     1
102
RTVSPost2010Prop51ColorIndex
 90
      256
102
RTVSPost2010Prop51ColorRGB
 90
-16777216
102
RTVSPost2010PropOp51
 70
     0
102
RTVSPost2010Prop52
140
1.0
102
RTVSPost2010PropOp52
 70
     0
102
RTVSPost2010Prop53
 90
        2
102
RTVSPost2010PropOp53
 70
     1
102
RTVSPost2010Prop54
  1
strokes_ogs.tif
102
RTVSPost2010PropOp54
 70
     1
102
RTVSPost2010Prop55
280
     0
102
RTVSPost2010PropOp55
 70
     1
102
RTVSPost2010Prop56
140
1.0
102
RTVSPost2010PropOp56
 70
     1
102
RTVSPost2010Prop57
140
1.0
102
RTVSPost2010PropOp57
 70
     1
  0
XRECORD
  5
308
102
{ACAD_REACTORS
330
307
102
}
330
307
100
AcDbXrecord
280
     1
102
RTVSPropertyOp0
 70
     1
102
RTVSPropertyOp1
 70
     1
102
RTVSPropertyOp2
 70
     1
102
RTVSPropertyOp3
 70
     1
102
RTVSPropertyOp4
 70
     1
102
RTVSPropertyOp5
 70
     1
102
RTVSPropertyOp6
 70
     1
102
RTVSPropertyOp7
 70
     1
102
RTVSPropertyOp8
 70
     1
102
RTVSPropertyOp9
 70
     1
102
RTVSPropertyOp10
 70
     1
102
RTVSPropertyOp11
 70
     1
102
RTVSPropertyOp12
 70
     1
102
RTVSPropertyOp13
 70
     1
102
RTVSPropertyOp14
 70
     1
102
RTVSPropertyOp15
 70
     1
102
RTVSPropertyOp16
 70
     1
102
RTVSPropertyOp17
 70
     1
102
RTVSPropertyOp18
 70
     1
102
RTVSPropertyOp19
 70
     1
102
RTVSPropertyOp20
 70
     1
102
RTVSPropertyOp21
 70
     1
102
RTVSPropertyOp22
 70
     1
102
RTVSPropertyOp23
 70
     1
102
RTVSPropertyOp24
 70
     1
102
RTVSPropertyOp25
 70
     1
102
RTVSPropertyOp26
 70
     1
102
RTVSPropertyOp27
 70
     1
102
RTVSPropertyOp28
 70
     1
102
RTVSPropertyOp29
 70
     1
102
RTVSPropertyOp30
 70
     1
102
RTVSPropertyOp31
 70
     1
102
RTVSPropertyOp32
 70
     1
102
RTVSPropertyOp33
 70
     1
102
RTVSPropertyOp34
 70
     1
102
RTVSPropertyOp35
 70
     1
102
RTVSPropertyOp36
 70
     1
102
RTVSPropertyOp37
 70
     1
102
RTVSPropertyOp38
 70
     1
102
RTVSPropertyOp39
 70
     1
102
RTVSPropertyOp40
 70
     1
102
RTVSPropertyOp41
 70
     1
102
RTVSPropertyOp42
 70
     1
102
RTVSPropertyOp43
 70
     1
102
RTVSPropertyOp44
 70
     1
102
RTVSPropertyOp45
 70
     1
102
RTVSPropertyOp46
 70
     1
102
RTVSPropertyOp47
 70
     1
102
RTVSPropertyOp48
 70
     1
102
RTVSPropertyOp49
 70
     1
102
RTVSPropertyOp50
 70
     1
102
RTVSPropertyOp51
 70
     0
102
RTVSPropertyOp52
 70
     0
102
RTVSPropertyOp53
 70
     1
102
RTVSPropertyOp54
 70
     1
102
RTVSPropertyOp55
 70
     1
102
RTVSPropertyOp56
 70
     1
102
RTVSPropertyOp57
 70
     1
102
RTVSPost2010Prop28
280
     0
102
RTVSPost2010PropOp28
 70
     1
102
RTVSPost2010Prop29
280
     1
102
RTVSPost2010PropOp29
 70
     1
102
RTVSPost2010Prop30
280
     1
102
RTVSPost2010PropOp30
 70
     1
102
RTVSPost2010Prop31
280
     0
102
RTVSPost2010PropOp31
 70
     1
102
RTVSPost2010Prop32
280
     0
102
RTVSPost2010PropOp32
 70
     1
102
RTVSPost2010Prop33
280
     0
102
RTVSPost2010PropOp33
 70
     1
102
RTVSPost2010Prop34
280
     0
102
RTVSPost2010PropOp34
 70
     1
102
RTVSPost2010Prop35
280
     0
102
RTVSPost2010PropOp35
 70
     1
102
RTVSPost2010Prop36
280
     0
102
RTVSPost2010PropOp36
 70
     1
102
RTVSPost2010Prop37
 90
       50
102
RTVSPost2010PropOp37
 70
     1
102
RTVSPost2010Prop38
140
0.0
102
RTVSPost2010PropOp38
 70
     1
102
RTVSPost2010Prop39
140
1.0
102
RTVSPost2010PropOp39
 70
     1
102
RTVSPost2010Prop40
 90
        0
102
RTVSPost2010PropOp40
 70
     1
102
RTVSPost2010Prop41ColorIndex
 90
       18
102
RTVSPost2010Prop41ColorRGB
 90
        0
102
RTVSPost2010PropOp41
 70
     1
102
RTVSPost2010Prop42
 90
       50
102
RTVSPost2010PropOp42
 70
     1
102
RTVSPost2010Prop43
 90
        3
102
RTVSPost2010PropOp43
 70
     1
102
RTVSPost2010Prop44ColorIndex
 90
        5
102
RTVSPost2010Prop44ColorRGB
 90
      255
102
RTVSPost2010PropOp44
 70
     1
102
RTVSPost2010Prop45
280
     0
102
RTVSPost2010PropOp45
 70
     1
102
RTVSPost2010Prop46
 90
       50
102
RTVSPost2010PropOp46
 70
     1
102
RTVSPost2010Prop47
 90
       50
102
RTVSPost2010PropOp47
 70
     1
102
RTVSPost2010Prop48
 90
       50
102
RTVSPost2010PropOp48
 70
     1
102
RTVSPost2010Prop49
280
     0
102
RTVSPost2010PropOp49
 70
     1
102
RTVSPost2010Prop50
 90
       50
102
RTVSPost2010PropOp50
 70
     1
102
RTVSPost2010Prop51ColorIndex
 90
      256
102
RTVSPost2010Prop51ColorRGB
 90
-16777216
102
RTVSPost2010PropOp51
 70
     0
102
RTVSPost2010Prop52
140
1.0
102
RTVSPost2010PropOp52
 70
     0
102
RTVSPost2010Prop53
 90
        2
102
RTVSPost2010PropOp53
 70
     1
102
RTVSPost2010Prop54
  1
strokes_ogs.tif
102
RTVSPost2010PropOp54
 70
     1
102
RTVSPost2010Prop55
280
     0
102
RTVSPost2010PropOp55
 70
     1
102
RTVSPost2010Prop56
140
1.0
102
RTVSPost2010PropOp56
 70
     1
102
RTVSPost2010Prop57
140
1.0
102
RTVSPost2010PropOp57
 70
     1
  0
XRECORD
  5
30E
102
{ACAD_REACTORS
330
30D
102
}
330
30D
100
AcDbXrecord
280
     1
102
RTVSPropertyOp0
 70
     1
102
RTVSPropertyOp1
 70
     1
102
RTVSPropertyOp2
 70
     1
102
RTVSPropertyOp3
 70
     1
102
RTVSPropertyOp4
 70
     1
102
RTVSPropertyOp5
 70
     1
102
RTVSPropertyOp6
 70
     1
102
RTVSPropertyOp7
 70
     1
102
RTVSPropertyOp8
 70
     1
102
RTVSPropertyOp9
 70
     1
102
RTVSPropertyOp10
 70
     1
102
RTVSPropertyOp11
 70
     1
102
RTVSPropertyOp12
 70
     1
102
RTVSPropertyOp13
 70
     1
102
RTVSPropertyOp14
 70
     1
102
RTVSPropertyOp15
 70
     1
102
RTVSPropertyOp16
 70
     1
102
RTVSPropertyOp17
 70
     1
102
RTVSPropertyOp18
 70
     1
102
RTVSPropertyOp19
 70
     1
102
RTVSPropertyOp20
 70
     1
102
RTVSPropertyOp21
 70
     1
102
RTVSPropertyOp22
 70
     1
102
RTVSPropertyOp23
 70
     1
102
RTVSPropertyOp24
 70
     1
102
RTVSPropertyOp25
 70
     1
102
RTVSPropertyOp26
 70
     1
102
RTVSPropertyOp27
 70
     1
102
RTVSPropertyOp28
 70
     1
102
RTVSPropertyOp29
 70
     1
102
RTVSPropertyOp30
 70
     1
102
RTVSPropertyOp31
 70
     1
102
RTVSPropertyOp32
 70
     1
102
RTVSPropertyOp33
 70
     1
102
RTVSPropertyOp34
 70
     1
102
RTVSPropertyOp35
 70
     1
102
RTVSPropertyOp36
 70
     1
102
RTVSPropertyOp37
 70
     1
102
RTVSPropertyOp38
 70
     1
102
RTVSPropertyOp39
 70
     1
102
RTVSPropertyOp40
 70
     1
102
RTVSPropertyOp41
 70
     1
102
RTVSPropertyOp42
 70
     1
102
RTVSPropertyOp43
 70
     1
102
RTVSPropertyOp44
 70
     1
102
RTVSPropertyOp45
 70
     1
102
RTVSPropertyOp46
 70
     1
102
RTVSPropertyOp47
 70
     1
102
RTVSPropertyOp48
 70
     1
102
RTVSPropertyOp49
 70
     1
102
RTVSPropertyOp50
 70
     1
102
RTVSPropertyOp51
 70
     0
102
RTVSPropertyOp52
 70
     0
102
RTVSPropertyOp53
 70
     1
102
RTVSPropertyOp54
 70
     1
102
RTVSPropertyOp55
 70
     1
102
RTVSPropertyOp56
 70
     1
102
RTVSPropertyOp57
 70
     1
102
RTVSPost2010Prop28
280
     0
102
RTVSPost2010PropOp28
 70
     1
102
RTVSPost2010Prop29
280
     1
102
RTVSPost2010PropOp29
 70
     1
102
RTVSPost2010Prop30
280
     1
102
RTVSPost2010PropOp30
 70
     1
102
RTVSPost2010Prop31
280
     0
102
RTVSPost2010PropOp31
 70
     1
102
RTVSPost2010Prop32
280
     0
102
RTVSPost2010PropOp32
 70
     1
102
RTVSPost2010Prop33
280
     0
102
RTVSPost2010PropOp33
 70
     1
102
RTVSPost2010Prop34
280
     0
102
RTVSPost2010PropOp34
 70
     1
102
RTVSPost2010Prop35
280
     0
102
RTVSPost2010PropOp35
 70
     1
102
RTVSPost2010Prop36
280
     0
102
RTVSPost2010PropOp36
 70
     1
102
RTVSPost2010Prop37
 90
       50
102
RTVSPost2010PropOp37
 70
     1
102
RTVSPost2010Prop38
140
0.0
102
RTVSPost2010PropOp38
 70
     1
102
RTVSPost2010Prop39
140
1.0
102
RTVSPost2010PropOp39
 70
     1
102
RTVSPost2010Prop40
 90
        0
102
RTVSPost2010PropOp40
 70
     1
102
RTVSPost2010Prop41ColorIndex
 90
       18
102
RTVSPost2010Prop41ColorRGB
 90
        0
102
RTVSPost2010PropOp41
 70
     1
102
RTVSPost2010Prop42
 90
       50
102
RTVSPost2010PropOp42
 70
     1
102
RTVSPost2010Prop43
 90
        3
102
RTVSPost2010PropOp43
 70
     1
102
RTVSPost2010Prop44ColorIndex
 90
        5
102
RTVSPost2010Prop44ColorRGB
 90
      255
102
RTVSPost2010PropOp44
 70
     1
102
RTVSPost2010Prop45
280
     0
102
RTVSPost2010PropOp45
 70
     1
102
RTVSPost2010Prop46
 90
       50
102
RTVSPost2010PropOp46
 70
     1
102
RTVSPost2010Prop47
 90
       50
102
RTVSPost2010PropOp47
 70
     1
102
RTVSPost2010Prop48
 90
       50
102
RTVSPost2010PropOp48
 70
     1
102
RTVSPost2010Prop49
280
     0
102
RTVSPost2010PropOp49
 70
     1
102
RTVSPost2010Prop50
 90
       50
102
RTVSPost2010PropOp50
 70
     1
102
RTVSPost2010Prop51ColorIndex
 90
      256
102
RTVSPost2010Prop51ColorRGB
 90
-16777216
102
RTVSPost2010PropOp51
 70
     0
102
RTVSPost2010Prop52
140
1.0
102
RTVSPost2010PropOp52
 70
     0
102
RTVSPost2010Prop53
 90
        2
102
RTVSPost2010PropOp53
 70
     1
102
RTVSPost2010Prop54
  1
strokes_ogs.tif
102
RTVSPost2010PropOp54
 70
     1
102
RTVSPost2010Prop55
280
     0
102
RTVSPost2010PropOp55
 70
     1
102
RTVSPost2010Prop56
140
1.0
102
RTVSPost2010PropOp56
 70
     1
102
RTVSPost2010Prop57
140
1.0
102
RTVSPost2010PropOp57
 70
     1
  0
XRECORD
  5
322
102
{ACAD_REACTORS
330
321
102
}
330
321
100
AcDbXrecord
280
     1
102
RTVSPropertyOp0
 70
     0
102
RTVSPropertyOp1
 70
     0
102
RTVSPropertyOp2
 70
     0
102
RTVSPropertyOp3
 70
     0
102
RTVSPropertyOp4
 70
     0
102
RTVSPropertyOp5
 70
     0
102
RTVSPropertyOp6
 70
     0
102
RTVSPropertyOp7
 70
     0
102
RTVSPropertyOp8
 70
     0
102
RTVSPropertyOp9
 70
     0
102
RTVSPropertyOp10
 70
     0
102
RTVSPropertyOp11
 70
     0
102
RTVSPropertyOp12
 70
     0
102
RTVSPropertyOp13
 70
     0
102
RTVSPropertyOp14
 70
     2
102
RTVSPropertyOp15
 70
     0
102
RTVSPropertyOp16
 70
     0
102
RTVSPropertyOp17
 70
     0
102
RTVSPropertyOp18
 70
     0
102
RTVSPropertyOp19
 70
     0
102
RTVSPropertyOp20
 70
     0
102
RTVSPropertyOp21
 70
     0
102
RTVSPropertyOp22
 70
     0
102
RTVSPropertyOp23
 70
     0
102
RTVSPropertyOp24
 70
     0
102
RTVSPropertyOp25
 70
     0
102
RTVSPropertyOp26
 70
     0
102
RTVSPropertyOp27
 70
     0
102
RTVSPropertyOp28
 70
     0
102
RTVSPropertyOp29
 70
     0
102
RTVSPropertyOp30
 70
     0
102
RTVSPropertyOp31
 70
     0
102
RTVSPropertyOp32
 70
     0
102
RTVSPropertyOp33
 70
     0
102
RTVSPropertyOp34
 70
     0
102
RTVSPropertyOp35
 70
     0
102
RTVSPropertyOp36
 70
     0
102
RTVSPropertyOp37
 70
     0
102
RTVSPropertyOp38
 70
     0
102
RTVSPropertyOp39
 70
     0
102
RTVSPropertyOp40
 70
     0
102
RTVSPropertyOp41
 70
     0
102
RTVSPropertyOp42
 70
     0
102
RTVSPropertyOp43
 70
     0
102
RTVSPropertyOp44
 70
     0
102
RTVSPropertyOp45
 70
     0
102
RTVSPropertyOp46
 70
     0
102
RTVSPropertyOp47
 70
     0
102
RTVSPropertyOp48
 70
     0
102
RTVSPropertyOp49
 70
     0
102
RTVSPropertyOp50
 70
     0
102
RTVSPropertyOp51
 70
     0
102
RTVSPropertyOp52
 70
     0
102
RTVSPropertyOp53
 70
     0
102
RTVSPropertyOp54
 70
     0
102
RTVSPropertyOp55
 70
     0
102
RTVSPropertyOp56
 70
     0
102
RTVSPropertyOp57
 70
     0
102
RTVSPost2010Prop28
280
     0
102
RTVSPost2010PropOp28
 70
     0
102
RTVSPost2010Prop29
280
     1
102
RTVSPost2010PropOp29
 70
     0
102
RTVSPost2010Prop30
280
     1
102
RTVSPost2010PropOp30
 70
     0
102
RTVSPost2010Prop31
280
     0
102
RTVSPost2010PropOp31
 70
     0
102
RTVSPost2010Prop32
280
     0
102
RTVSPost2010PropOp32
 70
     0
102
RTVSPost2010Prop33
280
     0
102
RTVSPost2010PropOp33
 70
     0
102
RTVSPost2010Prop34
280
     0
102
RTVSPost2010PropOp34
 70
     0
102
RTVSPost2010Prop35
280
     0
102
RTVSPost2010PropOp35
 70
     0
102
RTVSPost2010Prop36
280
     0
102
RTVSPost2010PropOp36
 70
     0
102
RTVSPost2010Prop37
 90
       50
102
RTVSPost2010PropOp37
 70
     0
102
RTVSPost2010Prop38
140
0.0
102
RTVSPost2010PropOp38
 70
     0
102
RTVSPost2010Prop39
140
1.0
102
RTVSPost2010PropOp39
 70
     0
102
RTVSPost2010Prop40
 90
        0
102
RTVSPost2010PropOp40
 70
     0
102
RTVSPost2010Prop41ColorIndex
 90
       18
102
RTVSPost2010Prop41ColorRGB
 90
        0
102
RTVSPost2010PropOp41
 70
     0
102
RTVSPost2010Prop42
 90
       50
102
RTVSPost2010PropOp42
 70
     0
102
RTVSPost2010Prop43
 90
        3
102
RTVSPost2010PropOp43
 70
     0
102
RTVSPost2010Prop44ColorIndex
 90
        5
102
RTVSPost2010Prop44ColorRGB
 90
      255
102
RTVSPost2010PropOp44
 70
     0
102
RTVSPost2010Prop45
280
     0
102
RTVSPost2010PropOp45
 70
     0
102
RTVSPost2010Prop46
 90
       50
102
RTVSPost2010PropOp46
 70
     0
102
RTVSPost2010Prop47
 90
       50
102
RTVSPost2010PropOp47
 70
     0
102
RTVSPost2010Prop48
 90
       50
102
RTVSPost2010PropOp48
 70
     0
102
RTVSPost2010Prop49
280
     0
102
RTVSPost2010PropOp49
 70
     0
102
RTVSPost2010Prop50
 90
       50
102
RTVSPost2010PropOp50
 70
     0
102
RTVSPost2010Prop51ColorIndex
 90
      256
102
RTVSPost2010Prop51ColorRGB
 90
-16777216
102
RTVSPost2010PropOp51
 70
     0
102
RTVSPost2010Prop52
140
1.0
102
RTVSPost2010PropOp52
 70
     0
102
RTVSPost2010Prop53
 90
        2
102
RTVSPost2010PropOp53
 70
     0
102
RTVSPost2010Prop54
  1
strokes_ogs.tif
102
RTVSPost2010PropOp54
 70
     0
102
RTVSPost2010Prop55
280
     0
102
RTVSPost2010PropOp55
 70
     0
102
RTVSPost2010Prop56
140
1.0
102
RTVSPost2010PropOp56
 70
     0
102
RTVSPost2010Prop57
140
1.0
102
RTVSPost2010PropOp57
 70
     0
  0
XRECORD
  5
31C
102
{ACAD_REACTORS
330
31B
102
}
330
31B
100
AcDbXrecord
280
     1
102
RTVSPropertyOp0
 70
     1
102
RTVSPropertyOp1
 70
     1
102
RTVSPropertyOp2
 70
     1
102
RTVSPropertyOp3
 70
     1
102
RTVSPropertyOp4
 70
     1
102
RTVSPropertyOp5
 70
     1
102
RTVSPropertyOp6
 70
     1
102
RTVSPropertyOp7
 70
     1
102
RTVSPropertyOp8
 70
     1
102
RTVSPropertyOp9
 70
     1
102
RTVSPropertyOp10
 70
     1
102
RTVSPropertyOp11
 70
     1
102
RTVSPropertyOp12
 70
     1
102
RTVSPropertyOp13
 70
     1
102
RTVSPropertyOp14
 70
     1
102
RTVSPropertyOp15
 70
     1
102
RTVSPropertyOp16
 70
     1
102
RTVSPropertyOp17
 70
     1
102
RTVSPropertyOp18
 70
     1
102
RTVSPropertyOp19
 70
     1
102
RTVSPropertyOp20
 70
     1
102
RTVSPropertyOp21
 70
     1
102
RTVSPropertyOp22
 70
     1
102
RTVSPropertyOp23
 70
     1
102
RTVSPropertyOp24
 70
     1
102
RTVSPropertyOp25
 70
     1
102
RTVSPropertyOp26
 70
     1
102
RTVSPropertyOp27
 70
     1
102
RTVSPropertyOp28
 70
     1
102
RTVSPropertyOp29
 70
     1
102
RTVSPropertyOp30
 70
     1
102
RTVSPropertyOp31
 70
     1
102
RTVSPropertyOp32
 70
     1
102
RTVSPropertyOp33
 70
     1
102
RTVSPropertyOp34
 70
     1
102
RTVSPropertyOp35
 70
     1
102
RTVSPropertyOp36
 70
     1
102
RTVSPropertyOp37
 70
     1
102
RTVSPropertyOp38
 70
     1
102
RTVSPropertyOp39
 70
     1
102
RTVSPropertyOp40
 70
     1
102
RTVSPropertyOp41
 70
     1
102
RTVSPropertyOp42
 70
     1
102
RTVSPropertyOp43
 70
     1
102
RTVSPropertyOp44
 70
     1
102
RTVSPropertyOp45
 70
     1
102
RTVSPropertyOp46
 70
     1
102
RTVSPropertyOp47
 70
     1
102
RTVSPropertyOp48
 70
     1
102
RTVSPropertyOp49
 70
     1
102
RTVSPropertyOp50
 70
     1
102
RTVSPropertyOp51
 70
     0
102
RTVSPropertyOp52
 70
     0
102
RTVSPropertyOp53
 70
     1
102
RTVSPropertyOp54
 70
     1
102
RTVSPropertyOp55
 70
     1
102
RTVSPropertyOp56
 70
     1
102
RTVSPropertyOp57
 70
     1
102
RTVSPost2010Prop28
280
     0
102
RTVSPost2010PropOp28
 70
     1
102
RTVSPost2010Prop29
280
     1
102
RTVSPost2010PropOp29
 70
     1
102
RTVSPost2010Prop30
280
     1
102
RTVSPost2010PropOp30
 70
     1
102
RTVSPost2010Prop31
280
     0
102
RTVSPost2010PropOp31
 70
     1
102
RTVSPost2010Prop32
280
     0
102
RTVSPost2010PropOp32
 70
     1
102
RTVSPost2010Prop33
280
     0
102
RTVSPost2010PropOp33
 70
     1
102
RTVSPost2010Prop34
280
     0
102
RTVSPost2010PropOp34
 70
     1
102
RTVSPost2010Prop35
280
     0
102
RTVSPost2010PropOp35
 70
     1
102
RTVSPost2010Prop36
280
     0
102
RTVSPost2010PropOp36
 70
     1
102
RTVSPost2010Prop37
 90
       50
102
RTVSPost2010PropOp37
 70
     1
102
RTVSPost2010Prop38
140
0.0
102
RTVSPost2010PropOp38
 70
     1
102
RTVSPost2010Prop39
140
1.0
102
RTVSPost2010PropOp39
 70
     1
102
RTVSPost2010Prop40
 90
        0
102
RTVSPost2010PropOp40
 70
     1
102
RTVSPost2010Prop41ColorIndex
 90
       18
102
RTVSPost2010Prop41ColorRGB
 90
        0
102
RTVSPost2010PropOp41
 70
     1
102
RTVSPost2010Prop42
 90
       50
102
RTVSPost2010PropOp42
 70
     1
102
RTVSPost2010Prop43
 90
        3
102
RTVSPost2010PropOp43
 70
     1
102
RTVSPost2010Prop44ColorIndex
 90
        5
102
RTVSPost2010Prop44ColorRGB
 90
      255
102
RTVSPost2010PropOp44
 70
     1
102
RTVSPost2010Prop45
280
     0
102
RTVSPost2010PropOp45
 70
     1
102
RTVSPost2010Prop46
 90
       50
102
RTVSPost2010PropOp46
 70
     1
102
RTVSPost2010Prop47
 90
       50
102
RTVSPost2010PropOp47
 70
     1
102
RTVSPost2010Prop48
 90
       50
102
RTVSPost2010PropOp48
 70
     1
102
RTVSPost2010Prop49
280
     0
102
RTVSPost2010PropOp49
 70
     1
102
RTVSPost2010Prop50
 90
       50
102
RTVSPost2010PropOp50
 70
     1
102
RTVSPost2010Prop51ColorIndex
 90
      256
102
RTVSPost2010Prop51ColorRGB
 90
-16777216
102
RTVSPost2010PropOp51
 70
     0
102
RTVSPost2010Prop52
140
1.0
102
RTVSPost2010PropOp52
 70
     0
102
RTVSPost2010Prop53
 90
        2
102
RTVSPost2010PropOp53
 70
     1
102
RTVSPost2010Prop54
  1
strokes_ogs.tif
102
RTVSPost2010PropOp54
 70
     1
102
RTVSPost2010Prop55
280
     0
102
RTVSPost2010PropOp55
 70
     1
102
RTVSPost2010Prop56
140
1.0
102
RTVSPost2010PropOp56
 70
     1
102
RTVSPost2010Prop57
140
1.0
102
RTVSPost2010PropOp57
 70
     1
  0
XRECORD
  5
324
102
{ACAD_REACTORS
330
323
102
}
330
323
100
AcDbXrecord
280
     1
102
RTVSPropertyOp0
 70
     0
102
RTVSPropertyOp1
 70
     0
102
RTVSPropertyOp2
 70
     0
102
RTVSPropertyOp3
 70
     0
102
RTVSPropertyOp4
 70
     0
102
RTVSPropertyOp5
 70
     0
102
RTVSPropertyOp6
 70
     0
102
RTVSPropertyOp7
 70
     0
102
RTVSPropertyOp8
 70
     0
102
RTVSPropertyOp9
 70
     0
102
RTVSPropertyOp10
 70
     0
102
RTVSPropertyOp11
 70
     0
102
RTVSPropertyOp12
 70
     0
102
RTVSPropertyOp13
 70
     0
102
RTVSPropertyOp14
 70
     2
102
RTVSPropertyOp15
 70
     0
102
RTVSPropertyOp16
 70
     0
102
RTVSPropertyOp17
 70
     0
102
RTVSPropertyOp18
 70
     0
102
RTVSPropertyOp19
 70
     0
102
RTVSPropertyOp20
 70
     0
102
RTVSPropertyOp21
 70
     0
102
RTVSPropertyOp22
 70
     0
102
RTVSPropertyOp23
 70
     0
102
RTVSPropertyOp24
 70
     0
102
RTVSPropertyOp25
 70
     0
102
RTVSPropertyOp26
 70
     0
102
RTVSPropertyOp27
 70
     0
102
RTVSPropertyOp28
 70
     0
102
RTVSPropertyOp29
 70
     0
102
RTVSPropertyOp30
 70
     0
102
RTVSPropertyOp31
 70
     0
102
RTVSPropertyOp32
 70
     0
102
RTVSPropertyOp33
 70
     0
102
RTVSPropertyOp34
 70
     0
102
RTVSPropertyOp35
 70
     0
102
RTVSPropertyOp36
 70
     0
102
RTVSPropertyOp37
 70
     0
102
RTVSPropertyOp38
 70
     0
102
RTVSPropertyOp39
 70
     0
102
RTVSPropertyOp40
 70
     0
102
RTVSPropertyOp41
 70
     0
102
RTVSPropertyOp42
 70
     0
102
RTVSPropertyOp43
 70
     0
102
RTVSPropertyOp44
 70
     0
102
RTVSPropertyOp45
 70
     0
102
RTVSPropertyOp46
 70
     0
102
RTVSPropertyOp47
 70
     0
102
RTVSPropertyOp48
 70
     0
102
RTVSPropertyOp49
 70
     0
102
RTVSPropertyOp50
 70
     0
102
RTVSPropertyOp51
 70
     0
102
RTVSPropertyOp52
 70
     0
102
RTVSPropertyOp53
 70
     0
102
RTVSPropertyOp54
 70
     0
102
RTVSPropertyOp55
 70
     0
102
RTVSPropertyOp56
 70
     0
102
RTVSPropertyOp57
 70
     0
102
RTVSPost2010Prop28
280
     0
102
RTVSPost2010PropOp28
 70
     0
102
RTVSPost2010Prop29
280
     1
102
RTVSPost2010PropOp29
 70
     0
102
RTVSPost2010Prop30
280
     1
102
RTVSPost2010PropOp30
 70
     0
102
RTVSPost2010Prop31
280
     0
102
RTVSPost2010PropOp31
 70
     0
102
RTVSPost2010Prop32
280
     0
102
RTVSPost2010PropOp32
 70
     0
102
RTVSPost2010Prop33
280
     0
102
RTVSPost2010PropOp33
 70
     0
102
RTVSPost2010Prop34
280
     0
102
RTVSPost2010PropOp34
 70
     0
102
RTVSPost2010Prop35
280
     0
102
RTVSPost2010PropOp35
 70
     0
102
RTVSPost2010Prop36
280
     0
102
RTVSPost2010PropOp36
 70
     0
102
RTVSPost2010Prop37
 90
       50
102
RTVSPost2010PropOp37
 70
     0
102
RTVSPost2010Prop38
140
0.0
102
RTVSPost2010PropOp38
 70
     0
102
RTVSPost2010Prop39
140
1.0
102
RTVSPost2010PropOp39
 70
     0
102
RTVSPost2010Prop40
 90
        0
102
RTVSPost2010PropOp40
 70
     0
102
RTVSPost2010Prop41ColorIndex
 90
       18
102
RTVSPost2010Prop41ColorRGB
 90
        0
102
RTVSPost2010PropOp41
 70
     0
102
RTVSPost2010Prop42
 90
       50
102
RTVSPost2010PropOp42
 70
     0
102
RTVSPost2010Prop43
 90
        3
102
RTVSPost2010PropOp43
 70
     0
102
RTVSPost2010Prop44ColorIndex
 90
        5
102
RTVSPost2010Prop44ColorRGB
 90
      255
102
RTVSPost2010PropOp44
 70
     0
102
RTVSPost2010Prop45
280
     0
102
RTVSPost2010PropOp45
 70
     0
102
RTVSPost2010Prop46
 90
       50
102
RTVSPost2010PropOp46
 70
     0
102
RTVSPost2010Prop47
 90
       50
102
RTVSPost2010PropOp47
 70
     0
102
RTVSPost2010Prop48
 90
       50
102
RTVSPost2010PropOp48
 70
     0
102
RTVSPost2010Prop49
280
     0
102
RTVSPost2010PropOp49
 70
     0
102
RTVSPost2010Prop50
 90
       50
102
RTVSPost2010PropOp50
 70
     0
102
RTVSPost2010Prop51ColorIndex
 90
      256
102
RTVSPost2010Prop51ColorRGB
 90
-16777216
102
RTVSPost2010PropOp51
 70
     0
102
RTVSPost2010Prop52
140
1.0
102
RTVSPost2010PropOp52
 70
     0
102
RTVSPost2010Prop53
 90
        2
102
RTVSPost2010PropOp53
 70
     0
102
RTVSPost2010Prop54
  1
strokes_ogs.tif
102
RTVSPost2010PropOp54
 70
     0
102
RTVSPost2010Prop55
280
     0
102
RTVSPost2010PropOp55
 70
     0
102
RTVSPost2010Prop56
140
1.0
102
RTVSPost2010PropOp56
 70
     0
102
RTVSPost2010Prop57
140
1.0
102
RTVSPost2010PropOp57
 70
     0
  0
XRECORD
  5
312
102
{ACAD_REACTORS
330
311
102
}
330
311
100
AcDbXrecord
280
     1
102
RTVSPropertyOp0
 70
     1
102
RTVSPropertyOp1
 70
     1
102
RTVSPropertyOp2
 70
     1
102
RTVSPropertyOp3
 70
     1
102
RTVSPropertyOp4
 70
     1
102
RTVSPropertyOp5
 70
     1
102
RTVSPropertyOp6
 70
     1
102
RTVSPropertyOp7
 70
     1
102
RTVSPropertyOp8
 70
     1
102
RTVSPropertyOp9
 70
     1
102
RTVSPropertyOp10
 70
     1
102
RTVSPropertyOp11
 70
     1
102
RTVSPropertyOp12
 70
     1
102
RTVSPropertyOp13
 70
     1
102
RTVSPropertyOp14
 70
     1
102
RTVSPropertyOp15
 70
     1
102
RTVSPropertyOp16
 70
     1
102
RTVSPropertyOp17
 70
     1
102
RTVSPropertyOp18
 70
     1
102
RTVSPropertyOp19
 70
     1
102
RTVSPropertyOp20
 70
     1
102
RTVSPropertyOp21
 70
     1
102
RTVSPropertyOp22
 70
     1
102
RTVSPropertyOp23
 70
     1
102
RTVSPropertyOp24
 70
     1
102
RTVSPropertyOp25
 70
     1
102
RTVSPropertyOp26
 70
     1
102
RTVSPropertyOp27
 70
     1
102
RTVSPropertyOp28
 70
     1
102
RTVSPropertyOp29
 70
     1
102
RTVSPropertyOp30
 70
     1
102
RTVSPropertyOp31
 70
     1
102
RTVSPropertyOp32
 70
     1
102
RTVSPropertyOp33
 70
     1
102
RTVSPropertyOp34
 70
     1
102
RTVSPropertyOp35
 70
     1
102
RTVSPropertyOp36
 70
     1
102
RTVSPropertyOp37
 70
     1
102
RTVSPropertyOp38
 70
     1
102
RTVSPropertyOp39
 70
     1
102
RTVSPropertyOp40
 70
     1
102
RTVSPropertyOp41
 70
     1
102
RTVSPropertyOp42
 70
     1
102
RTVSPropertyOp43
 70
     1
102
RTVSPropertyOp44
 70
     1
102
RTVSPropertyOp45
 70
     1
102
RTVSPropertyOp46
 70
     1
102
RTVSPropertyOp47
 70
     1
102
RTVSPropertyOp48
 70
     1
102
RTVSPropertyOp49
 70
     1
102
RTVSPropertyOp50
 70
     1
102
RTVSPropertyOp51
 70
     0
102
RTVSPropertyOp52
 70
     0
102
RTVSPropertyOp53
 70
     1
102
RTVSPropertyOp54
 70
     1
102
RTVSPropertyOp55
 70
     1
102
RTVSPropertyOp56
 70
     1
102
RTVSPropertyOp57
 70
     1
102
RTVSPost2010Prop28
280
     0
102
RTVSPost2010PropOp28
 70
     1
102
RTVSPost2010Prop29
280
     1
102
RTVSPost2010PropOp29
 70
     1
102
RTVSPost2010Prop30
280
     1
102
RTVSPost2010PropOp30
 70
     1
102
RTVSPost2010Prop31
280
     0
102
RTVSPost2010PropOp31
 70
     1
102
RTVSPost2010Prop32
280
     0
102
RTVSPost2010PropOp32
 70
     1
102
RTVSPost2010Prop33
280
     0
102
RTVSPost2010PropOp33
 70
     1
102
RTVSPost2010Prop34
280
     0
102
RTVSPost2010PropOp34
 70
     1
102
RTVSPost2010Prop35
280
     0
102
RTVSPost2010PropOp35
 70
     1
102
RTVSPost2010Prop36
280
     0
102
RTVSPost2010PropOp36
 70
     1
102
RTVSPost2010Prop37
 90
       50
102
RTVSPost2010PropOp37
 70
     1
102
RTVSPost2010Prop38
140
0.0
102
RTVSPost2010PropOp38
 70
     1
102
RTVSPost2010Prop39
140
1.0
102
RTVSPost2010PropOp39
 70
     1
102
RTVSPost2010Prop40
 90
        0
102
RTVSPost2010PropOp40
 70
     1
102
RTVSPost2010Prop41ColorIndex
 90
       18
102
RTVSPost2010Prop41ColorRGB
 90
        0
102
RTVSPost2010PropOp41
 70
     1
102
RTVSPost2010Prop42
 90
       50
102
RTVSPost2010PropOp42
 70
     1
102
RTVSPost2010Prop43
 90
        3
102
RTVSPost2010PropOp43
 70
     1
102
RTVSPost2010Prop44ColorIndex
 90
        5
102
RTVSPost2010Prop44ColorRGB
 90
      255
102
RTVSPost2010PropOp44
 70
     1
102
RTVSPost2010Prop45
280
     0
102
RTVSPost2010PropOp45
 70
     1
102
RTVSPost2010Prop46
 90
       50
102
RTVSPost2010PropOp46
 70
     1
102
RTVSPost2010Prop47
 90
       50
102
RTVSPost2010PropOp47
 70
     1
102
RTVSPost2010Prop48
 90
       50
102
RTVSPost2010PropOp48
 70
     1
102
RTVSPost2010Prop49
280
     0
102
RTVSPost2010PropOp49
 70
     1
102
RTVSPost2010Prop50
 90
       50
102
RTVSPost2010PropOp50
 70
     1
102
RTVSPost2010Prop51ColorIndex
 90
      256
102
RTVSPost2010Prop51ColorRGB
 90
-16777216
102
RTVSPost2010PropOp51
 70
     0
102
RTVSPost2010Prop52
140
1.0
102
RTVSPost2010PropOp52
 70
     0
102
RTVSPost2010Prop53
 90
        2
102
RTVSPost2010PropOp53
 70
     1
102
RTVSPost2010Prop54
  1
strokes_ogs.tif
102
RTVSPost2010PropOp54
 70
     1
102
RTVSPost2010Prop55
280
     0
102
RTVSPost2010PropOp55
 70
     1
102
RTVSPost2010Prop56
140
1.0
102
RTVSPost2010PropOp56
 70
     1
102
RTVSPost2010Prop57
140
1.0
102
RTVSPost2010PropOp57
 70
     1
  0
XRECORD
  5
330
102
{ACAD_REACTORS
330
32F
102
}
330
32F
100
AcDbXrecord
280
     1
102
RTVSPropertyOp0
 70
     1
102
RTVSPropertyOp1
 70
     1
102
RTVSPropertyOp2
 70
     1
102
RTVSPropertyOp3
 70
     1
102
RTVSPropertyOp4
 70
     1
102
RTVSPropertyOp5
 70
     1
102
RTVSPropertyOp6
 70
     1
102
RTVSPropertyOp7
 70
     1
102
RTVSPropertyOp8
 70
     1
102
RTVSPropertyOp9
 70
     1
102
RTVSPropertyOp10
 70
     1
102
RTVSPropertyOp11
 70
     1
102
RTVSPropertyOp12
 70
     1
102
RTVSPropertyOp13
 70
     1
102
RTVSPropertyOp14
 70
     1
102
RTVSPropertyOp15
 70
     1
102
RTVSPropertyOp16
 70
     1
102
RTVSPropertyOp17
 70
     1
102
RTVSPropertyOp18
 70
     1
102
RTVSPropertyOp19
 70
     1
102
RTVSPropertyOp20
 70
     1
102
RTVSPropertyOp21
 70
     1
102
RTVSPropertyOp22
 70
     1
102
RTVSPropertyOp23
 70
     1
102
RTVSPropertyOp24
 70
     1
102
RTVSPropertyOp25
 70
     1
102
RTVSPropertyOp26
 70
     1
102
RTVSPropertyOp27
 70
     1
102
RTVSPropertyOp28
 70
     1
102
RTVSPropertyOp29
 70
     1
102
RTVSPropertyOp30
 70
     1
102
RTVSPropertyOp31
 70
     1
102
RTVSPropertyOp32
 70
     1
102
RTVSPropertyOp33
 70
     1
102
RTVSPropertyOp34
 70
     1
102
RTVSPropertyOp35
 70
     1
102
RTVSPropertyOp36
 70
     1
102
RTVSPropertyOp37
 70
     1
102
RTVSPropertyOp38
 70
     1
102
RTVSPropertyOp39
 70
     1
102
RTVSPropertyOp40
 70
     1
102
RTVSPropertyOp41
 70
     1
102
RTVSPropertyOp42
 70
     1
102
RTVSPropertyOp43
 70
     1
102
RTVSPropertyOp44
 70
     1
102
RTVSPropertyOp45
 70
     1
102
RTVSPropertyOp46
 70
     1
102
RTVSPropertyOp47
 70
     1
102
RTVSPropertyOp48
 70
     1
102
RTVSPropertyOp49
 70
     1
102
RTVSPropertyOp50
 70
     1
102
RTVSPropertyOp51
 70
     0
102
RTVSPropertyOp52
 70
     0
102
RTVSPropertyOp53
 70
     1
102
RTVSPropertyOp54
 70
     1
102
RTVSPropertyOp55
 70
     1
102
RTVSPropertyOp56
 70
     1
102
RTVSPropertyOp57
 70
     1
102
RTVSPost2010Prop28
280
     0
102
RTVSPost2010PropOp28
 70
     1
102
RTVSPost2010Prop29
280
     1
102
RTVSPost2010PropOp29
 70
     1
102
RTVSPost2010Prop30
280
     1
102
RTVSPost2010PropOp30
 70
     1
102
RTVSPost2010Prop31
280
     0
102
RTVSPost2010PropOp31
 70
     1
102
RTVSPost2010Prop32
280
     0
102
RTVSPost2010PropOp32
 70
     1
102
RTVSPost2010Prop33
280
     0
102
RTVSPost2010PropOp33
 70
     1
102
RTVSPost2010Prop34
280
     0
102
RTVSPost2010PropOp34
 70
     1
102
RTVSPost2010Prop35
280
     0
102
RTVSPost2010PropOp35
 70
     1
102
RTVSPost2010Prop36
280
     0
102
RTVSPost2010PropOp36
 70
     1
102
RTVSPost2010Prop37
 90
       50
102
RTVSPost2010PropOp37
 70
     1
102
RTVSPost2010Prop38
140
0.0
102
RTVSPost2010PropOp38
 70
     1
102
RTVSPost2010Prop39
140
1.0
102
RTVSPost2010PropOp39
 70
     1
102
RTVSPost2010Prop40
 90
        0
102
RTVSPost2010PropOp40
 70
     1
102
RTVSPost2010Prop41ColorIndex
 90
       18
102
RTVSPost2010Prop41ColorRGB
 90
        0
102
RTVSPost2010PropOp41
 70
     1
102
RTVSPost2010Prop42
 90
       50
102
RTVSPost2010PropOp42
 70
     1
102
RTVSPost2010Prop43
 90
        3
102
RTVSPost2010PropOp43
 70
     1
102
RTVSPost2010Prop44ColorIndex
 90
        5
102
RTVSPost2010Prop44ColorRGB
 90
      255
102
RTVSPost2010PropOp44
 70
     1
102
RTVSPost2010Prop45
280
     0
102
RTVSPost2010PropOp45
 70
     1
102
RTVSPost2010Prop46
 90
       50
102
RTVSPost2010PropOp46
 70
     1
102
RTVSPost2010Prop47
 90
       50
102
RTVSPost2010PropOp47
 70
     1
102
RTVSPost2010Prop48
 90
       50
102
RTVSPost2010PropOp48
 70
     1
102
RTVSPost2010Prop49
280
     0
102
RTVSPost2010PropOp49
 70
     1
102
RTVSPost2010Prop50
 90
       50
102
RTVSPost2010PropOp50
 70
     1
102
RTVSPost2010Prop51ColorIndex
 90
      256
102
RTVSPost2010Prop51ColorRGB
 90
-16777216
102
RTVSPost2010PropOp51
 70
     0
102
RTVSPost2010Prop52
140
1.0
102
RTVSPost2010PropOp52
 70
     0
102
RTVSPost2010Prop53
 90
        2
102
RTVSPost2010PropOp53
 70
     1
102
RTVSPost2010Prop54
  1
strokes_ogs.tif
102
RTVSPost2010PropOp54
 70
     1
102
RTVSPost2010Prop55
280
     0
102
RTVSPost2010PropOp55
 70
     1
102
RTVSPost2010Prop56
140
1.0
102
RTVSPost2010PropOp56
 70
     1
102
RTVSPost2010Prop57
140
1.0
102
RTVSPost2010PropOp57
 70
     1
  0
XRECORD
  5
32E
102
{ACAD_REACTORS
330
32D
102
}
330
32D
100
AcDbXrecord
280
     1
102
RTVSPropertyOp0
 70
     1
102
RTVSPropertyOp1
 70
     1
102
RTVSPropertyOp2
 70
     1
102
RTVSPropertyOp3
 70
     1
102
RTVSPropertyOp4
 70
     1
102
RTVSPropertyOp5
 70
     1
102
RTVSPropertyOp6
 70
     1
102
RTVSPropertyOp7
 70
     1
102
RTVSPropertyOp8
 70
     1
102
RTVSPropertyOp9
 70
     1
102
RTVSPropertyOp10
 70
     1
102
RTVSPropertyOp11
 70
     1
102
RTVSPropertyOp12
 70
     1
102
RTVSPropertyOp13
 70
     1
102
RTVSPropertyOp14
 70
     1
102
RTVSPropertyOp15
 70
     1
102
RTVSPropertyOp16
 70
     1
102
RTVSPropertyOp17
 70
     1
102
RTVSPropertyOp18
 70
     1
102
RTVSPropertyOp19
 70
     1
102
RTVSPropertyOp20
 70
     1
102
RTVSPropertyOp21
 70
     1
102
RTVSPropertyOp22
 70
     1
102
RTVSPropertyOp23
 70
     1
102
RTVSPropertyOp24
 70
     1
102
RTVSPropertyOp25
 70
     1
102
RTVSPropertyOp26
 70
     1
102
RTVSPropertyOp27
 70
     1
102
RTVSPropertyOp28
 70
     1
102
RTVSPropertyOp29
 70
     1
102
RTVSPropertyOp30
 70
     1
102
RTVSPropertyOp31
 70
     1
102
RTVSPropertyOp32
 70
     1
102
RTVSPropertyOp33
 70
     1
102
RTVSPropertyOp34
 70
     1
102
RTVSPropertyOp35
 70
     1
102
RTVSPropertyOp36
 70
     1
102
RTVSPropertyOp37
 70
     1
102
RTVSPropertyOp38
 70
     1
102
RTVSPropertyOp39
 70
     1
102
RTVSPropertyOp40
 70
     1
102
RTVSPropertyOp41
 70
     1
102
RTVSPropertyOp42
 70
     1
102
RTVSPropertyOp43
 70
     1
102
RTVSPropertyOp44
 70
     1
102
RTVSPropertyOp45
 70
     1
102
RTVSPropertyOp46
 70
     1
102
RTVSPropertyOp47
 70
     1
102
RTVSPropertyOp48
 70
     1
102
RTVSPropertyOp49
 70
     1
102
RTVSPropertyOp50
 70
     1
102
RTVSPropertyOp51
 70
     0
102
RTVSPropertyOp52
 70
     0
102
RTVSPropertyOp53
 70
     1
102
RTVSPropertyOp54
 70
     1
102
RTVSPropertyOp55
 70
     1
102
RTVSPropertyOp56
 70
     1
102
RTVSPropertyOp57
 70
     1
102
RTVSPost2010Prop28
280
     0
102
RTVSPost2010PropOp28
 70
     1
102
RTVSPost2010Prop29
280
     1
102
RTVSPost2010PropOp29
 70
     1
102
RTVSPost2010Prop30
280
     1
102
RTVSPost2010PropOp30
 70
     1
102
RTVSPost2010Prop31
280
     0
102
RTVSPost2010PropOp31
 70
     1
102
RTVSPost2010Prop32
280
     0
102
RTVSPost2010PropOp32
 70
     1
102
RTVSPost2010Prop33
280
     0
102
RTVSPost2010PropOp33
 70
     1
102
RTVSPost2010Prop34
280
     0
102
RTVSPost2010PropOp34
 70
     1
102
RTVSPost2010Prop35
280
     0
102
RTVSPost2010PropOp35
 70
     1
102
RTVSPost2010Prop36
280
     0
102
RTVSPost2010PropOp36
 70
     1
102
RTVSPost2010Prop37
 90
       50
102
RTVSPost2010PropOp37
 70
     1
102
RTVSPost2010Prop38
140
0.0
102
RTVSPost2010PropOp38
 70
     1
102
RTVSPost2010Prop39
140
1.0
102
RTVSPost2010PropOp39
 70
     1
102
RTVSPost2010Prop40
 90
        0
102
RTVSPost2010PropOp40
 70
     1
102
RTVSPost2010Prop41ColorIndex
 90
       18
102
RTVSPost2010Prop41ColorRGB
 90
        0
102
RTVSPost2010PropOp41
 70
     1
102
RTVSPost2010Prop42
 90
       50
102
RTVSPost2010PropOp42
 70
     1
102
RTVSPost2010Prop43
 90
        3
102
RTVSPost2010PropOp43
 70
     1
102
RTVSPost2010Prop44ColorIndex
 90
        5
102
RTVSPost2010Prop44ColorRGB
 90
      255
102
RTVSPost2010PropOp44
 70
     1
102
RTVSPost2010Prop45
280
     0
102
RTVSPost2010PropOp45
 70
     1
102
RTVSPost2010Prop46
 90
       50
102
RTVSPost2010PropOp46
 70
     1
102
RTVSPost2010Prop47
 90
       50
102
RTVSPost2010PropOp47
 70
     1
102
RTVSPost2010Prop48
 90
       50
102
RTVSPost2010PropOp48
 70
     1
102
RTVSPost2010Prop49
280
     0
102
RTVSPost2010PropOp49
 70
     1
102
RTVSPost2010Prop50
 90
       50
102
RTVSPost2010PropOp50
 70
     1
102
RTVSPost2010Prop51ColorIndex
 90
      256
102
RTVSPost2010Prop51ColorRGB
 90
-16777216
102
RTVSPost2010PropOp51
 70
     0
102
RTVSPost2010Prop52
140
1.0
102
RTVSPost2010PropOp52
 70
     0
102
RTVSPost2010Prop53
 90
        2
102
RTVSPost2010PropOp53
 70
     1
102
RTVSPost2010Prop54
  1
strokes_ogs.tif
102
RTVSPost2010PropOp54
 70
     1
102
RTVSPost2010Prop55
280
     0
102
RTVSPost2010PropOp55
 70
     1
102
RTVSPost2010Prop56
140
1.0
102
RTVSPost2010PropOp56
 70
     1
102
RTVSPost2010Prop57
140
1.0
102
RTVSPost2010PropOp57
 70
     1
  0
XRECORD
  5
328
102
{ACAD_REACTORS
330
327
102
}
330
327
100
AcDbXrecord
280
     1
102
RTVSPropertyOp0
 70
     1
102
RTVSPropertyOp1
 70
     1
102
RTVSPropertyOp2
 70
     1
102
RTVSPropertyOp3
 70
     1
102
RTVSPropertyOp4
 70
     1
102
RTVSPropertyOp5
 70
     1
102
RTVSPropertyOp6
 70
     1
102
RTVSPropertyOp7
 70
     1
102
RTVSPropertyOp8
 70
     1
102
RTVSPropertyOp9
 70
     1
102
RTVSPropertyOp10
 70
     1
102
RTVSPropertyOp11
 70
     1
102
RTVSPropertyOp12
 70
     1
102
RTVSPropertyOp13
 70
     1
102
RTVSPropertyOp14
 70
     1
102
RTVSPropertyOp15
 70
     1
102
RTVSPropertyOp16
 70
     1
102
RTVSPropertyOp17
 70
     1
102
RTVSPropertyOp18
 70
     1
102
RTVSPropertyOp19
 70
     1
102
RTVSPropertyOp20
 70
     1
102
RTVSPropertyOp21
 70
     1
102
RTVSPropertyOp22
 70
     1
102
RTVSPropertyOp23
 70
     1
102
RTVSPropertyOp24
 70
     1
102
RTVSPropertyOp25
 70
     1
102
RTVSPropertyOp26
 70
     1
102
RTVSPropertyOp27
 70
     1
102
RTVSPropertyOp28
 70
     1
102
RTVSPropertyOp29
 70
     1
102
RTVSPropertyOp30
 70
     1
102
RTVSPropertyOp31
 70
     1
102
RTVSPropertyOp32
 70
     1
102
RTVSPropertyOp33
 70
     1
102
RTVSPropertyOp34
 70
     1
102
RTVSPropertyOp35
 70
     1
102
RTVSPropertyOp36
 70
     1
102
RTVSPropertyOp37
 70
     1
102
RTVSPropertyOp38
 70
     1
102
RTVSPropertyOp39
 70
     1
102
RTVSPropertyOp40
 70
     1
102
RTVSPropertyOp41
 70
     1
102
RTVSPropertyOp42
 70
     1
102
RTVSPropertyOp43
 70
     1
102
RTVSPropertyOp44
 70
     1
102
RTVSPropertyOp45
 70
     1
102
RTVSPropertyOp46
 70
     1
102
RTVSPropertyOp47
 70
     1
102
RTVSPropertyOp48
 70
     1
102
RTVSPropertyOp49
 70
     1
102
RTVSPropertyOp50
 70
     1
102
RTVSPropertyOp51
 70
     0
102
RTVSPropertyOp52
 70
     0
102
RTVSPropertyOp53
 70
     1
102
RTVSPropertyOp54
 70
     1
102
RTVSPropertyOp55
 70
     1
102
RTVSPropertyOp56
 70
     1
102
RTVSPropertyOp57
 70
     1
102
RTVSPost2010Prop28
280
     0
102
RTVSPost2010PropOp28
 70
     1
102
RTVSPost2010Prop29
280
     1
102
RTVSPost2010PropOp29
 70
     1
102
RTVSPost2010Prop30
280
     1
102
RTVSPost2010PropOp30
 70
     1
102
RTVSPost2010Prop31
280
     0
102
RTVSPost2010PropOp31
 70
     1
102
RTVSPost2010Prop32
280
     0
102
RTVSPost2010PropOp32
 70
     1
102
RTVSPost2010Prop33
280
     0
102
RTVSPost2010PropOp33
 70
     1
102
RTVSPost2010Prop34
280
     0
102
RTVSPost2010PropOp34
 70
     1
102
RTVSPost2010Prop35
280
     0
102
RTVSPost2010PropOp35
 70
     1
102
RTVSPost2010Prop36
280
     0
102
RTVSPost2010PropOp36
 70
     1
102
RTVSPost2010Prop37
 90
       50
102
RTVSPost2010PropOp37
 70
     1
102
RTVSPost2010Prop38
140
0.0
102
RTVSPost2010PropOp38
 70
     1
102
RTVSPost2010Prop39
140
1.0
102
RTVSPost2010PropOp39
 70
     1
102
RTVSPost2010Prop40
 90
        0
102
RTVSPost2010PropOp40
 70
     1
102
RTVSPost2010Prop41ColorIndex
 90
       18
102
RTVSPost2010Prop41ColorRGB
 90
        0
102
RTVSPost2010PropOp41
 70
     1
102
RTVSPost2010Prop42
 90
       50
102
RTVSPost2010PropOp42
 70
     1
102
RTVSPost2010Prop43
 90
        3
102
RTVSPost2010PropOp43
 70
     1
102
RTVSPost2010Prop44ColorIndex
 90
        5
102
RTVSPost2010Prop44ColorRGB
 90
      255
102
RTVSPost2010PropOp44
 70
     1
102
RTVSPost2010Prop45
280
     0
102
RTVSPost2010PropOp45
 70
     1
102
RTVSPost2010Prop46
 90
       50
102
RTVSPost2010PropOp46
 70
     1
102
RTVSPost2010Prop47
 90
       50
102
RTVSPost2010PropOp47
 70
     1
102
RTVSPost2010Prop48
 90
       50
102
RTVSPost2010PropOp48
 70
     1
102
RTVSPost2010Prop49
280
     0
102
RTVSPost2010PropOp49
 70
     1
102
RTVSPost2010Prop50
 90
       50
102
RTVSPost2010PropOp50
 70
     1
102
RTVSPost2010Prop51ColorIndex
 90
      256
102
RTVSPost2010Prop51ColorRGB
 90
-16777216
102
RTVSPost2010PropOp51
 70
     0
102
RTVSPost2010Prop52
140
1.0
102
RTVSPost2010PropOp52
 70
     0
102
RTVSPost2010Prop53
 90
        2
102
RTVSPost2010PropOp53
 70
     1
102
RTVSPost2010Prop54
  1
strokes_ogs.tif
102
RTVSPost2010PropOp54
 70
     1
102
RTVSPost2010Prop55
280
     0
102
RTVSPost2010PropOp55
 70
     1
102
RTVSPost2010Prop56
140
1.0
102
RTVSPost2010PropOp56
 70
     1
102
RTVSPost2010Prop57
140
1.0
102
RTVSPost2010PropOp57
 70
     1
  0
XRECORD
  5
32A
102
{ACAD_REACTORS
330
329
102
}
330
329
100
AcDbXrecord
280
     1
102
RTVSPropertyOp0
 70
     1
102
RTVSPropertyOp1
 70
     1
102
RTVSPropertyOp2
 70
     1
102
RTVSPropertyOp3
 70
     1
102
RTVSPropertyOp4
 70
     1
102
RTVSPropertyOp5
 70
     1
102
RTVSPropertyOp6
 70
     1
102
RTVSPropertyOp7
 70
     1
102
RTVSPropertyOp8
 70
     1
102
RTVSPropertyOp9
 70
     1
102
RTVSPropertyOp10
 70
     1
102
RTVSPropertyOp11
 70
     1
102
RTVSPropertyOp12
 70
     1
102
RTVSPropertyOp13
 70
     1
102
RTVSPropertyOp14
 70
     1
102
RTVSPropertyOp15
 70
     1
102
RTVSPropertyOp16
 70
     1
102
RTVSPropertyOp17
 70
     1
102
RTVSPropertyOp18
 70
     1
102
RTVSPropertyOp19
 70
     1
102
RTVSPropertyOp20
 70
     1
102
RTVSPropertyOp21
 70
     1
102
RTVSPropertyOp22
 70
     1
102
RTVSPropertyOp23
 70
     1
102
RTVSPropertyOp24
 70
     1
102
RTVSPropertyOp25
 70
     1
102
RTVSPropertyOp26
 70
     1
102
RTVSPropertyOp27
 70
     1
102
RTVSPropertyOp28
 70
     1
102
RTVSPropertyOp29
 70
     1
102
RTVSPropertyOp30
 70
     1
102
RTVSPropertyOp31
 70
     1
102
RTVSPropertyOp32
 70
     1
102
RTVSPropertyOp33
 70
     1
102
RTVSPropertyOp34
 70
     1
102
RTVSPropertyOp35
 70
     1
102
RTVSPropertyOp36
 70
     1
102
RTVSPropertyOp37
 70
     1
102
RTVSPropertyOp38
 70
     1
102
RTVSPropertyOp39
 70
     1
102
RTVSPropertyOp40
 70
     1
102
RTVSPropertyOp41
 70
     1
102
RTVSPropertyOp42
 70
     1
102
RTVSPropertyOp43
 70
     1
102
RTVSPropertyOp44
 70
     1
102
RTVSPropertyOp45
 70
     1
102
RTVSPropertyOp46
 70
     1
102
RTVSPropertyOp47
 70
     1
102
RTVSPropertyOp48
 70
     1
102
RTVSPropertyOp49
 70
     1
102
RTVSPropertyOp50
 70
     1
102
RTVSPropertyOp51
 70
     0
102
RTVSPropertyOp52
 70
     0
102
RTVSPropertyOp53
 70
     1
102
RTVSPropertyOp54
 70
     1
102
RTVSPropertyOp55
 70
     1
102
RTVSPropertyOp56
 70
     1
102
RTVSPropertyOp57
 70
     1
102
RTVSPost2010Prop28
280
     0
102
RTVSPost2010PropOp28
 70
     1
102
RTVSPost2010Prop29
280
     1
102
RTVSPost2010PropOp29
 70
     1
102
RTVSPost2010Prop30
280
     1
102
RTVSPost2010PropOp30
 70
     1
102
RTVSPost2010Prop31
280
     0
102
RTVSPost2010PropOp31
 70
     1
102
RTVSPost2010Prop32
280
     0
102
RTVSPost2010PropOp32
 70
     1
102
RTVSPost2010Prop33
280
     0
102
RTVSPost2010PropOp33
 70
     1
102
RTVSPost2010Prop34
280
     0
102
RTVSPost2010PropOp34
 70
     1
102
RTVSPost2010Prop35
280
     0
102
RTVSPost2010PropOp35
 70
     1
102
RTVSPost2010Prop36
280
     0
102
RTVSPost2010PropOp36
 70
     1
102
RTVSPost2010Prop37
 90
       50
102
RTVSPost2010PropOp37
 70
     1
102
RTVSPost2010Prop38
140
0.0
102
RTVSPost2010PropOp38
 70
     1
102
RTVSPost2010Prop39
140
1.0
102
RTVSPost2010PropOp39
 70
     1
102
RTVSPost2010Prop40
 90
        0
102
RTVSPost2010PropOp40
 70
     1
102
RTVSPost2010Prop41ColorIndex
 90
       18
102
RTVSPost2010Prop41ColorRGB
 90
        0
102
RTVSPost2010PropOp41
 70
     1
102
RTVSPost2010Prop42
 90
       50
102
RTVSPost2010PropOp42
 70
     1
102
RTVSPost2010Prop43
 90
        3
102
RTVSPost2010PropOp43
 70
     1
102
RTVSPost2010Prop44ColorIndex
 90
        5
102
RTVSPost2010Prop44ColorRGB
 90
      255
102
RTVSPost2010PropOp44
 70
     1
102
RTVSPost2010Prop45
280
     0
102
RTVSPost2010PropOp45
 70
     1
102
RTVSPost2010Prop46
 90
       50
102
RTVSPost2010PropOp46
 70
     1
102
RTVSPost2010Prop47
 90
       50
102
RTVSPost2010PropOp47
 70
     1
102
RTVSPost2010Prop48
 90
       50
102
RTVSPost2010PropOp48
 70
     1
102
RTVSPost2010Prop49
280
     0
102
RTVSPost2010PropOp49
 70
     1
102
RTVSPost2010Prop50
 90
       50
102
RTVSPost2010PropOp50
 70
     1
102
RTVSPost2010Prop51ColorIndex
 90
      256
102
RTVSPost2010Prop51ColorRGB
 90
-16777216
102
RTVSPost2010PropOp51
 70
     0
102
RTVSPost2010Prop52
140
1.0
102
RTVSPost2010PropOp52
 70
     0
102
RTVSPost2010Prop53
 90
        2
102
RTVSPost2010PropOp53
 70
     1
102
RTVSPost2010Prop54
  1
strokes_ogs.tif
102
RTVSPost2010PropOp54
 70
     1
102
RTVSPost2010Prop55
280
     0
102
RTVSPost2010PropOp55
 70
     1
102
RTVSPost2010Prop56
140
1.0
102
RTVSPost2010PropOp56
 70
     1
102
RTVSPost2010Prop57
140
1.0
102
RTVSPost2010PropOp57
 70
     1
  0
XRECORD
  5
31A
102
{ACAD_REACTORS
330
319
102
}
330
319
100
AcDbXrecord
280
     1
102
RTVSPropertyOp0
 70
     1
102
RTVSPropertyOp1
 70
     1
102
RTVSPropertyOp2
 70
     1
102
RTVSPropertyOp3
 70
     1
102
RTVSPropertyOp4
 70
     1
102
RTVSPropertyOp5
 70
     1
102
RTVSPropertyOp6
 70
     1
102
RTVSPropertyOp7
 70
     1
102
RTVSPropertyOp8
 70
     1
102
RTVSPropertyOp9
 70
     1
102
RTVSPropertyOp10
 70
     1
102
RTVSPropertyOp11
 70
     1
102
RTVSPropertyOp12
 70
     1
102
RTVSPropertyOp13
 70
     1
102
RTVSPropertyOp14
 70
     1
102
RTVSPropertyOp15
 70
     1
102
RTVSPropertyOp16
 70
     1
102
RTVSPropertyOp17
 70
     1
102
RTVSPropertyOp18
 70
     1
102
RTVSPropertyOp19
 70
     1
102
RTVSPropertyOp20
 70
     1
102
RTVSPropertyOp21
 70
     1
102
RTVSPropertyOp22
 70
     1
102
RTVSPropertyOp23
 70
     1
102
RTVSPropertyOp24
 70
     1
102
RTVSPropertyOp25
 70
     1
102
RTVSPropertyOp26
 70
     1
102
RTVSPropertyOp27
 70
     1
102
RTVSPropertyOp28
 70
     1
102
RTVSPropertyOp29
 70
     1
102
RTVSPropertyOp30
 70
     1
102
RTVSPropertyOp31
 70
     1
102
RTVSPropertyOp32
 70
     1
102
RTVSPropertyOp33
 70
     1
102
RTVSPropertyOp34
 70
     1
102
RTVSPropertyOp35
 70
     1
102
RTVSPropertyOp36
 70
     1
102
RTVSPropertyOp37
 70
     1
102
RTVSPropertyOp38
 70
     1
102
RTVSPropertyOp39
 70
     1
102
RTVSPropertyOp40
 70
     1
102
RTVSPropertyOp41
 70
     1
102
RTVSPropertyOp42
 70
     1
102
RTVSPropertyOp43
 70
     1
102
RTVSPropertyOp44
 70
     1
102
RTVSPropertyOp45
 70
     1
102
RTVSPropertyOp46
 70
     1
102
RTVSPropertyOp47
 70
     1
102
RTVSPropertyOp48
 70
     1
102
RTVSPropertyOp49
 70
     1
102
RTVSPropertyOp50
 70
     1
102
RTVSPropertyOp51
 70
     0
102
RTVSPropertyOp52
 70
     0
102
RTVSPropertyOp53
 70
     1
102
RTVSPropertyOp54
 70
     1
102
RTVSPropertyOp55
 70
     1
102
RTVSPropertyOp56
 70
     1
102
RTVSPropertyOp57
 70
     1
102
RTVSPost2010Prop28
280
     0
102
RTVSPost2010PropOp28
 70
     1
102
RTVSPost2010Prop29
280
     1
102
RTVSPost2010PropOp29
 70
     1
102
RTVSPost2010Prop30
280
     1
102
RTVSPost2010PropOp30
 70
     1
102
RTVSPost2010Prop31
280
     0
102
RTVSPost2010PropOp31
 70
     1
102
RTVSPost2010Prop32
280
     0
102
RTVSPost2010PropOp32
 70
     1
102
RTVSPost2010Prop33
280
     0
102
RTVSPost2010PropOp33
 70
     1
102
RTVSPost2010Prop34
280
     0
102
RTVSPost2010PropOp34
 70
     1
102
RTVSPost2010Prop35
280
     0
102
RTVSPost2010PropOp35
 70
     1
102
RTVSPost2010Prop36
280
     0
102
RTVSPost2010PropOp36
 70
     1
102
RTVSPost2010Prop37
 90
       50
102
RTVSPost2010PropOp37
 70
     1
102
RTVSPost2010Prop38
140
0.0
102
RTVSPost2010PropOp38
 70
     1
102
RTVSPost2010Prop39
140
1.0
102
RTVSPost2010PropOp39
 70
     1
102
RTVSPost2010Prop40
 90
        0
102
RTVSPost2010PropOp40
 70
     1
102
RTVSPost2010Prop41ColorIndex
 90
       18
102
RTVSPost2010Prop41ColorRGB
 90
        0
102
RTVSPost2010PropOp41
 70
     1
102
RTVSPost2010Prop42
 90
       50
102
RTVSPost2010PropOp42
 70
     1
102
RTVSPost2010Prop43
 90
        3
102
RTVSPost2010PropOp43
 70
     1
102
RTVSPost2010Prop44ColorIndex
 90
        5
102
RTVSPost2010Prop44ColorRGB
 90
      255
102
RTVSPost2010PropOp44
 70
     1
102
RTVSPost2010Prop45
280
     0
102
RTVSPost2010PropOp45
 70
     1
102
RTVSPost2010Prop46
 90
       50
102
RTVSPost2010PropOp46
 70
     1
102
RTVSPost2010Prop47
 90
       50
102
RTVSPost2010PropOp47
 70
     1
102
RTVSPost2010Prop48
 90
       50
102
RTVSPost2010PropOp48
 70
     1
102
RTVSPost2010Prop49
280
     0
102
RTVSPost2010PropOp49
 70
     1
102
RTVSPost2010Prop50
 90
       50
102
RTVSPost2010PropOp50
 70
     1
102
RTVSPost2010Prop51ColorIndex
 90
      256
102
RTVSPost2010Prop51ColorRGB
 90
-16777216
102
RTVSPost2010PropOp51
 70
     0
102
RTVSPost2010Prop52
140
1.0
102
RTVSPost2010PropOp52
 70
     0
102
RTVSPost2010Prop53
 90
        2
102
RTVSPost2010PropOp53
 70
     1
102
RTVSPost2010Prop54
  1
strokes_ogs.tif
102
RTVSPost2010PropOp54
 70
     1
102
RTVSPost2010Prop55
280
     0
102
RTVSPost2010PropOp55
 70
     1
102
RTVSPost2010Prop56
140
1.0
102
RTVSPost2010PropOp56
 70
     1
102
RTVSPost2010Prop57
140
1.0
102
RTVSPost2010PropOp57
 70
     1
  0
XRECORD
  5
30C
102
{ACAD_REACTORS
330
30B
102
}
330
30B
100
AcDbXrecord
280
     1
102
RTVSPropertyOp0
 70
     1
102
RTVSPropertyOp1
 70
     1
102
RTVSPropertyOp2
 70
     1
102
RTVSPropertyOp3
 70
     1
102
RTVSPropertyOp4
 70
     1
102
RTVSPropertyOp5
 70
     1
102
RTVSPropertyOp6
 70
     1
102
RTVSPropertyOp7
 70
     1
102
RTVSPropertyOp8
 70
     1
102
RTVSPropertyOp9
 70
     1
102
RTVSPropertyOp10
 70
     1
102
RTVSPropertyOp11
 70
     1
102
RTVSPropertyOp12
 70
     1
102
RTVSPropertyOp13
 70
     1
102
RTVSPropertyOp14
 70
     1
102
RTVSPropertyOp15
 70
     1
102
RTVSPropertyOp16
 70
     1
102
RTVSPropertyOp17
 70
     1
102
RTVSPropertyOp18
 70
     1
102
RTVSPropertyOp19
 70
     1
102
RTVSPropertyOp20
 70
     1
102
RTVSPropertyOp21
 70
     1
102
RTVSPropertyOp22
 70
     1
102
RTVSPropertyOp23
 70
     1
102
RTVSPropertyOp24
 70
     1
102
RTVSPropertyOp25
 70
     1
102
RTVSPropertyOp26
 70
     1
102
RTVSPropertyOp27
 70
     1
102
RTVSPropertyOp28
 70
     1
102
RTVSPropertyOp29
 70
     1
102
RTVSPropertyOp30
 70
     1
102
RTVSPropertyOp31
 70
     1
102
RTVSPropertyOp32
 70
     1
102
RTVSPropertyOp33
 70
     1
102
RTVSPropertyOp34
 70
     1
102
RTVSPropertyOp35
 70
     1
102
RTVSPropertyOp36
 70
     1
102
RTVSPropertyOp37
 70
     1
102
RTVSPropertyOp38
 70
     1
102
RTVSPropertyOp39
 70
     1
102
RTVSPropertyOp40
 70
     1
102
RTVSPropertyOp41
 70
     1
102
RTVSPropertyOp42
 70
     1
102
RTVSPropertyOp43
 70
     1
102
RTVSPropertyOp44
 70
     1
102
RTVSPropertyOp45
 70
     1
102
RTVSPropertyOp46
 70
     1
102
RTVSPropertyOp47
 70
     1
102
RTVSPropertyOp48
 70
     1
102
RTVSPropertyOp49
 70
     1
102
RTVSPropertyOp50
 70
     1
102
RTVSPropertyOp51
 70
     0
102
RTVSPropertyOp52
 70
     0
102
RTVSPropertyOp53
 70
     1
102
RTVSPropertyOp54
 70
     1
102
RTVSPropertyOp55
 70
     1
102
RTVSPropertyOp56
 70
     1
102
RTVSPropertyOp57
 70
     1
102
RTVSPost2010Prop28
280
     0
102
RTVSPost2010PropOp28
 70
     1
102
RTVSPost2010Prop29
280
     1
102
RTVSPost2010PropOp29
 70
     1
102
RTVSPost2010Prop30
280
     1
102
RTVSPost2010PropOp30
 70
     1
102
RTVSPost2010Prop31
280
     0
102
RTVSPost2010PropOp31
 70
     1
102
RTVSPost2010Prop32
280
     0
102
RTVSPost2010PropOp32
 70
     1
102
RTVSPost2010Prop33
280
     0
102
RTVSPost2010PropOp33
 70
     1
102
RTVSPost2010Prop34
280
     0
102
RTVSPost2010PropOp34
 70
     1
102
RTVSPost2010Prop35
280
     0
102
RTVSPost2010PropOp35
 70
     1
102
RTVSPost2010Prop36
280
     0
102
RTVSPost2010PropOp36
 70
     1
102
RTVSPost2010Prop37
 90
       50
102
RTVSPost2010PropOp37
 70
     1
102
RTVSPost2010Prop38
140
0.0
102
RTVSPost2010PropOp38
 70
     1
102
RTVSPost2010Prop39
140
1.0
102
RTVSPost2010PropOp39
 70
     1
102
RTVSPost2010Prop40
 90
        0
102
RTVSPost2010PropOp40
 70
     1
102
RTVSPost2010Prop41ColorIndex
 90
       18
102
RTVSPost2010Prop41ColorRGB
 90
        0
102
RTVSPost2010PropOp41
 70
     1
102
RTVSPost2010Prop42
 90
       50
102
RTVSPost2010PropOp42
 70
     1
102
RTVSPost2010Prop43
 90
        3
102
RTVSPost2010PropOp43
 70
     1
102
RTVSPost2010Prop44ColorIndex
 90
        5
102
RTVSPost2010Prop44ColorRGB
 90
      255
102
RTVSPost2010PropOp44
 70
     1
102
RTVSPost2010Prop45
280
     0
102
RTVSPost2010PropOp45
 70
     1
102
RTVSPost2010Prop46
 90
       50
102
RTVSPost2010PropOp46
 70
     1
102
RTVSPost2010Prop47
 90
       50
102
RTVSPost2010PropOp47
 70
     1
102
RTVSPost2010Prop48
 90
       50
102
RTVSPost2010PropOp48
 70
     1
102
RTVSPost2010Prop49
280
     0
102
RTVSPost2010PropOp49
 70
     1
102
RTVSPost2010Prop50
 90
       50
102
RTVSPost2010PropOp50
 70
     1
102
RTVSPost2010Prop51ColorIndex
 90
      256
102
RTVSPost2010Prop51ColorRGB
 90
-16777216
102
RTVSPost2010PropOp51
 70
     0
102
RTVSPost2010Prop52
140
1.0
102
RTVSPost2010PropOp52
 70
     0
102
RTVSPost2010Prop53
 90
        2
102
RTVSPost2010PropOp53
 70
     1
102
RTVSPost2010Prop54
  1
strokes_ogs.tif
102
RTVSPost2010PropOp54
 70
     1
102
RTVSPost2010Prop55
280
     0
102
RTVSPost2010PropOp55
 70
     1
102
RTVSPost2010Prop56
140
1.0
102
RTVSPost2010PropOp56
 70
     1
102
RTVSPost2010Prop57
140
1.0
102
RTVSPost2010PropOp57
 70
     1
  0
XRECORD
  5
32C
102
{ACAD_REACTORS
330
32B
102
}
330
32B
100
AcDbXrecord
280
     1
102
RTVSPropertyOp0
 70
     1
102
RTVSPropertyOp1
 70
     1
102
RTVSPropertyOp2
 70
     1
102
RTVSPropertyOp3
 70
     1
102
RTVSPropertyOp4
 70
     1
102
RTVSPropertyOp5
 70
     1
102
RTVSPropertyOp6
 70
     1
102
RTVSPropertyOp7
 70
     1
102
RTVSPropertyOp8
 70
     1
102
RTVSPropertyOp9
 70
     1
102
RTVSPropertyOp10
 70
     1
102
RTVSPropertyOp11
 70
     1
102
RTVSPropertyOp12
 70
     1
102
RTVSPropertyOp13
 70
     1
102
RTVSPropertyOp14
 70
     1
102
RTVSPropertyOp15
 70
     1
102
RTVSPropertyOp16
 70
     1
102
RTVSPropertyOp17
 70
     1
102
RTVSPropertyOp18
 70
     1
102
RTVSPropertyOp19
 70
     1
102
RTVSPropertyOp20
 70
     1
102
RTVSPropertyOp21
 70
     1
102
RTVSPropertyOp22
 70
     1
102
RTVSPropertyOp23
 70
     1
102
RTVSPropertyOp24
 70
     1
102
RTVSPropertyOp25
 70
     1
102
RTVSPropertyOp26
 70
     1
102
RTVSPropertyOp27
 70
     1
102
RTVSPropertyOp28
 70
     1
102
RTVSPropertyOp29
 70
     1
102
RTVSPropertyOp30
 70
     1
102
RTVSPropertyOp31
 70
     1
102
RTVSPropertyOp32
 70
     1
102
RTVSPropertyOp33
 70
     1
102
RTVSPropertyOp34
 70
     1
102
RTVSPropertyOp35
 70
     1
102
RTVSPropertyOp36
 70
     1
102
RTVSPropertyOp37
 70
     1
102
RTVSPropertyOp38
 70
     1
102
RTVSPropertyOp39
 70
     1
102
RTVSPropertyOp40
 70
     1
102
RTVSPropertyOp41
 70
     1
102
RTVSPropertyOp42
 70
     1
102
RTVSPropertyOp43
 70
     1
102
RTVSPropertyOp44
 70
     1
102
RTVSPropertyOp45
 70
     1
102
RTVSPropertyOp46
 70
     1
102
RTVSPropertyOp47
 70
     1
102
RTVSPropertyOp48
 70
     1
102
RTVSPropertyOp49
 70
     1
102
RTVSPropertyOp50
 70
     1
102
RTVSPropertyOp51
 70
     0
102
RTVSPropertyOp52
 70
     0
102
RTVSPropertyOp53
 70
     1
102
RTVSPropertyOp54
 70
     1
102
RTVSPropertyOp55
 70
     1
102
RTVSPropertyOp56
 70
     1
102
RTVSPropertyOp57
 70
     1
102
RTVSPost2010Prop28
280
     0
102
RTVSPost2010PropOp28
 70
     1
102
RTVSPost2010Prop29
280
     1
102
RTVSPost2010PropOp29
 70
     1
102
RTVSPost2010Prop30
280
     1
102
RTVSPost2010PropOp30
 70
     1
102
RTVSPost2010Prop31
280
     0
102
RTVSPost2010PropOp31
 70
     1
102
RTVSPost2010Prop32
280
     0
102
RTVSPost2010PropOp32
 70
     1
102
RTVSPost2010Prop33
280
     0
102
RTVSPost2010PropOp33
 70
     1
102
RTVSPost2010Prop34
280
     0
102
RTVSPost2010PropOp34
 70
     1
102
RTVSPost2010Prop35
280
     0
102
RTVSPost2010PropOp35
 70
     1
102
RTVSPost2010Prop36
280
     0
102
RTVSPost2010PropOp36
 70
     1
102
RTVSPost2010Prop37
 90
       50
102
RTVSPost2010PropOp37
 70
     1
102
RTVSPost2010Prop38
140
0.0
102
RTVSPost2010PropOp38
 70
     1
102
RTVSPost2010Prop39
140
1.0
102
RTVSPost2010PropOp39
 70
     1
102
RTVSPost2010Prop40
 90
        0
102
RTVSPost2010PropOp40
 70
     1
102
RTVSPost2010Prop41ColorIndex
 90
       18
102
RTVSPost2010Prop41ColorRGB
 90
        0
102
RTVSPost2010PropOp41
 70
     1
102
RTVSPost2010Prop42
 90
       50
102
RTVSPost2010PropOp42
 70
     1
102
RTVSPost2010Prop43
 90
        3
102
RTVSPost2010PropOp43
 70
     1
102
RTVSPost2010Prop44ColorIndex
 90
        5
102
RTVSPost2010Prop44ColorRGB
 90
      255
102
RTVSPost2010PropOp44
 70
     1
102
RTVSPost2010Prop45
280
     0
102
RTVSPost2010PropOp45
 70
     1
102
RTVSPost2010Prop46
 90
       50
102
RTVSPost2010PropOp46
 70
     1
102
RTVSPost2010Prop47
 90
       50
102
RTVSPost2010PropOp47
 70
     1
102
RTVSPost2010Prop48
 90
       50
102
RTVSPost2010PropOp48
 70
     1
102
RTVSPost2010Prop49
280
     0
102
RTVSPost2010PropOp49
 70
     1
102
RTVSPost2010Prop50
 90
       50
102
RTVSPost2010PropOp50
 70
     1
102
RTVSPost2010Prop51ColorIndex
 90
      256
102
RTVSPost2010Prop51ColorRGB
 90
-16777216
102
RTVSPost2010PropOp51
 70
     0
102
RTVSPost2010Prop52
140
1.0
102
RTVSPost2010PropOp52
 70
     0
102
RTVSPost2010Prop53
 90
        2
102
RTVSPost2010PropOp53
 70
     1
102
RTVSPost2010Prop54
  1
strokes_ogs.tif
102
RTVSPost2010PropOp54
 70
     1
102
RTVSPost2010Prop55
280
     0
102
RTVSPost2010PropOp55
 70
     1
102
RTVSPost2010Prop56
140
1.0
102
RTVSPost2010PropOp56
 70
     1
102
RTVSPost2010Prop57
140
1.0
102
RTVSPost2010PropOp57
 70
     1
  0
ENDSEC
  0
EOF
