  0
SECTION
  2
HEADER
  9
$ACADVER
  1
AC1018
  9
$ACADMAINTVER
 70
     0
  9
$DWGCODEPAGE
  3
ANSI_1252
  9
$INSBASE
 10
0.0
 20
0.0
 30
0.0
  9
$EXTMIN
 10
-415.499999999989
 20
-267.0000000000051
 30
0.0
  9
$EXTMAX
 10
-118.4999999999909
 20
-57.000000000005
 30
0.0
  9
$LIMMIN
 10
0.0
 20
0.0
  9
$LIMMAX
 10
12.0
 20
9.0
  9
$ORTHOMODE
 70
     0
  9
$REGENMODE
 70
     1
  9
$FILLMODE
 70
     1
  9
$QTEXTMODE
 70
     0
  9
$MIRRTEXT
 70
     1
  9
$LTSCALE
 40
1.0
  9
$ATTMODE
 70
     1
  9
$TEXTSIZE
 40
0.2
  9
$TRACEWID
 40
0.05
  9
$TEXTSTYLE
  7
Standard
  9
$CLAYER
  8
0
  9
$CELTYPE
  6
ByLayer
  9
$CECOLOR
 62
   256
  9
$CELTSCALE
 40
1.0
  9
$DISPSILH
 70
     0
  9
$DIMSCALE
 40
1.0
  9
$DIMASZ
 40
0.18
  9
$DIMEXO
 40
0.0625
  9
$DIMDLI
 40
0.38
  9
$DIMRND
 40
0.0
  9
$DIMDLE
 40
0.0
  9
$DIMEXE
 40
0.18
  9
$DIMTP
 40
0.0
  9
$DIMTM
 40
0.0
  9
$DIMTXT
 40
0.18
  9
$DIMCEN
 40
0.09
  9
$DIMTSZ
 40
0.0
  9
$DIMTOL
 70
     0
  9
$DIMLIM
 70
     0
  9
$DIMTIH
 70
     1
  9
$DIMTOH
 70
     1
  9
$DIMSE1
 70
     0
  9
$DIMSE2
 70
     0
  9
$DIMTAD
 70
     0
  9
$DIMZIN
 70
     0
  9
$DIMBLK
  1

  9
$DIMASO
 70
     1
  9
$DIMSHO
 70
     1
  9
$DIMPOST
  1

  9
$DIMAPOST
  1

  9
$DIMALT
 70
     0
  9
$DIMALTD
 70
     2
  9
$DIMALTF
 40
25.4
  9
$DIMLFAC
 40
1.0
  9
$DIMTOFL
 70
     0
  9
$DIMTVP
 40
0.0
  9
$DIMTIX
 70
     0
  9
$DIMSOXD
 70
     0
  9
$DIMSAH
 70
     0
  9
$DIMBLK1
  1

  9
$DIMBLK2
  1

  9
$DIMSTYLE
  2
Standard
  9
$DIMCLRD
 70
     0
  9
$DIMCLRE
 70
     0
  9
$DIMCLRT
 70
     0
  9
$DIMTFAC
 40
1.0
  9
$DIMGAP
 40
0.09
  9
$DIMJUST
 70
     0
  9
$DIMSD1
 70
     0
  9
$DIMSD2
 70
     0
  9
$DIMTOLJ
 70
     1
  9
$DIMTZIN
 70
     0
  9
$DIMALTZ
 70
     0
  9
$DIMALTTZ
 70
     0
  9
$DIMUPT
 70
     0
  9
$DIMDEC
 70
     4
  9
$DIMTDEC
 70
     4
  9
$DIMALTU
 70
     2
  9
$DIMALTTD
 70
     2
  9
$DIMTXSTY
  7
Standard
  9
$DIMAUNIT
 70
     0
  9
$DIMADEC
 70
     0
  9
$DIMALTRND
 40
0.0
  9
$DIMAZIN
 70
     0
  9
$DIMDSEP
 70
    46
  9
$DIMATFIT
 70
     3
  9
$DIMFRAC
 70
     0
  9
$DIMLDRBLK
  1

  9
$DIMLUNIT
 70
     2
  9
$DIMLWD
 70
    -2
  9
$DIMLWE
 70
    -2
  9
$DIMTMOVE
 70
     0
  9
$LUNITS
 70
     2
  9
$LUPREC
 70
     4
  9
$SKETCHINC
 40
0.1
  9
$FILLETRAD
 40
0.5
  9
$AUNITS
 70
     0
  9
$AUPREC
 70
     0
  9
$MENU
  1
.
  9
$ELEVATION
 40
0.0
  9
$PELEVATION
 40
0.0
  9
$THICKNESS
 40
0.0
  9
$LIMCHECK
 70
     0
  9
$CHAMFERA
 40
0.0
  9
$CHAMFERB
 40
0.0
  9
$CHAMFERC
 40
0.0
  9
$CHAMFERD
 40
0.0
  9
$SKPOLY
 70
     0
  9
$TDCREATE
 40
2459060.065254132
  9
$TDUCREATE
 40
2459059.981920799
  9
$TDUPDATE
 40
2459060.065254317
  9
$TDUUPDATE
 40
2459059.981920984
  9
$TDINDWG
 40
0.0000000116
  9
$TDUSRTIMER
 40
0.0000000116
  9
$USRTIMER
 70
     1
  9
$ANGBASE
 50
0.0
  9
$ANGDIR
 70
     0
  9
$PDMODE
 70
     0
  9
$PDSIZE
 40
0.0
  9
$PLINEWID
 40
0.0
  9
$SPLFRAME
 70
     0
  9
$SPLINETYPE
 70
     6
  9
$SPLINESEGS
 70
     8
  9
$HANDSEED
  5
312
  9
$SURFTAB1
 70
     6
  9
$SURFTAB2
 70
     6
  9
$SURFTYPE
 70
     6
  9
$SURFU
 70
     6
  9
$SURFV
 70
     6
  9
$UCSBASE
  2

  9
$UCSNAME
  2

  9
$UCSORG
 10
0.0
 20
0.0
 30
0.0
  9
$UCSXDIR
 10
1.0
 20
0.0
 30
0.0
  9
$UCSYDIR
 10
0.0
 20
1.0
 30
0.0
  9
$UCSORTHOREF
  2

  9
$UCSORTHOVIEW
 70
     0
  9
$UCSORGTOP
 10
0.0
 20
0.0
 30
0.0
  9
$UCSORGBOTTOM
 10
0.0
 20
0.0
 30
0.0
  9
$UCSORGLEFT
 10
0.0
 20
0.0
 30
0.0
  9
$UCSORGRIGHT
 10
0.0
 20
0.0
 30
0.0
  9
$UCSORGFRONT
 10
0.0
 20
0.0
 30
0.0
  9
$UCSORGBACK
 10
0.0
 20
0.0
 30
0.0
  9
$PUCSBASE
  2

  9
$PUCSNAME
  2

  9
$PUCSORG
 10
0.0
 20
0.0
 30
0.0
  9
$PUCSXDIR
 10
1.0
 20
0.0
 30
0.0
  9
$PUCSYDIR
 10
0.0
 20
1.0
 30
0.0
  9
$PUCSORTHOREF
  2

  9
$PUCSORTHOVIEW
 70
     0
  9
$PUCSORGTOP
 10
0.0
 20
0.0
 30
0.0
  9
$PUCSORGBOTTOM
 10
0.0
 20
0.0
 30
0.0
  9
$PUCSORGLEFT
 10
0.0
 20
0.0
 30
0.0
  9
$PUCSORGRIGHT
 10
0.0
 20
0.0
 30
0.0
  9
$PUCSORGFRONT
 10
0.0
 20
0.0
 30
0.0
  9
$PUCSORGBACK
 10
0.0
 20
0.0
 30
0.0
  9
$USERI1
 70
     0
  9
$USERI2
 70
     0
  9
$USERI3
 70
     0
  9
$USERI4
 70
     0
  9
$USERI5
 70
     0
  9
$USERR1
 40
20.1
  9
$USERR2
 40
0.0
  9
$USERR3
 40
0.0
  9
$USERR4
 40
0.0
  9
$USERR5
 40
0.0
  9
$WORLDVIEW
 70
     1
  9
$SHADEDGE
 70
     3
  9
$SHADEDIF
 70
    70
  9
$TILEMODE
 70
     1
  9
$MAXACTVP
 70
    64
  9
$PINSBASE
 10
0.0
 20
0.0
 30
0.0
  9
$PLIMCHECK
 70
     0
  9
$PEXTMIN
 10
1.00000000000000E+20
 20
1.00000000000000E+20
 30
1.00000000000000E+20
  9
$PEXTMAX
 10
-1.00000000000000E+20
 20
-1.00000000000000E+20
 30
-1.00000000000000E+20
  9
$PLIMMIN
 10
0.0
 20
0.0
  9
$PLIMMAX
 10
12.0
 20
9.0
  9
$UNITMODE
 70
     0
  9
$VISRETAIN
 70
     1
  9
$PLINEGEN
 70
     0
  9
$PSLTSCALE
 70
     1
  9
$TREEDEPTH
 70
  3020
  9
$CMLSTYLE
  2
Standard
  9
$CMLJUST
 70
     0
  9
$CMLSCALE
 40
1.0
  9
$PROXYGRAPHICS
 70
     1
  9
$MEASUREMENT
 70
     1
  9
$CELWEIGHT
370
    -1
  9
$ENDCAPS
280
     0
  9
$JOINSTYLE
280
     0
  9
$LWDISPLAY
290
     0
  9
$INSUNITS
 70
     4
  9
$HYPERLINKBASE
  1

  9
$STYLESHEET
  1

  9
$XEDIT
290
     1
  9
$CEPSNTYPE
380
     0
  9
$PSTYLEMODE
290
     1
  9
$FINGERPRINTGUID
  2
{1c07ad33-34a1-4aa9-8bfe-7204d9d5fe1e}
  9
$VERSIONGUID
  2
{FAEB1C32-E019-11D5-929B-00C0DF256EC4}
  9
$EXTNAMES
290
     1
  9
$PSVPSCALE
 40
0.0
  9
$OLESTARTUP
290
     0
  9
$SORTENTS
280
   127
  9
$INDEXCTL
280
     0
  9
$HIDETEXT
280
     1
  9
$XCLIPFRAME
290
     0
  9
$HALOGAP
280
     0
  9
$OBSCOLOR
 70
   257
  9
$OBSLTYPE
280
     0
  9
$INTERSECTIONDISPLAY
280
     0
  9
$INTERSECTIONCOLOR
 70
   257
  9
$DIMASSOC
280
     2
  9
$PROJECTNAME
  1

  0
ENDSEC
  0
SECTION
  2
CLASSES
  0
CLASS
  1
ACDBDICTIONARYWDFLT
  2
AcDbDictionaryWithDefault
  3
ObjectDBX Classes
 90
        0
 91
        3
280
     0
281
     0
  0
CLASS
  1
VISUALSTYLE
  2
AcDbVisualStyle
  3
ObjectDBX Classes
 90
     4095
 91
        3
280
     0
281
     0
  0
CLASS
  1
MATERIAL
  2
AcDbMaterial
  3
ObjectDBX Classes
 90
     1153
 91
        3
280
     0
281
     0
  0
CLASS
  1
SCALE
  2
AcDbScale
  3
ObjectDBX Classes
 90
     1153
 91
        3
280
     0
281
     0
  0
CLASS
  1
TABLESTYLE
  2
AcDbTableStyle
  3
ObjectDBX Classes
 90
     4095
 91
        3
280
     0
281
     0
  0
CLASS
  1
MLEADERSTYLE
  2
AcDbMLeaderStyle
  3
ACDB_MLEADERSTYLE_CLASS
 90
     4095
 91
        3
280
     0
281
     0
  0
CLASS
  1
SUN
  2
AcDbSun
  3
SCENEOE
 90
     1153
 91
        3
280
     0
281
     0
  0
CLASS
  1
DICTIONARYVAR
  2
AcDbDictionaryVar
  3
ObjectDBX Classes
 90
        0
 91
        3
280
     0
281
     0
  0
CLASS
  1
CELLSTYLEMAP
  2
AcDbCellStyleMap
  3
ObjectDBX Classes
 90
     1152
 91
        3
280
     0
281
     0
  0
ENDSEC
  0
SECTION
  2
TABLES
  0
TABLE
  2
VPORT
  5
8
102
{ACAD_XDICTIONARY
360
2CB
102
}
330
0
100
AcDbSymbolTable
 70
     1
  0
VPORT
  5
29
330
8
100
AcDbSymbolTableRecord
100
AcDbViewportTableRecord
  2
*Active
 70
     0
 10
0.0
 20
0.0
 11
1.0
 21
1.0
 12
-266.9999999999899
 22
-162.0000000000051
 13
0.0
 23
0.0
 14
0.5
 24
0.5
 15
0.5
 25
0.5
 16
0.0
 26
0.0
 36
1.0
 17
0.0
 27
0.0
 37
0.0
 40
231.0000000000001
 41
1.60267857142857
 42
50.0
 43
0.0
 44
0.0
 50
0.0
 51
0.0
 71
     0
 72
   100
 73
     1
 74
     3
 75
     0
 76
     0
 77
     0
 78
     0
281
     0
 65
     1
110
0.0
120
0.0
130
0.0
111
1.0
121
0.0
131
0.0
112
0.0
122
1.0
132
0.0
 79
     0
146
0.0
  0
ENDTAB
  0
TABLE
  2
LTYPE
  5
5
330
0
100
AcDbSymbolTable
 70
     8
  0
LTYPE
  5
14
330
5
100
AcDbSymbolTableRecord
100
AcDbLinetypeTableRecord
  2
ByBlock
 70
     0
  3

 72
    65
 73
     0
 40
0.0
  0
LTYPE
  5
15
330
5
100
AcDbSymbolTableRecord
100
AcDbLinetypeTableRecord
  2
ByLayer
 70
     0
  3

 72
    65
 73
     0
 40
0.0
  0
LTYPE
  5
16
330
5
100
AcDbSymbolTableRecord
100
AcDbLinetypeTableRecord
  2
Continuous
 70
     0
  3
Solid line
 72
    65
 73
     0
 40
0.0
  0
LTYPE
  5
6E
330
5
100
AcDbSymbolTableRecord
100
AcDbLinetypeTableRecord
  2
DASHED
 70
     0
  3
Dashed
 72
    65
 73
     2
 40
15.0
 49
7.0
 74
     0
 49
-8.0
 74
     0
  0
LTYPE
  5
6F
330
5
100
AcDbSymbolTableRecord
100
AcDbLinetypeTableRecord
  2
DOTTED
 70
     0
  3
Dotted
 72
    65
 73
     2
 40
1.0
 49
0.0
 74
     0
 49
-1.0
 74
     0
  0
LTYPE
  5
70
330
5
100
AcDbSymbolTableRecord
100
AcDbLinetypeTableRecord
  2
DOT_CENTER
 70
     0
  3
Dot_Center
 72
    65
 73
     4
 40
14.0
 49
12.0
 74
     0
 49
-1.0
 74
     0
 49
0.0
 74
     0
 49
-1.0
 74
     0
  0
LTYPE
  5
71
330
5
100
AcDbSymbolTableRecord
100
AcDbLinetypeTableRecord
  2
LONG_DASHED
 70
     0
  3
Long_Dashed
 72
    65
 73
     2
 40
15.0
 49
10.0
 74
     0
 49
-5.0
 74
     0
  0
LTYPE
  5
72
330
5
100
AcDbSymbolTableRecord
100
AcDbLinetypeTableRecord
  2
DASH_CENTER
 70
     0
  3
Dash_Center
 72
    65
 73
     4
 40
14.0
 49
11.0
 74
     0
 49
-1.0
 74
     0
 49
1.0
 74
     0
 49
-1.0
 74
     0
  0
LTYPE
  5
73
330
5
100
AcDbSymbolTableRecord
100
AcDbLinetypeTableRecord
  2
PHANTOM
 70
     0
  3
Phantom
 72
    65
 73
     6
 40
13.0
 49
10.0
 74
     0
 49
-1.0
 74
     0
 49
0.0
 74
     0
 49
-1.0
 74
     0
 49
0.0
 74
     0
 49
-1.0
 74
     0
  0
LTYPE
  5
74
330
5
100
AcDbSymbolTableRecord
100
AcDbLinetypeTableRecord
  2
CENTER_DASH_DASH
 70
     0
  3
Center_Dash_Dash
 72
    65
 73
     6
 40
14.0
 49
9.0
 74
     0
 49
-1.0
 74
     0
 49
1.0
 74
     0
 49
-1.0
 74
     0
 49
1.0
 74
     0
 49
-1.0
 74
     0
  0
ENDTAB
  0
TABLE
  2
LAYER
  5
2
330
0
100
AcDbSymbolTable
 70
     2
  0
LAYER
  5
10
330
2
100
AcDbSymbolTableRecord
100
AcDbLayerTableRecord
  2
0
 70
     0
 62
     7
  6
Continuous
370
    -3
390
F
  0
LAYER
  5
75
330
2
100
AcDbSymbolTableRecord
100
AcDbLayerTableRecord
  2
1
 70
     0
 62
     7
  6
Continuous
370
    -3
390
F
  0
ENDTAB
  0
TABLE
  2
STYLE
  5
3
330
0
100
AcDbSymbolTable
 70
     5
  0
STYLE
  5
11
330
3
100
AcDbSymbolTableRecord
100
AcDbTextStyleTableRecord
  2
Standard
 70
     0
 40
0.0
 41
1.0
 50
0.0
 71
     0
 42
0.2
  3
txt
  4

  0
STYLE
  5
EE
330
3
100
AcDbSymbolTableRecord
100
AcDbTextStyleTableRecord
  2
CONVERTER_11
 70
     0
 40
0.0
 41
0.9
 50
0.0
 71
     0
 42
0.2
  3
txt.shx
  4

  0
STYLE
  5
28E
330
3
100
AcDbSymbolTableRecord
100
AcDbTextStyleTableRecord
  2
CONVERTER_12
 70
     0
 40
0.0
 41
0.81
 50
0.0
 71
     0
 42
0.2
  3
txt.shx
  4

  0
STYLE
  5
2A4
330
3
100
AcDbSymbolTableRecord
100
AcDbTextStyleTableRecord
  2
CONVERTER_13
 70
     0
 40
0.0
 41
0.72
 50
0.0
 71
     0
 42
0.2
  3
txt.shx
  4

  0
STYLE
  5
2A7
330
3
100
AcDbSymbolTableRecord
100
AcDbTextStyleTableRecord
  2
CONVERTER_14
 70
     0
 40
0.0
 41
0.855
 50
0.0
 71
     0
 42
0.2
  3
txt.shx
  4

  0
ENDTAB
  0
TABLE
  2
VIEW
  5
6
330
0
100
AcDbSymbolTable
 70
     0
  0
ENDTAB
  0
TABLE
  2
UCS
  5
7
330
0
100
AcDbSymbolTable
 70
     0
  0
ENDTAB
  0
TABLE
  2
APPID
  5
9
330
0
100
AcDbSymbolTable
 70
     2
  0
APPID
  5
12
330
9
100
AcDbSymbolTableRecord
100
AcDbRegAppTableRecord
  2
ACAD
 70
     0
  0
APPID
  5
30A
330
9
100
AcDbSymbolTableRecord
100
AcDbRegAppTableRecord
  2
ACAD_MLEADERVER
 70
     0
  0
ENDTAB
  0
TABLE
  2
DIMSTYLE
  5
A
330
0
100
AcDbSymbolTable
 70
     4
100
AcDbDimStyleTable
  0
DIMSTYLE
105
27
330
A
100
AcDbSymbolTableRecord
100
AcDbDimStyleTableRecord
  2
Standard
 70
     0
178
     0
340
11
  0
DIMSTYLE
105
132
102
{ACAD_REACTORS
330
133
102
}
330
A
100
AcDbSymbolTableRecord
100
AcDbDimStyleTableRecord
  2
ME10_DIM_10
 70
     0
 41
1.75
 42
0.0
 44
0.75
 73
     0
 74
     0
 77
     1
 78
     8
140
1.75
147
0.75
172
     1
173
     1
174
     1
175
     1
176
     2
177
     2
271
     0
178
     3
271
     0
340
EE
  0
DIMSTYLE
105
13F
102
{ACAD_REACTORS
330
140
102
}
330
A
100
AcDbSymbolTableRecord
100
AcDbDimStyleTableRecord
  2
ME10_DIM_11
 70
     0
 41
1.75
 42
0.0
 44
0.75
 73
     0
 74
     0
 77
     1
 78
     8
140
1.75
147
0.75
172
     1
173
     1
174
     1
175
     1
176
     2
177
     2
271
     1
178
     3
271
     1
340
EE
  0
DIMSTYLE
105
157
102
{ACAD_REACTORS
330
158
102
}
330
A
100
AcDbSymbolTableRecord
100
AcDbDimStyleTableRecord
  2
ME10_DIM_12
 70
     0
 41
1.75
 42
0.0
 44
0.75
 73
     0
 74
     0
 77
     1
 78
     8
140
1.75
147
0.75
172
     1
173
     1
174
     1
175
     1
176
     2
177
     2
271
     1
178
     3
271
     1
340
EE
  0
ENDTAB
  0
TABLE
  2
BLOCK_RECORD
  5
1
330
0
100
AcDbSymbolTable
 70
    20
  0
BLOCK_RECORD
  5
1F
330
1
100
AcDbSymbolTableRecord
100
AcDbBlockTableRecord
  2
*Model_Space
340
22
  0
BLOCK_RECORD
  5
1B
330
1
100
AcDbSymbolTableRecord
100
AcDbBlockTableRecord
  2
*Paper_Space
340
1E
  0
BLOCK_RECORD
  5
23
330
1
100
AcDbSymbolTableRecord
100
AcDbBlockTableRecord
  2
*Paper_Space0
340
26
  0
BLOCK_RECORD
  5
76
330
1
100
AcDbSymbolTableRecord
100
AcDbBlockTableRecord
  2
UCT_EM_17X9-select__1
340
0
102
{BLKREFS
331
7A
102
}
  0
BLOCK_RECORD
  5
79
330
1
100
AcDbSymbolTableRecord
100
AcDbBlockTableRecord
  2
Allg1
340
0
102
{BLKREFS
331
AC
102
}
  0
BLOCK_RECORD
  5
7D
330
1
100
AcDbSymbolTableRecord
100
AcDbBlockTableRecord
  2
UCT_EM_17X9-select__2
340
0
102
{BLKREFS
331
81
102
}
  0
BLOCK_RECORD
  5
80
330
1
100
AcDbSymbolTableRecord
100
AcDbBlockTableRecord
  2
SA_Rechts1
340
0
102
{BLKREFS
331
AD
102
}
  0
BLOCK_RECORD
  5
84
330
1
100
AcDbSymbolTableRecord
100
AcDbBlockTableRecord
  2
UCT_EM_17X9-select__3
340
0
102
{BLKREFS
331
88
102
}
  0
BLOCK_RECORD
  5
87
330
1
100
AcDbSymbolTableRecord
100
AcDbBlockTableRecord
  2
Vordans1
340
0
102
{BLKREFS
331
AE
102
}
  0
BLOCK_RECORD
  5
8B
330
1
100
AcDbSymbolTableRecord
100
AcDbBlockTableRecord
  2
UCT_EM_17X9-select__4
340
0
102
{BLKREFS
331
8F
102
}
  0
BLOCK_RECORD
  5
8E
330
1
100
AcDbSymbolTableRecord
100
AcDbBlockTableRecord
  2
Drfsicht1
340
0
102
{BLKREFS
331
AF
102
}
  0
BLOCK_RECORD
  5
92
330
1
100
AcDbSymbolTableRecord
100
AcDbBlockTableRecord
  2
UCT_EM_17X9-select__5
340
0
102
{BLKREFS
331
96
102
}
  0
BLOCK_RECORD
  5
95
330
1
100
AcDbSymbolTableRecord
100
AcDbBlockTableRecord
  2
SA_Links1
340
0
102
{BLKREFS
331
B0
102
}
  0
BLOCK_RECORD
  5
99
330
1
100
AcDbSymbolTableRecord
100
AcDbBlockTableRecord
  2
UCT_EM_17X9-select__6
340
0
102
{BLKREFS
331
9D
102
}
  0
BLOCK_RECORD
  5
9C
330
1
100
AcDbSymbolTableRecord
100
AcDbBlockTableRecord
  2
Rückansicht1
340
0
102
{BLKREFS
331
B1
102
}
  0
BLOCK_RECORD
  5
A0
330
1
100
AcDbSymbolTableRecord
100
AcDbBlockTableRecord
  2
_rahmen
340
0
102
{BLKREFS
331
A7
102
}
  0
BLOCK_RECORD
  5
A3
330
1
100
AcDbSymbolTableRecord
100
AcDbBlockTableRecord
  2
_punkt
340
0
102
{BLKREFS
331
A8
102
}
  0
BLOCK_RECORD
  5
A6
330
1
100
AcDbSymbolTableRecord
100
AcDbBlockTableRecord
  2
A4I_CS
340
0
102
{BLKREFS
331
B2
102
}
  0
BLOCK_RECORD
  5
AB
330
1
100
AcDbSymbolTableRecord
100
AcDbBlockTableRecord
  2
1
340
0
102
{BLKREFS
331
B5
102
}
  0
BLOCK_RECORD
  5
129
330
1
100
AcDbSymbolTableRecord
100
AcDbBlockTableRecord
  2
*D17
340
0
  0
BLOCK_RECORD
  5
134
330
1
100
AcDbSymbolTableRecord
100
AcDbBlockTableRecord
  2
*D18
340
0
  0
BLOCK_RECORD
  5
14E
330
1
100
AcDbSymbolTableRecord
100
AcDbBlockTableRecord
  2
*D19
340
0
  0
ENDTAB
  0
ENDSEC
  0
SECTION
  2
BLOCKS
  0
BLOCK
  5
20
330
1F
100
AcDbEntity
  8
0
100
AcDbBlockBegin
  2
*Model_Space
 70
     0
 10
0.0
 20
0.0
 30
0.0
  3
*Model_Space
  1

  0
ENDBLK
  5
21
330
1F
100
AcDbEntity
  8
0
100
AcDbBlockEnd
  0
BLOCK
  5
1C
330
1B
100
AcDbEntity
 67
     1
  8
0
100
AcDbBlockBegin
  2
*Paper_Space
 70
     0
 10
0.0
 20
0.0
 30
0.0
  3
*Paper_Space
  1

  0
ENDBLK
  5
1D
330
1B
100
AcDbEntity
 67
     1
  8
0
100
AcDbBlockEnd
  0
BLOCK
  5
24
330
23
100
AcDbEntity
  8
0
100
AcDbBlockBegin
  2
*Paper_Space0
 70
     0
 10
0.0
 20
0.0
 30
0.0
  3
*Paper_Space0
  1

  0
ENDBLK
  5
25
330
23
100
AcDbEntity
  8
0
100
AcDbBlockEnd
  0
BLOCK
  5
77
330
76
100
AcDbEntity
  8
0
100
AcDbBlockBegin
  2
UCT_EM_17X9-select__1
 70
     0
 10
-103.0605142896218
 20
-96.66601029846659
 30
0.0
  3
UCT_EM_17X9-select__1
  1

  0
LINE
  5
B6
330
76
100
AcDbEntity
  8
0
  6
Continuous
 62
     7
100
AcDbLine
 10
-103.0605142896218
 20
-92.23623535730232
 30
0.0
 11
-101.5016685628098
 21
-92.68623535730264
 31
0.0
  0
LINE
  5
B7
330
76
100
AcDbEntity
  8
0
  6
Continuous
 62
     7
100
AcDbLine
 10
-103.0605142896218
 20
-92.23623535730232
 30
0.0
 11
-102.9230757921647
 21
-91.22189287575198
 31
0.0
  0
LINE
  5
B8
330
76
100
AcDbEntity
  8
0
  6
Continuous
 62
     7
100
AcDbLine
 10
-96.99833646313076
 20
-93.98623535730263
 30
0.0
 11
-97.56125297559065
 21
-93.82373535730262
 31
0.0
  0
LINE
  5
B9
330
76
100
AcDbEntity
  8
0
  6
Continuous
 62
     7
100
AcDbLine
 10
-100.93875205035
 20
-92.84873535730263
 30
0.0
 11
-97.56125297559065
 21
-93.82373535730262
 31
0.0
  0
LINE
  5
BA
330
76
100
AcDbEntity
  8
0
  6
Continuous
 62
     7
100
AcDbLine
 10
-97.56125297559065
 20
-96.50841410903426
 30
0.0
 11
-97.56125297559065
 21
-93.82373535730262
 31
0.0
  0
LINE
  5
BB
330
76
100
AcDbEntity
  8
0
  6
Continuous
 62
     7
100
AcDbLine
 10
-101.9346812647021
 20
-94.29328616487138
 30
0.0
 11
-101.9346812647021
 21
-94.46649124562826
 31
0.0
  0
LINE
  5
BC
330
76
100
AcDbEntity
  8
0
  6
Continuous
 62
     7
100
AcDbLine
 10
-101.5016685628098
 20
-92.68623535730264
 30
0.0
 11
-101.5016685628098
 21
-94.41828616487138
 31
0.0
  0
LINE
  5
BD
330
76
100
AcDbEntity
  8
0
  6
Continuous
 62
     7
100
AcDbLine
 10
-100.93875205035
 20
-95.53341410903425
 30
0.0
 11
-101.4846812647021
 21
-95.37581791960191
 31
0.0
  0
LINE
  5
BE
330
76
100
AcDbEntity
  8
0
  6
Continuous
 62
     7
100
AcDbLine
 10
-101.4846812647021
 20
-95.37581791960191
 30
0.0
 11
-101.9346812647021
 21
-94.46649124562826
 31
0.0
  0
LINE
  5
BF
330
76
100
AcDbEntity
  8
0
  6
Continuous
 62
     7
100
AcDbLine
 10
-101.9346812647021
 20
-94.29328616487138
 30
0.0
 11
-101.5016685628098
 21
-93.91828616487136
 31
0.0
  0
LINE
  5
C0
330
76
100
AcDbEntity
  8
0
  6
Continuous
 62
     7
100
AcDbLine
 10
-101.9346812647021
 20
-94.29328616487138
 30
0.0
 11
-101.5016685628098
 21
-94.41828616487138
 31
0.0
  0
LINE
  5
C1
330
76
100
AcDbEntity
  8
0
  6
Continuous
 62
     7
100
AcDbLine
 10
-100.93875205035
 20
-95.53341410903425
 30
0.0
 11
-100.93875205035
 21
-92.84873535730263
 31
0.0
  0
LINE
  5
C2
330
76
100
AcDbEntity
  8
0
  6
Continuous
 62
     7
100
AcDbLine
 10
-100.93875205035
 20
-95.53341410903425
 30
0.0
 11
-98.61375205034982
 21
-93.51990504523529
 31
0.0
  0
LINE
  5
C3
330
76
100
AcDbEntity
  8
0
  6
Continuous
 62
     7
100
AcDbLine
 10
-86.93949073631879
 20
-87.07501942513481
 30
0.0
 11
-87.07692923377581
 21
-86.09750347798729
 31
0.0
  0
LINE
  5
C4
330
76
100
AcDbEntity
  8
0
  6
Continuous
 62
     7
100
AcDbLine
 10
-90.41532376123853
 20
-90.69043501235396
 30
0.0
 11
-90.86532376123853
 21
-91.33995406519229
 31
0.0
  0
LINE
  5
C5
330
76
100
AcDbEntity
  8
0
  6
Continuous
 62
     7
100
AcDbLine
 10
-88.06532376123855
 20
-88.48207023270365
 30
0.0
 11
-88.06532376123855
 21
-88.65527531346054
 31
0.0
  0
LINE
  5
C6
330
76
100
AcDbEntity
  8
0
  6
Continuous
 62
     7
100
AcDbLine
 10
-88.06532376123855
 20
-88.65527531346054
 30
0.0
 11
-88.51532376123853
 21
-89.30479436629885
 31
0.0
  0
LINE
  5
C7
330
76
100
AcDbEntity
  8
0
  6
Continuous
 62
     7
100
AcDbLine
 10
-90.78949073631875
 20
-90.40921722970484
 30
0.0
 11
-90.41532376123853
 21
-90.51722993159707
 31
0.0
  0
LINE
  5
C8
330
76
100
AcDbEntity
  8
0
  6
Continuous
 62
     7
100
AcDbLine
 10
-90.41532376123853
 20
-90.51722993159707
 30
0.0
 11
-88.06532376123855
 21
-88.48207023270365
 31
0.0
  0
LINE
  5
C9
330
76
100
AcDbEntity
  8
0
  6
Continuous
 62
     7
100
AcDbLine
 10
-90.41532376123853
 20
-90.51722993159707
 30
0.0
 11
-90.41532376123853
 21
-90.69043501235396
 31
0.0
  0
LINE
  5
CA
330
76
100
AcDbEntity
  8
0
  6
Continuous
 62
     7
100
AcDbLine
 10
-88.43949073631879
 20
-88.37405753081143
 30
0.0
 11
-88.06532376123855
 21
-88.48207023270365
 31
0.0
  0
LINE
  5
CB
330
76
100
AcDbEntity
  8
0
  6
Continuous
 62
     7
100
AcDbLine
 10
-90.41532376123853
 20
-90.69043501235396
 30
0.0
 11
-88.06532376123855
 21
-88.65527531346054
 31
0.0
  0
LINE
  5
CC
330
76
100
AcDbEntity
  8
0
  6
Continuous
 62
     7
100
AcDbLine
 10
-88.51532376123853
 20
-89.30479436629885
 30
0.0
 11
-90.86532376123853
 21
-91.33995406519229
 31
0.0
  0
LINE
  5
CD
330
76
100
AcDbEntity
  8
0
  6
Continuous
 62
     7
100
AcDbLine
 10
-91.14032376123853
 20
-91.1450983493408
 30
0.0
 11
-91.51449073631879
 21
-91.03708564744858
 31
0.0
  0
LINE
  5
CE
330
76
100
AcDbEntity
  8
0
  6
Continuous
 62
     7
100
AcDbLine
 10
-91.14032376123853
 20
-91.31830343009769
 30
0.0
 11
-91.14032376123853
 21
-91.1450983493408
 31
0.0
  0
LINE
  5
CF
330
76
100
AcDbEntity
  8
0
  6
Continuous
 62
     7
100
AcDbLine
 10
-90.86532376123853
 20
-91.33995406519229
 30
0.0
 11
-91.14032376123856
 21
-91.2605684031787
 31
0.0
  0
LINE
  5
D0
330
76
100
AcDbEntity
  8
0
  6
Continuous
 62
     7
100
AcDbLine
 10
-93.94032376123855
 20
-94.00298218182944
 30
0.0
 11
-94.21532376123855
 21
-93.92359651981585
 31
0.0
  0
LINE
  5
D1
330
76
100
AcDbEntity
  8
0
  6
Continuous
 62
     7
100
AcDbLine
 10
-91.59032376123855
 20
-91.96782248293601
 30
0.0
 11
-91.14032376123853
 21
-91.31830343009769
 31
0.0
  0
LINE
  5
D2
330
76
100
AcDbEntity
  8
0
  6
Continuous
 62
     7
100
AcDbLine
 10
-93.49032376123853
 20
-93.35346312899111
 30
0.0
 11
-91.14032376123853
 21
-91.31830343009769
 31
0.0
  0
LINE
  5
D3
330
76
100
AcDbEntity
  8
0
  6
Continuous
 62
     7
100
AcDbLine
 10
-93.49032376123853
 20
-93.35346312899111
 30
0.0
 11
-93.94032376123855
 21
-94.00298218182944
 31
0.0
  0
LINE
  5
D4
330
76
100
AcDbEntity
  8
0
  6
Continuous
 62
     7
100
AcDbLine
 10
-93.94032376123855
 20
-94.00298218182944
 30
0.0
 11
-91.59032376123855
 21
-91.96782248293601
 31
0.0
  0
LINE
  5
D5
330
76
100
AcDbEntity
  8
0
  6
Continuous
 62
     7
100
AcDbLine
 10
-94.48625297559063
 20
-93.72991593855919
 30
0.0
 11
-94.48625297559063
 21
-93.61070724066532
 31
0.0
  0
LINE
  5
D6
330
76
100
AcDbEntity
  8
0
  6
Continuous
 62
     7
100
AcDbLine
 10
-93.49032376123853
 20
-93.18025804823422
 30
0.0
 11
-91.14032376123853
 21
-91.1450983493408
 31
0.0
  0
LINE
  5
D7
330
76
100
AcDbEntity
  8
0
  6
Continuous
 62
     7
100
AcDbLine
 10
-91.41125297559063
 20
-91.06688782192204
 30
0.0
 11
-91.41125297559063
 21
-90.94767912402818
 31
0.0
  0
LINE
  5
D8
330
76
100
AcDbEntity
  8
0
  6
Continuous
 62
     7
100
AcDbLine
 10
-94.52368775521927
 20
-83.94780945951452
 30
0.0
 11
-87.07692923377581
 21
-86.09750347798729
 31
0.0
  0
LINE
  5
D9
330
76
100
AcDbEntity
  8
0
  6
Continuous
 62
     7
100
AcDbLine
 10
-95.47631727072132
 20
-93.37158689422472
 30
0.0
 11
-95.43949073631875
 21
-94.43623535730232
 31
0.0
  0
LINE
  5
DA
330
76
100
AcDbEntity
  8
0
  6
Continuous
 62
     7
100
AcDbLine
 10
-87.07692923377581
 20
-86.09750347798729
 30
0.0
 11
-95.47631727072132
 21
-93.37158689422472
 31
0.0
  0
LINE
  5
DB
330
76
100
AcDbEntity
  8
0
  6
Continuous
 62
     7
100
AcDbLine
 10
-95.43949073631875
 20
-94.43623535730232
 30
0.0
 11
-96.99833646313076
 21
-93.98623535730263
 31
0.0
  0
LINE
  5
DC
330
76
100
AcDbEntity
  8
0
  6
Continuous
 62
     7
100
AcDbLine
 10
-94.21532376123855
 20
-93.80812646597795
 30
0.0
 11
-94.58949073631878
 21
-93.70011376408571
 31
0.0
  0
LINE
  5
DD
330
76
100
AcDbEntity
  8
0
  6
Continuous
 62
     7
100
AcDbLine
 10
-94.21532376123855
 20
-93.98133154673484
 30
0.0
 11
-94.21532376123855
 21
-93.80812646597795
 31
0.0
  0
LINE
  5
DE
330
76
100
AcDbEntity
  8
0
  6
Continuous
 62
     7
100
AcDbLine
 10
-94.66532376123854
 20
-94.63085059957317
 30
0.0
 11
-94.21532376123855
 21
-93.98133154673484
 31
0.0
  0
LINE
  5
DF
330
76
100
AcDbEntity
  8
0
  6
Continuous
 62
     7
100
AcDbLine
 10
-96.56532376123855
 20
-95.84328616487137
 30
0.0
 11
-94.21532376123855
 21
-93.80812646597795
 31
0.0
  0
LINE
  5
E0
330
76
100
AcDbEntity
  8
0
  6
Continuous
 62
     7
100
AcDbLine
 10
-96.56532376123855
 20
-95.84328616487137
 30
0.0
 11
-96.99833646313076
 21
-95.71828616487137
 31
0.0
  0
LINE
  5
E1
330
76
100
AcDbEntity
  8
0
  6
Continuous
 62
     7
100
AcDbLine
 10
-96.56532376123855
 20
-95.84328616487137
 30
0.0
 11
-96.56532376123855
 21
-96.01649124562826
 31
0.0
  0
LINE
  5
E2
330
76
100
AcDbEntity
  8
0
  6
Continuous
 62
     7
100
AcDbLine
 10
-97.01532376123853
 20
-96.66601029846659
 30
0.0
 11
-96.56532376123855
 21
-96.01649124562826
 31
0.0
  0
LINE
  5
E3
330
76
100
AcDbEntity
  8
0
  6
Continuous
 62
     7
100
AcDbLine
 10
-97.01532376123853
 20
-96.66601029846659
 30
0.0
 11
-94.66532376123854
 21
-94.63085059957317
 31
0.0
  0
LINE
  5
E4
330
76
100
AcDbEntity
  8
0
  6
Continuous
 62
     7
100
AcDbLine
 10
-96.99833646313076
 20
-93.98623535730263
 30
0.0
 11
-96.99833646313076
 21
-95.71828616487137
 31
0.0
  0
LINE
  5
E5
330
76
100
AcDbEntity
  8
0
  6
Continuous
 62
     7
100
AcDbLine
 10
-96.99833646313076
 20
-95.71828616487137
 30
0.0
 11
-95.49833646313076
 21
-94.4192480591947
 31
0.0
  0
LINE
  5
E6
330
76
100
AcDbEntity
  8
0
  6
Continuous
 62
     7
100
AcDbLine
 10
-96.56532376123855
 20
-96.01649124562826
 30
0.0
 11
-94.21532376123855
 21
-93.98133154673484
 31
0.0
  0
LINE
  5
E7
330
76
100
AcDbEntity
  8
0
  6
Continuous
 62
     7
100
AcDbLine
 10
-97.56125297559065
 20
-96.50841410903426
 30
0.0
 11
-97.01532376123853
 21
-96.66601029846659
 31
0.0
  0
LINE
  5
E8
330
76
100
AcDbEntity
  8
0
  6
Continuous
 62
     7
100
AcDbLine
 10
-93.49032376123853
 20
-93.18025804823422
 30
0.0
 11
-93.49032376123853
 21
-93.35346312899111
 31
0.0
  0
LINE
  5
E9
330
76
100
AcDbEntity
  8
0
  6
Continuous
 62
     7
100
AcDbLine
 10
-93.86449073631877
 20
-93.07224534634199
 30
0.0
 11
-93.49032376123853
 21
-93.18025804823422
 31
0.0
  0
LINE
  5
EA
330
76
100
AcDbEntity
  8
0
  6
Continuous
 62
     7
100
AcDbLine
 10
-101.5016685628098
 20
-92.68623535730264
 30
0.0
 11
-100.93875205035
 21
-92.84873535730263
 31
0.0
  0
LINE
  5
EB
330
76
100
AcDbEntity
  8
0
  6
Continuous
 62
     7
100
AcDbLine
 10
-102.9230757921647
 20
-91.22189287575198
 30
0.0
 11
-95.47631727072132
 21
-93.37158689422472
 31
0.0
  0
LINE
  5
EC
330
76
100
AcDbEntity
  8
0
  6
Continuous
 62
     7
100
AcDbLine
 10
-94.52368775521927
 20
-83.94780945951452
 30
0.0
 11
-102.9230757921647
 21
-91.22189287575198
 31
0.0
  0
LINE
  5
ED
330
76
100
AcDbEntity
  8
0
  6
Continuous
 62
     7
100
AcDbLine
 10
-86.93949073631879
 20
-87.07501942513481
 30
0.0
 11
-95.43949073631875
 21
-94.43623535730232
 31
0.0
  0
ENDBLK
  5
78
330
76
100
AcDbEntity
  8
0
100
AcDbBlockEnd
  0
BLOCK
  5
7B
330
79
100
AcDbEntity
  8
0
100
AcDbBlockBegin
  2
Allg1
 70
     0
 10
-95.00000000000695
 20
-90.50000000001103
 30
0.0
  3
Allg1
  1

  0
INSERT
  5
7A
330
79
100
AcDbEntity
  8
0
100
AcDbBlockReference
  2
UCT_EM_17X9-select__1
 10
-103.0605142896218
 20
-96.66601029846659
 30
0.0
  0
MTEXT
  5
EF
330
79
100
AcDbEntity
  8
1
 62
     6
100
AcDbMText
 10
-95.00000000000699
 20
-99.6209119580775
 30
0.0
 40
2.5
 41
0.0
 71
     2
 72
     1
  1
 
  7
CONVERTER_11
 73
     1
 44
1.32052821128451
  0
ENDBLK
  5
7C
330
79
100
AcDbEntity
  8
0
100
AcDbBlockEnd
  0
BLOCK
  5
7E
330
7D
100
AcDbEntity
  8
0
100
AcDbBlockBegin
  2
UCT_EM_17X9-select__2
 70
     0
 10
-169.5000050547636
 20
-62.62499996185581
 30
0.0
  3
UCT_EM_17X9-select__2
  1

  0
LINE
  5
F0
330
7D
100
AcDbEntity
  8
0
  6
Continuous
 62
     7
100
AcDbLine
 10
-152.5000050547636
 20
-61.52499996185581
 30
0.0
 11
-152.5000050547637
 21
-59.52499996185583
 31
0.0
  0
LINE
  5
F1
330
7D
100
AcDbEntity
  8
0
  6
Continuous
 62
     7
100
AcDbLine
 10
-157.2000050547636
 20
-61.72499996185582
 30
0.0
 11
-157.2000050547636
 21
-62.62499996185581
 31
0.0
  0
LINE
  5
F2
330
7D
100
AcDbEntity
  8
0
  6
Continuous
 62
     7
100
AcDbLine
 10
-152.5000050547636
 20
-61.72499996185582
 30
0.0
 11
-152.5000050547636
 21
-62.62499996185581
 31
0.0
  0
LINE
  5
F3
330
7D
100
AcDbEntity
  8
0
  6
Continuous
 62
     7
100
AcDbLine
 10
-152.5000050547636
 20
-62.62499996185581
 30
0.0
 11
-157.2000050547636
 21
-62.62499996185581
 31
0.0
  0
LINE
  5
F4
330
7D
100
AcDbEntity
  8
0
  6
Continuous
 62
     7
100
AcDbLine
 10
-157.2000050547636
 20
-61.52499996185581
 30
0.0
 11
-157.2000050547636
 21
-59.52499996185577
 31
0.0
  0
LINE
  5
F5
330
7D
100
AcDbEntity
  8
0
  6
Continuous
 62
     7
100
AcDbLine
 10
-169.5000050547636
 20
-61.52499996185581
 30
0.0
 11
-164.8000050547636
 21
-61.52499996185581
 31
0.0
  0
LINE
  5
F6
330
7D
100
AcDbEntity
  8
0
  6
Continuous
 62
     7
100
AcDbLine
 10
-157.2000050547636
 20
-61.52499996185581
 30
0.0
 11
-152.5000050547636
 21
-61.52499996185581
 31
0.0
  0
LINE
  5
F7
330
7D
100
AcDbEntity
  8
0
  6
Continuous
 62
     7
100
AcDbLine
 10
-157.2000050547636
 20
-61.52499996185581
 30
0.0
 11
-157.2000050547636
 21
-61.72499996185582
 31
0.0
  0
LINE
  5
F8
330
7D
100
AcDbEntity
  8
0
  6
Continuous
 62
     7
100
AcDbLine
 10
-152.5000050547636
 20
-61.52499996185581
 30
0.0
 11
-152.5000050547636
 21
-61.72499996185582
 31
0.0
  0
LINE
  5
F9
330
7D
100
AcDbEntity
  8
0
  6
Continuous
 62
     7
100
AcDbLine
 10
-169.5000050547636
 20
-61.72499996185582
 30
0.0
 11
-169.5000050547636
 21
-61.52499996185581
 31
0.0
  0
LINE
  5
FA
330
7D
100
AcDbEntity
  8
0
  6
Continuous
 62
     7
100
AcDbLine
 10
-169.5000050547636
 20
-61.72499996185582
 30
0.0
 11
-164.8000050547636
 21
-61.72499996185582
 31
0.0
  0
LINE
  5
FB
330
7D
100
AcDbEntity
  8
0
  6
Continuous
 62
     7
100
AcDbLine
 10
-163.3500050547636
 20
-61.7249999618558
 30
0.0
 11
-158.6500050547636
 21
-61.72499996185582
 31
0.0
  0
LINE
  5
FC
330
7D
100
AcDbEntity
  8
0
  6
Continuous
 62
     7
100
AcDbLine
 10
-157.2000050547636
 20
-61.72499996185582
 30
0.0
 11
-152.5000050547636
 21
-61.72499996185582
 31
0.0
  0
LINE
  5
FD
330
7D
100
AcDbEntity
  8
0
  6
Continuous
 62
     7
100
AcDbLine
 10
-158.6500050547636
 20
-62.62499996185581
 30
0.0
 11
-158.6500050547636
 21
-61.72499996185582
 31
0.0
  0
LINE
  5
FE
330
7D
100
AcDbEntity
  8
0
  6
Continuous
 62
     7
100
AcDbLine
 10
-164.8000050547636
 20
-62.62499996185581
 30
0.0
 11
-164.8000050547636
 21
-61.72499996185582
 31
0.0
  0
LINE
  5
FF
330
7D
100
AcDbEntity
  8
0
  6
Continuous
 62
     7
100
AcDbLine
 10
-163.3500050547636
 20
-62.62499996185581
 30
0.0
 11
-158.6500050547636
 21
-62.62499996185581
 31
0.0
  0
LINE
  5
100
330
7D
100
AcDbEntity
  8
0
  6
Continuous
 62
     7
100
AcDbLine
 10
-163.3500050547636
 20
-59.5249999618557
 30
0.0
 11
-164.8000050547636
 21
-59.52499996185568
 31
0.0
  0
LINE
  5
101
330
7D
100
AcDbEntity
  8
0
  6
Continuous
 62
     7
100
AcDbLine
 10
-157.2000050547636
 20
-59.52499996185577
 30
0.0
 11
-158.6500050547636
 21
-59.52499996185576
 31
0.0
  0
LINE
  5
102
330
7D
100
AcDbEntity
  8
0
  6
Continuous
 62
     7
100
AcDbLine
 10
-164.8000050547636
 20
-59.52499996185568
 30
0.0
 11
-169.5000050547636
 21
-59.52499996185597
 31
0.0
  0
LINE
  5
103
330
7D
100
AcDbEntity
  8
0
  6
Continuous
 62
     7
100
AcDbLine
 10
-152.5000050547637
 20
-59.52499996185583
 30
0.0
 11
-157.2000050547636
 21
-59.52499996185577
 31
0.0
  0
LINE
  5
104
330
7D
100
AcDbEntity
  8
0
  6
Continuous
 62
     7
100
AcDbLine
 10
-158.6500050547636
 20
-61.52499996185581
 30
0.0
 11
-158.6500050547636
 21
-61.72499996185582
 31
0.0
  0
LINE
  5
105
330
7D
100
AcDbEntity
  8
0
  6
Continuous
 62
     7
100
AcDbLine
 10
-158.6500050547636
 20
-59.52499996185576
 30
0.0
 11
-158.6500050547636
 21
-61.52499996185581
 31
0.0
  0
LINE
  5
106
330
7D
100
AcDbEntity
  8
0
  6
Continuous
 62
     7
100
AcDbLine
 10
-163.3500050547636
 20
-61.52499996185581
 30
0.0
 11
-163.3500050547636
 21
-59.5249999618557
 31
0.0
  0
LINE
  5
107
330
7D
100
AcDbEntity
  8
0
  6
Continuous
 62
     7
100
AcDbLine
 10
-164.8000050547636
 20
-61.52499996185581
 30
0.0
 11
-164.8000050547636
 21
-59.52499996185568
 31
0.0
  0
LINE
  5
108
330
7D
100
AcDbEntity
  8
0
  6
Continuous
 62
     7
100
AcDbLine
 10
-163.3500050547636
 20
-61.52499996185581
 30
0.0
 11
-158.6500050547636
 21
-61.52499996185581
 31
0.0
  0
LINE
  5
109
330
7D
100
AcDbEntity
  8
0
  6
Continuous
 62
     7
100
AcDbLine
 10
-169.5000050547636
 20
-59.52499996185597
 30
0.0
 11
-169.5000050547636
 21
-61.52499996185581
 31
0.0
  0
LINE
  5
10A
330
7D
100
AcDbEntity
  8
0
  6
Continuous
 62
     7
100
AcDbLine
 10
-163.3500050547636
 20
-61.7249999618558
 30
0.0
 11
-163.3500050547636
 21
-61.52499996185581
 31
0.0
  0
LINE
  5
10B
330
7D
100
AcDbEntity
  8
0
  6
Continuous
 62
     7
100
AcDbLine
 10
-164.8000050547636
 20
-61.52499996185581
 30
0.0
 11
-164.8000050547636
 21
-61.72499996185582
 31
0.0
  0
LINE
  5
10C
330
7D
100
AcDbEntity
  8
0
  6
Continuous
 62
     7
100
AcDbLine
 10
-163.3500050547636
 20
-61.7249999618558
 30
0.0
 11
-163.3500050547636
 21
-62.62499996185581
 31
0.0
  0
LINE
  5
10D
330
7D
100
AcDbEntity
  8
0
  6
Continuous
 62
     7
100
AcDbLine
 10
-169.5000050547636
 20
-62.62499996185581
 30
0.0
 11
-164.8000050547636
 21
-62.62499996185581
 31
0.0
  0
LINE
  5
10E
330
7D
100
AcDbEntity
  8
0
  6
Continuous
 62
     7
100
AcDbLine
 10
-169.5000050547636
 20
-62.62499996185581
 30
0.0
 11
-169.5000050547636
 21
-61.72499996185582
 31
0.0
  0
LINE
  5
10F
330
7D
100
AcDbEntity
  8
0
  6
Continuous
 62
     7
100
AcDbLine
 10
-158.6500050547636
 20
-59.52499996185576
 30
0.0
 11
-163.3500050547636
 21
-59.5249999618557
 31
0.0
  0
LINE
  5
110
330
7D
100
AcDbEntity
  8
0
  6
Continuous
 62
     7
100
AcDbLine
 10
-152.5000050547637
 20
-59.52499996185583
 30
0.0
 11
-152.6006170178181
 21
-58.37499996185966
 31
0.0
  0
LINE
  5
111
330
7D
100
AcDbEntity
  8
0
  6
Continuous
 62
     7
100
AcDbLine
 10
-152.6006170178181
 20
-58.37499996185966
 30
0.0
 11
-169.3993930917091
 21
-58.37499996185914
 31
0.0
  0
LINE
  5
112
330
7D
100
AcDbEntity
  8
0
  6
Continuous
 62
     7
100
AcDbLine
 10
-169.3993930917091
 20
-58.37499996185914
 30
0.0
 11
-169.5000050547636
 21
-59.52499996185597
 31
0.0
  0
ENDBLK
  5
7F
330
7D
100
AcDbEntity
  8
0
100
AcDbBlockEnd
  0
BLOCK
  5
82
330
80
100
AcDbEntity
  8
0
100
AcDbBlockBegin
  2
SA_Rechts1
 70
     0
 10
-161.000000000015
 20
-60.500000000005
 30
0.0
  3
SA_Rechts1
  1

  0
INSERT
  5
81
330
80
100
AcDbEntity
  8
0
100
AcDbBlockReference
  2
UCT_EM_17X9-select__2
 10
-169.5000050547636
 20
-62.62499996185581
 30
0.0
  0
MTEXT
  5
113
330
80
100
AcDbEntity
  8
1
 62
     6
100
AcDbMText
 10
-161.000000000015
 20
-65.12500000000682
 30
0.0
 40
2.5
 41
0.0
 71
     2
 72
     1
  1
 
  7
CONVERTER_11
 73
     1
 44
1.32052821128451
  0
ENDBLK
  5
83
330
80
100
AcDbEntity
  8
0
100
AcDbBlockEnd
  0
BLOCK
  5
85
330
84
100
AcDbEntity
  8
0
100
AcDbBlockBegin
  2
UCT_EM_17X9-select__3
 70
     0
 10
-142.4999999475955
 20
-62.62499996186284
 30
0.0
  3
UCT_EM_17X9-select__3
  1

  0
LINE
  5
114
330
84
100
AcDbEntity
  8
0
  6
Continuous
 62
     7
100
AcDbLine
 10
-142.4999999475955
 20
-59.52499996185979
 30
0.0
 11
-140.6999999475955
 21
-59.52499996186062
 31
0.0
  0
LINE
  5
115
330
84
100
AcDbEntity
  8
0
  6
Continuous
 62
     7
100
AcDbLine
 10
-140.6999999475955
 20
-59.52499996186062
 30
0.0
 11
-140.6999999475964
 21
-61.52499996186072
 31
0.0
  0
LINE
  5
116
330
84
100
AcDbEntity
  8
0
  6
Continuous
 62
     7
100
AcDbLine
 10
-141.1999999475964
 20
-61.52499996186052
 30
0.0
 11
-141.1999999475964
 21
-61.72499996186052
 31
0.0
  0
LINE
  5
117
330
84
100
AcDbEntity
  8
0
  6
Continuous
 62
     7
100
AcDbLine
 10
-141.1999999475964
 20
-61.72499996186052
 30
0.0
 11
-140.6803847053261
 21
-62.62499996186073
 31
0.0
  0
LINE
  5
118
330
84
100
AcDbEntity
  8
0
  6
Continuous
 62
     7
100
AcDbLine
 10
-140.6999999475955
 20
-59.52499996186062
 30
0.0
 11
-140.0499999475955
 21
-59.52499996186087
 31
0.0
  0
LINE
  5
119
330
84
100
AcDbEntity
  8
0
  6
Continuous
 62
     7
100
AcDbLine
 10
-135.4999999475955
 20
-59.52499996186274
 30
0.0
 11
-136.1499999475955
 21
-59.52499996186247
 31
0.0
  0
LINE
  5
11A
330
84
100
AcDbEntity
  8
0
  6
Continuous
 62
     7
100
AcDbLine
 10
-140.0499999475955
 20
-59.52499996186087
 30
0.0
 11
-136.1499999475955
 21
-59.52499996186247
 31
0.0
  0
LINE
  5
11B
330
84
100
AcDbEntity
  8
0
  6
Continuous
 62
     7
100
AcDbLine
 10
-133.6999999475955
 20
-59.52499996186339
 30
0.0
 11
-135.4999999475955
 21
-59.52499996186274
 31
0.0
  0
LINE
  5
11C
330
84
100
AcDbEntity
  8
0
  6
Continuous
 62
     7
100
AcDbLine
 10
-142.3993879845405
 20
-58.37499996186335
 30
0.0
 11
-133.8006119106496
 21
-58.37499996186687
 31
0.0
  0
LINE
  5
11D
330
84
100
AcDbEntity
  8
0
  6
Continuous
 62
     7
100
AcDbLine
 10
-140.6999999475964
 20
-61.52499996186072
 30
0.0
 11
-141.1999999475964
 21
-61.52499996186052
 31
0.0
  0
LINE
  5
11E
330
84
100
AcDbEntity
  8
0
  6
Continuous
 62
     7
100
AcDbLine
 10
-142.4999999475955
 20
-59.52499996185979
 30
0.0
 11
-142.3993879845405
 21
-58.37499996186335
 31
0.0
  0
LINE
  5
11F
330
84
100
AcDbEntity
  8
0
  6
Continuous
 62
     7
100
AcDbLine
 10
-140.6803847053261
 20
-62.62499996186073
 30
0.0
 11
-140.0499999475968
 21
-62.62499996186099
 31
0.0
  0
LINE
  5
120
330
84
100
AcDbEntity
  8
0
  6
Continuous
 62
     7
100
AcDbLine
 10
-140.0499999475968
 20
-62.62499996186099
 30
0.0
 11
-140.0499999475955
 21
-59.52499996186087
 31
0.0
  0
LINE
  5
121
330
84
100
AcDbEntity
  8
0
  6
Continuous
 62
     7
100
AcDbLine
 10
-135.4999999475955
 20
-59.52499996186274
 30
0.0
 11
-135.4999999475963
 21
-61.52499996186285
 31
0.0
  0
LINE
  5
122
330
84
100
AcDbEntity
  8
0
  6
Continuous
 62
     7
100
AcDbLine
 10
-135.4999999475963
 20
-61.52499996186285
 30
0.0
 11
-134.9999999475963
 21
-61.52499996186306
 31
0.0
  0
LINE
  5
123
330
84
100
AcDbEntity
  8
0
  6
Continuous
 62
     7
100
AcDbLine
 10
-134.9999999475963
 20
-61.52499996186306
 30
0.0
 11
-134.9999999475964
 21
-61.72499996186305
 31
0.0
  0
LINE
  5
124
330
84
100
AcDbEntity
  8
0
  6
Continuous
 62
     7
100
AcDbLine
 10
-133.8006119106496
 20
-58.37499996186687
 30
0.0
 11
-133.6999999475955
 21
-59.52499996186339
 31
0.0
  0
LINE
  5
125
330
84
100
AcDbEntity
  8
0
  6
Continuous
 62
     7
100
AcDbLine
 10
-136.1499999475968
 20
-62.62499996186259
 30
0.0
 11
-136.1499999475955
 21
-59.52499996186247
 31
0.0
  0
LINE
  5
126
330
84
100
AcDbEntity
  8
0
  6
Continuous
 62
     7
100
AcDbLine
 10
-135.5196151898675
 20
-62.62499996186284
 30
0.0
 11
-136.1499999475968
 21
-62.62499996186259
 31
0.0
  0
LINE
  5
127
330
84
100
AcDbEntity
  8
0
  6
Continuous
 62
     7
100
AcDbLine
 10
-134.9999999475964
 20
-61.72499996186305
 30
0.0
 11
-135.5196151898675
 21
-62.62499996186284
 31
0.0
  0
ENDBLK
  5
86
330
84
100
AcDbEntity
  8
0
100
AcDbBlockEnd
  0
BLOCK
  5
89
330
87
100
AcDbEntity
  8
0
100
AcDbBlockBegin
  2
Vordans1
 70
     0
 10
-138.0999999642363
 20
-60.500000000005
 30
0.0
  3
Vordans1
  1

  0
INSERT
  5
88
330
87
100
AcDbEntity
  8
0
100
AcDbBlockReference
  2
UCT_EM_17X9-select__3
 10
-142.4999999475955
 20
-62.62499996186284
 30
0.0
  0
MTEXT
  5
128
330
87
100
AcDbEntity
  8
1
 62
     6
100
AcDbMText
 10
-138.0999999642363
 20
-65.12500000000682
 30
0.0
 40
2.5
 41
0.0
 71
     2
 72
     1
  1
 
  7
CONVERTER_11
 73
     1
 44
1.32052821128451
  0
DIMENSION
  5
133
330
87
100
AcDbEntity
  8
1
100
AcDbDimension
  2
*D17
 10
-142.4999999475955
 20
-54.52499996185979
 30
0.0
 11
-138.0128694878995
 21
-52.89999996185979
 31
0.0
 70
    33
  1
<>
 71
     5
 42
-1.0
 53
0.00013888888889
  3
ME10_DIM_10
100
AcDbAlignedDimension
 13
-133.6999999475955
 23
-59.52499996186339
 33
0.0
 14
-142.4999999475955
 24
-59.52499996185979
 34
0.0
  0
DIMENSION
  5
140
330
87
100
AcDbEntity
  8
1
100
AcDbDimension
  2
*D18
 10
-128.8006119106496
 20
-58.37499996186687
 30
0.0
 11
-130.5131119106496
 21
-67.5980940783985
 31
0.0
 70
    32
  1
<>
 71
     5
 42
-1.0
 53
90.0
  3
ME10_DIM_11
100
AcDbAlignedDimension
 13
-135.5196151898675
 23
-62.62499996186284
 33
0.0
 14
-133.8006119106496
 24
-58.37499996186687
 34
0.0
 50
90.0
100
AcDbRotatedDimension
  0
ENDBLK
  5
8A
330
87
100
AcDbEntity
  8
0
100
AcDbBlockEnd
  0
BLOCK
  5
8C
330
8B
100
AcDbEntity
  8
0
100
AcDbBlockBegin
  2
UCT_EM_17X9-select__4
 70
     0
 10
-142.4999999475955
 20
-94.62500505476541
 30
0.0
  3
UCT_EM_17X9-select__4
  1

  0
LINE
  5
141
330
8B
100
AcDbEntity
  8
0
  6
Continuous
 62
     7
100
AcDbLine
 10
-142.4999999475955
 20
-94.62500505476541
 30
0.0
 11
-133.6999999475955
 21
-94.62500505476541
 31
0.0
  0
LINE
  5
142
330
8B
100
AcDbEntity
  8
0
  6
Continuous
 62
     7
100
AcDbLine
 10
-142.3993879845405
 20
-94.52439309171089
 30
0.0
 11
-133.8006119106496
 21
-94.52439309171089
 31
0.0
  0
LINE
  5
143
330
8B
100
AcDbEntity
  8
0
  6
Continuous
 62
     7
100
AcDbLine
 10
-133.8006119106496
 20
-94.52439309171089
 30
0.0
 11
-133.6999999475955
 21
-94.62500505476541
 31
0.0
  0
LINE
  5
144
330
8B
100
AcDbEntity
  8
0
  6
Continuous
 62
     7
100
AcDbLine
 10
-133.6999999475955
 20
-77.62500505476547
 30
0.0
 11
-142.4999999475955
 21
-77.62500505476544
 31
0.0
  0
LINE
  5
145
330
8B
100
AcDbEntity
  8
0
  6
Continuous
 62
     7
100
AcDbLine
 10
-142.4999999475955
 20
-77.62500505476544
 30
0.0
 11
-142.3993879845406
 21
-77.72561701781993
 31
0.0
  0
LINE
  5
146
330
8B
100
AcDbEntity
  8
0
  6
Continuous
 62
     7
100
AcDbLine
 10
-133.6999999475955
 20
-77.62500505476547
 30
0.0
 11
-133.8006119106495
 21
-77.72561701781993
 31
0.0
  0
LINE
  5
147
330
8B
100
AcDbEntity
  8
0
  6
Continuous
 62
     7
100
AcDbLine
 10
-133.8006119106495
 20
-77.72561701781993
 30
0.0
 11
-133.8006119106496
 21
-94.52439309171089
 31
0.0
  0
LINE
  5
148
330
8B
100
AcDbEntity
  8
0
  6
Continuous
 62
     7
100
AcDbLine
 10
-133.6999999475955
 20
-77.62500505476547
 30
0.0
 11
-133.6999999475955
 21
-94.62500505476541
 31
0.0
  0
LINE
  5
149
330
8B
100
AcDbEntity
  8
0
  6
Continuous
 62
     7
100
AcDbLine
 10
-142.3993879845406
 20
-77.72561701781993
 30
0.0
 11
-133.8006119106495
 21
-77.72561701781993
 31
0.0
  0
LINE
  5
14A
330
8B
100
AcDbEntity
  8
0
  6
Continuous
 62
     7
100
AcDbLine
 10
-142.3993879845406
 20
-77.72561701781993
 30
0.0
 11
-142.3993879845405
 21
-94.52439309171089
 31
0.0
  0
LINE
  5
14B
330
8B
100
AcDbEntity
  8
0
  6
Continuous
 62
     7
100
AcDbLine
 10
-142.4999999475955
 20
-77.62500505476544
 30
0.0
 11
-142.4999999475955
 21
-94.62500505476541
 31
0.0
  0
LINE
  5
14C
330
8B
100
AcDbEntity
  8
0
  6
Continuous
 62
     7
100
AcDbLine
 10
-142.4999999475955
 20
-94.62500505476541
 30
0.0
 11
-142.3993879845405
 21
-94.52439309171089
 31
0.0
  0
ENDBLK
  5
8D
330
8B
100
AcDbEntity
  8
0
100
AcDbBlockEnd
  0
BLOCK
  5
90
330
8E
100
AcDbEntity
  8
0
100
AcDbBlockBegin
  2
Drfsicht1
 70
     0
 10
-138.0999999642363
 20
-86.12500000001683
 30
0.0
  3
Drfsicht1
  1

  0
INSERT
  5
8F
330
8E
100
AcDbEntity
  8
0
100
AcDbBlockReference
  2
UCT_EM_17X9-select__4
 10
-142.4999999475955
 20
-94.62500505476541
 30
0.0
  0
MTEXT
  5
14D
330
8E
100
AcDbEntity
  8
1
 62
     6
100
AcDbMText
 10
-138.0999999642363
 20
-97.12500000001683
 30
0.0
 40
2.5
 41
0.0
 71
     2
 72
     1
  1
 
  7
CONVERTER_11
 73
     1
 44
1.32052821128451
  0
DIMENSION
  5
158
330
8E
100
AcDbEntity
  8
1
100
AcDbDimension
  2
*D19
 10
-128.6999999475955
 20
-77.62500505476547
 30
0.0
 11
-130.3249999475955
 21
-86.12500505476541
 31
0.0
 70
    32
  1
<>
 71
     5
 42
-1.0
 53
90.0
  3
ME10_DIM_12
100
AcDbAlignedDimension
 13
-133.6999999475955
 23
-94.62500505476541
 33
0.0
 14
-133.6999999475955
 24
-77.62500505476547
 34
0.0
 50
90.0
100
AcDbRotatedDimension
  0
ENDBLK
  5
91
330
8E
100
AcDbEntity
  8
0
100
AcDbBlockEnd
  0
BLOCK
  5
93
330
92
100
AcDbEntity
  8
0
100
AcDbBlockBegin
  2
UCT_EM_17X9-select__5
 70
     0
 10
-121.699994873709
 20
-62.62499996186776
 30
0.0
  3
UCT_EM_17X9-select__5
  1

  0
LINE
  5
159
330
92
100
AcDbEntity
  8
0
  6
Continuous
 62
     7
100
AcDbLine
 10
-116.9999948737091
 20
-61.72499996186776
 30
0.0
 11
-121.699994873709
 21
-61.72499996186776
 31
0.0
  0
LINE
  5
15A
330
92
100
AcDbEntity
  8
0
  6
Continuous
 62
     7
100
AcDbLine
 10
-110.8499948737091
 20
-61.72499996186776
 30
0.0
 11
-115.549994873709
 21
-61.72499996186776
 31
0.0
  0
LINE
  5
15B
330
92
100
AcDbEntity
  8
0
  6
Continuous
 62
     7
100
AcDbLine
 10
-104.699994873709
 20
-61.72499996186776
 30
0.0
 11
-109.399994873709
 21
-61.72499996186776
 31
0.0
  0
LINE
  5
15C
330
92
100
AcDbEntity
  8
0
  6
Continuous
 62
     7
100
AcDbLine
 10
-104.699994873709
 20
-61.52499996186776
 30
0.0
 11
-109.399994873709
 21
-61.52499996186776
 31
0.0
  0
LINE
  5
15D
330
92
100
AcDbEntity
  8
0
  6
Continuous
 62
     7
100
AcDbLine
 10
-116.9999948737091
 20
-61.52499996186776
 30
0.0
 11
-121.699994873709
 21
-61.52499996186776
 31
0.0
  0
LINE
  5
15E
330
92
100
AcDbEntity
  8
0
  6
Continuous
 62
     7
100
AcDbLine
 10
-121.699994873709
 20
-59.52499996186791
 30
0.0
 11
-121.699994873709
 21
-61.52499996186776
 31
0.0
  0
LINE
  5
15F
330
92
100
AcDbEntity
  8
0
  6
Continuous
 62
     7
100
AcDbLine
 10
-121.699994873709
 20
-59.52499996186791
 30
0.0
 11
-116.9999948737091
 21
-59.52499996186773
 31
0.0
  0
LINE
  5
160
330
92
100
AcDbEntity
  8
0
  6
Continuous
 62
     7
100
AcDbLine
 10
-104.699994873709
 20
-61.72499996186776
 30
0.0
 11
-104.699994873709
 21
-61.52499996186776
 31
0.0
  0
LINE
  5
161
330
92
100
AcDbEntity
  8
0
  6
Continuous
 62
     7
100
AcDbLine
 10
-104.699994873709
 20
-62.62499996186776
 30
0.0
 11
-104.699994873709
 21
-61.72499996186776
 31
0.0
  0
LINE
  5
162
330
92
100
AcDbEntity
  8
0
  6
Continuous
 62
     7
100
AcDbLine
 10
-104.699994873709
 20
-61.52499996186776
 30
0.0
 11
-104.6999948737091
 21
-59.52499996186757
 31
0.0
  0
LINE
  5
163
330
92
100
AcDbEntity
  8
0
  6
Continuous
 62
     7
100
AcDbLine
 10
-121.699994873709
 20
-62.62499996186776
 30
0.0
 11
-116.9999948737091
 21
-62.62499996186776
 31
0.0
  0
LINE
  5
164
330
92
100
AcDbEntity
  8
0
  6
Continuous
 62
     7
100
AcDbLine
 10
-109.399994873709
 20
-62.62499996186776
 30
0.0
 11
-104.699994873709
 21
-62.62499996186776
 31
0.0
  0
LINE
  5
165
330
92
100
AcDbEntity
  8
0
  6
Continuous
 62
     7
100
AcDbLine
 10
-115.549994873709
 20
-62.62499996186776
 30
0.0
 11
-110.8499948737091
 21
-62.62499996186776
 31
0.0
  0
LINE
  5
166
330
92
100
AcDbEntity
  8
0
  6
Continuous
 62
     7
100
AcDbLine
 10
-109.399994873709
 20
-61.52499996186776
 30
0.0
 11
-109.399994873709
 21
-61.72499996186776
 31
0.0
  0
LINE
  5
167
330
92
100
AcDbEntity
  8
0
  6
Continuous
 62
     7
100
AcDbLine
 10
-109.399994873709
 20
-61.72499996186776
 30
0.0
 11
-109.399994873709
 21
-62.62499996186776
 31
0.0
  0
LINE
  5
168
330
92
100
AcDbEntity
  8
0
  6
Continuous
 62
     7
100
AcDbLine
 10
-110.8499948737091
 20
-61.72499996186776
 30
0.0
 11
-110.8499948737091
 21
-62.62499996186776
 31
0.0
  0
LINE
  5
169
330
92
100
AcDbEntity
  8
0
  6
Continuous
 62
     7
100
AcDbLine
 10
-110.8499948737091
 20
-61.52499996186776
 30
0.0
 11
-110.8499948737091
 21
-61.72499996186776
 31
0.0
  0
LINE
  5
16A
330
92
100
AcDbEntity
  8
0
  6
Continuous
 62
     7
100
AcDbLine
 10
-109.399994873709
 20
-59.52499996186763
 30
0.0
 11
-109.399994873709
 21
-61.52499996186776
 31
0.0
  0
LINE
  5
16B
330
92
100
AcDbEntity
  8
0
  6
Continuous
 62
     7
100
AcDbLine
 10
-121.699994873709
 20
-61.52499996186776
 30
0.0
 11
-121.699994873709
 21
-61.72499996186776
 31
0.0
  0
LINE
  5
16C
330
92
100
AcDbEntity
  8
0
  6
Continuous
 62
     7
100
AcDbLine
 10
-121.699994873709
 20
-62.62499996186776
 30
0.0
 11
-121.699994873709
 21
-61.72499996186776
 31
0.0
  0
LINE
  5
16D
330
92
100
AcDbEntity
  8
0
  6
Continuous
 62
     7
100
AcDbLine
 10
-115.549994873709
 20
-61.52499996186776
 30
0.0
 11
-115.549994873709
 21
-59.52499996186771
 31
0.0
  0
LINE
  5
16E
330
92
100
AcDbEntity
  8
0
  6
Continuous
 62
     7
100
AcDbLine
 10
-110.8499948737091
 20
-59.52499996186765
 30
0.0
 11
-110.8499948737091
 21
-61.52499996186776
 31
0.0
  0
LINE
  5
16F
330
92
100
AcDbEntity
  8
0
  6
Continuous
 62
     7
100
AcDbLine
 10
-110.8499948737091
 20
-61.52499996186776
 30
0.0
 11
-115.549994873709
 21
-61.52499996186776
 31
0.0
  0
LINE
  5
170
330
92
100
AcDbEntity
  8
0
  6
Continuous
 62
     7
100
AcDbLine
 10
-116.9999948737091
 20
-59.52499996186773
 30
0.0
 11
-116.9999948737091
 21
-61.52499996186776
 31
0.0
  0
LINE
  5
171
330
92
100
AcDbEntity
  8
0
  6
Continuous
 62
     7
100
AcDbLine
 10
-121.5993829106546
 20
-58.3749999618716
 30
0.0
 11
-104.8006068367636
 21
-58.37499996187108
 31
0.0
  0
LINE
  5
172
330
92
100
AcDbEntity
  8
0
  6
Continuous
 62
     7
100
AcDbLine
 10
-116.9999948737091
 20
-61.52499996186776
 30
0.0
 11
-116.9999948737091
 21
-61.72499996186776
 31
0.0
  0
LINE
  5
173
330
92
100
AcDbEntity
  8
0
  6
Continuous
 62
     7
100
AcDbLine
 10
-116.9999948737091
 20
-62.62499996186776
 30
0.0
 11
-116.9999948737091
 21
-61.72499996186776
 31
0.0
  0
LINE
  5
174
330
92
100
AcDbEntity
  8
0
  6
Continuous
 62
     7
100
AcDbLine
 10
-115.549994873709
 20
-61.72499996186776
 30
0.0
 11
-115.549994873709
 21
-61.52499996186776
 31
0.0
  0
LINE
  5
175
330
92
100
AcDbEntity
  8
0
  6
Continuous
 62
     7
100
AcDbLine
 10
-115.549994873709
 20
-62.62499996186776
 30
0.0
 11
-115.549994873709
 21
-61.72499996186776
 31
0.0
  0
LINE
  5
176
330
92
100
AcDbEntity
  8
0
  6
Continuous
 62
     7
100
AcDbLine
 10
-116.9999948737091
 20
-59.52499996186773
 30
0.0
 11
-115.549994873709
 21
-59.52499996186771
 31
0.0
  0
LINE
  5
177
330
92
100
AcDbEntity
  8
0
  6
Continuous
 62
     7
100
AcDbLine
 10
-110.8499948737091
 20
-59.52499996186765
 30
0.0
 11
-109.399994873709
 21
-59.52499996186763
 31
0.0
  0
LINE
  5
178
330
92
100
AcDbEntity
  8
0
  6
Continuous
 62
     7
100
AcDbLine
 10
-109.399994873709
 20
-59.52499996186763
 30
0.0
 11
-104.6999948737091
 21
-59.52499996186757
 31
0.0
  0
LINE
  5
179
330
92
100
AcDbEntity
  8
0
  6
Continuous
 62
     7
100
AcDbLine
 10
-121.699994873709
 20
-59.52499996186791
 30
0.0
 11
-121.5993829106546
 21
-58.3749999618716
 31
0.0
  0
LINE
  5
17A
330
92
100
AcDbEntity
  8
0
  6
Continuous
 62
     7
100
AcDbLine
 10
-115.549994873709
 20
-59.52499996186771
 30
0.0
 11
-110.8499948737091
 21
-59.52499996186765
 31
0.0
  0
LINE
  5
17B
330
92
100
AcDbEntity
  8
0
  6
Continuous
 62
     7
100
AcDbLine
 10
-104.6999948737091
 20
-59.52499996186757
 30
0.0
 11
-104.8006068367636
 21
-58.37499996187108
 31
0.0
  0
ENDBLK
  5
94
330
92
100
AcDbEntity
  8
0
100
AcDbBlockEnd
  0
BLOCK
  5
97
330
95
100
AcDbEntity
  8
0
100
AcDbBlockBegin
  2
SA_Links1
 70
     0
 10
-113.1999999284577
 20
-60.500000000005
 30
0.0
  3
SA_Links1
  1

  0
INSERT
  5
96
330
95
100
AcDbEntity
  8
0
100
AcDbBlockReference
  2
UCT_EM_17X9-select__5
 10
-121.699994873709
 20
-62.62499996186776
 30
0.0
  0
MTEXT
  5
17C
330
95
100
AcDbEntity
  8
1
 62
     6
100
AcDbMText
 10
-113.1999999284577
 20
-65.12500000000682
 30
0.0
 40
2.5
 41
0.0
 71
     2
 72
     1
  1
 
  7
CONVERTER_11
 73
     1
 44
1.32052821128451
  0
ENDBLK
  5
98
330
95
100
AcDbEntity
  8
0
100
AcDbBlockEnd
  0
BLOCK
  5
9A
330
99
100
AcDbEntity
  8
0
100
AcDbBlockBegin
  2
UCT_EM_17X9-select__6
 70
     0
 10
-96.69999990934973
 20
-62.62499996186286
 30
0.0
  3
UCT_EM_17X9-select__6
  1

  0
LINE
  5
17D
330
99
100
AcDbEntity
  8
0
  6
Continuous
 62
     7
100
AcDbLine
 10
-94.24999990934845
 20
-62.6249999618626
 30
0.0
 11
-94.24999990934973
 21
-59.52499996186262
 31
0.0
  0
LINE
  5
17E
330
99
100
AcDbEntity
  8
0
  6
Continuous
 62
     7
100
AcDbLine
 10
-94.8999999093489
 20
-61.52499996186285
 30
0.0
 11
-95.3999999093489
 21
-61.52499996186307
 31
0.0
  0
LINE
  5
17F
330
99
100
AcDbEntity
  8
0
  6
Continuous
 62
     7
100
AcDbLine
 10
-94.89999990934972
 20
-59.52499996186302
 30
0.0
 11
-96.69999990934973
 21
-59.52499996186361
 31
0.0
  0
LINE
  5
180
330
99
100
AcDbEntity
  8
0
  6
Continuous
 62
     7
100
AcDbLine
 10
-94.89999990934972
 20
-59.52499996186302
 30
0.0
 11
-94.8999999093489
 21
-61.52499996186285
 31
0.0
  0
LINE
  5
181
330
99
100
AcDbEntity
  8
0
  6
Continuous
 62
     7
100
AcDbLine
 10
-94.88038466707779
 20
-62.62499996186286
 30
0.0
 11
-94.24999990934845
 21
-62.6249999618626
 31
0.0
  0
LINE
  5
182
330
99
100
AcDbEntity
  8
0
  6
Continuous
 62
     7
100
AcDbLine
 10
-89.71961515161911
 20
-62.62499996186074
 30
0.0
 11
-90.34999990934844
 21
-62.62499996186099
 31
0.0
  0
LINE
  5
183
330
99
100
AcDbEntity
  8
0
  6
Continuous
 62
     7
100
AcDbLine
 10
-89.19999990934882
 20
-61.72499996186053
 30
0.0
 11
-89.71961515161911
 21
-62.62499996186074
 31
0.0
  0
LINE
  5
184
330
99
100
AcDbEntity
  8
0
  6
Continuous
 62
     7
100
AcDbLine
 10
-87.89999990934972
 20
-59.52499996186
 30
0.0
 11
-88.00061187240468
 21
-58.37499996186388
 31
0.0
  0
LINE
  5
185
330
99
100
AcDbEntity
  8
0
  6
Continuous
 62
     7
100
AcDbLine
 10
-89.1999999093489
 20
-61.52499996186053
 30
0.0
 11
-89.19999990934882
 21
-61.72499996186053
 31
0.0
  0
LINE
  5
186
330
99
100
AcDbEntity
  8
0
  6
Continuous
 62
     7
100
AcDbLine
 10
-95.3999999093489
 20
-61.52499996186307
 30
0.0
 11
-95.39999990934882
 21
-61.72499996186306
 31
0.0
  0
LINE
  5
187
330
99
100
AcDbEntity
  8
0
  6
Continuous
 62
     7
100
AcDbLine
 10
-90.34999990934844
 20
-62.62499996186099
 30
0.0
 11
-90.34999990934972
 21
-59.52499996186115
 31
0.0
  0
LINE
  5
188
330
99
100
AcDbEntity
  8
0
  6
Continuous
 62
     7
100
AcDbLine
 10
-96.69999990934973
 20
-59.52499996186361
 30
0.0
 11
-96.59938794629572
 21
-58.3749999618674
 31
0.0
  0
LINE
  5
189
330
99
100
AcDbEntity
  8
0
  6
Continuous
 62
     7
100
AcDbLine
 10
-90.34999990934972
 20
-59.52499996186115
 30
0.0
 11
-89.69999990934973
 21
-59.52499996186089
 31
0.0
  0
LINE
  5
18A
330
99
100
AcDbEntity
  8
0
  6
Continuous
 62
     7
100
AcDbLine
 10
-89.69999990934973
 20
-59.52499996186089
 30
0.0
 11
-87.89999990934972
 21
-59.52499996186
 31
0.0
  0
LINE
  5
18B
330
99
100
AcDbEntity
  8
0
  6
Continuous
 62
     7
100
AcDbLine
 10
-94.24999990934973
 20
-59.52499996186262
 30
0.0
 11
-94.89999990934972
 21
-59.52499996186302
 31
0.0
  0
LINE
  5
18C
330
99
100
AcDbEntity
  8
0
  6
Continuous
 62
     7
100
AcDbLine
 10
-90.34999990934972
 20
-59.52499996186115
 30
0.0
 11
-94.24999990934973
 21
-59.52499996186262
 31
0.0
  0
LINE
  5
18D
330
99
100
AcDbEntity
  8
0
  6
Continuous
 62
     7
100
AcDbLine
 10
-89.6999999093489
 20
-61.52499996186073
 30
0.0
 11
-89.1999999093489
 21
-61.52499996186053
 31
0.0
  0
LINE
  5
18E
330
99
100
AcDbEntity
  8
0
  6
Continuous
 62
     7
100
AcDbLine
 10
-89.69999990934973
 20
-59.52499996186089
 30
0.0
 11
-89.6999999093489
 21
-61.52499996186073
 31
0.0
  0
LINE
  5
18F
330
99
100
AcDbEntity
  8
0
  6
Continuous
 62
     7
100
AcDbLine
 10
-88.00061187240468
 20
-58.37499996186388
 30
0.0
 11
-96.59938794629572
 21
-58.3749999618674
 31
0.0
  0
LINE
  5
190
330
99
100
AcDbEntity
  8
0
  6
Continuous
 62
     7
100
AcDbLine
 10
-95.39999990934882
 20
-61.72499996186306
 30
0.0
 11
-94.88038466707779
 21
-62.62499996186286
 31
0.0
  0
ENDBLK
  5
9B
330
99
100
AcDbEntity
  8
0
100
AcDbBlockEnd
  0
BLOCK
  5
9E
330
9C
100
AcDbEntity
  8
0
100
AcDbBlockBegin
  2
Rückansicht1
 70
     0
 10
-92.299999892709
 20
-60.500000000005
 30
0.0
  3
Rückansicht1
  1

  0
INSERT
  5
9D
330
9C
100
AcDbEntity
  8
0
100
AcDbBlockReference
  2
UCT_EM_17X9-select__6
 10
-96.69999990934973
 20
-62.62499996186286
 30
0.0
  0
MTEXT
  5
191
330
9C
100
AcDbEntity
  8
1
 62
     6
100
AcDbMText
 10
-92.29999989270902
 20
-65.12500000000682
 30
0.0
 40
2.5
 41
0.0
 71
     2
 72
     1
  1
 
  7
CONVERTER_11
 73
     1
 44
1.32052821128451
  0
ENDBLK
  5
9F
330
9C
100
AcDbEntity
  8
0
100
AcDbBlockEnd
  0
BLOCK
  5
A1
330
A0
100
AcDbEntity
  8
0
100
AcDbBlockBegin
  2
_rahmen
 70
     0
 10
-123.4999999999899
 20
-267.0000000000051
 30
0.0
  3
_rahmen
  1

  0
LINE
  5
192
330
A0
100
AcDbEntity
  8
1
  6
Continuous
 62
     6
100
AcDbLine
 10
-253.0448045267399
 20
-236.500000000005
 30
0.0
 11
-123.4999999999882
 21
-236.500000000005
 31
0.0
  0
LINE
  5
193
330
A0
100
AcDbEntity
  8
1
  6
Continuous
 62
     7
100
AcDbLine
 10
-234.8448045267399
 20
-257.750000000005
 30
0.0
 11
-216.64480452674
 21
-257.750000000005
 31
0.0
  0
LINE
  5
194
330
A0
100
AcDbEntity
  8
1
  6
Continuous
 62
     6
100
AcDbLine
 10
-234.8448045267399
 20
-262.000000000005
 30
0.0
 11
-253.0448045267399
 21
-262.0000000000051
 31
0.0
  0
LINE
  5
195
330
A0
100
AcDbEntity
  8
1
  6
Continuous
 62
     7
100
AcDbLine
 10
-234.8448045267399
 20
-257.750000000005
 30
0.0
 11
-234.8448045267399
 21
-262.000000000005
 31
0.0
  0
LINE
  5
196
330
A0
100
AcDbEntity
  8
1
  6
Continuous
 62
     7
100
AcDbLine
 10
-216.64480452674
 20
-257.750000000005
 30
0.0
 11
-216.64480452674
 21
-262.0000000000051
 31
0.0
  0
LINE
  5
197
330
A0
100
AcDbEntity
  8
1
  6
Continuous
 62
     7
100
AcDbLine
 10
-253.0448045267399
 20
-257.7500000000051
 30
0.0
 11
-253.0448045267399
 21
-262.0000000000051
 31
0.0
  0
LINE
  5
198
330
A0
100
AcDbEntity
  8
1
  6
Continuous
 62
     7
100
AcDbLine
 10
-253.0448045267399
 20
-257.7500000000051
 30
0.0
 11
-234.8448045267399
 21
-257.750000000005
 31
0.0
  0
LINE
  5
199
330
A0
100
AcDbEntity
  8
1
  6
Continuous
 62
     2
100
AcDbLine
 10
-243.8081496401773
 20
-238.3750000000051
 30
0.0
 11
-243.8081496401773
 21
-243.3750000000051
 31
0.0
  0
LINE
  5
19A
330
A0
100
AcDbEntity
  8
1
  6
Continuous
 62
     2
100
AcDbLine
 10
-243.8081496401773
 20
-243.3750000000051
 30
0.0
 11
-248.8081496401773
 21
-242.1250000000051
 31
0.0
  0
LINE
  5
19B
330
A0
100
AcDbEntity
  8
1
  6
Continuous
 62
     2
100
AcDbLine
 10
-248.8081496401773
 20
-242.1250000000051
 30
0.0
 11
-248.8081496401773
 21
-239.6250000000051
 31
0.0
  0
LINE
  5
19C
330
A0
100
AcDbEntity
  8
1
  6
Continuous
 62
     2
100
AcDbLine
 10
-248.8081496401773
 20
-239.6250000000051
 30
0.0
 11
-243.8081496401773
 21
-238.3750000000051
 31
0.0
  0
LINE
  5
19D
330
A0
100
AcDbEntity
  8
1
  6
Continuous
 62
     6
100
AcDbLine
 10
-375.4999999999881
 20
-262.000000000005
 30
0.0
 11
-410.499999999988
 21
-262.000000000005
 31
0.0
  0
LINE
  5
19E
330
A0
100
AcDbEntity
  8
1
  6
Continuous
 62
     6
100
AcDbLine
 10
-123.4999999999882
 20
-245.000000000005
 30
0.0
 11
-123.4999999999886
 21
-253.500000000005
 31
0.0
  0
LINE
  5
19F
330
A0
100
AcDbEntity
  8
1
  6
Continuous
 62
     6
100
AcDbLine
 10
-216.64480452674
 20
-262.0000000000051
 30
0.0
 11
-216.9999999999899
 21
-262.000000000005
 31
0.0
  0
LINE
  5
1A0
330
A0
100
AcDbEntity
  8
1
  6
Continuous
 62
     6
100
AcDbLine
 10
-369.2999999999901
 20
-262.0000000000051
 30
0.0
 11
-375.4999999999881
 21
-262.000000000005
 31
0.0
  0
LINE
  5
1A1
330
A0
100
AcDbEntity
  8
1
  6
Continuous
 62
     7
100
AcDbLine
 10
-216.64480452674
 20
-245.000000000005
 30
0.0
 11
-216.64480452674
 21
-257.750000000005
 31
0.0
  0
LINE
  5
1A2
330
A0
100
AcDbEntity
  8
1
  6
Continuous
 62
     7
100
AcDbLine
 10
-253.0448045267399
 20
-245.000000000005
 30
0.0
 11
-253.0448045267399
 21
-257.7500000000051
 31
0.0
  0
LINE
  5
1A3
330
A0
100
AcDbEntity
  8
1
  6
Continuous
 62
     6
100
AcDbLine
 10
-266.9999999999899
 20
-262.000000000005
 30
0.0
 11
-316.9999999999901
 21
-262.000000000005
 31
0.0
  0
LINE
  5
1A4
330
A0
100
AcDbEntity
  8
1
  6
Continuous
 62
     6
100
AcDbLine
 10
-369.2999999999901
 20
-262.0000000000051
 30
0.0
 11
-366.9999999999899
 21
-262.000000000005
 31
0.0
  0
LINE
  5
1A5
330
A0
100
AcDbEntity
  8
1
  6
Continuous
 62
     6
100
AcDbLine
 10
-216.64480452674
 20
-262.0000000000051
 30
0.0
 11
-166.9999999999899
 21
-262.000000000005
 31
0.0
  0
LINE
  5
1A6
330
A0
100
AcDbEntity
  8
1
  6
Continuous
 62
     6
100
AcDbLine
 10
-123.4999999999899
 20
-262.000000000005
 30
0.0
 11
-123.4999999999886
 21
-253.500000000005
 31
0.0
  0
LINE
  5
1A7
330
A0
100
AcDbEntity
  8
1
  6
Continuous
 62
     2
100
AcDbLine
 10
-415.499999999989
 20
-262.000000000005
 30
0.0
 11
-415.499999999989
 21
-267.0000000000051
 31
0.0
  0
LINE
  5
1A8
330
A0
100
AcDbEntity
  8
1
  6
Continuous
 62
     2
100
AcDbLine
 10
-410.499999999988
 20
-262.000000000005
 30
0.0
 11
-415.499999999989
 21
-262.000000000005
 31
0.0
  0
LINE
  5
1A9
330
A0
100
AcDbEntity
  8
1
  6
Continuous
 62
     2
100
AcDbLine
 10
-410.499999999988
 20
-267.0000000000051
 30
0.0
 11
-366.9999999999899
 21
-267.0000000000051
 31
0.0
  0
LINE
  5
1AA
330
A0
100
AcDbEntity
  8
1
  6
Continuous
 62
     2
100
AcDbLine
 10
-410.499999999988
 20
-262.000000000005
 30
0.0
 11
-410.499999999988
 21
-267.0000000000051
 31
0.0
  0
LINE
  5
1AB
330
A0
100
AcDbEntity
  8
1
  6
Continuous
 62
     2
100
AcDbLine
 10
-166.9999999999899
 20
-267.0000000000051
 30
0.0
 11
-216.9999999999899
 21
-267.0000000000051
 31
0.0
  0
LINE
  5
1AC
330
A0
100
AcDbEntity
  8
1
  6
Continuous
 62
     2
100
AcDbLine
 10
-166.9999999999899
 20
-267.0000000000051
 30
0.0
 11
-166.9999999999899
 21
-262.000000000005
 31
0.0
  0
LINE
  5
1AD
330
A0
100
AcDbEntity
  8
1
  6
Continuous
 62
     2
100
AcDbLine
 10
-216.9999999999899
 20
-267.0000000000051
 30
0.0
 11
-216.9999999999899
 21
-262.000000000005
 31
0.0
  0
LINE
  5
1AE
330
A0
100
AcDbEntity
  8
1
  6
Continuous
 62
     2
100
AcDbLine
 10
-266.9999999999899
 20
-267.0000000000051
 30
0.0
 11
-216.9999999999899
 21
-267.0000000000051
 31
0.0
  0
LINE
  5
1AF
330
A0
100
AcDbEntity
  8
1
  6
Continuous
 62
     2
100
AcDbLine
 10
-266.9999999999899
 20
-267.0000000000051
 30
0.0
 11
-266.9999999999899
 21
-262.000000000005
 31
0.0
  0
LINE
  5
1B0
330
A0
100
AcDbEntity
  8
1
  6
Continuous
 62
     2
100
AcDbLine
 10
-316.9999999999901
 20
-267.0000000000051
 30
0.0
 11
-266.9999999999899
 21
-267.0000000000051
 31
0.0
  0
LINE
  5
1B1
330
A0
100
AcDbEntity
  8
1
  6
Continuous
 62
     2
100
AcDbLine
 10
-316.9999999999901
 20
-267.0000000000051
 30
0.0
 11
-316.9999999999901
 21
-262.000000000005
 31
0.0
  0
LINE
  5
1B2
330
A0
100
AcDbEntity
  8
1
  6
Continuous
 62
     2
100
AcDbLine
 10
-366.9999999999899
 20
-267.0000000000051
 30
0.0
 11
-316.9999999999901
 21
-267.0000000000051
 31
0.0
  0
LINE
  5
1B3
330
A0
100
AcDbEntity
  8
1
  6
Continuous
 62
     2
100
AcDbLine
 10
-366.9999999999899
 20
-267.0000000000051
 30
0.0
 11
-366.9999999999899
 21
-262.000000000005
 31
0.0
  0
LINE
  5
1B4
330
A0
100
AcDbEntity
  8
1
  6
Continuous
 62
     6
100
AcDbLine
 10
-410.4999999999882
 20
-212.0000000000049
 30
0.0
 11
-410.499999999988
 21
-262.000000000005
 31
0.0
  0
LINE
  5
1B5
330
A0
100
AcDbEntity
  8
1
  6
Continuous
 62
     2
100
AcDbLine
 10
-415.499999999989
 20
-212.0000000000049
 30
0.0
 11
-415.499999999989
 21
-262.000000000005
 31
0.0
  0
LINE
  5
1B6
330
A0
100
AcDbEntity
  8
1
  6
Continuous
 62
     2
100
AcDbLine
 10
-415.499999999989
 20
-212.0000000000049
 30
0.0
 11
-410.4999999999882
 21
-212.0000000000049
 31
0.0
  0
LINE
  5
1B7
330
A0
100
AcDbEntity
  8
1
  6
Continuous
 62
     6
100
AcDbLine
 10
-410.4999999999884
 20
-162.0000000000051
 30
0.0
 11
-410.4999999999882
 21
-212.0000000000049
 31
0.0
  0
LINE
  5
1B8
330
A0
100
AcDbEntity
  8
1
  6
Continuous
 62
     2
100
AcDbLine
 10
-415.499999999989
 20
-162.0000000000051
 30
0.0
 11
-415.499999999989
 21
-212.0000000000049
 31
0.0
  0
LINE
  5
1B9
330
A0
100
AcDbEntity
  8
1
  6
Continuous
 62
     2
100
AcDbLine
 10
-415.499999999989
 20
-162.0000000000051
 30
0.0
 11
-410.4999999999884
 21
-162.0000000000051
 31
0.0
  0
LINE
  5
1BA
330
A0
100
AcDbEntity
  8
1
  6
Continuous
 62
     6
100
AcDbLine
 10
-410.4999999999889
 20
-112.000000000005
 30
0.0
 11
-410.4999999999884
 21
-162.0000000000051
 31
0.0
  0
LINE
  5
1BB
330
A0
100
AcDbEntity
  8
1
  6
Continuous
 62
     2
100
AcDbLine
 10
-415.499999999989
 20
-112.000000000005
 30
0.0
 11
-415.499999999989
 21
-162.0000000000051
 31
0.0
  0
LINE
  5
1BC
330
A0
100
AcDbEntity
  8
1
  6
Continuous
 62
     2
100
AcDbLine
 10
-415.499999999989
 20
-112.000000000005
 30
0.0
 11
-410.4999999999889
 21
-112.000000000005
 31
0.0
  0
LINE
  5
1BD
330
A0
100
AcDbEntity
  8
1
  6
Continuous
 62
     6
100
AcDbLine
 10
-410.499999999989
 20
-77.000000000005
 30
0.0
 11
-410.4999999999889
 21
-112.000000000005
 31
0.0
  0
LINE
  5
1BE
330
A0
100
AcDbEntity
  8
1
  6
Continuous
 62
     2
100
AcDbLine
 10
-415.499999999989
 20
-57.000000000005
 30
0.0
 11
-415.499999999989
 21
-112.000000000005
 31
0.0
  0
LINE
  5
1BF
330
A0
100
AcDbEntity
  8
1
  6
Continuous
 62
     2
100
AcDbLine
 10
-415.499999999989
 20
-267.0000000000051
 30
0.0
 11
-410.499999999988
 21
-267.0000000000051
 31
0.0
  0
LINE
  5
1C0
330
A0
100
AcDbEntity
  8
1
  6
Continuous
 62
     2
100
AcDbLine
 10
-266.9999999999899
 20
-57.000000000005
 30
0.0
 11
-266.9999999999899
 21
-66.20869184470632
 31
0.0
  0
LINE
  5
1C1
330
A0
100
AcDbEntity
  8
1
  6
Continuous
 62
     2
100
AcDbLine
 10
-266.9999999999899
 20
-57.000000000005
 30
0.0
 11
-415.499999999989
 21
-57.000000000005
 31
0.0
  0
LINE
  5
1C2
330
A0
100
AcDbEntity
  8
1
  6
Continuous
 62
     2
100
AcDbLine
 10
-118.4999999999909
 20
-262.000000000005
 30
0.0
 11
-118.4999999999909
 21
-212.0000000000049
 31
0.0
  0
LINE
  5
1C3
330
A0
100
AcDbEntity
  8
1
  6
Continuous
 62
     2
100
AcDbLine
 10
-118.4999999999909
 20
-112.000000000005
 30
0.0
 11
-118.4999999999909
 21
-57.000000000005
 31
0.0
  0
LINE
  5
1C4
330
A0
100
AcDbEntity
  8
1
  6
Continuous
 62
     6
100
AcDbLine
 10
-123.4999999999907
 20
-112.000000000005
 30
0.0
 11
-123.4999999999909
 21
-77.000000000005
 31
0.0
  0
LINE
  5
1C5
330
A0
100
AcDbEntity
  8
1
  6
Continuous
 62
     2
100
AcDbLine
 10
-123.4999999999907
 20
-112.000000000005
 30
0.0
 11
-118.4999999999909
 21
-112.000000000005
 31
0.0
  0
LINE
  5
1C6
330
A0
100
AcDbEntity
  8
1
  6
Continuous
 62
     2
100
AcDbLine
 10
-118.4999999999909
 20
-162.0000000000051
 30
0.0
 11
-118.4999999999909
 21
-112.000000000005
 31
0.0
  0
LINE
  5
1C7
330
A0
100
AcDbEntity
  8
1
  6
Continuous
 62
     6
100
AcDbLine
 10
-123.4999999999895
 20
-162.0000000000051
 30
0.0
 11
-123.4999999999907
 21
-112.000000000005
 31
0.0
  0
LINE
  5
1C8
330
A0
100
AcDbEntity
  8
1
  6
Continuous
 62
     2
100
AcDbLine
 10
-123.4999999999895
 20
-162.0000000000051
 30
0.0
 11
-118.4999999999909
 21
-162.0000000000051
 31
0.0
  0
LINE
  5
1C9
330
A0
100
AcDbEntity
  8
1
  6
Continuous
 62
     2
100
AcDbLine
 10
-118.4999999999909
 20
-212.0000000000049
 30
0.0
 11
-118.4999999999909
 21
-162.0000000000051
 31
0.0
  0
LINE
  5
1CA
330
A0
100
AcDbEntity
  8
1
  6
Continuous
 62
     6
100
AcDbLine
 10
-123.499999999989
 20
-212.0000000000049
 30
0.0
 11
-123.4999999999895
 21
-162.0000000000051
 31
0.0
  0
LINE
  5
1CB
330
A0
100
AcDbEntity
  8
1
  6
Continuous
 62
     2
100
AcDbLine
 10
-123.499999999989
 20
-212.0000000000049
 30
0.0
 11
-118.4999999999909
 21
-212.0000000000049
 31
0.0
  0
LINE
  5
1CC
330
A0
100
AcDbEntity
  8
1
  6
Continuous
 62
     6
100
AcDbLine
 10
-123.4999999999909
 20
-77.000000000005
 30
0.0
 11
-410.499999999989
 21
-77.000000000005
 31
0.0
  0
LINE
  5
1CD
330
A0
100
AcDbEntity
  8
1
  6
Continuous
 62
     2
100
AcDbLine
 10
-118.4999999999909
 20
-57.000000000005
 30
0.0
 11
-266.9999999999899
 21
-57.000000000005
 31
0.0
  0
LINE
  5
1CE
330
A0
100
AcDbEntity
  8
1
  6
Continuous
 62
     6
100
AcDbLine
 10
-123.4999999999882
 20
-245.000000000005
 30
0.0
 11
-123.499999999989
 21
-212.0000000000049
 31
0.0
  0
LINE
  5
1CF
330
A0
100
AcDbEntity
  8
1
  6
Continuous
 62
     2
100
AcDbLine
 10
-123.4999999999899
 20
-267.0000000000051
 30
0.0
 11
-166.9999999999899
 21
-267.0000000000051
 31
0.0
  0
LINE
  5
1D0
330
A0
100
AcDbEntity
  8
1
  6
Continuous
 62
     2
100
AcDbLine
 10
-118.4999999999909
 20
-267.0000000000051
 30
0.0
 11
-123.4999999999899
 21
-267.0000000000051
 31
0.0
  0
LINE
  5
1D1
330
A0
100
AcDbEntity
  8
1
  6
Continuous
 62
     2
100
AcDbLine
 10
-118.4999999999909
 20
-267.0000000000051
 30
0.0
 11
-118.4999999999909
 21
-262.000000000005
 31
0.0
  0
LINE
  5
1D2
330
A0
100
AcDbEntity
  8
1
  6
Continuous
 62
     6
100
AcDbLine
 10
-253.0448045267399
 20
-245.000000000005
 30
0.0
 11
-216.64480452674
 21
-245.000000000005
 31
0.0
  0
LINE
  5
1D3
330
A0
100
AcDbEntity
  8
1
  6
Continuous
 62
     2
100
AcDbLine
 10
-123.4999999999899
 20
-262.000000000005
 30
0.0
 11
-123.4999999999899
 21
-267.0000000000051
 31
0.0
  0
LINE
  5
1D4
330
A0
100
AcDbEntity
  8
1
  6
Continuous
 62
     2
100
AcDbLine
 10
-123.4999999999899
 20
-262.000000000005
 30
0.0
 11
-118.4999999999909
 21
-262.000000000005
 31
0.0
  0
LINE
  5
1D5
330
A0
100
AcDbEntity
  8
1
  6
Continuous
 62
     6
100
AcDbLine
 10
-216.9999999999899
 20
-262.000000000005
 30
0.0
 11
-234.8448045267399
 21
-262.000000000005
 31
0.0
  0
LINE
  5
1D6
330
A0
100
AcDbEntity
  8
1
  6
Continuous
 62
     6
100
AcDbLine
 10
-166.9999999999899
 20
-262.000000000005
 30
0.0
 11
-123.4999999999899
 21
-262.000000000005
 31
0.0
  0
LINE
  5
1D7
330
A0
100
AcDbEntity
  8
1
  6
Continuous
 62
     6
100
AcDbLine
 10
-316.9999999999901
 20
-262.000000000005
 30
0.0
 11
-322.0448045267399
 21
-262.000000000005
 31
0.0
  0
LINE
  5
1D8
330
A0
100
AcDbEntity
  8
1
  6
Continuous
 62
     6
100
AcDbLine
 10
-266.9999999999899
 20
-262.000000000005
 30
0.0
 11
-253.0448045267399
 21
-262.0000000000051
 31
0.0
  0
LINE
  5
1D9
102
{ACAD_REACTORS
330
2C3
330
2C4
102
}
330
A0
100
AcDbEntity
  8
0
  6
Continuous
 62
     2
100
AcDbLine
 10
-245.5301785845931
 20
-249.9274852437929
 30
0.0
 11
-245.5301785845931
 21
-249.3219499552861
 31
0.0
  0
LINE
  5
1DA
102
{ACAD_REACTORS
330
2C3
330
2C4
102
}
330
A0
100
AcDbEntity
  8
0
  6
Continuous
 62
     2
100
AcDbLine
 10
-245.5301785845931
 20
-252.7276198504242
 30
0.0
 11
-245.5301785845931
 21
-252.1457684437291
 31
0.0
  0
LINE
  5
1DB
102
{ACAD_REACTORS
330
2C5
330
2C6
102
}
330
A0
100
AcDbEntity
  8
0
  6
Continuous
 62
     2
100
AcDbLine
 10
-222.9006921491139
 20
-252.4379557823012
 30
0.0
 11
-222.9006921491139
 21
-254.7064999999887
 31
0.0
  0
LINE
  5
1DC
102
{ACAD_REACTORS
330
2C5
330
2C6
102
}
330
A0
100
AcDbEntity
  8
0
  6
Continuous
 62
     2
100
AcDbLine
 10
-224.2817459281015
 20
-251.6526904761781
 30
0.0
 11
-220.8968004094728
 21
-251.6526904761776
 31
0.0
  0
LINE
  5
1DD
102
{ACAD_REACTORS
330
2C5
330
2C6
102
}
330
A0
100
AcDbEntity
  8
0
  6
Continuous
 62
     2
100
AcDbLine
 10
-220.8968004094728
 20
-252.4379557823012
 30
0.0
 11
-220.8968004094728
 21
-251.6526904761776
 31
0.0
  0
LINE
  5
1DE
102
{ACAD_REACTORS
330
2C5
330
2C6
102
}
330
A0
100
AcDbEntity
  8
0
  6
Continuous
 62
     2
100
AcDbLine
 10
-221.7078994469462
 20
-252.4379557823012
 30
0.0
 11
-220.8968004094728
 21
-252.4379557823012
 31
0.0
  0
LINE
  5
1DF
102
{ACAD_REACTORS
330
2C5
330
2C6
102
}
330
A0
100
AcDbEntity
  8
0
  6
Continuous
 62
     2
100
AcDbLine
 10
-221.7078994469462
 20
-254.7064999999887
 30
0.0
 11
-221.7078994469462
 21
-252.4379557823012
 31
0.0
  0
LINE
  5
1E0
102
{ACAD_REACTORS
330
2C5
330
2C6
102
}
330
A0
100
AcDbEntity
  8
0
  6
Continuous
 62
     2
100
AcDbLine
 10
-222.9006921491139
 20
-254.7064999999887
 30
0.0
 11
-221.7078994469462
 21
-254.7064999999887
 31
0.0
  0
LINE
  5
1E1
102
{ACAD_REACTORS
330
2BB
330
2BC
102
}
330
A0
100
AcDbEntity
  8
0
  6
Continuous
 62
     2
100
AcDbLine
 10
-223.5972830871784
 20
-248.2935000000032
 30
0.0
 11
-225.0000073049277
 21
-248.2935000000032
 31
0.0
  0
LINE
  5
1E2
102
{ACAD_REACTORS
330
2BB
330
2BC
102
}
330
A0
100
AcDbEntity
  8
0
  6
Continuous
 62
     2
100
AcDbLine
 10
-223.5972830871784
 20
-248.2935000000032
 30
0.0
 11
-222.9961155652866
 21
-248.9733233215587
 31
0.0
  0
LINE
  5
1E3
102
{ACAD_REACTORS
330
2BB
330
2BC
102
}
330
A0
100
AcDbEntity
  8
0
  6
Continuous
 62
     2
100
AcDbLine
 10
-222.9961155652866
 20
-248.9733233215587
 30
0.0
 11
-222.3949480433938
 21
-248.2935000000032
 31
0.0
  0
LINE
  5
1E4
102
{ACAD_REACTORS
330
2BB
330
2BC
102
}
330
A0
100
AcDbEntity
  8
0
  6
Continuous
 62
     2
100
AcDbLine
 10
-222.2947534564131
 20
-249.7664505300394
 30
0.0
 11
-220.9922238256466
 21
-248.2935000000032
 31
0.0
  0
LINE
  5
1E5
102
{ACAD_REACTORS
330
2BB
330
2BC
102
}
330
A0
100
AcDbEntity
  8
0
  6
Continuous
 62
     2
100
AcDbLine
 10
-222.2947534564131
 20
-249.7664505300394
 30
0.0
 11
-220.8968004094728
 21
-251.3473095238144
 31
0.0
  0
LINE
  5
1E6
102
{ACAD_REACTORS
330
2BB
330
2BC
102
}
330
A0
100
AcDbEntity
  8
0
  6
Continuous
 62
     2
100
AcDbLine
 10
-222.2995246272211
 20
-251.3473095238144
 30
0.0
 11
-220.8968004094728
 21
-251.3473095238144
 31
0.0
  0
LINE
  5
1E7
102
{ACAD_REACTORS
330
2BB
330
2BC
102
}
330
A0
100
AcDbEntity
  8
0
  6
Continuous
 62
     2
100
AcDbLine
 10
-222.9961155652866
 20
-250.5595777385207
 30
0.0
 11
-222.2995246272211
 21
-251.3473095238144
 31
0.0
  0
LINE
  5
1E8
102
{ACAD_REACTORS
330
2B9
330
2BA
102
}
330
A0
100
AcDbEntity
  8
0
  6
Continuous
 62
     2
100
AcDbLine
 10
-226.4552144015703
 20
-248.2935000000032
 30
0.0
 11
-225.2147099913174
 21
-248.2935000000032
 31
0.0
  0
LINE
  5
1E9
102
{ACAD_REACTORS
330
2B9
330
2BA
102
}
330
A0
100
AcDbEntity
  8
0
  6
Continuous
 62
     2
100
AcDbLine
 10
-225.2147099913174
 20
-248.2935000000032
 30
0.0
 11
-225.2147099913174
 21
-251.3473095238144
 31
0.0
  0
LINE
  5
1EA
102
{ACAD_REACTORS
330
2B9
330
2BA
102
}
330
A0
100
AcDbEntity
  8
0
  6
Continuous
 62
     2
100
AcDbLine
 10
-226.4552144015703
 20
-251.3473095238144
 30
0.0
 11
-226.4552144015703
 21
-248.2935000000032
 31
0.0
  0
LINE
  5
1EB
102
{ACAD_REACTORS
330
2B7
330
2B8
102
}
330
A0
100
AcDbEntity
  8
0
  6
Continuous
 62
     2
100
AcDbLine
 10
-227.9235244841079
 20
-253.4849761904642
 30
0.0
 11
-227.6233592469155
 21
-252.7171612244775
 31
0.0
  0
LINE
  5
1EC
102
{ACAD_REACTORS
330
2B7
330
2B8
102
}
330
A0
100
AcDbEntity
  8
0
  6
Continuous
 62
     2
100
AcDbLine
 10
-228.4010600887287
 20
-254.7064999999887
 30
0.0
 11
-228.1895800352529
 21
-254.1655394557708
 31
0.0
  0
LINE
  5
1ED
102
{ACAD_REACTORS
330
2B7
330
2B8
102
}
330
A0
100
AcDbEntity
  8
0
  6
Continuous
 62
     2
100
AcDbLine
 10
-228.2436114520424
 20
-251.6526904761776
 30
0.0
 11
-229.6415644989817
 21
-254.7064999999887
 31
0.0
  0
LINE
  5
1EE
102
{ACAD_REACTORS
330
2B7
330
2B8
102
}
330
A0
100
AcDbEntity
  8
0
  6
Continuous
 62
     2
100
AcDbLine
 10
-225.6051539948494
 20
-254.7064999999887
 30
0.0
 11
-226.8456584051033
 21
-254.7064999999887
 31
0.0
  0
LINE
  5
1EF
102
{ACAD_REACTORS
330
2B7
330
2B8
102
}
330
A0
100
AcDbEntity
  8
0
  6
Continuous
 62
     2
100
AcDbLine
 10
-228.1895800352529
 20
-254.1655394557708
 30
0.0
 11
-227.0571384585791
 21
-254.1655394557708
 31
0.0
  0
LINE
  5
1F0
102
{ACAD_REACTORS
330
2B5
330
2B6
102
}
330
A0
100
AcDbEntity
  8
0
  6
Continuous
 62
     2
100
AcDbLine
 10
-231.7990766381639
 20
-252.4379557823012
 30
0.0
 11
-230.9879776006893
 21
-252.4379557823012
 31
0.0
  0
LINE
  5
1F1
102
{ACAD_REACTORS
330
2B5
330
2B6
102
}
330
A0
100
AcDbEntity
  8
0
  6
Continuous
 62
     2
100
AcDbLine
 10
-228.9840858610503
 20
-251.6526904761776
 30
0.0
 11
-231.7990766381639
 21
-251.6526904761776
 31
0.0
  0
LINE
  5
1F2
102
{ACAD_REACTORS
330
2B5
330
2B6
102
}
330
A0
100
AcDbEntity
  8
0
  6
Continuous
 62
     2
100
AcDbLine
 10
-228.9840858610503
 20
-252.4379557823012
 30
0.0
 11
-228.9840858610503
 21
-251.6526904761776
 31
0.0
  0
LINE
  5
1F3
102
{ACAD_REACTORS
330
2B5
330
2B6
102
}
330
A0
100
AcDbEntity
  8
0
  6
Continuous
 62
     2
100
AcDbLine
 10
-229.7951848985228
 20
-252.4379557823012
 30
0.0
 11
-228.9840858610503
 21
-252.4379557823012
 31
0.0
  0
LINE
  5
1F4
102
{ACAD_REACTORS
330
2B5
330
2B6
102
}
330
A0
100
AcDbEntity
  8
0
  6
Continuous
 62
     2
100
AcDbLine
 10
-229.7951848985228
 20
-254.7064999999887
 30
0.0
 11
-229.7951848985228
 21
-252.4379557823012
 31
0.0
  0
LINE
  5
1F5
102
{ACAD_REACTORS
330
2B3
330
2B4
102
}
330
A0
100
AcDbEntity
  8
0
  6
Continuous
 62
     2
100
AcDbLine
 10
-229.1270700544248
 20
-251.3473095238144
 30
0.0
 11
-229.1270700544248
 21
-250.0385340136097
 31
0.0
  0
LINE
  5
1F6
102
{ACAD_REACTORS
330
2B3
330
2B4
102
}
330
A0
100
AcDbEntity
  8
0
  6
Continuous
 62
     2
100
AcDbLine
 10
-230.3198627565913
 20
-248.2935000000032
 30
0.0
 11
-230.3198627565913
 21
-251.3473095238144
 31
0.0
  0
LINE
  5
1F7
102
{ACAD_REACTORS
330
2B3
330
2B4
102
}
330
A0
100
AcDbEntity
  8
0
  6
Continuous
 62
     2
100
AcDbLine
 10
-229.1270700544248
 20
-248.2935000000032
 30
0.0
 11
-230.3198627565913
 21
-248.2935000000032
 31
0.0
  0
LINE
  5
1F8
102
{ACAD_REACTORS
330
2B3
330
2B4
102
}
330
A0
100
AcDbEntity
  8
0
  6
Continuous
 62
     2
100
AcDbLine
 10
-227.8865656441708
 20
-248.2935000000032
 30
0.0
 11
-227.8865656441708
 21
-249.6022755102084
 31
0.0
  0
LINE
  5
1F9
102
{ACAD_REACTORS
330
2B1
330
2B2
102
}
330
A0
100
AcDbEntity
  8
0
  6
Continuous
 62
     2
100
AcDbLine
 10
-235.568301577011
 20
-251.6526904761776
 30
0.0
 11
-235.568301577011
 21
-254.7064999999887
 31
0.0
  0
LINE
  5
1FA
102
{ACAD_REACTORS
330
2B1
330
2B2
102
}
330
A0
100
AcDbEntity
  8
0
  6
Continuous
 62
     2
100
AcDbLine
 10
-234.3755088748434
 20
-251.6526904761776
 30
0.0
 11
-235.568301577011
 21
-251.6526904761776
 31
0.0
  0
LINE
  5
1FB
102
{ACAD_REACTORS
330
2B1
330
2B2
102
}
330
A0
100
AcDbEntity
  8
0
  6
Continuous
 62
     2
100
AcDbLine
 10
-233.1350044645905
 20
-254.7064999999887
 30
0.0
 11
-231.9422117624241
 21
-254.7064999999887
 31
0.0
  0
LINE
  5
1FC
102
{ACAD_REACTORS
330
2B1
330
2B2
102
}
330
A0
100
AcDbEntity
  8
0
  6
Continuous
 62
     2
100
AcDbLine
 10
-235.568301577011
 20
-254.7064999999887
 30
0.0
 11
-234.3755088748434
 21
-254.7064999999887
 31
0.0
  0
LINE
  5
1FD
102
{ACAD_REACTORS
330
2C1
330
2C2
102
}
330
A0
100
AcDbEntity
  8
0
  6
Continuous
 62
     2
100
AcDbLine
 10
-231.8943491234519
 20
-249.4713979591879
 30
0.0
 11
-231.8943491234519
 21
-248.9915136054462
 31
0.0
  0
LINE
  5
1FE
102
{ACAD_REACTORS
330
2C1
330
2C2
102
}
330
A0
100
AcDbEntity
  8
0
  6
Continuous
 62
     2
100
AcDbLine
 10
-230.5584212970242
 20
-249.4713979591879
 30
0.0
 11
-231.8943491234519
 21
-249.4713979591879
 31
0.0
  0
LINE
  5
1FF
102
{ACAD_REACTORS
330
2C1
330
2C2
102
}
330
A0
100
AcDbEntity
  8
0
  6
Continuous
 62
     2
100
AcDbLine
 10
-230.5584212970242
 20
-250.1694115646302
 30
0.0
 11
-230.5584212970242
 21
-249.4713979591879
 31
0.0
  0
LINE
  5
200
102
{ACAD_REACTORS
330
2C1
330
2C2
102
}
330
A0
100
AcDbEntity
  8
0
  6
Continuous
 62
     2
100
AcDbLine
 10
-231.8943491234519
 20
-250.1694115646302
 30
0.0
 11
-230.5584212970242
 21
-250.1694115646302
 31
0.0
  0
LINE
  5
201
102
{ACAD_REACTORS
330
2AF
330
2B0
102
}
330
A0
100
AcDbEntity
  8
0
  6
Continuous
 62
     2
100
AcDbLine
 10
-235.3773038137788
 20
-248.2935000000032
 30
0.0
 11
-235.3773038137788
 21
-251.3473095238144
 31
0.0
  0
LINE
  5
202
102
{ACAD_REACTORS
330
2AF
330
2B0
102
}
330
A0
100
AcDbEntity
  8
0
  6
Continuous
 62
     2
100
AcDbLine
 10
-235.3773038137788
 20
-251.3473095238144
 30
0.0
 11
-236.5700965159452
 21
-251.3473095238144
 31
0.0
  0
LINE
  5
203
102
{ACAD_REACTORS
330
2AF
330
2B0
102
}
330
A0
100
AcDbEntity
  8
0
  6
Continuous
 62
     2
100
AcDbLine
 10
-236.5700965159452
 20
-251.3473095238144
 30
0.0
 11
-236.5700965159452
 21
-250.2130374149706
 31
0.0
  0
LINE
  5
204
102
{ACAD_REACTORS
330
2AF
330
2B0
102
}
330
A0
100
AcDbEntity
  8
0
  6
Continuous
 62
     2
100
AcDbLine
 10
-237.6197540938527
 20
-251.3473095238144
 30
0.0
 11
-238.8125467960193
 21
-251.3473095238144
 31
0.0
  0
LINE
  5
205
102
{ACAD_REACTORS
330
2AF
330
2B0
102
}
330
A0
100
AcDbEntity
  8
0
  6
Continuous
 62
     2
100
AcDbLine
 10
-238.8125467960193
 20
-248.2935000000032
 30
0.0
 11
-237.6197540938527
 21
-248.2935000000032
 31
0.0
  0
LINE
  5
206
102
{ACAD_REACTORS
330
2AF
330
2B0
102
}
330
A0
100
AcDbEntity
  8
0
  6
Continuous
 62
     2
100
AcDbLine
 10
-237.6197540938527
 20
-248.2935000000032
 30
0.0
 11
-237.6197540938527
 21
-249.3623333333378
 31
0.0
  0
LINE
  5
207
102
{ACAD_REACTORS
330
2AF
330
2B0
102
}
330
A0
100
AcDbEntity
  8
0
  6
Continuous
 62
     2
100
AcDbLine
 10
-237.6197540938527
 20
-249.3623333333378
 30
0.0
 11
-236.5700965159452
 21
-249.3623333333378
 31
0.0
  0
LINE
  5
208
102
{ACAD_REACTORS
330
2BD
330
2BE
102
}
330
A0
100
AcDbEntity
  8
0
  6
Continuous
 62
     2
100
AcDbLine
 10
-240.7687268275729
 20
-248.9566058454433
 30
0.0
 11
-240.451431766031
 21
-248.9566058454433
 31
0.0
  0
LINE
  5
209
102
{ACAD_REACTORS
330
2BD
330
2BE
102
}
330
A0
100
AcDbEntity
  8
0
  6
Continuous
 62
     2
100
AcDbLine
 10
-240.7687268275729
 20
-249.6623334947855
 30
0.0
 11
-240.451431766031
 21
-249.6623334947855
 31
0.0
  0
LINE
  5
20A
102
{ACAD_REACTORS
330
2BD
330
2BE
102
}
330
A0
100
AcDbEntity
  8
0
  6
Continuous
 62
     2
100
AcDbLine
 10
-242.009231237827
 20
-248.2935000000032
 30
0.0
 11
-242.009231237827
 21
-251.3473095238144
 31
0.0
  0
LINE
  5
20B
102
{ACAD_REACTORS
330
2BD
330
2BE
102
}
330
A0
100
AcDbEntity
  8
0
  6
Continuous
 62
     2
100
AcDbLine
 10
-242.009231237827
 20
-248.2935000000032
 30
0.0
 11
-240.0099592397926
 21
-248.2935000000032
 31
0.0
  0
LINE
  5
20C
102
{ACAD_REACTORS
330
2BD
330
2BE
102
}
330
A0
100
AcDbEntity
  8
0
  6
Continuous
 62
     2
100
AcDbLine
 10
-240.7687268275729
 20
-250.4042312826706
 30
0.0
 11
-240.0099592397926
 21
-250.4042312826706
 31
0.0
  0
LINE
  5
20D
102
{ACAD_REACTORS
330
2C3
330
2C4
102
}
330
A0
100
AcDbEntity
  8
0
  6
Continuous
 62
     2
100
AcDbLine
 10
-248.1057272711237
 20
-249.321772478638
 30
0.0
 11
-248.1057272711237
 21
-253.6782275213551
 31
0.0
  0
LINE
  5
20E
102
{ACAD_REACTORS
330
2C3
330
2C4
102
}
330
A0
100
AcDbEntity
  8
0
  6
Continuous
 62
     2
100
AcDbLine
 10
-247.790010348048
 20
-249.0060555555618
 30
0.0
 11
-246.3141770870384
 21
-249.0060555555618
 31
0.0
  0
LINE
  5
20F
102
{ACAD_REACTORS
330
2C3
330
2C4
102
}
330
A0
100
AcDbEntity
  8
0
  6
Continuous
 62
     2
100
AcDbLine
 10
-245.9984601639618
 20
-249.9257970976985
 30
0.0
 11
-245.9984601639618
 21
-249.321772478638
 31
0.0
  0
LINE
  5
210
102
{ACAD_REACTORS
330
2C3
330
2C4
102
}
330
A0
100
AcDbEntity
  8
0
  6
Continuous
 62
     2
100
AcDbLine
 10
-245.9984601639618
 20
-253.6782275213551
 30
0.0
 11
-245.9984601639618
 21
-252.1474565898235
 31
0.0
  0
LINE
  5
211
102
{ACAD_REACTORS
330
2C3
330
2C4
102
}
330
A0
100
AcDbEntity
  8
0
  6
Continuous
 62
     2
100
AcDbLine
 10
-242.9105929340777
 20
-254.7064999999887
 30
0.0
 11
-248.3839050247945
 21
-254.7064999999887
 31
0.0
  0
LINE
  5
212
102
{ACAD_REACTORS
330
2C3
330
2C4
102
}
330
A0
100
AcDbEntity
  8
0
  6
Continuous
 62
     2
100
AcDbLine
 10
-242.4863483186938
 20
-248.7177446154052
 30
0.0
 11
-242.4863483186938
 21
-254.2822553846054
 31
0.0
  0
LINE
  5
213
102
{ACAD_REACTORS
330
2C3
330
2C4
102
}
330
A0
100
AcDbEntity
  8
0
  6
Continuous
 62
     2
100
AcDbLine
 10
-248.3839050247945
 20
-248.2935000000214
 30
0.0
 11
-242.9105929340777
 21
-248.2935000000214
 31
0.0
  0
LINE
  5
214
102
{ACAD_REACTORS
330
2C3
330
2C4
102
}
330
A0
100
AcDbEntity
  8
0
  6
Continuous
 62
     2
100
AcDbLine
 10
-248.8081496401773
 20
-248.7177446154052
 30
0.0
 11
-248.8081496401773
 21
-254.2822553846054
 31
0.0
  0
LINE
  5
215
102
{ACAD_REACTORS
330
2C3
330
2C4
102
}
330
A0
100
AcDbEntity
  8
0
  6
Continuous
 62
     2
100
AcDbLine
 10
-246.3141770870384
 20
-253.9939444444318
 30
0.0
 11
-247.790010348048
 21
-253.9939444444318
 31
0.0
  0
LINE
  5
216
102
{ACAD_REACTORS
330
2BD
330
2BE
102
}
330
A0
100
AcDbEntity
  8
0
  6
Continuous
 62
     2
100
AcDbLine
 10
-240.7687268275729
 20
-251.3473095238144
 30
0.0
 11
-240.7687268275729
 21
-250.4042312826706
 31
0.0
  0
LINE
  5
217
102
{ACAD_REACTORS
330
2BD
330
2BE
102
}
330
A0
100
AcDbEntity
  8
0
  6
Continuous
 62
     2
100
AcDbLine
 10
-242.009231237827
 20
-251.3473095238144
 30
0.0
 11
-240.7687268275729
 21
-251.3473095238144
 31
0.0
  0
LINE
  5
218
102
{ACAD_REACTORS
330
2BD
330
2BE
102
}
330
A0
100
AcDbEntity
  8
0
  6
Continuous
 62
     2
100
AcDbLine
 10
-240.7687268275729
 20
-249.6623334947855
 30
0.0
 11
-240.7687268275729
 21
-248.9566058454433
 31
0.0
  0
LINE
  5
219
102
{ACAD_REACTORS
330
2AF
330
2B0
102
}
330
A0
100
AcDbEntity
  8
0
  6
Continuous
 62
     2
100
AcDbLine
 10
-238.8125467960193
 20
-248.2935000000032
 30
0.0
 11
-238.8125467960193
 21
-251.3473095238144
 31
0.0
  0
LINE
  5
21A
102
{ACAD_REACTORS
330
2AF
330
2B0
102
}
330
A0
100
AcDbEntity
  8
0
  6
Continuous
 62
     2
100
AcDbLine
 10
-237.6197540938527
 20
-250.2130374149706
 30
0.0
 11
-237.6197540938527
 21
-251.3473095238144
 31
0.0
  0
LINE
  5
21B
102
{ACAD_REACTORS
330
2AF
330
2B0
102
}
330
A0
100
AcDbEntity
  8
0
  6
Continuous
 62
     2
100
AcDbLine
 10
-236.5700965159452
 20
-250.2130374149706
 30
0.0
 11
-237.6197540938527
 21
-250.2130374149706
 31
0.0
  0
LINE
  5
21C
102
{ACAD_REACTORS
330
2AF
330
2B0
102
}
330
A0
100
AcDbEntity
  8
0
  6
Continuous
 62
     2
100
AcDbLine
 10
-236.5700965159452
 20
-248.2935000000032
 30
0.0
 11
-235.3773038137788
 21
-248.2935000000032
 31
0.0
  0
LINE
  5
21D
102
{ACAD_REACTORS
330
2AF
330
2B0
102
}
330
A0
100
AcDbEntity
  8
0
  6
Continuous
 62
     2
100
AcDbLine
 10
-236.5700965159452
 20
-249.3623333333378
 30
0.0
 11
-236.5700965159452
 21
-248.2935000000032
 31
0.0
  0
LINE
  5
21E
102
{ACAD_REACTORS
330
2C1
330
2C2
102
}
330
A0
100
AcDbEntity
  8
0
  6
Continuous
 62
     2
100
AcDbLine
 10
-230.5584212970242
 20
-248.9915136054462
 30
0.0
 11
-230.5584212970242
 21
-248.2935000000032
 31
0.0
  0
LINE
  5
21F
102
{ACAD_REACTORS
330
2C1
330
2C2
102
}
330
A0
100
AcDbEntity
  8
0
  6
Continuous
 62
     2
100
AcDbLine
 10
-233.7087410208052
 20
-248.2935000000032
 30
0.0
 11
-230.5584212970242
 21
-248.2935000000032
 31
0.0
  0
LINE
  5
220
102
{ACAD_REACTORS
330
2C1
330
2C2
102
}
330
A0
100
AcDbEntity
  8
0
  6
Continuous
 62
     2
100
AcDbLine
 10
-233.7087410208052
 20
-251.3473095238144
 30
0.0
 11
-230.5584212970242
 21
-251.3473095238144
 31
0.0
  0
LINE
  5
221
102
{ACAD_REACTORS
330
2C1
330
2C2
102
}
330
A0
100
AcDbEntity
  8
0
  6
Continuous
 62
     2
100
AcDbLine
 10
-230.5584212970242
 20
-251.3473095238144
 30
0.0
 11
-230.5584212970242
 21
-250.6492959183719
 31
0.0
  0
LINE
  5
222
102
{ACAD_REACTORS
330
2C1
330
2C2
102
}
330
A0
100
AcDbEntity
  8
0
  6
Continuous
 62
     2
100
AcDbLine
 10
-230.5584212970242
 20
-250.6492959183719
 30
0.0
 11
-231.8943491234519
 21
-250.6492959183719
 31
0.0
  0
LINE
  5
223
102
{ACAD_REACTORS
330
2C1
330
2C2
102
}
330
A0
100
AcDbEntity
  8
0
  6
Continuous
 62
     2
100
AcDbLine
 10
-231.8943491234519
 20
-250.6492959183719
 30
0.0
 11
-231.8943491234519
 21
-250.1694115646302
 31
0.0
  0
LINE
  5
224
102
{ACAD_REACTORS
330
2C1
330
2C2
102
}
330
A0
100
AcDbEntity
  8
0
  6
Continuous
 62
     2
100
AcDbLine
 10
-231.8943491234519
 20
-248.9915136054462
 30
0.0
 11
-230.5584212970242
 21
-248.9915136054462
 31
0.0
  0
LINE
  5
225
102
{ACAD_REACTORS
330
2B1
330
2B2
102
}
330
A0
100
AcDbEntity
  8
0
  6
Continuous
 62
     2
100
AcDbLine
 10
-234.3755088748434
 20
-254.7064999999887
 30
0.0
 11
-234.3755088748434
 21
-253.3977244897841
 31
0.0
  0
LINE
  5
226
102
{ACAD_REACTORS
330
2B1
330
2B2
102
}
330
A0
100
AcDbEntity
  8
0
  6
Continuous
 62
     2
100
AcDbLine
 10
-234.3755088748434
 20
-253.3977244897841
 30
0.0
 11
-233.1350044645905
 21
-254.7064999999887
 31
0.0
  0
LINE
  5
227
102
{ACAD_REACTORS
330
2B1
330
2B2
102
}
330
A0
100
AcDbEntity
  8
0
  6
Continuous
 62
     2
100
AcDbLine
 10
-231.9422117624241
 20
-254.7064999999887
 30
0.0
 11
-231.9422117624241
 21
-251.6526904761776
 31
0.0
  0
LINE
  5
228
102
{ACAD_REACTORS
330
2B1
330
2B2
102
}
330
A0
100
AcDbEntity
  8
0
  6
Continuous
 62
     2
100
AcDbLine
 10
-231.9422117624241
 20
-251.6526904761776
 30
0.0
 11
-233.1350044645905
 21
-251.6526904761776
 31
0.0
  0
LINE
  5
229
102
{ACAD_REACTORS
330
2B1
330
2B2
102
}
330
A0
100
AcDbEntity
  8
0
  6
Continuous
 62
     2
100
AcDbLine
 10
-233.1350044645905
 20
-251.6526904761776
 30
0.0
 11
-233.1350044645905
 21
-252.9614659863827
 31
0.0
  0
LINE
  5
22A
102
{ACAD_REACTORS
330
2B1
330
2B2
102
}
330
A0
100
AcDbEntity
  8
0
  6
Continuous
 62
     2
100
AcDbLine
 10
-233.1350044645905
 20
-252.9614659863827
 30
0.0
 11
-234.3755088748434
 21
-251.6526904761776
 31
0.0
  0
LINE
  5
22B
102
{ACAD_REACTORS
330
2B3
330
2B4
102
}
330
A0
100
AcDbEntity
  8
0
  6
Continuous
 62
     2
100
AcDbLine
 10
-229.1270700544248
 20
-250.0385340136097
 30
0.0
 11
-227.8865656441708
 21
-251.3473095238144
 31
0.0
  0
LINE
  5
22C
102
{ACAD_REACTORS
330
2B3
330
2B4
102
}
330
A0
100
AcDbEntity
  8
0
  6
Continuous
 62
     2
100
AcDbLine
 10
-227.8865656441708
 20
-251.3473095238144
 30
0.0
 11
-226.6937729420042
 21
-251.3473095238144
 31
0.0
  0
LINE
  5
22D
102
{ACAD_REACTORS
330
2B3
330
2B4
102
}
330
A0
100
AcDbEntity
  8
0
  6
Continuous
 62
     2
100
AcDbLine
 10
-226.6937729420042
 20
-251.3473095238144
 30
0.0
 11
-226.6937729420042
 21
-248.2935000000032
 31
0.0
  0
LINE
  5
22E
102
{ACAD_REACTORS
330
2B3
330
2B4
102
}
330
A0
100
AcDbEntity
  8
0
  6
Continuous
 62
     2
100
AcDbLine
 10
-226.6937729420042
 20
-248.2935000000032
 30
0.0
 11
-227.8865656441708
 21
-248.2935000000032
 31
0.0
  0
LINE
  5
22F
102
{ACAD_REACTORS
330
2B3
330
2B4
102
}
330
A0
100
AcDbEntity
  8
0
  6
Continuous
 62
     2
100
AcDbLine
 10
-227.8865656441708
 20
-249.6022755102084
 30
0.0
 11
-229.1270700544248
 21
-248.2935000000032
 31
0.0
  0
LINE
  5
230
102
{ACAD_REACTORS
330
2B3
330
2B4
102
}
330
A0
100
AcDbEntity
  8
0
  6
Continuous
 62
     2
100
AcDbLine
 10
-230.3198627565913
 20
-251.3473095238144
 30
0.0
 11
-229.1270700544248
 21
-251.3473095238144
 31
0.0
  0
LINE
  5
231
102
{ACAD_REACTORS
330
2B5
330
2B6
102
}
330
A0
100
AcDbEntity
  8
0
  6
Continuous
 62
     2
100
AcDbLine
 10
-231.7990766381639
 20
-251.6526904761776
 30
0.0
 11
-231.7990766381639
 21
-252.4379557823012
 31
0.0
  0
LINE
  5
232
102
{ACAD_REACTORS
330
2B5
330
2B6
102
}
330
A0
100
AcDbEntity
  8
0
  6
Continuous
 62
     2
100
AcDbLine
 10
-230.9879776006893
 20
-252.4379557823012
 30
0.0
 11
-230.9879776006893
 21
-254.7064999999887
 31
0.0
  0
LINE
  5
233
102
{ACAD_REACTORS
330
2B5
330
2B6
102
}
330
A0
100
AcDbEntity
  8
0
  6
Continuous
 62
     2
100
AcDbLine
 10
-230.9879776006893
 20
-254.7064999999887
 30
0.0
 11
-229.7951848985228
 21
-254.7064999999887
 31
0.0
  0
LINE
  5
234
102
{ACAD_REACTORS
330
2B7
330
2B8
102
}
330
A0
100
AcDbEntity
  8
0
  6
Continuous
 62
     2
100
AcDbLine
 10
-226.8456584051033
 20
-254.7064999999887
 30
0.0
 11
-227.0571384585791
 21
-254.1655394557708
 31
0.0
  0
LINE
  5
235
102
{ACAD_REACTORS
330
2B7
330
2B8
102
}
330
A0
100
AcDbEntity
  8
0
  6
Continuous
 62
     2
100
AcDbLine
 10
-227.0031070417897
 20
-251.6526904761776
 30
0.0
 11
-225.6051539948494
 21
-254.7064999999887
 31
0.0
  0
LINE
  5
236
102
{ACAD_REACTORS
330
2B7
330
2B8
102
}
330
A0
100
AcDbEntity
  8
0
  6
Continuous
 62
     2
100
AcDbLine
 10
-228.2436114520424
 20
-251.6526904761776
 30
0.0
 11
-227.0031070417897
 21
-251.6526904761776
 31
0.0
  0
LINE
  5
237
102
{ACAD_REACTORS
330
2B7
330
2B8
102
}
330
A0
100
AcDbEntity
  8
0
  6
Continuous
 62
     2
100
AcDbLine
 10
-229.6415644989817
 20
-254.7064999999887
 30
0.0
 11
-228.4010600887287
 21
-254.7064999999887
 31
0.0
  0
LINE
  5
238
102
{ACAD_REACTORS
330
2B7
330
2B8
102
}
330
A0
100
AcDbEntity
  8
0
  6
Continuous
 62
     2
100
AcDbLine
 10
-227.9235244841079
 20
-253.4849761904642
 30
0.0
 11
-227.3231940097254
 21
-253.4849761904642
 31
0.0
  0
LINE
  5
239
102
{ACAD_REACTORS
330
2B7
330
2B8
102
}
330
A0
100
AcDbEntity
  8
0
  6
Continuous
 62
     2
100
AcDbLine
 10
-227.3231940097254
 20
-253.4849761904642
 30
0.0
 11
-227.6233592469155
 21
-252.7171612244775
 31
0.0
  0
LINE
  5
23A
102
{ACAD_REACTORS
330
2B9
330
2BA
102
}
330
A0
100
AcDbEntity
  8
0
  6
Continuous
 62
     2
100
AcDbLine
 10
-225.2147099913174
 20
-251.3473095238144
 30
0.0
 11
-226.4552144015703
 21
-251.3473095238144
 31
0.0
  0
LINE
  5
23B
102
{ACAD_REACTORS
330
2BB
330
2BC
102
}
330
A0
100
AcDbEntity
  8
0
  6
Continuous
 62
     2
100
AcDbLine
 10
-223.6927065033523
 20
-251.3473095238144
 30
0.0
 11
-225.0954307211005
 21
-251.3473095238144
 31
0.0
  0
LINE
  5
23C
102
{ACAD_REACTORS
330
2BB
330
2BC
102
}
330
A0
100
AcDbEntity
  8
0
  6
Continuous
 62
     2
100
AcDbLine
 10
-223.6927065033523
 20
-251.3473095238144
 30
0.0
 11
-222.9961155652866
 21
-250.5595777385207
 31
0.0
  0
LINE
  5
23D
102
{ACAD_REACTORS
330
2BB
330
2BC
102
}
330
A0
100
AcDbEntity
  8
0
  6
Continuous
 62
     2
100
AcDbLine
 10
-222.3949480433938
 20
-248.2935000000032
 30
0.0
 11
-220.9922238256466
 21
-248.2935000000032
 31
0.0
  0
LINE
  5
23E
102
{ACAD_REACTORS
330
2BB
330
2BC
102
}
330
A0
100
AcDbEntity
  8
0
  6
Continuous
 62
     2
100
AcDbLine
 10
-225.0000073049277
 20
-248.2935000000032
 30
0.0
 11
-223.6974776741602
 21
-249.7664505300394
 31
0.0
  0
LINE
  5
23F
102
{ACAD_REACTORS
330
2BB
330
2BC
102
}
330
A0
100
AcDbEntity
  8
0
  6
Continuous
 62
     2
100
AcDbLine
 10
-225.0954307211005
 20
-251.3473095238144
 30
0.0
 11
-223.6974776741602
 21
-249.7664505300394
 31
0.0
  0
LINE
  5
240
102
{ACAD_REACTORS
330
2C5
330
2C6
102
}
330
A0
100
AcDbEntity
  8
0
  6
Continuous
 62
     2
100
AcDbLine
 10
-223.2346741057206
 20
-253.6594795918251
 30
0.0
 11
-223.2346741057206
 21
-254.5319965986284
 31
0.0
  0
LINE
  5
241
102
{ACAD_REACTORS
330
2C5
330
2C6
102
}
330
A0
100
AcDbEntity
  8
0
  6
Continuous
 62
     2
100
AcDbLine
 10
-224.004331448682
 20
-252.4379557823012
 30
0.0
 11
-222.9006921491139
 21
-252.4379557823012
 31
0.0
  0
LINE
  5
242
102
{ACAD_REACTORS
330
2C7
330
2C8
102
}
330
A0
100
AcDbEntity
  8
0
  6
Continuous
 62
     2
100
AcDbLine
 10
-239.3373755849725
 20
-253.6594795918246
 30
0.0
 11
-239.3373755849725
 21
-254.5319965986278
 31
0.0
  0
LINE
  5
243
102
{ACAD_REACTORS
330
2C7
330
2C8
102
}
330
A0
100
AcDbEntity
  8
0
  6
Continuous
 62
     2
100
AcDbLine
 10
-239.3373755849725
 20
-252.6997108843417
 30
0.0
 11
-239.3373755849725
 21
-251.8271938775384
 31
0.0
  0
LINE
  5
244
330
A0
100
AcDbEntity
  8
1
  6
Continuous
 62
     7
100
AcDbLine
 10
-123.4999999999886
 20
-253.500000000005
 30
0.0
 11
-216.64480452674
 21
-253.500000000005
 31
0.0
  0
LINE
  5
245
330
A0
100
AcDbEntity
  8
1
  6
Continuous
 62
     6
100
AcDbLine
 10
-322.0448045267399
 20
-262.000000000005
 30
0.0
 11
-366.9999999999899
 21
-262.000000000005
 31
0.0
  0
LINE
  5
246
330
A0
100
AcDbEntity
  8
1
  6
Continuous
 62
     7
100
AcDbLine
 10
-132.4184082816674
 20
-236.500000000005
 30
0.0
 11
-132.4184082816674
 21
-245.000000000005
 31
0.0
  0
LINE
  5
247
330
A0
100
AcDbEntity
  8
1
  6
Continuous
 62
     7
100
AcDbLine
 10
-158.918408281667
 20
-236.500000000005
 30
0.0
 11
-158.918408281667
 21
-245.000000000005
 31
0.0
  0
LINE
  5
248
330
A0
100
AcDbEntity
  8
1
  6
Continuous
 62
     7
100
AcDbLine
 10
-216.64480452674
 20
-245.000000000005
 30
0.0
 11
-216.64480452674
 21
-236.500000000005
 31
0.0
  0
LINE
  5
249
330
A0
100
AcDbEntity
  8
1
  6
Continuous
 62
     7
100
AcDbLine
 10
-253.0448045267399
 20
-245.000000000005
 30
0.0
 11
-253.0448045267399
 21
-236.500000000005
 31
0.0
  0
LINE
  5
24A
330
A0
100
AcDbEntity
  8
1
  6
Continuous
 62
     6
100
AcDbLine
 10
-216.64480452674
 20
-245.000000000005
 30
0.0
 11
-123.4999999999882
 21
-245.000000000005
 31
0.0
  0
LINE
  5
24B
330
A0
100
AcDbEntity
  8
1
  6
Continuous
 62
     7
100
AcDbLine
 10
-188.7448045267399
 20
-253.5000000000051
 30
0.0
 11
-188.7448045267399
 21
-245.000000000005
 31
0.0
  0
LINE
  5
24C
330
A0
100
AcDbEntity
  8
1
  6
PHANTOM
 62
     2
100
AcDbLine
 10
-237.5581496401773
 20
-240.8750000000051
 30
0.0
 11
-243.0581496401773
 21
-240.8750000000051
 31
0.0
  0
LINE
  5
24D
330
A0
100
AcDbEntity
  8
1
  6
PHANTOM
 62
     2
100
AcDbLine
 10
-240.3081496401773
 20
-238.1250000000051
 30
0.0
 11
-240.3081496401773
 21
-243.6250000000051
 31
0.0
  0
LINE
  5
24E
330
A0
100
AcDbEntity
  8
1
  6
DOT_CENTER
 62
     2
100
AcDbLine
 10
-249.0581496401773
 20
-240.8750000000051
 30
0.0
 11
-243.5581496401773
 21
-240.8750000000051
 31
0.0
  0
ARC
  5
24F
102
{ACAD_REACTORS
330
2C7
330
2C8
102
}
330
A0
100
AcDbEntity
  8
0
  6
Continuous
 62
     2
100
AcDbCircle
 10
-240.6733035020903
 20
-256.4922761833393
 30
0.0
 40
4.852596863498068
100
AcDbArc
 50
74.02000874164739
 51
84.84185523037506
  0
ARC
  5
250
102
{ACAD_REACTORS
330
2C7
330
2C8
102
}
330
A0
100
AcDbEntity
  8
0
  6
Continuous
 62
     2
100
AcDbCircle
 10
-240.0972628933366
 20
-253.336515827455
 30
0.0
 40
0.9059297849853228
100
AcDbArc
 50
71.55192388185348
 51
113.372277888129
  0
ARC
  5
251
102
{ACAD_REACTORS
330
2C7
330
2C8
102
}
330
A0
100
AcDbEntity
  8
0
  6
Continuous
 62
     2
100
AcDbCircle
 10
-240.2537029260386
 20
-253.3846666674219
 30
0.0
 40
0.5115800601948034
100
AcDbArc
 50
208.5214732576956
 51
246.6277221118274
  0
ARC
  5
252
102
{ACAD_REACTORS
330
2C7
330
2C8
102
}
330
A0
100
AcDbEntity
  8
0
  6
Continuous
 62
     2
100
AcDbCircle
 10
-240.0972628933366
 20
-253.0226746487119
 30
0.0
 40
0.9059297849849192
100
AcDbArc
 50
246.627722111871
 51
288.4480761181584
  0
ARC
  5
253
102
{ACAD_REACTORS
330
2C7
330
2C8
102
}
330
A0
100
AcDbEntity
  8
0
  6
Continuous
 62
     2
100
AcDbCircle
 10
-240.5154306269974
 20
-251.7691288726747
 30
0.0
 40
2.227384008972737
100
AcDbArc
 50
288.4480761181328
 51
301.9309089499593
  0
ARC
  5
254
102
{ACAD_REACTORS
330
2C3
330
2C4
102
}
330
A0
100
AcDbEntity
  8
0
  6
Continuous
 62
     2
100
AcDbCircle
 10
-245.7405043596042
 20
-251.0366268437607
 30
0.0
 40
0.911848150144459
100
AcDbArc
 50
295.3740086781764
 51
64.62599132180748
  0
ARC
  5
255
102
{ACAD_REACTORS
330
2C3
330
2C4
102
}
330
A0
100
AcDbEntity
  8
0
  6
Continuous
 62
     2
100
AcDbCircle
 10
-245.2144616615163
 20
-249.3219499552861
 30
0.0
 40
0.3157169230760711
100
AcDbArc
 50
90.18896704254594
 51
180.0
  0
ARC
  5
256
102
{ACAD_REACTORS
330
2C5
330
2C6
102
}
330
A0
100
AcDbEntity
  8
0
  6
Continuous
 62
     2
100
AcDbCircle
 10
-224.004331448682
 20
-253.3924787891273
 30
0.0
 40
0.9545230068260935
100
AcDbArc
 50
90.0
 51
109.337143219432
  0
ARC
  5
257
102
{ACAD_REACTORS
330
2C5
330
2C6
102
}
330
A0
100
AcDbEntity
  8
0
  6
Continuous
 62
     2
100
AcDbCircle
 10
-223.7736441887043
 20
-253.1795952380834
 30
0.0
 40
0.9410597353348924
100
AcDbArc
 50
151.4785267423624
 51
208.5214732576695
  0
ARC
  5
258
102
{ACAD_REACTORS
330
2C5
330
2C6
102
}
330
A0
100
AcDbEntity
  8
0
  6
Continuous
 62
     2
100
AcDbCircle
 10
-223.9945614140826
 20
-253.0226746487119
 30
0.0
 40
0.9059297849852801
100
AcDbArc
 50
246.6277221118183
 51
288.4480761180817
  0
ARC
  5
259
102
{ACAD_REACTORS
330
2C5
330
2C6
102
}
330
A0
100
AcDbEntity
  8
0
  6
Continuous
 62
     2
100
AcDbCircle
 10
-224.4127291477445
 20
-251.7691288726753
 30
0.0
 40
2.227384008972746
100
AcDbArc
 50
288.4480761181335
 51
301.9309089499397
  0
ARC
  5
25A
102
{ACAD_REACTORS
330
2C5
330
2C6
102
}
330
A0
100
AcDbEntity
  8
0
  6
Continuous
 62
     2
100
AcDbCircle
 10
-224.5706020228373
 20
-249.866914292827
 30
0.0
 40
4.852596863498825
100
AcDbArc
 50
275.1581447696364
 51
285.9799912583387
  0
ARC
  5
25B
102
{ACAD_REACTORS
330
2C5
330
2C6
102
}
330
A0
100
AcDbEntity
  8
0
  6
Continuous
 62
     2
100
AcDbCircle
 10
-224.2817459281015
 20
-253.0668048760486
 30
0.0
 40
1.639695123940448
100
AcDbArc
 50
195.0618917771012
 51
275.1581447696762
  0
ARC
  5
25C
102
{ACAD_REACTORS
330
2BD
330
2BE
102
}
330
A0
100
AcDbEntity
  8
0
  6
Continuous
 62
     2
100
AcDbCircle
 10
-240.0099592397926
 20
-249.3488656413369
 30
0.0
 40
1.055365641333708
100
AcDbArc
 50
270.0
 51
90.0
  0
ARC
  5
25D
102
{ACAD_REACTORS
330
2C3
330
2C4
102
}
330
A0
100
AcDbEntity
  8
0
  6
Continuous
 62
     2
100
AcDbCircle
 10
-247.790010348048
 20
-253.6782275213551
 30
0.0
 40
0.3157169230756836
100
AcDbArc
 50
180.0
 51
270.0
  0
ARC
  5
25E
102
{ACAD_REACTORS
330
2C3
330
2C4
102
}
330
A0
100
AcDbEntity
  8
0
  6
Continuous
 62
     2
100
AcDbCircle
 10
-246.3141770870384
 20
-249.321772478638
 30
0.0
 40
0.315716923076593
100
AcDbArc
 50
0.0
 51
90.0
  0
ARC
  5
25F
102
{ACAD_REACTORS
330
2C3
330
2C4
102
}
330
A0
100
AcDbEntity
  8
0
  6
Continuous
 62
     2
100
AcDbCircle
 10
-246.3141770870384
 20
-249.9257970976985
 30
0.0
 40
0.3157169230761203
100
AcDbArc
 50
295.1944106485397
 51
0.0
  0
ARC
  5
260
102
{ACAD_REACTORS
330
2C3
330
2C4
102
}
330
A0
100
AcDbEntity
  8
0
  6
Continuous
 62
     2
100
AcDbCircle
 10
-246.3141770870384
 20
-253.6782275213551
 30
0.0
 40
0.3157169230767067
100
AcDbArc
 50
270.0
 51
0.0
  0
ARC
  5
261
102
{ACAD_REACTORS
330
2C3
330
2C4
102
}
330
A0
100
AcDbEntity
  8
0
  6
Continuous
 62
     2
100
AcDbCircle
 10
-248.3839050247945
 20
-248.7177446154052
 30
0.0
 40
0.4242446153837989
100
AcDbArc
 50
90.0
 51
180.0
  0
ARC
  5
262
102
{ACAD_REACTORS
330
2C3
330
2C4
102
}
330
A0
100
AcDbEntity
  8
0
  6
Continuous
 62
     2
100
AcDbCircle
 10
-242.9105929340777
 20
-248.7177446154052
 30
0.0
 40
0.4242446153838841
100
AcDbArc
 50
0.0
 51
90.0
  0
ARC
  5
263
102
{ACAD_REACTORS
330
2C3
330
2C4
102
}
330
A0
100
AcDbEntity
  8
0
  6
Continuous
 62
     2
100
AcDbCircle
 10
-242.9105929340777
 20
-254.2822553846054
 30
0.0
 40
0.4242446153832873
100
AcDbArc
 50
270.0
 51
0.0
  0
ARC
  5
264
102
{ACAD_REACTORS
330
2C1
330
2C2
102
}
330
A0
100
AcDbEntity
  8
0
  6
Continuous
 62
     2
100
AcDbCircle
 10
-233.6922090469862
 20
-249.8204047619091
 30
0.0
 40
0.7717997786796373
100
AcDbArc
 50
321.8795802028437
 51
38.12041979715956
  0
ARC
  5
265
102
{ACAD_REACTORS
330
2C1
330
2C2
102
}
330
A0
100
AcDbEntity
  8
0
  6
Continuous
 62
     2
100
AcDbCircle
 10
-233.49246901064
 20
-249.9771359400295
 30
0.0
 40
0.5179085730134372
100
AcDbArc
 50
218.1204197971511
 51
321.8795802028566
  0
ARC
  5
266
102
{ACAD_REACTORS
330
2BF
330
2C0
102
}
330
A0
100
AcDbEntity
  8
0
  6
Continuous
 62
     2
100
AcDbCircle
 10
-237.1724765996002
 20
-253.1795952380834
 30
0.0
 40
1.458034083652003
100
AcDbArc
 50
297.548148175701
 51
62.45185182429896
  0
ARC
  5
267
102
{ACAD_REACTORS
330
2BF
330
2C0
102
}
330
A0
100
AcDbEntity
  8
0
  6
Continuous
 62
     2
100
AcDbCircle
 10
-237.7343563832668
 20
-253.1795952380834
 30
0.0
 40
1.45803408365149
100
AcDbArc
 50
117.5481481756624
 51
242.4518518243375
  0
ARC
  5
268
102
{ACAD_REACTORS
330
2BF
330
2C0
102
}
330
A0
100
AcDbEntity
  8
0
  6
Continuous
 62
     2
100
AcDbCircle
 10
-237.4534164914335
 20
-253.7181702483862
 30
0.0
 40
2.065479772208568
100
AcDbArc
 50
62.45185182430637
 51
117.5481481756664
  0
ARC
  5
269
102
{ACAD_REACTORS
330
2BF
330
2C0
102
}
330
A0
100
AcDbEntity
  8
0
  6
Continuous
 62
     2
100
AcDbCircle
 10
-237.4534164914335
 20
-252.6410202277801
 30
0.0
 40
2.065479772208509
100
AcDbArc
 50
242.4518518243402
 51
297.5481481756871
  0
ARC
  5
26A
102
{ACAD_REACTORS
330
2C1
330
2C2
102
}
330
A0
100
AcDbEntity
  8
0
  6
Continuous
 62
     2
100
AcDbCircle
 10
-233.2927289742937
 20
-249.8204047619091
 30
0.0
 40
0.7717997786796724
100
AcDbArc
 50
141.8795802028404
 51
218.1204197971562
  0
ARC
  5
26B
102
{ACAD_REACTORS
330
2C1
330
2C2
102
}
330
A0
100
AcDbEntity
  8
0
  6
Continuous
 62
     2
100
AcDbCircle
 10
-233.49246901064
 20
-249.6636735837886
 30
0.0
 40
0.5179085730135266
100
AcDbArc
 50
38.12041979714334
 51
141.8795802028489
  0
ARC
  5
26C
102
{ACAD_REACTORS
330
2C3
330
2C4
102
}
330
A0
100
AcDbEntity
  8
0
  6
Continuous
 62
     2
100
AcDbCircle
 10
-248.3839050247945
 20
-254.2822553846054
 30
0.0
 40
0.4242446153828041
100
AcDbArc
 50
180.0
 51
270.0
  0
ARC
  5
26D
102
{ACAD_REACTORS
330
2C3
330
2C4
102
}
330
A0
100
AcDbEntity
  8
0
  6
Continuous
 62
     2
100
AcDbCircle
 10
-246.3141770870384
 20
-252.1474565898235
 30
0.0
 40
0.315716923076593
100
AcDbArc
 50
0.0
 51
64.80558935146027
  0
ARC
  5
26E
102
{ACAD_REACTORS
330
2C3
330
2C4
102
}
330
A0
100
AcDbEntity
  8
0
  6
Continuous
 62
     2
100
AcDbCircle
 10
-245.7915926394634
 20
-251.0366268437607
 30
0.0
 40
0.9118975235576147
100
AcDbArc
 50
115.1944106485282
 51
244.8055893514878
  0
ARC
  5
26F
102
{ACAD_REACTORS
330
2C3
330
2C4
102
}
330
A0
100
AcDbEntity
  8
0
  6
Continuous
 62
     2
100
AcDbCircle
 10
-247.790010348048
 20
-249.321772478638
 30
0.0
 40
0.3157169230761951
100
AcDbArc
 50
90.0
 51
180.0
  0
ARC
  5
270
102
{ACAD_REACTORS
330
2BD
330
2BE
102
}
330
A0
100
AcDbEntity
  8
0
  6
Continuous
 62
     2
100
AcDbCircle
 10
-240.451431766031
 20
-249.3094696701144
 30
0.0
 40
0.3528638246711182
100
AcDbArc
 50
270.0
 51
90.0
  0
ARC
  5
271
102
{ACAD_REACTORS
330
2C1
330
2C2
102
}
330
A0
100
AcDbEntity
  8
0
  6
Continuous
 62
     2
100
AcDbCircle
 10
-233.7087410208052
 20
-249.8204047619091
 30
0.0
 40
1.526904761905882
100
AcDbArc
 50
90.0
 51
270.0
  0
ARC
  5
272
102
{ACAD_REACTORS
330
2C5
330
2C6
102
}
330
A0
100
AcDbEntity
  8
0
  6
Continuous
 62
     2
100
AcDbCircle
 10
-224.2817459281015
 20
-253.2923856001183
 30
0.0
 40
1.639695123940214
100
AcDbArc
 50
90.0
 51
164.938108222895
  0
ARC
  5
273
102
{ACAD_REACTORS
330
2C5
330
2C6
102
}
330
A0
100
AcDbEntity
  8
0
  6
Continuous
 62
     2
100
AcDbCircle
 10
-224.7008737715631
 20
-253.1795952380834
 30
0.0
 40
1.205656168393002
100
AcDbArc
 50
164.9381082229028
 51
195.0618917770959
  0
ARC
  5
274
102
{ACAD_REACTORS
330
2C5
330
2C6
102
}
330
A0
100
AcDbEntity
  8
0
  6
Continuous
 62
     2
100
AcDbCircle
 10
-224.1510014467857
 20
-253.3846666674219
 30
0.0
 40
0.5115800601960215
100
AcDbArc
 50
208.5214732576866
 51
246.6277221118449
  0
ARC
  5
275
102
{ACAD_REACTORS
330
2C5
330
2C6
102
}
330
A0
100
AcDbEntity
  8
0
  6
Continuous
 62
     2
100
AcDbCircle
 10
-224.1510014467857
 20
-252.9745238087444
 30
0.0
 40
0.5115800601944143
100
AcDbArc
 50
109.3371432194853
 51
151.4785267424225
  0
ARC
  5
276
102
{ACAD_REACTORS
330
2C3
330
2C4
102
}
330
A0
100
AcDbEntity
  8
0
  6
Continuous
 62
     2
100
AcDbCircle
 10
-245.2144616615163
 20
-252.7276198504242
 30
0.0
 40
0.315716923076792
100
AcDbArc
 50
180.0
 51
269.8110329574542
  0
ARC
  5
277
102
{ACAD_REACTORS
330
2C3
330
2C4
102
}
330
A0
100
AcDbEntity
  8
0
  6
Continuous
 62
     2
100
AcDbCircle
 10
-245.2088455262063
 20
-251.0247849028552
 30
0.0
 40
2.018561131933266
100
AcDbArc
 50
269.8110329575858
 51
90.18896704241416
  0
ARC
  5
278
102
{ACAD_REACTORS
330
2C3
330
2C4
102
}
330
A0
100
AcDbEntity
  8
0
  6
Continuous
 62
     2
100
AcDbCircle
 10
-245.2144616615163
 20
-249.9274852437929
 30
0.0
 40
0.315716923076792
100
AcDbArc
 50
180.0
 51
244.6259913216482
  0
ARC
  5
279
102
{ACAD_REACTORS
330
2C3
330
2C4
102
}
330
A0
100
AcDbEntity
  8
0
  6
Continuous
 62
     2
100
AcDbCircle
 10
-245.2144616615163
 20
-252.1457684437291
 30
0.0
 40
0.3157169230765328
100
AcDbArc
 50
115.3740086783519
 51
180.0
  0
ARC
  5
27A
102
{ACAD_REACTORS
330
2C7
330
2C8
102
}
330
A0
100
AcDbEntity
  8
0
  6
Continuous
 62
     2
100
AcDbCircle
 10
-240.3844474073544
 20
-253.2923856001183
 30
0.0
 40
1.639695123940507
100
AcDbArc
 50
84.84185523036236
 51
164.9381082228864
  0
ARC
  5
27B
102
{ACAD_REACTORS
330
2C7
330
2C8
102
}
330
A0
100
AcDbEntity
  8
0
  6
Continuous
 62
     2
100
AcDbCircle
 10
-240.8035752508172
 20
-253.1795952380834
 30
0.0
 40
1.205656168390944
100
AcDbArc
 50
164.9381082228765
 51
195.0618917770948
  0
ARC
  5
27C
102
{ACAD_REACTORS
330
2C7
330
2C8
102
}
330
A0
100
AcDbEntity
  8
0
  6
Continuous
 62
     2
100
AcDbCircle
 10
-240.3844474073544
 20
-253.0668048760486
 30
0.0
 40
1.639695123939387
100
AcDbArc
 50
195.0618917770896
 51
275.1581447696395
  0
ARC
  5
27D
102
{ACAD_REACTORS
330
2C7
330
2C8
102
}
330
A0
100
AcDbEntity
  8
0
  6
Continuous
 62
     2
100
AcDbCircle
 10
-240.6733035020903
 20
-249.866914292827
 30
0.0
 40
4.852596863498138
100
AcDbArc
 50
275.1581447696249
 51
285.9799912583529
  0
ARC
  5
27E
102
{ACAD_REACTORS
330
2C7
330
2C8
102
}
330
A0
100
AcDbEntity
  8
0
  6
Continuous
 62
     2
100
AcDbCircle
 10
-239.8763456679583
 20
-253.1795952380834
 30
0.0
 40
0.9410597353332545
100
AcDbArc
 50
151.4785267422669
 51
208.5214732577057
  0
ARC
  5
27F
102
{ACAD_REACTORS
330
2C7
330
2C8
102
}
330
A0
100
AcDbEntity
  8
0
  6
Continuous
 62
     2
100
AcDbCircle
 10
-240.2537029260386
 20
-252.9745238087444
 30
0.0
 40
0.5115800601948779
100
AcDbArc
 50
113.3722778881992
 51
151.4785267423044
  0
ARC
  5
280
102
{ACAD_REACTORS
330
2C7
330
2C8
102
}
330
A0
100
AcDbEntity
  8
0
  6
Continuous
 62
     2
100
AcDbCircle
 10
-240.5154306269974
 20
-254.5900616034916
 30
0.0
 40
2.227384008973478
100
AcDbArc
 50
58.06909105004071
 51
71.55192388186722
  0
ARC
  5
281
102
{ACAD_REACTORS
330
2BF
330
2C0
102
}
330
A0
100
AcDbEntity
  8
0
  6
Continuous
 62
     2
100
AcDbCircle
 10
-237.4534164914335
 20
-253.0228640599629
 30
0.0
 40
0.5179085730132998
100
AcDbArc
 50
38.12041979714704
 51
141.8795802028588
  0
ARC
  5
282
102
{ACAD_REACTORS
330
2BF
330
2C0
102
}
330
A0
100
AcDbEntity
  8
0
  6
Continuous
 62
     2
100
AcDbCircle
 10
-237.2536764550874
 20
-253.1795952380834
 30
0.0
 40
0.7717997786794633
100
AcDbArc
 50
141.8795802028363
 51
218.1204197971687
  0
ARC
  5
283
102
{ACAD_REACTORS
330
2BF
330
2C0
102
}
330
A0
100
AcDbEntity
  8
0
  6
Continuous
 62
     2
100
AcDbCircle
 10
-237.4534164914335
 20
-253.3363264162034
 30
0.0
 40
0.5179085730137354
100
AcDbArc
 50
218.1204197971931
 51
321.879580202801
  0
ARC
  5
284
102
{ACAD_REACTORS
330
2BF
330
2C0
102
}
330
A0
100
AcDbEntity
  8
0
  6
Continuous
 62
     2
100
AcDbCircle
 10
-237.6531565277799
 20
-253.1795952380834
 30
0.0
 40
0.7717997786796947
100
AcDbArc
 50
321.8795802028417
 51
38.12041979715329
  0
CIRCLE
  5
285
330
A0
100
AcDbEntity
  8
1
  6
Continuous
 62
     2
100
AcDbCircle
 10
-240.3081496401773
 20
-240.8750000000051
 30
0.0
 40
2.5
  0
CIRCLE
  5
286
330
A0
100
AcDbEntity
  8
1
  6
Continuous
 62
     2
100
AcDbCircle
 10
-240.3081496401773
 20
-240.8750000000051
 30
0.0
 40
1.249999999999915
  0
CIRCLE
  5
287
102
{ACAD_REACTORS
330
2C3
330
2C4
102
}
330
A0
100
AcDbEntity
  8
0
  6
Continuous
 62
     2
100
AcDbCircle
 10
-245.764319374277
 20
-251.0366268437607
 30
0.0
 40
0.4709789327785074
  0
MTEXT
  5
288
330
A0
100
AcDbEntity
  8
1
 62
     3
100
AcDbMText
 10
-410.4949322139181
 20
-75.20869184470621
 30
0.0
 40
1.8
 41
0.0
 71
     7
 72
     1
  3
Weitergabe sowie Vervielfältigung dieses Dokuments, Verwertung und \PMitteilung seines Inhalts sind verboten, soweit nicht ausdrücklich gestattet. \PZuwiderhandlungen verpflichten zu Schadenersatz. Alle Rechte für den Fall\Pder Patent-, Gebrauchsmus
  1
ter- oder Designeintragung vorbehalten.
  7
CONVERTER_11
 73
     1
 44
0.99639855942377
  0
MTEXT
  5
289
330
A0
100
AcDbEntity
  8
1
 62
     3
100
AcDbMText
 10
-227.64182237513
 20
-75.20869184470621
 30
0.0
 40
1.8
 41
0.0
 71
     7
 72
     1
  3
Transfer or duplication of this document as well as the utilisation or\Pcommunication of its content are not permitted unless express consent\Pis granted. Violations give rise to claims for damages. All rights reserved\Pin case of patent, utility mo
  1
del or design patent registrations.
  7
CONVERTER_11
 73
     1
 44
0.99639855942377
  0
TEXT
  5
28A
330
A0
100
AcDbEntity
  8
1
 62
     2
100
AcDbText
 10
-233.8448045267401
 20
-260.7590172149966
 30
0.0
 40
1.8
  1
of
 41
0.9
  7
CONVERTER_11
100
AcDbText
  0
TEXT
  5
28B
330
A0
100
AcDbEntity
  8
1
 62
     2
100
AcDbText
 10
-252.0448045267399
 20
-260.7590172149967
 30
0.0
 40
1.8
  1
page
 41
0.9
  7
CONVERTER_11
100
AcDbText
  0
TEXT
  5
28C
330
A0
100
AcDbEntity
  8
1
 62
     2
100
AcDbText
 10
-243.3985395563979
 20
-260.799248653807
 30
0.0
 40
1.8
  1
1
 41
0.9
  7
CONVERTER_11
100
AcDbText
  0
TEXT
  5
28D
330
A0
100
AcDbEntity
  8
1
 62
     2
100
AcDbText
 10
-228.6094957169264
 20
-260.7500000000051
 30
0.0
 40
1.8
  1
1
 41
0.9
  7
CONVERTER_11
100
AcDbText
  0
MTEXT
  5
28F
330
A0
100
AcDbEntity
  8
1
 62
     7
100
AcDbMText
 10
-170.0724022633644
 20
-258.7500000000048
 30
0.0
 40
3.0
 41
0.0
 71
     5
 72
     1
  1
UCT-EM (17X9)
  7
CONVERTER_12
 73
     1
 44
1.20048019207683
  0
MTEXT
  5
290
330
A0
100
AcDbEntity
  8
1
 62
     2
100
AcDbMText
 10
-215.64480452674
 20
-254.500000000005
 30
0.0
 40
1.8
 41
0.0
 71
     1
 72
     1
  1
description
  7
CONVERTER_11
 73
     1
 44
1.20048019207683
  0
MTEXT
  5
291
330
A0
100
AcDbEntity
  8
1
 62
     3
100
AcDbMText
 10
-226.84480452674
 20
-240.875000000005
 30
0.0
 40
2.5
 41
0.0
 71
     5
 72
     1
  1
DIN A4
  7
CONVERTER_11
 73
     1
 44
1.20048019207683
  0
MTEXT
  5
292
330
A0
100
AcDbEntity
  8
1
 62
     7
100
AcDbMText
 10
-412.999999999989
 20
-239.500000000005
 30
0.0
 40
3.5
 41
0.0
 71
     5
 72
     1
  1
D
  7
CONVERTER_11
 73
     1
 44
1.20048019207683
  0
MTEXT
  5
293
330
A0
100
AcDbEntity
  8
1
 62
     7
100
AcDbMText
 10
-412.999999999989
 20
-187.000000000005
 30
0.0
 40
3.5
 41
0.0
 71
     5
 72
     1
  1
C
  7
CONVERTER_11
 73
     1
 44
1.20048019207683
  0
MTEXT
  5
294
330
A0
100
AcDbEntity
  8
1
 62
     7
100
AcDbMText
 10
-412.999999999989
 20
-137.000000000005
 30
0.0
 40
3.5
 41
0.0
 71
     5
 72
     1
  1
B
  7
CONVERTER_11
 73
     1
 44
1.20048019207683
  0
MTEXT
  5
295
330
A0
100
AcDbEntity
  8
1
 62
     7
100
AcDbMText
 10
-412.999999999989
 20
-84.500000000005
 30
0.0
 40
3.5
 41
0.0
 71
     5
 72
     1
  1
A
  7
CONVERTER_11
 73
     1
 44
1.20048019207683
  0
MTEXT
  5
296
330
A0
100
AcDbEntity
  8
1
 62
     7
100
AcDbMText
 10
-142.7499999999907
 20
-264.5000000000051
 30
0.0
 40
3.5
 41
0.0
 71
     5
 72
     1
  1
6
  7
CONVERTER_11
 73
     1
 44
1.20048019207683
  0
MTEXT
  5
297
330
A0
100
AcDbEntity
  8
1
 62
     7
100
AcDbMText
 10
-191.9999999999899
 20
-264.5000000000051
 30
0.0
 40
3.5
 41
0.0
 71
     5
 72
     1
  1
5
  7
CONVERTER_11
 73
     1
 44
1.20048019207683
  0
MTEXT
  5
298
330
A0
100
AcDbEntity
  8
1
 62
     7
100
AcDbMText
 10
-241.99999999999
 20
-264.5000000000051
 30
0.0
 40
3.5
 41
0.0
 71
     5
 72
     1
  1
4
  7
CONVERTER_11
 73
     1
 44
1.20048019207683
  0
MTEXT
  5
299
330
A0
100
AcDbEntity
  8
1
 62
     7
100
AcDbMText
 10
-291.9999999999899
 20
-264.5000000000051
 30
0.0
 40
3.5
 41
0.0
 71
     5
 72
     1
  1
3
  7
CONVERTER_11
 73
     1
 44
1.20048019207683
  0
MTEXT
  5
29A
330
A0
100
AcDbEntity
  8
1
 62
     7
100
AcDbMText
 10
-341.9999999999899
 20
-264.5000000000051
 30
0.0
 40
3.5
 41
0.0
 71
     5
 72
     1
  1
2
  7
CONVERTER_11
 73
     1
 44
1.20048019207683
  0
MTEXT
  5
29B
330
A0
100
AcDbEntity
  8
1
 62
     7
100
AcDbMText
 10
-391.2499999999895
 20
-264.5000000000051
 30
0.0
 40
3.5
 41
0.0
 71
     5
 72
     1
  1
1
  7
CONVERTER_11
 73
     1
 44
1.20048019207683
  0
MTEXT
  5
29C
330
A0
100
AcDbEntity
  8
1
 62
     7
100
AcDbMText
 10
-120.9999999999909
 20
-239.500000000005
 30
0.0
 40
3.5
 41
0.0
 71
     5
 72
     1
  1
D
  7
CONVERTER_11
 73
     1
 44
1.20048019207683
  0
MTEXT
  5
29D
330
A0
100
AcDbEntity
  8
1
 62
     7
100
AcDbMText
 10
-120.9999999999909
 20
-137.0000000000031
 30
0.0
 40
3.5
 41
0.0
 71
     5
 72
     1
  1
B
  7
CONVERTER_11
 73
     1
 44
1.20048019207683
  0
MTEXT
  5
29E
330
A0
100
AcDbEntity
  8
1
 62
     7
100
AcDbMText
 10
-120.9999999999909
 20
-84.500000000005
 30
0.0
 40
3.5
 41
0.0
 71
     5
 72
     1
  1
A
  7
CONVERTER_11
 73
     1
 44
1.20048019207683
  0
MTEXT
  5
29F
330
A0
100
AcDbEntity
  8
1
 62
     7
100
AcDbMText
 10
-120.9999999999909
 20
-187.0000000000031
 30
0.0
 40
3.5
 41
0.0
 71
     5
 72
     1
  1
C
  7
CONVERTER_11
 73
     1
 44
1.20048019207683
  0
MTEXT
  5
2A0
330
A0
100
AcDbEntity
  8
1
 62
     2
100
AcDbMText
 10
-287.4828192517874
 20
-249.2500000000051
 30
0.0
 40
2.0
 41
0.0
 71
     5
 72
     1
  1
General Information\P- Simplified representation\P- Document excluded from change process\P- Linear dimensions [mm]
  7
CONVERTER_11
 73
     1
 44
1.20048019207683
  0
TEXT
  5
2A1
330
A0
100
AcDbEntity
  8
1
 62
     7
100
AcDbText
 10
-215.1448045267402
 20
-252.2000000000051
 30
0.0
 40
2.5
  1
0801475
 41
0.81
  7
CONVERTER_12
100
AcDbText
  0
MTEXT
  5
2A2
330
A0
100
AcDbEntity
  8
1
 62
     2
100
AcDbMText
 10
-215.5448045267399
 20
-246.000000000005
 30
0.0
 40
1.8
 41
0.0
 71
     1
 72
     1
  1
ident.-No.
  7
CONVERTER_11
 73
     1
 44
1.20048019207683
  0
MTEXT
  5
2A3
330
A0
100
AcDbEntity
  8
1
 62
     2
100
AcDbMText
 10
-131.3184082816672
 20
-237.500000000005
 30
0.0
 40
1.8
 41
0.0
 71
     1
 72
     1
  1
scale
  7
CONVERTER_11
 73
     1
 44
1.20048019207683
  0
MTEXT
  5
2A5
330
A0
100
AcDbEntity
  8
1
 62
     3
100
AcDbMText
 10
-127.9592041408276
 20
-243.7000000000049
 30
0.0
 40
2.5
 41
0.0
 71
     8
 72
     1
  1
2:1
  7
CONVERTER_13
 73
     1
 44
1.32052821128451
  0
TEXT
  5
2A6
330
A0
100
AcDbEntity
  8
1
 62
     7
100
AcDbText
 10
-215.5448045267399
 20
-243.7000000000051
 30
0.0
 40
2.5
  1
01220115
 41
0.81
  7
CONVERTER_12
100
AcDbText
  0
MTEXT
  5
2A8
330
A0
100
AcDbEntity
  8
1
 62
     2
100
AcDbMText
 10
-215.5448045267399
 20
-237.500000000005
 30
0.0
 40
1.8
 41
0.0
 71
     1
 72
     1
  1
document-No. / RI
  7
CONVERTER_14
 73
     1
 44
1.32052821128451
  0
TEXT
  5
2A9
330
A0
100
AcDbEntity
  8
1
 62
     3
100
AcDbText
 10
-187.7448045267399
 20
-252.2000000000051
 30
0.0
 40
2.5
  1
 
 41
0.81
  7
CONVERTER_12
100
AcDbText
  0
MTEXT
  5
2AA
330
A0
100
AcDbEntity
  8
1
 62
     2
100
AcDbMText
 10
-187.7448045267399
 20
-246.0000000000051
 30
0.0
 40
1.8
 41
0.0
 71
     1
 72
     1
  1
document-type
  7
CONVERTER_11
 73
     1
 44
1.20048019207683
  0
MTEXT
  5
2AB
330
A0
100
AcDbEntity
  8
1
 62
     2
100
AcDbMText
 10
-157.918408281667
 20
-237.5000000000051
 30
0.0
 40
1.8
 41
0.0
 71
     1
 72
     1
  1
date
  7
CONVERTER_11
 73
     1
 44
1.32052821128451
  0
TEXT
  5
2AC
330
A0
100
AcDbEntity
  8
1
 62
     3
100
AcDbText
 10
-157.918408281667
 20
-243.7000000000051
 30
0.0
 40
2.5
  1
05.06.2019
 41
0.81
  7
CONVERTER_12
100
AcDbText
  0
TEXT
  5
2AD
330
A0
100
AcDbEntity
  8
1
 62
     7
100
AcDbText
 10
-195.5148923076841
 20
-243.7000000000051
 30
0.0
 40
2.5
  1
00
 41
0.81
  7
CONVERTER_12
100
AcDbText
  0
TEXT
  5
2AE
330
A0
100
AcDbEntity
  8
1
 62
     7
100
AcDbText
 10
-197.6712568047261
 20
-243.7000000000051
 30
0.0
 40
2.5
  1
/
 41
0.9
  7
CONVERTER_11
100
AcDbText
  0
HATCH
  5
2AF
330
A0
100
AcDbEntity
  8
1
  6
Continuous
 62
     2
100
AcDbHatch
 10
0.0
 20
0.0
 30
0.0
210
0.0
220
0.0
230
1.0
  2
_USER
 70
     0
 71
     1
 91
        1
 92
        1
 93
       12
 72
     1
 10
-235.3773038137788
 20
-251.3473095238144
 11
-236.5700965159452
 21
-251.3473095238144
 72
     1
 10
-236.5700965159452
 20
-251.3473095238144
 11
-236.5700965159452
 21
-250.2130374149706
 72
     1
 10
-236.5700965159452
 20
-250.2130374149706
 11
-237.6197540938527
 21
-250.2130374149706
 72
     1
 10
-237.6197540938527
 20
-250.2130374149706
 11
-237.6197540938527
 21
-251.3473095238144
 72
     1
 10
-237.6197540938527
 20
-251.3473095238144
 11
-238.8125467960193
 21
-251.3473095238144
 72
     1
 10
-238.8125467960193
 20
-251.3473095238144
 11
-238.8125467960193
 21
-248.2935000000032
 72
     1
 10
-238.8125467960193
 20
-248.2935000000032
 11
-237.6197540938527
 21
-248.2935000000032
 72
     1
 10
-237.6197540938527
 20
-248.2935000000032
 11
-237.6197540938527
 21
-249.3623333333378
 72
     1
 10
-237.6197540938527
 20
-249.3623333333378
 11
-236.5700965159452
 21
-249.3623333333378
 72
     1
 10
-236.5700965159452
 20
-249.3623333333378
 11
-236.5700965159452
 21
-248.2935000000032
 72
     1
 10
-236.5700965159452
 20
-248.2935000000032
 11
-235.3773038137788
 21
-248.2935000000032
 72
     1
 10
-235.3773038137788
 20
-248.2935000000032
 11
-235.3773038137788
 21
-251.3473095238144
 97
       12
330
21C
330
21D
330
207
330
206
330
205
330
219
330
204
330
21A
330
21B
330
203
330
202
330
201
 75
     1
 76
     0
 52
45.0
 41
0.1
 77
     0
 78
     1
 53
45.0
 43
0.0
 44
0.0
 45
-0.0707106781186548
 46
0.0707106781186548
 79
     0
 98
        1
 10
0.0
 20
0.0
  0
HATCH
  5
2B0
330
A0
100
AcDbEntity
  8
1
  6
Continuous
 62
     2
100
AcDbHatch
 10
0.0
 20
0.0
 30
0.0
210
0.0
220
0.0
230
1.0
  2
_USER
 70
     0
 71
     1
 91
        1
 92
        1
 93
       12
 72
     1
 10
-235.3773038137788
 20
-251.3473095238144
 11
-236.5700965159452
 21
-251.3473095238144
 72
     1
 10
-236.5700965159452
 20
-251.3473095238144
 11
-236.5700965159452
 21
-250.2130374149706
 72
     1
 10
-236.5700965159452
 20
-250.2130374149706
 11
-237.6197540938527
 21
-250.2130374149706
 72
     1
 10
-237.6197540938527
 20
-250.2130374149706
 11
-237.6197540938527
 21
-251.3473095238144
 72
     1
 10
-237.6197540938527
 20
-251.3473095238144
 11
-238.8125467960193
 21
-251.3473095238144
 72
     1
 10
-238.8125467960193
 20
-251.3473095238144
 11
-238.8125467960193
 21
-248.2935000000032
 72
     1
 10
-238.8125467960193
 20
-248.2935000000032
 11
-237.6197540938527
 21
-248.2935000000032
 72
     1
 10
-237.6197540938527
 20
-248.2935000000032
 11
-237.6197540938527
 21
-249.3623333333378
 72
     1
 10
-237.6197540938527
 20
-249.3623333333378
 11
-236.5700965159452
 21
-249.3623333333378
 72
     1
 10
-236.5700965159452
 20
-249.3623333333378
 11
-236.5700965159452
 21
-248.2935000000032
 72
     1
 10
-236.5700965159452
 20
-248.2935000000032
 11
-235.3773038137788
 21
-248.2935000000032
 72
     1
 10
-235.3773038137788
 20
-248.2935000000032
 11
-235.3773038137788
 21
-251.3473095238144
 97
       12
330
21C
330
21D
330
207
330
206
330
205
330
219
330
204
330
21A
330
21B
330
203
330
202
330
201
 75
     1
 76
     0
 52
45.0
 41
0.1
 77
     0
 78
     1
 53
45.0
 43
0.0
 44
0.0
 45
-0.0707106781186548
 46
0.0707106781186548
 79
     0
 98
        1
 10
0.0
 20
0.0
  0
HATCH
  5
2B1
330
A0
100
AcDbEntity
  8
1
  6
Continuous
 62
     2
100
AcDbHatch
 10
0.0
 20
0.0
 30
0.0
210
0.0
220
0.0
230
1.0
  2
_USER
 70
     0
 71
     1
 91
        1
 92
        1
 93
       10
 72
     1
 10
-233.1350044645905
 20
-252.9614659863827
 11
-234.3755088748434
 21
-251.6526904761776
 72
     1
 10
-234.3755088748434
 20
-251.6526904761776
 11
-235.568301577011
 21
-251.6526904761776
 72
     1
 10
-235.568301577011
 20
-251.6526904761776
 11
-235.568301577011
 21
-254.7064999999887
 72
     1
 10
-235.568301577011
 20
-254.7064999999887
 11
-234.3755088748434
 21
-254.7064999999887
 72
     1
 10
-234.3755088748434
 20
-254.7064999999887
 11
-234.3755088748434
 21
-253.3977244897841
 72
     1
 10
-234.3755088748434
 20
-253.3977244897841
 11
-233.1350044645905
 21
-254.7064999999887
 72
     1
 10
-233.1350044645905
 20
-254.7064999999887
 11
-231.9422117624241
 21
-254.7064999999887
 72
     1
 10
-231.9422117624241
 20
-254.7064999999887
 11
-231.9422117624241
 21
-251.6526904761776
 72
     1
 10
-231.9422117624241
 20
-251.6526904761776
 11
-233.1350044645905
 21
-251.6526904761776
 72
     1
 10
-233.1350044645905
 20
-251.6526904761776
 11
-233.1350044645905
 21
-252.9614659863827
 97
       10
330
22A
330
1FA
330
1F9
330
1FC
330
225
330
226
330
1FB
330
227
330
228
330
229
 75
     1
 76
     0
 52
45.0
 41
0.1
 77
     0
 78
     1
 53
45.0
 43
0.0
 44
0.0
 45
-0.0707106781186548
 46
0.0707106781186548
 79
     0
 98
        1
 10
0.0
 20
0.0
  0
HATCH
  5
2B2
330
A0
100
AcDbEntity
  8
1
  6
Continuous
 62
     2
100
AcDbHatch
 10
0.0
 20
0.0
 30
0.0
210
0.0
220
0.0
230
1.0
  2
_USER
 70
     0
 71
     1
 91
        1
 92
        1
 93
       10
 72
     1
 10
-233.1350044645905
 20
-252.9614659863827
 11
-234.3755088748434
 21
-251.6526904761776
 72
     1
 10
-234.3755088748434
 20
-251.6526904761776
 11
-235.568301577011
 21
-251.6526904761776
 72
     1
 10
-235.568301577011
 20
-251.6526904761776
 11
-235.568301577011
 21
-254.7064999999887
 72
     1
 10
-235.568301577011
 20
-254.7064999999887
 11
-234.3755088748434
 21
-254.7064999999887
 72
     1
 10
-234.3755088748434
 20
-254.7064999999887
 11
-234.3755088748434
 21
-253.3977244897841
 72
     1
 10
-234.3755088748434
 20
-253.3977244897841
 11
-233.1350044645905
 21
-254.7064999999887
 72
     1
 10
-233.1350044645905
 20
-254.7064999999887
 11
-231.9422117624241
 21
-254.7064999999887
 72
     1
 10
-231.9422117624241
 20
-254.7064999999887
 11
-231.9422117624241
 21
-251.6526904761776
 72
     1
 10
-231.9422117624241
 20
-251.6526904761776
 11
-233.1350044645905
 21
-251.6526904761776
 72
     1
 10
-233.1350044645905
 20
-251.6526904761776
 11
-233.1350044645905
 21
-252.9614659863827
 97
       10
330
22A
330
1FA
330
1F9
330
1FC
330
225
330
226
330
1FB
330
227
330
228
330
229
 75
     1
 76
     0
 52
45.0
 41
0.1
 77
     0
 78
     1
 53
45.0
 43
0.0
 44
0.0
 45
-0.0707106781186548
 46
0.0707106781186548
 79
     0
 98
        1
 10
0.0
 20
0.0
  0
HATCH
  5
2B3
330
A0
100
AcDbEntity
  8
1
  6
Continuous
 62
     2
100
AcDbHatch
 10
0.0
 20
0.0
 30
0.0
210
0.0
220
0.0
230
1.0
  2
_USER
 70
     0
 71
     1
 91
        1
 92
        1
 93
       10
 72
     1
 10
-227.8865656441708
 20
-249.6022755102084
 11
-229.1270700544248
 21
-248.2935000000032
 72
     1
 10
-229.1270700544248
 20
-248.2935000000032
 11
-230.3198627565913
 21
-248.2935000000032
 72
     1
 10
-230.3198627565913
 20
-248.2935000000032
 11
-230.3198627565913
 21
-251.3473095238144
 72
     1
 10
-230.3198627565913
 20
-251.3473095238144
 11
-229.1270700544248
 21
-251.3473095238144
 72
     1
 10
-229.1270700544248
 20
-251.3473095238144
 11
-229.1270700544248
 21
-250.0385340136097
 72
     1
 10
-229.1270700544248
 20
-250.0385340136097
 11
-227.8865656441708
 21
-251.3473095238144
 72
     1
 10
-227.8865656441708
 20
-251.3473095238144
 11
-226.6937729420042
 21
-251.3473095238144
 72
     1
 10
-226.6937729420042
 20
-251.3473095238144
 11
-226.6937729420042
 21
-248.2935000000032
 72
     1
 10
-226.6937729420042
 20
-248.2935000000032
 11
-227.8865656441708
 21
-248.2935000000032
 72
     1
 10
-227.8865656441708
 20
-248.2935000000032
 11
-227.8865656441708
 21
-249.6022755102084
 97
       10
330
22F
330
1F7
330
1F6
330
230
330
1F5
330
22B
330
22C
330
22D
330
22E
330
1F8
 75
     1
 76
     0
 52
45.0
 41
0.1
 77
     0
 78
     1
 53
45.0
 43
0.0
 44
0.0
 45
-0.0707106781186548
 46
0.0707106781186548
 79
     0
 98
        1
 10
0.0
 20
0.0
  0
HATCH
  5
2B4
330
A0
100
AcDbEntity
  8
1
  6
Continuous
 62
     2
100
AcDbHatch
 10
0.0
 20
0.0
 30
0.0
210
0.0
220
0.0
230
1.0
  2
_USER
 70
     0
 71
     1
 91
        1
 92
        1
 93
       10
 72
     1
 10
-227.8865656441708
 20
-249.6022755102084
 11
-229.1270700544248
 21
-248.2935000000032
 72
     1
 10
-229.1270700544248
 20
-248.2935000000032
 11
-230.3198627565913
 21
-248.2935000000032
 72
     1
 10
-230.3198627565913
 20
-248.2935000000032
 11
-230.3198627565913
 21
-251.3473095238144
 72
     1
 10
-230.3198627565913
 20
-251.3473095238144
 11
-229.1270700544248
 21
-251.3473095238144
 72
     1
 10
-229.1270700544248
 20
-251.3473095238144
 11
-229.1270700544248
 21
-250.0385340136097
 72
     1
 10
-229.1270700544248
 20
-250.0385340136097
 11
-227.8865656441708
 21
-251.3473095238144
 72
     1
 10
-227.8865656441708
 20
-251.3473095238144
 11
-226.6937729420042
 21
-251.3473095238144
 72
     1
 10
-226.6937729420042
 20
-251.3473095238144
 11
-226.6937729420042
 21
-248.2935000000032
 72
     1
 10
-226.6937729420042
 20
-248.2935000000032
 11
-227.8865656441708
 21
-248.2935000000032
 72
     1
 10
-227.8865656441708
 20
-248.2935000000032
 11
-227.8865656441708
 21
-249.6022755102084
 97
       10
330
22F
330
1F7
330
1F6
330
230
330
1F5
330
22B
330
22C
330
22D
330
22E
330
1F8
 75
     1
 76
     0
 52
45.0
 41
0.1
 77
     0
 78
     1
 53
45.0
 43
0.0
 44
0.0
 45
-0.0707106781186548
 46
0.0707106781186548
 79
     0
 98
        1
 10
0.0
 20
0.0
  0
HATCH
  5
2B5
330
A0
100
AcDbEntity
  8
1
  6
Continuous
 62
     2
100
AcDbHatch
 10
0.0
 20
0.0
 30
0.0
210
0.0
220
0.0
230
1.0
  2
_USER
 70
     0
 71
     1
 91
        1
 92
        1
 93
        8
 72
     1
 10
-228.9840858610503
 20
-251.6526904761776
 11
-231.7990766381639
 21
-251.6526904761776
 72
     1
 10
-231.7990766381639
 20
-251.6526904761776
 11
-231.7990766381639
 21
-252.4379557823012
 72
     1
 10
-231.7990766381639
 20
-252.4379557823012
 11
-230.9879776006893
 21
-252.4379557823012
 72
     1
 10
-230.9879776006893
 20
-252.4379557823012
 11
-230.9879776006893
 21
-254.7064999999887
 72
     1
 10
-230.9879776006893
 20
-254.7064999999887
 11
-229.7951848985228
 21
-254.7064999999887
 72
     1
 10
-229.7951848985228
 20
-254.7064999999887
 11
-229.7951848985228
 21
-252.4379557823012
 72
     1
 10
-229.7951848985228
 20
-252.4379557823012
 11
-228.9840858610503
 21
-252.4379557823012
 72
     1
 10
-228.9840858610503
 20
-252.4379557823012
 11
-228.9840858610503
 21
-251.6526904761776
 97
        8
330
1F1
330
231
330
1F0
330
232
330
233
330
1F4
330
1F3
330
1F2
 75
     1
 76
     0
 52
45.0
 41
0.1
 77
     0
 78
     1
 53
45.0
 43
0.0
 44
0.0
 45
-0.0707106781186548
 46
0.0707106781186548
 79
     0
 98
        1
 10
0.0
 20
0.0
  0
HATCH
  5
2B6
330
A0
100
AcDbEntity
  8
1
  6
Continuous
 62
     2
100
AcDbHatch
 10
0.0
 20
0.0
 30
0.0
210
0.0
220
0.0
230
1.0
  2
_USER
 70
     0
 71
     1
 91
        1
 92
        1
 93
        8
 72
     1
 10
-228.9840858610503
 20
-251.6526904761776
 11
-231.7990766381639
 21
-251.6526904761776
 72
     1
 10
-231.7990766381639
 20
-251.6526904761776
 11
-231.7990766381639
 21
-252.4379557823012
 72
     1
 10
-231.7990766381639
 20
-252.4379557823012
 11
-230.9879776006893
 21
-252.4379557823012
 72
     1
 10
-230.9879776006893
 20
-252.4379557823012
 11
-230.9879776006893
 21
-254.7064999999887
 72
     1
 10
-230.9879776006893
 20
-254.7064999999887
 11
-229.7951848985228
 21
-254.7064999999887
 72
     1
 10
-229.7951848985228
 20
-254.7064999999887
 11
-229.7951848985228
 21
-252.4379557823012
 72
     1
 10
-229.7951848985228
 20
-252.4379557823012
 11
-228.9840858610503
 21
-252.4379557823012
 72
     1
 10
-228.9840858610503
 20
-252.4379557823012
 11
-228.9840858610503
 21
-251.6526904761776
 97
        8
330
1F1
330
231
330
1F0
330
232
330
233
330
1F4
330
1F3
330
1F2
 75
     1
 76
     0
 52
45.0
 41
0.1
 77
     0
 78
     1
 53
45.0
 43
0.0
 44
0.0
 45
-0.0707106781186548
 46
0.0707106781186548
 79
     0
 98
        1
 10
0.0
 20
0.0
  0
HATCH
  5
2B7
330
A0
100
AcDbEntity
  8
1
  6
Continuous
 62
     2
100
AcDbHatch
 10
0.0
 20
0.0
 30
0.0
210
0.0
220
0.0
230
1.0
  2
_USER
 70
     0
 71
     1
 91
        2
 92
        1
 93
        8
 72
     1
 10
-226.8456584051033
 20
-254.7064999999887
 11
-227.0571384585791
 21
-254.1655394557708
 72
     1
 10
-227.0571384585791
 20
-254.1655394557708
 11
-228.1895800352529
 21
-254.1655394557708
 72
     1
 10
-228.1895800352529
 20
-254.1655394557708
 11
-228.4010600887287
 21
-254.7064999999887
 72
     1
 10
-228.4010600887287
 20
-254.7064999999887
 11
-229.6415644989817
 21
-254.7064999999887
 72
     1
 10
-229.6415644989817
 20
-254.7064999999887
 11
-228.2436114520424
 21
-251.6526904761776
 72
     1
 10
-228.2436114520424
 20
-251.6526904761776
 11
-227.0031070417897
 21
-251.6526904761776
 72
     1
 10
-227.0031070417897
 20
-251.6526904761776
 11
-225.6051539948494
 21
-254.7064999999887
 72
     1
 10
-225.6051539948494
 20
-254.7064999999887
 11
-226.8456584051033
 21
-254.7064999999887
 97
        8
330
235
330
236
330
1ED
330
237
330
1EC
330
1EF
330
234
330
1EE
 92
       16
 93
        3
 72
     1
 10
-227.9235244841079
 20
-253.4849761904642
 11
-227.6233592469155
 21
-252.7171612244775
 72
     1
 10
-227.6233592469155
 20
-252.7171612244775
 11
-227.3231940097254
 21
-253.4849761904642
 72
     1
 10
-227.3231940097254
 20
-253.4849761904642
 11
-227.9235244841079
 21
-253.4849761904642
 97
        3
330
1EB
330
239
330
238
 75
     1
 76
     0
 52
45.0
 41
0.1
 77
     0
 78
     1
 53
45.0
 43
0.0
 44
0.0
 45
-0.0707106781186548
 46
0.0707106781186548
 79
     0
 98
        1
 10
0.0
 20
0.0
  0
HATCH
  5
2B8
330
A0
100
AcDbEntity
  8
1
  6
Continuous
 62
     2
100
AcDbHatch
 10
0.0
 20
0.0
 30
0.0
210
0.0
220
0.0
230
1.0
  2
_USER
 70
     0
 71
     1
 91
        2
 92
        1
 93
        8
 72
     1
 10
-226.8456584051033
 20
-254.7064999999887
 11
-227.0571384585791
 21
-254.1655394557708
 72
     1
 10
-227.0571384585791
 20
-254.1655394557708
 11
-228.1895800352529
 21
-254.1655394557708
 72
     1
 10
-228.1895800352529
 20
-254.1655394557708
 11
-228.4010600887287
 21
-254.7064999999887
 72
     1
 10
-228.4010600887287
 20
-254.7064999999887
 11
-229.6415644989817
 21
-254.7064999999887
 72
     1
 10
-229.6415644989817
 20
-254.7064999999887
 11
-228.2436114520424
 21
-251.6526904761776
 72
     1
 10
-228.2436114520424
 20
-251.6526904761776
 11
-227.0031070417897
 21
-251.6526904761776
 72
     1
 10
-227.0031070417897
 20
-251.6526904761776
 11
-225.6051539948494
 21
-254.7064999999887
 72
     1
 10
-225.6051539948494
 20
-254.7064999999887
 11
-226.8456584051033
 21
-254.7064999999887
 97
        8
330
235
330
236
330
1ED
330
237
330
1EC
330
1EF
330
234
330
1EE
 92
       16
 93
        3
 72
     1
 10
-227.9235244841079
 20
-253.4849761904642
 11
-227.6233592469155
 21
-252.7171612244775
 72
     1
 10
-227.6233592469155
 20
-252.7171612244775
 11
-227.3231940097254
 21
-253.4849761904642
 72
     1
 10
-227.3231940097254
 20
-253.4849761904642
 11
-227.9235244841079
 21
-253.4849761904642
 97
        3
330
1EB
330
239
330
238
 75
     1
 76
     0
 52
45.0
 41
0.1
 77
     0
 78
     1
 53
45.0
 43
0.0
 44
0.0
 45
-0.0707106781186548
 46
0.0707106781186548
 79
     0
 98
        1
 10
0.0
 20
0.0
  0
HATCH
  5
2B9
330
A0
100
AcDbEntity
  8
1
  6
Continuous
 62
     2
100
AcDbHatch
 10
0.0
 20
0.0
 30
0.0
210
0.0
220
0.0
230
1.0
  2
_USER
 70
     0
 71
     1
 91
        1
 92
        1
 93
        4
 72
     1
 10
-225.2147099913174
 20
-251.3473095238144
 11
-226.4552144015703
 21
-251.3473095238144
 72
     1
 10
-226.4552144015703
 20
-251.3473095238144
 11
-226.4552144015703
 21
-248.2935000000032
 72
     1
 10
-226.4552144015703
 20
-248.2935000000032
 11
-225.2147099913174
 21
-248.2935000000032
 72
     1
 10
-225.2147099913174
 20
-248.2935000000032
 11
-225.2147099913174
 21
-251.3473095238144
 97
        4
330
1E8
330
1EA
330
23A
330
1E9
 75
     1
 76
     0
 52
45.0
 41
0.1
 77
     0
 78
     1
 53
45.0
 43
0.0
 44
0.0
 45
-0.0707106781186548
 46
0.0707106781186548
 79
     0
 98
        1
 10
0.0
 20
0.0
  0
HATCH
  5
2BA
330
A0
100
AcDbEntity
  8
1
  6
Continuous
 62
     2
100
AcDbHatch
 10
0.0
 20
0.0
 30
0.0
210
0.0
220
0.0
230
1.0
  2
_USER
 70
     0
 71
     1
 91
        1
 92
        1
 93
        4
 72
     1
 10
-225.2147099913174
 20
-251.3473095238144
 11
-226.4552144015703
 21
-251.3473095238144
 72
     1
 10
-226.4552144015703
 20
-251.3473095238144
 11
-226.4552144015703
 21
-248.2935000000032
 72
     1
 10
-226.4552144015703
 20
-248.2935000000032
 11
-225.2147099913174
 21
-248.2935000000032
 72
     1
 10
-225.2147099913174
 20
-248.2935000000032
 11
-225.2147099913174
 21
-251.3473095238144
 97
        4
330
1E8
330
1EA
330
23A
330
1E9
 75
     1
 76
     0
 52
45.0
 41
0.1
 77
     0
 78
     1
 53
45.0
 43
0.0
 44
0.0
 45
-0.0707106781186548
 46
0.0707106781186548
 79
     0
 98
        1
 10
0.0
 20
0.0
  0
HATCH
  5
2BB
330
A0
100
AcDbEntity
  8
1
  6
Continuous
 62
     2
100
AcDbHatch
 10
0.0
 20
0.0
 30
0.0
210
0.0
220
0.0
230
1.0
  2
_USER
 70
     0
 71
     1
 91
        1
 92
        1
 93
       12
 72
     1
 10
-220.9922238256466
 20
-248.2935000000032
 11
-222.2947534564131
 21
-249.7664505300394
 72
     1
 10
-222.2947534564131
 20
-249.7664505300394
 11
-220.8968004094728
 21
-251.3473095238144
 72
     1
 10
-220.8968004094728
 20
-251.3473095238144
 11
-222.2995246272211
 21
-251.3473095238144
 72
     1
 10
-222.2995246272211
 20
-251.3473095238144
 11
-222.9961155652866
 21
-250.5595777385207
 72
     1
 10
-222.9961155652866
 20
-250.5595777385207
 11
-223.6927065033523
 21
-251.3473095238144
 72
     1
 10
-223.6927065033523
 20
-251.3473095238144
 11
-225.0954307211005
 21
-251.3473095238144
 72
     1
 10
-225.0954307211005
 20
-251.3473095238144
 11
-223.6974776741602
 21
-249.7664505300394
 72
     1
 10
-223.6974776741602
 20
-249.7664505300394
 11
-225.0000073049277
 21
-248.2935000000032
 72
     1
 10
-225.0000073049277
 20
-248.2935000000032
 11
-223.5972830871784
 21
-248.2935000000032
 72
     1
 10
-223.5972830871784
 20
-248.2935000000032
 11
-222.9961155652866
 21
-248.9733233215587
 72
     1
 10
-222.9961155652866
 20
-248.9733233215587
 11
-222.3949480433938
 21
-248.2935000000032
 72
     1
 10
-222.3949480433938
 20
-248.2935000000032
 11
-220.9922238256466
 21
-248.2935000000032
 97
       12
330
1E3
330
1E2
330
1E1
330
23E
330
23F
330
23B
330
23C
330
1E7
330
1E6
330
1E5
330
1E4
330
23D
 75
     1
 76
     0
 52
45.0
 41
0.1
 77
     0
 78
     1
 53
45.0
 43
0.0
 44
0.0
 45
-0.0707106781186548
 46
0.0707106781186548
 79
     0
 98
        1
 10
0.0
 20
0.0
  0
HATCH
  5
2BC
330
A0
100
AcDbEntity
  8
1
  6
Continuous
 62
     2
100
AcDbHatch
 10
0.0
 20
0.0
 30
0.0
210
0.0
220
0.0
230
1.0
  2
_USER
 70
     0
 71
     1
 91
        1
 92
        1
 93
       12
 72
     1
 10
-220.9922238256466
 20
-248.2935000000032
 11
-222.2947534564131
 21
-249.7664505300394
 72
     1
 10
-222.2947534564131
 20
-249.7664505300394
 11
-220.8968004094728
 21
-251.3473095238144
 72
     1
 10
-220.8968004094728
 20
-251.3473095238144
 11
-222.2995246272211
 21
-251.3473095238144
 72
     1
 10
-222.2995246272211
 20
-251.3473095238144
 11
-222.9961155652866
 21
-250.5595777385207
 72
     1
 10
-222.9961155652866
 20
-250.5595777385207
 11
-223.6927065033523
 21
-251.3473095238144
 72
     1
 10
-223.6927065033523
 20
-251.3473095238144
 11
-225.0954307211005
 21
-251.3473095238144
 72
     1
 10
-225.0954307211005
 20
-251.3473095238144
 11
-223.6974776741602
 21
-249.7664505300394
 72
     1
 10
-223.6974776741602
 20
-249.7664505300394
 11
-225.0000073049277
 21
-248.2935000000032
 72
     1
 10
-225.0000073049277
 20
-248.2935000000032
 11
-223.5972830871784
 21
-248.2935000000032
 72
     1
 10
-223.5972830871784
 20
-248.2935000000032
 11
-222.9961155652866
 21
-248.9733233215587
 72
     1
 10
-222.9961155652866
 20
-248.9733233215587
 11
-222.3949480433938
 21
-248.2935000000032
 72
     1
 10
-222.3949480433938
 20
-248.2935000000032
 11
-220.9922238256466
 21
-248.2935000000032
 97
       12
330
1E3
330
1E2
330
1E1
330
23E
330
23F
330
23B
330
23C
330
1E7
330
1E6
330
1E5
330
1E4
330
23D
 75
     1
 76
     0
 52
45.0
 41
0.1
 77
     0
 78
     1
 53
45.0
 43
0.0
 44
0.0
 45
-0.0707106781186548
 46
0.0707106781186548
 79
     0
 98
        1
 10
0.0
 20
0.0
  0
HATCH
  5
2BD
330
A0
100
AcDbEntity
  8
1
  6
Continuous
 62
     2
100
AcDbHatch
 10
0.0
 20
0.0
 30
0.0
210
0.0
220
0.0
230
1.0
  2
_USER
 70
     0
 71
     1
 91
        2
 92
        1
 93
        6
 72
     1
 10
-240.0099592397926
 20
-250.4042312826706
 11
-240.7687268275729
 21
-250.4042312826706
 72
     1
 10
-240.7687268275729
 20
-250.4042312826706
 11
-240.7687268275729
 21
-251.3473095238144
 72
     1
 10
-240.7687268275729
 20
-251.3473095238144
 11
-242.009231237827
 21
-251.3473095238144
 72
     1
 10
-242.009231237827
 20
-251.3473095238144
 11
-242.009231237827
 21
-248.2935000000032
 72
     1
 10
-242.009231237827
 20
-248.2935000000032
 11
-240.0099592397926
 21
-248.2935000000032
 72
     2
 10
-240.0099592397926
 20
-249.3488656413369
 40
1.055365641333708
 50
270.0
 51
450.0
 73
     0
 97
        6
330
20B
330
20A
330
217
330
216
330
20C
330
25C
 92
       16
 93
        4
 72
     2
 10
-240.451431766031
 20
-249.3094696701144
 40
0.3528638246711182
 50
270.0
 51
450.0
 73
     1
 72
     1
 10
-240.451431766031
 20
-248.9566058454433
 11
-240.7687268275729
 21
-248.9566058454433
 72
     1
 10
-240.7687268275729
 20
-248.9566058454433
 11
-240.7687268275729
 21
-249.6623334947855
 72
     1
 10
-240.7687268275729
 20
-249.6623334947855
 11
-240.451431766031
 21
-249.6623334947855
 97
        4
330
270
330
208
330
218
330
209
 75
     1
 76
     0
 52
45.0
 41
0.1
 77
     0
 78
     1
 53
45.0
 43
0.0
 44
0.0
 45
-0.0707106781186548
 46
0.0707106781186548
 79
     0
 98
        1
 10
0.0
 20
0.0
  0
HATCH
  5
2BE
330
A0
100
AcDbEntity
  8
1
  6
Continuous
 62
     2
100
AcDbHatch
 10
0.0
 20
0.0
 30
0.0
210
0.0
220
0.0
230
1.0
  2
_USER
 70
     0
 71
     1
 91
        2
 92
        1
 93
        6
 72
     1
 10
-240.0099592397926
 20
-250.4042312826706
 11
-240.7687268275729
 21
-250.4042312826706
 72
     1
 10
-240.7687268275729
 20
-250.4042312826706
 11
-240.7687268275729
 21
-251.3473095238144
 72
     1
 10
-240.7687268275729
 20
-251.3473095238144
 11
-242.009231237827
 21
-251.3473095238144
 72
     1
 10
-242.009231237827
 20
-251.3473095238144
 11
-242.009231237827
 21
-248.2935000000032
 72
     1
 10
-242.009231237827
 20
-248.2935000000032
 11
-240.0099592397926
 21
-248.2935000000032
 72
     2
 10
-240.0099592397926
 20
-249.3488656413369
 40
1.055365641333708
 50
270.0
 51
450.0
 73
     0
 97
        6
330
20B
330
20A
330
217
330
216
330
20C
330
25C
 92
       16
 93
        4
 72
     2
 10
-240.451431766031
 20
-249.3094696701144
 40
0.3528638246711182
 50
270.0
 51
450.0
 73
     1
 72
     1
 10
-240.451431766031
 20
-248.9566058454433
 11
-240.7687268275729
 21
-248.9566058454433
 72
     1
 10
-240.7687268275729
 20
-248.9566058454433
 11
-240.7687268275729
 21
-249.6623334947855
 72
     1
 10
-240.7687268275729
 20
-249.6623334947855
 11
-240.451431766031
 21
-249.6623334947855
 97
        4
330
270
330
208
330
218
330
209
 75
     1
 76
     0
 52
45.0
 41
0.1
 77
     0
 78
     1
 53
45.0
 43
0.0
 44
0.0
 45
-0.0707106781186548
 46
0.0707106781186548
 79
     0
 98
        1
 10
0.0
 20
0.0
  0
HATCH
  5
2BF
330
A0
100
AcDbEntity
  8
1
  6
Continuous
 62
     2
100
AcDbHatch
 10
0.0
 20
0.0
 30
0.0
210
0.0
220
0.0
230
1.0
  2
_USER
 70
     0
 71
     1
 91
        2
 92
        1
 93
        4
 72
     2
 10
-237.4534164914335
 20
-253.7181702483862
 40
2.065479772208568
 50
62.45185182430637
 51
117.5481481756664
 73
     1
 72
     2
 10
-237.7343563832668
 20
-253.1795952380834
 40
1.45803408365149
 50
117.5481481756624
 51
242.4518518243375
 73
     1
 72
     2
 10
-237.4534164914335
 20
-252.6410202277801
 40
2.065479772208509
 50
242.4518518243402
 51
297.5481481756871
 73
     1
 72
     2
 10
-237.1724765996002
 20
-253.1795952380834
 40
1.458034083652003
 50
297.548148175701
 51
422.451851824299
 73
     1
 97
        4
330
268
330
267
330
269
330
266
 92
       16
 93
        4
 72
     2
 10
-237.6531565277799
 20
-253.1795952380834
 40
0.7717997786796947
 50
321.8795802028417
 51
398.1204197971533
 73
     1
 72
     2
 10
-237.4534164914335
 20
-253.0228640599629
 40
0.5179085730132998
 50
38.12041979714704
 51
141.8795802028588
 73
     1
 72
     2
 10
-237.2536764550874
 20
-253.1795952380834
 40
0.7717997786794633
 50
141.8795802028363
 51
218.1204197971687
 73
     1
 72
     2
 10
-237.4534164914335
 20
-253.3363264162034
 40
0.5179085730137354
 50
218.1204197971931
 51
321.879580202801
 73
     1
 97
        4
330
284
330
281
330
282
330
283
 75
     1
 76
     0
 52
45.0
 41
0.1
 77
     0
 78
     1
 53
45.0
 43
0.0
 44
0.0
 45
-0.0707106781186548
 46
0.0707106781186548
 79
     0
 98
        1
 10
0.0
 20
0.0
  0
HATCH
  5
2C0
330
A0
100
AcDbEntity
  8
1
  6
Continuous
 62
     2
100
AcDbHatch
 10
0.0
 20
0.0
 30
0.0
210
0.0
220
0.0
230
1.0
  2
_USER
 70
     0
 71
     1
 91
        2
 92
        1
 93
        4
 72
     2
 10
-237.4534164914335
 20
-253.7181702483862
 40
2.065479772208568
 50
62.45185182430637
 51
117.5481481756664
 73
     1
 72
     2
 10
-237.7343563832668
 20
-253.1795952380834
 40
1.45803408365149
 50
117.5481481756624
 51
242.4518518243375
 73
     1
 72
     2
 10
-237.4534164914335
 20
-252.6410202277801
 40
2.065479772208509
 50
242.4518518243402
 51
297.5481481756871
 73
     1
 72
     2
 10
-237.1724765996002
 20
-253.1795952380834
 40
1.458034083652003
 50
297.548148175701
 51
422.451851824299
 73
     1
 97
        4
330
268
330
267
330
269
330
266
 92
       16
 93
        4
 72
     2
 10
-237.6531565277799
 20
-253.1795952380834
 40
0.7717997786796947
 50
321.8795802028417
 51
398.1204197971533
 73
     1
 72
     2
 10
-237.4534164914335
 20
-253.0228640599629
 40
0.5179085730132998
 50
38.12041979714704
 51
141.8795802028588
 73
     1
 72
     2
 10
-237.2536764550874
 20
-253.1795952380834
 40
0.7717997786794633
 50
141.8795802028363
 51
218.1204197971687
 73
     1
 72
     2
 10
-237.4534164914335
 20
-253.3363264162034
 40
0.5179085730137354
 50
218.1204197971931
 51
321.879580202801
 73
     1
 97
        4
330
284
330
281
330
282
330
283
 75
     1
 76
     0
 52
45.0
 41
0.1
 77
     0
 78
     1
 53
45.0
 43
0.0
 44
0.0
 45
-0.0707106781186548
 46
0.0707106781186548
 79
     0
 98
        1
 10
0.0
 20
0.0
  0
HATCH
  5
2C1
330
A0
100
AcDbEntity
  8
1
  6
Continuous
 62
     2
100
AcDbHatch
 10
0.0
 20
0.0
 30
0.0
210
0.0
220
0.0
230
1.0
  2
_USER
 70
     0
 71
     1
 91
        2
 92
        1
 93
       12
 72
     1
 10
-230.5584212970242
 20
-248.9915136054462
 11
-231.8943491234519
 21
-248.9915136054462
 72
     1
 10
-231.8943491234519
 20
-248.9915136054462
 11
-231.8943491234519
 21
-249.4713979591879
 72
     1
 10
-231.8943491234519
 20
-249.4713979591879
 11
-230.5584212970242
 21
-249.4713979591879
 72
     1
 10
-230.5584212970242
 20
-249.4713979591879
 11
-230.5584212970242
 21
-250.1694115646302
 72
     1
 10
-230.5584212970242
 20
-250.1694115646302
 11
-231.8943491234519
 21
-250.1694115646302
 72
     1
 10
-231.8943491234519
 20
-250.1694115646302
 11
-231.8943491234519
 21
-250.6492959183719
 72
     1
 10
-231.8943491234519
 20
-250.6492959183719
 11
-230.5584212970242
 21
-250.6492959183719
 72
     1
 10
-230.5584212970242
 20
-250.6492959183719
 11
-230.5584212970242
 21
-251.3473095238144
 72
     1
 10
-230.5584212970242
 20
-251.3473095238144
 11
-233.7087410208052
 21
-251.3473095238144
 72
     2
 10
-233.7087410208052
 20
-249.8204047619091
 40
1.526904761905882
 50
90.0
 51
270.0
 73
     0
 72
     1
 10
-233.7087410208052
 20
-248.2935000000032
 11
-230.5584212970242
 21
-248.2935000000032
 72
     1
 10
-230.5584212970242
 20
-248.2935000000032
 11
-230.5584212970242
 21
-248.9915136054462
 97
       12
330
21F
330
271
330
220
330
221
330
222
330
223
330
200
330
1FF
330
1FE
330
1FD
330
224
330
21E
 92
       16
 93
        4
 72
     2
 10
-233.49246901064
 20
-249.6636735837886
 40
0.5179085730135266
 50
38.12041979714334
 51
141.8795802028489
 73
     1
 72
     2
 10
-233.2927289742937
 20
-249.8204047619091
 40
0.7717997786796724
 50
141.8795802028404
 51
218.1204197971562
 73
     1
 72
     2
 10
-233.49246901064
 20
-249.9771359400295
 40
0.5179085730134372
 50
218.1204197971511
 51
321.8795802028566
 73
     1
 72
     2
 10
-233.6922090469862
 20
-249.8204047619091
 40
0.7717997786796373
 50
321.8795802028437
 51
398.1204197971596
 73
     1
 97
        4
330
26B
330
26A
330
265
330
264
 75
     1
 76
     0
 52
45.0
 41
0.1
 77
     0
 78
     1
 53
45.0
 43
0.0
 44
0.0
 45
-0.0707106781186548
 46
0.0707106781186548
 79
     0
 98
        1
 10
0.0
 20
0.0
  0
HATCH
  5
2C2
330
A0
100
AcDbEntity
  8
1
  6
Continuous
 62
     2
100
AcDbHatch
 10
0.0
 20
0.0
 30
0.0
210
0.0
220
0.0
230
1.0
  2
_USER
 70
     0
 71
     1
 91
        2
 92
        1
 93
       12
 72
     1
 10
-230.5584212970242
 20
-248.9915136054462
 11
-231.8943491234519
 21
-248.9915136054462
 72
     1
 10
-231.8943491234519
 20
-248.9915136054462
 11
-231.8943491234519
 21
-249.4713979591879
 72
     1
 10
-231.8943491234519
 20
-249.4713979591879
 11
-230.5584212970242
 21
-249.4713979591879
 72
     1
 10
-230.5584212970242
 20
-249.4713979591879
 11
-230.5584212970242
 21
-250.1694115646302
 72
     1
 10
-230.5584212970242
 20
-250.1694115646302
 11
-231.8943491234519
 21
-250.1694115646302
 72
     1
 10
-231.8943491234519
 20
-250.1694115646302
 11
-231.8943491234519
 21
-250.6492959183719
 72
     1
 10
-231.8943491234519
 20
-250.6492959183719
 11
-230.5584212970242
 21
-250.6492959183719
 72
     1
 10
-230.5584212970242
 20
-250.6492959183719
 11
-230.5584212970242
 21
-251.3473095238144
 72
     1
 10
-230.5584212970242
 20
-251.3473095238144
 11
-233.7087410208052
 21
-251.3473095238144
 72
     2
 10
-233.7087410208052
 20
-249.8204047619091
 40
1.526904761905882
 50
90.0
 51
270.0
 73
     0
 72
     1
 10
-233.7087410208052
 20
-248.2935000000032
 11
-230.5584212970242
 21
-248.2935000000032
 72
     1
 10
-230.5584212970242
 20
-248.2935000000032
 11
-230.5584212970242
 21
-248.9915136054462
 97
       12
330
21F
330
271
330
220
330
221
330
222
330
223
330
200
330
1FF
330
1FE
330
1FD
330
224
330
21E
 92
       16
 93
        4
 72
     2
 10
-233.49246901064
 20
-249.6636735837886
 40
0.5179085730135266
 50
38.12041979714334
 51
141.8795802028489
 73
     1
 72
     2
 10
-233.2927289742937
 20
-249.8204047619091
 40
0.7717997786796724
 50
141.8795802028404
 51
218.1204197971562
 73
     1
 72
     2
 10
-233.49246901064
 20
-249.9771359400295
 40
0.5179085730134372
 50
218.1204197971511
 51
321.8795802028566
 73
     1
 72
     2
 10
-233.6922090469862
 20
-249.8204047619091
 40
0.7717997786796373
 50
321.8795802028437
 51
398.1204197971596
 73
     1
 97
        4
330
26B
330
26A
330
265
330
264
 75
     1
 76
     0
 52
45.0
 41
0.1
 77
     0
 78
     1
 53
45.0
 43
0.0
 44
0.0
 45
-0.0707106781186548
 46
0.0707106781186548
 79
     0
 98
        1
 10
0.0
 20
0.0
  0
HATCH
  5
2C3
330
A0
100
AcDbEntity
  8
1
  6
Continuous
 62
     2
100
AcDbHatch
 10
0.0
 20
0.0
 30
0.0
210
0.0
220
0.0
230
1.0
  2
_USER
 70
     0
 71
     1
 91
        4
 92
        1
 93
        8
 72
     1
 10
-242.4863483186938
 20
-248.7177446154052
 11
-242.4863483186938
 21
-254.2822553846054
 72
     2
 10
-242.9105929340777
 20
-254.2822553846054
 40
0.4242446153832873
 50
0.0
 51
90.0
 73
     0
 72
     1
 10
-242.9105929340777
 20
-254.7064999999887
 11
-248.3839050247945
 21
-254.7064999999887
 72
     2
 10
-248.3839050247945
 20
-254.2822553846054
 40
0.4242446153828041
 50
90.0
 51
180.0
 73
     0
 72
     1
 10
-248.8081496401773
 20
-254.2822553846054
 11
-248.8081496401773
 21
-248.7177446154052
 72
     2
 10
-248.3839050247945
 20
-248.7177446154052
 40
0.4242446153837989
 50
180.0
 51
270.0
 73
     0
 72
     1
 10
-248.3839050247945
 20
-248.2935000000214
 11
-242.9105929340777
 21
-248.2935000000214
 72
     2
 10
-242.9105929340777
 20
-248.7177446154052
 40
0.4242446153838841
 50
270.0
 51
360.0
 73
     0
 97
        8
330
213
330
261
330
214
330
26C
330
211
330
263
330
212
330
262
 92
       16
 93
        1
 72
     2
 10
-245.764319374277
 20
-251.0366268437607
 40
0.4709789327785074
 50
0.0
 51
360.0
 73
     1
 97
        1
330
287
 92
       16
 93
        8
 72
     2
 10
-245.2144616615163
 20
-252.1457684437291
 40
0.3157169230765328
 50
115.3740086783519
 51
180.0
 73
     1
 72
     1
 10
-245.5301785845931
 20
-252.1457684437291
 11
-245.5301785845931
 21
-252.7276198504242
 72
     2
 10
-245.2144616615163
 20
-252.7276198504242
 40
0.315716923076792
 50
180.0
 51
269.8110329574542
 73
     1
 72
     2
 10
-245.2088455262063
 20
-251.0247849028552
 40
2.018561131933266
 50
269.8110329575858
 51
450.1889670424142
 73
     1
 72
     2
 10
-245.2144616615163
 20
-249.3219499552861
 40
0.3157169230760711
 50
90.18896704254594
 51
180.0
 73
     1
 72
     1
 10
-245.5301785845931
 20
-249.3219499552861
 11
-245.5301785845931
 21
-249.9274852437929
 72
     2
 10
-245.2144616615163
 20
-249.9274852437929
 40
0.315716923076792
 50
180.0
 51
244.6259913216482
 73
     1
 72
     2
 10
-245.7405043596042
 20
-251.0366268437607
 40
0.911848150144459
 50
295.3740086781925
 51
424.6259913218236
 73
     0
 97
        8
330
279
330
1DA
330
276
330
277
330
255
330
1D9
330
278
330
254
 92
       16
 93
       12
 72
     2
 10
-247.790010348048
 20
-253.6782275213551
 40
0.3157169230756836
 50
180.0
 51
270.0
 73
     1
 72
     1
 10
-247.790010348048
 20
-253.9939444444318
 11
-246.3141770870384
 21
-253.9939444444318
 72
     2
 10
-246.3141770870384
 20
-253.6782275213551
 40
0.3157169230767067
 50
270.0
 51
360.0
 73
     1
 72
     1
 10
-245.9984601639618
 20
-253.6782275213551
 11
-245.9984601639618
 21
-252.1474565898235
 72
     2
 10
-246.3141770870384
 20
-252.1474565898235
 40
0.315716923076593
 50
0.0
 51
64.80558935146027
 73
     1
 72
     2
 10
-245.7915926394634
 20
-251.0366268437607
 40
0.9118975235576147
 50
115.1944106485122
 51
244.8055893514718
 73
     0
 72
     2
 10
-246.3141770870384
 20
-249.9257970976985
 40
0.3157169230761203
 50
295.1944106485397
 51
360.0
 73
     1
 72
     1
 10
-245.9984601639618
 20
-249.9257970976985
 11
-245.9984601639618
 21
-249.321772478638
 72
     2
 10
-246.3141770870384
 20
-249.321772478638
 40
0.315716923076593
 50
0.0
 51
90.0
 73
     1
 72
     1
 10
-246.3141770870384
 20
-249.0060555555618
 11
-247.790010348048
 21
-249.0060555555618
 72
     2
 10
-247.790010348048
 20
-249.321772478638
 40
0.3157169230761951
 50
90.0
 51
180.0
 73
     1
 72
     1
 10
-248.1057272711237
 20
-249.321772478638
 11
-248.1057272711237
 21
-253.6782275213551
 97
       12
330
25D
330
215
330
260
330
210
330
26D
330
26E
330
25F
330
20F
330
25E
330
20E
330
26F
330
20D
 75
     1
 76
     0
 52
45.0
 41
0.1
 77
     0
 78
     1
 53
45.0
 43
0.0
 44
0.0
 45
-0.0707106781186548
 46
0.0707106781186548
 79
     0
 98
        1
 10
0.0
 20
0.0
  0
HATCH
  5
2C4
330
A0
100
AcDbEntity
  8
1
  6
Continuous
 62
     2
100
AcDbHatch
 10
0.0
 20
0.0
 30
0.0
210
0.0
220
0.0
230
1.0
  2
_USER
 70
     0
 71
     1
 91
        4
 92
        1
 93
        8
 72
     1
 10
-242.4863483186938
 20
-248.7177446154052
 11
-242.4863483186938
 21
-254.2822553846054
 72
     2
 10
-242.9105929340777
 20
-254.2822553846054
 40
0.4242446153832873
 50
0.0
 51
90.0
 73
     0
 72
     1
 10
-242.9105929340777
 20
-254.7064999999887
 11
-248.3839050247945
 21
-254.7064999999887
 72
     2
 10
-248.3839050247945
 20
-254.2822553846054
 40
0.4242446153828041
 50
90.0
 51
180.0
 73
     0
 72
     1
 10
-248.8081496401773
 20
-254.2822553846054
 11
-248.8081496401773
 21
-248.7177446154052
 72
     2
 10
-248.3839050247945
 20
-248.7177446154052
 40
0.4242446153837989
 50
180.0
 51
270.0
 73
     0
 72
     1
 10
-248.3839050247945
 20
-248.2935000000214
 11
-242.9105929340777
 21
-248.2935000000214
 72
     2
 10
-242.9105929340777
 20
-248.7177446154052
 40
0.4242446153838841
 50
270.0
 51
360.0
 73
     0
 97
        8
330
213
330
261
330
214
330
26C
330
211
330
263
330
212
330
262
 92
       16
 93
        1
 72
     2
 10
-245.764319374277
 20
-251.0366268437607
 40
0.4709789327785074
 50
0.0
 51
360.0
 73
     1
 97
        1
330
287
 92
       16
 93
        8
 72
     2
 10
-245.2144616615163
 20
-252.1457684437291
 40
0.3157169230765328
 50
115.3740086783519
 51
180.0
 73
     1
 72
     1
 10
-245.5301785845931
 20
-252.1457684437291
 11
-245.5301785845931
 21
-252.7276198504242
 72
     2
 10
-245.2144616615163
 20
-252.7276198504242
 40
0.315716923076792
 50
180.0
 51
269.8110329574542
 73
     1
 72
     2
 10
-245.2088455262063
 20
-251.0247849028552
 40
2.018561131933266
 50
269.8110329575858
 51
450.1889670424142
 73
     1
 72
     2
 10
-245.2144616615163
 20
-249.3219499552861
 40
0.3157169230760711
 50
90.18896704254594
 51
180.0
 73
     1
 72
     1
 10
-245.5301785845931
 20
-249.3219499552861
 11
-245.5301785845931
 21
-249.9274852437929
 72
     2
 10
-245.2144616615163
 20
-249.9274852437929
 40
0.315716923076792
 50
180.0
 51
244.6259913216482
 73
     1
 72
     2
 10
-245.7405043596042
 20
-251.0366268437607
 40
0.911848150144459
 50
295.3740086781925
 51
424.6259913218236
 73
     0
 97
        8
330
279
330
1DA
330
276
330
277
330
255
330
1D9
330
278
330
254
 92
       16
 93
       12
 72
     2
 10
-247.790010348048
 20
-253.6782275213551
 40
0.3157169230756836
 50
180.0
 51
270.0
 73
     1
 72
     1
 10
-247.790010348048
 20
-253.9939444444318
 11
-246.3141770870384
 21
-253.9939444444318
 72
     2
 10
-246.3141770870384
 20
-253.6782275213551
 40
0.3157169230767067
 50
270.0
 51
360.0
 73
     1
 72
     1
 10
-245.9984601639618
 20
-253.6782275213551
 11
-245.9984601639618
 21
-252.1474565898235
 72
     2
 10
-246.3141770870384
 20
-252.1474565898235
 40
0.315716923076593
 50
0.0
 51
64.80558935146027
 73
     1
 72
     2
 10
-245.7915926394634
 20
-251.0366268437607
 40
0.9118975235576147
 50
115.1944106485122
 51
244.8055893514718
 73
     0
 72
     2
 10
-246.3141770870384
 20
-249.9257970976985
 40
0.3157169230761203
 50
295.1944106485397
 51
360.0
 73
     1
 72
     1
 10
-245.9984601639618
 20
-249.9257970976985
 11
-245.9984601639618
 21
-249.321772478638
 72
     2
 10
-246.3141770870384
 20
-249.321772478638
 40
0.315716923076593
 50
0.0
 51
90.0
 73
     1
 72
     1
 10
-246.3141770870384
 20
-249.0060555555618
 11
-247.790010348048
 21
-249.0060555555618
 72
     2
 10
-247.790010348048
 20
-249.321772478638
 40
0.3157169230761951
 50
90.0
 51
180.0
 73
     1
 72
     1
 10
-248.1057272711237
 20
-249.321772478638
 11
-248.1057272711237
 21
-253.6782275213551
 97
       12
330
25D
330
215
330
260
330
210
330
26D
330
26E
330
25F
330
20F
330
25E
330
20E
330
26F
330
20D
 75
     1
 76
     0
 52
45.0
 41
0.1
 77
     0
 78
     1
 53
45.0
 43
0.0
 44
0.0
 45
-0.0707106781186548
 46
0.0707106781186548
 79
     0
 98
        1
 10
0.0
 20
0.0
  0
HATCH
  5
2C5
330
A0
100
AcDbEntity
  8
1
  6
Continuous
 62
     2
100
AcDbHatch
 10
0.0
 20
0.0
 30
0.0
210
0.0
220
0.0
230
1.0
  2
_USER
 70
     0
 71
     1
 91
        1
 92
        1
 93
       18
 72
     1
 10
-220.8968004094728
 20
-252.4379557823012
 11
-221.7078994469462
 21
-252.4379557823012
 72
     1
 10
-221.7078994469462
 20
-252.4379557823012
 11
-221.7078994469462
 21
-254.7064999999887
 72
     1
 10
-221.7078994469462
 20
-254.7064999999887
 11
-222.9006921491139
 21
-254.7064999999887
 72
     1
 10
-222.9006921491139
 20
-254.7064999999887
 11
-222.9006921491139
 21
-252.4379557823012
 72
     1
 10
-222.9006921491139
 20
-252.4379557823012
 11
-224.004331448682
 21
-252.4379557823012
 72
     2
 10
-224.004331448682
 20
-253.3924787891273
 40
0.9545230068260935
 50
90.0
 51
109.337143219432
 73
     1
 72
     2
 10
-224.1510014467857
 20
-252.9745238087444
 40
0.5115800601944143
 50
109.3371432194853
 51
151.4785267424225
 73
     1
 72
     2
 10
-223.7736441887043
 20
-253.1795952380834
 40
0.9410597353348924
 50
151.4785267423624
 51
208.5214732576695
 73
     1
 72
     2
 10
-224.1510014467857
 20
-253.3846666674219
 40
0.5115800601960215
 50
208.5214732576866
 51
246.6277221118449
 73
     1
 72
     2
 10
-223.9945614140826
 20
-253.0226746487119
 40
0.9059297849852801
 50
246.6277221118183
 51
288.4480761180817
 73
     1
 72
     2
 10
-224.4127291477445
 20
-251.7691288726753
 40
2.227384008972746
 50
288.4480761181335
 51
301.9309089499397
 73
     1
 72
     1
 10
-223.2346741057206
 20
-253.6594795918251
 11
-223.2346741057206
 21
-254.5319965986284
 72
     2
 10
-224.5706020228373
 20
-249.866914292827
 40
4.852596863498825
 50
74.02000874166129
 51
84.84185523036365
 73
     0
 72
     2
 10
-224.2817459281015
 20
-253.0668048760486
 40
1.639695123940448
 50
84.8418552303238
 51
164.9381082228988
 73
     0
 72
     2
 10
-224.7008737715631
 20
-253.1795952380834
 40
1.205656168393002
 50
164.9381082229041
 51
195.0618917770972
 73
     0
 72
     2
 10
-224.2817459281015
 20
-253.2923856001183
 40
1.639695123940214
 50
195.061891777105
 51
270.0
 73
     0
 72
     1
 10
-224.2817459281015
 20
-251.6526904761781
 11
-220.8968004094728
 21
-251.6526904761776
 72
     1
 10
-220.8968004094728
 20
-251.6526904761776
 11
-220.8968004094728
 21
-252.4379557823012
 97
       18
330
1DC
330
272
330
273
330
25B
330
25A
330
240
330
259
330
258
330
274
330
257
330
275
330
256
330
241
330
1DB
330
1E0
330
1DF
330
1DE
330
1DD
 75
     1
 76
     0
 52
45.0
 41
0.1
 77
     0
 78
     1
 53
45.0
 43
0.0
 44
0.0
 45
-0.0707106781186548
 46
0.0707106781186548
 79
     0
 98
        1
 10
0.0
 20
0.0
  0
HATCH
  5
2C6
330
A0
100
AcDbEntity
  8
1
  6
Continuous
 62
     2
100
AcDbHatch
 10
0.0
 20
0.0
 30
0.0
210
0.0
220
0.0
230
1.0
  2
_USER
 70
     0
 71
     1
 91
        1
 92
        1
 93
       18
 72
     1
 10
-220.8968004094728
 20
-252.4379557823012
 11
-221.7078994469462
 21
-252.4379557823012
 72
     1
 10
-221.7078994469462
 20
-252.4379557823012
 11
-221.7078994469462
 21
-254.7064999999887
 72
     1
 10
-221.7078994469462
 20
-254.7064999999887
 11
-222.9006921491139
 21
-254.7064999999887
 72
     1
 10
-222.9006921491139
 20
-254.7064999999887
 11
-222.9006921491139
 21
-252.4379557823012
 72
     1
 10
-222.9006921491139
 20
-252.4379557823012
 11
-224.004331448682
 21
-252.4379557823012
 72
     2
 10
-224.004331448682
 20
-253.3924787891273
 40
0.9545230068260935
 50
90.0
 51
109.337143219432
 73
     1
 72
     2
 10
-224.1510014467857
 20
-252.9745238087444
 40
0.5115800601944143
 50
109.3371432194853
 51
151.4785267424225
 73
     1
 72
     2
 10
-223.7736441887043
 20
-253.1795952380834
 40
0.9410597353348924
 50
151.4785267423624
 51
208.5214732576695
 73
     1
 72
     2
 10
-224.1510014467857
 20
-253.3846666674219
 40
0.5115800601960215
 50
208.5214732576866
 51
246.6277221118449
 73
     1
 72
     2
 10
-223.9945614140826
 20
-253.0226746487119
 40
0.9059297849852801
 50
246.6277221118183
 51
288.4480761180817
 73
     1
 72
     2
 10
-224.4127291477445
 20
-251.7691288726753
 40
2.227384008972746
 50
288.4480761181335
 51
301.9309089499397
 73
     1
 72
     1
 10
-223.2346741057206
 20
-253.6594795918251
 11
-223.2346741057206
 21
-254.5319965986284
 72
     2
 10
-224.5706020228373
 20
-249.866914292827
 40
4.852596863498825
 50
74.02000874166129
 51
84.84185523036365
 73
     0
 72
     2
 10
-224.2817459281015
 20
-253.0668048760486
 40
1.639695123940448
 50
84.8418552303238
 51
164.9381082228988
 73
     0
 72
     2
 10
-224.7008737715631
 20
-253.1795952380834
 40
1.205656168393002
 50
164.9381082229041
 51
195.0618917770972
 73
     0
 72
     2
 10
-224.2817459281015
 20
-253.2923856001183
 40
1.639695123940214
 50
195.061891777105
 51
270.0
 73
     0
 72
     1
 10
-224.2817459281015
 20
-251.6526904761781
 11
-220.8968004094728
 21
-251.6526904761776
 72
     1
 10
-220.8968004094728
 20
-251.6526904761776
 11
-220.8968004094728
 21
-252.4379557823012
 97
       18
330
1DC
330
272
330
273
330
25B
330
25A
330
240
330
259
330
258
330
274
330
257
330
275
330
256
330
241
330
1DB
330
1E0
330
1DF
330
1DE
330
1DD
 75
     1
 76
     0
 52
45.0
 41
0.1
 77
     0
 78
     1
 53
45.0
 43
0.0
 44
0.0
 45
-0.0707106781186548
 46
0.0707106781186548
 79
     0
 98
        1
 10
0.0
 20
0.0
  0
HATCH
  5
2C7
330
A0
100
AcDbEntity
  8
1
  6
Continuous
 62
     2
100
AcDbHatch
 10
0.0
 20
0.0
 30
0.0
210
0.0
220
0.0
230
1.0
  2
_USER
 70
     0
 71
     1
 91
        1
 92
        1
 93
       14
 72
     2
 10
-240.3844474073544
 20
-253.2923856001183
 40
1.639695123940507
 50
84.84185523036236
 51
164.9381082228864
 73
     1
 72
     2
 10
-240.8035752508172
 20
-253.1795952380834
 40
1.205656168390944
 50
164.9381082228765
 51
195.0618917770948
 73
     1
 72
     2
 10
-240.3844474073544
 20
-253.0668048760486
 40
1.639695123939387
 50
195.0618917770896
 51
275.1581447696395
 73
     1
 72
     2
 10
-240.6733035020903
 20
-249.866914292827
 40
4.852596863498138
 50
275.1581447696249
 51
285.9799912583529
 73
     1
 72
     1
 10
-239.3373755849725
 20
-254.5319965986278
 11
-239.3373755849725
 21
-253.6594795918246
 72
     2
 10
-240.5154306269974
 20
-251.7691288726747
 40
2.227384008972737
 50
58.0690910500407
 51
71.55192388186722
 73
     0
 72
     2
 10
-240.0972628933366
 20
-253.0226746487119
 40
0.9059297849849192
 50
71.55192388184153
 51
113.372277888129
 73
     0
 72
     2
 10
-240.2537029260386
 20
-253.3846666674219
 40
0.5115800601948034
 50
113.3722778881726
 51
151.4785267423044
 73
     0
 72
     2
 10
-239.8763456679583
 20
-253.1795952380834
 40
0.9410597353332545
 50
151.4785267422943
 51
208.5214732577331
 73
     0
 72
     2
 10
-240.2537029260386
 20
-252.9745238087444
 40
0.5115800601948779
 50
208.5214732576956
 51
246.6277221118009
 73
     0
 72
     2
 10
-240.0972628933366
 20
-253.336515827455
 40
0.9059297849853228
 50
246.627722111871
 51
288.4480761181465
 73
     0
 72
     2
 10
-240.5154306269974
 20
-254.5900616034916
 40
2.227384008973478
 50
288.4480761181328
 51
301.9309089499592
 73
     0
 72
     1
 10
-239.3373755849725
 20
-252.6997108843417
 11
-239.3373755849725
 21
-251.8271938775384
 72
     2
 10
-240.6733035020903
 20
-256.4922761833393
 40
4.852596863498068
 50
74.02000874164739
 51
84.84185523037506
 73
     1
 97
       14
330
27A
330
27B
330
27C
330
27D
330
242
330
253
330
252
330
251
330
27E
330
27F
330
250
330
280
330
243
330
24F
 75
     1
 76
     0
 52
45.0
 41
0.1
 77
     0
 78
     1
 53
45.0
 43
0.0
 44
0.0
 45
-0.0707106781186548
 46
0.0707106781186548
 79
     0
 98
        1
 10
0.0
 20
0.0
  0
HATCH
  5
2C8
330
A0
100
AcDbEntity
  8
1
  6
Continuous
 62
     2
100
AcDbHatch
 10
0.0
 20
0.0
 30
0.0
210
0.0
220
0.0
230
1.0
  2
_USER
 70
     0
 71
     1
 91
        1
 92
        1
 93
       14
 72
     2
 10
-240.3844474073544
 20
-253.2923856001183
 40
1.639695123940507
 50
84.84185523036236
 51
164.9381082228864
 73
     1
 72
     2
 10
-240.8035752508172
 20
-253.1795952380834
 40
1.205656168390944
 50
164.9381082228765
 51
195.0618917770948
 73
     1
 72
     2
 10
-240.3844474073544
 20
-253.0668048760486
 40
1.639695123939387
 50
195.0618917770896
 51
275.1581447696395
 73
     1
 72
     2
 10
-240.6733035020903
 20
-249.866914292827
 40
4.852596863498138
 50
275.1581447696249
 51
285.9799912583529
 73
     1
 72
     1
 10
-239.3373755849725
 20
-254.5319965986278
 11
-239.3373755849725
 21
-253.6594795918246
 72
     2
 10
-240.5154306269974
 20
-251.7691288726747
 40
2.227384008972737
 50
58.0690910500407
 51
71.55192388186722
 73
     0
 72
     2
 10
-240.0972628933366
 20
-253.0226746487119
 40
0.9059297849849192
 50
71.55192388184153
 51
113.372277888129
 73
     0
 72
     2
 10
-240.2537029260386
 20
-253.3846666674219
 40
0.5115800601948034
 50
113.3722778881726
 51
151.4785267423044
 73
     0
 72
     2
 10
-239.8763456679583
 20
-253.1795952380834
 40
0.9410597353332545
 50
151.4785267422943
 51
208.5214732577331
 73
     0
 72
     2
 10
-240.2537029260386
 20
-252.9745238087444
 40
0.5115800601948779
 50
208.5214732576956
 51
246.6277221118009
 73
     0
 72
     2
 10
-240.0972628933366
 20
-253.336515827455
 40
0.9059297849853228
 50
246.627722111871
 51
288.4480761181465
 73
     0
 72
     2
 10
-240.5154306269974
 20
-254.5900616034916
 40
2.227384008973478
 50
288.4480761181328
 51
301.9309089499592
 73
     0
 72
     1
 10
-239.3373755849725
 20
-252.6997108843417
 11
-239.3373755849725
 21
-251.8271938775384
 72
     2
 10
-240.6733035020903
 20
-256.4922761833393
 40
4.852596863498068
 50
74.02000874164739
 51
84.84185523037506
 73
     1
 97
       14
330
27A
330
27B
330
27C
330
27D
330
242
330
253
330
252
330
251
330
27E
330
27F
330
250
330
280
330
243
330
24F
 75
     1
 76
     0
 52
45.0
 41
0.1
 77
     0
 78
     1
 53
45.0
 43
0.0
 44
0.0
 45
-0.0707106781186548
 46
0.0707106781186548
 79
     0
 98
        1
 10
0.0
 20
0.0
  0
ENDBLK
  5
A2
330
A0
100
AcDbEntity
  8
0
100
AcDbBlockEnd
  0
BLOCK
  5
A4
330
A3
100
AcDbEntity
  8
0
100
AcDbBlockBegin
  2
_punkt
 70
     0
 10
-123.4999999999899
 20
-262.000000000005
 30
0.0
  3
_punkt
  1

  0
LINE
  5
2C9
330
A3
100
AcDbEntity
  8
1
  6
Continuous
 62
     2
100
AcDbLine
 10
-123.4999999999899
 20
-262.000000000005
 30
0.0
 11
-118.4999999999909
 21
-262.000000000005
 31
0.0
  0
LINE
  5
2CA
330
A3
100
AcDbEntity
  8
1
  6
Continuous
 62
     2
100
AcDbLine
 10
-123.4999999999899
 20
-262.000000000005
 30
0.0
 11
-123.4999999999899
 21
-267.0000000000051
 31
0.0
  0
ENDBLK
  5
A5
330
A3
100
AcDbEntity
  8
0
100
AcDbBlockEnd
  0
BLOCK
  5
A9
330
A6
100
AcDbEntity
  8
0
100
AcDbBlockBegin
  2
A4I_CS
 70
     0
 10
-123.4999999999899
 20
-267.0000000000051
 30
0.0
  3
A4I_CS
  1

  0
INSERT
  5
A7
330
A6
100
AcDbEntity
  8
1
100
AcDbBlockReference
  2
_rahmen
 10
-123.4999999999899
 20
-267.0000000000051
 30
0.0
  0
INSERT
  5
A8
330
A6
100
AcDbEntity
  8
1
100
AcDbBlockReference
  2
_punkt
 10
-123.4999999999899
 20
-262.000000000005
 30
0.0
  0
ENDBLK
  5
AA
330
A6
100
AcDbEntity
  8
0
100
AcDbBlockEnd
  0
BLOCK
  5
B3
330
AB
100
AcDbEntity
  8
0
100
AcDbBlockBegin
  2
1
 70
     0
 10
0.0
 20
0.0
 30
0.0
  3
1
  1

  0
INSERT
  5
AC
330
AB
100
AcDbEntity
  8
0
100
AcDbBlockReference
  2
Allg1
 10
-190.0000000000139
 20
-181.0000000000221
 30
0.0
 41
2.0
 42
2.0
 43
2.0
  0
INSERT
  5
AD
330
AB
100
AcDbEntity
  8
0
100
AcDbBlockReference
  2
SA_Rechts1
 10
-322.00000000003
 20
-121.00000000001
 30
0.0
 41
2.0
 42
2.0
 43
2.0
  0
INSERT
  5
AE
330
AB
100
AcDbEntity
  8
0
100
AcDbBlockReference
  2
Vordans1
 10
-276.1999999284726
 20
-121.00000000001
 30
0.0
 41
2.0
 42
2.0
 43
2.0
  0
INSERT
  5
AF
330
AB
100
AcDbEntity
  8
0
100
AcDbBlockReference
  2
Drfsicht1
 10
-276.1999999284726
 20
-172.2500000000337
 30
0.0
 41
2.0
 42
2.0
 43
2.0
  0
INSERT
  5
B0
330
AB
100
AcDbEntity
  8
0
100
AcDbBlockReference
  2
SA_Links1
 10
-226.3999998569154
 20
-121.00000000001
 30
0.0
 41
2.0
 42
2.0
 43
2.0
  0
INSERT
  5
B1
330
AB
100
AcDbEntity
  8
0
100
AcDbBlockReference
  2
Rückansicht1
 10
-184.599999785418
 20
-121.00000000001
 30
0.0
 41
2.0
 42
2.0
 43
2.0
  0
INSERT
  5
B2
330
AB
100
AcDbEntity
  8
0
100
AcDbBlockReference
  2
A4I_CS
 10
-123.4999999999899
 20
-267.0000000000051
 30
0.0
  0
ENDBLK
  5
B4
330
AB
100
AcDbEntity
  8
0
100
AcDbBlockEnd
  0
BLOCK
  5
130
330
129
100
AcDbEntity
  8
0
100
AcDbBlockBegin
  2
*D17
 70
     1
 10
0.0
 20
0.0
 30
0.0
  3
*D17
  1

  0
LINE
  5
12A
330
129
100
AcDbEntity
  8
1
  6
Continuous
 62
     2
100
AcDbLine
 10
-142.4999999475955
 20
-54.52499996185979
 30
0.0
 11
-133.6999999475955
 21
-54.52499996185979
 31
0.0
  0
LINE
  5
12B
330
129
100
AcDbEntity
  8
1
  6
Continuous
 62
     2
100
AcDbLine
 10
-142.4999999475955
 20
-59.52499996185979
 30
0.0
 11
-142.4999999475955
 21
-53.77499996185979
 31
0.0
  0
LINE
  5
12C
330
129
100
AcDbEntity
  8
1
  6
Continuous
 62
     2
100
AcDbLine
 10
-133.6999999475955
 20
-59.52499996186339
 30
0.0
 11
-133.6999999475955
 21
-53.77499996185979
 31
0.0
  0
SOLID
  5
12D
330
129
100
AcDbEntity
  8
1
 62
     2
100
AcDbTrace
 10
-140.7499999475955
 20
-54.29460809108185
 30
0.0
 11
-140.7499999475955
 21
-54.75539183263773
 31
0.0
 12
-142.4999999475955
 22
-54.52499996185979
 32
0.0
 13
-142.4999999475955
 23
-54.52499996185979
 33
0.0
  0
SOLID
  5
12E
330
129
100
AcDbEntity
  8
1
 62
     2
100
AcDbTrace
 10
-135.4499999475955
 20
-54.75539183263773
 30
0.0
 11
-135.4499999475955
 21
-54.29460809108185
 31
0.0
 12
-133.6999999475955
 22
-54.52499996185979
 32
0.0
 13
-133.6999999475955
 23
-54.52499996185979
 33
0.0
  0
MTEXT
  5
12F
330
129
100
AcDbEntity
  8
1
 62
     3
100
AcDbMText
 10
-138.5378694878995
 20
-53.77499996185979
 30
0.0
 40
1.75
 41
0.0
 71
     7
 72
     1
  1
9
  7
CONVERTER_11
 11
0.9999999999970619
 21
2.424068405545306E-6
 31
0.0
 73
     1
 44
0.60024009603842
  0
ENDBLK
  5
131
330
129
100
AcDbEntity
  8
0
100
AcDbBlockEnd
  0
BLOCK
  5
13D
330
134
100
AcDbEntity
  8
0
100
AcDbBlockBegin
  2
*D18
 70
     1
 10
0.0
 20
0.0
 30
0.0
  3
*D18
  1

  0
LINE
  5
135
330
134
100
AcDbEntity
  8
1
  6
Continuous
 62
     2
100
AcDbLine
 10
-128.8006119106496
 20
-54.87499996186688
 30
0.0
 11
-128.8006119106496
 21
-58.37499996186687
 31
0.0
  0
LINE
  5
136
330
134
100
AcDbEntity
  8
1
  6
Continuous
 62
     2
100
AcDbLine
 10
-128.8006119106496
 20
-58.37499996186687
 30
0.0
 11
-128.8006119106496
 21
-62.62499996186284
 31
0.0
  0
LINE
  5
137
330
134
100
AcDbEntity
  8
1
  6
Continuous
 62
     2
100
AcDbLine
 10
-128.8006119106496
 20
-62.62499996186284
 30
0.0
 11
-128.8006119106496
 21
-69.21684407839851
 31
0.0
  0
LINE
  5
138
330
134
100
AcDbEntity
  8
1
  6
Continuous
 62
     2
100
AcDbLine
 10
-133.8006119106496
 20
-58.37499996186687
 30
0.0
 11
-128.0506119106496
 21
-58.37499996186687
 31
0.0
  0
LINE
  5
139
330
134
100
AcDbEntity
  8
1
  6
Continuous
 62
     2
100
AcDbLine
 10
-135.5196151898675
 20
-62.62499996186284
 30
0.0
 11
-128.0506119106496
 21
-62.62499996186284
 31
0.0
  0
SOLID
  5
13A
330
134
100
AcDbEntity
  8
1
 62
     2
100
AcDbTrace
 10
-129.0310037814275
 20
-56.62499996186687
 30
0.0
 11
-128.5702200398717
 21
-56.62499996186687
 31
0.0
 12
-128.8006119106496
 22
-58.37499996186687
 32
0.0
 13
-128.8006119106496
 23
-58.37499996186687
 33
0.0
  0
SOLID
  5
13B
330
134
100
AcDbEntity
  8
1
 62
     2
100
AcDbTrace
 10
-128.5702200398717
 20
-64.37499996186284
 30
0.0
 11
-129.0310037814275
 21
-64.37499996186284
 31
0.0
 12
-128.8006119106496
 22
-62.62499996186284
 32
0.0
 13
-128.8006119106496
 23
-62.62499996186284
 33
0.0
  0
MTEXT
  5
13C
330
134
100
AcDbEntity
  8
1
 62
     3
100
AcDbMText
 10
-129.7256119106496
 20
-69.21684407839851
 30
0.0
 40
1.75
 41
0.0
 71
     7
 72
     1
  1
4,3
  7
CONVERTER_11
 11
0.0
 21
1.0
 31
0.0
 73
     1
 44
0.60024009603842
  0
ENDBLK
  5
13E
330
134
100
AcDbEntity
  8
0
100
AcDbBlockEnd
  0
BLOCK
  5
155
330
14E
100
AcDbEntity
  8
0
100
AcDbBlockBegin
  2
*D19
 70
     1
 10
0.0
 20
0.0
 30
0.0
  3
*D19
  1

  0
LINE
  5
14F
330
14E
100
AcDbEntity
  8
1
  6
Continuous
 62
     2
100
AcDbLine
 10
-128.6999999475955
 20
-77.62500505476547
 30
0.0
 11
-128.6999999475955
 21
-94.62500505476541
 31
0.0
  0
LINE
  5
150
330
14E
100
AcDbEntity
  8
1
  6
Continuous
 62
     2
100
AcDbLine
 10
-133.6999999475955
 20
-77.62500505476547
 30
0.0
 11
-127.9499999475955
 21
-77.62500505476547
 31
0.0
  0
LINE
  5
151
330
14E
100
AcDbEntity
  8
1
  6
Continuous
 62
     2
100
AcDbLine
 10
-133.6999999475955
 20
-94.62500505476541
 30
0.0
 11
-127.9499999475955
 21
-94.62500505476541
 31
0.0
  0
SOLID
  5
152
330
14E
100
AcDbEntity
  8
1
 62
     2
100
AcDbTrace
 10
-128.4696080768176
 20
-79.37500505476547
 30
0.0
 11
-128.9303918183734
 21
-79.37500505476547
 31
0.0
 12
-128.6999999475955
 22
-77.62500505476547
 32
0.0
 13
-128.6999999475955
 23
-77.62500505476547
 33
0.0
  0
SOLID
  5
153
330
14E
100
AcDbEntity
  8
1
 62
     2
100
AcDbTrace
 10
-128.9303918183734
 20
-92.87500505476541
 30
0.0
 11
-128.4696080768176
 21
-92.87500505476541
 31
0.0
 12
-128.6999999475955
 22
-94.62500505476541
 32
0.0
 13
-128.6999999475955
 23
-94.62500505476541
 33
0.0
  0
MTEXT
  5
154
330
14E
100
AcDbEntity
  8
1
 62
     3
100
AcDbMText
 10
-129.4499999475955
 20
-87.1750050547654
 30
0.0
 40
1.75
 41
0.0
 71
     7
 72
     1
  1
17
  7
CONVERTER_11
 11
0.0
 21
1.0
 31
0.0
 73
     1
 44
0.60024009603842
  0
ENDBLK
  5
156
330
14E
100
AcDbEntity
  8
0
100
AcDbBlockEnd
  0
ENDSEC
  0
SECTION
  2
ENTITIES
  0
INSERT
  5
B5
330
1F
100
AcDbEntity
  8
1
100
AcDbBlockReference
  2
1
 10
0.0
 20
0.0
 30
0.0
  0
ENDSEC
  0
SECTION
  2
OBJECTS
  0
DICTIONARY
  5
C
330
0
100
AcDbDictionary
281
     1
  3
ACAD_DETAILVIEWSTYLE
350
310
  3
ACAD_GROUP
350
D
  3
ACAD_LAYOUT
350
1A
  3
ACAD_MATERIAL
350
43
  3
ACAD_MLEADERSTYLE
350
6B
  3
ACAD_MLINESTYLE
350
17
  3
ACAD_PLOTSETTINGS
350
19
  3
ACAD_PLOTSTYLENAME
350
E
  3
ACAD_SCALELIST
350
47
  3
ACAD_SECTIONVIEWSTYLE
350
311
  3
ACAD_TABLESTYLE
350
69
  3
ACAD_VISUALSTYLE
350
2A
  3
ACDB_RECOMPOSE_DATA
350
30D
  3
AcDbVariableDictionary
350
2CD
  0
DICTIONARY
  5
2CB
330
8
100
AcDbDictionary
280
     1
281
     1
  3
ACAD_XREC_ROUNDTRIP
360
2CC
  0
DICTIONARY
  5
310
102
{ACAD_REACTORS
330
C
102
}
330
C
100
AcDbDictionary
281
     1
  0
DICTIONARY
  5
D
102
{ACAD_REACTORS
330
C
102
}
330
C
100
AcDbDictionary
281
     1
  0
DICTIONARY
  5
1A
102
{ACAD_REACTORS
330
C
102
}
330
C
100
AcDbDictionary
281
     1
  3
Layout1
350
1E
  3
Layout2
350
26
  3
Model
350
22
  0
DICTIONARY
  5
43
102
{ACAD_REACTORS
330
C
102
}
330
C
100
AcDbDictionary
281
     1
  3
ByBlock
350
45
  3
ByLayer
350
44
  3
Global
350
46
  0
DICTIONARY
  5
6B
102
{ACAD_REACTORS
330
C
102
}
330
C
100
AcDbDictionary
281
     1
  3
Standard
350
6C
  0
DICTIONARY
  5
17
102
{ACAD_REACTORS
330
C
102
}
330
C
100
AcDbDictionary
281
     1
  3
Standard
350
18
  0
DICTIONARY
  5
19
102
{ACAD_REACTORS
330
C
102
}
330
C
100
AcDbDictionary
281
     1
  0
ACDBDICTIONARYWDFLT
  5
E
102
{ACAD_REACTORS
330
C
102
}
330
C
100
AcDbDictionary
281
     1
  3
Normal
350
F
100
AcDbDictionaryWithDefault
340
F
  0
DICTIONARY
  5
47
102
{ACAD_REACTORS
330
C
102
}
330
C
100
AcDbDictionary
281
     1
  3
A0
350
48
  3
A1
350
49
  3
A2
350
4A
  3
A3
350
4B
  3
A4
350
4C
  3
A5
350
4D
  3
A6
350
4E
  3
A7
350
4F
  3
A8
350
50
  3
A9
350
51
  3
B0
350
52
  3
B1
350
53
  3
B2
350
54
  3
B3
350
55
  3
B4
350
56
  3
B5
350
57
  3
B6
350
58
  3
B7
350
59
  3
B8
350
5A
  3
B9
350
5B
  3
C0
350
5C
  3
C1
350
5D
  3
C2
350
5E
  3
C3
350
5F
  3
C4
350
60
  3
C5
350
61
  3
C6
350
62
  3
C7
350
63
  3
C8
350
64
  3
C9
350
65
  3
D0
350
66
  3
D1
350
67
  3
D2
350
68
  0
DICTIONARY
  5
311
102
{ACAD_REACTORS
330
C
102
}
330
C
100
AcDbDictionary
281
     1
  0
DICTIONARY
  5
69
102
{ACAD_REACTORS
330
C
102
}
330
C
100
AcDbDictionary
281
     1
  3
Standard
350
6A
  0
DICTIONARY
  5
2A
102
{ACAD_REACTORS
330
C
102
}
330
C
100
AcDbDictionary
281
     1
  3
2dWireframe
350
2F
  3
Basic
350
32
  3
Brighten
350
36
  3
ColorChange
350
3A
  3
Conceptual
350
34
  3
Dim
350
35
  3
EdgeColorOff
350
3D
  3
Facepattern
350
39
  3
Flat
350
2B
  3
FlatWithEdges
350
2C
  3
Gouraud
350
2D
  3
GouraudWithEdges
350
2E
  3
Hidden
350
31
  3
JitterOff
350
3B
  3
Linepattern
350
38
  3
OverhangOff
350
3C
  3
Realistic
350
33
  3
Shaded
350
42
  3
Shaded with edges
350
41
  3
Shades of Gray
350
3E
  3
Sketchy
350
3F
  3
Thicken
350
37
  3
Wireframe
350
30
  3
X-Ray
350
40
  0
XRECORD
  5
30D
102
{ACAD_REACTORS
330
C
102
}
330
C
100
AcDbXrecord
280
     1
 90
        1
330
6A
  0
DICTIONARY
  5
2CD
102
{ACAD_REACTORS
330
C
102
}
330
C
100
AcDbDictionary
281
     1
  3
CANNOSCALE
350
2CE
  3
CMLEADERSTYLE
350
30F
  3
CTABLESTYLE
350
30E
  3
MSLTSCALE
350
2CF
  3
XCLIPFRAME
350
2D0
  0
XRECORD
  5
2CC
102
{ACAD_REACTORS
330
2CB
102
}
330
2CB
100
AcDbXrecord
280
     1
102
VTR_0.000_0.000_1.000_1.000_VISUALSTYLE
340
2F
102
VTR_0.000_0.000_1.000_1.000_GRIDDISPLAY
 70
     3
102
VTR_0.000_0.000_1.000_1.000_GRIDMAJOR
 70
     5
102
VTR_0.000_0.000_1.000_1.000_DEFAULTLIGHTING
280
     1
102
VTR_0.000_0.000_1.000_1.000_DEFAULTLIGHTINGTYPE
 70
     1
102
VTR_0.000_0.000_1.000_1.000_BRIGHTNESS
141
0.0
102
VTR_0.000_0.000_1.000_1.000_CONTRAST
142
0.0
  0
LAYOUT
  5
1E
102
{ACAD_REACTORS
330
1A
102
}
330
1A
100
AcDbPlotSettings
  1

  2
none_device
  4

  6

 40
0.0
 41
0.0
 42
0.0
 43
0.0
 44
0.0
 45
0.0
 46
0.0
 47
0.0
 48
0.0
 49
0.0
140
0.0
141
0.0
142
1.0
143
1.0
 70
   688
 72
     0
 73
     0
 74
     5
  7

 75
    16
 76
     0
 77
     2
 78
   300
147
1.0
148
0.0
149
0.0
100
AcDbLayout
  1
Layout1
 70
     1
 71
     1
 10
0.0
 20
0.0
 11
12.0
 21
9.0
 12
0.0
 22
0.0
 32
0.0
 14
1.00000000000000E+20
 24
1.00000000000000E+20
 34
1.00000000000000E+20
 15
-1.00000000000000E+20
 25
-1.00000000000000E+20
 35
-1.00000000000000E+20
146
0.0
 13
0.0
 23
0.0
 33
0.0
 16
1.0
 26
0.0
 36
0.0
 17
0.0
 27
1.0
 37
0.0
 76
     0
330
1B
  0
LAYOUT
  5
26
102
{ACAD_REACTORS
330
1A
102
}
330
1A
100
AcDbPlotSettings
  1

  2
none_device
  4

  6

 40
0.0
 41
0.0
 42
0.0
 43
0.0
 44
0.0
 45
0.0
 46
0.0
 47
0.0
 48
0.0
 49
0.0
140
0.0
141
0.0
142
1.0
143
1.0
 70
   688
 72
     0
 73
     0
 74
     5
  7

 75
    16
 76
     0
 77
     2
 78
   300
147
1.0
148
0.0
149
0.0
100
AcDbLayout
  1
Layout2
 70
     1
 71
     2
 10
0.0
 20
0.0
 11
0.0
 21
0.0
 12
0.0
 22
0.0
 32
0.0
 14
0.0
 24
0.0
 34
0.0
 15
0.0
 25
0.0
 35
0.0
146
0.0
 13
0.0
 23
0.0
 33
0.0
 16
1.0
 26
0.0
 36
0.0
 17
0.0
 27
1.0
 37
0.0
 76
     0
330
23
  0
LAYOUT
  5
22
102
{ACAD_REACTORS
330
1A
102
}
330
1A
100
AcDbPlotSettings
  1

  2
none_device
  4
Letter_(8.50_x_11.00_Inches)
  6

 40
6.35
 41
6.35
 42
6.35000508
 43
6.35000508
 44
215.9
 45
279.4
 46
0.0
 47
0.0
 48
0.0
 49
0.0
140
0.0
141
0.0
142
1.0
143
1.0
 70
  1712
 72
     0
 73
     0
 74
     0
  7

 75
     0
 76
     0
 77
     2
 78
   300
147
1.0
148
0.0
149
0.0
100
AcDbLayout
  1
Model
 70
     1
 71
     0
 10
0.0
 20
0.0
 11
12.0
 21
9.0
 12
0.0
 22
0.0
 32
0.0
 14
-415.499999999989
 24
-267.0000000000051
 34
0.0
 15
-118.4999999999909
 25
-57.000000000005
 35
0.0
146
0.0
 13
0.0
 23
0.0
 33
0.0
 16
1.0
 26
0.0
 36
0.0
 17
0.0
 27
1.0
 37
0.0
 76
     0
330
1F
331
29
  0
MATERIAL
  5
45
102
{ACAD_REACTORS
330
43
102
}
102
{ACAD_XDICTIONARY
360
303
102
}
330
43
100
AcDbMaterial
  1
ByBlock
  0
MATERIAL
  5
44
102
{ACAD_REACTORS
330
43
102
}
102
{ACAD_XDICTIONARY
360
301
102
}
330
43
100
AcDbMaterial
  1
ByLayer
  0
MATERIAL
  5
46
102
{ACAD_REACTORS
330
43
102
}
102
{ACAD_XDICTIONARY
360
305
102
}
330
43
100
AcDbMaterial
  1
Global
  0
MLEADERSTYLE
  5
6C
102
{ACAD_REACTORS
330
6B
102
}
102
{ACAD_XDICTIONARY
360
30B
102
}
330
6B
100
AcDbMLeaderStyle
170
     2
171
     1
172
     0
 90
        2
 40
0.0
 41
0.0
173
     1
 91
-1056964608
340
14
 92
       -2
290
     1
 42
0.09
291
     1
 43
0.36
  3
Standard
341
0
 44
0.18
300

342
11
174
     1
178
     6
175
     1
176
     0
 93
-1056964608
 45
0.18
292
     0
297
     0
 46
0.18
343
0
 94
-1056964608
 47
1.0
 49
1.0
140
1.0
293
     1
141
0.0
294
     1
177
     0
142
1.0
295
     0
296
     0
143
0.125
1001
ACAD_MLEADERVER
1070
     2
  0
MLINESTYLE
  5
18
102
{ACAD_REACTORS
330
17
102
}
330
17
100
AcDbMlineStyle
  2
Standard
 70
     0
  3

 62
   256
 51
90.0
 52
90.0
 71
     2
 49
0.5
 62
   256
  6
BYLAYER
 49
-0.5
 62
   256
  6
BYLAYER
  0
ACDBPLACEHOLDER
  5
F
102
{ACAD_REACTORS
330
E
102
}
330
E
  0
SCALE
  5
48
102
{ACAD_REACTORS
330
47
102
}
330
47
100
AcDbScale
 70
     0
300
1:1
140
1.0
141
1.0
290
     1
  0
SCALE
  5
49
102
{ACAD_REACTORS
330
47
102
}
330
47
100
AcDbScale
 70
     0
300
1:2
140
1.0
141
2.0
290
     0
  0
SCALE
  5
4A
102
{ACAD_REACTORS
330
47
102
}
330
47
100
AcDbScale
 70
     0
300
1:4
140
1.0
141
4.0
290
     0
  0
SCALE
  5
4B
102
{ACAD_REACTORS
330
47
102
}
330
47
100
AcDbScale
 70
     0
300
1:5
140
1.0
141
5.0
290
     0
  0
SCALE
  5
4C
102
{ACAD_REACTORS
330
47
102
}
330
47
100
AcDbScale
 70
     0
300
1:8
140
1.0
141
8.0
290
     0
  0
SCALE
  5
4D
102
{ACAD_REACTORS
330
47
102
}
330
47
100
AcDbScale
 70
     0
300
1:10
140
1.0
141
10.0
290
     0
  0
SCALE
  5
4E
102
{ACAD_REACTORS
330
47
102
}
330
47
100
AcDbScale
 70
     0
300
1:16
140
1.0
141
16.0
290
     0
  0
SCALE
  5
4F
102
{ACAD_REACTORS
330
47
102
}
330
47
100
AcDbScale
 70
     0
300
1:20
140
1.0
141
20.0
290
     0
  0
SCALE
  5
50
102
{ACAD_REACTORS
330
47
102
}
330
47
100
AcDbScale
 70
     0
300
1:30
140
1.0
141
30.0
290
     0
  0
SCALE
  5
51
102
{ACAD_REACTORS
330
47
102
}
330
47
100
AcDbScale
 70
     0
300
1:40
140
1.0
141
40.0
290
     0
  0
SCALE
  5
52
102
{ACAD_REACTORS
330
47
102
}
330
47
100
AcDbScale
 70
     0
300
1:50
140
1.0
141
50.0
290
     0
  0
SCALE
  5
53
102
{ACAD_REACTORS
330
47
102
}
330
47
100
AcDbScale
 70
     0
300
1:100
140
1.0
141
100.0
290
     0
  0
SCALE
  5
54
102
{ACAD_REACTORS
330
47
102
}
330
47
100
AcDbScale
 70
     0
300
2:1
140
2.0
141
1.0
290
     0
  0
SCALE
  5
55
102
{ACAD_REACTORS
330
47
102
}
330
47
100
AcDbScale
 70
     0
300
4:1
140
4.0
141
1.0
290
     0
  0
SCALE
  5
56
102
{ACAD_REACTORS
330
47
102
}
330
47
100
AcDbScale
 70
     0
300
8:1
140
8.0
141
1.0
290
     0
  0
SCALE
  5
57
102
{ACAD_REACTORS
330
47
102
}
330
47
100
AcDbScale
 70
     0
300
10:1
140
10.0
141
1.0
290
     0
  0
SCALE
  5
58
102
{ACAD_REACTORS
330
47
102
}
330
47
100
AcDbScale
 70
     0
300
100:1
140
100.0
141
1.0
290
     0
  0
SCALE
  5
59
102
{ACAD_REACTORS
330
47
102
}
330
47
100
AcDbScale
 70
     0
300
1/128" = 1'-0"
140
0.0078125
141
12.0
290
     0
  0
SCALE
  5
5A
102
{ACAD_REACTORS
330
47
102
}
330
47
100
AcDbScale
 70
     0
300
1/64" = 1'-0"
140
0.015625
141
12.0
290
     0
  0
SCALE
  5
5B
102
{ACAD_REACTORS
330
47
102
}
330
47
100
AcDbScale
 70
     0
300
1/32" = 1'-0"
140
0.03125
141
12.0
290
     0
  0
SCALE
  5
5C
102
{ACAD_REACTORS
330
47
102
}
330
47
100
AcDbScale
 70
     0
300
1/16" = 1'-0"
140
0.0625
141
12.0
290
     0
  0
SCALE
  5
5D
102
{ACAD_REACTORS
330
47
102
}
330
47
100
AcDbScale
 70
     0
300
3/32" = 1'-0"
140
0.09375
141
12.0
290
     0
  0
SCALE
  5
5E
102
{ACAD_REACTORS
330
47
102
}
330
47
100
AcDbScale
 70
     0
300
1/8" = 1'-0"
140
0.125
141
12.0
290
     0
  0
SCALE
  5
5F
102
{ACAD_REACTORS
330
47
102
}
330
47
100
AcDbScale
 70
     0
300
3/16" = 1'-0"
140
0.1875
141
12.0
290
     0
  0
SCALE
  5
60
102
{ACAD_REACTORS
330
47
102
}
330
47
100
AcDbScale
 70
     0
300
1/4" = 1'-0"
140
0.25
141
12.0
290
     0
  0
SCALE
  5
61
102
{ACAD_REACTORS
330
47
102
}
330
47
100
AcDbScale
 70
     0
300
3/8" = 1'-0"
140
0.375
141
12.0
290
     0
  0
SCALE
  5
62
102
{ACAD_REACTORS
330
47
102
}
330
47
100
AcDbScale
 70
     0
300
1/2" = 1'-0"
140
0.5
141
12.0
290
     0
  0
SCALE
  5
63
102
{ACAD_REACTORS
330
47
102
}
330
47
100
AcDbScale
 70
     0
300
3/4" = 1'-0"
140
0.75
141
12.0
290
     0
  0
SCALE
  5
64
102
{ACAD_REACTORS
330
47
102
}
330
47
100
AcDbScale
 70
     0
300
1" = 1'-0"
140
1.0
141
12.0
290
     0
  0
SCALE
  5
65
102
{ACAD_REACTORS
330
47
102
}
330
47
100
AcDbScale
 70
     0
300
1-1/2" = 1'-0"
140
1.5
141
12.0
290
     0
  0
SCALE
  5
66
102
{ACAD_REACTORS
330
47
102
}
330
47
100
AcDbScale
 70
     0
300
3" = 1'-0"
140
3.0
141
12.0
290
     0
  0
SCALE
  5
67
102
{ACAD_REACTORS
330
47
102
}
330
47
100
AcDbScale
 70
     0
300
6" = 1'-0"
140
6.0
141
12.0
290
     0
  0
SCALE
  5
68
102
{ACAD_REACTORS
330
47
102
}
330
47
100
AcDbScale
 70
     0
300
1'-0" = 1'-0"
140
12.0
141
12.0
290
     0
  0
TABLESTYLE
  5
6A
102
{ACAD_REACTORS
330
69
102
}
102
{ACAD_XDICTIONARY
360
307
102
}
330
69
100
AcDbTableStyle
  3
Standard
 70
     0
 71
     0
 40
0.06
 41
0.06
280
     0
281
     0
  7
Standard
140
0.18
170
     2
 62
     0
 63
   257
283
     0
274
    -2
284
     1
 64
     0
275
    -2
285
     1
 65
     0
276
    -2
286
     1
 66
     0
277
    -2
287
     1
 67
     0
278
    -2
288
     1
 68
     0
279
    -2
289
     1
 69
     0
  7
Standard
140
0.25
170
     5
 62
     0
 63
   257
283
     0
274
    -2
284
     1
 64
     0
275
    -2
285
     1
 65
     0
276
    -2
286
     1
 66
     0
277
    -2
287
     1
 67
     0
278
    -2
288
     1
 68
     0
279
    -2
289
     1
 69
     0
  7
Standard
140
0.18
170
     5
 62
     0
 63
   257
283
     0
274
    -2
284
     1
 64
     0
275
    -2
285
     1
 65
     0
276
    -2
286
     1
 66
     0
277
    -2
287
     1
 67
     0
278
    -2
288
     1
 68
     0
279
    -2
289
     1
 69
     0
  0
VISUALSTYLE
  5
2F
102
{ACAD_REACTORS
330
2A
102
}
102
{ACAD_XDICTIONARY
360
2D9
102
}
330
2A
100
AcDbVisualStyle
  2
2dWireframe
 70
     4
 71
     0
 72
     2
 73
     0
 90
        0
 40
0.6
 41
30.0
 62
     5
 63
     7
421
 16777215
 74
     1
 91
        4
 64
     7
 65
   257
 75
     1
175
     1
 42
1.0
 92
        0
 66
   257
 43
1.0
 76
     1
 77
     6
 78
     2
 67
     7
 79
     5
170
     0
171
     0
290
     0
174
     0
 93
        1
 44
0.0
173
     0
291
     0
 45
0.0
1001
ACAD
1000
AcDbSavedByObjectVersion
1070
     0
  0
VISUALSTYLE
  5
32
102
{ACAD_REACTORS
330
2A
102
}
102
{ACAD_XDICTIONARY
360
2DF
102
}
330
2A
100
AcDbVisualStyle
  2
Basic
 70
     7
 71
     1
 72
     0
 73
     1
 90
        0
 40
0.6
 41
30.0
 62
     5
 63
     7
421
 16777215
 74
     0
 91
        4
 64
     7
 65
   257
 75
     1
175
     1
 42
1.0
 92
        8
 66
     7
 43
1.0
 76
     1
 77
     6
 78
     2
 67
     7
 79
     5
170
     0
171
     0
290
     0
174
     0
 93
        1
 44
0.0
173
     0
291
     1
 45
0.0
1001
ACAD
1000
AcDbSavedByObjectVersion
1070
     0
  0
VISUALSTYLE
  5
36
102
{ACAD_REACTORS
330
2A
102
}
102
{ACAD_XDICTIONARY
360
2E7
102
}
330
2A
100
AcDbVisualStyle
  2
Brighten
 70
    12
 71
     2
 72
     2
 73
     0
 90
        0
 40
0.6
 41
30.0
 62
     5
 63
     7
421
 16777215
 74
     1
 91
        4
 64
     7
 65
   257
 75
     1
175
     1
 42
1.0
 92
        8
 66
     7
 43
1.0
 76
     1
 77
     6
 78
     2
 67
     7
 79
     5
170
     0
171
     0
290
     0
174
     0
 93
        1
 44
50.0
173
     0
291
     1
 45
0.0
1001
ACAD
1000
AcDbSavedByObjectVersion
1070
     0
  0
VISUALSTYLE
  5
3A
102
{ACAD_REACTORS
330
2A
102
}
102
{ACAD_XDICTIONARY
360
2EF
102
}
330
2A
100
AcDbVisualStyle
  2
ColorChange
 70
    16
 71
     2
 72
     2
 73
     3
 90
        0
 40
0.6
 41
30.0
 62
     5
 63
     8
421
  8421504
 74
     1
 91
        4
 64
     7
 65
   257
 75
     1
175
     1
 42
1.0
 92
        8
 66
     8
424
  8421504
 43
1.0
 76
     1
 77
     6
 78
     2
 67
     7
 79
     5
170
     0
171
     0
290
     0
174
     0
 93
        1
 44
0.0
173
     0
291
     1
 45
0.0
1001
ACAD
1000
AcDbSavedByObjectVersion
1070
     0
  0
VISUALSTYLE
  5
34
102
{ACAD_REACTORS
330
2A
102
}
102
{ACAD_XDICTIONARY
360
2E3
102
}
330
2A
100
AcDbVisualStyle
  2
Conceptual
 70
     9
 71
     3
 72
     2
 73
     0
 90
        0
 40
0.6
 41
30.0
 62
     5
 63
     7
421
 16777215
 74
     2
 91
        2
 64
     7
 65
   257
 75
     1
175
     1
 42
179.0
 92
        8
 66
     7
 43
1.0
 76
     1
 77
     6
 78
     2
 67
     7
 79
     3
170
     0
171
     0
290
     0
174
     0
 93
        1
 44
0.0
173
     0
291
     0
 45
0.0
1001
ACAD
1000
AcDbSavedByObjectVersion
1070
     0
  0
VISUALSTYLE
  5
35
102
{ACAD_REACTORS
330
2A
102
}
102
{ACAD_XDICTIONARY
360
2E5
102
}
330
2A
100
AcDbVisualStyle
  2
Dim
 70
    11
 71
     2
 72
     2
 73
     0
 90
        0
 40
0.6
 41
30.0
 62
     5
 63
     7
421
 16777215
 74
     1
 91
        4
 64
     7
 65
   257
 75
     1
175
     1
 42
1.0
 92
        8
 66
     7
 43
1.0
 76
     1
 77
     6
 78
     2
 67
     7
 79
     5
170
     0
171
     0
290
     0
174
     0
 93
        1
 44
-50.0
173
     0
291
     1
 45
0.0
1001
ACAD
1000
AcDbSavedByObjectVersion
1070
     0
  0
VISUALSTYLE
  5
3D
102
{ACAD_REACTORS
330
2A
102
}
102
{ACAD_XDICTIONARY
360
2F5
102
}
330
2A
100
AcDbVisualStyle
  2
EdgeColorOff
 70
    22
 71
     2
 72
     2
 73
     0
 90
        0
 40
0.6
 41
30.0
 62
     5
 63
     7
421
 16777215
 74
     1
 91
        4
 64
     7
 65
   257
 75
     1
175
     1
 42
1.0
 92
        8
 66
     7
 43
1.0
 76
     1
 77
     6
 78
     2
 67
     7
 79
     5
170
     0
171
     0
290
     0
174
     0
 93
        1
 44
0.0
173
     0
291
     1
 45
0.0
1001
ACAD
1000
AcDbSavedByObjectVersion
1070
     0
  0
VISUALSTYLE
  5
39
102
{ACAD_REACTORS
330
2A
102
}
102
{ACAD_XDICTIONARY
360
2ED
102
}
330
2A
100
AcDbVisualStyle
  2
Facepattern
 70
    15
 71
     2
 72
     2
 73
     0
 90
        0
 40
0.6
 41
30.0
 62
     5
 63
     7
421
 16777215
 74
     1
 91
        4
 64
     7
 65
   257
 75
     1
175
     1
 42
1.0
 92
        8
 66
     7
 43
1.0
 76
     1
 77
     6
 78
     2
 67
     7
 79
     5
170
     0
171
     0
290
     0
174
     0
 93
        1
 44
0.0
173
     0
291
     1
 45
0.0
1001
ACAD
1000
AcDbSavedByObjectVersion
1070
     0
  0
VISUALSTYLE
  5
2B
102
{ACAD_REACTORS
330
2A
102
}
102
{ACAD_XDICTIONARY
360
2D1
102
}
330
2A
100
AcDbVisualStyle
  2
Flat
 70
     0
 71
     2
 72
     1
 73
     1
 90
        2
 40
0.6
 41
30.0
 62
     5
 63
     7
421
 16777215
 74
     0
 91
        0
 64
     7
 65
   257
 75
     1
175
     1
 42
1.0
 92
        8
 66
     7
 43
1.0
 76
     1
 77
     6
 78
     2
 67
     7
 79
     5
170
     0
171
     0
290
     0
174
     0
 93
       13
 44
0.0
173
     0
291
     1
 45
0.0
1001
ACAD
1000
AcDbSavedByObjectVersion
1070
     0
  0
VISUALSTYLE
  5
2C
102
{ACAD_REACTORS
330
2A
102
}
102
{ACAD_XDICTIONARY
360
2D3
102
}
330
2A
100
AcDbVisualStyle
  2
FlatWithEdges
 70
     1
 71
     2
 72
     1
 73
     1
 90
        2
 40
0.6
 41
30.0
 62
     5
 63
     7
421
 16777215
 74
     1
 91
        0
 64
     7
 65
   257
 75
     1
175
     1
 42
1.0
 92
        0
 66
   257
 43
1.0
 76
     1
 77
     6
 78
     2
 67
     7
 79
     5
170
     0
171
     0
290
     0
174
     0
 93
       13
 44
0.0
173
     0
291
     1
 45
0.0
1001
ACAD
1000
AcDbSavedByObjectVersion
1070
     0
  0
VISUALSTYLE
  5
2D
102
{ACAD_REACTORS
330
2A
102
}
102
{ACAD_XDICTIONARY
360
2D5
102
}
330
2A
100
AcDbVisualStyle
  2
Gouraud
 70
     2
 71
     2
 72
     2
 73
     1
 90
        2
 40
0.6
 41
30.0
 62
     5
 63
     7
421
 16777215
 74
     0
 91
        0
 64
     7
 65
   257
 75
     1
175
     1
 42
1.0
 92
        0
 66
     7
 43
1.0
 76
     1
 77
     6
 78
     2
 67
     7
 79
     5
170
     0
171
     0
290
     0
174
     0
 93
       13
 44
0.0
173
     0
291
     1
 45
0.0
1001
ACAD
1000
AcDbSavedByObjectVersion
1070
     0
  0
VISUALSTYLE
  5
2E
102
{ACAD_REACTORS
330
2A
102
}
102
{ACAD_XDICTIONARY
360
2D7
102
}
330
2A
100
AcDbVisualStyle
  2
GouraudWithEdges
 70
     3
 71
     2
 72
     2
 73
     1
 90
        2
 40
0.6
 41
30.0
 62
     5
 63
     7
421
 16777215
 74
     1
 91
        0
 64
     7
 65
   257
 75
     1
175
     1
 42
1.0
 92
        0
 66
   257
 43
1.0
 76
     1
 77
     6
 78
     2
 67
     7
 79
     5
170
     0
171
     0
290
     0
174
     0
 93
       13
 44
0.0
173
     0
291
     1
 45
0.0
1001
ACAD
1000
AcDbSavedByObjectVersion
1070
     0
  0
VISUALSTYLE
  5
31
102
{ACAD_REACTORS
330
2A
102
}
102
{ACAD_XDICTIONARY
360
2DD
102
}
330
2A
100
AcDbVisualStyle
  2
Hidden
 70
     6
 71
     1
 72
     2
 73
     2
 90
        0
 40
0.6
 41
30.0
 62
     5
 63
     7
421
 16777215
 74
     2
 91
        2
 64
     7
 65
   257
 75
     2
175
     1
 42
40.0
 92
        0
 66
   257
 43
1.0
 76
     1
 77
     6
 78
     2
 67
     7
 79
     3
170
     0
171
     0
290
     0
174
     0
 93
        1
 44
0.0
173
     0
291
     0
 45
0.0
1001
ACAD
1000
AcDbSavedByObjectVersion
1070
     0
  0
VISUALSTYLE
  5
3B
102
{ACAD_REACTORS
330
2A
102
}
102
{ACAD_XDICTIONARY
360
2F1
102
}
330
2A
100
AcDbVisualStyle
  2
JitterOff
 70
    20
 71
     2
 72
     2
 73
     0
 90
        0
 40
0.6
 41
30.0
 62
     5
 63
     7
421
 16777215
 74
     1
 91
        4
 64
     7
 65
   257
 75
     1
175
     1
 42
1.0
 92
       10
 66
     7
 43
1.0
 76
     1
 77
     6
 78
     2
 67
     7
 79
     5
170
     0
171
     0
290
     0
174
     0
 93
        1
 44
0.0
173
     0
291
     1
 45
0.0
1001
ACAD
1000
AcDbSavedByObjectVersion
1070
     0
  0
VISUALSTYLE
  5
38
102
{ACAD_REACTORS
330
2A
102
}
102
{ACAD_XDICTIONARY
360
2EB
102
}
330
2A
100
AcDbVisualStyle
  2
Linepattern
 70
    14
 71
     2
 72
     2
 73
     0
 90
        0
 40
0.6
 41
30.0
 62
     5
 63
     7
421
 16777215
 74
     1
 91
        4
 64
     7
 65
   257
 75
     7
175
     7
 42
1.0
 92
        8
 66
     7
 43
1.0
 76
     1
 77
     6
 78
     2
 67
     7
 79
     5
170
     0
171
     0
290
     0
174
     0
 93
        1
 44
0.0
173
     0
291
     1
 45
0.0
1001
ACAD
1000
AcDbSavedByObjectVersion
1070
     0
  0
VISUALSTYLE
  5
3C
102
{ACAD_REACTORS
330
2A
102
}
102
{ACAD_XDICTIONARY
360
2F3
102
}
330
2A
100
AcDbVisualStyle
  2
OverhangOff
 70
    21
 71
     2
 72
     2
 73
     0
 90
        0
 40
0.6
 41
30.0
 62
     5
 63
     7
421
 16777215
 74
     1
 91
        4
 64
     7
 65
   257
 75
     1
175
     1
 42
1.0
 92
        9
 66
     7
 43
1.0
 76
     1
 77
     6
 78
     2
 67
     7
 79
     5
170
     0
171
     0
290
     0
174
     0
 93
        1
 44
0.0
173
     0
291
     1
 45
0.0
1001
ACAD
1000
AcDbSavedByObjectVersion
1070
     0
  0
VISUALSTYLE
  5
33
102
{ACAD_REACTORS
330
2A
102
}
102
{ACAD_XDICTIONARY
360
2E1
102
}
330
2A
100
AcDbVisualStyle
  2
Realistic
 70
     8
 71
     2
 72
     3
 73
     0
 90
        2
 40
0.6
 41
30.0
 62
     5
 63
     7
421
 16777215
 74
     0
 91
        0
 64
     7
 65
   257
 75
     1
175
     1
 42
1.0
 92
        8
 66
   257
 43
1.0
 76
     1
 77
     6
 78
     2
 67
     7
 79
     3
170
     0
171
     0
290
     0
174
     0
 93
       13
 44
0.0
173
     0
291
     0
 45
0.0
1001
ACAD
1000
AcDbSavedByObjectVersion
1070
     0
  0
VISUALSTYLE
  5
42
102
{ACAD_REACTORS
330
2A
102
}
102
{ACAD_XDICTIONARY
360
2FF
102
}
330
2A
100
AcDbVisualStyle
  2
Shaded
 70
    27
 71
     2
 72
     2
 73
     1
 90
        2
 40
0.6
 41
30.0
 62
     5
 63
     7
421
 16777215
 74
     0
 91
        4
 64
     7
 65
   257
 75
     1
175
     1
 42
1.0
 92
        8
 66
   257
 43
1.0
 76
     1
 77
     6
 78
     2
 67
     8
425
  7895160
 79
     3
170
     0
171
     0
290
     0
174
     0
 93
        5
 44
0.0
173
     0
291
     0
 45
0.0
1001
ACAD
1000
AcDbSavedByObjectVersion
1070
     0
  0
VISUALSTYLE
  5
41
102
{ACAD_REACTORS
330
2A
102
}
102
{ACAD_XDICTIONARY
360
2FD
102
}
330
2A
100
AcDbVisualStyle
  2
Shaded with edges
 70
    26
 71
     2
 72
     2
 73
     1
 90
        2
 40
0.6
 41
30.0
 62
     5
 63
     7
421
 16777215
 74
     1
 91
       10
 64
     7
 65
   257
 75
     2
175
     1
 42
1.0
 92
        8
 66
   257
 43
1.0
 76
     1
 77
     6
 78
     2
 67
     7
 79
     3
170
     0
171
     0
290
     0
174
     0
 93
        5
 44
0.0
173
     0
291
     0
 45
0.0
1001
ACAD
1000
AcDbSavedByObjectVersion
1070
     0
  0
VISUALSTYLE
  5
3E
102
{ACAD_REACTORS
330
2A
102
}
102
{ACAD_XDICTIONARY
360
2F7
102
}
330
2A
100
AcDbVisualStyle
  2
Shades of Gray
 70
    23
 71
     2
 72
     2
 73
     3
 90
        0
 40
0.6
 41
30.0
 62
     5
 63
     7
421
 16777215
 74
     2
 91
        2
 64
     7
 65
     7
 75
     1
175
     1
 42
40.0
 92
        8
 66
     7
 43
1.0
 76
     1
 77
     6
 78
     2
 67
     7
 79
     3
170
     0
171
     0
290
     0
174
     0
 93
        1
 44
0.0
173
     0
291
     0
 45
0.0
1001
ACAD
1000
AcDbSavedByObjectVersion
1070
     0
  0
VISUALSTYLE
  5
3F
102
{ACAD_REACTORS
330
2A
102
}
102
{ACAD_XDICTIONARY
360
2F9
102
}
330
2A
100
AcDbVisualStyle
  2
Sketchy
 70
    24
 71
     1
 72
     2
 73
     2
 90
        0
 40
0.6
 41
30.0
 62
     5
 63
     7
421
 16777215
 74
     2
 91
        2
 64
     7
 65
     7
 75
     1
175
     1
 42
40.0
 92
       11
 66
     7
 43
1.0
 76
     1
 77
     6
 78
     2
 67
     7
 79
     6
170
     0
171
     0
290
     0
174
     0
 93
        1
 44
0.0
173
     0
291
     0
 45
0.0
1001
ACAD
1000
AcDbSavedByObjectVersion
1070
     0
  0
VISUALSTYLE
  5
37
102
{ACAD_REACTORS
330
2A
102
}
102
{ACAD_XDICTIONARY
360
2E9
102
}
330
2A
100
AcDbVisualStyle
  2
Thicken
 70
    13
 71
     2
 72
     2
 73
     0
 90
        0
 40
0.6
 41
30.0
 62
     5
 63
     7
421
 16777215
 74
     1
 91
        4
 64
     7
 65
   257
 75
     1
175
     1
 42
1.0
 92
       12
 66
     7
 43
1.0
 76
     1
 77
     6
 78
     2
 67
     7
 79
     5
170
     0
171
     0
290
     0
174
     0
 93
        1
 44
0.0
173
     0
291
     1
 45
0.0
1001
ACAD
1000
AcDbSavedByObjectVersion
1070
     0
  0
VISUALSTYLE
  5
30
102
{ACAD_REACTORS
330
2A
102
}
102
{ACAD_XDICTIONARY
360
2DB
102
}
330
2A
100
AcDbVisualStyle
  2
Wireframe
 70
     5
 71
     0
 72
     2
 73
     0
 90
        0
 40
0.6
 41
30.0
 62
     5
 63
     7
421
 16777215
 74
     1
 91
        4
 64
     7
 65
   257
 75
     1
175
     1
 42
1.0
 92
        0
 66
   257
 43
1.0
 76
     1
 77
     6
 78
     2
 67
     7
 79
     3
170
     0
171
     0
290
     0
174
     0
 93
        1
 44
0.0
173
     0
291
     0
 45
0.0
1001
ACAD
1000
AcDbSavedByObjectVersion
1070
     0
  0
VISUALSTYLE
  5
40
102
{ACAD_REACTORS
330
2A
102
}
102
{ACAD_XDICTIONARY
360
2FB
102
}
330
2A
100
AcDbVisualStyle
  2
X-Ray
 70
    25
 71
     2
 72
     2
 73
     1
 90
        1
 40
0.5
 41
30.0
 62
     5
 63
     7
421
 16777215
 74
     1
 91
        0
 64
     7
 65
   257
 75
     1
175
     1
 42
1.0
 92
        8
 66
     7
 43
1.0
 76
     1
 77
     6
 78
     2
 67
     7
 79
     3
170
     0
171
     0
290
     0
174
     0
 93
       13
 44
0.0
173
     0
291
     0
 45
0.0
1001
ACAD
1000
AcDbSavedByObjectVersion
1070
     0
  0
DICTIONARYVAR
  5
2CE
102
{ACAD_REACTORS
330
2CD
102
}
330
2CD
100
DictionaryVariables
280
     0
  1
1:1
  0
DICTIONARYVAR
  5
30F
102
{ACAD_REACTORS
330
2CD
102
}
330
2CD
100
DictionaryVariables
280
     0
  1
Standard
  0
DICTIONARYVAR
  5
30E
102
{ACAD_REACTORS
330
2CD
102
}
330
2CD
100
DictionaryVariables
280
     0
  1
Standard
  0
DICTIONARYVAR
  5
2CF
102
{ACAD_REACTORS
330
2CD
102
}
330
2CD
100
DictionaryVariables
280
     0
  1
1
  0
DICTIONARYVAR
  5
2D0
102
{ACAD_REACTORS
330
2CD
102
}
330
2CD
100
DictionaryVariables
280
     0
  1
2
  0
DICTIONARY
  5
303
330
45
100
AcDbDictionary
280
     1
281
     1
  3
ACAD_XREC_ROUNDTRIP
360
304
  0
DICTIONARY
  5
301
330
44
100
AcDbDictionary
280
     1
281
     1
  3
ACAD_XREC_ROUNDTRIP
360
302
  0
DICTIONARY
  5
305
330
46
100
AcDbDictionary
280
     1
281
     1
  3
ACAD_XREC_ROUNDTRIP
360
306
  0
DICTIONARY
  5
30B
330
6C
100
AcDbDictionary
280
     1
281
     1
  3
ACAD_XREC_ROUNDTRIP
360
30C
  0
DICTIONARY
  5
307
330
6A
100
AcDbDictionary
280
     1
281
     1
  3
ACAD_ROUNDTRIP_2008_TABLESTYLE_CELLSTYLEMAP
360
309
  3
ACAD_XREC_ROUNDTRIP
360
308
  0
DICTIONARY
  5
2D9
330
2F
100
AcDbDictionary
280
     1
281
     1
  3
ACAD_XREC_ROUNDTRIP
360
2DA
  0
DICTIONARY
  5
2DF
330
32
100
AcDbDictionary
280
     1
281
     1
  3
ACAD_XREC_ROUNDTRIP
360
2E0
  0
DICTIONARY
  5
2E7
330
36
100
AcDbDictionary
280
     1
281
     1
  3
ACAD_XREC_ROUNDTRIP
360
2E8
  0
DICTIONARY
  5
2EF
330
3A
100
AcDbDictionary
280
     1
281
     1
  3
ACAD_XREC_ROUNDTRIP
360
2F0
  0
DICTIONARY
  5
2E3
330
34
100
AcDbDictionary
280
     1
281
     1
  3
ACAD_XREC_ROUNDTRIP
360
2E4
  0
DICTIONARY
  5
2E5
330
35
100
AcDbDictionary
280
     1
281
     1
  3
ACAD_XREC_ROUNDTRIP
360
2E6
  0
DICTIONARY
  5
2F5
330
3D
100
AcDbDictionary
280
     1
281
     1
  3
ACAD_XREC_ROUNDTRIP
360
2F6
  0
DICTIONARY
  5
2ED
330
39
100
AcDbDictionary
280
     1
281
     1
  3
ACAD_XREC_ROUNDTRIP
360
2EE
  0
DICTIONARY
  5
2D1
330
2B
100
AcDbDictionary
280
     1
281
     1
  3
ACAD_XREC_ROUNDTRIP
360
2D2
  0
DICTIONARY
  5
2D3
330
2C
100
AcDbDictionary
280
     1
281
     1
  3
ACAD_XREC_ROUNDTRIP
360
2D4
  0
DICTIONARY
  5
2D5
330
2D
100
AcDbDictionary
280
     1
281
     1
  3
ACAD_XREC_ROUNDTRIP
360
2D6
  0
DICTIONARY
  5
2D7
330
2E
100
AcDbDictionary
280
     1
281
     1
  3
ACAD_XREC_ROUNDTRIP
360
2D8
  0
DICTIONARY
  5
2DD
330
31
100
AcDbDictionary
280
     1
281
     1
  3
ACAD_XREC_ROUNDTRIP
360
2DE
  0
DICTIONARY
  5
2F1
330
3B
100
AcDbDictionary
280
     1
281
     1
  3
ACAD_XREC_ROUNDTRIP
360
2F2
  0
DICTIONARY
  5
2EB
330
38
100
AcDbDictionary
280
     1
281
     1
  3
ACAD_XREC_ROUNDTRIP
360
2EC
  0
DICTIONARY
  5
2F3
330
3C
100
AcDbDictionary
280
     1
281
     1
  3
ACAD_XREC_ROUNDTRIP
360
2F4
  0
DICTIONARY
  5
2E1
330
33
100
AcDbDictionary
280
     1
281
     1
  3
ACAD_XREC_ROUNDTRIP
360
2E2
  0
DICTIONARY
  5
2FF
330
42
100
AcDbDictionary
280
     1
281
     1
  3
ACAD_XREC_ROUNDTRIP
360
300
  0
DICTIONARY
  5
2FD
330
41
100
AcDbDictionary
280
     1
281
     1
  3
ACAD_XREC_ROUNDTRIP
360
2FE
  0
DICTIONARY
  5
2F7
330
3E
100
AcDbDictionary
280
     1
281
     1
  3
ACAD_XREC_ROUNDTRIP
360
2F8
  0
DICTIONARY
  5
2F9
330
3F
100
AcDbDictionary
280
     1
281
     1
  3
ACAD_XREC_ROUNDTRIP
360
2FA
  0
DICTIONARY
  5
2E9
330
37
100
AcDbDictionary
280
     1
281
     1
  3
ACAD_XREC_ROUNDTRIP
360
2EA
  0
DICTIONARY
  5
2DB
330
30
100
AcDbDictionary
280
     1
281
     1
  3
ACAD_XREC_ROUNDTRIP
360
2DC
  0
DICTIONARY
  5
2FB
330
40
100
AcDbDictionary
280
     1
281
     1
  3
ACAD_XREC_ROUNDTRIP
360
2FC
  0
XRECORD
  5
304
102
{ACAD_REACTORS
330
303
102
}
330
303
100
AcDbXrecord
280
     1
102
MATERIAL
148
0.0
149
0.0
149
0.0
 93
        0
 94
      127
282
     0
 72
     1
 77
     1
171
     1
175
     1
179
     1
273
     0
  0
XRECORD
  5
302
102
{ACAD_REACTORS
330
301
102
}
330
301
100
AcDbXrecord
280
     1
102
MATERIAL
148
0.0
149
0.0
149
0.0
 93
        0
 94
      127
282
     0
 72
     1
 77
     1
171
     1
175
     1
179
     1
273
     0
  0
XRECORD
  5
306
102
{ACAD_REACTORS
330
305
102
}
330
305
100
AcDbXrecord
280
     1
102
MATERIAL
148
0.0
149
0.0
149
0.0
 93
        0
 94
      127
282
     0
 72
     1
 77
     1
171
     1
175
     1
179
     1
273
     0
  0
XRECORD
  5
30C
102
{ACAD_REACTORS
330
30B
102
}
330
30B
100
AcDbXrecord
280
     1
102
ACAD_ROUNDTRIP_2010_MLEADER_STYLE
  0
CELLSTYLEMAP
  5
309
102
{ACAD_REACTORS
330
307
102
}
330
307
100
AcDbCellStyleMap
 90
        3
300
CELLSTYLE
  1
TABLEFORMAT_BEGIN
 90
        5
170
     1
 91
        0
 92
    32768
 62
   257
 93
        1
300
CONTENTFORMAT
  1
CONTENTFORMAT_BEGIN
 90
        0
 91
        0
 92
        4
 93
        0
300

 40
0.0
140
1.0
 94
        5
 62
     0
340
11
144
0.25
309
CONTENTFORMAT_END
171
     1
301
MARGIN
  1
CELLMARGIN_BEGIN
 40
0.06
 40
0.06
 40
0.06
 40
0.06
 40
0.06
 40
0.06
309
CELLMARGIN_END
 94
        6
 95
        1
302
GRIDFORMAT
  1
GRIDFORMAT_BEGIN
 90
        0
 91
        1
 62
     0
 92
       -2
340
14
 93
        0
 40
0.045
309
GRIDFORMAT_END
 95
        2
302
GRIDFORMAT
  1
GRIDFORMAT_BEGIN
 90
        0
 91
        1
 62
     0
 92
       -2
340
14
 93
        0
 40
0.045
309
GRIDFORMAT_END
 95
        4
302
GRIDFORMAT
  1
GRIDFORMAT_BEGIN
 90
        0
 91
        1
 62
     0
 92
       -2
340
14
 93
        0
 40
0.045
309
GRIDFORMAT_END
 95
        8
302
GRIDFORMAT
  1
GRIDFORMAT_BEGIN
 90
        0
 91
        1
 62
     0
 92
       -2
340
14
 93
        0
 40
0.045
309
GRIDFORMAT_END
 95
       16
302
GRIDFORMAT
  1
GRIDFORMAT_BEGIN
 90
        0
 91
        1
 62
     0
 92
       -2
340
14
 93
        0
 40
0.045
309
GRIDFORMAT_END
 95
       32
302
GRIDFORMAT
  1
GRIDFORMAT_BEGIN
 90
        0
 91
        1
 62
     0
 92
       -2
340
14
 93
        0
 40
0.045
309
GRIDFORMAT_END
309
TABLEFORMAT_END
  1
CELLSTYLE_BEGIN
 90
        1
 91
        1
300
_TITLE
309
CELLSTYLE_END
300
CELLSTYLE
  1
TABLEFORMAT_BEGIN
 90
        5
170
     1
 91
        0
 92
        0
 62
   257
 93
        1
300
CONTENTFORMAT
  1
CONTENTFORMAT_BEGIN
 90
        0
 91
        0
 92
        4
 93
        0
300

 40
0.0
140
1.0
 94
        5
 62
     0
340
11
144
0.18
309
CONTENTFORMAT_END
171
     1
301
MARGIN
  1
CELLMARGIN_BEGIN
 40
0.06
 40
0.06
 40
0.06
 40
0.06
 40
0.06
 40
0.06
309
CELLMARGIN_END
 94
        6
 95
        1
302
GRIDFORMAT
  1
GRIDFORMAT_BEGIN
 90
        0
 91
        1
 62
     0
 92
       -2
340
14
 93
        0
 40
0.045
309
GRIDFORMAT_END
 95
        2
302
GRIDFORMAT
  1
GRIDFORMAT_BEGIN
 90
        0
 91
        1
 62
     0
 92
       -2
340
14
 93
        0
 40
0.045
309
GRIDFORMAT_END
 95
        4
302
GRIDFORMAT
  1
GRIDFORMAT_BEGIN
 90
        0
 91
        1
 62
     0
 92
       -2
340
14
 93
        0
 40
0.045
309
GRIDFORMAT_END
 95
        8
302
GRIDFORMAT
  1
GRIDFORMAT_BEGIN
 90
        0
 91
        1
 62
     0
 92
       -2
340
14
 93
        0
 40
0.045
309
GRIDFORMAT_END
 95
       16
302
GRIDFORMAT
  1
GRIDFORMAT_BEGIN
 90
        0
 91
        1
 62
     0
 92
       -2
340
14
 93
        0
 40
0.045
309
GRIDFORMAT_END
 95
       32
302
GRIDFORMAT
  1
GRIDFORMAT_BEGIN
 90
        0
 91
        1
 62
     0
 92
       -2
340
14
 93
        0
 40
0.045
309
GRIDFORMAT_END
309
TABLEFORMAT_END
  1
CELLSTYLE_BEGIN
 90
        2
 91
        1
300
_HEADER
309
CELLSTYLE_END
300
CELLSTYLE
  1
TABLEFORMAT_BEGIN
 90
        5
170
     1
 91
        0
 92
        0
 62
   257
 93
        1
300
CONTENTFORMAT
  1
CONTENTFORMAT_BEGIN
 90
        0
 91
        0
 92
        4
 93
        0
300

 40
0.0
140
1.0
 94
        2
 62
     0
340
11
144
0.18
309
CONTENTFORMAT_END
171
     1
301
MARGIN
  1
CELLMARGIN_BEGIN
 40
0.06
 40
0.06
 40
0.06
 40
0.06
 40
0.06
 40
0.06
309
CELLMARGIN_END
 94
        6
 95
        1
302
GRIDFORMAT
  1
GRIDFORMAT_BEGIN
 90
        0
 91
        1
 62
     0
 92
       -2
340
14
 93
        0
 40
0.045
309
GRIDFORMAT_END
 95
        2
302
GRIDFORMAT
  1
GRIDFORMAT_BEGIN
 90
        0
 91
        1
 62
     0
 92
       -2
340
14
 93
        0
 40
0.045
309
GRIDFORMAT_END
 95
        4
302
GRIDFORMAT
  1
GRIDFORMAT_BEGIN
 90
        0
 91
        1
 62
     0
 92
       -2
340
14
 93
        0
 40
0.045
309
GRIDFORMAT_END
 95
        8
302
GRIDFORMAT
  1
GRIDFORMAT_BEGIN
 90
        0
 91
        1
 62
     0
 92
       -2
340
14
 93
        0
 40
0.045
309
GRIDFORMAT_END
 95
       16
302
GRIDFORMAT
  1
GRIDFORMAT_BEGIN
 90
        0
 91
        1
 62
     0
 92
       -2
340
14
 93
        0
 40
0.045
309
GRIDFORMAT_END
 95
       32
302
GRIDFORMAT
  1
GRIDFORMAT_BEGIN
 90
        0
 91
        1
 62
     0
 92
       -2
340
14
 93
        0
 40
0.045
309
GRIDFORMAT_END
309
TABLEFORMAT_END
  1
CELLSTYLE_BEGIN
 90
        3
 91
        2
300
_DATA
309
CELLSTYLE_END
  0
XRECORD
  5
308
102
{ACAD_REACTORS
330
307
102
}
330
307
100
AcDbXrecord
280
     1
102
ACAD_ROUNDTRIP_PRE2007_TABLESTYLE
 90
        4
 91
        0
  1

 92
        4
 93
        0
  2

 94
        4
 95
        0
  3

  0
XRECORD
  5
2DA
102
{ACAD_REACTORS
330
2D9
102
}
330
2D9
100
AcDbXrecord
280
     1
102
RTVSPropertyOp0
 70
     1
102
RTVSPropertyOp1
 70
     1
102
RTVSPropertyOp2
 70
     1
102
RTVSPropertyOp3
 70
     1
102
RTVSPropertyOp4
 70
     1
102
RTVSPropertyOp5
 70
     1
102
RTVSPropertyOp6
 70
     1
102
RTVSPropertyOp7
 70
     1
102
RTVSPropertyOp8
 70
     1
102
RTVSPropertyOp9
 70
     1
102
RTVSPropertyOp10
 70
     1
102
RTVSPropertyOp11
 70
     1
102
RTVSPropertyOp12
 70
     1
102
RTVSPropertyOp13
 70
     1
102
RTVSPropertyOp14
 70
     1
102
RTVSPropertyOp15
 70
     1
102
RTVSPropertyOp16
 70
     1
102
RTVSPropertyOp17
 70
     1
102
RTVSPropertyOp18
 70
     1
102
RTVSPropertyOp19
 70
     1
102
RTVSPropertyOp20
 70
     1
102
RTVSPropertyOp21
 70
     1
102
RTVSPropertyOp22
 70
     1
102
RTVSPropertyOp23
 70
     1
102
RTVSPropertyOp24
 70
     1
102
RTVSPropertyOp25
 70
     1
102
RTVSPropertyOp26
 70
     1
102
RTVSPropertyOp27
 70
     1
102
RTVSPropertyOp28
 70
     1
102
RTVSPropertyOp29
 70
     1
102
RTVSPropertyOp30
 70
     1
102
RTVSPropertyOp31
 70
     1
102
RTVSPropertyOp32
 70
     1
102
RTVSPropertyOp33
 70
     1
102
RTVSPropertyOp34
 70
     1
102
RTVSPropertyOp35
 70
     1
102
RTVSPropertyOp36
 70
     1
102
RTVSPropertyOp37
 70
     1
102
RTVSPropertyOp38
 70
     1
102
RTVSPropertyOp39
 70
     1
102
RTVSPropertyOp40
 70
     1
102
RTVSPropertyOp41
 70
     1
102
RTVSPropertyOp42
 70
     1
102
RTVSPropertyOp43
 70
     1
102
RTVSPropertyOp44
 70
     1
102
RTVSPropertyOp45
 70
     1
102
RTVSPropertyOp46
 70
     1
102
RTVSPropertyOp47
 70
     1
102
RTVSPropertyOp48
 70
     1
102
RTVSPropertyOp49
 70
     1
102
RTVSPropertyOp50
 70
     1
102
RTVSPropertyOp51
 70
     0
102
RTVSPropertyOp52
 70
     0
102
RTVSPropertyOp53
 70
     1
102
RTVSPropertyOp54
 70
     1
102
RTVSPropertyOp55
 70
     1
102
RTVSPropertyOp56
 70
     1
102
RTVSPropertyOp57
 70
     1
102
RTVSPost2010Prop28
280
     1
102
RTVSPost2010PropOp28
 70
     1
102
RTVSPost2010Prop29
280
     1
102
RTVSPost2010PropOp29
 70
     1
102
RTVSPost2010Prop30
280
     0
102
RTVSPost2010PropOp30
 70
     1
102
RTVSPost2010Prop31
280
     0
102
RTVSPost2010PropOp31
 70
     1
102
RTVSPost2010Prop32
280
     0
102
RTVSPost2010PropOp32
 70
     1
102
RTVSPost2010Prop33
280
     0
102
RTVSPost2010PropOp33
 70
     1
102
RTVSPost2010Prop34
280
     0
102
RTVSPost2010PropOp34
 70
     1
102
RTVSPost2010Prop35
280
     0
102
RTVSPost2010PropOp35
 70
     1
102
RTVSPost2010Prop36
280
     0
102
RTVSPost2010PropOp36
 70
     1
102
RTVSPost2010Prop37
 90
       50
102
RTVSPost2010PropOp37
 70
     1
102
RTVSPost2010Prop38
140
0.0
102
RTVSPost2010PropOp38
 70
     1
102
RTVSPost2010Prop39
140
1.0
102
RTVSPost2010PropOp39
 70
     1
102
RTVSPost2010Prop40
 90
        0
102
RTVSPost2010PropOp40
 70
     1
102
RTVSPost2010Prop41ColorIndex
 90
       18
102
RTVSPost2010Prop41ColorRGB
 90
        0
102
RTVSPost2010PropOp41
 70
     1
102
RTVSPost2010Prop42
 90
       50
102
RTVSPost2010PropOp42
 70
     1
102
RTVSPost2010Prop43
 90
        3
102
RTVSPost2010PropOp43
 70
     1
102
RTVSPost2010Prop44ColorIndex
 90
        5
102
RTVSPost2010Prop44ColorRGB
 90
      255
102
RTVSPost2010PropOp44
 70
     1
102
RTVSPost2010Prop45
280
     0
102
RTVSPost2010PropOp45
 70
     1
102
RTVSPost2010Prop46
 90
       50
102
RTVSPost2010PropOp46
 70
     1
102
RTVSPost2010Prop47
 90
       50
102
RTVSPost2010PropOp47
 70
     1
102
RTVSPost2010Prop48
 90
       50
102
RTVSPost2010PropOp48
 70
     1
102
RTVSPost2010Prop49
280
     0
102
RTVSPost2010PropOp49
 70
     1
102
RTVSPost2010Prop50
 90
       50
102
RTVSPost2010PropOp50
 70
     1
102
RTVSPost2010Prop51ColorIndex
 90
      256
102
RTVSPost2010Prop51ColorRGB
 90
-16777216
102
RTVSPost2010PropOp51
 70
     0
102
RTVSPost2010Prop52
140
1.0
102
RTVSPost2010PropOp52
 70
     0
102
RTVSPost2010Prop53
 90
        2
102
RTVSPost2010PropOp53
 70
     1
102
RTVSPost2010Prop54
  1
strokes_ogs.tif
102
RTVSPost2010PropOp54
 70
     1
102
RTVSPost2010Prop55
280
     0
102
RTVSPost2010PropOp55
 70
     1
102
RTVSPost2010Prop56
140
1.0
102
RTVSPost2010PropOp56
 70
     1
102
RTVSPost2010Prop57
140
1.0
102
RTVSPost2010PropOp57
 70
     1
  0
XRECORD
  5
2E0
102
{ACAD_REACTORS
330
2DF
102
}
330
2DF
100
AcDbXrecord
280
     1
102
RTVSPropertyOp0
 70
     1
102
RTVSPropertyOp1
 70
     1
102
RTVSPropertyOp2
 70
     1
102
RTVSPropertyOp3
 70
     1
102
RTVSPropertyOp4
 70
     1
102
RTVSPropertyOp5
 70
     1
102
RTVSPropertyOp6
 70
     1
102
RTVSPropertyOp7
 70
     1
102
RTVSPropertyOp8
 70
     1
102
RTVSPropertyOp9
 70
     1
102
RTVSPropertyOp10
 70
     1
102
RTVSPropertyOp11
 70
     1
102
RTVSPropertyOp12
 70
     1
102
RTVSPropertyOp13
 70
     1
102
RTVSPropertyOp14
 70
     1
102
RTVSPropertyOp15
 70
     1
102
RTVSPropertyOp16
 70
     1
102
RTVSPropertyOp17
 70
     1
102
RTVSPropertyOp18
 70
     1
102
RTVSPropertyOp19
 70
     1
102
RTVSPropertyOp20
 70
     1
102
RTVSPropertyOp21
 70
     1
102
RTVSPropertyOp22
 70
     1
102
RTVSPropertyOp23
 70
     1
102
RTVSPropertyOp24
 70
     1
102
RTVSPropertyOp25
 70
     1
102
RTVSPropertyOp26
 70
     1
102
RTVSPropertyOp27
 70
     1
102
RTVSPropertyOp28
 70
     1
102
RTVSPropertyOp29
 70
     1
102
RTVSPropertyOp30
 70
     1
102
RTVSPropertyOp31
 70
     1
102
RTVSPropertyOp32
 70
     1
102
RTVSPropertyOp33
 70
     1
102
RTVSPropertyOp34
 70
     1
102
RTVSPropertyOp35
 70
     1
102
RTVSPropertyOp36
 70
     1
102
RTVSPropertyOp37
 70
     1
102
RTVSPropertyOp38
 70
     1
102
RTVSPropertyOp39
 70
     1
102
RTVSPropertyOp40
 70
     1
102
RTVSPropertyOp41
 70
     1
102
RTVSPropertyOp42
 70
     1
102
RTVSPropertyOp43
 70
     1
102
RTVSPropertyOp44
 70
     1
102
RTVSPropertyOp45
 70
     1
102
RTVSPropertyOp46
 70
     1
102
RTVSPropertyOp47
 70
     1
102
RTVSPropertyOp48
 70
     1
102
RTVSPropertyOp49
 70
     1
102
RTVSPropertyOp50
 70
     1
102
RTVSPropertyOp51
 70
     0
102
RTVSPropertyOp52
 70
     0
102
RTVSPropertyOp53
 70
     1
102
RTVSPropertyOp54
 70
     1
102
RTVSPropertyOp55
 70
     1
102
RTVSPropertyOp56
 70
     1
102
RTVSPropertyOp57
 70
     1
102
RTVSPost2010Prop28
280
     0
102
RTVSPost2010PropOp28
 70
     1
102
RTVSPost2010Prop29
280
     1
102
RTVSPost2010PropOp29
 70
     1
102
RTVSPost2010Prop30
280
     1
102
RTVSPost2010PropOp30
 70
     1
102
RTVSPost2010Prop31
280
     0
102
RTVSPost2010PropOp31
 70
     1
102
RTVSPost2010Prop32
280
     0
102
RTVSPost2010PropOp32
 70
     1
102
RTVSPost2010Prop33
280
     0
102
RTVSPost2010PropOp33
 70
     1
102
RTVSPost2010Prop34
280
     0
102
RTVSPost2010PropOp34
 70
     1
102
RTVSPost2010Prop35
280
     0
102
RTVSPost2010PropOp35
 70
     1
102
RTVSPost2010Prop36
280
     0
102
RTVSPost2010PropOp36
 70
     1
102
RTVSPost2010Prop37
 90
       50
102
RTVSPost2010PropOp37
 70
     1
102
RTVSPost2010Prop38
140
0.0
102
RTVSPost2010PropOp38
 70
     1
102
RTVSPost2010Prop39
140
1.0
102
RTVSPost2010PropOp39
 70
     1
102
RTVSPost2010Prop40
 90
        0
102
RTVSPost2010PropOp40
 70
     1
102
RTVSPost2010Prop41ColorIndex
 90
       18
102
RTVSPost2010Prop41ColorRGB
 90
        0
102
RTVSPost2010PropOp41
 70
     1
102
RTVSPost2010Prop42
 90
       50
102
RTVSPost2010PropOp42
 70
     1
102
RTVSPost2010Prop43
 90
        3
102
RTVSPost2010PropOp43
 70
     1
102
RTVSPost2010Prop44ColorIndex
 90
        5
102
RTVSPost2010Prop44ColorRGB
 90
      255
102
RTVSPost2010PropOp44
 70
     1
102
RTVSPost2010Prop45
280
     0
102
RTVSPost2010PropOp45
 70
     1
102
RTVSPost2010Prop46
 90
       50
102
RTVSPost2010PropOp46
 70
     1
102
RTVSPost2010Prop47
 90
       50
102
RTVSPost2010PropOp47
 70
     1
102
RTVSPost2010Prop48
 90
       50
102
RTVSPost2010PropOp48
 70
     1
102
RTVSPost2010Prop49
280
     0
102
RTVSPost2010PropOp49
 70
     1
102
RTVSPost2010Prop50
 90
       50
102
RTVSPost2010PropOp50
 70
     1
102
RTVSPost2010Prop51ColorIndex
 90
      256
102
RTVSPost2010Prop51ColorRGB
 90
-16777216
102
RTVSPost2010PropOp51
 70
     0
102
RTVSPost2010Prop52
140
1.0
102
RTVSPost2010PropOp52
 70
     0
102
RTVSPost2010Prop53
 90
        2
102
RTVSPost2010PropOp53
 70
     1
102
RTVSPost2010Prop54
  1
strokes_ogs.tif
102
RTVSPost2010PropOp54
 70
     1
102
RTVSPost2010Prop55
280
     0
102
RTVSPost2010PropOp55
 70
     1
102
RTVSPost2010Prop56
140
1.0
102
RTVSPost2010PropOp56
 70
     1
102
RTVSPost2010Prop57
140
1.0
102
RTVSPost2010PropOp57
 70
     1
  0
XRECORD
  5
2E8
102
{ACAD_REACTORS
330
2E7
102
}
330
2E7
100
AcDbXrecord
280
     1
102
RTVSPropertyOp0
 70
     1
102
RTVSPropertyOp1
 70
     1
102
RTVSPropertyOp2
 70
     1
102
RTVSPropertyOp3
 70
     1
102
RTVSPropertyOp4
 70
     1
102
RTVSPropertyOp5
 70
     1
102
RTVSPropertyOp6
 70
     1
102
RTVSPropertyOp7
 70
     1
102
RTVSPropertyOp8
 70
     1
102
RTVSPropertyOp9
 70
     1
102
RTVSPropertyOp10
 70
     1
102
RTVSPropertyOp11
 70
     1
102
RTVSPropertyOp12
 70
     1
102
RTVSPropertyOp13
 70
     1
102
RTVSPropertyOp14
 70
     1
102
RTVSPropertyOp15
 70
     1
102
RTVSPropertyOp16
 70
     1
102
RTVSPropertyOp17
 70
     1
102
RTVSPropertyOp18
 70
     1
102
RTVSPropertyOp19
 70
     1
102
RTVSPropertyOp20
 70
     1
102
RTVSPropertyOp21
 70
     1
102
RTVSPropertyOp22
 70
     1
102
RTVSPropertyOp23
 70
     1
102
RTVSPropertyOp24
 70
     1
102
RTVSPropertyOp25
 70
     1
102
RTVSPropertyOp26
 70
     1
102
RTVSPropertyOp27
 70
     1
102
RTVSPropertyOp28
 70
     1
102
RTVSPropertyOp29
 70
     1
102
RTVSPropertyOp30
 70
     1
102
RTVSPropertyOp31
 70
     1
102
RTVSPropertyOp32
 70
     1
102
RTVSPropertyOp33
 70
     1
102
RTVSPropertyOp34
 70
     1
102
RTVSPropertyOp35
 70
     1
102
RTVSPropertyOp36
 70
     1
102
RTVSPropertyOp37
 70
     1
102
RTVSPropertyOp38
 70
     1
102
RTVSPropertyOp39
 70
     1
102
RTVSPropertyOp40
 70
     1
102
RTVSPropertyOp41
 70
     1
102
RTVSPropertyOp42
 70
     1
102
RTVSPropertyOp43
 70
     1
102
RTVSPropertyOp44
 70
     1
102
RTVSPropertyOp45
 70
     1
102
RTVSPropertyOp46
 70
     1
102
RTVSPropertyOp47
 70
     1
102
RTVSPropertyOp48
 70
     1
102
RTVSPropertyOp49
 70
     1
102
RTVSPropertyOp50
 70
     1
102
RTVSPropertyOp51
 70
     0
102
RTVSPropertyOp52
 70
     0
102
RTVSPropertyOp53
 70
     1
102
RTVSPropertyOp54
 70
     1
102
RTVSPropertyOp55
 70
     1
102
RTVSPropertyOp56
 70
     1
102
RTVSPropertyOp57
 70
     1
102
RTVSPost2010Prop28
280
     0
102
RTVSPost2010PropOp28
 70
     1
102
RTVSPost2010Prop29
280
     1
102
RTVSPost2010PropOp29
 70
     1
102
RTVSPost2010Prop30
280
     1
102
RTVSPost2010PropOp30
 70
     1
102
RTVSPost2010Prop31
280
     0
102
RTVSPost2010PropOp31
 70
     1
102
RTVSPost2010Prop32
280
     0
102
RTVSPost2010PropOp32
 70
     1
102
RTVSPost2010Prop33
280
     0
102
RTVSPost2010PropOp33
 70
     1
102
RTVSPost2010Prop34
280
     0
102
RTVSPost2010PropOp34
 70
     1
102
RTVSPost2010Prop35
280
     0
102
RTVSPost2010PropOp35
 70
     1
102
RTVSPost2010Prop36
280
     0
102
RTVSPost2010PropOp36
 70
     1
102
RTVSPost2010Prop37
 90
       50
102
RTVSPost2010PropOp37
 70
     1
102
RTVSPost2010Prop38
140
0.0
102
RTVSPost2010PropOp38
 70
     1
102
RTVSPost2010Prop39
140
1.0
102
RTVSPost2010PropOp39
 70
     1
102
RTVSPost2010Prop40
 90
        0
102
RTVSPost2010PropOp40
 70
     1
102
RTVSPost2010Prop41ColorIndex
 90
       18
102
RTVSPost2010Prop41ColorRGB
 90
        0
102
RTVSPost2010PropOp41
 70
     1
102
RTVSPost2010Prop42
 90
       50
102
RTVSPost2010PropOp42
 70
     1
102
RTVSPost2010Prop43
 90
        3
102
RTVSPost2010PropOp43
 70
     1
102
RTVSPost2010Prop44ColorIndex
 90
        5
102
RTVSPost2010Prop44ColorRGB
 90
      255
102
RTVSPost2010PropOp44
 70
     1
102
RTVSPost2010Prop45
280
     0
102
RTVSPost2010PropOp45
 70
     1
102
RTVSPost2010Prop46
 90
       50
102
RTVSPost2010PropOp46
 70
     1
102
RTVSPost2010Prop47
 90
       50
102
RTVSPost2010PropOp47
 70
     1
102
RTVSPost2010Prop48
 90
       50
102
RTVSPost2010PropOp48
 70
     1
102
RTVSPost2010Prop49
280
     0
102
RTVSPost2010PropOp49
 70
     1
102
RTVSPost2010Prop50
 90
       50
102
RTVSPost2010PropOp50
 70
     1
102
RTVSPost2010Prop51ColorIndex
 90
      256
102
RTVSPost2010Prop51ColorRGB
 90
-16777216
102
RTVSPost2010PropOp51
 70
     0
102
RTVSPost2010Prop52
140
1.0
102
RTVSPost2010PropOp52
 70
     0
102
RTVSPost2010Prop53
 90
        2
102
RTVSPost2010PropOp53
 70
     1
102
RTVSPost2010Prop54
  1
strokes_ogs.tif
102
RTVSPost2010PropOp54
 70
     1
102
RTVSPost2010Prop55
280
     0
102
RTVSPost2010PropOp55
 70
     1
102
RTVSPost2010Prop56
140
1.0
102
RTVSPost2010PropOp56
 70
     1
102
RTVSPost2010Prop57
140
1.0
102
RTVSPost2010PropOp57
 70
     1
  0
XRECORD
  5
2F0
102
{ACAD_REACTORS
330
2EF
102
}
330
2EF
100
AcDbXrecord
280
     1
102
RTVSPropertyOp0
 70
     1
102
RTVSPropertyOp1
 70
     1
102
RTVSPropertyOp2
 70
     1
102
RTVSPropertyOp3
 70
     1
102
RTVSPropertyOp4
 70
     1
102
RTVSPropertyOp5
 70
     1
102
RTVSPropertyOp6
 70
     1
102
RTVSPropertyOp7
 70
     1
102
RTVSPropertyOp8
 70
     1
102
RTVSPropertyOp9
 70
     1
102
RTVSPropertyOp10
 70
     1
102
RTVSPropertyOp11
 70
     1
102
RTVSPropertyOp12
 70
     1
102
RTVSPropertyOp13
 70
     1
102
RTVSPropertyOp14
 70
     1
102
RTVSPropertyOp15
 70
     1
102
RTVSPropertyOp16
 70
     1
102
RTVSPropertyOp17
 70
     1
102
RTVSPropertyOp18
 70
     1
102
RTVSPropertyOp19
 70
     1
102
RTVSPropertyOp20
 70
     1
102
RTVSPropertyOp21
 70
     1
102
RTVSPropertyOp22
 70
     1
102
RTVSPropertyOp23
 70
     1
102
RTVSPropertyOp24
 70
     1
102
RTVSPropertyOp25
 70
     1
102
RTVSPropertyOp26
 70
     1
102
RTVSPropertyOp27
 70
     1
102
RTVSPropertyOp28
 70
     1
102
RTVSPropertyOp29
 70
     1
102
RTVSPropertyOp30
 70
     1
102
RTVSPropertyOp31
 70
     1
102
RTVSPropertyOp32
 70
     1
102
RTVSPropertyOp33
 70
     1
102
RTVSPropertyOp34
 70
     1
102
RTVSPropertyOp35
 70
     1
102
RTVSPropertyOp36
 70
     1
102
RTVSPropertyOp37
 70
     1
102
RTVSPropertyOp38
 70
     1
102
RTVSPropertyOp39
 70
     1
102
RTVSPropertyOp40
 70
     1
102
RTVSPropertyOp41
 70
     1
102
RTVSPropertyOp42
 70
     1
102
RTVSPropertyOp43
 70
     1
102
RTVSPropertyOp44
 70
     1
102
RTVSPropertyOp45
 70
     1
102
RTVSPropertyOp46
 70
     1
102
RTVSPropertyOp47
 70
     1
102
RTVSPropertyOp48
 70
     1
102
RTVSPropertyOp49
 70
     1
102
RTVSPropertyOp50
 70
     1
102
RTVSPropertyOp51
 70
     0
102
RTVSPropertyOp52
 70
     0
102
RTVSPropertyOp53
 70
     1
102
RTVSPropertyOp54
 70
     1
102
RTVSPropertyOp55
 70
     1
102
RTVSPropertyOp56
 70
     1
102
RTVSPropertyOp57
 70
     1
102
RTVSPost2010Prop28
280
     0
102
RTVSPost2010PropOp28
 70
     1
102
RTVSPost2010Prop29
280
     1
102
RTVSPost2010PropOp29
 70
     1
102
RTVSPost2010Prop30
280
     1
102
RTVSPost2010PropOp30
 70
     1
102
RTVSPost2010Prop31
280
     0
102
RTVSPost2010PropOp31
 70
     1
102
RTVSPost2010Prop32
280
     0
102
RTVSPost2010PropOp32
 70
     1
102
RTVSPost2010Prop33
280
     0
102
RTVSPost2010PropOp33
 70
     1
102
RTVSPost2010Prop34
280
     0
102
RTVSPost2010PropOp34
 70
     1
102
RTVSPost2010Prop35
280
     0
102
RTVSPost2010PropOp35
 70
     1
102
RTVSPost2010Prop36
280
     0
102
RTVSPost2010PropOp36
 70
     1
102
RTVSPost2010Prop37
 90
       50
102
RTVSPost2010PropOp37
 70
     1
102
RTVSPost2010Prop38
140
0.0
102
RTVSPost2010PropOp38
 70
     1
102
RTVSPost2010Prop39
140
1.0
102
RTVSPost2010PropOp39
 70
     1
102
RTVSPost2010Prop40
 90
        0
102
RTVSPost2010PropOp40
 70
     1
102
RTVSPost2010Prop41ColorIndex
 90
       18
102
RTVSPost2010Prop41ColorRGB
 90
        0
102
RTVSPost2010PropOp41
 70
     1
102
RTVSPost2010Prop42
 90
       50
102
RTVSPost2010PropOp42
 70
     1
102
RTVSPost2010Prop43
 90
        3
102
RTVSPost2010PropOp43
 70
     1
102
RTVSPost2010Prop44ColorIndex
 90
        5
102
RTVSPost2010Prop44ColorRGB
 90
      255
102
RTVSPost2010PropOp44
 70
     1
102
RTVSPost2010Prop45
280
     0
102
RTVSPost2010PropOp45
 70
     1
102
RTVSPost2010Prop46
 90
       50
102
RTVSPost2010PropOp46
 70
     1
102
RTVSPost2010Prop47
 90
       50
102
RTVSPost2010PropOp47
 70
     1
102
RTVSPost2010Prop48
 90
       50
102
RTVSPost2010PropOp48
 70
     1
102
RTVSPost2010Prop49
280
     0
102
RTVSPost2010PropOp49
 70
     1
102
RTVSPost2010Prop50
 90
       50
102
RTVSPost2010PropOp50
 70
     1
102
RTVSPost2010Prop51ColorIndex
 90
      256
102
RTVSPost2010Prop51ColorRGB
 90
-16777216
102
RTVSPost2010PropOp51
 70
     0
102
RTVSPost2010Prop52
140
1.0
102
RTVSPost2010PropOp52
 70
     0
102
RTVSPost2010Prop53
 90
        2
102
RTVSPost2010PropOp53
 70
     1
102
RTVSPost2010Prop54
  1
strokes_ogs.tif
102
RTVSPost2010PropOp54
 70
     1
102
RTVSPost2010Prop55
280
     0
102
RTVSPost2010PropOp55
 70
     1
102
RTVSPost2010Prop56
140
1.0
102
RTVSPost2010PropOp56
 70
     1
102
RTVSPost2010Prop57
140
1.0
102
RTVSPost2010PropOp57
 70
     1
  0
XRECORD
  5
2E4
102
{ACAD_REACTORS
330
2E3
102
}
330
2E3
100
AcDbXrecord
280
     1
102
RTVSPropertyOp0
 70
     1
102
RTVSPropertyOp1
 70
     1
102
RTVSPropertyOp2
 70
     1
102
RTVSPropertyOp3
 70
     1
102
RTVSPropertyOp4
 70
     1
102
RTVSPropertyOp5
 70
     1
102
RTVSPropertyOp6
 70
     1
102
RTVSPropertyOp7
 70
     1
102
RTVSPropertyOp8
 70
     1
102
RTVSPropertyOp9
 70
     1
102
RTVSPropertyOp10
 70
     1
102
RTVSPropertyOp11
 70
     1
102
RTVSPropertyOp12
 70
     1
102
RTVSPropertyOp13
 70
     1
102
RTVSPropertyOp14
 70
     1
102
RTVSPropertyOp15
 70
     1
102
RTVSPropertyOp16
 70
     1
102
RTVSPropertyOp17
 70
     1
102
RTVSPropertyOp18
 70
     1
102
RTVSPropertyOp19
 70
     1
102
RTVSPropertyOp20
 70
     1
102
RTVSPropertyOp21
 70
     1
102
RTVSPropertyOp22
 70
     1
102
RTVSPropertyOp23
 70
     1
102
RTVSPropertyOp24
 70
     1
102
RTVSPropertyOp25
 70
     1
102
RTVSPropertyOp26
 70
     1
102
RTVSPropertyOp27
 70
     1
102
RTVSPropertyOp28
 70
     1
102
RTVSPropertyOp29
 70
     1
102
RTVSPropertyOp30
 70
     1
102
RTVSPropertyOp31
 70
     1
102
RTVSPropertyOp32
 70
     1
102
RTVSPropertyOp33
 70
     1
102
RTVSPropertyOp34
 70
     1
102
RTVSPropertyOp35
 70
     1
102
RTVSPropertyOp36
 70
     1
102
RTVSPropertyOp37
 70
     1
102
RTVSPropertyOp38
 70
     1
102
RTVSPropertyOp39
 70
     1
102
RTVSPropertyOp40
 70
     1
102
RTVSPropertyOp41
 70
     1
102
RTVSPropertyOp42
 70
     1
102
RTVSPropertyOp43
 70
     1
102
RTVSPropertyOp44
 70
     1
102
RTVSPropertyOp45
 70
     1
102
RTVSPropertyOp46
 70
     1
102
RTVSPropertyOp47
 70
     1
102
RTVSPropertyOp48
 70
     1
102
RTVSPropertyOp49
 70
     1
102
RTVSPropertyOp50
 70
     1
102
RTVSPropertyOp51
 70
     0
102
RTVSPropertyOp52
 70
     0
102
RTVSPropertyOp53
 70
     1
102
RTVSPropertyOp54
 70
     1
102
RTVSPropertyOp55
 70
     1
102
RTVSPropertyOp56
 70
     1
102
RTVSPropertyOp57
 70
     1
102
RTVSPost2010Prop28
280
     0
102
RTVSPost2010PropOp28
 70
     1
102
RTVSPost2010Prop29
280
     1
102
RTVSPost2010PropOp29
 70
     1
102
RTVSPost2010Prop30
280
     1
102
RTVSPost2010PropOp30
 70
     1
102
RTVSPost2010Prop31
280
     0
102
RTVSPost2010PropOp31
 70
     1
102
RTVSPost2010Prop32
280
     0
102
RTVSPost2010PropOp32
 70
     1
102
RTVSPost2010Prop33
280
     0
102
RTVSPost2010PropOp33
 70
     1
102
RTVSPost2010Prop34
280
     0
102
RTVSPost2010PropOp34
 70
     1
102
RTVSPost2010Prop35
280
     0
102
RTVSPost2010PropOp35
 70
     1
102
RTVSPost2010Prop36
280
     0
102
RTVSPost2010PropOp36
 70
     1
102
RTVSPost2010Prop37
 90
       50
102
RTVSPost2010PropOp37
 70
     1
102
RTVSPost2010Prop38
140
0.0
102
RTVSPost2010PropOp38
 70
     1
102
RTVSPost2010Prop39
140
1.0
102
RTVSPost2010PropOp39
 70
     1
102
RTVSPost2010Prop40
 90
        0
102
RTVSPost2010PropOp40
 70
     1
102
RTVSPost2010Prop41ColorIndex
 90
       18
102
RTVSPost2010Prop41ColorRGB
 90
        0
102
RTVSPost2010PropOp41
 70
     1
102
RTVSPost2010Prop42
 90
       50
102
RTVSPost2010PropOp42
 70
     1
102
RTVSPost2010Prop43
 90
        3
102
RTVSPost2010PropOp43
 70
     1
102
RTVSPost2010Prop44ColorIndex
 90
        5
102
RTVSPost2010Prop44ColorRGB
 90
      255
102
RTVSPost2010PropOp44
 70
     1
102
RTVSPost2010Prop45
280
     0
102
RTVSPost2010PropOp45
 70
     1
102
RTVSPost2010Prop46
 90
       50
102
RTVSPost2010PropOp46
 70
     1
102
RTVSPost2010Prop47
 90
       50
102
RTVSPost2010PropOp47
 70
     1
102
RTVSPost2010Prop48
 90
       50
102
RTVSPost2010PropOp48
 70
     1
102
RTVSPost2010Prop49
280
     0
102
RTVSPost2010PropOp49
 70
     1
102
RTVSPost2010Prop50
 90
       50
102
RTVSPost2010PropOp50
 70
     1
102
RTVSPost2010Prop51ColorIndex
 90
      256
102
RTVSPost2010Prop51ColorRGB
 90
-16777216
102
RTVSPost2010PropOp51
 70
     0
102
RTVSPost2010Prop52
140
1.0
102
RTVSPost2010PropOp52
 70
     0
102
RTVSPost2010Prop53
 90
        2
102
RTVSPost2010PropOp53
 70
     1
102
RTVSPost2010Prop54
  1
strokes_ogs.tif
102
RTVSPost2010PropOp54
 70
     1
102
RTVSPost2010Prop55
280
     0
102
RTVSPost2010PropOp55
 70
     1
102
RTVSPost2010Prop56
140
1.0
102
RTVSPost2010PropOp56
 70
     1
102
RTVSPost2010Prop57
140
1.0
102
RTVSPost2010PropOp57
 70
     1
  0
XRECORD
  5
2E6
102
{ACAD_REACTORS
330
2E5
102
}
330
2E5
100
AcDbXrecord
280
     1
102
RTVSPropertyOp0
 70
     1
102
RTVSPropertyOp1
 70
     1
102
RTVSPropertyOp2
 70
     1
102
RTVSPropertyOp3
 70
     1
102
RTVSPropertyOp4
 70
     1
102
RTVSPropertyOp5
 70
     1
102
RTVSPropertyOp6
 70
     1
102
RTVSPropertyOp7
 70
     1
102
RTVSPropertyOp8
 70
     1
102
RTVSPropertyOp9
 70
     1
102
RTVSPropertyOp10
 70
     1
102
RTVSPropertyOp11
 70
     1
102
RTVSPropertyOp12
 70
     1
102
RTVSPropertyOp13
 70
     1
102
RTVSPropertyOp14
 70
     1
102
RTVSPropertyOp15
 70
     1
102
RTVSPropertyOp16
 70
     1
102
RTVSPropertyOp17
 70
     1
102
RTVSPropertyOp18
 70
     1
102
RTVSPropertyOp19
 70
     1
102
RTVSPropertyOp20
 70
     1
102
RTVSPropertyOp21
 70
     1
102
RTVSPropertyOp22
 70
     1
102
RTVSPropertyOp23
 70
     1
102
RTVSPropertyOp24
 70
     1
102
RTVSPropertyOp25
 70
     1
102
RTVSPropertyOp26
 70
     1
102
RTVSPropertyOp27
 70
     1
102
RTVSPropertyOp28
 70
     1
102
RTVSPropertyOp29
 70
     1
102
RTVSPropertyOp30
 70
     1
102
RTVSPropertyOp31
 70
     1
102
RTVSPropertyOp32
 70
     1
102
RTVSPropertyOp33
 70
     1
102
RTVSPropertyOp34
 70
     1
102
RTVSPropertyOp35
 70
     1
102
RTVSPropertyOp36
 70
     1
102
RTVSPropertyOp37
 70
     1
102
RTVSPropertyOp38
 70
     1
102
RTVSPropertyOp39
 70
     1
102
RTVSPropertyOp40
 70
     1
102
RTVSPropertyOp41
 70
     1
102
RTVSPropertyOp42
 70
     1
102
RTVSPropertyOp43
 70
     1
102
RTVSPropertyOp44
 70
     1
102
RTVSPropertyOp45
 70
     1
102
RTVSPropertyOp46
 70
     1
102
RTVSPropertyOp47
 70
     1
102
RTVSPropertyOp48
 70
     1
102
RTVSPropertyOp49
 70
     1
102
RTVSPropertyOp50
 70
     1
102
RTVSPropertyOp51
 70
     0
102
RTVSPropertyOp52
 70
     0
102
RTVSPropertyOp53
 70
     1
102
RTVSPropertyOp54
 70
     1
102
RTVSPropertyOp55
 70
     1
102
RTVSPropertyOp56
 70
     1
102
RTVSPropertyOp57
 70
     1
102
RTVSPost2010Prop28
280
     0
102
RTVSPost2010PropOp28
 70
     1
102
RTVSPost2010Prop29
280
     1
102
RTVSPost2010PropOp29
 70
     1
102
RTVSPost2010Prop30
280
     1
102
RTVSPost2010PropOp30
 70
     1
102
RTVSPost2010Prop31
280
     0
102
RTVSPost2010PropOp31
 70
     1
102
RTVSPost2010Prop32
280
     0
102
RTVSPost2010PropOp32
 70
     1
102
RTVSPost2010Prop33
280
     0
102
RTVSPost2010PropOp33
 70
     1
102
RTVSPost2010Prop34
280
     0
102
RTVSPost2010PropOp34
 70
     1
102
RTVSPost2010Prop35
280
     0
102
RTVSPost2010PropOp35
 70
     1
102
RTVSPost2010Prop36
280
     0
102
RTVSPost2010PropOp36
 70
     1
102
RTVSPost2010Prop37
 90
       50
102
RTVSPost2010PropOp37
 70
     1
102
RTVSPost2010Prop38
140
0.0
102
RTVSPost2010PropOp38
 70
     1
102
RTVSPost2010Prop39
140
1.0
102
RTVSPost2010PropOp39
 70
     1
102
RTVSPost2010Prop40
 90
        0
102
RTVSPost2010PropOp40
 70
     1
102
RTVSPost2010Prop41ColorIndex
 90
       18
102
RTVSPost2010Prop41ColorRGB
 90
        0
102
RTVSPost2010PropOp41
 70
     1
102
RTVSPost2010Prop42
 90
       50
102
RTVSPost2010PropOp42
 70
     1
102
RTVSPost2010Prop43
 90
        3
102
RTVSPost2010PropOp43
 70
     1
102
RTVSPost2010Prop44ColorIndex
 90
        5
102
RTVSPost2010Prop44ColorRGB
 90
      255
102
RTVSPost2010PropOp44
 70
     1
102
RTVSPost2010Prop45
280
     0
102
RTVSPost2010PropOp45
 70
     1
102
RTVSPost2010Prop46
 90
       50
102
RTVSPost2010PropOp46
 70
     1
102
RTVSPost2010Prop47
 90
       50
102
RTVSPost2010PropOp47
 70
     1
102
RTVSPost2010Prop48
 90
       50
102
RTVSPost2010PropOp48
 70
     1
102
RTVSPost2010Prop49
280
     0
102
RTVSPost2010PropOp49
 70
     1
102
RTVSPost2010Prop50
 90
       50
102
RTVSPost2010PropOp50
 70
     1
102
RTVSPost2010Prop51ColorIndex
 90
      256
102
RTVSPost2010Prop51ColorRGB
 90
-16777216
102
RTVSPost2010PropOp51
 70
     0
102
RTVSPost2010Prop52
140
1.0
102
RTVSPost2010PropOp52
 70
     0
102
RTVSPost2010Prop53
 90
        2
102
RTVSPost2010PropOp53
 70
     1
102
RTVSPost2010Prop54
  1
strokes_ogs.tif
102
RTVSPost2010PropOp54
 70
     1
102
RTVSPost2010Prop55
280
     0
102
RTVSPost2010PropOp55
 70
     1
102
RTVSPost2010Prop56
140
1.0
102
RTVSPost2010PropOp56
 70
     1
102
RTVSPost2010Prop57
140
1.0
102
RTVSPost2010PropOp57
 70
     1
  0
XRECORD
  5
2F6
102
{ACAD_REACTORS
330
2F5
102
}
330
2F5
100
AcDbXrecord
280
     1
102
RTVSPropertyOp0
 70
     0
102
RTVSPropertyOp1
 70
     0
102
RTVSPropertyOp2
 70
     0
102
RTVSPropertyOp3
 70
     0
102
RTVSPropertyOp4
 70
     0
102
RTVSPropertyOp5
 70
     0
102
RTVSPropertyOp6
 70
     0
102
RTVSPropertyOp7
 70
     0
102
RTVSPropertyOp8
 70
     0
102
RTVSPropertyOp9
 70
     0
102
RTVSPropertyOp10
 70
     0
102
RTVSPropertyOp11
 70
     0
102
RTVSPropertyOp12
 70
     0
102
RTVSPropertyOp13
 70
     0
102
RTVSPropertyOp14
 70
     2
102
RTVSPropertyOp15
 70
     0
102
RTVSPropertyOp16
 70
     0
102
RTVSPropertyOp17
 70
     0
102
RTVSPropertyOp18
 70
     0
102
RTVSPropertyOp19
 70
     0
102
RTVSPropertyOp20
 70
     0
102
RTVSPropertyOp21
 70
     0
102
RTVSPropertyOp22
 70
     0
102
RTVSPropertyOp23
 70
     0
102
RTVSPropertyOp24
 70
     0
102
RTVSPropertyOp25
 70
     0
102
RTVSPropertyOp26
 70
     0
102
RTVSPropertyOp27
 70
     0
102
RTVSPropertyOp28
 70
     0
102
RTVSPropertyOp29
 70
     0
102
RTVSPropertyOp30
 70
     0
102
RTVSPropertyOp31
 70
     0
102
RTVSPropertyOp32
 70
     0
102
RTVSPropertyOp33
 70
     0
102
RTVSPropertyOp34
 70
     0
102
RTVSPropertyOp35
 70
     0
102
RTVSPropertyOp36
 70
     0
102
RTVSPropertyOp37
 70
     0
102
RTVSPropertyOp38
 70
     0
102
RTVSPropertyOp39
 70
     0
102
RTVSPropertyOp40
 70
     0
102
RTVSPropertyOp41
 70
     0
102
RTVSPropertyOp42
 70
     0
102
RTVSPropertyOp43
 70
     0
102
RTVSPropertyOp44
 70
     0
102
RTVSPropertyOp45
 70
     0
102
RTVSPropertyOp46
 70
     0
102
RTVSPropertyOp47
 70
     0
102
RTVSPropertyOp48
 70
     0
102
RTVSPropertyOp49
 70
     0
102
RTVSPropertyOp50
 70
     0
102
RTVSPropertyOp51
 70
     0
102
RTVSPropertyOp52
 70
     0
102
RTVSPropertyOp53
 70
     0
102
RTVSPropertyOp54
 70
     0
102
RTVSPropertyOp55
 70
     0
102
RTVSPropertyOp56
 70
     0
102
RTVSPropertyOp57
 70
     0
102
RTVSPost2010Prop28
280
     0
102
RTVSPost2010PropOp28
 70
     0
102
RTVSPost2010Prop29
280
     1
102
RTVSPost2010PropOp29
 70
     0
102
RTVSPost2010Prop30
280
     1
102
RTVSPost2010PropOp30
 70
     0
102
RTVSPost2010Prop31
280
     0
102
RTVSPost2010PropOp31
 70
     0
102
RTVSPost2010Prop32
280
     0
102
RTVSPost2010PropOp32
 70
     0
102
RTVSPost2010Prop33
280
     0
102
RTVSPost2010PropOp33
 70
     0
102
RTVSPost2010Prop34
280
     0
102
RTVSPost2010PropOp34
 70
     0
102
RTVSPost2010Prop35
280
     0
102
RTVSPost2010PropOp35
 70
     0
102
RTVSPost2010Prop36
280
     0
102
RTVSPost2010PropOp36
 70
     0
102
RTVSPost2010Prop37
 90
       50
102
RTVSPost2010PropOp37
 70
     0
102
RTVSPost2010Prop38
140
0.0
102
RTVSPost2010PropOp38
 70
     0
102
RTVSPost2010Prop39
140
1.0
102
RTVSPost2010PropOp39
 70
     0
102
RTVSPost2010Prop40
 90
        0
102
RTVSPost2010PropOp40
 70
     0
102
RTVSPost2010Prop41ColorIndex
 90
       18
102
RTVSPost2010Prop41ColorRGB
 90
        0
102
RTVSPost2010PropOp41
 70
     0
102
RTVSPost2010Prop42
 90
       50
102
RTVSPost2010PropOp42
 70
     0
102
RTVSPost2010Prop43
 90
        3
102
RTVSPost2010PropOp43
 70
     0
102
RTVSPost2010Prop44ColorIndex
 90
        5
102
RTVSPost2010Prop44ColorRGB
 90
      255
102
RTVSPost2010PropOp44
 70
     0
102
RTVSPost2010Prop45
280
     0
102
RTVSPost2010PropOp45
 70
     0
102
RTVSPost2010Prop46
 90
       50
102
RTVSPost2010PropOp46
 70
     0
102
RTVSPost2010Prop47
 90
       50
102
RTVSPost2010PropOp47
 70
     0
102
RTVSPost2010Prop48
 90
       50
102
RTVSPost2010PropOp48
 70
     0
102
RTVSPost2010Prop49
280
     0
102
RTVSPost2010PropOp49
 70
     0
102
RTVSPost2010Prop50
 90
       50
102
RTVSPost2010PropOp50
 70
     0
102
RTVSPost2010Prop51ColorIndex
 90
      256
102
RTVSPost2010Prop51ColorRGB
 90
-16777216
102
RTVSPost2010PropOp51
 70
     0
102
RTVSPost2010Prop52
140
1.0
102
RTVSPost2010PropOp52
 70
     0
102
RTVSPost2010Prop53
 90
        2
102
RTVSPost2010PropOp53
 70
     0
102
RTVSPost2010Prop54
  1
strokes_ogs.tif
102
RTVSPost2010PropOp54
 70
     0
102
RTVSPost2010Prop55
280
     0
102
RTVSPost2010PropOp55
 70
     0
102
RTVSPost2010Prop56
140
1.0
102
RTVSPost2010PropOp56
 70
     0
102
RTVSPost2010Prop57
140
1.0
102
RTVSPost2010PropOp57
 70
     0
  0
XRECORD
  5
2EE
102
{ACAD_REACTORS
330
2ED
102
}
330
2ED
100
AcDbXrecord
280
     1
102
RTVSPropertyOp0
 70
     1
102
RTVSPropertyOp1
 70
     1
102
RTVSPropertyOp2
 70
     1
102
RTVSPropertyOp3
 70
     1
102
RTVSPropertyOp4
 70
     1
102
RTVSPropertyOp5
 70
     1
102
RTVSPropertyOp6
 70
     1
102
RTVSPropertyOp7
 70
     1
102
RTVSPropertyOp8
 70
     1
102
RTVSPropertyOp9
 70
     1
102
RTVSPropertyOp10
 70
     1
102
RTVSPropertyOp11
 70
     1
102
RTVSPropertyOp12
 70
     1
102
RTVSPropertyOp13
 70
     1
102
RTVSPropertyOp14
 70
     1
102
RTVSPropertyOp15
 70
     1
102
RTVSPropertyOp16
 70
     1
102
RTVSPropertyOp17
 70
     1
102
RTVSPropertyOp18
 70
     1
102
RTVSPropertyOp19
 70
     1
102
RTVSPropertyOp20
 70
     1
102
RTVSPropertyOp21
 70
     1
102
RTVSPropertyOp22
 70
     1
102
RTVSPropertyOp23
 70
     1
102
RTVSPropertyOp24
 70
     1
102
RTVSPropertyOp25
 70
     1
102
RTVSPropertyOp26
 70
     1
102
RTVSPropertyOp27
 70
     1
102
RTVSPropertyOp28
 70
     1
102
RTVSPropertyOp29
 70
     1
102
RTVSPropertyOp30
 70
     1
102
RTVSPropertyOp31
 70
     1
102
RTVSPropertyOp32
 70
     1
102
RTVSPropertyOp33
 70
     1
102
RTVSPropertyOp34
 70
     1
102
RTVSPropertyOp35
 70
     1
102
RTVSPropertyOp36
 70
     1
102
RTVSPropertyOp37
 70
     1
102
RTVSPropertyOp38
 70
     1
102
RTVSPropertyOp39
 70
     1
102
RTVSPropertyOp40
 70
     1
102
RTVSPropertyOp41
 70
     1
102
RTVSPropertyOp42
 70
     1
102
RTVSPropertyOp43
 70
     1
102
RTVSPropertyOp44
 70
     1
102
RTVSPropertyOp45
 70
     1
102
RTVSPropertyOp46
 70
     1
102
RTVSPropertyOp47
 70
     1
102
RTVSPropertyOp48
 70
     1
102
RTVSPropertyOp49
 70
     1
102
RTVSPropertyOp50
 70
     1
102
RTVSPropertyOp51
 70
     0
102
RTVSPropertyOp52
 70
     0
102
RTVSPropertyOp53
 70
     1
102
RTVSPropertyOp54
 70
     1
102
RTVSPropertyOp55
 70
     1
102
RTVSPropertyOp56
 70
     1
102
RTVSPropertyOp57
 70
     1
102
RTVSPost2010Prop28
280
     0
102
RTVSPost2010PropOp28
 70
     1
102
RTVSPost2010Prop29
280
     1
102
RTVSPost2010PropOp29
 70
     1
102
RTVSPost2010Prop30
280
     1
102
RTVSPost2010PropOp30
 70
     1
102
RTVSPost2010Prop31
280
     0
102
RTVSPost2010PropOp31
 70
     1
102
RTVSPost2010Prop32
280
     0
102
RTVSPost2010PropOp32
 70
     1
102
RTVSPost2010Prop33
280
     0
102
RTVSPost2010PropOp33
 70
     1
102
RTVSPost2010Prop34
280
     0
102
RTVSPost2010PropOp34
 70
     1
102
RTVSPost2010Prop35
280
     0
102
RTVSPost2010PropOp35
 70
     1
102
RTVSPost2010Prop36
280
     0
102
RTVSPost2010PropOp36
 70
     1
102
RTVSPost2010Prop37
 90
       50
102
RTVSPost2010PropOp37
 70
     1
102
RTVSPost2010Prop38
140
0.0
102
RTVSPost2010PropOp38
 70
     1
102
RTVSPost2010Prop39
140
1.0
102
RTVSPost2010PropOp39
 70
     1
102
RTVSPost2010Prop40
 90
        0
102
RTVSPost2010PropOp40
 70
     1
102
RTVSPost2010Prop41ColorIndex
 90
       18
102
RTVSPost2010Prop41ColorRGB
 90
        0
102
RTVSPost2010PropOp41
 70
     1
102
RTVSPost2010Prop42
 90
       50
102
RTVSPost2010PropOp42
 70
     1
102
RTVSPost2010Prop43
 90
        3
102
RTVSPost2010PropOp43
 70
     1
102
RTVSPost2010Prop44ColorIndex
 90
        5
102
RTVSPost2010Prop44ColorRGB
 90
      255
102
RTVSPost2010PropOp44
 70
     1
102
RTVSPost2010Prop45
280
     0
102
RTVSPost2010PropOp45
 70
     1
102
RTVSPost2010Prop46
 90
       50
102
RTVSPost2010PropOp46
 70
     1
102
RTVSPost2010Prop47
 90
       50
102
RTVSPost2010PropOp47
 70
     1
102
RTVSPost2010Prop48
 90
       50
102
RTVSPost2010PropOp48
 70
     1
102
RTVSPost2010Prop49
280
     0
102
RTVSPost2010PropOp49
 70
     1
102
RTVSPost2010Prop50
 90
       50
102
RTVSPost2010PropOp50
 70
     1
102
RTVSPost2010Prop51ColorIndex
 90
      256
102
RTVSPost2010Prop51ColorRGB
 90
-16777216
102
RTVSPost2010PropOp51
 70
     0
102
RTVSPost2010Prop52
140
1.0
102
RTVSPost2010PropOp52
 70
     0
102
RTVSPost2010Prop53
 90
        2
102
RTVSPost2010PropOp53
 70
     1
102
RTVSPost2010Prop54
  1
strokes_ogs.tif
102
RTVSPost2010PropOp54
 70
     1
102
RTVSPost2010Prop55
280
     0
102
RTVSPost2010PropOp55
 70
     1
102
RTVSPost2010Prop56
140
1.0
102
RTVSPost2010PropOp56
 70
     1
102
RTVSPost2010Prop57
140
1.0
102
RTVSPost2010PropOp57
 70
     1
  0
XRECORD
  5
2D2
102
{ACAD_REACTORS
330
2D1
102
}
330
2D1
100
AcDbXrecord
280
     1
102
RTVSPropertyOp0
 70
     1
102
RTVSPropertyOp1
 70
     1
102
RTVSPropertyOp2
 70
     1
102
RTVSPropertyOp3
 70
     1
102
RTVSPropertyOp4
 70
     1
102
RTVSPropertyOp5
 70
     1
102
RTVSPropertyOp6
 70
     1
102
RTVSPropertyOp7
 70
     1
102
RTVSPropertyOp8
 70
     1
102
RTVSPropertyOp9
 70
     1
102
RTVSPropertyOp10
 70
     1
102
RTVSPropertyOp11
 70
     1
102
RTVSPropertyOp12
 70
     1
102
RTVSPropertyOp13
 70
     1
102
RTVSPropertyOp14
 70
     1
102
RTVSPropertyOp15
 70
     1
102
RTVSPropertyOp16
 70
     1
102
RTVSPropertyOp17
 70
     1
102
RTVSPropertyOp18
 70
     1
102
RTVSPropertyOp19
 70
     1
102
RTVSPropertyOp20
 70
     1
102
RTVSPropertyOp21
 70
     1
102
RTVSPropertyOp22
 70
     1
102
RTVSPropertyOp23
 70
     1
102
RTVSPropertyOp24
 70
     1
102
RTVSPropertyOp25
 70
     1
102
RTVSPropertyOp26
 70
     1
102
RTVSPropertyOp27
 70
     1
102
RTVSPropertyOp28
 70
     1
102
RTVSPropertyOp29
 70
     1
102
RTVSPropertyOp30
 70
     1
102
RTVSPropertyOp31
 70
     1
102
RTVSPropertyOp32
 70
     1
102
RTVSPropertyOp33
 70
     1
102
RTVSPropertyOp34
 70
     1
102
RTVSPropertyOp35
 70
     1
102
RTVSPropertyOp36
 70
     1
102
RTVSPropertyOp37
 70
     1
102
RTVSPropertyOp38
 70
     1
102
RTVSPropertyOp39
 70
     1
102
RTVSPropertyOp40
 70
     1
102
RTVSPropertyOp41
 70
     1
102
RTVSPropertyOp42
 70
     1
102
RTVSPropertyOp43
 70
     1
102
RTVSPropertyOp44
 70
     1
102
RTVSPropertyOp45
 70
     1
102
RTVSPropertyOp46
 70
     1
102
RTVSPropertyOp47
 70
     1
102
RTVSPropertyOp48
 70
     1
102
RTVSPropertyOp49
 70
     1
102
RTVSPropertyOp50
 70
     1
102
RTVSPropertyOp51
 70
     0
102
RTVSPropertyOp52
 70
     0
102
RTVSPropertyOp53
 70
     1
102
RTVSPropertyOp54
 70
     1
102
RTVSPropertyOp55
 70
     1
102
RTVSPropertyOp56
 70
     1
102
RTVSPropertyOp57
 70
     1
102
RTVSPost2010Prop28
280
     0
102
RTVSPost2010PropOp28
 70
     1
102
RTVSPost2010Prop29
280
     1
102
RTVSPost2010PropOp29
 70
     1
102
RTVSPost2010Prop30
280
     1
102
RTVSPost2010PropOp30
 70
     1
102
RTVSPost2010Prop31
280
     0
102
RTVSPost2010PropOp31
 70
     1
102
RTVSPost2010Prop32
280
     0
102
RTVSPost2010PropOp32
 70
     1
102
RTVSPost2010Prop33
280
     0
102
RTVSPost2010PropOp33
 70
     1
102
RTVSPost2010Prop34
280
     0
102
RTVSPost2010PropOp34
 70
     1
102
RTVSPost2010Prop35
280
     0
102
RTVSPost2010PropOp35
 70
     1
102
RTVSPost2010Prop36
280
     0
102
RTVSPost2010PropOp36
 70
     1
102
RTVSPost2010Prop37
 90
       50
102
RTVSPost2010PropOp37
 70
     1
102
RTVSPost2010Prop38
140
0.0
102
RTVSPost2010PropOp38
 70
     1
102
RTVSPost2010Prop39
140
1.0
102
RTVSPost2010PropOp39
 70
     1
102
RTVSPost2010Prop40
 90
        0
102
RTVSPost2010PropOp40
 70
     1
102
RTVSPost2010Prop41ColorIndex
 90
       18
102
RTVSPost2010Prop41ColorRGB
 90
        0
102
RTVSPost2010PropOp41
 70
     1
102
RTVSPost2010Prop42
 90
       50
102
RTVSPost2010PropOp42
 70
     1
102
RTVSPost2010Prop43
 90
        3
102
RTVSPost2010PropOp43
 70
     1
102
RTVSPost2010Prop44ColorIndex
 90
        5
102
RTVSPost2010Prop44ColorRGB
 90
      255
102
RTVSPost2010PropOp44
 70
     1
102
RTVSPost2010Prop45
280
     0
102
RTVSPost2010PropOp45
 70
     1
102
RTVSPost2010Prop46
 90
       50
102
RTVSPost2010PropOp46
 70
     1
102
RTVSPost2010Prop47
 90
       50
102
RTVSPost2010PropOp47
 70
     1
102
RTVSPost2010Prop48
 90
       50
102
RTVSPost2010PropOp48
 70
     1
102
RTVSPost2010Prop49
280
     0
102
RTVSPost2010PropOp49
 70
     1
102
RTVSPost2010Prop50
 90
       50
102
RTVSPost2010PropOp50
 70
     1
102
RTVSPost2010Prop51ColorIndex
 90
      256
102
RTVSPost2010Prop51ColorRGB
 90
-16777216
102
RTVSPost2010PropOp51
 70
     0
102
RTVSPost2010Prop52
140
1.0
102
RTVSPost2010PropOp52
 70
     0
102
RTVSPost2010Prop53
 90
        2
102
RTVSPost2010PropOp53
 70
     1
102
RTVSPost2010Prop54
  1
strokes_ogs.tif
102
RTVSPost2010PropOp54
 70
     1
102
RTVSPost2010Prop55
280
     0
102
RTVSPost2010PropOp55
 70
     1
102
RTVSPost2010Prop56
140
1.0
102
RTVSPost2010PropOp56
 70
     1
102
RTVSPost2010Prop57
140
1.0
102
RTVSPost2010PropOp57
 70
     1
  0
XRECORD
  5
2D4
102
{ACAD_REACTORS
330
2D3
102
}
330
2D3
100
AcDbXrecord
280
     1
102
RTVSPropertyOp0
 70
     1
102
RTVSPropertyOp1
 70
     1
102
RTVSPropertyOp2
 70
     1
102
RTVSPropertyOp3
 70
     1
102
RTVSPropertyOp4
 70
     1
102
RTVSPropertyOp5
 70
     1
102
RTVSPropertyOp6
 70
     1
102
RTVSPropertyOp7
 70
     1
102
RTVSPropertyOp8
 70
     1
102
RTVSPropertyOp9
 70
     1
102
RTVSPropertyOp10
 70
     1
102
RTVSPropertyOp11
 70
     1
102
RTVSPropertyOp12
 70
     1
102
RTVSPropertyOp13
 70
     1
102
RTVSPropertyOp14
 70
     1
102
RTVSPropertyOp15
 70
     1
102
RTVSPropertyOp16
 70
     1
102
RTVSPropertyOp17
 70
     1
102
RTVSPropertyOp18
 70
     1
102
RTVSPropertyOp19
 70
     1
102
RTVSPropertyOp20
 70
     1
102
RTVSPropertyOp21
 70
     1
102
RTVSPropertyOp22
 70
     1
102
RTVSPropertyOp23
 70
     1
102
RTVSPropertyOp24
 70
     1
102
RTVSPropertyOp25
 70
     1
102
RTVSPropertyOp26
 70
     1
102
RTVSPropertyOp27
 70
     1
102
RTVSPropertyOp28
 70
     1
102
RTVSPropertyOp29
 70
     1
102
RTVSPropertyOp30
 70
     1
102
RTVSPropertyOp31
 70
     1
102
RTVSPropertyOp32
 70
     1
102
RTVSPropertyOp33
 70
     1
102
RTVSPropertyOp34
 70
     1
102
RTVSPropertyOp35
 70
     1
102
RTVSPropertyOp36
 70
     1
102
RTVSPropertyOp37
 70
     1
102
RTVSPropertyOp38
 70
     1
102
RTVSPropertyOp39
 70
     1
102
RTVSPropertyOp40
 70
     1
102
RTVSPropertyOp41
 70
     1
102
RTVSPropertyOp42
 70
     1
102
RTVSPropertyOp43
 70
     1
102
RTVSPropertyOp44
 70
     1
102
RTVSPropertyOp45
 70
     1
102
RTVSPropertyOp46
 70
     1
102
RTVSPropertyOp47
 70
     1
102
RTVSPropertyOp48
 70
     1
102
RTVSPropertyOp49
 70
     1
102
RTVSPropertyOp50
 70
     1
102
RTVSPropertyOp51
 70
     0
102
RTVSPropertyOp52
 70
     0
102
RTVSPropertyOp53
 70
     1
102
RTVSPropertyOp54
 70
     1
102
RTVSPropertyOp55
 70
     1
102
RTVSPropertyOp56
 70
     1
102
RTVSPropertyOp57
 70
     1
102
RTVSPost2010Prop28
280
     0
102
RTVSPost2010PropOp28
 70
     1
102
RTVSPost2010Prop29
280
     1
102
RTVSPost2010PropOp29
 70
     1
102
RTVSPost2010Prop30
280
     1
102
RTVSPost2010PropOp30
 70
     1
102
RTVSPost2010Prop31
280
     0
102
RTVSPost2010PropOp31
 70
     1
102
RTVSPost2010Prop32
280
     0
102
RTVSPost2010PropOp32
 70
     1
102
RTVSPost2010Prop33
280
     0
102
RTVSPost2010PropOp33
 70
     1
102
RTVSPost2010Prop34
280
     0
102
RTVSPost2010PropOp34
 70
     1
102
RTVSPost2010Prop35
280
     0
102
RTVSPost2010PropOp35
 70
     1
102
RTVSPost2010Prop36
280
     0
102
RTVSPost2010PropOp36
 70
     1
102
RTVSPost2010Prop37
 90
       50
102
RTVSPost2010PropOp37
 70
     1
102
RTVSPost2010Prop38
140
0.0
102
RTVSPost2010PropOp38
 70
     1
102
RTVSPost2010Prop39
140
1.0
102
RTVSPost2010PropOp39
 70
     1
102
RTVSPost2010Prop40
 90
        0
102
RTVSPost2010PropOp40
 70
     1
102
RTVSPost2010Prop41ColorIndex
 90
       18
102
RTVSPost2010Prop41ColorRGB
 90
        0
102
RTVSPost2010PropOp41
 70
     1
102
RTVSPost2010Prop42
 90
       50
102
RTVSPost2010PropOp42
 70
     1
102
RTVSPost2010Prop43
 90
        3
102
RTVSPost2010PropOp43
 70
     1
102
RTVSPost2010Prop44ColorIndex
 90
        5
102
RTVSPost2010Prop44ColorRGB
 90
      255
102
RTVSPost2010PropOp44
 70
     1
102
RTVSPost2010Prop45
280
     0
102
RTVSPost2010PropOp45
 70
     1
102
RTVSPost2010Prop46
 90
       50
102
RTVSPost2010PropOp46
 70
     1
102
RTVSPost2010Prop47
 90
       50
102
RTVSPost2010PropOp47
 70
     1
102
RTVSPost2010Prop48
 90
       50
102
RTVSPost2010PropOp48
 70
     1
102
RTVSPost2010Prop49
280
     0
102
RTVSPost2010PropOp49
 70
     1
102
RTVSPost2010Prop50
 90
       50
102
RTVSPost2010PropOp50
 70
     1
102
RTVSPost2010Prop51ColorIndex
 90
      256
102
RTVSPost2010Prop51ColorRGB
 90
-16777216
102
RTVSPost2010PropOp51
 70
     0
102
RTVSPost2010Prop52
140
1.0
102
RTVSPost2010PropOp52
 70
     0
102
RTVSPost2010Prop53
 90
        2
102
RTVSPost2010PropOp53
 70
     1
102
RTVSPost2010Prop54
  1
strokes_ogs.tif
102
RTVSPost2010PropOp54
 70
     1
102
RTVSPost2010Prop55
280
     0
102
RTVSPost2010PropOp55
 70
     1
102
RTVSPost2010Prop56
140
1.0
102
RTVSPost2010PropOp56
 70
     1
102
RTVSPost2010Prop57
140
1.0
102
RTVSPost2010PropOp57
 70
     1
  0
XRECORD
  5
2D6
102
{ACAD_REACTORS
330
2D5
102
}
330
2D5
100
AcDbXrecord
280
     1
102
RTVSPropertyOp0
 70
     1
102
RTVSPropertyOp1
 70
     1
102
RTVSPropertyOp2
 70
     1
102
RTVSPropertyOp3
 70
     1
102
RTVSPropertyOp4
 70
     1
102
RTVSPropertyOp5
 70
     1
102
RTVSPropertyOp6
 70
     1
102
RTVSPropertyOp7
 70
     1
102
RTVSPropertyOp8
 70
     1
102
RTVSPropertyOp9
 70
     1
102
RTVSPropertyOp10
 70
     1
102
RTVSPropertyOp11
 70
     1
102
RTVSPropertyOp12
 70
     1
102
RTVSPropertyOp13
 70
     1
102
RTVSPropertyOp14
 70
     1
102
RTVSPropertyOp15
 70
     1
102
RTVSPropertyOp16
 70
     1
102
RTVSPropertyOp17
 70
     1
102
RTVSPropertyOp18
 70
     1
102
RTVSPropertyOp19
 70
     1
102
RTVSPropertyOp20
 70
     1
102
RTVSPropertyOp21
 70
     1
102
RTVSPropertyOp22
 70
     1
102
RTVSPropertyOp23
 70
     1
102
RTVSPropertyOp24
 70
     1
102
RTVSPropertyOp25
 70
     1
102
RTVSPropertyOp26
 70
     1
102
RTVSPropertyOp27
 70
     1
102
RTVSPropertyOp28
 70
     1
102
RTVSPropertyOp29
 70
     1
102
RTVSPropertyOp30
 70
     1
102
RTVSPropertyOp31
 70
     1
102
RTVSPropertyOp32
 70
     1
102
RTVSPropertyOp33
 70
     1
102
RTVSPropertyOp34
 70
     1
102
RTVSPropertyOp35
 70
     1
102
RTVSPropertyOp36
 70
     1
102
RTVSPropertyOp37
 70
     1
102
RTVSPropertyOp38
 70
     1
102
RTVSPropertyOp39
 70
     1
102
RTVSPropertyOp40
 70
     1
102
RTVSPropertyOp41
 70
     1
102
RTVSPropertyOp42
 70
     1
102
RTVSPropertyOp43
 70
     1
102
RTVSPropertyOp44
 70
     1
102
RTVSPropertyOp45
 70
     1
102
RTVSPropertyOp46
 70
     1
102
RTVSPropertyOp47
 70
     1
102
RTVSPropertyOp48
 70
     1
102
RTVSPropertyOp49
 70
     1
102
RTVSPropertyOp50
 70
     1
102
RTVSPropertyOp51
 70
     0
102
RTVSPropertyOp52
 70
     0
102
RTVSPropertyOp53
 70
     1
102
RTVSPropertyOp54
 70
     1
102
RTVSPropertyOp55
 70
     1
102
RTVSPropertyOp56
 70
     1
102
RTVSPropertyOp57
 70
     1
102
RTVSPost2010Prop28
280
     0
102
RTVSPost2010PropOp28
 70
     1
102
RTVSPost2010Prop29
280
     1
102
RTVSPost2010PropOp29
 70
     1
102
RTVSPost2010Prop30
280
     1
102
RTVSPost2010PropOp30
 70
     1
102
RTVSPost2010Prop31
280
     0
102
RTVSPost2010PropOp31
 70
     1
102
RTVSPost2010Prop32
280
     0
102
RTVSPost2010PropOp32
 70
     1
102
RTVSPost2010Prop33
280
     0
102
RTVSPost2010PropOp33
 70
     1
102
RTVSPost2010Prop34
280
     0
102
RTVSPost2010PropOp34
 70
     1
102
RTVSPost2010Prop35
280
     0
102
RTVSPost2010PropOp35
 70
     1
102
RTVSPost2010Prop36
280
     0
102
RTVSPost2010PropOp36
 70
     1
102
RTVSPost2010Prop37
 90
       50
102
RTVSPost2010PropOp37
 70
     1
102
RTVSPost2010Prop38
140
0.0
102
RTVSPost2010PropOp38
 70
     1
102
RTVSPost2010Prop39
140
1.0
102
RTVSPost2010PropOp39
 70
     1
102
RTVSPost2010Prop40
 90
        0
102
RTVSPost2010PropOp40
 70
     1
102
RTVSPost2010Prop41ColorIndex
 90
       18
102
RTVSPost2010Prop41ColorRGB
 90
        0
102
RTVSPost2010PropOp41
 70
     1
102
RTVSPost2010Prop42
 90
       50
102
RTVSPost2010PropOp42
 70
     1
102
RTVSPost2010Prop43
 90
        3
102
RTVSPost2010PropOp43
 70
     1
102
RTVSPost2010Prop44ColorIndex
 90
        5
102
RTVSPost2010Prop44ColorRGB
 90
      255
102
RTVSPost2010PropOp44
 70
     1
102
RTVSPost2010Prop45
280
     0
102
RTVSPost2010PropOp45
 70
     1
102
RTVSPost2010Prop46
 90
       50
102
RTVSPost2010PropOp46
 70
     1
102
RTVSPost2010Prop47
 90
       50
102
RTVSPost2010PropOp47
 70
     1
102
RTVSPost2010Prop48
 90
       50
102
RTVSPost2010PropOp48
 70
     1
102
RTVSPost2010Prop49
280
     0
102
RTVSPost2010PropOp49
 70
     1
102
RTVSPost2010Prop50
 90
       50
102
RTVSPost2010PropOp50
 70
     1
102
RTVSPost2010Prop51ColorIndex
 90
      256
102
RTVSPost2010Prop51ColorRGB
 90
-16777216
102
RTVSPost2010PropOp51
 70
     0
102
RTVSPost2010Prop52
140
1.0
102
RTVSPost2010PropOp52
 70
     0
102
RTVSPost2010Prop53
 90
        2
102
RTVSPost2010PropOp53
 70
     1
102
RTVSPost2010Prop54
  1
strokes_ogs.tif
102
RTVSPost2010PropOp54
 70
     1
102
RTVSPost2010Prop55
280
     0
102
RTVSPost2010PropOp55
 70
     1
102
RTVSPost2010Prop56
140
1.0
102
RTVSPost2010PropOp56
 70
     1
102
RTVSPost2010Prop57
140
1.0
102
RTVSPost2010PropOp57
 70
     1
  0
XRECORD
  5
2D8
102
{ACAD_REACTORS
330
2D7
102
}
330
2D7
100
AcDbXrecord
280
     1
102
RTVSPropertyOp0
 70
     1
102
RTVSPropertyOp1
 70
     1
102
RTVSPropertyOp2
 70
     1
102
RTVSPropertyOp3
 70
     1
102
RTVSPropertyOp4
 70
     1
102
RTVSPropertyOp5
 70
     1
102
RTVSPropertyOp6
 70
     1
102
RTVSPropertyOp7
 70
     1
102
RTVSPropertyOp8
 70
     1
102
RTVSPropertyOp9
 70
     1
102
RTVSPropertyOp10
 70
     1
102
RTVSPropertyOp11
 70
     1
102
RTVSPropertyOp12
 70
     1
102
RTVSPropertyOp13
 70
     1
102
RTVSPropertyOp14
 70
     1
102
RTVSPropertyOp15
 70
     1
102
RTVSPropertyOp16
 70
     1
102
RTVSPropertyOp17
 70
     1
102
RTVSPropertyOp18
 70
     1
102
RTVSPropertyOp19
 70
     1
102
RTVSPropertyOp20
 70
     1
102
RTVSPropertyOp21
 70
     1
102
RTVSPropertyOp22
 70
     1
102
RTVSPropertyOp23
 70
     1
102
RTVSPropertyOp24
 70
     1
102
RTVSPropertyOp25
 70
     1
102
RTVSPropertyOp26
 70
     1
102
RTVSPropertyOp27
 70
     1
102
RTVSPropertyOp28
 70
     1
102
RTVSPropertyOp29
 70
     1
102
RTVSPropertyOp30
 70
     1
102
RTVSPropertyOp31
 70
     1
102
RTVSPropertyOp32
 70
     1
102
RTVSPropertyOp33
 70
     1
102
RTVSPropertyOp34
 70
     1
102
RTVSPropertyOp35
 70
     1
102
RTVSPropertyOp36
 70
     1
102
RTVSPropertyOp37
 70
     1
102
RTVSPropertyOp38
 70
     1
102
RTVSPropertyOp39
 70
     1
102
RTVSPropertyOp40
 70
     1
102
RTVSPropertyOp41
 70
     1
102
RTVSPropertyOp42
 70
     1
102
RTVSPropertyOp43
 70
     1
102
RTVSPropertyOp44
 70
     1
102
RTVSPropertyOp45
 70
     1
102
RTVSPropertyOp46
 70
     1
102
RTVSPropertyOp47
 70
     1
102
RTVSPropertyOp48
 70
     1
102
RTVSPropertyOp49
 70
     1
102
RTVSPropertyOp50
 70
     1
102
RTVSPropertyOp51
 70
     0
102
RTVSPropertyOp52
 70
     0
102
RTVSPropertyOp53
 70
     1
102
RTVSPropertyOp54
 70
     1
102
RTVSPropertyOp55
 70
     1
102
RTVSPropertyOp56
 70
     1
102
RTVSPropertyOp57
 70
     1
102
RTVSPost2010Prop28
280
     0
102
RTVSPost2010PropOp28
 70
     1
102
RTVSPost2010Prop29
280
     1
102
RTVSPost2010PropOp29
 70
     1
102
RTVSPost2010Prop30
280
     1
102
RTVSPost2010PropOp30
 70
     1
102
RTVSPost2010Prop31
280
     0
102
RTVSPost2010PropOp31
 70
     1
102
RTVSPost2010Prop32
280
     0
102
RTVSPost2010PropOp32
 70
     1
102
RTVSPost2010Prop33
280
     0
102
RTVSPost2010PropOp33
 70
     1
102
RTVSPost2010Prop34
280
     0
102
RTVSPost2010PropOp34
 70
     1
102
RTVSPost2010Prop35
280
     0
102
RTVSPost2010PropOp35
 70
     1
102
RTVSPost2010Prop36
280
     0
102
RTVSPost2010PropOp36
 70
     1
102
RTVSPost2010Prop37
 90
       50
102
RTVSPost2010PropOp37
 70
     1
102
RTVSPost2010Prop38
140
0.0
102
RTVSPost2010PropOp38
 70
     1
102
RTVSPost2010Prop39
140
1.0
102
RTVSPost2010PropOp39
 70
     1
102
RTVSPost2010Prop40
 90
        0
102
RTVSPost2010PropOp40
 70
     1
102
RTVSPost2010Prop41ColorIndex
 90
       18
102
RTVSPost2010Prop41ColorRGB
 90
        0
102
RTVSPost2010PropOp41
 70
     1
102
RTVSPost2010Prop42
 90
       50
102
RTVSPost2010PropOp42
 70
     1
102
RTVSPost2010Prop43
 90
        3
102
RTVSPost2010PropOp43
 70
     1
102
RTVSPost2010Prop44ColorIndex
 90
        5
102
RTVSPost2010Prop44ColorRGB
 90
      255
102
RTVSPost2010PropOp44
 70
     1
102
RTVSPost2010Prop45
280
     0
102
RTVSPost2010PropOp45
 70
     1
102
RTVSPost2010Prop46
 90
       50
102
RTVSPost2010PropOp46
 70
     1
102
RTVSPost2010Prop47
 90
       50
102
RTVSPost2010PropOp47
 70
     1
102
RTVSPost2010Prop48
 90
       50
102
RTVSPost2010PropOp48
 70
     1
102
RTVSPost2010Prop49
280
     0
102
RTVSPost2010PropOp49
 70
     1
102
RTVSPost2010Prop50
 90
       50
102
RTVSPost2010PropOp50
 70
     1
102
RTVSPost2010Prop51ColorIndex
 90
      256
102
RTVSPost2010Prop51ColorRGB
 90
-16777216
102
RTVSPost2010PropOp51
 70
     0
102
RTVSPost2010Prop52
140
1.0
102
RTVSPost2010PropOp52
 70
     0
102
RTVSPost2010Prop53
 90
        2
102
RTVSPost2010PropOp53
 70
     1
102
RTVSPost2010Prop54
  1
strokes_ogs.tif
102
RTVSPost2010PropOp54
 70
     1
102
RTVSPost2010Prop55
280
     0
102
RTVSPost2010PropOp55
 70
     1
102
RTVSPost2010Prop56
140
1.0
102
RTVSPost2010PropOp56
 70
     1
102
RTVSPost2010Prop57
140
1.0
102
RTVSPost2010PropOp57
 70
     1
  0
XRECORD
  5
2DE
102
{ACAD_REACTORS
330
2DD
102
}
330
2DD
100
AcDbXrecord
280
     1
102
RTVSPropertyOp0
 70
     1
102
RTVSPropertyOp1
 70
     1
102
RTVSPropertyOp2
 70
     1
102
RTVSPropertyOp3
 70
     1
102
RTVSPropertyOp4
 70
     1
102
RTVSPropertyOp5
 70
     1
102
RTVSPropertyOp6
 70
     1
102
RTVSPropertyOp7
 70
     1
102
RTVSPropertyOp8
 70
     1
102
RTVSPropertyOp9
 70
     1
102
RTVSPropertyOp10
 70
     1
102
RTVSPropertyOp11
 70
     1
102
RTVSPropertyOp12
 70
     1
102
RTVSPropertyOp13
 70
     1
102
RTVSPropertyOp14
 70
     1
102
RTVSPropertyOp15
 70
     1
102
RTVSPropertyOp16
 70
     1
102
RTVSPropertyOp17
 70
     1
102
RTVSPropertyOp18
 70
     1
102
RTVSPropertyOp19
 70
     1
102
RTVSPropertyOp20
 70
     1
102
RTVSPropertyOp21
 70
     1
102
RTVSPropertyOp22
 70
     1
102
RTVSPropertyOp23
 70
     1
102
RTVSPropertyOp24
 70
     1
102
RTVSPropertyOp25
 70
     1
102
RTVSPropertyOp26
 70
     1
102
RTVSPropertyOp27
 70
     1
102
RTVSPropertyOp28
 70
     1
102
RTVSPropertyOp29
 70
     1
102
RTVSPropertyOp30
 70
     1
102
RTVSPropertyOp31
 70
     1
102
RTVSPropertyOp32
 70
     1
102
RTVSPropertyOp33
 70
     1
102
RTVSPropertyOp34
 70
     1
102
RTVSPropertyOp35
 70
     1
102
RTVSPropertyOp36
 70
     1
102
RTVSPropertyOp37
 70
     1
102
RTVSPropertyOp38
 70
     1
102
RTVSPropertyOp39
 70
     1
102
RTVSPropertyOp40
 70
     1
102
RTVSPropertyOp41
 70
     1
102
RTVSPropertyOp42
 70
     1
102
RTVSPropertyOp43
 70
     1
102
RTVSPropertyOp44
 70
     1
102
RTVSPropertyOp45
 70
     1
102
RTVSPropertyOp46
 70
     1
102
RTVSPropertyOp47
 70
     1
102
RTVSPropertyOp48
 70
     1
102
RTVSPropertyOp49
 70
     1
102
RTVSPropertyOp50
 70
     1
102
RTVSPropertyOp51
 70
     0
102
RTVSPropertyOp52
 70
     0
102
RTVSPropertyOp53
 70
     1
102
RTVSPropertyOp54
 70
     1
102
RTVSPropertyOp55
 70
     1
102
RTVSPropertyOp56
 70
     1
102
RTVSPropertyOp57
 70
     1
102
RTVSPost2010Prop28
280
     0
102
RTVSPost2010PropOp28
 70
     1
102
RTVSPost2010Prop29
280
     1
102
RTVSPost2010PropOp29
 70
     1
102
RTVSPost2010Prop30
280
     1
102
RTVSPost2010PropOp30
 70
     1
102
RTVSPost2010Prop31
280
     0
102
RTVSPost2010PropOp31
 70
     1
102
RTVSPost2010Prop32
280
     0
102
RTVSPost2010PropOp32
 70
     1
102
RTVSPost2010Prop33
280
     0
102
RTVSPost2010PropOp33
 70
     1
102
RTVSPost2010Prop34
280
     0
102
RTVSPost2010PropOp34
 70
     1
102
RTVSPost2010Prop35
280
     0
102
RTVSPost2010PropOp35
 70
     1
102
RTVSPost2010Prop36
280
     0
102
RTVSPost2010PropOp36
 70
     1
102
RTVSPost2010Prop37
 90
       50
102
RTVSPost2010PropOp37
 70
     1
102
RTVSPost2010Prop38
140
0.0
102
RTVSPost2010PropOp38
 70
     1
102
RTVSPost2010Prop39
140
1.0
102
RTVSPost2010PropOp39
 70
     1
102
RTVSPost2010Prop40
 90
        0
102
RTVSPost2010PropOp40
 70
     1
102
RTVSPost2010Prop41ColorIndex
 90
       18
102
RTVSPost2010Prop41ColorRGB
 90
        0
102
RTVSPost2010PropOp41
 70
     1
102
RTVSPost2010Prop42
 90
       50
102
RTVSPost2010PropOp42
 70
     1
102
RTVSPost2010Prop43
 90
        3
102
RTVSPost2010PropOp43
 70
     1
102
RTVSPost2010Prop44ColorIndex
 90
        5
102
RTVSPost2010Prop44ColorRGB
 90
      255
102
RTVSPost2010PropOp44
 70
     1
102
RTVSPost2010Prop45
280
     0
102
RTVSPost2010PropOp45
 70
     1
102
RTVSPost2010Prop46
 90
       50
102
RTVSPost2010PropOp46
 70
     1
102
RTVSPost2010Prop47
 90
       50
102
RTVSPost2010PropOp47
 70
     1
102
RTVSPost2010Prop48
 90
       50
102
RTVSPost2010PropOp48
 70
     1
102
RTVSPost2010Prop49
280
     0
102
RTVSPost2010PropOp49
 70
     1
102
RTVSPost2010Prop50
 90
       50
102
RTVSPost2010PropOp50
 70
     1
102
RTVSPost2010Prop51ColorIndex
 90
      256
102
RTVSPost2010Prop51ColorRGB
 90
-16777216
102
RTVSPost2010PropOp51
 70
     0
102
RTVSPost2010Prop52
140
1.0
102
RTVSPost2010PropOp52
 70
     0
102
RTVSPost2010Prop53
 90
        2
102
RTVSPost2010PropOp53
 70
     1
102
RTVSPost2010Prop54
  1
strokes_ogs.tif
102
RTVSPost2010PropOp54
 70
     1
102
RTVSPost2010Prop55
280
     0
102
RTVSPost2010PropOp55
 70
     1
102
RTVSPost2010Prop56
140
1.0
102
RTVSPost2010PropOp56
 70
     1
102
RTVSPost2010Prop57
140
1.0
102
RTVSPost2010PropOp57
 70
     1
  0
XRECORD
  5
2F2
102
{ACAD_REACTORS
330
2F1
102
}
330
2F1
100
AcDbXrecord
280
     1
102
RTVSPropertyOp0
 70
     0
102
RTVSPropertyOp1
 70
     0
102
RTVSPropertyOp2
 70
     0
102
RTVSPropertyOp3
 70
     0
102
RTVSPropertyOp4
 70
     0
102
RTVSPropertyOp5
 70
     0
102
RTVSPropertyOp6
 70
     0
102
RTVSPropertyOp7
 70
     0
102
RTVSPropertyOp8
 70
     0
102
RTVSPropertyOp9
 70
     0
102
RTVSPropertyOp10
 70
     0
102
RTVSPropertyOp11
 70
     0
102
RTVSPropertyOp12
 70
     0
102
RTVSPropertyOp13
 70
     0
102
RTVSPropertyOp14
 70
     2
102
RTVSPropertyOp15
 70
     0
102
RTVSPropertyOp16
 70
     0
102
RTVSPropertyOp17
 70
     0
102
RTVSPropertyOp18
 70
     0
102
RTVSPropertyOp19
 70
     0
102
RTVSPropertyOp20
 70
     0
102
RTVSPropertyOp21
 70
     0
102
RTVSPropertyOp22
 70
     0
102
RTVSPropertyOp23
 70
     0
102
RTVSPropertyOp24
 70
     0
102
RTVSPropertyOp25
 70
     0
102
RTVSPropertyOp26
 70
     0
102
RTVSPropertyOp27
 70
     0
102
RTVSPropertyOp28
 70
     0
102
RTVSPropertyOp29
 70
     0
102
RTVSPropertyOp30
 70
     0
102
RTVSPropertyOp31
 70
     0
102
RTVSPropertyOp32
 70
     0
102
RTVSPropertyOp33
 70
     0
102
RTVSPropertyOp34
 70
     0
102
RTVSPropertyOp35
 70
     0
102
RTVSPropertyOp36
 70
     0
102
RTVSPropertyOp37
 70
     0
102
RTVSPropertyOp38
 70
     0
102
RTVSPropertyOp39
 70
     0
102
RTVSPropertyOp40
 70
     0
102
RTVSPropertyOp41
 70
     0
102
RTVSPropertyOp42
 70
     0
102
RTVSPropertyOp43
 70
     0
102
RTVSPropertyOp44
 70
     0
102
RTVSPropertyOp45
 70
     0
102
RTVSPropertyOp46
 70
     0
102
RTVSPropertyOp47
 70
     0
102
RTVSPropertyOp48
 70
     0
102
RTVSPropertyOp49
 70
     0
102
RTVSPropertyOp50
 70
     0
102
RTVSPropertyOp51
 70
     0
102
RTVSPropertyOp52
 70
     0
102
RTVSPropertyOp53
 70
     0
102
RTVSPropertyOp54
 70
     0
102
RTVSPropertyOp55
 70
     0
102
RTVSPropertyOp56
 70
     0
102
RTVSPropertyOp57
 70
     0
102
RTVSPost2010Prop28
280
     0
102
RTVSPost2010PropOp28
 70
     0
102
RTVSPost2010Prop29
280
     1
102
RTVSPost2010PropOp29
 70
     0
102
RTVSPost2010Prop30
280
     1
102
RTVSPost2010PropOp30
 70
     0
102
RTVSPost2010Prop31
280
     0
102
RTVSPost2010PropOp31
 70
     0
102
RTVSPost2010Prop32
280
     0
102
RTVSPost2010PropOp32
 70
     0
102
RTVSPost2010Prop33
280
     0
102
RTVSPost2010PropOp33
 70
     0
102
RTVSPost2010Prop34
280
     0
102
RTVSPost2010PropOp34
 70
     0
102
RTVSPost2010Prop35
280
     0
102
RTVSPost2010PropOp35
 70
     0
102
RTVSPost2010Prop36
280
     0
102
RTVSPost2010PropOp36
 70
     0
102
RTVSPost2010Prop37
 90
       50
102
RTVSPost2010PropOp37
 70
     0
102
RTVSPost2010Prop38
140
0.0
102
RTVSPost2010PropOp38
 70
     0
102
RTVSPost2010Prop39
140
1.0
102
RTVSPost2010PropOp39
 70
     0
102
RTVSPost2010Prop40
 90
        0
102
RTVSPost2010PropOp40
 70
     0
102
RTVSPost2010Prop41ColorIndex
 90
       18
102
RTVSPost2010Prop41ColorRGB
 90
        0
102
RTVSPost2010PropOp41
 70
     0
102
RTVSPost2010Prop42
 90
       50
102
RTVSPost2010PropOp42
 70
     0
102
RTVSPost2010Prop43
 90
        3
102
RTVSPost2010PropOp43
 70
     0
102
RTVSPost2010Prop44ColorIndex
 90
        5
102
RTVSPost2010Prop44ColorRGB
 90
      255
102
RTVSPost2010PropOp44
 70
     0
102
RTVSPost2010Prop45
280
     0
102
RTVSPost2010PropOp45
 70
     0
102
RTVSPost2010Prop46
 90
       50
102
RTVSPost2010PropOp46
 70
     0
102
RTVSPost2010Prop47
 90
       50
102
RTVSPost2010PropOp47
 70
     0
102
RTVSPost2010Prop48
 90
       50
102
RTVSPost2010PropOp48
 70
     0
102
RTVSPost2010Prop49
280
     0
102
RTVSPost2010PropOp49
 70
     0
102
RTVSPost2010Prop50
 90
       50
102
RTVSPost2010PropOp50
 70
     0
102
RTVSPost2010Prop51ColorIndex
 90
      256
102
RTVSPost2010Prop51ColorRGB
 90
-16777216
102
RTVSPost2010PropOp51
 70
     0
102
RTVSPost2010Prop52
140
1.0
102
RTVSPost2010PropOp52
 70
     0
102
RTVSPost2010Prop53
 90
        2
102
RTVSPost2010PropOp53
 70
     0
102
RTVSPost2010Prop54
  1
strokes_ogs.tif
102
RTVSPost2010PropOp54
 70
     0
102
RTVSPost2010Prop55
280
     0
102
RTVSPost2010PropOp55
 70
     0
102
RTVSPost2010Prop56
140
1.0
102
RTVSPost2010PropOp56
 70
     0
102
RTVSPost2010Prop57
140
1.0
102
RTVSPost2010PropOp57
 70
     0
  0
XRECORD
  5
2EC
102
{ACAD_REACTORS
330
2EB
102
}
330
2EB
100
AcDbXrecord
280
     1
102
RTVSPropertyOp0
 70
     1
102
RTVSPropertyOp1
 70
     1
102
RTVSPropertyOp2
 70
     1
102
RTVSPropertyOp3
 70
     1
102
RTVSPropertyOp4
 70
     1
102
RTVSPropertyOp5
 70
     1
102
RTVSPropertyOp6
 70
     1
102
RTVSPropertyOp7
 70
     1
102
RTVSPropertyOp8
 70
     1
102
RTVSPropertyOp9
 70
     1
102
RTVSPropertyOp10
 70
     1
102
RTVSPropertyOp11
 70
     1
102
RTVSPropertyOp12
 70
     1
102
RTVSPropertyOp13
 70
     1
102
RTVSPropertyOp14
 70
     1
102
RTVSPropertyOp15
 70
     1
102
RTVSPropertyOp16
 70
     1
102
RTVSPropertyOp17
 70
     1
102
RTVSPropertyOp18
 70
     1
102
RTVSPropertyOp19
 70
     1
102
RTVSPropertyOp20
 70
     1
102
RTVSPropertyOp21
 70
     1
102
RTVSPropertyOp22
 70
     1
102
RTVSPropertyOp23
 70
     1
102
RTVSPropertyOp24
 70
     1
102
RTVSPropertyOp25
 70
     1
102
RTVSPropertyOp26
 70
     1
102
RTVSPropertyOp27
 70
     1
102
RTVSPropertyOp28
 70
     1
102
RTVSPropertyOp29
 70
     1
102
RTVSPropertyOp30
 70
     1
102
RTVSPropertyOp31
 70
     1
102
RTVSPropertyOp32
 70
     1
102
RTVSPropertyOp33
 70
     1
102
RTVSPropertyOp34
 70
     1
102
RTVSPropertyOp35
 70
     1
102
RTVSPropertyOp36
 70
     1
102
RTVSPropertyOp37
 70
     1
102
RTVSPropertyOp38
 70
     1
102
RTVSPropertyOp39
 70
     1
102
RTVSPropertyOp40
 70
     1
102
RTVSPropertyOp41
 70
     1
102
RTVSPropertyOp42
 70
     1
102
RTVSPropertyOp43
 70
     1
102
RTVSPropertyOp44
 70
     1
102
RTVSPropertyOp45
 70
     1
102
RTVSPropertyOp46
 70
     1
102
RTVSPropertyOp47
 70
     1
102
RTVSPropertyOp48
 70
     1
102
RTVSPropertyOp49
 70
     1
102
RTVSPropertyOp50
 70
     1
102
RTVSPropertyOp51
 70
     0
102
RTVSPropertyOp52
 70
     0
102
RTVSPropertyOp53
 70
     1
102
RTVSPropertyOp54
 70
     1
102
RTVSPropertyOp55
 70
     1
102
RTVSPropertyOp56
 70
     1
102
RTVSPropertyOp57
 70
     1
102
RTVSPost2010Prop28
280
     0
102
RTVSPost2010PropOp28
 70
     1
102
RTVSPost2010Prop29
280
     1
102
RTVSPost2010PropOp29
 70
     1
102
RTVSPost2010Prop30
280
     1
102
RTVSPost2010PropOp30
 70
     1
102
RTVSPost2010Prop31
280
     0
102
RTVSPost2010PropOp31
 70
     1
102
RTVSPost2010Prop32
280
     0
102
RTVSPost2010PropOp32
 70
     1
102
RTVSPost2010Prop33
280
     0
102
RTVSPost2010PropOp33
 70
     1
102
RTVSPost2010Prop34
280
     0
102
RTVSPost2010PropOp34
 70
     1
102
RTVSPost2010Prop35
280
     0
102
RTVSPost2010PropOp35
 70
     1
102
RTVSPost2010Prop36
280
     0
102
RTVSPost2010PropOp36
 70
     1
102
RTVSPost2010Prop37
 90
       50
102
RTVSPost2010PropOp37
 70
     1
102
RTVSPost2010Prop38
140
0.0
102
RTVSPost2010PropOp38
 70
     1
102
RTVSPost2010Prop39
140
1.0
102
RTVSPost2010PropOp39
 70
     1
102
RTVSPost2010Prop40
 90
        0
102
RTVSPost2010PropOp40
 70
     1
102
RTVSPost2010Prop41ColorIndex
 90
       18
102
RTVSPost2010Prop41ColorRGB
 90
        0
102
RTVSPost2010PropOp41
 70
     1
102
RTVSPost2010Prop42
 90
       50
102
RTVSPost2010PropOp42
 70
     1
102
RTVSPost2010Prop43
 90
        3
102
RTVSPost2010PropOp43
 70
     1
102
RTVSPost2010Prop44ColorIndex
 90
        5
102
RTVSPost2010Prop44ColorRGB
 90
      255
102
RTVSPost2010PropOp44
 70
     1
102
RTVSPost2010Prop45
280
     0
102
RTVSPost2010PropOp45
 70
     1
102
RTVSPost2010Prop46
 90
       50
102
RTVSPost2010PropOp46
 70
     1
102
RTVSPost2010Prop47
 90
       50
102
RTVSPost2010PropOp47
 70
     1
102
RTVSPost2010Prop48
 90
       50
102
RTVSPost2010PropOp48
 70
     1
102
RTVSPost2010Prop49
280
     0
102
RTVSPost2010PropOp49
 70
     1
102
RTVSPost2010Prop50
 90
       50
102
RTVSPost2010PropOp50
 70
     1
102
RTVSPost2010Prop51ColorIndex
 90
      256
102
RTVSPost2010Prop51ColorRGB
 90
-16777216
102
RTVSPost2010PropOp51
 70
     0
102
RTVSPost2010Prop52
140
1.0
102
RTVSPost2010PropOp52
 70
     0
102
RTVSPost2010Prop53
 90
        2
102
RTVSPost2010PropOp53
 70
     1
102
RTVSPost2010Prop54
  1
strokes_ogs.tif
102
RTVSPost2010PropOp54
 70
     1
102
RTVSPost2010Prop55
280
     0
102
RTVSPost2010PropOp55
 70
     1
102
RTVSPost2010Prop56
140
1.0
102
RTVSPost2010PropOp56
 70
     1
102
RTVSPost2010Prop57
140
1.0
102
RTVSPost2010PropOp57
 70
     1
  0
XRECORD
  5
2F4
102
{ACAD_REACTORS
330
2F3
102
}
330
2F3
100
AcDbXrecord
280
     1
102
RTVSPropertyOp0
 70
     0
102
RTVSPropertyOp1
 70
     0
102
RTVSPropertyOp2
 70
     0
102
RTVSPropertyOp3
 70
     0
102
RTVSPropertyOp4
 70
     0
102
RTVSPropertyOp5
 70
     0
102
RTVSPropertyOp6
 70
     0
102
RTVSPropertyOp7
 70
     0
102
RTVSPropertyOp8
 70
     0
102
RTVSPropertyOp9
 70
     0
102
RTVSPropertyOp10
 70
     0
102
RTVSPropertyOp11
 70
     0
102
RTVSPropertyOp12
 70
     0
102
RTVSPropertyOp13
 70
     0
102
RTVSPropertyOp14
 70
     2
102
RTVSPropertyOp15
 70
     0
102
RTVSPropertyOp16
 70
     0
102
RTVSPropertyOp17
 70
     0
102
RTVSPropertyOp18
 70
     0
102
RTVSPropertyOp19
 70
     0
102
RTVSPropertyOp20
 70
     0
102
RTVSPropertyOp21
 70
     0
102
RTVSPropertyOp22
 70
     0
102
RTVSPropertyOp23
 70
     0
102
RTVSPropertyOp24
 70
     0
102
RTVSPropertyOp25
 70
     0
102
RTVSPropertyOp26
 70
     0
102
RTVSPropertyOp27
 70
     0
102
RTVSPropertyOp28
 70
     0
102
RTVSPropertyOp29
 70
     0
102
RTVSPropertyOp30
 70
     0
102
RTVSPropertyOp31
 70
     0
102
RTVSPropertyOp32
 70
     0
102
RTVSPropertyOp33
 70
     0
102
RTVSPropertyOp34
 70
     0
102
RTVSPropertyOp35
 70
     0
102
RTVSPropertyOp36
 70
     0
102
RTVSPropertyOp37
 70
     0
102
RTVSPropertyOp38
 70
     0
102
RTVSPropertyOp39
 70
     0
102
RTVSPropertyOp40
 70
     0
102
RTVSPropertyOp41
 70
     0
102
RTVSPropertyOp42
 70
     0
102
RTVSPropertyOp43
 70
     0
102
RTVSPropertyOp44
 70
     0
102
RTVSPropertyOp45
 70
     0
102
RTVSPropertyOp46
 70
     0
102
RTVSPropertyOp47
 70
     0
102
RTVSPropertyOp48
 70
     0
102
RTVSPropertyOp49
 70
     0
102
RTVSPropertyOp50
 70
     0
102
RTVSPropertyOp51
 70
     0
102
RTVSPropertyOp52
 70
     0
102
RTVSPropertyOp53
 70
     0
102
RTVSPropertyOp54
 70
     0
102
RTVSPropertyOp55
 70
     0
102
RTVSPropertyOp56
 70
     0
102
RTVSPropertyOp57
 70
     0
102
RTVSPost2010Prop28
280
     0
102
RTVSPost2010PropOp28
 70
     0
102
RTVSPost2010Prop29
280
     1
102
RTVSPost2010PropOp29
 70
     0
102
RTVSPost2010Prop30
280
     1
102
RTVSPost2010PropOp30
 70
     0
102
RTVSPost2010Prop31
280
     0
102
RTVSPost2010PropOp31
 70
     0
102
RTVSPost2010Prop32
280
     0
102
RTVSPost2010PropOp32
 70
     0
102
RTVSPost2010Prop33
280
     0
102
RTVSPost2010PropOp33
 70
     0
102
RTVSPost2010Prop34
280
     0
102
RTVSPost2010PropOp34
 70
     0
102
RTVSPost2010Prop35
280
     0
102
RTVSPost2010PropOp35
 70
     0
102
RTVSPost2010Prop36
280
     0
102
RTVSPost2010PropOp36
 70
     0
102
RTVSPost2010Prop37
 90
       50
102
RTVSPost2010PropOp37
 70
     0
102
RTVSPost2010Prop38
140
0.0
102
RTVSPost2010PropOp38
 70
     0
102
RTVSPost2010Prop39
140
1.0
102
RTVSPost2010PropOp39
 70
     0
102
RTVSPost2010Prop40
 90
        0
102
RTVSPost2010PropOp40
 70
     0
102
RTVSPost2010Prop41ColorIndex
 90
       18
102
RTVSPost2010Prop41ColorRGB
 90
        0
102
RTVSPost2010PropOp41
 70
     0
102
RTVSPost2010Prop42
 90
       50
102
RTVSPost2010PropOp42
 70
     0
102
RTVSPost2010Prop43
 90
        3
102
RTVSPost2010PropOp43
 70
     0
102
RTVSPost2010Prop44ColorIndex
 90
        5
102
RTVSPost2010Prop44ColorRGB
 90
      255
102
RTVSPost2010PropOp44
 70
     0
102
RTVSPost2010Prop45
280
     0
102
RTVSPost2010PropOp45
 70
     0
102
RTVSPost2010Prop46
 90
       50
102
RTVSPost2010PropOp46
 70
     0
102
RTVSPost2010Prop47
 90
       50
102
RTVSPost2010PropOp47
 70
     0
102
RTVSPost2010Prop48
 90
       50
102
RTVSPost2010PropOp48
 70
     0
102
RTVSPost2010Prop49
280
     0
102
RTVSPost2010PropOp49
 70
     0
102
RTVSPost2010Prop50
 90
       50
102
RTVSPost2010PropOp50
 70
     0
102
RTVSPost2010Prop51ColorIndex
 90
      256
102
RTVSPost2010Prop51ColorRGB
 90
-16777216
102
RTVSPost2010PropOp51
 70
     0
102
RTVSPost2010Prop52
140
1.0
102
RTVSPost2010PropOp52
 70
     0
102
RTVSPost2010Prop53
 90
        2
102
RTVSPost2010PropOp53
 70
     0
102
RTVSPost2010Prop54
  1
strokes_ogs.tif
102
RTVSPost2010PropOp54
 70
     0
102
RTVSPost2010Prop55
280
     0
102
RTVSPost2010PropOp55
 70
     0
102
RTVSPost2010Prop56
140
1.0
102
RTVSPost2010PropOp56
 70
     0
102
RTVSPost2010Prop57
140
1.0
102
RTVSPost2010PropOp57
 70
     0
  0
XRECORD
  5
2E2
102
{ACAD_REACTORS
330
2E1
102
}
330
2E1
100
AcDbXrecord
280
     1
102
RTVSPropertyOp0
 70
     1
102
RTVSPropertyOp1
 70
     1
102
RTVSPropertyOp2
 70
     1
102
RTVSPropertyOp3
 70
     1
102
RTVSPropertyOp4
 70
     1
102
RTVSPropertyOp5
 70
     1
102
RTVSPropertyOp6
 70
     1
102
RTVSPropertyOp7
 70
     1
102
RTVSPropertyOp8
 70
     1
102
RTVSPropertyOp9
 70
     1
102
RTVSPropertyOp10
 70
     1
102
RTVSPropertyOp11
 70
     1
102
RTVSPropertyOp12
 70
     1
102
RTVSPropertyOp13
 70
     1
102
RTVSPropertyOp14
 70
     1
102
RTVSPropertyOp15
 70
     1
102
RTVSPropertyOp16
 70
     1
102
RTVSPropertyOp17
 70
     1
102
RTVSPropertyOp18
 70
     1
102
RTVSPropertyOp19
 70
     1
102
RTVSPropertyOp20
 70
     1
102
RTVSPropertyOp21
 70
     1
102
RTVSPropertyOp22
 70
     1
102
RTVSPropertyOp23
 70
     1
102
RTVSPropertyOp24
 70
     1
102
RTVSPropertyOp25
 70
     1
102
RTVSPropertyOp26
 70
     1
102
RTVSPropertyOp27
 70
     1
102
RTVSPropertyOp28
 70
     1
102
RTVSPropertyOp29
 70
     1
102
RTVSPropertyOp30
 70
     1
102
RTVSPropertyOp31
 70
     1
102
RTVSPropertyOp32
 70
     1
102
RTVSPropertyOp33
 70
     1
102
RTVSPropertyOp34
 70
     1
102
RTVSPropertyOp35
 70
     1
102
RTVSPropertyOp36
 70
     1
102
RTVSPropertyOp37
 70
     1
102
RTVSPropertyOp38
 70
     1
102
RTVSPropertyOp39
 70
     1
102
RTVSPropertyOp40
 70
     1
102
RTVSPropertyOp41
 70
     1
102
RTVSPropertyOp42
 70
     1
102
RTVSPropertyOp43
 70
     1
102
RTVSPropertyOp44
 70
     1
102
RTVSPropertyOp45
 70
     1
102
RTVSPropertyOp46
 70
     1
102
RTVSPropertyOp47
 70
     1
102
RTVSPropertyOp48
 70
     1
102
RTVSPropertyOp49
 70
     1
102
RTVSPropertyOp50
 70
     1
102
RTVSPropertyOp51
 70
     0
102
RTVSPropertyOp52
 70
     0
102
RTVSPropertyOp53
 70
     1
102
RTVSPropertyOp54
 70
     1
102
RTVSPropertyOp55
 70
     1
102
RTVSPropertyOp56
 70
     1
102
RTVSPropertyOp57
 70
     1
102
RTVSPost2010Prop28
280
     0
102
RTVSPost2010PropOp28
 70
     1
102
RTVSPost2010Prop29
280
     1
102
RTVSPost2010PropOp29
 70
     1
102
RTVSPost2010Prop30
280
     1
102
RTVSPost2010PropOp30
 70
     1
102
RTVSPost2010Prop31
280
     0
102
RTVSPost2010PropOp31
 70
     1
102
RTVSPost2010Prop32
280
     0
102
RTVSPost2010PropOp32
 70
     1
102
RTVSPost2010Prop33
280
     0
102
RTVSPost2010PropOp33
 70
     1
102
RTVSPost2010Prop34
280
     0
102
RTVSPost2010PropOp34
 70
     1
102
RTVSPost2010Prop35
280
     0
102
RTVSPost2010PropOp35
 70
     1
102
RTVSPost2010Prop36
280
     0
102
RTVSPost2010PropOp36
 70
     1
102
RTVSPost2010Prop37
 90
       50
102
RTVSPost2010PropOp37
 70
     1
102
RTVSPost2010Prop38
140
0.0
102
RTVSPost2010PropOp38
 70
     1
102
RTVSPost2010Prop39
140
1.0
102
RTVSPost2010PropOp39
 70
     1
102
RTVSPost2010Prop40
 90
        0
102
RTVSPost2010PropOp40
 70
     1
102
RTVSPost2010Prop41ColorIndex
 90
       18
102
RTVSPost2010Prop41ColorRGB
 90
        0
102
RTVSPost2010PropOp41
 70
     1
102
RTVSPost2010Prop42
 90
       50
102
RTVSPost2010PropOp42
 70
     1
102
RTVSPost2010Prop43
 90
        3
102
RTVSPost2010PropOp43
 70
     1
102
RTVSPost2010Prop44ColorIndex
 90
        5
102
RTVSPost2010Prop44ColorRGB
 90
      255
102
RTVSPost2010PropOp44
 70
     1
102
RTVSPost2010Prop45
280
     0
102
RTVSPost2010PropOp45
 70
     1
102
RTVSPost2010Prop46
 90
       50
102
RTVSPost2010PropOp46
 70
     1
102
RTVSPost2010Prop47
 90
       50
102
RTVSPost2010PropOp47
 70
     1
102
RTVSPost2010Prop48
 90
       50
102
RTVSPost2010PropOp48
 70
     1
102
RTVSPost2010Prop49
280
     0
102
RTVSPost2010PropOp49
 70
     1
102
RTVSPost2010Prop50
 90
       50
102
RTVSPost2010PropOp50
 70
     1
102
RTVSPost2010Prop51ColorIndex
 90
      256
102
RTVSPost2010Prop51ColorRGB
 90
-16777216
102
RTVSPost2010PropOp51
 70
     0
102
RTVSPost2010Prop52
140
1.0
102
RTVSPost2010PropOp52
 70
     0
102
RTVSPost2010Prop53
 90
        2
102
RTVSPost2010PropOp53
 70
     1
102
RTVSPost2010Prop54
  1
strokes_ogs.tif
102
RTVSPost2010PropOp54
 70
     1
102
RTVSPost2010Prop55
280
     0
102
RTVSPost2010PropOp55
 70
     1
102
RTVSPost2010Prop56
140
1.0
102
RTVSPost2010PropOp56
 70
     1
102
RTVSPost2010Prop57
140
1.0
102
RTVSPost2010PropOp57
 70
     1
  0
XRECORD
  5
300
102
{ACAD_REACTORS
330
2FF
102
}
330
2FF
100
AcDbXrecord
280
     1
102
RTVSPropertyOp0
 70
     1
102
RTVSPropertyOp1
 70
     1
102
RTVSPropertyOp2
 70
     1
102
RTVSPropertyOp3
 70
     1
102
RTVSPropertyOp4
 70
     1
102
RTVSPropertyOp5
 70
     1
102
RTVSPropertyOp6
 70
     1
102
RTVSPropertyOp7
 70
     1
102
RTVSPropertyOp8
 70
     1
102
RTVSPropertyOp9
 70
     1
102
RTVSPropertyOp10
 70
     1
102
RTVSPropertyOp11
 70
     1
102
RTVSPropertyOp12
 70
     1
102
RTVSPropertyOp13
 70
     1
102
RTVSPropertyOp14
 70
     1
102
RTVSPropertyOp15
 70
     1
102
RTVSPropertyOp16
 70
     1
102
RTVSPropertyOp17
 70
     1
102
RTVSPropertyOp18
 70
     1
102
RTVSPropertyOp19
 70
     1
102
RTVSPropertyOp20
 70
     1
102
RTVSPropertyOp21
 70
     1
102
RTVSPropertyOp22
 70
     1
102
RTVSPropertyOp23
 70
     1
102
RTVSPropertyOp24
 70
     1
102
RTVSPropertyOp25
 70
     1
102
RTVSPropertyOp26
 70
     1
102
RTVSPropertyOp27
 70
     1
102
RTVSPropertyOp28
 70
     1
102
RTVSPropertyOp29
 70
     1
102
RTVSPropertyOp30
 70
     1
102
RTVSPropertyOp31
 70
     1
102
RTVSPropertyOp32
 70
     1
102
RTVSPropertyOp33
 70
     1
102
RTVSPropertyOp34
 70
     1
102
RTVSPropertyOp35
 70
     1
102
RTVSPropertyOp36
 70
     1
102
RTVSPropertyOp37
 70
     1
102
RTVSPropertyOp38
 70
     1
102
RTVSPropertyOp39
 70
     1
102
RTVSPropertyOp40
 70
     1
102
RTVSPropertyOp41
 70
     1
102
RTVSPropertyOp42
 70
     1
102
RTVSPropertyOp43
 70
     1
102
RTVSPropertyOp44
 70
     1
102
RTVSPropertyOp45
 70
     1
102
RTVSPropertyOp46
 70
     1
102
RTVSPropertyOp47
 70
     1
102
RTVSPropertyOp48
 70
     1
102
RTVSPropertyOp49
 70
     1
102
RTVSPropertyOp50
 70
     1
102
RTVSPropertyOp51
 70
     0
102
RTVSPropertyOp52
 70
     0
102
RTVSPropertyOp53
 70
     1
102
RTVSPropertyOp54
 70
     1
102
RTVSPropertyOp55
 70
     1
102
RTVSPropertyOp56
 70
     1
102
RTVSPropertyOp57
 70
     1
102
RTVSPost2010Prop28
280
     0
102
RTVSPost2010PropOp28
 70
     1
102
RTVSPost2010Prop29
280
     1
102
RTVSPost2010PropOp29
 70
     1
102
RTVSPost2010Prop30
280
     1
102
RTVSPost2010PropOp30
 70
     1
102
RTVSPost2010Prop31
280
     0
102
RTVSPost2010PropOp31
 70
     1
102
RTVSPost2010Prop32
280
     0
102
RTVSPost2010PropOp32
 70
     1
102
RTVSPost2010Prop33
280
     0
102
RTVSPost2010PropOp33
 70
     1
102
RTVSPost2010Prop34
280
     0
102
RTVSPost2010PropOp34
 70
     1
102
RTVSPost2010Prop35
280
     0
102
RTVSPost2010PropOp35
 70
     1
102
RTVSPost2010Prop36
280
     0
102
RTVSPost2010PropOp36
 70
     1
102
RTVSPost2010Prop37
 90
       50
102
RTVSPost2010PropOp37
 70
     1
102
RTVSPost2010Prop38
140
0.0
102
RTVSPost2010PropOp38
 70
     1
102
RTVSPost2010Prop39
140
1.0
102
RTVSPost2010PropOp39
 70
     1
102
RTVSPost2010Prop40
 90
        0
102
RTVSPost2010PropOp40
 70
     1
102
RTVSPost2010Prop41ColorIndex
 90
       18
102
RTVSPost2010Prop41ColorRGB
 90
        0
102
RTVSPost2010PropOp41
 70
     1
102
RTVSPost2010Prop42
 90
       50
102
RTVSPost2010PropOp42
 70
     1
102
RTVSPost2010Prop43
 90
        3
102
RTVSPost2010PropOp43
 70
     1
102
RTVSPost2010Prop44ColorIndex
 90
        5
102
RTVSPost2010Prop44ColorRGB
 90
      255
102
RTVSPost2010PropOp44
 70
     1
102
RTVSPost2010Prop45
280
     0
102
RTVSPost2010PropOp45
 70
     1
102
RTVSPost2010Prop46
 90
       50
102
RTVSPost2010PropOp46
 70
     1
102
RTVSPost2010Prop47
 90
       50
102
RTVSPost2010PropOp47
 70
     1
102
RTVSPost2010Prop48
 90
       50
102
RTVSPost2010PropOp48
 70
     1
102
RTVSPost2010Prop49
280
     0
102
RTVSPost2010PropOp49
 70
     1
102
RTVSPost2010Prop50
 90
       50
102
RTVSPost2010PropOp50
 70
     1
102
RTVSPost2010Prop51ColorIndex
 90
      256
102
RTVSPost2010Prop51ColorRGB
 90
-16777216
102
RTVSPost2010PropOp51
 70
     0
102
RTVSPost2010Prop52
140
1.0
102
RTVSPost2010PropOp52
 70
     0
102
RTVSPost2010Prop53
 90
        2
102
RTVSPost2010PropOp53
 70
     1
102
RTVSPost2010Prop54
  1
strokes_ogs.tif
102
RTVSPost2010PropOp54
 70
     1
102
RTVSPost2010Prop55
280
     0
102
RTVSPost2010PropOp55
 70
     1
102
RTVSPost2010Prop56
140
1.0
102
RTVSPost2010PropOp56
 70
     1
102
RTVSPost2010Prop57
140
1.0
102
RTVSPost2010PropOp57
 70
     1
  0
XRECORD
  5
2FE
102
{ACAD_REACTORS
330
2FD
102
}
330
2FD
100
AcDbXrecord
280
     1
102
RTVSPropertyOp0
 70
     1
102
RTVSPropertyOp1
 70
     1
102
RTVSPropertyOp2
 70
     1
102
RTVSPropertyOp3
 70
     1
102
RTVSPropertyOp4
 70
     1
102
RTVSPropertyOp5
 70
     1
102
RTVSPropertyOp6
 70
     1
102
RTVSPropertyOp7
 70
     1
102
RTVSPropertyOp8
 70
     1
102
RTVSPropertyOp9
 70
     1
102
RTVSPropertyOp10
 70
     1
102
RTVSPropertyOp11
 70
     1
102
RTVSPropertyOp12
 70
     1
102
RTVSPropertyOp13
 70
     1
102
RTVSPropertyOp14
 70
     1
102
RTVSPropertyOp15
 70
     1
102
RTVSPropertyOp16
 70
     1
102
RTVSPropertyOp17
 70
     1
102
RTVSPropertyOp18
 70
     1
102
RTVSPropertyOp19
 70
     1
102
RTVSPropertyOp20
 70
     1
102
RTVSPropertyOp21
 70
     1
102
RTVSPropertyOp22
 70
     1
102
RTVSPropertyOp23
 70
     1
102
RTVSPropertyOp24
 70
     1
102
RTVSPropertyOp25
 70
     1
102
RTVSPropertyOp26
 70
     1
102
RTVSPropertyOp27
 70
     1
102
RTVSPropertyOp28
 70
     1
102
RTVSPropertyOp29
 70
     1
102
RTVSPropertyOp30
 70
     1
102
RTVSPropertyOp31
 70
     1
102
RTVSPropertyOp32
 70
     1
102
RTVSPropertyOp33
 70
     1
102
RTVSPropertyOp34
 70
     1
102
RTVSPropertyOp35
 70
     1
102
RTVSPropertyOp36
 70
     1
102
RTVSPropertyOp37
 70
     1
102
RTVSPropertyOp38
 70
     1
102
RTVSPropertyOp39
 70
     1
102
RTVSPropertyOp40
 70
     1
102
RTVSPropertyOp41
 70
     1
102
RTVSPropertyOp42
 70
     1
102
RTVSPropertyOp43
 70
     1
102
RTVSPropertyOp44
 70
     1
102
RTVSPropertyOp45
 70
     1
102
RTVSPropertyOp46
 70
     1
102
RTVSPropertyOp47
 70
     1
102
RTVSPropertyOp48
 70
     1
102
RTVSPropertyOp49
 70
     1
102
RTVSPropertyOp50
 70
     1
102
RTVSPropertyOp51
 70
     0
102
RTVSPropertyOp52
 70
     0
102
RTVSPropertyOp53
 70
     1
102
RTVSPropertyOp54
 70
     1
102
RTVSPropertyOp55
 70
     1
102
RTVSPropertyOp56
 70
     1
102
RTVSPropertyOp57
 70
     1
102
RTVSPost2010Prop28
280
     0
102
RTVSPost2010PropOp28
 70
     1
102
RTVSPost2010Prop29
280
     1
102
RTVSPost2010PropOp29
 70
     1
102
RTVSPost2010Prop30
280
     1
102
RTVSPost2010PropOp30
 70
     1
102
RTVSPost2010Prop31
280
     0
102
RTVSPost2010PropOp31
 70
     1
102
RTVSPost2010Prop32
280
     0
102
RTVSPost2010PropOp32
 70
     1
102
RTVSPost2010Prop33
280
     0
102
RTVSPost2010PropOp33
 70
     1
102
RTVSPost2010Prop34
280
     0
102
RTVSPost2010PropOp34
 70
     1
102
RTVSPost2010Prop35
280
     0
102
RTVSPost2010PropOp35
 70
     1
102
RTVSPost2010Prop36
280
     0
102
RTVSPost2010PropOp36
 70
     1
102
RTVSPost2010Prop37
 90
       50
102
RTVSPost2010PropOp37
 70
     1
102
RTVSPost2010Prop38
140
0.0
102
RTVSPost2010PropOp38
 70
     1
102
RTVSPost2010Prop39
140
1.0
102
RTVSPost2010PropOp39
 70
     1
102
RTVSPost2010Prop40
 90
        0
102
RTVSPost2010PropOp40
 70
     1
102
RTVSPost2010Prop41ColorIndex
 90
       18
102
RTVSPost2010Prop41ColorRGB
 90
        0
102
RTVSPost2010PropOp41
 70
     1
102
RTVSPost2010Prop42
 90
       50
102
RTVSPost2010PropOp42
 70
     1
102
RTVSPost2010Prop43
 90
        3
102
RTVSPost2010PropOp43
 70
     1
102
RTVSPost2010Prop44ColorIndex
 90
        5
102
RTVSPost2010Prop44ColorRGB
 90
      255
102
RTVSPost2010PropOp44
 70
     1
102
RTVSPost2010Prop45
280
     0
102
RTVSPost2010PropOp45
 70
     1
102
RTVSPost2010Prop46
 90
       50
102
RTVSPost2010PropOp46
 70
     1
102
RTVSPost2010Prop47
 90
       50
102
RTVSPost2010PropOp47
 70
     1
102
RTVSPost2010Prop48
 90
       50
102
RTVSPost2010PropOp48
 70
     1
102
RTVSPost2010Prop49
280
     0
102
RTVSPost2010PropOp49
 70
     1
102
RTVSPost2010Prop50
 90
       50
102
RTVSPost2010PropOp50
 70
     1
102
RTVSPost2010Prop51ColorIndex
 90
      256
102
RTVSPost2010Prop51ColorRGB
 90
-16777216
102
RTVSPost2010PropOp51
 70
     0
102
RTVSPost2010Prop52
140
1.0
102
RTVSPost2010PropOp52
 70
     0
102
RTVSPost2010Prop53
 90
        2
102
RTVSPost2010PropOp53
 70
     1
102
RTVSPost2010Prop54
  1
strokes_ogs.tif
102
RTVSPost2010PropOp54
 70
     1
102
RTVSPost2010Prop55
280
     0
102
RTVSPost2010PropOp55
 70
     1
102
RTVSPost2010Prop56
140
1.0
102
RTVSPost2010PropOp56
 70
     1
102
RTVSPost2010Prop57
140
1.0
102
RTVSPost2010PropOp57
 70
     1
  0
XRECORD
  5
2F8
102
{ACAD_REACTORS
330
2F7
102
}
330
2F7
100
AcDbXrecord
280
     1
102
RTVSPropertyOp0
 70
     1
102
RTVSPropertyOp1
 70
     1
102
RTVSPropertyOp2
 70
     1
102
RTVSPropertyOp3
 70
     1
102
RTVSPropertyOp4
 70
     1
102
RTVSPropertyOp5
 70
     1
102
RTVSPropertyOp6
 70
     1
102
RTVSPropertyOp7
 70
     1
102
RTVSPropertyOp8
 70
     1
102
RTVSPropertyOp9
 70
     1
102
RTVSPropertyOp10
 70
     1
102
RTVSPropertyOp11
 70
     1
102
RTVSPropertyOp12
 70
     1
102
RTVSPropertyOp13
 70
     1
102
RTVSPropertyOp14
 70
     1
102
RTVSPropertyOp15
 70
     1
102
RTVSPropertyOp16
 70
     1
102
RTVSPropertyOp17
 70
     1
102
RTVSPropertyOp18
 70
     1
102
RTVSPropertyOp19
 70
     1
102
RTVSPropertyOp20
 70
     1
102
RTVSPropertyOp21
 70
     1
102
RTVSPropertyOp22
 70
     1
102
RTVSPropertyOp23
 70
     1
102
RTVSPropertyOp24
 70
     1
102
RTVSPropertyOp25
 70
     1
102
RTVSPropertyOp26
 70
     1
102
RTVSPropertyOp27
 70
     1
102
RTVSPropertyOp28
 70
     1
102
RTVSPropertyOp29
 70
     1
102
RTVSPropertyOp30
 70
     1
102
RTVSPropertyOp31
 70
     1
102
RTVSPropertyOp32
 70
     1
102
RTVSPropertyOp33
 70
     1
102
RTVSPropertyOp34
 70
     1
102
RTVSPropertyOp35
 70
     1
102
RTVSPropertyOp36
 70
     1
102
RTVSPropertyOp37
 70
     1
102
RTVSPropertyOp38
 70
     1
102
RTVSPropertyOp39
 70
     1
102
RTVSPropertyOp40
 70
     1
102
RTVSPropertyOp41
 70
     1
102
RTVSPropertyOp42
 70
     1
102
RTVSPropertyOp43
 70
     1
102
RTVSPropertyOp44
 70
     1
102
RTVSPropertyOp45
 70
     1
102
RTVSPropertyOp46
 70
     1
102
RTVSPropertyOp47
 70
     1
102
RTVSPropertyOp48
 70
     1
102
RTVSPropertyOp49
 70
     1
102
RTVSPropertyOp50
 70
     1
102
RTVSPropertyOp51
 70
     0
102
RTVSPropertyOp52
 70
     0
102
RTVSPropertyOp53
 70
     1
102
RTVSPropertyOp54
 70
     1
102
RTVSPropertyOp55
 70
     1
102
RTVSPropertyOp56
 70
     1
102
RTVSPropertyOp57
 70
     1
102
RTVSPost2010Prop28
280
     0
102
RTVSPost2010PropOp28
 70
     1
102
RTVSPost2010Prop29
280
     1
102
RTVSPost2010PropOp29
 70
     1
102
RTVSPost2010Prop30
280
     1
102
RTVSPost2010PropOp30
 70
     1
102
RTVSPost2010Prop31
280
     0
102
RTVSPost2010PropOp31
 70
     1
102
RTVSPost2010Prop32
280
     0
102
RTVSPost2010PropOp32
 70
     1
102
RTVSPost2010Prop33
280
     0
102
RTVSPost2010PropOp33
 70
     1
102
RTVSPost2010Prop34
280
     0
102
RTVSPost2010PropOp34
 70
     1
102
RTVSPost2010Prop35
280
     0
102
RTVSPost2010PropOp35
 70
     1
102
RTVSPost2010Prop36
280
     0
102
RTVSPost2010PropOp36
 70
     1
102
RTVSPost2010Prop37
 90
       50
102
RTVSPost2010PropOp37
 70
     1
102
RTVSPost2010Prop38
140
0.0
102
RTVSPost2010PropOp38
 70
     1
102
RTVSPost2010Prop39
140
1.0
102
RTVSPost2010PropOp39
 70
     1
102
RTVSPost2010Prop40
 90
        0
102
RTVSPost2010PropOp40
 70
     1
102
RTVSPost2010Prop41ColorIndex
 90
       18
102
RTVSPost2010Prop41ColorRGB
 90
        0
102
RTVSPost2010PropOp41
 70
     1
102
RTVSPost2010Prop42
 90
       50
102
RTVSPost2010PropOp42
 70
     1
102
RTVSPost2010Prop43
 90
        3
102
RTVSPost2010PropOp43
 70
     1
102
RTVSPost2010Prop44ColorIndex
 90
        5
102
RTVSPost2010Prop44ColorRGB
 90
      255
102
RTVSPost2010PropOp44
 70
     1
102
RTVSPost2010Prop45
280
     0
102
RTVSPost2010PropOp45
 70
     1
102
RTVSPost2010Prop46
 90
       50
102
RTVSPost2010PropOp46
 70
     1
102
RTVSPost2010Prop47
 90
       50
102
RTVSPost2010PropOp47
 70
     1
102
RTVSPost2010Prop48
 90
       50
102
RTVSPost2010PropOp48
 70
     1
102
RTVSPost2010Prop49
280
     0
102
RTVSPost2010PropOp49
 70
     1
102
RTVSPost2010Prop50
 90
       50
102
RTVSPost2010PropOp50
 70
     1
102
RTVSPost2010Prop51ColorIndex
 90
      256
102
RTVSPost2010Prop51ColorRGB
 90
-16777216
102
RTVSPost2010PropOp51
 70
     0
102
RTVSPost2010Prop52
140
1.0
102
RTVSPost2010PropOp52
 70
     0
102
RTVSPost2010Prop53
 90
        2
102
RTVSPost2010PropOp53
 70
     1
102
RTVSPost2010Prop54
  1
strokes_ogs.tif
102
RTVSPost2010PropOp54
 70
     1
102
RTVSPost2010Prop55
280
     0
102
RTVSPost2010PropOp55
 70
     1
102
RTVSPost2010Prop56
140
1.0
102
RTVSPost2010PropOp56
 70
     1
102
RTVSPost2010Prop57
140
1.0
102
RTVSPost2010PropOp57
 70
     1
  0
XRECORD
  5
2FA
102
{ACAD_REACTORS
330
2F9
102
}
330
2F9
100
AcDbXrecord
280
     1
102
RTVSPropertyOp0
 70
     1
102
RTVSPropertyOp1
 70
     1
102
RTVSPropertyOp2
 70
     1
102
RTVSPropertyOp3
 70
     1
102
RTVSPropertyOp4
 70
     1
102
RTVSPropertyOp5
 70
     1
102
RTVSPropertyOp6
 70
     1
102
RTVSPropertyOp7
 70
     1
102
RTVSPropertyOp8
 70
     1
102
RTVSPropertyOp9
 70
     1
102
RTVSPropertyOp10
 70
     1
102
RTVSPropertyOp11
 70
     1
102
RTVSPropertyOp12
 70
     1
102
RTVSPropertyOp13
 70
     1
102
RTVSPropertyOp14
 70
     1
102
RTVSPropertyOp15
 70
     1
102
RTVSPropertyOp16
 70
     1
102
RTVSPropertyOp17
 70
     1
102
RTVSPropertyOp18
 70
     1
102
RTVSPropertyOp19
 70
     1
102
RTVSPropertyOp20
 70
     1
102
RTVSPropertyOp21
 70
     1
102
RTVSPropertyOp22
 70
     1
102
RTVSPropertyOp23
 70
     1
102
RTVSPropertyOp24
 70
     1
102
RTVSPropertyOp25
 70
     1
102
RTVSPropertyOp26
 70
     1
102
RTVSPropertyOp27
 70
     1
102
RTVSPropertyOp28
 70
     1
102
RTVSPropertyOp29
 70
     1
102
RTVSPropertyOp30
 70
     1
102
RTVSPropertyOp31
 70
     1
102
RTVSPropertyOp32
 70
     1
102
RTVSPropertyOp33
 70
     1
102
RTVSPropertyOp34
 70
     1
102
RTVSPropertyOp35
 70
     1
102
RTVSPropertyOp36
 70
     1
102
RTVSPropertyOp37
 70
     1
102
RTVSPropertyOp38
 70
     1
102
RTVSPropertyOp39
 70
     1
102
RTVSPropertyOp40
 70
     1
102
RTVSPropertyOp41
 70
     1
102
RTVSPropertyOp42
 70
     1
102
RTVSPropertyOp43
 70
     1
102
RTVSPropertyOp44
 70
     1
102
RTVSPropertyOp45
 70
     1
102
RTVSPropertyOp46
 70
     1
102
RTVSPropertyOp47
 70
     1
102
RTVSPropertyOp48
 70
     1
102
RTVSPropertyOp49
 70
     1
102
RTVSPropertyOp50
 70
     1
102
RTVSPropertyOp51
 70
     0
102
RTVSPropertyOp52
 70
     0
102
RTVSPropertyOp53
 70
     1
102
RTVSPropertyOp54
 70
     1
102
RTVSPropertyOp55
 70
     1
102
RTVSPropertyOp56
 70
     1
102
RTVSPropertyOp57
 70
     1
102
RTVSPost2010Prop28
280
     0
102
RTVSPost2010PropOp28
 70
     1
102
RTVSPost2010Prop29
280
     1
102
RTVSPost2010PropOp29
 70
     1
102
RTVSPost2010Prop30
280
     1
102
RTVSPost2010PropOp30
 70
     1
102
RTVSPost2010Prop31
280
     0
102
RTVSPost2010PropOp31
 70
     1
102
RTVSPost2010Prop32
280
     0
102
RTVSPost2010PropOp32
 70
     1
102
RTVSPost2010Prop33
280
     0
102
RTVSPost2010PropOp33
 70
     1
102
RTVSPost2010Prop34
280
     0
102
RTVSPost2010PropOp34
 70
     1
102
RTVSPost2010Prop35
280
     0
102
RTVSPost2010PropOp35
 70
     1
102
RTVSPost2010Prop36
280
     0
102
RTVSPost2010PropOp36
 70
     1
102
RTVSPost2010Prop37
 90
       50
102
RTVSPost2010PropOp37
 70
     1
102
RTVSPost2010Prop38
140
0.0
102
RTVSPost2010PropOp38
 70
     1
102
RTVSPost2010Prop39
140
1.0
102
RTVSPost2010PropOp39
 70
     1
102
RTVSPost2010Prop40
 90
        0
102
RTVSPost2010PropOp40
 70
     1
102
RTVSPost2010Prop41ColorIndex
 90
       18
102
RTVSPost2010Prop41ColorRGB
 90
        0
102
RTVSPost2010PropOp41
 70
     1
102
RTVSPost2010Prop42
 90
       50
102
RTVSPost2010PropOp42
 70
     1
102
RTVSPost2010Prop43
 90
        3
102
RTVSPost2010PropOp43
 70
     1
102
RTVSPost2010Prop44ColorIndex
 90
        5
102
RTVSPost2010Prop44ColorRGB
 90
      255
102
RTVSPost2010PropOp44
 70
     1
102
RTVSPost2010Prop45
280
     0
102
RTVSPost2010PropOp45
 70
     1
102
RTVSPost2010Prop46
 90
       50
102
RTVSPost2010PropOp46
 70
     1
102
RTVSPost2010Prop47
 90
       50
102
RTVSPost2010PropOp47
 70
     1
102
RTVSPost2010Prop48
 90
       50
102
RTVSPost2010PropOp48
 70
     1
102
RTVSPost2010Prop49
280
     0
102
RTVSPost2010PropOp49
 70
     1
102
RTVSPost2010Prop50
 90
       50
102
RTVSPost2010PropOp50
 70
     1
102
RTVSPost2010Prop51ColorIndex
 90
      256
102
RTVSPost2010Prop51ColorRGB
 90
-16777216
102
RTVSPost2010PropOp51
 70
     0
102
RTVSPost2010Prop52
140
1.0
102
RTVSPost2010PropOp52
 70
     0
102
RTVSPost2010Prop53
 90
        2
102
RTVSPost2010PropOp53
 70
     1
102
RTVSPost2010Prop54
  1
strokes_ogs.tif
102
RTVSPost2010PropOp54
 70
     1
102
RTVSPost2010Prop55
280
     0
102
RTVSPost2010PropOp55
 70
     1
102
RTVSPost2010Prop56
140
1.0
102
RTVSPost2010PropOp56
 70
     1
102
RTVSPost2010Prop57
140
1.0
102
RTVSPost2010PropOp57
 70
     1
  0
XRECORD
  5
2EA
102
{ACAD_REACTORS
330
2E9
102
}
330
2E9
100
AcDbXrecord
280
     1
102
RTVSPropertyOp0
 70
     1
102
RTVSPropertyOp1
 70
     1
102
RTVSPropertyOp2
 70
     1
102
RTVSPropertyOp3
 70
     1
102
RTVSPropertyOp4
 70
     1
102
RTVSPropertyOp5
 70
     1
102
RTVSPropertyOp6
 70
     1
102
RTVSPropertyOp7
 70
     1
102
RTVSPropertyOp8
 70
     1
102
RTVSPropertyOp9
 70
     1
102
RTVSPropertyOp10
 70
     1
102
RTVSPropertyOp11
 70
     1
102
RTVSPropertyOp12
 70
     1
102
RTVSPropertyOp13
 70
     1
102
RTVSPropertyOp14
 70
     1
102
RTVSPropertyOp15
 70
     1
102
RTVSPropertyOp16
 70
     1
102
RTVSPropertyOp17
 70
     1
102
RTVSPropertyOp18
 70
     1
102
RTVSPropertyOp19
 70
     1
102
RTVSPropertyOp20
 70
     1
102
RTVSPropertyOp21
 70
     1
102
RTVSPropertyOp22
 70
     1
102
RTVSPropertyOp23
 70
     1
102
RTVSPropertyOp24
 70
     1
102
RTVSPropertyOp25
 70
     1
102
RTVSPropertyOp26
 70
     1
102
RTVSPropertyOp27
 70
     1
102
RTVSPropertyOp28
 70
     1
102
RTVSPropertyOp29
 70
     1
102
RTVSPropertyOp30
 70
     1
102
RTVSPropertyOp31
 70
     1
102
RTVSPropertyOp32
 70
     1
102
RTVSPropertyOp33
 70
     1
102
RTVSPropertyOp34
 70
     1
102
RTVSPropertyOp35
 70
     1
102
RTVSPropertyOp36
 70
     1
102
RTVSPropertyOp37
 70
     1
102
RTVSPropertyOp38
 70
     1
102
RTVSPropertyOp39
 70
     1
102
RTVSPropertyOp40
 70
     1
102
RTVSPropertyOp41
 70
     1
102
RTVSPropertyOp42
 70
     1
102
RTVSPropertyOp43
 70
     1
102
RTVSPropertyOp44
 70
     1
102
RTVSPropertyOp45
 70
     1
102
RTVSPropertyOp46
 70
     1
102
RTVSPropertyOp47
 70
     1
102
RTVSPropertyOp48
 70
     1
102
RTVSPropertyOp49
 70
     1
102
RTVSPropertyOp50
 70
     1
102
RTVSPropertyOp51
 70
     0
102
RTVSPropertyOp52
 70
     0
102
RTVSPropertyOp53
 70
     1
102
RTVSPropertyOp54
 70
     1
102
RTVSPropertyOp55
 70
     1
102
RTVSPropertyOp56
 70
     1
102
RTVSPropertyOp57
 70
     1
102
RTVSPost2010Prop28
280
     0
102
RTVSPost2010PropOp28
 70
     1
102
RTVSPost2010Prop29
280
     1
102
RTVSPost2010PropOp29
 70
     1
102
RTVSPost2010Prop30
280
     1
102
RTVSPost2010PropOp30
 70
     1
102
RTVSPost2010Prop31
280
     0
102
RTVSPost2010PropOp31
 70
     1
102
RTVSPost2010Prop32
280
     0
102
RTVSPost2010PropOp32
 70
     1
102
RTVSPost2010Prop33
280
     0
102
RTVSPost2010PropOp33
 70
     1
102
RTVSPost2010Prop34
280
     0
102
RTVSPost2010PropOp34
 70
     1
102
RTVSPost2010Prop35
280
     0
102
RTVSPost2010PropOp35
 70
     1
102
RTVSPost2010Prop36
280
     0
102
RTVSPost2010PropOp36
 70
     1
102
RTVSPost2010Prop37
 90
       50
102
RTVSPost2010PropOp37
 70
     1
102
RTVSPost2010Prop38
140
0.0
102
RTVSPost2010PropOp38
 70
     1
102
RTVSPost2010Prop39
140
1.0
102
RTVSPost2010PropOp39
 70
     1
102
RTVSPost2010Prop40
 90
        0
102
RTVSPost2010PropOp40
 70
     1
102
RTVSPost2010Prop41ColorIndex
 90
       18
102
RTVSPost2010Prop41ColorRGB
 90
        0
102
RTVSPost2010PropOp41
 70
     1
102
RTVSPost2010Prop42
 90
       50
102
RTVSPost2010PropOp42
 70
     1
102
RTVSPost2010Prop43
 90
        3
102
RTVSPost2010PropOp43
 70
     1
102
RTVSPost2010Prop44ColorIndex
 90
        5
102
RTVSPost2010Prop44ColorRGB
 90
      255
102
RTVSPost2010PropOp44
 70
     1
102
RTVSPost2010Prop45
280
     0
102
RTVSPost2010PropOp45
 70
     1
102
RTVSPost2010Prop46
 90
       50
102
RTVSPost2010PropOp46
 70
     1
102
RTVSPost2010Prop47
 90
       50
102
RTVSPost2010PropOp47
 70
     1
102
RTVSPost2010Prop48
 90
       50
102
RTVSPost2010PropOp48
 70
     1
102
RTVSPost2010Prop49
280
     0
102
RTVSPost2010PropOp49
 70
     1
102
RTVSPost2010Prop50
 90
       50
102
RTVSPost2010PropOp50
 70
     1
102
RTVSPost2010Prop51ColorIndex
 90
      256
102
RTVSPost2010Prop51ColorRGB
 90
-16777216
102
RTVSPost2010PropOp51
 70
     0
102
RTVSPost2010Prop52
140
1.0
102
RTVSPost2010PropOp52
 70
     0
102
RTVSPost2010Prop53
 90
        2
102
RTVSPost2010PropOp53
 70
     1
102
RTVSPost2010Prop54
  1
strokes_ogs.tif
102
RTVSPost2010PropOp54
 70
     1
102
RTVSPost2010Prop55
280
     0
102
RTVSPost2010PropOp55
 70
     1
102
RTVSPost2010Prop56
140
1.0
102
RTVSPost2010PropOp56
 70
     1
102
RTVSPost2010Prop57
140
1.0
102
RTVSPost2010PropOp57
 70
     1
  0
XRECORD
  5
2DC
102
{ACAD_REACTORS
330
2DB
102
}
330
2DB
100
AcDbXrecord
280
     1
102
RTVSPropertyOp0
 70
     1
102
RTVSPropertyOp1
 70
     1
102
RTVSPropertyOp2
 70
     1
102
RTVSPropertyOp3
 70
     1
102
RTVSPropertyOp4
 70
     1
102
RTVSPropertyOp5
 70
     1
102
RTVSPropertyOp6
 70
     1
102
RTVSPropertyOp7
 70
     1
102
RTVSPropertyOp8
 70
     1
102
RTVSPropertyOp9
 70
     1
102
RTVSPropertyOp10
 70
     1
102
RTVSPropertyOp11
 70
     1
102
RTVSPropertyOp12
 70
     1
102
RTVSPropertyOp13
 70
     1
102
RTVSPropertyOp14
 70
     1
102
RTVSPropertyOp15
 70
     1
102
RTVSPropertyOp16
 70
     1
102
RTVSPropertyOp17
 70
     1
102
RTVSPropertyOp18
 70
     1
102
RTVSPropertyOp19
 70
     1
102
RTVSPropertyOp20
 70
     1
102
RTVSPropertyOp21
 70
     1
102
RTVSPropertyOp22
 70
     1
102
RTVSPropertyOp23
 70
     1
102
RTVSPropertyOp24
 70
     1
102
RTVSPropertyOp25
 70
     1
102
RTVSPropertyOp26
 70
     1
102
RTVSPropertyOp27
 70
     1
102
RTVSPropertyOp28
 70
     1
102
RTVSPropertyOp29
 70
     1
102
RTVSPropertyOp30
 70
     1
102
RTVSPropertyOp31
 70
     1
102
RTVSPropertyOp32
 70
     1
102
RTVSPropertyOp33
 70
     1
102
RTVSPropertyOp34
 70
     1
102
RTVSPropertyOp35
 70
     1
102
RTVSPropertyOp36
 70
     1
102
RTVSPropertyOp37
 70
     1
102
RTVSPropertyOp38
 70
     1
102
RTVSPropertyOp39
 70
     1
102
RTVSPropertyOp40
 70
     1
102
RTVSPropertyOp41
 70
     1
102
RTVSPropertyOp42
 70
     1
102
RTVSPropertyOp43
 70
     1
102
RTVSPropertyOp44
 70
     1
102
RTVSPropertyOp45
 70
     1
102
RTVSPropertyOp46
 70
     1
102
RTVSPropertyOp47
 70
     1
102
RTVSPropertyOp48
 70
     1
102
RTVSPropertyOp49
 70
     1
102
RTVSPropertyOp50
 70
     1
102
RTVSPropertyOp51
 70
     0
102
RTVSPropertyOp52
 70
     0
102
RTVSPropertyOp53
 70
     1
102
RTVSPropertyOp54
 70
     1
102
RTVSPropertyOp55
 70
     1
102
RTVSPropertyOp56
 70
     1
102
RTVSPropertyOp57
 70
     1
102
RTVSPost2010Prop28
280
     0
102
RTVSPost2010PropOp28
 70
     1
102
RTVSPost2010Prop29
280
     1
102
RTVSPost2010PropOp29
 70
     1
102
RTVSPost2010Prop30
280
     1
102
RTVSPost2010PropOp30
 70
     1
102
RTVSPost2010Prop31
280
     0
102
RTVSPost2010PropOp31
 70
     1
102
RTVSPost2010Prop32
280
     0
102
RTVSPost2010PropOp32
 70
     1
102
RTVSPost2010Prop33
280
     0
102
RTVSPost2010PropOp33
 70
     1
102
RTVSPost2010Prop34
280
     0
102
RTVSPost2010PropOp34
 70
     1
102
RTVSPost2010Prop35
280
     0
102
RTVSPost2010PropOp35
 70
     1
102
RTVSPost2010Prop36
280
     0
102
RTVSPost2010PropOp36
 70
     1
102
RTVSPost2010Prop37
 90
       50
102
RTVSPost2010PropOp37
 70
     1
102
RTVSPost2010Prop38
140
0.0
102
RTVSPost2010PropOp38
 70
     1
102
RTVSPost2010Prop39
140
1.0
102
RTVSPost2010PropOp39
 70
     1
102
RTVSPost2010Prop40
 90
        0
102
RTVSPost2010PropOp40
 70
     1
102
RTVSPost2010Prop41ColorIndex
 90
       18
102
RTVSPost2010Prop41ColorRGB
 90
        0
102
RTVSPost2010PropOp41
 70
     1
102
RTVSPost2010Prop42
 90
       50
102
RTVSPost2010PropOp42
 70
     1
102
RTVSPost2010Prop43
 90
        3
102
RTVSPost2010PropOp43
 70
     1
102
RTVSPost2010Prop44ColorIndex
 90
        5
102
RTVSPost2010Prop44ColorRGB
 90
      255
102
RTVSPost2010PropOp44
 70
     1
102
RTVSPost2010Prop45
280
     0
102
RTVSPost2010PropOp45
 70
     1
102
RTVSPost2010Prop46
 90
       50
102
RTVSPost2010PropOp46
 70
     1
102
RTVSPost2010Prop47
 90
       50
102
RTVSPost2010PropOp47
 70
     1
102
RTVSPost2010Prop48
 90
       50
102
RTVSPost2010PropOp48
 70
     1
102
RTVSPost2010Prop49
280
     0
102
RTVSPost2010PropOp49
 70
     1
102
RTVSPost2010Prop50
 90
       50
102
RTVSPost2010PropOp50
 70
     1
102
RTVSPost2010Prop51ColorIndex
 90
      256
102
RTVSPost2010Prop51ColorRGB
 90
-16777216
102
RTVSPost2010PropOp51
 70
     0
102
RTVSPost2010Prop52
140
1.0
102
RTVSPost2010PropOp52
 70
     0
102
RTVSPost2010Prop53
 90
        2
102
RTVSPost2010PropOp53
 70
     1
102
RTVSPost2010Prop54
  1
strokes_ogs.tif
102
RTVSPost2010PropOp54
 70
     1
102
RTVSPost2010Prop55
280
     0
102
RTVSPost2010PropOp55
 70
     1
102
RTVSPost2010Prop56
140
1.0
102
RTVSPost2010PropOp56
 70
     1
102
RTVSPost2010Prop57
140
1.0
102
RTVSPost2010PropOp57
 70
     1
  0
XRECORD
  5
2FC
102
{ACAD_REACTORS
330
2FB
102
}
330
2FB
100
AcDbXrecord
280
     1
102
RTVSPropertyOp0
 70
     1
102
RTVSPropertyOp1
 70
     1
102
RTVSPropertyOp2
 70
     1
102
RTVSPropertyOp3
 70
     1
102
RTVSPropertyOp4
 70
     1
102
RTVSPropertyOp5
 70
     1
102
RTVSPropertyOp6
 70
     1
102
RTVSPropertyOp7
 70
     1
102
RTVSPropertyOp8
 70
     1
102
RTVSPropertyOp9
 70
     1
102
RTVSPropertyOp10
 70
     1
102
RTVSPropertyOp11
 70
     1
102
RTVSPropertyOp12
 70
     1
102
RTVSPropertyOp13
 70
     1
102
RTVSPropertyOp14
 70
     1
102
RTVSPropertyOp15
 70
     1
102
RTVSPropertyOp16
 70
     1
102
RTVSPropertyOp17
 70
     1
102
RTVSPropertyOp18
 70
     1
102
RTVSPropertyOp19
 70
     1
102
RTVSPropertyOp20
 70
     1
102
RTVSPropertyOp21
 70
     1
102
RTVSPropertyOp22
 70
     1
102
RTVSPropertyOp23
 70
     1
102
RTVSPropertyOp24
 70
     1
102
RTVSPropertyOp25
 70
     1
102
RTVSPropertyOp26
 70
     1
102
RTVSPropertyOp27
 70
     1
102
RTVSPropertyOp28
 70
     1
102
RTVSPropertyOp29
 70
     1
102
RTVSPropertyOp30
 70
     1
102
RTVSPropertyOp31
 70
     1
102
RTVSPropertyOp32
 70
     1
102
RTVSPropertyOp33
 70
     1
102
RTVSPropertyOp34
 70
     1
102
RTVSPropertyOp35
 70
     1
102
RTVSPropertyOp36
 70
     1
102
RTVSPropertyOp37
 70
     1
102
RTVSPropertyOp38
 70
     1
102
RTVSPropertyOp39
 70
     1
102
RTVSPropertyOp40
 70
     1
102
RTVSPropertyOp41
 70
     1
102
RTVSPropertyOp42
 70
     1
102
RTVSPropertyOp43
 70
     1
102
RTVSPropertyOp44
 70
     1
102
RTVSPropertyOp45
 70
     1
102
RTVSPropertyOp46
 70
     1
102
RTVSPropertyOp47
 70
     1
102
RTVSPropertyOp48
 70
     1
102
RTVSPropertyOp49
 70
     1
102
RTVSPropertyOp50
 70
     1
102
RTVSPropertyOp51
 70
     0
102
RTVSPropertyOp52
 70
     0
102
RTVSPropertyOp53
 70
     1
102
RTVSPropertyOp54
 70
     1
102
RTVSPropertyOp55
 70
     1
102
RTVSPropertyOp56
 70
     1
102
RTVSPropertyOp57
 70
     1
102
RTVSPost2010Prop28
280
     0
102
RTVSPost2010PropOp28
 70
     1
102
RTVSPost2010Prop29
280
     1
102
RTVSPost2010PropOp29
 70
     1
102
RTVSPost2010Prop30
280
     1
102
RTVSPost2010PropOp30
 70
     1
102
RTVSPost2010Prop31
280
     0
102
RTVSPost2010PropOp31
 70
     1
102
RTVSPost2010Prop32
280
     0
102
RTVSPost2010PropOp32
 70
     1
102
RTVSPost2010Prop33
280
     0
102
RTVSPost2010PropOp33
 70
     1
102
RTVSPost2010Prop34
280
     0
102
RTVSPost2010PropOp34
 70
     1
102
RTVSPost2010Prop35
280
     0
102
RTVSPost2010PropOp35
 70
     1
102
RTVSPost2010Prop36
280
     0
102
RTVSPost2010PropOp36
 70
     1
102
RTVSPost2010Prop37
 90
       50
102
RTVSPost2010PropOp37
 70
     1
102
RTVSPost2010Prop38
140
0.0
102
RTVSPost2010PropOp38
 70
     1
102
RTVSPost2010Prop39
140
1.0
102
RTVSPost2010PropOp39
 70
     1
102
RTVSPost2010Prop40
 90
        0
102
RTVSPost2010PropOp40
 70
     1
102
RTVSPost2010Prop41ColorIndex
 90
       18
102
RTVSPost2010Prop41ColorRGB
 90
        0
102
RTVSPost2010PropOp41
 70
     1
102
RTVSPost2010Prop42
 90
       50
102
RTVSPost2010PropOp42
 70
     1
102
RTVSPost2010Prop43
 90
        3
102
RTVSPost2010PropOp43
 70
     1
102
RTVSPost2010Prop44ColorIndex
 90
        5
102
RTVSPost2010Prop44ColorRGB
 90
      255
102
RTVSPost2010PropOp44
 70
     1
102
RTVSPost2010Prop45
280
     0
102
RTVSPost2010PropOp45
 70
     1
102
RTVSPost2010Prop46
 90
       50
102
RTVSPost2010PropOp46
 70
     1
102
RTVSPost2010Prop47
 90
       50
102
RTVSPost2010PropOp47
 70
     1
102
RTVSPost2010Prop48
 90
       50
102
RTVSPost2010PropOp48
 70
     1
102
RTVSPost2010Prop49
280
     0
102
RTVSPost2010PropOp49
 70
     1
102
RTVSPost2010Prop50
 90
       50
102
RTVSPost2010PropOp50
 70
     1
102
RTVSPost2010Prop51ColorIndex
 90
      256
102
RTVSPost2010Prop51ColorRGB
 90
-16777216
102
RTVSPost2010PropOp51
 70
     0
102
RTVSPost2010Prop52
140
1.0
102
RTVSPost2010PropOp52
 70
     0
102
RTVSPost2010Prop53
 90
        2
102
RTVSPost2010PropOp53
 70
     1
102
RTVSPost2010Prop54
  1
strokes_ogs.tif
102
RTVSPost2010PropOp54
 70
     1
102
RTVSPost2010Prop55
280
     0
102
RTVSPost2010PropOp55
 70
     1
102
RTVSPost2010Prop56
140
1.0
102
RTVSPost2010PropOp56
 70
     1
102
RTVSPost2010Prop57
140
1.0
102
RTVSPost2010PropOp57
 70
     1
  0
ENDSEC
  0
EOF
