  0
SECTION
  2
HEADER
  9
$ACADVER
  1
AC1018
  9
$ACADMAINTVER
 70
     0
  9
$DWGCODEPAGE
  3
ANSI_1252
  9
$INSBASE
 10
0.0
 20
0.0
 30
0.0
  9
$EXTMIN
 10
-423.150008425834
 20
-255.8534542469851
 30
0.0
  9
$EXTMAX
 10
-126.1500084258359
 20
-45.85345424698494
 30
0.0
  9
$LIMMIN
 10
0.0
 20
0.0
  9
$LIMMAX
 10
12.0
 20
9.0
  9
$ORTHOMODE
 70
     0
  9
$REGENMODE
 70
     1
  9
$FILLMODE
 70
     1
  9
$QTEXTMODE
 70
     0
  9
$MIRRTEXT
 70
     1
  9
$LTSCALE
 40
1.0
  9
$ATTMODE
 70
     1
  9
$TEXTSIZE
 40
0.2
  9
$TRACEWID
 40
0.05
  9
$TEXTSTYLE
  7
Standard
  9
$CLAYER
  8
0
  9
$CELTYPE
  6
ByLayer
  9
$CECOLOR
 62
   256
  9
$CELTSCALE
 40
1.0
  9
$DISPSILH
 70
     0
  9
$DIMSCALE
 40
1.0
  9
$DIMASZ
 40
0.18
  9
$DIMEXO
 40
0.0625
  9
$DIMDLI
 40
0.38
  9
$DIMRND
 40
0.0
  9
$DIMDLE
 40
0.0
  9
$DIMEXE
 40
0.18
  9
$DIMTP
 40
0.0
  9
$DIMTM
 40
0.0
  9
$DIMTXT
 40
0.18
  9
$DIMCEN
 40
0.09
  9
$DIMTSZ
 40
0.0
  9
$DIMTOL
 70
     0
  9
$DIMLIM
 70
     0
  9
$DIMTIH
 70
     1
  9
$DIMTOH
 70
     1
  9
$DIMSE1
 70
     0
  9
$DIMSE2
 70
     0
  9
$DIMTAD
 70
     0
  9
$DIMZIN
 70
     0
  9
$DIMBLK
  1

  9
$DIMASO
 70
     1
  9
$DIMSHO
 70
     1
  9
$DIMPOST
  1

  9
$DIMAPOST
  1

  9
$DIMALT
 70
     0
  9
$DIMALTD
 70
     2
  9
$DIMALTF
 40
25.4
  9
$DIMLFAC
 40
1.0
  9
$DIMTOFL
 70
     0
  9
$DIMTVP
 40
0.0
  9
$DIMTIX
 70
     0
  9
$DIMSOXD
 70
     0
  9
$DIMSAH
 70
     0
  9
$DIMBLK1
  1

  9
$DIMBLK2
  1

  9
$DIMSTYLE
  2
Standard
  9
$DIMCLRD
 70
     0
  9
$DIMCLRE
 70
     0
  9
$DIMCLRT
 70
     0
  9
$DIMTFAC
 40
1.0
  9
$DIMGAP
 40
0.09
  9
$DIMJUST
 70
     0
  9
$DIMSD1
 70
     0
  9
$DIMSD2
 70
     0
  9
$DIMTOLJ
 70
     1
  9
$DIMTZIN
 70
     0
  9
$DIMALTZ
 70
     0
  9
$DIMALTTZ
 70
     0
  9
$DIMUPT
 70
     0
  9
$DIMDEC
 70
     4
  9
$DIMTDEC
 70
     4
  9
$DIMALTU
 70
     2
  9
$DIMALTTD
 70
     2
  9
$DIMTXSTY
  7
Standard
  9
$DIMAUNIT
 70
     0
  9
$DIMADEC
 70
     0
  9
$DIMALTRND
 40
0.0
  9
$DIMAZIN
 70
     0
  9
$DIMDSEP
 70
    46
  9
$DIMATFIT
 70
     3
  9
$DIMFRAC
 70
     0
  9
$DIMLDRBLK
  1

  9
$DIMLUNIT
 70
     2
  9
$DIMLWD
 70
    -2
  9
$DIMLWE
 70
    -2
  9
$DIMTMOVE
 70
     0
  9
$LUNITS
 70
     2
  9
$LUPREC
 70
     4
  9
$SKETCHINC
 40
0.1
  9
$FILLETRAD
 40
0.5
  9
$AUNITS
 70
     0
  9
$AUPREC
 70
     0
  9
$MENU
  1
.
  9
$ELEVATION
 40
0.0
  9
$PELEVATION
 40
0.0
  9
$THICKNESS
 40
0.0
  9
$LIMCHECK
 70
     0
  9
$CHAMFERA
 40
0.5
  9
$CHAMFERB
 40
0.5
  9
$CHAMFERC
 40
1.0
  9
$CHAMFERD
 40
0.0
  9
$SKPOLY
 70
     0
  9
$TDCREATE
 40
2458442.537313912
  9
$TDUCREATE
 40
2458442.495647246
  9
$TDUPDATE
 40
2458442.537314456
  9
$TDUUPDATE
 40
2458442.495647789
  9
$TDINDWG
 40
0.0000000116
  9
$TDUSRTIMER
 40
0.0000000116
  9
$USRTIMER
 70
     1
  9
$ANGBASE
 50
0.0
  9
$ANGDIR
 70
     0
  9
$PDMODE
 70
     0
  9
$PDSIZE
 40
0.0
  9
$PLINEWID
 40
0.0
  9
$SPLFRAME
 70
     0
  9
$SPLINETYPE
 70
     6
  9
$SPLINESEGS
 70
     8
  9
$HANDSEED
  5
28B
  9
$SURFTAB1
 70
     6
  9
$SURFTAB2
 70
     6
  9
$SURFTYPE
 70
     6
  9
$SURFU
 70
     6
  9
$SURFV
 70
     6
  9
$UCSBASE
  2

  9
$UCSNAME
  2

  9
$UCSORG
 10
0.0
 20
0.0
 30
0.0
  9
$UCSXDIR
 10
1.0
 20
0.0
 30
0.0
  9
$UCSYDIR
 10
0.0
 20
1.0
 30
0.0
  9
$UCSORTHOREF
  2

  9
$UCSORTHOVIEW
 70
     0
  9
$UCSORGTOP
 10
0.0
 20
0.0
 30
0.0
  9
$UCSORGBOTTOM
 10
0.0
 20
0.0
 30
0.0
  9
$UCSORGLEFT
 10
0.0
 20
0.0
 30
0.0
  9
$UCSORGRIGHT
 10
0.0
 20
0.0
 30
0.0
  9
$UCSORGFRONT
 10
0.0
 20
0.0
 30
0.0
  9
$UCSORGBACK
 10
0.0
 20
0.0
 30
0.0
  9
$PUCSBASE
  2

  9
$PUCSNAME
  2

  9
$PUCSORG
 10
0.0
 20
0.0
 30
0.0
  9
$PUCSXDIR
 10
1.0
 20
0.0
 30
0.0
  9
$PUCSYDIR
 10
0.0
 20
1.0
 30
0.0
  9
$PUCSORTHOREF
  2

  9
$PUCSORTHOVIEW
 70
     0
  9
$PUCSORGTOP
 10
0.0
 20
0.0
 30
0.0
  9
$PUCSORGBOTTOM
 10
0.0
 20
0.0
 30
0.0
  9
$PUCSORGLEFT
 10
0.0
 20
0.0
 30
0.0
  9
$PUCSORGRIGHT
 10
0.0
 20
0.0
 30
0.0
  9
$PUCSORGFRONT
 10
0.0
 20
0.0
 30
0.0
  9
$PUCSORGBACK
 10
0.0
 20
0.0
 30
0.0
  9
$USERI1
 70
     0
  9
$USERI2
 70
     0
  9
$USERI3
 70
     0
  9
$USERI4
 70
     0
  9
$USERI5
 70
     0
  9
$USERR1
 40
18.1
  9
$USERR2
 40
0.0
  9
$USERR3
 40
0.0
  9
$USERR4
 40
0.0
  9
$USERR5
 40
0.0
  9
$WORLDVIEW
 70
     1
  9
$SHADEDGE
 70
     3
  9
$SHADEDIF
 70
    70
  9
$TILEMODE
 70
     1
  9
$MAXACTVP
 70
    64
  9
$PINSBASE
 10
0.0
 20
0.0
 30
0.0
  9
$PLIMCHECK
 70
     0
  9
$PEXTMIN
 10
1.00000000000000E+20
 20
1.00000000000000E+20
 30
1.00000000000000E+20
  9
$PEXTMAX
 10
-1.00000000000000E+20
 20
-1.00000000000000E+20
 30
-1.00000000000000E+20
  9
$PLIMMIN
 10
0.0
 20
0.0
  9
$PLIMMAX
 10
12.0
 20
9.0
  9
$UNITMODE
 70
     0
  9
$VISRETAIN
 70
     1
  9
$PLINEGEN
 70
     0
  9
$PSLTSCALE
 70
     1
  9
$TREEDEPTH
 70
  3020
  9
$CMLSTYLE
  2
Standard
  9
$CMLJUST
 70
     0
  9
$CMLSCALE
 40
1.0
  9
$PROXYGRAPHICS
 70
     1
  9
$MEASUREMENT
 70
     1
  9
$CELWEIGHT
370
    -1
  9
$ENDCAPS
280
     0
  9
$JOINSTYLE
280
     0
  9
$LWDISPLAY
290
     0
  9
$INSUNITS
 70
     4
  9
$HYPERLINKBASE
  1

  9
$STYLESHEET
  1

  9
$XEDIT
290
     1
  9
$CEPSNTYPE
380
     0
  9
$PSTYLEMODE
290
     1
  9
$FINGERPRINTGUID
  2
{B8350ACA-575D-4D69-8A03-3BE86E074993}
  9
$VERSIONGUID
  2
{FAEB1C32-E019-11D5-929B-00C0DF256EC4}
  9
$EXTNAMES
290
     1
  9
$PSVPSCALE
 40
0.0
  9
$OLESTARTUP
290
     0
  9
$SORTENTS
280
   127
  9
$INDEXCTL
280
     0
  9
$HIDETEXT
280
     1
  9
$XCLIPFRAME
290
     0
  9
$HALOGAP
280
     0
  9
$OBSCOLOR
 70
   257
  9
$OBSLTYPE
280
     0
  9
$INTERSECTIONDISPLAY
280
     0
  9
$INTERSECTIONCOLOR
 70
   257
  9
$DIMASSOC
280
     2
  9
$PROJECTNAME
  1

  0
ENDSEC
  0
SECTION
  2
CLASSES
  0
CLASS
  1
ACDBDICTIONARYWDFLT
  2
AcDbDictionaryWithDefault
  3
ObjectDBX Classes
 90
        0
 91
        4
280
     0
281
     0
  0
CLASS
  1
VISUALSTYLE
  2
AcDbVisualStyle
  3
ObjectDBX Classes
 90
     4095
 91
        4
280
     0
281
     0
  0
CLASS
  1
MATERIAL
  2
AcDbMaterial
  3
ObjectDBX Classes
 90
     1153
 91
        4
280
     0
281
     0
  0
ENDSEC
  0
SECTION
  2
TABLES
  0
TABLE
  2
VPORT
  5
8
330
0
100
AcDbSymbolTable
 70
     1
  0
VPORT
  5
29
330
8
100
AcDbSymbolTableRecord
100
AcDbViewportTableRecord
  2
*Active
 70
     0
 10
0.0
 20
0.0
 11
1.0
 21
1.0
 12
-274.650008425835
 22
-150.853454246985
 13
0.0
 23
0.0
 14
0.5
 24
0.5
 15
0.5
 25
0.5
 16
0.0
 26
0.0
 36
1.0
 17
0.0
 27
0.0
 37
0.0
 40
231.0000000000002
 41
1.60267857142857
 42
50.0
 43
0.0
 44
0.0
 50
0.0
 51
0.0
 71
     0
 72
   100
 73
     1
 74
     3
 75
     0
 76
     0
 77
     0
 78
     0
281
     0
 65
     1
110
0.0
120
0.0
130
0.0
111
1.0
121
0.0
131
0.0
112
0.0
122
1.0
132
0.0
 79
     0
146
0.0
  0
ENDTAB
  0
TABLE
  2
LTYPE
  5
5
330
0
100
AcDbSymbolTable
 70
     8
  0
LTYPE
  5
14
330
5
100
AcDbSymbolTableRecord
100
AcDbLinetypeTableRecord
  2
ByBlock
 70
     0
  3

 72
    65
 73
     0
 40
0.0
  0
LTYPE
  5
15
330
5
100
AcDbSymbolTableRecord
100
AcDbLinetypeTableRecord
  2
ByLayer
 70
     0
  3

 72
    65
 73
     0
 40
0.0
  0
LTYPE
  5
16
330
5
100
AcDbSymbolTableRecord
100
AcDbLinetypeTableRecord
  2
Continuous
 70
     0
  3
Solid line
 72
    65
 73
     0
 40
0.0
  0
LTYPE
  5
3F
330
5
100
AcDbSymbolTableRecord
100
AcDbLinetypeTableRecord
  2
DASHED
 70
     0
  3
Dashed
 72
    65
 73
     2
 40
15.0
 49
7.0
 74
     0
 49
-8.0
 74
     0
  0
LTYPE
  5
40
330
5
100
AcDbSymbolTableRecord
100
AcDbLinetypeTableRecord
  2
DOTTED
 70
     0
  3
Dotted
 72
    65
 73
     2
 40
1.0
 49
0.0
 74
     0
 49
-1.0
 74
     0
  0
LTYPE
  5
41
330
5
100
AcDbSymbolTableRecord
100
AcDbLinetypeTableRecord
  2
DOT_CENTER
 70
     0
  3
Dot_Center
 72
    65
 73
     4
 40
14.0
 49
12.0
 74
     0
 49
-1.0
 74
     0
 49
0.0
 74
     0
 49
-1.0
 74
     0
  0
LTYPE
  5
42
330
5
100
AcDbSymbolTableRecord
100
AcDbLinetypeTableRecord
  2
LONG_DASHED
 70
     0
  3
Long_Dashed
 72
    65
 73
     2
 40
15.0
 49
10.0
 74
     0
 49
-5.0
 74
     0
  0
LTYPE
  5
43
330
5
100
AcDbSymbolTableRecord
100
AcDbLinetypeTableRecord
  2
DASH_CENTER
 70
     0
  3
Dash_Center
 72
    65
 73
     4
 40
14.0
 49
11.0
 74
     0
 49
-1.0
 74
     0
 49
1.0
 74
     0
 49
-1.0
 74
     0
  0
LTYPE
  5
44
330
5
100
AcDbSymbolTableRecord
100
AcDbLinetypeTableRecord
  2
PHANTOM
 70
     0
  3
Phantom
 72
    65
 73
     6
 40
13.0
 49
10.0
 74
     0
 49
-1.0
 74
     0
 49
0.0
 74
     0
 49
-1.0
 74
     0
 49
0.0
 74
     0
 49
-1.0
 74
     0
  0
LTYPE
  5
45
330
5
100
AcDbSymbolTableRecord
100
AcDbLinetypeTableRecord
  2
CENTER_DASH_DASH
 70
     0
  3
Center_Dash_Dash
 72
    65
 73
     6
 40
14.0
 49
9.0
 74
     0
 49
-1.0
 74
     0
 49
1.0
 74
     0
 49
-1.0
 74
     0
 49
1.0
 74
     0
 49
-1.0
 74
     0
  0
ENDTAB
  0
TABLE
  2
LAYER
  5
2
330
0
100
AcDbSymbolTable
 70
     2
  0
LAYER
  5
10
330
2
100
AcDbSymbolTableRecord
100
AcDbLayerTableRecord
  2
0
 70
     0
 62
     7
  6
Continuous
370
    -3
390
F
  0
LAYER
  5
46
330
2
100
AcDbSymbolTableRecord
100
AcDbLayerTableRecord
  2
1
 70
     0
 62
     7
  6
Continuous
370
    -3
390
F
  0
ENDTAB
  0
TABLE
  2
STYLE
  5
3
330
0
100
AcDbSymbolTable
 70
     5
  0
STYLE
  5
11
330
3
100
AcDbSymbolTableRecord
100
AcDbTextStyleTableRecord
  2
Standard
 70
     0
 40
0.0
 41
1.0
 50
0.0
 71
     0
 42
0.2
  3
txt
  4

  0
STYLE
  5
AC
330
3
100
AcDbSymbolTableRecord
100
AcDbTextStyleTableRecord
  2
CONVERTER_11
 70
     0
 40
0.0
 41
0.9
 50
0.0
 71
     0
 42
0.2
  3
txt.shx
  4

  0
STYLE
  5
226
330
3
100
AcDbSymbolTableRecord
100
AcDbTextStyleTableRecord
  2
CONVERTER_12
 70
     0
 40
0.0
 41
0.81
 50
0.0
 71
     0
 42
0.2
  3
txt.shx
  4

  0
STYLE
  5
23C
330
3
100
AcDbSymbolTableRecord
100
AcDbTextStyleTableRecord
  2
CONVERTER_13
 70
     0
 40
0.0
 41
0.72
 50
0.0
 71
     0
 42
0.2
  3
txt.shx
  4

  0
STYLE
  5
23F
330
3
100
AcDbSymbolTableRecord
100
AcDbTextStyleTableRecord
  2
CONVERTER_14
 70
     0
 40
0.0
 41
0.855
 50
0.0
 71
     0
 42
0.2
  3
txt.shx
  4

  0
ENDTAB
  0
TABLE
  2
VIEW
  5
6
330
0
100
AcDbSymbolTable
 70
     0
  0
ENDTAB
  0
TABLE
  2
UCS
  5
7
330
0
100
AcDbSymbolTable
 70
     0
  0
ENDTAB
  0
TABLE
  2
APPID
  5
9
330
0
100
AcDbSymbolTable
 70
     1
  0
APPID
  5
12
330
9
100
AcDbSymbolTableRecord
100
AcDbRegAppTableRecord
  2
ACAD
 70
     0
  0
ENDTAB
  0
TABLE
  2
DIMSTYLE
  5
A
330
0
100
AcDbSymbolTable
 70
     4
100
AcDbDimStyleTable
  0
DIMSTYLE
105
27
330
A
100
AcDbSymbolTableRecord
100
AcDbDimStyleTableRecord
  2
Standard
 70
     0
178
     0
340
11
  0
DIMSTYLE
105
C4
102
{ACAD_REACTORS
330
C5
102
}
330
A
100
AcDbSymbolTableRecord
100
AcDbDimStyleTableRecord
  2
ME10_DIM_10
 70
     0
 41
1.75
 42
0.0
 44
0.75
 73
     0
 74
     0
 77
     1
 78
     8
140
1.75
147
0.75
172
     1
173
     1
174
     1
175
     1
176
     2
177
     2
271
     1
178
     3
271
     1
340
AC
  0
DIMSTYLE
105
11B
102
{ACAD_REACTORS
330
11C
102
}
330
A
100
AcDbSymbolTableRecord
100
AcDbDimStyleTableRecord
  2
ME10_DIM_11
 70
     0
 41
1.75
 42
0.0
 44
0.75
 73
     0
 74
     0
 77
     1
 78
     8
140
1.75
147
0.75
172
     1
173
     1
174
     1
175
     1
176
     2
177
     2
271
     1
178
     3
271
     1
340
AC
  0
DIMSTYLE
105
128
102
{ACAD_REACTORS
330
129
102
}
330
A
100
AcDbSymbolTableRecord
100
AcDbDimStyleTableRecord
  2
ME10_DIM_12
 70
     0
 41
1.75
 42
0.0
 44
0.75
 73
     0
 74
     0
 77
     1
 78
     8
140
1.75
147
0.75
172
     1
173
     1
174
     1
175
     1
176
     2
177
     2
271
     1
178
     3
271
     1
340
AC
  0
ENDTAB
  0
TABLE
  2
BLOCK_RECORD
  5
1
330
0
100
AcDbSymbolTable
 70
    20
  0
BLOCK_RECORD
  5
1F
330
1
100
AcDbSymbolTableRecord
100
AcDbBlockTableRecord
  2
*Model_Space
340
22
  0
BLOCK_RECORD
  5
1B
330
1
100
AcDbSymbolTableRecord
100
AcDbBlockTableRecord
  2
*Paper_Space
340
1E
  0
BLOCK_RECORD
  5
23
330
1
100
AcDbSymbolTableRecord
100
AcDbBlockTableRecord
  2
*Paper_Space0
340
26
  0
BLOCK_RECORD
  5
47
330
1
100
AcDbSymbolTableRecord
100
AcDbBlockTableRecord
  2
UCT_EM_20X9-select__1
340
0
102
{BLKREFS
331
4B
102
}
  0
BLOCK_RECORD
  5
4A
330
1
100
AcDbSymbolTableRecord
100
AcDbBlockTableRecord
  2
Allg1
340
0
102
{BLKREFS
331
7D
102
}
  0
BLOCK_RECORD
  5
4E
330
1
100
AcDbSymbolTableRecord
100
AcDbBlockTableRecord
  2
UCT_EM_20X9-select__2
340
0
102
{BLKREFS
331
52
102
}
  0
BLOCK_RECORD
  5
51
330
1
100
AcDbSymbolTableRecord
100
AcDbBlockTableRecord
  2
Drfsicht1
340
0
102
{BLKREFS
331
7E
102
}
  0
BLOCK_RECORD
  5
55
330
1
100
AcDbSymbolTableRecord
100
AcDbBlockTableRecord
  2
UCT_EM_20X9-select__3
340
0
102
{BLKREFS
331
59
102
}
  0
BLOCK_RECORD
  5
58
330
1
100
AcDbSymbolTableRecord
100
AcDbBlockTableRecord
  2
Rckans1
340
0
102
{BLKREFS
331
7F
102
}
  0
BLOCK_RECORD
  5
5C
330
1
100
AcDbSymbolTableRecord
100
AcDbBlockTableRecord
  2
UCT_EM_20X9-select__4
340
0
102
{BLKREFS
331
60
102
}
  0
BLOCK_RECORD
  5
5F
330
1
100
AcDbSymbolTableRecord
100
AcDbBlockTableRecord
  2
SA_Links1
340
0
102
{BLKREFS
331
80
102
}
  0
BLOCK_RECORD
  5
63
330
1
100
AcDbSymbolTableRecord
100
AcDbBlockTableRecord
  2
UCT_EM_20X9-select__5
340
0
102
{BLKREFS
331
67
102
}
  0
BLOCK_RECORD
  5
66
330
1
100
AcDbSymbolTableRecord
100
AcDbBlockTableRecord
  2
SA_Rechts1
340
0
102
{BLKREFS
331
81
102
}
  0
BLOCK_RECORD
  5
6A
330
1
100
AcDbSymbolTableRecord
100
AcDbBlockTableRecord
  2
UCT_EM_20X9-select__6
340
0
102
{BLKREFS
331
6E
102
}
  0
BLOCK_RECORD
  5
6D
330
1
100
AcDbSymbolTableRecord
100
AcDbBlockTableRecord
  2
Vordans1
340
0
102
{BLKREFS
331
82
102
}
  0
BLOCK_RECORD
  5
71
330
1
100
AcDbSymbolTableRecord
100
AcDbBlockTableRecord
  2
_rahmen
340
0
102
{BLKREFS
331
78
102
}
  0
BLOCK_RECORD
  5
74
330
1
100
AcDbSymbolTableRecord
100
AcDbBlockTableRecord
  2
_punkt
340
0
102
{BLKREFS
331
79
102
}
  0
BLOCK_RECORD
  5
77
330
1
100
AcDbSymbolTableRecord
100
AcDbBlockTableRecord
  2
A4I_CS
340
0
102
{BLKREFS
331
83
102
}
  0
BLOCK_RECORD
  5
7C
330
1
100
AcDbSymbolTableRecord
100
AcDbBlockTableRecord
  2
1
340
0
102
{BLKREFS
331
86
102
}
  0
BLOCK_RECORD
  5
BB
330
1
100
AcDbSymbolTableRecord
100
AcDbBlockTableRecord
  2
*D17
340
0
  0
BLOCK_RECORD
  5
112
330
1
100
AcDbSymbolTableRecord
100
AcDbBlockTableRecord
  2
*D18
340
0
  0
BLOCK_RECORD
  5
11D
330
1
100
AcDbSymbolTableRecord
100
AcDbBlockTableRecord
  2
*D19
340
0
  0
ENDTAB
  0
ENDSEC
  0
SECTION
  2
BLOCKS
  0
BLOCK
  5
20
330
1F
100
AcDbEntity
  8
0
100
AcDbBlockBegin
  2
*Model_Space
 70
     0
 10
0.0
 20
0.0
 30
0.0
  3
*Model_Space
  1

  0
ENDBLK
  5
21
330
1F
100
AcDbEntity
  8
0
100
AcDbBlockEnd
  0
BLOCK
  5
1C
330
1B
100
AcDbEntity
 67
     1
  8
0
100
AcDbBlockBegin
  2
*Paper_Space
 70
     0
 10
0.0
 20
0.0
 30
0.0
  3
*Paper_Space
  1

  0
ENDBLK
  5
1D
330
1B
100
AcDbEntity
 67
     1
  8
0
100
AcDbBlockEnd
  0
BLOCK
  5
24
330
23
100
AcDbEntity
  8
0
100
AcDbBlockBegin
  2
*Paper_Space0
 70
     0
 10
0.0
 20
0.0
 30
0.0
  3
*Paper_Space0
  1

  0
ENDBLK
  5
25
330
23
100
AcDbEntity
  8
0
100
AcDbBlockEnd
  0
BLOCK
  5
48
330
47
100
AcDbEntity
  8
0
100
AcDbBlockBegin
  2
UCT_EM_20X9-select__1
 70
     0
 10
-111.7788131010299
 20
-91.86807624126783
 30
0.0
  3
UCT_EM_20X9-select__1
  1

  0
LINE
  5
87
330
47
100
AcDbEntity
  8
0
  6
Continuous
 62
     7
100
AcDbLine
 10
-109.1807368896769
 20
-90.63987034237884
 30
0.0
 11
-109.4405445108123
 21
-90.56487034237881
 31
0.0
  0
LINE
  5
88
330
47
100
AcDbEntity
  8
0
  6
Continuous
 62
     7
100
AcDbLine
 10
-104.5563138715704
 20
-90.69636531047122
 30
0.0
 11
-105.2167581512605
 21
-91.26832683446698
 31
0.0
  0
LINE
  5
89
330
47
100
AcDbEntity
  8
0
  6
Continuous
 62
     7
100
AcDbLine
 10
-105.6300327341604
 20
-90.38640937329599
 30
0.0
 11
-105.2167581512605
 21
-91.26832683446698
 31
0.0
  0
LINE
  5
8A
330
47
100
AcDbEntity
  8
0
  6
Continuous
 62
     7
100
AcDbLine
 10
-104.0711870073484
 20
-90.83640937329602
 30
0.0
 11
-105.6300327341604
 21
-90.38640937329599
 31
0.0
  0
LINE
  5
8B
330
47
100
AcDbEntity
  8
0
  6
Continuous
 62
     7
100
AcDbLine
 10
-104.0711870073484
 20
-90.83640937329602
 30
0.0
 11
-104.1080135417509
 21
-89.77176091021866
 31
0.0
  0
LINE
  5
8C
330
47
100
AcDbEntity
  8
0
  6
Continuous
 62
     7
100
AcDbLine
 10
-109.8539879362269
 20
-89.84240019670696
 30
0.0
 11
-110.0036595766362
 21
-89.97201963952747
 31
0.0
  0
LINE
  5
8D
330
47
100
AcDbEntity
  8
0
  6
Continuous
 62
     7
100
AcDbLine
 10
-109.806692791318
 20
-89.94332683446689
 30
0.0
 11
-110.2199673742179
 21
-89.06140937329592
 31
0.0
  0
LINE
  5
8E
330
47
100
AcDbEntity
  8
0
  6
Continuous
 62
     7
100
AcDbLine
 10
-111.7788131010299
 20
-88.61140937329588
 30
0.0
 11
-111.6413746035728
 21
-87.59706689174578
 31
0.0
  0
LINE
  5
8F
330
47
100
AcDbEntity
  8
0
  6
Continuous
 62
     2
100
AcDbLine
 10
-108.8920617550821
 20
-90.45685764048665
 30
0.0
 11
-108.0155445108116
 21
-89.69777144009329
 31
0.0
  0
LINE
  5
90
330
47
100
AcDbEntity
  8
0
  6
Continuous
 62
     7
100
AcDbLine
 10
-109.4405445108122
 20
-89.28640937329621
 30
0.0
 11
-108.8920617550821
 21
-90.45685764048665
 31
0.0
  0
LINE
  5
91
330
47
100
AcDbEntity
  8
0
  6
Continuous
 62
     7
100
AcDbLine
 10
-110.2199673742179
 20
-89.06140937329592
 30
0.0
 11
-111.7788131010299
 21
-88.61140937329588
 31
0.0
  0
LINE
  5
92
330
47
100
AcDbEntity
  8
0
  6
Continuous
 62
     7
100
AcDbLine
 10
-108.903256503368
 20
-90.62799040465735
 30
0.0
 11
-107.8757352508344
 21
-89.73813089703481
 31
0.0
  0
LINE
  5
93
330
47
100
AcDbEntity
  8
0
  6
Continuous
 62
     7
100
AcDbLine
 10
-105.6300327341604
 20
-90.38640937329599
 30
0.0
 11
-106.4094555975664
 21
-90.16140937329598
 31
0.0
  0
LINE
  5
94
330
47
100
AcDbEntity
  8
0
  6
Continuous
 62
     7
100
AcDbLine
 10
-105.8609728418366
 20
-91.33185764048669
 30
0.0
 11
-106.4094555975664
 21
-90.16140937329598
 31
0.0
  0
LINE
  5
95
330
47
100
AcDbEntity
  8
0
  6
Continuous
 62
     7
100
AcDbLine
 10
-106.4094555975664
 20
-90.16140937329598
 30
0.0
 11
-109.4405445108122
 21
-89.28640937329621
 31
0.0
  0
LINE
  5
96
330
47
100
AcDbEntity
  8
0
  6
Continuous
 62
     7
100
AcDbLine
 10
-109.4405445108122
 20
-89.28640937329621
 30
0.0
 11
-110.2199673742179
 21
-89.06140937329592
 31
0.0
  0
LINE
  5
97
330
47
100
AcDbEntity
  8
0
  6
Continuous
 62
     7
100
AcDbLine
 10
-111.6413746035728
 20
-87.59706689174578
 30
0.0
 11
-104.1080135417509
 21
-89.77176091021866
 31
0.0
  0
LINE
  5
98
330
47
100
AcDbEntity
  8
0
  6
Continuous
 62
     7
100
AcDbLine
 10
-101.8919865666274
 20
-79.15384918039838
 30
0.0
 11
-111.6413746035728
 21
-87.59706689174578
 31
0.0
  0
LINE
  5
99
330
47
100
AcDbEntity
  8
0
  6
Continuous
 62
     7
100
AcDbLine
 10
-94.35862550480553
 20
-81.32854319887124
 30
0.0
 11
-101.8919865666274
 21
-79.15384918039838
 31
0.0
  0
LINE
  5
9A
330
47
100
AcDbEntity
  8
0
  6
Continuous
 62
     7
100
AcDbLine
 10
-98.46663527453879
 20
-86.1611861649415
 30
0.0
 11
-98.62118700734837
 21
-86.11657092267082
 31
0.0
  0
LINE
  5
9B
330
47
100
AcDbEntity
  8
0
  6
Continuous
 62
     7
100
AcDbLine
 10
-96.18088879466745
 20
-84.4167380957725
 30
0.0
 11
-98.17598485886376
 21
-86.14454197035684
 31
0.0
  0
LINE
  5
9C
330
47
100
AcDbEntity
  8
0
  6
Continuous
 62
     7
100
AcDbLine
 10
-104.1080135417509
 20
-89.77176091021866
 30
0.0
 11
-94.35862550480553
 21
-81.32854319887124
 31
0.0
  0
LINE
  5
9D
330
47
100
AcDbEntity
  8
0
  6
Continuous
 62
     7
100
AcDbLine
 10
-105.0238149515115
 20
-91.83987034237894
 30
0.0
 11
-105.283622572647
 21
-91.76487034237891
 31
0.0
  0
LINE
  5
9E
330
47
100
AcDbEntity
  8
0
  6
Continuous
 62
     7
100
AcDbLine
 10
-102.7474225568574
 20
-90.10352314863725
 30
0.0
 11
-104.7425186210537
 21
-91.83132702322159
 31
0.0
  0
LINE
  5
9F
330
47
100
AcDbEntity
  8
0
  6
Continuous
 62
     7
100
AcDbLine
 10
-94.35862550480553
 20
-81.32854319887124
 30
0.0
 11
-94.22118700734845
 21
-82.30605914601931
 31
0.0
  0
LINE
  5
A0
330
47
100
AcDbEntity
  8
0
  6
Continuous
 62
     7
100
AcDbLine
 10
-104.0711870073484
 20
-90.83640937329602
 30
0.0
 11
-94.22118700734845
 21
-82.30605914601931
 31
0.0
  0
SPLINE
  5
A1
330
47
100
AcDbEntity
  8
0
  6
Continuous
 62
     7
100
AcDbSpline
210
0.0
220
0.0
230
1.0
 70
     8
 71
     3
 72
    15
 73
    11
 74
     9
 42
0.000000001
 43
0.0000000001
 44
0.00000001
 40
0.0
 40
0.0
 40
0.0
 40
0.0
 40
0.0624182634595473
 40
0.1359948519937055
 40
0.2321793935568334
 40
0.3512010822788841
 40
0.4874556372190275
 40
0.6324497626262964
 40
0.7764767797683335
 40
0.9099583972479955
 40
0.9099583972479955
 40
0.9099583972479955
 40
0.9099583972479955
 10
-110.0036595766362
 20
-89.97201963952747
 30
0.0
 10
-110.0166847689932
 20
-89.98923167535773
 30
0.0
 10
-110.0450636237356
 20
-90.02673269067617
 30
0.0
 10
-110.0315177136346
 20
-90.10934810324686
 30
0.0
 10
-109.9875283059216
 20
-90.19431359165033
 30
0.0
 10
-109.9123103757166
 20
-90.28564502853416
 30
0.0
 10
-109.812694317314
 20
-90.37480135289948
 30
0.0
 10
-109.6955279845532
 20
-90.45509988862412
 30
0.0
 10
-109.5709105393641
 20
-90.52204568423863
 30
0.0
 10
-109.4828848544561
 20
-90.55096172966326
 30
0.0
 10
-109.4405445108123
 20
-90.56487034237881
 30
0.0
 11
-110.0036595766362
 21
-89.97201963952747
 31
0.0
 11
-110.0350854959385
 21
-90.0259497095932
 31
0.0
 11
-110.0298396355386
 21
-90.09933904898381
 31
0.0
 11
-109.9883551066778
 21
-90.186117500751
 31
0.0
 11
-109.9140641371575
 21
-90.27910682339603
 31
0.0
 11
-109.8131111684527
 21
-90.37061530280369
 31
0.0
 11
-109.6938471922977
 21
-90.45307377962311
 31
0.0
 11
-109.566137030144
 21
-90.51966128724484
 31
0.0
 11
-109.4405445108123
 21
-90.56487034237881
 31
0.0
  0
SPLINE
  5
A2
330
47
100
AcDbEntity
  8
0
  6
Continuous
 62
     7
100
AcDbSpline
210
0.0
220
0.0
230
1.0
 70
     8
 71
     3
 72
    13
 73
     9
 74
     7
 42
0.000000001
 43
0.0000000001
 44
0.00000001
 40
0.0
 40
0.0
 40
0.0
 40
0.0
 40
0.1292258561277939
 40
0.2645757004073442
 40
0.4039759028147059
 40
0.5444650699674729
 40
0.5847671449374706
 40
0.6246793663441415
 40
0.6246793663441415
 40
0.6246793663441415
 40
0.6246793663441415
 10
-102.7474225568574
 20
-90.10352314863725
 30
0.0
 10
-102.7170475378298
 20
-90.07266920806649
 30
0.0
 10
-102.6548580446945
 20
-90.00949915488513
 30
0.0
 10
-102.5934872726489
 20
-89.8874390573128
 30
0.0
 10
-102.5572275176703
 20
-89.75310135009056
 30
0.0
 10
-102.5524756751335
 20
-89.64548863670285
 30
0.0
 10
-102.5590437026882
 20
-89.57217229108437
 30
0.0
 10
-102.5635375318026
 20
-89.545803418332
 30
0.0
 10
-102.5657735331204
 20
-89.53268306141521
 30
0.0
 11
-102.7474225568574
 21
-90.10352314863725
 31
0.0
 11
-102.6615448770849
 21
-90.00696049469744
 31
0.0
 11
-102.5984095557402
 21
-89.88723784869116
 31
0.0
 11
-102.562354942216
 21
-89.75258094485633
 31
0.0
 11
-102.5558578789641
 21
-89.61224208678007
 31
0.0
 11
-102.5595870990991
 21
-89.57211291720823
 31
0.0
 11
-102.5657735331204
 21
-89.53268306141521
 31
0.0
  0
SPLINE
  5
A3
330
47
100
AcDbEntity
  8
0
  6
Continuous
 62
     7
100
AcDbSpline
210
0.0
220
0.0
230
1.0
 70
     8
 71
     3
 72
    13
 73
     9
 74
     7
 42
0.000000001
 43
0.0000000001
 44
0.00000001
 40
0.0
 40
0.0
 40
0.0
 40
0.0
 40
0.0988337051368217
 40
0.2155583158616605
 40
0.3449471644337796
 40
0.4801632232067549
 40
0.6137193767806843
 40
0.7383091750300373
 40
0.7383091750300373
 40
0.7383091750300373
 40
0.7383091750300373
 10
-105.8609728418366
 20
-91.33185764048669
 30
0.0
 10
-105.8445877723407
 20
-91.36055318282088
 30
0.0
 10
-105.8088515902163
 20
-91.42313873464565
 30
0.0
 10
-105.7291575526448
 20
-91.50724644585274
 30
0.0
 10
-105.6321580066368
 20
-91.5895638724169
 30
0.0
 10
-105.5210846597675
 20
-91.66268417969493
 30
0.0
 10
-105.4046706047992
 20
-91.72402559928199
 30
0.0
 10
-105.3230266538354
 20
-91.75157438948064
 30
0.0
 10
-105.283622572647
 20
-91.76487034237891
 30
0.0
 11
-105.8609728418366
 21
-91.33185764048669
 31
0.0
 11
-105.8088608789226
 21
-91.41583647652023
 31
0.0
 11
-105.7307913562956
 21
-91.50261081595974
 31
0.0
 11
-105.6320842307556
 21
-91.58626712853662
 31
0.0
 11
-105.5194664908905
 21
-91.66110446501364
 31
0.0
 11
-105.4006126973001
 21
-91.72202261273712
 31
0.0
 11
-105.283622572647
 21
-91.76487034237891
 31
0.0
  0
SPLINE
  5
A4
330
47
100
AcDbEntity
  8
0
  6
Continuous
 62
     7
100
AcDbSpline
210
0.0
220
0.0
230
1.0
 70
     8
 71
     3
 72
    11
 73
     7
 74
     5
 42
0.000000001
 43
0.0000000001
 44
0.00000001
 40
0.0
 40
0.0
 40
0.0
 40
0.0
 40
0.0629181172554386
 40
0.1176643874136053
 40
0.1644175268939086
 40
0.2046232090018139
 40
0.2046232090018139
 40
0.2046232090018139
 40
0.2046232090018139
 10
-109.806692791318
 20
-89.94332683446689
 30
0.0
 10
-109.8275234993986
 20
-89.94046060381748
 30
0.0
 10
-109.8664794102949
 20
-89.93510042357359
 30
0.0
 10
-109.9213337601164
 20
-89.93770322215082
 30
0.0
 10
-109.9683705509399
 20
-89.94792500813884
 30
0.0
 10
-109.9925022253472
 20
-89.9644016204209
 30
0.0
 10
-110.0036595766362
 20
-89.97201963952747
 30
0.0
 11
-109.806692791318
 21
-89.94332683446689
 31
0.0
 11
-109.8692707673458
 21
-89.93679338692212
 31
0.0
 11
-109.9239504720159
 21
-89.93949232958893
 31
0.0
 11
-109.9691757544034
 21
-89.95134687782463
 31
0.0
 11
-110.0036595766362
 21
-89.97201963952747
 31
0.0
  0
SPLINE
  5
A5
330
47
100
AcDbEntity
  8
0
  6
Continuous
 62
     7
100
AcDbSpline
210
0.0
220
0.0
230
1.0
 70
     8
 71
     3
 72
    11
 73
     7
 74
     5
 42
0.000000001
 43
0.0000000001
 44
0.00000001
 40
0.0
 40
0.0
 40
0.0
 40
0.0
 40
0.0397553411384915
 40
0.0809157447325765
 40
0.1281621961678248
 40
0.1840802829744354
 40
0.1840802829744354
 40
0.1840802829744354
 40
0.1840802829744354
 10
-108.903256503368
 20
-90.62799040465735
 30
0.0
 10
-108.8941486766448
 20
-90.61807177436272
 30
0.0
 10
-108.8756111390321
 20
-90.59788395385513
 30
0.0
 10
-108.8664152282854
 20
-90.55444712612062
 30
0.0
 10
-108.8716373639122
 20
-90.50607768087167
 30
0.0
 10
-108.8848825071409
 20
-90.47415865154865
 30
0.0
 10
-108.8920617550821
 20
-90.45685764048665
 30
0.0
 11
-108.903256503368
 21
-90.62799040465735
 31
0.0
 11
-108.8790063600525
 21
-90.59648773833923
 31
0.0
 11
-108.8689203164464
 21
-90.55658221353838
 31
0.0
 11
-108.8733186849011
 21
-90.50954093565085
 31
0.0
 11
-108.8920617550821
 21
-90.45685764048665
 31
0.0
  0
SPLINE
  5
A6
330
47
100
AcDbEntity
  8
0
  6
Continuous
 62
     7
100
AcDbSpline
210
0.0
220
0.0
230
1.0
 70
     8
 71
     3
 72
    11
 73
     7
 74
     5
 42
0.000000001
 43
0.0000000001
 44
0.00000001
 40
0.0
 40
0.0
 40
0.0
 40
0.0
 40
0.0908958809956296
 40
0.1691390285617227
 40
0.2338947694463041
 40
0.2870439419331244
 40
0.2870439419331244
 40
0.2870439419331244
 40
0.2870439419331244
 10
-109.1807368896769
 20
-90.63987034237884
 30
0.0
 10
-109.1512906800735
 20
-90.64740231760419
 30
0.0
 10
-109.0964971801224
 20
-90.66141780473424
 30
0.0
 10
-109.0186517320051
 20
-90.66614497041311
 30
0.0
 10
-108.9519573956247
 20
-90.65885300871463
 30
0.0
 10
-108.9183886279663
 20
-90.63757990138382
 30
0.0
 10
-108.903256503368
 20
-90.62799040465735
 30
0.0
 11
-109.1807368896769
 21
-90.63987034237884
 31
0.0
 11
-109.091965127221
 21
-90.65940580225146
 31
0.0
 11
-109.0138546741297
 21
-90.66396077083238
 31
0.0
 11
-108.9499780275682
 21
-90.65332682159425
 31
0.0
 11
-108.903256503368
 21
-90.62799040465735
 31
0.0
  0
SPLINE
  5
A7
330
47
100
AcDbEntity
  8
0
  6
Continuous
 62
     7
100
AcDbSpline
210
0.0
220
0.0
230
1.0
 70
     8
 71
     3
 72
    11
 73
     7
 74
     5
 42
0.000000001
 43
0.0000000001
 44
0.00000001
 40
0.0
 40
0.0
 40
0.0
 40
0.0
 40
0.0928195208608321
 40
0.1740385940343258
 40
0.2430149692238291
 40
0.3017557149364311
 40
0.3017557149364311
 40
0.3017557149364311
 40
0.3017557149364311
 10
-98.46663527453879
 20
-86.1611861649415
 30
0.0
 10
-98.4366426835761
 20
-86.16919763257435
 30
0.0
 10
-98.38040592928121
 20
-86.18421929390828
 30
0.0
 10
-98.29932765989827
 20
-86.188481733024
 30
0.0
 10
-98.22856690434864
 20
-86.17891963792567
 30
0.0
 10
-98.19255003893325
 20
-86.15537214153493
 30
0.0
 10
-98.17598485886376
 20
-86.14454197035684
 30
0.0
 11
-98.46663527453879
 21
-86.1611861649415
 31
0.0
 11
-98.37613738465167
 21
-86.18181610906689
 31
0.0
 11
-98.29502186077931
 21
-86.18591612156891
 31
0.0
 11
-98.22721133954249
 21
-86.1732878086075
 31
0.0
 11
-98.17598485886376
 21
-86.14454197035684
 31
0.0
  0
SPLINE
  5
A8
330
47
100
AcDbEntity
  8
0
  6
Continuous
 62
     7
100
AcDbSpline
210
0.0
220
0.0
230
1.0
 70
     8
 71
     3
 72
    13
 73
     9
 74
     7
 42
0.000000001
 43
0.0000000001
 44
0.00000001
 40
0.0
 40
0.0
 40
0.0
 40
0.0
 40
0.0644144192042213
 40
0.1353615138885387
 40
0.2216846141000192
 40
0.3253693546114268
 40
0.3582213732359528
 40
0.3920843810210568
 40
0.3920843810210568
 40
0.3920843810210568
 40
0.3920843810210568
 10
-98.17598485886376
 20
-86.14454197035684
 30
0.0
 10
-98.1618371497979
 20
-86.1276743659293
 30
0.0
 10
-98.13210693441931
 20
-86.0922284987422
 30
0.0
 10
-98.1297881094203
 20
-86.01398887551463
 30
0.0
 10
-98.15585729704448
 20
-85.93070143539005
 30
0.0
 10
-98.1945409585263
 20
-85.86639040300277
 30
0.0
 10
-98.22865146591312
 20
-85.82098878938214
 30
0.0
 10
-98.2430441600464
 20
-85.8040261278133
 30
0.0
 10
-98.25034956330978
 20
-85.7954162754589
 30
0.0
 11
-98.17598485886376
 21
-86.14454197035684
 31
0.0
 11
-98.13995356438329
 21
-86.09114755236675
 31
0.0
 11
-98.13348102318179
 21
-86.02049631341353
 31
0.0
 11
-98.1570124148145
 21
-85.93744240375469
 31
0.0
 11
-98.20893047166615
 21
-85.8476925236532
 31
0.0
 11
-98.22870071485886
 21
-85.821455287552
 31
0.0
 11
-98.25034956330978
 21
-85.7954162754589
 31
0.0
  0
SPLINE
  5
A9
330
47
100
AcDbEntity
  8
0
  6
Continuous
 62
     7
100
AcDbSpline
210
0.0
220
0.0
230
1.0
 70
     8
 71
     3
 72
    13
 73
     9
 74
     7
 42
0.000000001
 43
0.0000000001
 44
0.00000001
 40
0.0
 40
0.0
 40
0.0
 40
0.0
 40
0.0412537417706045
 40
0.0830765525568124
 40
0.2300557334393539
 40
0.3773201103600088
 40
0.5210216959577187
 40
0.658036184058074
 40
0.658036184058074
 40
0.658036184058074
 40
0.658036184058074
 10
-95.96875728545011
 20
-83.81949940175402
 30
0.0
 10
-95.96713085518576
 20
-83.83315956474401
 30
0.0
 10
-95.96385557347145
 20
-83.86066832546572
 30
0.0
 10
-95.96078139787801
 20
-83.93733703173864
 30
0.0
 10
-95.97101996507845
 20
-84.04985751228072
 30
0.0
 10
-96.01438842708082
 20
-84.18996957318996
 30
0.0
 10
-96.08233945378794
 20
-84.31748107037222
 30
0.0
 10
-96.14856487525611
 20
-84.38418206465761
 30
0.0
 10
-96.18088879466745
 20
-84.4167380957725
 30
0.0
 11
-95.96875728545011
 21
-83.81949940175402
 31
0.0
 11
-95.96441189654267
 21
-83.86052364938512
 31
0.0
 11
-95.96259261403446
 21
-83.90230687346144
 31
0.0
 11
-95.97604492169073
 21
-84.04866914988142
 31
0.0
 11
-96.01919419201298
 21
-84.18947020673443
 31
0.0
 11
-96.08907611396089
 21
-84.31503558025227
 31
0.0
 11
-96.18088879466745
 21
-84.4167380957725
 31
0.0
  0
SPLINE
  5
AA
330
47
100
AcDbEntity
  8
0
  6
Continuous
 62
     7
100
AcDbSpline
210
0.0
220
0.0
230
1.0
 70
     8
 71
     3
 72
    11
 73
     7
 74
     5
 42
0.000000001
 43
0.0000000001
 44
0.00000001
 40
0.0
 40
0.0
 40
0.0
 40
0.0
 40
0.0924211422359301
 40
0.1719410886529608
 40
0.2375277178569737
 40
0.2910309874098296
 40
0.2910309874098296
 40
0.2910309874098296
 40
0.2910309874098296
 10
-105.0238149515115
 20
-91.83987034237894
 30
0.0
 10
-104.9939786714834
 20
-91.84793379972098
 30
0.0
 10
-104.9384709974506
 20
-91.86293511552327
 30
0.0
 10
-104.8595050471763
 20
-91.86875161763133
 30
0.0
 10
-104.7918218527889
 20
-91.8622503056294
 30
0.0
 10
-104.757802445678
 20
-91.84091313529306
 30
0.0
 10
-104.7425186210537
 20
-91.83132702322159
 30
0.0
 11
-105.0238149515115
 21
-91.83987034237894
 31
0.0
 11
-104.9338282263127
 21
-91.86094296810992
 31
0.0
 11
-104.8545096967235
 21
-91.86659922331162
 31
0.0
 11
-104.789695110585
 21
-91.85656546625341
 31
0.0
 11
-104.7425186210537
 21
-91.83132702322159
 31
0.0
  0
SPLINE
  5
AB
330
47
100
AcDbEntity
  8
0
  6
Continuous
 62
     7
100
AcDbSpline
210
0.0
220
0.0
230
1.0
 70
     8
 71
     3
 72
    15
 73
    11
 74
     9
 42
0.000000001
 43
0.0000000001
 44
0.00000001
 40
0.0
 40
0.0
 40
0.0
 40
0.0
 40
0.0568708006503418
 40
0.121679891964197
 40
0.2044631372147655
 40
0.3068163789588119
 40
0.4255219651551405
 40
0.5548318231189286
 40
0.6877073900970317
 40
0.8167155304559474
 40
0.8167155304559474
 40
0.8167155304559474
 40
0.8167155304559474
 10
-104.7425186210537
 20
-91.83132702322159
 30
0.0
 10
-104.7303244694812
 20
-91.81601303890777
 30
0.0
 10
-104.7042340559091
 20
-91.78324747217391
 30
0.0
 10
-104.7102867666375
 20
-91.7104011740793
 30
0.0
 10
-104.743522530099
 20
-91.63416408100227
 30
0.0
 10
-104.8036427388017
 20
-91.55151001727522
 30
0.0
 10
-104.8861922082219
 20
-91.46854147948576
 30
0.0
 10
-104.9865105728875
 20
-91.39030965693962
 30
0.0
 10
-105.0973329795645
 20
-91.32079812028101
 30
0.0
 10
-105.1773436187838
 20
-91.28564421476489
 30
0.0
 10
-105.2167581512605
 20
-91.26832683446698
 30
0.0
 11
-104.7425186210537
 21
-91.83132702322159
 31
0.0
 11
-104.7124223275074
 21
-91.78307246681193
 31
0.0
 11
-104.7126963869091
 21
-91.71826395537028
 31
0.0
 11
-104.7433224353398
 21
-91.6413541987296
 31
0.0
 11
-104.8021957365958
 21
-91.55762773697185
 31
0.0
 11
-104.8852715661552
 21
-91.47283727352135
 31
0.0
 11
-104.9868415363925
 21
-91.39280865045708
 31
0.0
 11
-105.09992710371
 21
-91.3230406722243
 31
0.0
 11
-105.2167581512605
 21
-91.26832683446698
 31
0.0
  0
ENDBLK
  5
49
330
47
100
AcDbEntity
  8
0
100
AcDbBlockEnd
  0
BLOCK
  5
4C
330
4A
100
AcDbEntity
  8
0
100
AcDbBlockBegin
  2
Allg1
 70
     0
 10
-103.0000000000479
 20
-85.99999999999898
 30
0.0
  3
Allg1
  1

  0
INSERT
  5
4B
330
4A
100
AcDbEntity
  8
0
100
AcDbBlockReference
  2
UCT_EM_20X9-select__1
 10
-111.7788131010299
 20
-91.86807624126783
 30
0.0
  0
MTEXT
  5
AD
330
4A
100
AcDbEntity
  8
1
 62
     6
100
AcDbMText
 10
-103.000000000048
 20
-95.41487114301202
 30
0.0
 40
2.5
 41
0.0
 71
     2
 72
     1
  1
 
  7
CONVERTER_11
 73
     1
 44
1.32052821128451
  0
ENDBLK
  5
4D
330
4A
100
AcDbEntity
  8
0
100
AcDbBlockEnd
  0
BLOCK
  5
4F
330
4E
100
AcDbEntity
  8
0
100
AcDbBlockBegin
  2
UCT_EM_20X9-select__2
 70
     0
 10
-148.5500042129175
 20
-87.47500255083355
 30
0.0
  3
UCT_EM_20X9-select__2
  1

  0
LINE
  5
AE
330
4E
100
AcDbEntity
  8
0
  6
Continuous
 62
     7
100
AcDbLine
 10
-148.4493922498629
 20
-67.87561451388812
 30
0.0
 11
-148.4493922498629
 21
-87.37439058777906
 31
0.0
  0
LINE
  5
AF
330
4E
100
AcDbEntity
  8
0
  6
Continuous
 62
     7
100
AcDbLine
 10
-148.5500042129175
 20
-67.77500255083359
 30
0.0
 11
-148.5500042129174
 21
-87.47500255083355
 31
0.0
  0
LINE
  5
B0
330
4E
100
AcDbEntity
  8
0
  6
Continuous
 62
     7
100
AcDbLine
 10
-148.5500042129175
 20
-67.77500255083359
 30
0.0
 11
-139.6500042129175
 21
-67.77500255083356
 31
0.0
  0
LINE
  5
B1
330
4E
100
AcDbEntity
  8
0
  6
Continuous
 62
     7
100
AcDbLine
 10
-139.750616175972
 20
-67.8756145138881
 30
0.0
 11
-148.4493922498629
 21
-67.87561451388812
 31
0.0
  0
LINE
  5
B2
330
4E
100
AcDbEntity
  8
0
  6
Continuous
 62
     7
100
AcDbLine
 10
-139.750616175972
 20
-67.8756145138881
 30
0.0
 11
-139.6500042129175
 21
-67.77500255083356
 31
0.0
  0
LINE
  5
B3
330
4E
100
AcDbEntity
  8
0
  6
Continuous
 62
     7
100
AcDbLine
 10
-148.4493922498629
 20
-67.87561451388812
 30
0.0
 11
-148.5500042129175
 21
-67.77500255083359
 31
0.0
  0
LINE
  5
B4
330
4E
100
AcDbEntity
  8
0
  6
Continuous
 62
     7
100
AcDbLine
 10
-139.6500042129175
 20
-87.47500255083352
 30
0.0
 11
-139.7506161759719
 21
-87.37439058777903
 31
0.0
  0
LINE
  5
B5
330
4E
100
AcDbEntity
  8
0
  6
Continuous
 62
     7
100
AcDbLine
 10
-139.6500042129175
 20
-87.47500255083352
 30
0.0
 11
-148.5500042129174
 21
-87.47500255083355
 31
0.0
  0
LINE
  5
B6
330
4E
100
AcDbEntity
  8
0
  6
Continuous
 62
     7
100
AcDbLine
 10
-148.4493922498629
 20
-87.37439058777906
 30
0.0
 11
-139.7506161759719
 21
-87.37439058777903
 31
0.0
  0
LINE
  5
B7
330
4E
100
AcDbEntity
  8
0
  6
Continuous
 62
     7
100
AcDbLine
 10
-139.7506161759719
 20
-87.37439058777903
 30
0.0
 11
-139.750616175972
 21
-67.8756145138881
 31
0.0
  0
LINE
  5
B8
330
4E
100
AcDbEntity
  8
0
  6
Continuous
 62
     7
100
AcDbLine
 10
-148.5500042129174
 20
-87.47500255083355
 30
0.0
 11
-148.4493922498629
 21
-87.37439058777906
 31
0.0
  0
LINE
  5
B9
330
4E
100
AcDbEntity
  8
0
  6
Continuous
 62
     7
100
AcDbLine
 10
-139.6500042129175
 20
-87.47500255083352
 30
0.0
 11
-139.6500042129175
 21
-67.77500255083356
 31
0.0
  0
ENDBLK
  5
50
330
4E
100
AcDbEntity
  8
0
100
AcDbBlockEnd
  0
BLOCK
  5
53
330
51
100
AcDbEntity
  8
0
100
AcDbBlockBegin
  2
Drfsicht1
 70
     0
 10
-144.1000043154314
 20
-77.62500226499162
 30
0.0
  3
Drfsicht1
  1

  0
INSERT
  5
52
330
51
100
AcDbEntity
  8
0
100
AcDbBlockReference
  2
UCT_EM_20X9-select__2
 10
-148.5500042129175
 20
-87.47500255083355
 30
0.0
  0
MTEXT
  5
BA
330
51
100
AcDbEntity
  8
1
 62
     6
100
AcDbMText
 10
-144.1000043154314
 20
-89.97500455380998
 30
0.0
 40
2.5
 41
0.0
 71
     2
 72
     1
  1
 
  7
CONVERTER_11
 73
     1
 44
1.32052821128451
  0
DIMENSION
  5
C5
330
51
100
AcDbEntity
  8
1
100
AcDbDimension
  2
*D17
 10
-134.6500042129175
 20
-67.77500255083356
 30
0.0
 11
-136.3625042129175
 21
-77.5704771234925
 31
0.0
 70
    32
  1
<>
 71
     5
 42
-1.0
 53
90.0
  3
ME10_DIM_10
100
AcDbAlignedDimension
 13
-139.6500042129175
 23
-87.47500255083352
 33
0.0
 14
-139.6500042129175
 24
-67.77500255083356
 34
0.0
 50
90.0
100
AcDbRotatedDimension
  0
ENDBLK
  5
54
330
51
100
AcDbEntity
  8
0
100
AcDbBlockEnd
  0
BLOCK
  5
56
330
55
100
AcDbEntity
  8
0
100
AcDbBlockBegin
  2
UCT_EM_20X9-select__3
 70
     0
 10
-99.9500001023764
 20
-58.27514442615529
 30
0.0
  3
UCT_EM_20X9-select__3
  1

  0
LINE
  5
C6
330
55
100
AcDbEntity
  8
0
  6
Continuous
 62
     7
100
AcDbLine
 10
-92.85000010237641
 20
-55.87499998574479
 30
0.0
 11
-92.85000010237638
 21
-57.30662513586492
 31
0.0
  0
LINE
  5
C7
330
55
100
AcDbEntity
  8
0
  6
Continuous
 62
     7
100
AcDbLine
 10
-91.15061206543096
 20
-54.72499998574794
 30
0.0
 11
-91.05000010237642
 21
-55.87499998574476
 31
0.0
  0
LINE
  5
C8
330
55
100
AcDbEntity
  8
0
  6
Continuous
 62
     7
100
AcDbLine
 10
-97.75000010237638
 20
-58.27499998574488
 30
0.0
 11
-98.05000010237649
 21
-58.2749999857449
 31
0.0
  0
LINE
  5
C9
330
55
100
AcDbEntity
  8
0
  6
Continuous
 62
     7
100
AcDbLine
 10
-97.2500001023764
 20
-55.87499998574486
 30
0.0
 11
-93.7500001023764
 21
-55.87499998574481
 31
0.0
  0
LINE
  5
CA
330
55
100
AcDbEntity
  8
0
  6
Continuous
 62
     7
100
AcDbLine
 10
-97.2500001023764
 20
-55.87499998574486
 30
0.0
 11
-98.15000010237641
 21
-55.87499998574488
 31
0.0
  0
LINE
  5
CB
330
55
100
AcDbEntity
  8
0
  6
Continuous
 62
     7
100
AcDbLine
 10
-99.84938813932189
 20
-54.72499998574808
 30
0.0
 11
-91.15061206543096
 21
-54.72499998574794
 31
0.0
  0
LINE
  5
CC
330
55
100
AcDbEntity
  8
0
  6
Continuous
 62
     7
100
AcDbLine
 10
-97.2500001023764
 20
-55.87499998574486
 30
0.0
 11
-97.25000010237638
 21
-57.77499998574488
 31
0.0
  0
LINE
  5
CD
330
55
100
AcDbEntity
  8
0
  6
Continuous
 62
     7
100
AcDbLine
 10
-98.15000010237638
 20
-57.30662513586501
 30
0.0
 11
-98.15000010237641
 21
-55.87499998574488
 31
0.0
  0
LINE
  5
CE
330
55
100
AcDbEntity
  8
0
  6
Continuous
 62
     7
100
AcDbLine
 10
-99.84938813932189
 20
-54.72499998574808
 30
0.0
 11
-99.9500001023764
 21
-55.87499998574492
 31
0.0
  0
LINE
  5
CF
330
55
100
AcDbEntity
  8
0
  6
Continuous
 62
     7
100
AcDbLine
 10
-92.85000010237641
 20
-55.87499998574479
 30
0.0
 11
-93.7500001023764
 21
-55.87499998574481
 31
0.0
  0
LINE
  5
D0
330
55
100
AcDbEntity
  8
0
  6
Continuous
 62
     7
100
AcDbLine
 10
-98.15000010237641
 20
-55.87499998574488
 30
0.0
 11
-99.9500001023764
 21
-55.87499998574492
 31
0.0
  0
LINE
  5
D1
330
55
100
AcDbEntity
  8
0
  6
Continuous
 62
     7
100
AcDbLine
 10
-91.05000010237642
 20
-55.87499998574476
 30
0.0
 11
-92.85000010237641
 21
-55.87499998574479
 31
0.0
  0
LINE
  5
D2
330
55
100
AcDbEntity
  8
0
  6
Continuous
 62
     7
100
AcDbLine
 10
-92.95000010237626
 20
-58.27499998574481
 30
0.0
 11
-93.25000010237638
 21
-58.27499998574481
 31
0.0
  0
LINE
  5
D3
330
55
100
AcDbEntity
  8
0
  6
Continuous
 62
     7
100
AcDbLine
 10
-93.75000010237638
 20
-57.77499998574481
 30
0.0
 11
-93.7500001023764
 21
-55.87499998574481
 31
0.0
  0
ARC
  5
D4
330
55
100
AcDbEntity
  8
0
  6
Continuous
 62
     7
100
AcDbCircle
 10
-92.93812447055514
 20
-57.78687561756605
 30
0.0
 40
0.4882688085891531
100
AcDbArc
 50
268.6063195661638
 51
79.60208780227882
  0
ARC
  5
D5
330
55
100
AcDbEntity
  8
0
  6
Continuous
 62
     7
100
AcDbCircle
 10
-97.75000010237638
 20
-57.77499998574488
 30
0.0
 40
0.5
100
AcDbArc
 50
270.0
 51
0.0
  0
ARC
  5
D6
330
55
100
AcDbEntity
  8
0
  6
Continuous
 62
     7
100
AcDbCircle
 10
-93.25000010237638
 20
-57.77499998574481
 30
0.0
 40
0.5
100
AcDbArc
 50
180.0
 51
270.0
  0
ARC
  5
D7
330
55
100
AcDbEntity
  8
0
  6
Continuous
 62
     7
100
AcDbCircle
 10
-98.06187573419763
 20
-57.78687561756614
 30
0.0
 40
0.4882688085891509
100
AcDbArc
 50
100.3979121977212
 51
271.3936804338379
  0
ENDBLK
  5
57
330
55
100
AcDbEntity
  8
0
100
AcDbBlockEnd
  0
BLOCK
  5
5A
330
58
100
AcDbEntity
  8
0
100
AcDbBlockBegin
  2
Rckans1
 70
     0
 10
-95.4999999998625
 20
-56.50000000003746
 30
0.0
  3
Rckans1
  1

  0
INSERT
  5
59
330
58
100
AcDbEntity
  8
0
100
AcDbBlockReference
  2
UCT_EM_20X9-select__3
 10
-99.9500001023764
 20
-58.27514442615529
 30
0.0
  0
MTEXT
  5
D8
330
58
100
AcDbEntity
  8
1
 62
     6
100
AcDbMText
 10
-95.4999999998625
 20
-60.77499997619577
 30
0.0
 40
2.5
 41
0.0
 71
     2
 72
     1
  1
 
  7
CONVERTER_11
 73
     1
 44
1.32052821128451
  0
ENDBLK
  5
5B
330
58
100
AcDbEntity
  8
0
100
AcDbBlockEnd
  0
BLOCK
  5
5D
330
5C
100
AcDbEntity
  8
0
100
AcDbBlockBegin
  2
UCT_EM_20X9-select__4
 70
     0
 10
-128.1500014776258
 20
-58.27514442613308
 30
0.0
  3
UCT_EM_20X9-select__4
  1

  0
LINE
  5
D9
330
5C
100
AcDbEntity
  8
0
  6
Continuous
 62
     7
100
AcDbLine
 10
-114.1015620860895
 20
-57.30662513584281
 30
0.0
 11
-113.6499341239564
 21
-58.27514442613308
 31
0.0
  0
LINE
  5
DA
330
5C
100
AcDbEntity
  8
0
  6
Continuous
 62
     7
100
AcDbLine
 10
-114.1015620860895
 20
-57.30662513584281
 30
0.0
 11
-109.2765506434257
 21
-57.30662513584281
 31
0.0
  0
LINE
  5
DB
330
5C
100
AcDbEntity
  8
0
  6
Continuous
 62
     7
100
AcDbLine
 10
-113.6499341239564
 20
-58.27514442613308
 30
0.0
 11
-109.8357255163902
 21
-58.27514442613308
 31
0.0
  0
LINE
  5
DC
330
5C
100
AcDbEntity
  8
0
  6
Continuous
 62
     7
100
AcDbLine
 10
-122.4984408691622
 20
-57.30662513584281
 30
0.0
 11
-122.9500688312954
 21
-58.27514442613308
 31
0.0
  0
LINE
  5
DD
330
5C
100
AcDbEntity
  8
0
  6
Continuous
 62
     7
100
AcDbLine
 10
-126.7642774388615
 20
-58.27514442613308
 30
0.0
 11
-122.9500688312954
 21
-58.27514442613308
 31
0.0
  0
LINE
  5
DE
330
5C
100
AcDbEntity
  8
0
  6
Continuous
 62
     7
100
AcDbLine
 10
-114.1015620860895
 20
-57.30662513584281
 30
0.0
 11
-114.7691398571978
 21
-55.87499998572267
 31
0.0
  0
LINE
  5
DF
330
5C
100
AcDbEntity
  8
0
  6
Continuous
 62
     7
100
AcDbLine
 10
-122.4984408691622
 20
-57.30662513584281
 30
0.0
 11
-121.8308630980539
 21
-55.87499998572267
 31
0.0
  0
LINE
  5
E0
330
5C
100
AcDbEntity
  8
0
  6
Continuous
 62
     7
100
AcDbLine
 10
-128.1500014776258
 20
-55.87499998572267
 30
0.0
 11
-121.8308630980539
 21
-55.87499998572267
 31
0.0
  0
LINE
  5
E1
330
5C
100
AcDbEntity
  8
0
  6
Continuous
 62
     7
100
AcDbLine
 10
-121.8308630980539
 20
-55.87499998572267
 30
0.0
 11
-114.7691398571978
 21
-55.87499998572267
 31
0.0
  0
LINE
  5
E2
330
5C
100
AcDbEntity
  8
0
  6
Continuous
 62
     7
100
AcDbLine
 10
-114.7691398571978
 20
-55.87499998572267
 30
0.0
 11
-108.4500014776259
 21
-55.87499998572267
 31
0.0
  0
LINE
  5
E3
330
5C
100
AcDbEntity
  8
0
  6
Continuous
 62
     7
100
AcDbLine
 10
-128.0493895145713
 20
-54.72499998572586
 30
0.0
 11
-128.1500014776258
 21
-55.87499998572267
 31
0.0
  0
LINE
  5
E4
330
5C
100
AcDbEntity
  8
0
  6
Continuous
 62
     7
100
AcDbLine
 10
-126.7642774388615
 20
-58.27514442613308
 30
0.0
 11
-127.323452311826
 21
-57.30662513584281
 31
0.0
  0
LINE
  5
E5
330
5C
100
AcDbEntity
  8
0
  6
Continuous
 62
     7
100
AcDbLine
 10
-128.0493895145713
 20
-54.72499998572586
 30
0.0
 11
-108.5506134406804
 21
-54.72499998572646
 31
0.0
  0
LINE
  5
E6
330
5C
100
AcDbEntity
  8
0
  6
Continuous
 62
     7
100
AcDbLine
 10
-108.4500014776259
 20
-55.87499998572267
 30
0.0
 11
-108.5506134406804
 21
-54.72499998572646
 31
0.0
  0
LINE
  5
E7
330
5C
100
AcDbEntity
  8
0
  6
Continuous
 62
     7
100
AcDbLine
 10
-109.8357255163902
 20
-58.27514442613308
 30
0.0
 11
-109.2765506434257
 21
-57.30662513584281
 31
0.0
  0
LINE
  5
E8
330
5C
100
AcDbEntity
  8
0
  6
Continuous
 62
     7
100
AcDbLine
 10
-109.2765506434257
 20
-57.30662513584281
 30
0.0
 11
-108.4500014776259
 21
-55.87499998572267
 31
0.0
  0
LINE
  5
E9
330
5C
100
AcDbEntity
  8
0
  6
Continuous
 62
     7
100
AcDbLine
 10
-122.4984408691622
 20
-57.30662513584281
 30
0.0
 11
-127.323452311826
 21
-57.30662513584281
 31
0.0
  0
LINE
  5
EA
330
5C
100
AcDbEntity
  8
0
  6
Continuous
 62
     7
100
AcDbLine
 10
-128.1500014776258
 20
-55.87499998572267
 30
0.0
 11
-127.323452311826
 21
-57.30662513584281
 31
0.0
  0
ENDBLK
  5
5E
330
5C
100
AcDbEntity
  8
0
100
AcDbBlockEnd
  0
BLOCK
  5
61
330
5F
100
AcDbEntity
  8
0
100
AcDbBlockBegin
  2
SA_Links1
 70
     0
 10
-118.3000017634678
 20
-56.50000000001501
 30
0.0
  3
SA_Links1
  1

  0
INSERT
  5
60
330
5F
100
AcDbEntity
  8
0
100
AcDbBlockReference
  2
UCT_EM_20X9-select__4
 10
-128.1500014776258
 20
-58.27514442613308
 30
0.0
  0
MTEXT
  5
EB
330
5F
100
AcDbEntity
  8
1
 62
     6
100
AcDbMText
 10
-118.3000017634678
 20
-60.77499997617326
 30
0.0
 40
2.5
 41
0.0
 71
     2
 72
     1
  1
 
  7
CONVERTER_11
 73
     1
 44
1.32052821128451
  0
ENDBLK
  5
62
330
5F
100
AcDbEntity
  8
0
100
AcDbBlockEnd
  0
BLOCK
  5
64
330
63
100
AcDbEntity
  8
0
100
AcDbBlockBegin
  2
UCT_EM_20X9-select__5
 70
     0
 10
-178.2500053148147
 20
-58.27514442613244
 30
0.0
  3
UCT_EM_20X9-select__5
  1

  0
LINE
  5
EC
330
63
100
AcDbEntity
  8
0
  6
Continuous
 62
     7
100
AcDbLine
 10
-159.3765544806147
 20
-57.30662513584215
 30
0.0
 11
-164.2015659232785
 21
-57.30662513584217
 31
0.0
  0
LINE
  5
ED
330
63
100
AcDbEntity
  8
0
  6
Continuous
 62
     7
100
AcDbLine
 10
-172.5984447063511
 20
-57.30662513584217
 30
0.0
 11
-177.4234561490149
 21
-57.30662513584217
 31
0.0
  0
LINE
  5
EE
330
63
100
AcDbEntity
  8
0
  6
Continuous
 62
     7
100
AcDbLine
 10
-176.8642812760505
 20
-58.27514442613244
 30
0.0
 11
-177.4234561490149
 21
-57.30662513584217
 31
0.0
  0
LINE
  5
EF
330
63
100
AcDbEntity
  8
0
  6
Continuous
 62
     7
100
AcDbLine
 10
-159.3765544806147
 20
-57.30662513584215
 30
0.0
 11
-159.9357293535791
 21
-58.27514442613244
 31
0.0
  0
LINE
  5
F0
330
63
100
AcDbEntity
  8
0
  6
Continuous
 62
     7
100
AcDbLine
 10
-163.7499379611453
 20
-58.27514442613244
 30
0.0
 11
-164.2015659232785
 21
-57.30662513584217
 31
0.0
  0
LINE
  5
F1
330
63
100
AcDbEntity
  8
0
  6
Continuous
 62
     7
100
AcDbLine
 10
-159.9357293535791
 20
-58.27514442613244
 30
0.0
 11
-163.7499379611453
 21
-58.27514442613244
 31
0.0
  0
LINE
  5
F2
330
63
100
AcDbEntity
  8
0
  6
Continuous
 62
     7
100
AcDbLine
 10
-173.0500726684843
 20
-58.27514442613244
 30
0.0
 11
-172.5984447063511
 21
-57.30662513584217
 31
0.0
  0
LINE
  5
F3
330
63
100
AcDbEntity
  8
0
  6
Continuous
 62
     7
100
AcDbLine
 10
-173.0500726684843
 20
-58.27514442613244
 30
0.0
 11
-176.8642812760505
 21
-58.27514442613244
 31
0.0
  0
LINE
  5
F4
330
63
100
AcDbEntity
  8
0
  6
Continuous
 62
     7
100
AcDbLine
 10
-159.3765544806147
 20
-57.30662513584215
 30
0.0
 11
-158.5500053148148
 21
-55.87499998572203
 31
0.0
  0
LINE
  5
F5
330
63
100
AcDbEntity
  8
0
  6
Continuous
 62
     7
100
AcDbLine
 10
-164.8691436943868
 20
-55.87499998572204
 30
0.0
 11
-164.2015659232785
 21
-57.30662513584217
 31
0.0
  0
LINE
  5
F6
330
63
100
AcDbEntity
  8
0
  6
Continuous
 62
     7
100
AcDbLine
 10
-178.2500053148147
 20
-55.87499998572204
 30
0.0
 11
-178.1493933517602
 21
-54.72499998572582
 31
0.0
  0
LINE
  5
F7
330
63
100
AcDbEntity
  8
0
  6
Continuous
 62
     7
100
AcDbLine
 10
-158.6506172778693
 20
-54.72499998572521
 30
0.0
 11
-158.5500053148148
 21
-55.87499998572203
 31
0.0
  0
LINE
  5
F8
330
63
100
AcDbEntity
  8
0
  6
Continuous
 62
     7
100
AcDbLine
 10
-178.1493933517602
 20
-54.72499998572582
 30
0.0
 11
-158.6506172778693
 21
-54.72499998572521
 31
0.0
  0
LINE
  5
F9
330
63
100
AcDbEntity
  8
0
  6
Continuous
 62
     7
100
AcDbLine
 10
-171.9308669352428
 20
-55.87499998572204
 30
0.0
 11
-172.5984447063511
 21
-57.30662513584217
 31
0.0
  0
LINE
  5
FA
330
63
100
AcDbEntity
  8
0
  6
Continuous
 62
     7
100
AcDbLine
 10
-178.2500053148147
 20
-55.87499998572204
 30
0.0
 11
-171.9308669352428
 21
-55.87499998572204
 31
0.0
  0
LINE
  5
FB
330
63
100
AcDbEntity
  8
0
  6
Continuous
 62
     7
100
AcDbLine
 10
-164.8691436943868
 20
-55.87499998572204
 30
0.0
 11
-158.5500053148148
 21
-55.87499998572203
 31
0.0
  0
LINE
  5
FC
330
63
100
AcDbEntity
  8
0
  6
Continuous
 62
     7
100
AcDbLine
 10
-171.9308669352428
 20
-55.87499998572204
 30
0.0
 11
-164.8691436943868
 21
-55.87499998572204
 31
0.0
  0
LINE
  5
FD
330
63
100
AcDbEntity
  8
0
  6
Continuous
 62
     7
100
AcDbLine
 10
-178.2500053148147
 20
-55.87499998572204
 30
0.0
 11
-177.4234561490149
 21
-57.30662513584217
 31
0.0
  0
ENDBLK
  5
65
330
63
100
AcDbEntity
  8
0
100
AcDbBlockEnd
  0
BLOCK
  5
68
330
66
100
AcDbEntity
  8
0
100
AcDbBlockBegin
  2
SA_Rechts1
 70
     0
 10
-168.4000050289728
 20
-56.50000000001495
 30
0.0
  3
SA_Rechts1
  1

  0
INSERT
  5
67
330
66
100
AcDbEntity
  8
0
100
AcDbBlockReference
  2
UCT_EM_20X9-select__5
 10
-178.2500053148147
 20
-58.27514442613244
 30
0.0
  0
MTEXT
  5
FE
330
66
100
AcDbEntity
  8
1
 62
     6
100
AcDbMText
 10
-168.4000050289727
 20
-60.77499997617321
 30
0.0
 40
2.5
 41
0.0
 71
     2
 72
     1
  1
 
  7
CONVERTER_11
 73
     1
 44
1.32052821128451
  0
ENDBLK
  5
69
330
66
100
AcDbEntity
  8
0
100
AcDbBlockEnd
  0
BLOCK
  5
6B
330
6A
100
AcDbEntity
  8
0
100
AcDbBlockBegin
  2
UCT_EM_20X9-select__6
 70
     0
 10
-148.5500042129174
 20
-58.27514442613285
 30
0.0
  3
UCT_EM_20X9-select__6
  1

  0
LINE
  5
FF
330
6A
100
AcDbEntity
  8
0
  6
Continuous
 62
     7
100
AcDbLine
 10
-141.4500042129174
 20
-55.87499998572245
 30
0.0
 11
-141.4500042129174
 21
-57.30662513584259
 31
0.0
  0
LINE
  5
100
330
6A
100
AcDbEntity
  8
0
  6
Continuous
 62
     7
100
AcDbLine
 10
-139.6500042129174
 20
-55.87499998572248
 30
0.0
 11
-141.4500042129174
 21
-55.87499998572245
 31
0.0
  0
LINE
  5
101
330
6A
100
AcDbEntity
  8
0
  6
Continuous
 62
     7
100
AcDbLine
 10
-145.8500042129174
 20
-55.87499998572238
 30
0.0
 11
-145.8500042129175
 21
-57.77499998572239
 31
0.0
  0
LINE
  5
102
330
6A
100
AcDbEntity
  8
0
  6
Continuous
 62
     7
100
AcDbLine
 10
-146.3500042129175
 20
-58.27499998572237
 30
0.0
 11
-146.6500042129176
 21
-58.27499998572237
 31
0.0
  0
LINE
  5
103
330
6A
100
AcDbEntity
  8
0
  6
Continuous
 62
     7
100
AcDbLine
 10
-148.5500042129174
 20
-55.87499998572233
 30
0.0
 11
-148.4493922498629
 21
-54.72499998572611
 31
0.0
  0
LINE
  5
104
330
6A
100
AcDbEntity
  8
0
  6
Continuous
 62
     7
100
AcDbLine
 10
-141.5500042129173
 20
-58.27499998572247
 30
0.0
 11
-141.8500042129175
 21
-58.27499998572246
 31
0.0
  0
LINE
  5
105
330
6A
100
AcDbEntity
  8
0
  6
Continuous
 62
     7
100
AcDbLine
 10
-142.3500042129174
 20
-57.77499998572246
 30
0.0
 11
-142.3500042129174
 21
-55.87499998572244
 31
0.0
  0
LINE
  5
106
330
6A
100
AcDbEntity
  8
0
  6
Continuous
 62
     7
100
AcDbLine
 10
-146.7500042129175
 20
-55.87499998572235
 30
0.0
 11
-148.5500042129174
 21
-55.87499998572233
 31
0.0
  0
LINE
  5
107
330
6A
100
AcDbEntity
  8
0
  6
Continuous
 62
     7
100
AcDbLine
 10
-146.7500042129175
 20
-57.30662513584248
 30
0.0
 11
-146.7500042129175
 21
-55.87499998572235
 31
0.0
  0
LINE
  5
108
330
6A
100
AcDbEntity
  8
0
  6
Continuous
 62
     7
100
AcDbLine
 10
-142.3500042129174
 20
-55.87499998572244
 30
0.0
 11
-145.8500042129174
 21
-55.87499998572238
 31
0.0
  0
LINE
  5
109
330
6A
100
AcDbEntity
  8
0
  6
Continuous
 62
     7
100
AcDbLine
 10
-145.8500042129174
 20
-55.87499998572238
 30
0.0
 11
-146.7500042129175
 21
-55.87499998572235
 31
0.0
  0
LINE
  5
10A
330
6A
100
AcDbEntity
  8
0
  6
Continuous
 62
     7
100
AcDbLine
 10
-141.4500042129174
 20
-55.87499998572245
 30
0.0
 11
-142.3500042129174
 21
-55.87499998572244
 31
0.0
  0
LINE
  5
10B
330
6A
100
AcDbEntity
  8
0
  6
Continuous
 62
     7
100
AcDbLine
 10
-139.6500042129174
 20
-55.87499998572248
 30
0.0
 11
-139.7506161759719
 21
-54.72499998572626
 31
0.0
  0
LINE
  5
10C
330
6A
100
AcDbEntity
  8
0
  6
Continuous
 62
     7
100
AcDbLine
 10
-148.4493922498629
 20
-54.72499998572611
 30
0.0
 11
-139.7506161759719
 21
-54.72499998572626
 31
0.0
  0
ARC
  5
10D
330
6A
100
AcDbEntity
  8
0
  6
Continuous
 62
     7
100
AcDbCircle
 10
-146.3500042129175
 20
-57.77499998572237
 30
0.0
 40
0.5
100
AcDbArc
 50
270.0
 51
359.9999999999976
  0
ARC
  5
10E
330
6A
100
AcDbEntity
  8
0
  6
Continuous
 62
     7
100
AcDbCircle
 10
-141.8500042129174
 20
-57.77499998572246
 30
0.0
 40
0.5
100
AcDbArc
 50
180.0
 51
269.9999999999902
  0
ARC
  5
10F
330
6A
100
AcDbEntity
  8
0
  6
Continuous
 62
     7
100
AcDbCircle
 10
-146.6618798447387
 20
-57.78687561754362
 30
0.0
 40
0.4882688085891726
100
AcDbArc
 50
100.3979121977258
 51
271.3936804338345
  0
ARC
  5
110
330
6A
100
AcDbEntity
  8
0
  6
Continuous
 62
     7
100
AcDbCircle
 10
-141.5381285810962
 20
-57.78687561754371
 30
0.0
 40
0.488268808589145
100
AcDbArc
 50
268.6063195661688
 51
79.60208780227374
  0
ENDBLK
  5
6C
330
6A
100
AcDbEntity
  8
0
100
AcDbBlockEnd
  0
BLOCK
  5
6F
330
6D
100
AcDbEntity
  8
0
100
AcDbBlockBegin
  2
Vordans1
 70
     0
 10
-144.1000043154314
 20
-56.50000000001503
 30
0.0
  3
Vordans1
  1

  0
INSERT
  5
6E
330
6D
100
AcDbEntity
  8
0
100
AcDbBlockReference
  2
UCT_EM_20X9-select__6
 10
-148.5500042129174
 20
-58.27514442613285
 30
0.0
  0
MTEXT
  5
111
330
6D
100
AcDbEntity
  8
1
 62
     6
100
AcDbMText
 10
-144.1000043154314
 20
-60.77499997617321
 30
0.0
 40
2.5
 41
0.0
 71
     2
 72
     1
  1
 
  7
CONVERTER_11
 73
     1
 44
1.32052821128451
  0
DIMENSION
  5
11C
330
6D
100
AcDbEntity
  8
1
100
AcDbDimension
  2
*D18
 10
-139.6500042129174
 20
-50.87499998572232
 30
0.0
 11
-143.9637402320115
 21
-49.16249998572232
 31
0.0
 70
    32
  1
<>
 71
     5
 42
-1.0
 53
0.00013888888889
  3
ME10_DIM_11
100
AcDbAlignedDimension
 13
-148.5500042129174
 23
-55.87499998572233
 33
0.0
 14
-139.6500042129174
 24
-55.87499998572248
 34
0.0
100
AcDbRotatedDimension
  0
DIMENSION
  5
129
330
6D
100
AcDbEntity
  8
1
100
AcDbDimension
  2
*D19
 10
-134.7506161759719
 20
-54.72499998572626
 30
0.0
 11
-136.4631161759719
 21
-62.25119176377598
 31
0.0
 70
    32
  1
<>
 71
     5
 42
-1.0
 53
90.0
  3
ME10_DIM_12
100
AcDbAlignedDimension
 13
-141.8500042129175
 23
-58.27499998572246
 33
0.0
 14
-139.7506161759719
 24
-54.72499998572626
 34
0.0
 50
90.0
100
AcDbRotatedDimension
  0
ENDBLK
  5
70
330
6D
100
AcDbEntity
  8
0
100
AcDbBlockEnd
  0
BLOCK
  5
72
330
71
100
AcDbEntity
  8
0
100
AcDbBlockBegin
  2
_rahmen
 70
     0
 10
-131.1500084258349
 20
-255.8534542469851
 30
0.0
  3
_rahmen
  1

  0
LINE
  5
12A
330
71
100
AcDbEntity
  8
1
  6
Continuous
 62
     6
100
AcDbLine
 10
-260.6948129525849
 20
-225.3534542469849
 30
0.0
 11
-131.1500084258332
 21
-225.3534542469849
 31
0.0
  0
LINE
  5
12B
330
71
100
AcDbEntity
  8
1
  6
Continuous
 62
     7
100
AcDbLine
 10
-242.4948129525849
 20
-246.6034542469849
 30
0.0
 11
-224.294812952585
 21
-246.6034542469849
 31
0.0
  0
LINE
  5
12C
330
71
100
AcDbEntity
  8
1
  6
Continuous
 62
     6
100
AcDbLine
 10
-242.4948129525849
 20
-250.8534542469849
 30
0.0
 11
-260.6948129525849
 21
-250.8534542469851
 31
0.0
  0
LINE
  5
12D
330
71
100
AcDbEntity
  8
1
  6
Continuous
 62
     7
100
AcDbLine
 10
-242.4948129525849
 20
-246.6034542469849
 30
0.0
 11
-242.4948129525849
 21
-250.8534542469849
 31
0.0
  0
LINE
  5
12E
330
71
100
AcDbEntity
  8
1
  6
Continuous
 62
     7
100
AcDbLine
 10
-224.294812952585
 20
-246.6034542469849
 30
0.0
 11
-224.294812952585
 21
-250.8534542469851
 31
0.0
  0
LINE
  5
12F
330
71
100
AcDbEntity
  8
1
  6
Continuous
 62
     7
100
AcDbLine
 10
-260.6948129525849
 20
-246.6034542469851
 30
0.0
 11
-260.6948129525849
 21
-250.8534542469851
 31
0.0
  0
LINE
  5
130
330
71
100
AcDbEntity
  8
1
  6
Continuous
 62
     7
100
AcDbLine
 10
-260.6948129525849
 20
-246.6034542469851
 30
0.0
 11
-242.4948129525849
 21
-246.6034542469849
 31
0.0
  0
LINE
  5
131
330
71
100
AcDbEntity
  8
1
  6
Continuous
 62
     2
100
AcDbLine
 10
-251.4581580660223
 20
-227.228454246985
 30
0.0
 11
-251.4581580660223
 21
-232.228454246985
 31
0.0
  0
LINE
  5
132
330
71
100
AcDbEntity
  8
1
  6
Continuous
 62
     2
100
AcDbLine
 10
-251.4581580660223
 20
-232.228454246985
 30
0.0
 11
-256.4581580660223
 21
-230.978454246985
 31
0.0
  0
LINE
  5
133
330
71
100
AcDbEntity
  8
1
  6
Continuous
 62
     2
100
AcDbLine
 10
-256.4581580660223
 20
-230.978454246985
 30
0.0
 11
-256.4581580660223
 21
-228.478454246985
 31
0.0
  0
LINE
  5
134
330
71
100
AcDbEntity
  8
1
  6
Continuous
 62
     2
100
AcDbLine
 10
-256.4581580660223
 20
-228.478454246985
 30
0.0
 11
-251.4581580660223
 21
-227.228454246985
 31
0.0
  0
LINE
  5
135
330
71
100
AcDbEntity
  8
1
  6
Continuous
 62
     6
100
AcDbLine
 10
-383.1500084258331
 20
-250.8534542469849
 30
0.0
 11
-418.150008425833
 21
-250.8534542469849
 31
0.0
  0
LINE
  5
136
330
71
100
AcDbEntity
  8
1
  6
Continuous
 62
     6
100
AcDbLine
 10
-131.1500084258332
 20
-233.8534542469849
 30
0.0
 11
-131.1500084258336
 21
-242.3534542469849
 31
0.0
  0
LINE
  5
137
330
71
100
AcDbEntity
  8
1
  6
Continuous
 62
     6
100
AcDbLine
 10
-224.294812952585
 20
-250.8534542469851
 30
0.0
 11
-224.6500084258349
 21
-250.8534542469849
 31
0.0
  0
LINE
  5
138
330
71
100
AcDbEntity
  8
1
  6
Continuous
 62
     6
100
AcDbLine
 10
-376.9500084258351
 20
-250.8534542469851
 30
0.0
 11
-383.1500084258331
 21
-250.8534542469849
 31
0.0
  0
LINE
  5
139
330
71
100
AcDbEntity
  8
1
  6
Continuous
 62
     7
100
AcDbLine
 10
-224.294812952585
 20
-233.8534542469849
 30
0.0
 11
-224.294812952585
 21
-246.6034542469849
 31
0.0
  0
LINE
  5
13A
330
71
100
AcDbEntity
  8
1
  6
Continuous
 62
     7
100
AcDbLine
 10
-260.6948129525849
 20
-233.8534542469849
 30
0.0
 11
-260.6948129525849
 21
-246.6034542469851
 31
0.0
  0
LINE
  5
13B
330
71
100
AcDbEntity
  8
1
  6
Continuous
 62
     6
100
AcDbLine
 10
-274.6500084258349
 20
-250.8534542469849
 30
0.0
 11
-324.6500084258351
 21
-250.8534542469849
 31
0.0
  0
LINE
  5
13C
330
71
100
AcDbEntity
  8
1
  6
Continuous
 62
     6
100
AcDbLine
 10
-376.9500084258351
 20
-250.8534542469851
 30
0.0
 11
-374.6500084258349
 21
-250.8534542469849
 31
0.0
  0
LINE
  5
13D
330
71
100
AcDbEntity
  8
1
  6
Continuous
 62
     6
100
AcDbLine
 10
-224.294812952585
 20
-250.8534542469851
 30
0.0
 11
-174.6500084258349
 21
-250.8534542469849
 31
0.0
  0
LINE
  5
13E
330
71
100
AcDbEntity
  8
1
  6
Continuous
 62
     6
100
AcDbLine
 10
-131.1500084258349
 20
-250.8534542469849
 30
0.0
 11
-131.1500084258336
 21
-242.3534542469849
 31
0.0
  0
LINE
  5
13F
330
71
100
AcDbEntity
  8
1
  6
Continuous
 62
     2
100
AcDbLine
 10
-423.150008425834
 20
-250.8534542469849
 30
0.0
 11
-423.150008425834
 21
-255.8534542469851
 31
0.0
  0
LINE
  5
140
330
71
100
AcDbEntity
  8
1
  6
Continuous
 62
     2
100
AcDbLine
 10
-418.150008425833
 20
-250.8534542469849
 30
0.0
 11
-423.150008425834
 21
-250.8534542469849
 31
0.0
  0
LINE
  5
141
330
71
100
AcDbEntity
  8
1
  6
Continuous
 62
     2
100
AcDbLine
 10
-418.150008425833
 20
-255.8534542469851
 30
0.0
 11
-374.6500084258349
 21
-255.8534542469851
 31
0.0
  0
LINE
  5
142
330
71
100
AcDbEntity
  8
1
  6
Continuous
 62
     2
100
AcDbLine
 10
-418.150008425833
 20
-250.8534542469849
 30
0.0
 11
-418.150008425833
 21
-255.8534542469851
 31
0.0
  0
LINE
  5
143
330
71
100
AcDbEntity
  8
1
  6
Continuous
 62
     2
100
AcDbLine
 10
-174.6500084258349
 20
-255.8534542469851
 30
0.0
 11
-224.6500084258349
 21
-255.8534542469851
 31
0.0
  0
LINE
  5
144
330
71
100
AcDbEntity
  8
1
  6
Continuous
 62
     2
100
AcDbLine
 10
-174.6500084258349
 20
-255.8534542469851
 30
0.0
 11
-174.6500084258349
 21
-250.8534542469849
 31
0.0
  0
LINE
  5
145
330
71
100
AcDbEntity
  8
1
  6
Continuous
 62
     2
100
AcDbLine
 10
-224.6500084258349
 20
-255.8534542469851
 30
0.0
 11
-224.6500084258349
 21
-250.8534542469849
 31
0.0
  0
LINE
  5
146
330
71
100
AcDbEntity
  8
1
  6
Continuous
 62
     2
100
AcDbLine
 10
-274.6500084258349
 20
-255.8534542469851
 30
0.0
 11
-224.6500084258349
 21
-255.8534542469851
 31
0.0
  0
LINE
  5
147
330
71
100
AcDbEntity
  8
1
  6
Continuous
 62
     2
100
AcDbLine
 10
-274.6500084258349
 20
-255.8534542469851
 30
0.0
 11
-274.6500084258349
 21
-250.8534542469849
 31
0.0
  0
LINE
  5
148
330
71
100
AcDbEntity
  8
1
  6
Continuous
 62
     2
100
AcDbLine
 10
-324.6500084258351
 20
-255.8534542469851
 30
0.0
 11
-274.6500084258349
 21
-255.8534542469851
 31
0.0
  0
LINE
  5
149
330
71
100
AcDbEntity
  8
1
  6
Continuous
 62
     2
100
AcDbLine
 10
-324.6500084258351
 20
-255.8534542469851
 30
0.0
 11
-324.6500084258351
 21
-250.8534542469849
 31
0.0
  0
LINE
  5
14A
330
71
100
AcDbEntity
  8
1
  6
Continuous
 62
     2
100
AcDbLine
 10
-374.6500084258349
 20
-255.8534542469851
 30
0.0
 11
-324.6500084258351
 21
-255.8534542469851
 31
0.0
  0
LINE
  5
14B
330
71
100
AcDbEntity
  8
1
  6
Continuous
 62
     2
100
AcDbLine
 10
-374.6500084258349
 20
-255.8534542469851
 30
0.0
 11
-374.6500084258349
 21
-250.8534542469849
 31
0.0
  0
LINE
  5
14C
330
71
100
AcDbEntity
  8
1
  6
Continuous
 62
     6
100
AcDbLine
 10
-418.1500084258332
 20
-200.8534542469848
 30
0.0
 11
-418.150008425833
 21
-250.8534542469849
 31
0.0
  0
LINE
  5
14D
330
71
100
AcDbEntity
  8
1
  6
Continuous
 62
     2
100
AcDbLine
 10
-423.150008425834
 20
-200.8534542469848
 30
0.0
 11
-423.150008425834
 21
-250.8534542469849
 31
0.0
  0
LINE
  5
14E
330
71
100
AcDbEntity
  8
1
  6
Continuous
 62
     2
100
AcDbLine
 10
-423.150008425834
 20
-200.8534542469848
 30
0.0
 11
-418.1500084258332
 21
-200.8534542469848
 31
0.0
  0
LINE
  5
14F
330
71
100
AcDbEntity
  8
1
  6
Continuous
 62
     6
100
AcDbLine
 10
-418.1500084258334
 20
-150.853454246985
 30
0.0
 11
-418.1500084258332
 21
-200.8534542469848
 31
0.0
  0
LINE
  5
150
330
71
100
AcDbEntity
  8
1
  6
Continuous
 62
     2
100
AcDbLine
 10
-423.150008425834
 20
-150.853454246985
 30
0.0
 11
-423.150008425834
 21
-200.8534542469848
 31
0.0
  0
LINE
  5
151
330
71
100
AcDbEntity
  8
1
  6
Continuous
 62
     2
100
AcDbLine
 10
-423.150008425834
 20
-150.853454246985
 30
0.0
 11
-418.1500084258334
 21
-150.853454246985
 31
0.0
  0
LINE
  5
152
330
71
100
AcDbEntity
  8
1
  6
Continuous
 62
     6
100
AcDbLine
 10
-418.1500084258339
 20
-100.8534542469849
 30
0.0
 11
-418.1500084258334
 21
-150.853454246985
 31
0.0
  0
LINE
  5
153
330
71
100
AcDbEntity
  8
1
  6
Continuous
 62
     2
100
AcDbLine
 10
-423.150008425834
 20
-100.8534542469849
 30
0.0
 11
-423.150008425834
 21
-150.853454246985
 31
0.0
  0
LINE
  5
154
330
71
100
AcDbEntity
  8
1
  6
Continuous
 62
     2
100
AcDbLine
 10
-423.150008425834
 20
-100.8534542469849
 30
0.0
 11
-418.1500084258339
 21
-100.8534542469849
 31
0.0
  0
LINE
  5
155
330
71
100
AcDbEntity
  8
1
  6
Continuous
 62
     6
100
AcDbLine
 10
-418.150008425834
 20
-65.85345424698494
 30
0.0
 11
-418.1500084258339
 21
-100.8534542469849
 31
0.0
  0
LINE
  5
156
330
71
100
AcDbEntity
  8
1
  6
Continuous
 62
     2
100
AcDbLine
 10
-423.150008425834
 20
-45.85345424698494
 30
0.0
 11
-423.150008425834
 21
-100.8534542469849
 31
0.0
  0
LINE
  5
157
330
71
100
AcDbEntity
  8
1
  6
Continuous
 62
     2
100
AcDbLine
 10
-423.150008425834
 20
-255.8534542469851
 30
0.0
 11
-418.150008425833
 21
-255.8534542469851
 31
0.0
  0
LINE
  5
158
330
71
100
AcDbEntity
  8
1
  6
Continuous
 62
     2
100
AcDbLine
 10
-274.6500084258349
 20
-45.85345424698494
 30
0.0
 11
-274.6500084258349
 21
-55.06214609168626
 31
0.0
  0
LINE
  5
159
330
71
100
AcDbEntity
  8
1
  6
Continuous
 62
     2
100
AcDbLine
 10
-274.6500084258349
 20
-45.85345424698494
 30
0.0
 11
-423.150008425834
 21
-45.85345424698494
 31
0.0
  0
LINE
  5
15A
330
71
100
AcDbEntity
  8
1
  6
Continuous
 62
     2
100
AcDbLine
 10
-126.1500084258359
 20
-250.8534542469849
 30
0.0
 11
-126.1500084258359
 21
-200.8534542469848
 31
0.0
  0
LINE
  5
15B
330
71
100
AcDbEntity
  8
1
  6
Continuous
 62
     2
100
AcDbLine
 10
-126.1500084258359
 20
-100.8534542469849
 30
0.0
 11
-126.1500084258359
 21
-45.85345424698494
 31
0.0
  0
LINE
  5
15C
330
71
100
AcDbEntity
  8
1
  6
Continuous
 62
     6
100
AcDbLine
 10
-131.1500084258357
 20
-100.8534542469849
 30
0.0
 11
-131.1500084258359
 21
-65.85345424698494
 31
0.0
  0
LINE
  5
15D
330
71
100
AcDbEntity
  8
1
  6
Continuous
 62
     2
100
AcDbLine
 10
-131.1500084258357
 20
-100.8534542469849
 30
0.0
 11
-126.1500084258359
 21
-100.8534542469849
 31
0.0
  0
LINE
  5
15E
330
71
100
AcDbEntity
  8
1
  6
Continuous
 62
     2
100
AcDbLine
 10
-126.1500084258359
 20
-150.853454246985
 30
0.0
 11
-126.1500084258359
 21
-100.8534542469849
 31
0.0
  0
LINE
  5
15F
330
71
100
AcDbEntity
  8
1
  6
Continuous
 62
     6
100
AcDbLine
 10
-131.1500084258345
 20
-150.853454246985
 30
0.0
 11
-131.1500084258357
 21
-100.8534542469849
 31
0.0
  0
LINE
  5
160
330
71
100
AcDbEntity
  8
1
  6
Continuous
 62
     2
100
AcDbLine
 10
-131.1500084258345
 20
-150.853454246985
 30
0.0
 11
-126.1500084258359
 21
-150.853454246985
 31
0.0
  0
LINE
  5
161
330
71
100
AcDbEntity
  8
1
  6
Continuous
 62
     2
100
AcDbLine
 10
-126.1500084258359
 20
-200.8534542469848
 30
0.0
 11
-126.1500084258359
 21
-150.853454246985
 31
0.0
  0
LINE
  5
162
330
71
100
AcDbEntity
  8
1
  6
Continuous
 62
     6
100
AcDbLine
 10
-131.150008425834
 20
-200.8534542469848
 30
0.0
 11
-131.1500084258345
 21
-150.853454246985
 31
0.0
  0
LINE
  5
163
330
71
100
AcDbEntity
  8
1
  6
Continuous
 62
     2
100
AcDbLine
 10
-131.150008425834
 20
-200.8534542469848
 30
0.0
 11
-126.1500084258359
 21
-200.8534542469848
 31
0.0
  0
LINE
  5
164
330
71
100
AcDbEntity
  8
1
  6
Continuous
 62
     6
100
AcDbLine
 10
-131.1500084258359
 20
-65.85345424698494
 30
0.0
 11
-418.150008425834
 21
-65.85345424698494
 31
0.0
  0
LINE
  5
165
330
71
100
AcDbEntity
  8
1
  6
Continuous
 62
     2
100
AcDbLine
 10
-126.1500084258359
 20
-45.85345424698494
 30
0.0
 11
-274.6500084258349
 21
-45.85345424698494
 31
0.0
  0
LINE
  5
166
330
71
100
AcDbEntity
  8
1
  6
Continuous
 62
     6
100
AcDbLine
 10
-131.1500084258332
 20
-233.8534542469849
 30
0.0
 11
-131.150008425834
 21
-200.8534542469848
 31
0.0
  0
LINE
  5
167
330
71
100
AcDbEntity
  8
1
  6
Continuous
 62
     2
100
AcDbLine
 10
-131.1500084258349
 20
-255.8534542469851
 30
0.0
 11
-174.6500084258349
 21
-255.8534542469851
 31
0.0
  0
LINE
  5
168
330
71
100
AcDbEntity
  8
1
  6
Continuous
 62
     2
100
AcDbLine
 10
-126.1500084258359
 20
-255.8534542469851
 30
0.0
 11
-131.1500084258349
 21
-255.8534542469851
 31
0.0
  0
LINE
  5
169
330
71
100
AcDbEntity
  8
1
  6
Continuous
 62
     2
100
AcDbLine
 10
-126.1500084258359
 20
-255.8534542469851
 30
0.0
 11
-126.1500084258359
 21
-250.8534542469849
 31
0.0
  0
LINE
  5
16A
330
71
100
AcDbEntity
  8
1
  6
Continuous
 62
     6
100
AcDbLine
 10
-260.6948129525849
 20
-233.8534542469849
 30
0.0
 11
-224.294812952585
 21
-233.8534542469849
 31
0.0
  0
LINE
  5
16B
330
71
100
AcDbEntity
  8
1
  6
Continuous
 62
     2
100
AcDbLine
 10
-131.1500084258349
 20
-250.8534542469849
 30
0.0
 11
-131.1500084258349
 21
-255.8534542469851
 31
0.0
  0
LINE
  5
16C
330
71
100
AcDbEntity
  8
1
  6
Continuous
 62
     2
100
AcDbLine
 10
-131.1500084258349
 20
-250.8534542469849
 30
0.0
 11
-126.1500084258359
 21
-250.8534542469849
 31
0.0
  0
LINE
  5
16D
330
71
100
AcDbEntity
  8
1
  6
Continuous
 62
     6
100
AcDbLine
 10
-224.6500084258349
 20
-250.8534542469849
 30
0.0
 11
-242.4948129525849
 21
-250.8534542469849
 31
0.0
  0
LINE
  5
16E
330
71
100
AcDbEntity
  8
1
  6
Continuous
 62
     6
100
AcDbLine
 10
-174.6500084258349
 20
-250.8534542469849
 30
0.0
 11
-131.1500084258349
 21
-250.8534542469849
 31
0.0
  0
LINE
  5
16F
330
71
100
AcDbEntity
  8
1
  6
Continuous
 62
     6
100
AcDbLine
 10
-324.6500084258351
 20
-250.8534542469849
 30
0.0
 11
-329.6948129525849
 21
-250.8534542469849
 31
0.0
  0
LINE
  5
170
330
71
100
AcDbEntity
  8
1
  6
Continuous
 62
     6
100
AcDbLine
 10
-274.6500084258349
 20
-250.8534542469849
 30
0.0
 11
-260.6948129525849
 21
-250.8534542469851
 31
0.0
  0
LINE
  5
171
102
{ACAD_REACTORS
330
25B
330
25C
102
}
330
71
100
AcDbEntity
  8
0
  6
Continuous
 62
     2
100
AcDbLine
 10
-253.1801870104381
 20
-238.7809394907728
 30
0.0
 11
-253.1801870104381
 21
-238.175404202266
 31
0.0
  0
LINE
  5
172
102
{ACAD_REACTORS
330
25B
330
25C
102
}
330
71
100
AcDbEntity
  8
0
  6
Continuous
 62
     2
100
AcDbLine
 10
-253.1801870104381
 20
-241.5810740974041
 30
0.0
 11
-253.1801870104381
 21
-240.9992226907091
 31
0.0
  0
LINE
  5
173
102
{ACAD_REACTORS
330
25D
330
25E
102
}
330
71
100
AcDbEntity
  8
0
  6
Continuous
 62
     2
100
AcDbLine
 10
-230.5507005749589
 20
-241.2914100292811
 30
0.0
 11
-230.5507005749589
 21
-243.5599542469686
 31
0.0
  0
LINE
  5
174
102
{ACAD_REACTORS
330
25D
330
25E
102
}
330
71
100
AcDbEntity
  8
0
  6
Continuous
 62
     2
100
AcDbLine
 10
-231.9317543539465
 20
-240.506144723158
 30
0.0
 11
-228.5468088353178
 21
-240.5061447231576
 31
0.0
  0
LINE
  5
175
102
{ACAD_REACTORS
330
25D
330
25E
102
}
330
71
100
AcDbEntity
  8
0
  6
Continuous
 62
     2
100
AcDbLine
 10
-228.5468088353178
 20
-241.2914100292811
 30
0.0
 11
-228.5468088353178
 21
-240.5061447231576
 31
0.0
  0
LINE
  5
176
102
{ACAD_REACTORS
330
25D
330
25E
102
}
330
71
100
AcDbEntity
  8
0
  6
Continuous
 62
     2
100
AcDbLine
 10
-229.3579078727912
 20
-241.2914100292811
 30
0.0
 11
-228.5468088353178
 21
-241.2914100292811
 31
0.0
  0
LINE
  5
177
102
{ACAD_REACTORS
330
25D
330
25E
102
}
330
71
100
AcDbEntity
  8
0
  6
Continuous
 62
     2
100
AcDbLine
 10
-229.3579078727912
 20
-243.5599542469686
 30
0.0
 11
-229.3579078727912
 21
-241.2914100292811
 31
0.0
  0
LINE
  5
178
102
{ACAD_REACTORS
330
25D
330
25E
102
}
330
71
100
AcDbEntity
  8
0
  6
Continuous
 62
     2
100
AcDbLine
 10
-230.5507005749589
 20
-243.5599542469686
 30
0.0
 11
-229.3579078727912
 21
-243.5599542469686
 31
0.0
  0
LINE
  5
179
102
{ACAD_REACTORS
330
253
330
254
102
}
330
71
100
AcDbEntity
  8
0
  6
Continuous
 62
     2
100
AcDbLine
 10
-231.2472915130234
 20
-237.1469542469831
 30
0.0
 11
-232.6500157307727
 21
-237.1469542469831
 31
0.0
  0
LINE
  5
17A
102
{ACAD_REACTORS
330
253
330
254
102
}
330
71
100
AcDbEntity
  8
0
  6
Continuous
 62
     2
100
AcDbLine
 10
-231.2472915130234
 20
-237.1469542469831
 30
0.0
 11
-230.6461239911316
 21
-237.8267775685386
 31
0.0
  0
LINE
  5
17B
102
{ACAD_REACTORS
330
253
330
254
102
}
330
71
100
AcDbEntity
  8
0
  6
Continuous
 62
     2
100
AcDbLine
 10
-230.6461239911316
 20
-237.8267775685386
 30
0.0
 11
-230.0449564692388
 21
-237.1469542469831
 31
0.0
  0
LINE
  5
17C
102
{ACAD_REACTORS
330
253
330
254
102
}
330
71
100
AcDbEntity
  8
0
  6
Continuous
 62
     2
100
AcDbLine
 10
-229.9447618822581
 20
-238.6199047770193
 30
0.0
 11
-228.6422322514916
 21
-237.1469542469831
 31
0.0
  0
LINE
  5
17D
102
{ACAD_REACTORS
330
253
330
254
102
}
330
71
100
AcDbEntity
  8
0
  6
Continuous
 62
     2
100
AcDbLine
 10
-229.9447618822581
 20
-238.6199047770193
 30
0.0
 11
-228.5468088353178
 21
-240.2007637707943
 31
0.0
  0
LINE
  5
17E
102
{ACAD_REACTORS
330
253
330
254
102
}
330
71
100
AcDbEntity
  8
0
  6
Continuous
 62
     2
100
AcDbLine
 10
-229.9495330530661
 20
-240.2007637707943
 30
0.0
 11
-228.5468088353178
 21
-240.2007637707943
 31
0.0
  0
LINE
  5
17F
102
{ACAD_REACTORS
330
253
330
254
102
}
330
71
100
AcDbEntity
  8
0
  6
Continuous
 62
     2
100
AcDbLine
 10
-230.6461239911316
 20
-239.4130319855006
 30
0.0
 11
-229.9495330530661
 21
-240.2007637707943
 31
0.0
  0
LINE
  5
180
102
{ACAD_REACTORS
330
251
330
252
102
}
330
71
100
AcDbEntity
  8
0
  6
Continuous
 62
     2
100
AcDbLine
 10
-234.1052228274153
 20
-237.1469542469831
 30
0.0
 11
-232.8647184171624
 21
-237.1469542469831
 31
0.0
  0
LINE
  5
181
102
{ACAD_REACTORS
330
251
330
252
102
}
330
71
100
AcDbEntity
  8
0
  6
Continuous
 62
     2
100
AcDbLine
 10
-232.8647184171624
 20
-237.1469542469831
 30
0.0
 11
-232.8647184171624
 21
-240.2007637707943
 31
0.0
  0
LINE
  5
182
102
{ACAD_REACTORS
330
251
330
252
102
}
330
71
100
AcDbEntity
  8
0
  6
Continuous
 62
     2
100
AcDbLine
 10
-234.1052228274153
 20
-240.2007637707943
 30
0.0
 11
-234.1052228274153
 21
-237.1469542469831
 31
0.0
  0
LINE
  5
183
102
{ACAD_REACTORS
330
24F
330
250
102
}
330
71
100
AcDbEntity
  8
0
  6
Continuous
 62
     2
100
AcDbLine
 10
-235.5735329099529
 20
-242.3384304374442
 30
0.0
 11
-235.2733676727605
 21
-241.5706154714574
 31
0.0
  0
LINE
  5
184
102
{ACAD_REACTORS
330
24F
330
250
102
}
330
71
100
AcDbEntity
  8
0
  6
Continuous
 62
     2
100
AcDbLine
 10
-236.0510685145737
 20
-243.5599542469686
 30
0.0
 11
-235.8395884610979
 21
-243.0189937027508
 31
0.0
  0
LINE
  5
185
102
{ACAD_REACTORS
330
24F
330
250
102
}
330
71
100
AcDbEntity
  8
0
  6
Continuous
 62
     2
100
AcDbLine
 10
-235.8936198778874
 20
-240.5061447231576
 30
0.0
 11
-237.2915729248267
 21
-243.5599542469686
 31
0.0
  0
LINE
  5
186
102
{ACAD_REACTORS
330
24F
330
250
102
}
330
71
100
AcDbEntity
  8
0
  6
Continuous
 62
     2
100
AcDbLine
 10
-233.2551624206944
 20
-243.5599542469686
 30
0.0
 11
-234.4956668309483
 21
-243.5599542469686
 31
0.0
  0
LINE
  5
187
102
{ACAD_REACTORS
330
24F
330
250
102
}
330
71
100
AcDbEntity
  8
0
  6
Continuous
 62
     2
100
AcDbLine
 10
-235.8395884610979
 20
-243.0189937027508
 30
0.0
 11
-234.7071468844241
 21
-243.0189937027508
 31
0.0
  0
LINE
  5
188
102
{ACAD_REACTORS
330
24D
330
24E
102
}
330
71
100
AcDbEntity
  8
0
  6
Continuous
 62
     2
100
AcDbLine
 10
-239.4490850640089
 20
-241.2914100292811
 30
0.0
 11
-238.6379860265343
 21
-241.2914100292811
 31
0.0
  0
LINE
  5
189
102
{ACAD_REACTORS
330
24D
330
24E
102
}
330
71
100
AcDbEntity
  8
0
  6
Continuous
 62
     2
100
AcDbLine
 10
-236.6340942868953
 20
-240.5061447231576
 30
0.0
 11
-239.4490850640089
 21
-240.5061447231576
 31
0.0
  0
LINE
  5
18A
102
{ACAD_REACTORS
330
24D
330
24E
102
}
330
71
100
AcDbEntity
  8
0
  6
Continuous
 62
     2
100
AcDbLine
 10
-236.6340942868953
 20
-241.2914100292811
 30
0.0
 11
-236.6340942868953
 21
-240.5061447231576
 31
0.0
  0
LINE
  5
18B
102
{ACAD_REACTORS
330
24D
330
24E
102
}
330
71
100
AcDbEntity
  8
0
  6
Continuous
 62
     2
100
AcDbLine
 10
-237.4451933243678
 20
-241.2914100292811
 30
0.0
 11
-236.6340942868953
 21
-241.2914100292811
 31
0.0
  0
LINE
  5
18C
102
{ACAD_REACTORS
330
24D
330
24E
102
}
330
71
100
AcDbEntity
  8
0
  6
Continuous
 62
     2
100
AcDbLine
 10
-237.4451933243678
 20
-243.5599542469686
 30
0.0
 11
-237.4451933243678
 21
-241.2914100292811
 31
0.0
  0
LINE
  5
18D
102
{ACAD_REACTORS
330
24B
330
24C
102
}
330
71
100
AcDbEntity
  8
0
  6
Continuous
 62
     2
100
AcDbLine
 10
-236.7770784802698
 20
-240.2007637707943
 30
0.0
 11
-236.7770784802698
 21
-238.8919882605896
 31
0.0
  0
LINE
  5
18E
102
{ACAD_REACTORS
330
24B
330
24C
102
}
330
71
100
AcDbEntity
  8
0
  6
Continuous
 62
     2
100
AcDbLine
 10
-237.9698711824363
 20
-237.1469542469831
 30
0.0
 11
-237.9698711824363
 21
-240.2007637707943
 31
0.0
  0
LINE
  5
18F
102
{ACAD_REACTORS
330
24B
330
24C
102
}
330
71
100
AcDbEntity
  8
0
  6
Continuous
 62
     2
100
AcDbLine
 10
-236.7770784802698
 20
-237.1469542469831
 30
0.0
 11
-237.9698711824363
 21
-237.1469542469831
 31
0.0
  0
LINE
  5
190
102
{ACAD_REACTORS
330
24B
330
24C
102
}
330
71
100
AcDbEntity
  8
0
  6
Continuous
 62
     2
100
AcDbLine
 10
-235.5365740700158
 20
-237.1469542469831
 30
0.0
 11
-235.5365740700158
 21
-238.4557297571883
 31
0.0
  0
LINE
  5
191
102
{ACAD_REACTORS
330
249
330
24A
102
}
330
71
100
AcDbEntity
  8
0
  6
Continuous
 62
     2
100
AcDbLine
 10
-243.218310002856
 20
-240.5061447231576
 30
0.0
 11
-243.218310002856
 21
-243.5599542469686
 31
0.0
  0
LINE
  5
192
102
{ACAD_REACTORS
330
249
330
24A
102
}
330
71
100
AcDbEntity
  8
0
  6
Continuous
 62
     2
100
AcDbLine
 10
-242.0255173006884
 20
-240.5061447231576
 30
0.0
 11
-243.218310002856
 21
-240.5061447231576
 31
0.0
  0
LINE
  5
193
102
{ACAD_REACTORS
330
249
330
24A
102
}
330
71
100
AcDbEntity
  8
0
  6
Continuous
 62
     2
100
AcDbLine
 10
-240.7850128904355
 20
-243.5599542469686
 30
0.0
 11
-239.5922201882691
 21
-243.5599542469686
 31
0.0
  0
LINE
  5
194
102
{ACAD_REACTORS
330
249
330
24A
102
}
330
71
100
AcDbEntity
  8
0
  6
Continuous
 62
     2
100
AcDbLine
 10
-243.218310002856
 20
-243.5599542469686
 30
0.0
 11
-242.0255173006884
 21
-243.5599542469686
 31
0.0
  0
LINE
  5
195
102
{ACAD_REACTORS
330
259
330
25A
102
}
330
71
100
AcDbEntity
  8
0
  6
Continuous
 62
     2
100
AcDbLine
 10
-239.5443575492969
 20
-238.3248522061678
 30
0.0
 11
-239.5443575492969
 21
-237.8449678524261
 31
0.0
  0
LINE
  5
196
102
{ACAD_REACTORS
330
259
330
25A
102
}
330
71
100
AcDbEntity
  8
0
  6
Continuous
 62
     2
100
AcDbLine
 10
-238.2084297228692
 20
-238.3248522061678
 30
0.0
 11
-239.5443575492969
 21
-238.3248522061678
 31
0.0
  0
LINE
  5
197
102
{ACAD_REACTORS
330
259
330
25A
102
}
330
71
100
AcDbEntity
  8
0
  6
Continuous
 62
     2
100
AcDbLine
 10
-238.2084297228692
 20
-239.0228658116101
 30
0.0
 11
-238.2084297228692
 21
-238.3248522061678
 31
0.0
  0
LINE
  5
198
102
{ACAD_REACTORS
330
259
330
25A
102
}
330
71
100
AcDbEntity
  8
0
  6
Continuous
 62
     2
100
AcDbLine
 10
-239.5443575492969
 20
-239.0228658116101
 30
0.0
 11
-238.2084297228692
 21
-239.0228658116101
 31
0.0
  0
LINE
  5
199
102
{ACAD_REACTORS
330
247
330
248
102
}
330
71
100
AcDbEntity
  8
0
  6
Continuous
 62
     2
100
AcDbLine
 10
-243.0273122396238
 20
-237.1469542469831
 30
0.0
 11
-243.0273122396238
 21
-240.2007637707943
 31
0.0
  0
LINE
  5
19A
102
{ACAD_REACTORS
330
247
330
248
102
}
330
71
100
AcDbEntity
  8
0
  6
Continuous
 62
     2
100
AcDbLine
 10
-243.0273122396238
 20
-240.2007637707943
 30
0.0
 11
-244.2201049417902
 21
-240.2007637707943
 31
0.0
  0
LINE
  5
19B
102
{ACAD_REACTORS
330
247
330
248
102
}
330
71
100
AcDbEntity
  8
0
  6
Continuous
 62
     2
100
AcDbLine
 10
-244.2201049417902
 20
-240.2007637707943
 30
0.0
 11
-244.2201049417902
 21
-239.0664916619505
 31
0.0
  0
LINE
  5
19C
102
{ACAD_REACTORS
330
247
330
248
102
}
330
71
100
AcDbEntity
  8
0
  6
Continuous
 62
     2
100
AcDbLine
 10
-245.2697625196977
 20
-240.2007637707943
 30
0.0
 11
-246.4625552218643
 21
-240.2007637707943
 31
0.0
  0
LINE
  5
19D
102
{ACAD_REACTORS
330
247
330
248
102
}
330
71
100
AcDbEntity
  8
0
  6
Continuous
 62
     2
100
AcDbLine
 10
-246.4625552218643
 20
-237.1469542469831
 30
0.0
 11
-245.2697625196977
 21
-237.1469542469831
 31
0.0
  0
LINE
  5
19E
102
{ACAD_REACTORS
330
247
330
248
102
}
330
71
100
AcDbEntity
  8
0
  6
Continuous
 62
     2
100
AcDbLine
 10
-245.2697625196977
 20
-237.1469542469831
 30
0.0
 11
-245.2697625196977
 21
-238.2157875803177
 31
0.0
  0
LINE
  5
19F
102
{ACAD_REACTORS
330
247
330
248
102
}
330
71
100
AcDbEntity
  8
0
  6
Continuous
 62
     2
100
AcDbLine
 10
-245.2697625196977
 20
-238.2157875803177
 30
0.0
 11
-244.2201049417902
 21
-238.2157875803177
 31
0.0
  0
LINE
  5
1A0
102
{ACAD_REACTORS
330
255
330
256
102
}
330
71
100
AcDbEntity
  8
0
  6
Continuous
 62
     2
100
AcDbLine
 10
-248.4187352534179
 20
-237.8100600924232
 30
0.0
 11
-248.101440191876
 21
-237.8100600924232
 31
0.0
  0
LINE
  5
1A1
102
{ACAD_REACTORS
330
255
330
256
102
}
330
71
100
AcDbEntity
  8
0
  6
Continuous
 62
     2
100
AcDbLine
 10
-248.4187352534179
 20
-238.5157877417655
 30
0.0
 11
-248.101440191876
 21
-238.5157877417655
 31
0.0
  0
LINE
  5
1A2
102
{ACAD_REACTORS
330
255
330
256
102
}
330
71
100
AcDbEntity
  8
0
  6
Continuous
 62
     2
100
AcDbLine
 10
-249.659239663672
 20
-237.1469542469831
 30
0.0
 11
-249.659239663672
 21
-240.2007637707943
 31
0.0
  0
LINE
  5
1A3
102
{ACAD_REACTORS
330
255
330
256
102
}
330
71
100
AcDbEntity
  8
0
  6
Continuous
 62
     2
100
AcDbLine
 10
-249.659239663672
 20
-237.1469542469831
 30
0.0
 11
-247.6599676656376
 21
-237.1469542469831
 31
0.0
  0
LINE
  5
1A4
102
{ACAD_REACTORS
330
255
330
256
102
}
330
71
100
AcDbEntity
  8
0
  6
Continuous
 62
     2
100
AcDbLine
 10
-248.4187352534179
 20
-239.2576855296505
 30
0.0
 11
-247.6599676656376
 21
-239.2576855296505
 31
0.0
  0
LINE
  5
1A5
102
{ACAD_REACTORS
330
25B
330
25C
102
}
330
71
100
AcDbEntity
  8
0
  6
Continuous
 62
     2
100
AcDbLine
 10
-255.7557356969687
 20
-238.1752267256179
 30
0.0
 11
-255.7557356969687
 21
-242.531681768335
 31
0.0
  0
LINE
  5
1A6
102
{ACAD_REACTORS
330
25B
330
25C
102
}
330
71
100
AcDbEntity
  8
0
  6
Continuous
 62
     2
100
AcDbLine
 10
-255.440018773893
 20
-237.8595098025417
 30
0.0
 11
-253.9641855128834
 21
-237.8595098025417
 31
0.0
  0
LINE
  5
1A7
102
{ACAD_REACTORS
330
25B
330
25C
102
}
330
71
100
AcDbEntity
  8
0
  6
Continuous
 62
     2
100
AcDbLine
 10
-253.6484685898068
 20
-238.7792513446784
 30
0.0
 11
-253.6484685898068
 21
-238.1752267256179
 31
0.0
  0
LINE
  5
1A8
102
{ACAD_REACTORS
330
25B
330
25C
102
}
330
71
100
AcDbEntity
  8
0
  6
Continuous
 62
     2
100
AcDbLine
 10
-253.6484685898068
 20
-242.531681768335
 30
0.0
 11
-253.6484685898068
 21
-241.0009108368034
 31
0.0
  0
LINE
  5
1A9
102
{ACAD_REACTORS
330
25B
330
25C
102
}
330
71
100
AcDbEntity
  8
0
  6
Continuous
 62
     2
100
AcDbLine
 10
-250.5606013599227
 20
-243.5599542469686
 30
0.0
 11
-256.0339134506395
 21
-243.5599542469686
 31
0.0
  0
LINE
  5
1AA
102
{ACAD_REACTORS
330
25B
330
25C
102
}
330
71
100
AcDbEntity
  8
0
  6
Continuous
 62
     2
100
AcDbLine
 10
-250.1363567445388
 20
-237.5711988623851
 30
0.0
 11
-250.1363567445388
 21
-243.1357096315853
 31
0.0
  0
LINE
  5
1AB
102
{ACAD_REACTORS
330
25B
330
25C
102
}
330
71
100
AcDbEntity
  8
0
  6
Continuous
 62
     2
100
AcDbLine
 10
-256.0339134506395
 20
-237.1469542470013
 30
0.0
 11
-250.5606013599227
 21
-237.1469542470013
 31
0.0
  0
LINE
  5
1AC
102
{ACAD_REACTORS
330
25B
330
25C
102
}
330
71
100
AcDbEntity
  8
0
  6
Continuous
 62
     2
100
AcDbLine
 10
-256.4581580660223
 20
-237.5711988623851
 30
0.0
 11
-256.4581580660223
 21
-243.1357096315853
 31
0.0
  0
LINE
  5
1AD
102
{ACAD_REACTORS
330
25B
330
25C
102
}
330
71
100
AcDbEntity
  8
0
  6
Continuous
 62
     2
100
AcDbLine
 10
-253.9641855128834
 20
-242.8473986914117
 30
0.0
 11
-255.440018773893
 21
-242.8473986914117
 31
0.0
  0
LINE
  5
1AE
102
{ACAD_REACTORS
330
255
330
256
102
}
330
71
100
AcDbEntity
  8
0
  6
Continuous
 62
     2
100
AcDbLine
 10
-248.4187352534179
 20
-240.2007637707943
 30
0.0
 11
-248.4187352534179
 21
-239.2576855296505
 31
0.0
  0
LINE
  5
1AF
102
{ACAD_REACTORS
330
255
330
256
102
}
330
71
100
AcDbEntity
  8
0
  6
Continuous
 62
     2
100
AcDbLine
 10
-249.659239663672
 20
-240.2007637707943
 30
0.0
 11
-248.4187352534179
 21
-240.2007637707943
 31
0.0
  0
LINE
  5
1B0
102
{ACAD_REACTORS
330
255
330
256
102
}
330
71
100
AcDbEntity
  8
0
  6
Continuous
 62
     2
100
AcDbLine
 10
-248.4187352534179
 20
-238.5157877417655
 30
0.0
 11
-248.4187352534179
 21
-237.8100600924232
 31
0.0
  0
LINE
  5
1B1
102
{ACAD_REACTORS
330
247
330
248
102
}
330
71
100
AcDbEntity
  8
0
  6
Continuous
 62
     2
100
AcDbLine
 10
-246.4625552218643
 20
-237.1469542469831
 30
0.0
 11
-246.4625552218643
 21
-240.2007637707943
 31
0.0
  0
LINE
  5
1B2
102
{ACAD_REACTORS
330
247
330
248
102
}
330
71
100
AcDbEntity
  8
0
  6
Continuous
 62
     2
100
AcDbLine
 10
-245.2697625196977
 20
-239.0664916619505
 30
0.0
 11
-245.2697625196977
 21
-240.2007637707943
 31
0.0
  0
LINE
  5
1B3
102
{ACAD_REACTORS
330
247
330
248
102
}
330
71
100
AcDbEntity
  8
0
  6
Continuous
 62
     2
100
AcDbLine
 10
-244.2201049417902
 20
-239.0664916619505
 30
0.0
 11
-245.2697625196977
 21
-239.0664916619505
 31
0.0
  0
LINE
  5
1B4
102
{ACAD_REACTORS
330
247
330
248
102
}
330
71
100
AcDbEntity
  8
0
  6
Continuous
 62
     2
100
AcDbLine
 10
-244.2201049417902
 20
-237.1469542469831
 30
0.0
 11
-243.0273122396238
 21
-237.1469542469831
 31
0.0
  0
LINE
  5
1B5
102
{ACAD_REACTORS
330
247
330
248
102
}
330
71
100
AcDbEntity
  8
0
  6
Continuous
 62
     2
100
AcDbLine
 10
-244.2201049417902
 20
-238.2157875803177
 30
0.0
 11
-244.2201049417902
 21
-237.1469542469831
 31
0.0
  0
LINE
  5
1B6
102
{ACAD_REACTORS
330
259
330
25A
102
}
330
71
100
AcDbEntity
  8
0
  6
Continuous
 62
     2
100
AcDbLine
 10
-238.2084297228692
 20
-237.8449678524261
 30
0.0
 11
-238.2084297228692
 21
-237.1469542469831
 31
0.0
  0
LINE
  5
1B7
102
{ACAD_REACTORS
330
259
330
25A
102
}
330
71
100
AcDbEntity
  8
0
  6
Continuous
 62
     2
100
AcDbLine
 10
-241.3587494466502
 20
-237.1469542469831
 30
0.0
 11
-238.2084297228692
 21
-237.1469542469831
 31
0.0
  0
LINE
  5
1B8
102
{ACAD_REACTORS
330
259
330
25A
102
}
330
71
100
AcDbEntity
  8
0
  6
Continuous
 62
     2
100
AcDbLine
 10
-241.3587494466502
 20
-240.2007637707943
 30
0.0
 11
-238.2084297228692
 21
-240.2007637707943
 31
0.0
  0
LINE
  5
1B9
102
{ACAD_REACTORS
330
259
330
25A
102
}
330
71
100
AcDbEntity
  8
0
  6
Continuous
 62
     2
100
AcDbLine
 10
-238.2084297228692
 20
-240.2007637707943
 30
0.0
 11
-238.2084297228692
 21
-239.5027501653518
 31
0.0
  0
LINE
  5
1BA
102
{ACAD_REACTORS
330
259
330
25A
102
}
330
71
100
AcDbEntity
  8
0
  6
Continuous
 62
     2
100
AcDbLine
 10
-238.2084297228692
 20
-239.5027501653518
 30
0.0
 11
-239.5443575492969
 21
-239.5027501653518
 31
0.0
  0
LINE
  5
1BB
102
{ACAD_REACTORS
330
259
330
25A
102
}
330
71
100
AcDbEntity
  8
0
  6
Continuous
 62
     2
100
AcDbLine
 10
-239.5443575492969
 20
-239.5027501653518
 30
0.0
 11
-239.5443575492969
 21
-239.0228658116101
 31
0.0
  0
LINE
  5
1BC
102
{ACAD_REACTORS
330
259
330
25A
102
}
330
71
100
AcDbEntity
  8
0
  6
Continuous
 62
     2
100
AcDbLine
 10
-239.5443575492969
 20
-237.8449678524261
 30
0.0
 11
-238.2084297228692
 21
-237.8449678524261
 31
0.0
  0
LINE
  5
1BD
102
{ACAD_REACTORS
330
249
330
24A
102
}
330
71
100
AcDbEntity
  8
0
  6
Continuous
 62
     2
100
AcDbLine
 10
-242.0255173006884
 20
-243.5599542469686
 30
0.0
 11
-242.0255173006884
 21
-242.2511787367641
 31
0.0
  0
LINE
  5
1BE
102
{ACAD_REACTORS
330
249
330
24A
102
}
330
71
100
AcDbEntity
  8
0
  6
Continuous
 62
     2
100
AcDbLine
 10
-242.0255173006884
 20
-242.2511787367641
 30
0.0
 11
-240.7850128904355
 21
-243.5599542469686
 31
0.0
  0
LINE
  5
1BF
102
{ACAD_REACTORS
330
249
330
24A
102
}
330
71
100
AcDbEntity
  8
0
  6
Continuous
 62
     2
100
AcDbLine
 10
-239.5922201882691
 20
-243.5599542469686
 30
0.0
 11
-239.5922201882691
 21
-240.5061447231576
 31
0.0
  0
LINE
  5
1C0
102
{ACAD_REACTORS
330
249
330
24A
102
}
330
71
100
AcDbEntity
  8
0
  6
Continuous
 62
     2
100
AcDbLine
 10
-239.5922201882691
 20
-240.5061447231576
 30
0.0
 11
-240.7850128904355
 21
-240.5061447231576
 31
0.0
  0
LINE
  5
1C1
102
{ACAD_REACTORS
330
249
330
24A
102
}
330
71
100
AcDbEntity
  8
0
  6
Continuous
 62
     2
100
AcDbLine
 10
-240.7850128904355
 20
-240.5061447231576
 30
0.0
 11
-240.7850128904355
 21
-241.8149202333626
 31
0.0
  0
LINE
  5
1C2
102
{ACAD_REACTORS
330
249
330
24A
102
}
330
71
100
AcDbEntity
  8
0
  6
Continuous
 62
     2
100
AcDbLine
 10
-240.7850128904355
 20
-241.8149202333626
 30
0.0
 11
-242.0255173006884
 21
-240.5061447231576
 31
0.0
  0
LINE
  5
1C3
102
{ACAD_REACTORS
330
24B
330
24C
102
}
330
71
100
AcDbEntity
  8
0
  6
Continuous
 62
     2
100
AcDbLine
 10
-236.7770784802698
 20
-238.8919882605896
 30
0.0
 11
-235.5365740700158
 21
-240.2007637707943
 31
0.0
  0
LINE
  5
1C4
102
{ACAD_REACTORS
330
24B
330
24C
102
}
330
71
100
AcDbEntity
  8
0
  6
Continuous
 62
     2
100
AcDbLine
 10
-235.5365740700158
 20
-240.2007637707943
 30
0.0
 11
-234.3437813678492
 21
-240.2007637707943
 31
0.0
  0
LINE
  5
1C5
102
{ACAD_REACTORS
330
24B
330
24C
102
}
330
71
100
AcDbEntity
  8
0
  6
Continuous
 62
     2
100
AcDbLine
 10
-234.3437813678492
 20
-240.2007637707943
 30
0.0
 11
-234.3437813678492
 21
-237.1469542469831
 31
0.0
  0
LINE
  5
1C6
102
{ACAD_REACTORS
330
24B
330
24C
102
}
330
71
100
AcDbEntity
  8
0
  6
Continuous
 62
     2
100
AcDbLine
 10
-234.3437813678492
 20
-237.1469542469831
 30
0.0
 11
-235.5365740700158
 21
-237.1469542469831
 31
0.0
  0
LINE
  5
1C7
102
{ACAD_REACTORS
330
24B
330
24C
102
}
330
71
100
AcDbEntity
  8
0
  6
Continuous
 62
     2
100
AcDbLine
 10
-235.5365740700158
 20
-238.4557297571883
 30
0.0
 11
-236.7770784802698
 21
-237.1469542469831
 31
0.0
  0
LINE
  5
1C8
102
{ACAD_REACTORS
330
24B
330
24C
102
}
330
71
100
AcDbEntity
  8
0
  6
Continuous
 62
     2
100
AcDbLine
 10
-237.9698711824363
 20
-240.2007637707943
 30
0.0
 11
-236.7770784802698
 21
-240.2007637707943
 31
0.0
  0
LINE
  5
1C9
102
{ACAD_REACTORS
330
24D
330
24E
102
}
330
71
100
AcDbEntity
  8
0
  6
Continuous
 62
     2
100
AcDbLine
 10
-239.4490850640089
 20
-240.5061447231576
 30
0.0
 11
-239.4490850640089
 21
-241.2914100292811
 31
0.0
  0
LINE
  5
1CA
102
{ACAD_REACTORS
330
24D
330
24E
102
}
330
71
100
AcDbEntity
  8
0
  6
Continuous
 62
     2
100
AcDbLine
 10
-238.6379860265343
 20
-241.2914100292811
 30
0.0
 11
-238.6379860265343
 21
-243.5599542469686
 31
0.0
  0
LINE
  5
1CB
102
{ACAD_REACTORS
330
24D
330
24E
102
}
330
71
100
AcDbEntity
  8
0
  6
Continuous
 62
     2
100
AcDbLine
 10
-238.6379860265343
 20
-243.5599542469686
 30
0.0
 11
-237.4451933243678
 21
-243.5599542469686
 31
0.0
  0
LINE
  5
1CC
102
{ACAD_REACTORS
330
24F
330
250
102
}
330
71
100
AcDbEntity
  8
0
  6
Continuous
 62
     2
100
AcDbLine
 10
-234.4956668309483
 20
-243.5599542469686
 30
0.0
 11
-234.7071468844241
 21
-243.0189937027508
 31
0.0
  0
LINE
  5
1CD
102
{ACAD_REACTORS
330
24F
330
250
102
}
330
71
100
AcDbEntity
  8
0
  6
Continuous
 62
     2
100
AcDbLine
 10
-234.6531154676347
 20
-240.5061447231576
 30
0.0
 11
-233.2551624206944
 21
-243.5599542469686
 31
0.0
  0
LINE
  5
1CE
102
{ACAD_REACTORS
330
24F
330
250
102
}
330
71
100
AcDbEntity
  8
0
  6
Continuous
 62
     2
100
AcDbLine
 10
-235.8936198778874
 20
-240.5061447231576
 30
0.0
 11
-234.6531154676347
 21
-240.5061447231576
 31
0.0
  0
LINE
  5
1CF
102
{ACAD_REACTORS
330
24F
330
250
102
}
330
71
100
AcDbEntity
  8
0
  6
Continuous
 62
     2
100
AcDbLine
 10
-237.2915729248267
 20
-243.5599542469686
 30
0.0
 11
-236.0510685145737
 21
-243.5599542469686
 31
0.0
  0
LINE
  5
1D0
102
{ACAD_REACTORS
330
24F
330
250
102
}
330
71
100
AcDbEntity
  8
0
  6
Continuous
 62
     2
100
AcDbLine
 10
-235.5735329099529
 20
-242.3384304374442
 30
0.0
 11
-234.9732024355704
 21
-242.3384304374442
 31
0.0
  0
LINE
  5
1D1
102
{ACAD_REACTORS
330
24F
330
250
102
}
330
71
100
AcDbEntity
  8
0
  6
Continuous
 62
     2
100
AcDbLine
 10
-234.9732024355704
 20
-242.3384304374442
 30
0.0
 11
-235.2733676727605
 21
-241.5706154714574
 31
0.0
  0
LINE
  5
1D2
102
{ACAD_REACTORS
330
251
330
252
102
}
330
71
100
AcDbEntity
  8
0
  6
Continuous
 62
     2
100
AcDbLine
 10
-232.8647184171624
 20
-240.2007637707943
 30
0.0
 11
-234.1052228274153
 21
-240.2007637707943
 31
0.0
  0
LINE
  5
1D3
102
{ACAD_REACTORS
330
253
330
254
102
}
330
71
100
AcDbEntity
  8
0
  6
Continuous
 62
     2
100
AcDbLine
 10
-231.3427149291973
 20
-240.2007637707943
 30
0.0
 11
-232.7454391469455
 21
-240.2007637707943
 31
0.0
  0
LINE
  5
1D4
102
{ACAD_REACTORS
330
253
330
254
102
}
330
71
100
AcDbEntity
  8
0
  6
Continuous
 62
     2
100
AcDbLine
 10
-231.3427149291973
 20
-240.2007637707943
 30
0.0
 11
-230.6461239911316
 21
-239.4130319855006
 31
0.0
  0
LINE
  5
1D5
102
{ACAD_REACTORS
330
253
330
254
102
}
330
71
100
AcDbEntity
  8
0
  6
Continuous
 62
     2
100
AcDbLine
 10
-230.0449564692388
 20
-237.1469542469831
 30
0.0
 11
-228.6422322514916
 21
-237.1469542469831
 31
0.0
  0
LINE
  5
1D6
102
{ACAD_REACTORS
330
253
330
254
102
}
330
71
100
AcDbEntity
  8
0
  6
Continuous
 62
     2
100
AcDbLine
 10
-232.6500157307727
 20
-237.1469542469831
 30
0.0
 11
-231.3474861000052
 21
-238.6199047770193
 31
0.0
  0
LINE
  5
1D7
102
{ACAD_REACTORS
330
253
330
254
102
}
330
71
100
AcDbEntity
  8
0
  6
Continuous
 62
     2
100
AcDbLine
 10
-232.7454391469455
 20
-240.2007637707943
 30
0.0
 11
-231.3474861000052
 21
-238.6199047770193
 31
0.0
  0
LINE
  5
1D8
102
{ACAD_REACTORS
330
25D
330
25E
102
}
330
71
100
AcDbEntity
  8
0
  6
Continuous
 62
     2
100
AcDbLine
 10
-230.8846825315656
 20
-242.512933838805
 30
0.0
 11
-230.8846825315656
 21
-243.3854508456084
 31
0.0
  0
LINE
  5
1D9
102
{ACAD_REACTORS
330
25D
330
25E
102
}
330
71
100
AcDbEntity
  8
0
  6
Continuous
 62
     2
100
AcDbLine
 10
-231.654339874527
 20
-241.2914100292811
 30
0.0
 11
-230.5507005749589
 21
-241.2914100292811
 31
0.0
  0
LINE
  5
1DA
102
{ACAD_REACTORS
330
25F
330
260
102
}
330
71
100
AcDbEntity
  8
0
  6
Continuous
 62
     2
100
AcDbLine
 10
-246.9873840108175
 20
-242.5129338388045
 30
0.0
 11
-246.9873840108175
 21
-243.3854508456078
 31
0.0
  0
LINE
  5
1DB
102
{ACAD_REACTORS
330
25F
330
260
102
}
330
71
100
AcDbEntity
  8
0
  6
Continuous
 62
     2
100
AcDbLine
 10
-246.9873840108175
 20
-241.5531651313216
 30
0.0
 11
-246.9873840108175
 21
-240.6806481245183
 31
0.0
  0
LINE
  5
1DC
330
71
100
AcDbEntity
  8
1
  6
Continuous
 62
     7
100
AcDbLine
 10
-131.1500084258336
 20
-242.3534542469849
 30
0.0
 11
-224.294812952585
 21
-242.3534542469849
 31
0.0
  0
LINE
  5
1DD
330
71
100
AcDbEntity
  8
1
  6
Continuous
 62
     6
100
AcDbLine
 10
-329.6948129525849
 20
-250.8534542469849
 30
0.0
 11
-374.6500084258349
 21
-250.8534542469849
 31
0.0
  0
LINE
  5
1DE
330
71
100
AcDbEntity
  8
1
  6
Continuous
 62
     7
100
AcDbLine
 10
-140.0684167075124
 20
-225.3534542469849
 30
0.0
 11
-140.0684167075124
 21
-233.8534542469849
 31
0.0
  0
LINE
  5
1DF
330
71
100
AcDbEntity
  8
1
  6
Continuous
 62
     7
100
AcDbLine
 10
-166.568416707512
 20
-225.3534542469849
 30
0.0
 11
-166.568416707512
 21
-233.8534542469849
 31
0.0
  0
LINE
  5
1E0
330
71
100
AcDbEntity
  8
1
  6
Continuous
 62
     7
100
AcDbLine
 10
-224.294812952585
 20
-233.8534542469849
 30
0.0
 11
-224.294812952585
 21
-225.3534542469849
 31
0.0
  0
LINE
  5
1E1
330
71
100
AcDbEntity
  8
1
  6
Continuous
 62
     7
100
AcDbLine
 10
-260.6948129525849
 20
-233.8534542469849
 30
0.0
 11
-260.6948129525849
 21
-225.3534542469849
 31
0.0
  0
LINE
  5
1E2
330
71
100
AcDbEntity
  8
1
  6
Continuous
 62
     6
100
AcDbLine
 10
-224.294812952585
 20
-233.8534542469849
 30
0.0
 11
-131.1500084258332
 21
-233.8534542469849
 31
0.0
  0
LINE
  5
1E3
330
71
100
AcDbEntity
  8
1
  6
Continuous
 62
     7
100
AcDbLine
 10
-196.3948129525849
 20
-242.353454246985
 30
0.0
 11
-196.3948129525849
 21
-233.8534542469849
 31
0.0
  0
LINE
  5
1E4
330
71
100
AcDbEntity
  8
1
  6
PHANTOM
 62
     2
100
AcDbLine
 10
-245.2081580660223
 20
-229.728454246985
 30
0.0
 11
-250.7081580660223
 21
-229.728454246985
 31
0.0
  0
LINE
  5
1E5
330
71
100
AcDbEntity
  8
1
  6
PHANTOM
 62
     2
100
AcDbLine
 10
-247.9581580660223
 20
-226.978454246985
 30
0.0
 11
-247.9581580660223
 21
-232.478454246985
 31
0.0
  0
LINE
  5
1E6
330
71
100
AcDbEntity
  8
1
  6
DOT_CENTER
 62
     2
100
AcDbLine
 10
-256.7081580660223
 20
-229.728454246985
 30
0.0
 11
-251.2081580660223
 21
-229.728454246985
 31
0.0
  0
ARC
  5
1E7
102
{ACAD_REACTORS
330
25F
330
260
102
}
330
71
100
AcDbEntity
  8
0
  6
Continuous
 62
     2
100
AcDbCircle
 10
-248.3233119279353
 20
-245.3457304303192
 30
0.0
 40
4.852596863498068
100
AcDbArc
 50
74.02000874164739
 51
84.84185523037509
  0
ARC
  5
1E8
102
{ACAD_REACTORS
330
25F
330
260
102
}
330
71
100
AcDbEntity
  8
0
  6
Continuous
 62
     2
100
AcDbCircle
 10
-247.7472713191816
 20
-242.1899700744349
 30
0.0
 40
0.9059297849852509
100
AcDbArc
 50
71.55192388185006
 51
113.372277888129
  0
ARC
  5
1E9
102
{ACAD_REACTORS
330
25F
330
260
102
}
330
71
100
AcDbEntity
  8
0
  6
Continuous
 62
     2
100
AcDbCircle
 10
-247.9037113518836
 20
-242.2381209144018
 30
0.0
 40
0.5115800601948034
100
AcDbArc
 50
208.5214732576956
 51
246.6277221118245
  0
ARC
  5
1EA
102
{ACAD_REACTORS
330
25F
330
260
102
}
330
71
100
AcDbEntity
  8
0
  6
Continuous
 62
     2
100
AcDbCircle
 10
-247.7472713191816
 20
-241.8761288956918
 30
0.0
 40
0.9059297849849192
100
AcDbArc
 50
246.627722111871
 51
288.4480761181601
  0
ARC
  5
1EB
102
{ACAD_REACTORS
330
25F
330
260
102
}
330
71
100
AcDbEntity
  8
0
  6
Continuous
 62
     2
100
AcDbCircle
 10
-248.1654390528424
 20
-240.6225831196547
 30
0.0
 40
2.227384008972665
100
AcDbArc
 50
288.4480761181342
 51
301.9309089499611
  0
ARC
  5
1EC
102
{ACAD_REACTORS
330
25B
330
25C
102
}
330
71
100
AcDbEntity
  8
0
  6
Continuous
 62
     2
100
AcDbCircle
 10
-253.3905127854492
 20
-239.8900810907406
 30
0.0
 40
0.911848150144459
100
AcDbArc
 50
295.3740086781764
 51
64.62599132180748
  0
ARC
  5
1ED
102
{ACAD_REACTORS
330
25B
330
25C
102
}
330
71
100
AcDbEntity
  8
0
  6
Continuous
 62
     2
100
AcDbCircle
 10
-252.8644700873613
 20
-238.175404202266
 30
0.0
 40
0.3157169230760711
100
AcDbArc
 50
90.18896704255108
 51
180.0
  0
ARC
  5
1EE
102
{ACAD_REACTORS
330
25D
330
25E
102
}
330
71
100
AcDbEntity
  8
0
  6
Continuous
 62
     2
100
AcDbCircle
 10
-231.654339874527
 20
-242.2459330361072
 30
0.0
 40
0.9545230068260935
100
AcDbArc
 50
90.0
 51
109.3371432194321
  0
ARC
  5
1EF
102
{ACAD_REACTORS
330
25D
330
25E
102
}
330
71
100
AcDbEntity
  8
0
  6
Continuous
 62
     2
100
AcDbCircle
 10
-231.4236526145493
 20
-242.0330494850633
 30
0.0
 40
0.9410597353348789
100
AcDbArc
 50
151.478526742364
 51
208.5214732576695
  0
ARC
  5
1F0
102
{ACAD_REACTORS
330
25D
330
25E
102
}
330
71
100
AcDbEntity
  8
0
  6
Continuous
 62
     2
100
AcDbCircle
 10
-231.6445698399276
 20
-241.8761288956918
 30
0.0
 40
0.9059297849852688
100
AcDbArc
 50
246.6277221118199
 51
288.4480761180817
  0
ARC
  5
1F1
102
{ACAD_REACTORS
330
25D
330
25E
102
}
330
71
100
AcDbEntity
  8
0
  6
Continuous
 62
     2
100
AcDbCircle
 10
-232.0627375735895
 20
-240.6225831196553
 30
0.0
 40
2.227384008972656
100
AcDbArc
 50
288.4480761181335
 51
301.9309089499403
  0
ARC
  5
1F2
102
{ACAD_REACTORS
330
25D
330
25E
102
}
330
71
100
AcDbEntity
  8
0
  6
Continuous
 62
     2
100
AcDbCircle
 10
-232.2206104486823
 20
-238.7203685398069
 30
0.0
 40
4.852596863498822
100
AcDbArc
 50
275.158144769636
 51
285.9799912583381
  0
ARC
  5
1F3
102
{ACAD_REACTORS
330
25D
330
25E
102
}
330
71
100
AcDbEntity
  8
0
  6
Continuous
 62
     2
100
AcDbCircle
 10
-231.9317543539465
 20
-241.9202591230285
 30
0.0
 40
1.639695123940421
100
AcDbArc
 50
195.0618917771015
 51
275.1581447696762
  0
ARC
  5
1F4
102
{ACAD_REACTORS
330
255
330
256
102
}
330
71
100
AcDbEntity
  8
0
  6
Continuous
 62
     2
100
AcDbCircle
 10
-247.6599676656376
 20
-238.2023198883168
 30
0.0
 40
1.055365641333708
100
AcDbArc
 50
270.0
 51
90.0
  0
ARC
  5
1F5
102
{ACAD_REACTORS
330
25B
330
25C
102
}
330
71
100
AcDbEntity
  8
0
  6
Continuous
 62
     2
100
AcDbCircle
 10
-255.440018773893
 20
-242.531681768335
 30
0.0
 40
0.315716923075712
100
AcDbArc
 50
180.0
 51
270.0
  0
ARC
  5
1F6
102
{ACAD_REACTORS
330
25B
330
25C
102
}
330
71
100
AcDbEntity
  8
0
  6
Continuous
 62
     2
100
AcDbCircle
 10
-253.9641855128834
 20
-238.1752267256179
 30
0.0
 40
0.315716923076593
100
AcDbArc
 50
0.0
 51
90.0
  0
ARC
  5
1F7
102
{ACAD_REACTORS
330
25B
330
25C
102
}
330
71
100
AcDbEntity
  8
0
  6
Continuous
 62
     2
100
AcDbCircle
 10
-253.9641855128834
 20
-238.7792513446784
 30
0.0
 40
0.3157169230761203
100
AcDbArc
 50
295.1944106485397
 51
0.0
  0
ARC
  5
1F8
102
{ACAD_REACTORS
330
25B
330
25C
102
}
330
71
100
AcDbEntity
  8
0
  6
Continuous
 62
     2
100
AcDbCircle
 10
-253.9641855128834
 20
-242.531681768335
 30
0.0
 40
0.3157169230767067
100
AcDbArc
 50
270.0
 51
0.0
  0
ARC
  5
1F9
102
{ACAD_REACTORS
330
25B
330
25C
102
}
330
71
100
AcDbEntity
  8
0
  6
Continuous
 62
     2
100
AcDbCircle
 10
-256.0339134506395
 20
-237.5711988623851
 30
0.0
 40
0.4242446153837989
100
AcDbArc
 50
90.0
 51
180.0
  0
ARC
  5
1FA
102
{ACAD_REACTORS
330
25B
330
25C
102
}
330
71
100
AcDbEntity
  8
0
  6
Continuous
 62
     2
100
AcDbCircle
 10
-250.5606013599227
 20
-237.5711988623851
 30
0.0
 40
0.4242446153839126
100
AcDbArc
 50
0.0
 51
90.0
  0
ARC
  5
1FB
102
{ACAD_REACTORS
330
25B
330
25C
102
}
330
71
100
AcDbEntity
  8
0
  6
Continuous
 62
     2
100
AcDbCircle
 10
-250.5606013599227
 20
-243.1357096315853
 30
0.0
 40
0.4242446153832873
100
AcDbArc
 50
270.0
 51
0.0
  0
ARC
  5
1FC
102
{ACAD_REACTORS
330
259
330
25A
102
}
330
71
100
AcDbEntity
  8
0
  6
Continuous
 62
     2
100
AcDbCircle
 10
-241.3422174728312
 20
-238.673859008889
 30
0.0
 40
0.7717997786797123
100
AcDbArc
 50
321.8795802028401
 51
38.12041979715329
  0
ARC
  5
1FD
102
{ACAD_REACTORS
330
259
330
25A
102
}
330
71
100
AcDbEntity
  8
0
  6
Continuous
 62
     2
100
AcDbCircle
 10
-241.142477436485
 20
-238.8305901870095
 30
0.0
 40
0.5179085730134372
100
AcDbArc
 50
218.1204197971511
 51
321.8795802028566
  0
ARC
  5
1FE
102
{ACAD_REACTORS
330
257
330
258
102
}
330
71
100
AcDbEntity
  8
0
  6
Continuous
 62
     2
100
AcDbCircle
 10
-244.8224850254452
 20
-242.0330494850633
 30
0.0
 40
1.458034083652003
100
AcDbArc
 50
297.548148175701
 51
62.45185182429689
  0
ARC
  5
1FF
102
{ACAD_REACTORS
330
257
330
258
102
}
330
71
100
AcDbEntity
  8
0
  6
Continuous
 62
     2
100
AcDbCircle
 10
-245.3843648091118
 20
-242.0330494850633
 30
0.0
 40
1.458034083651402
100
AcDbArc
 50
117.5481481756655
 51
242.4518518243366
  0
ARC
  5
200
102
{ACAD_REACTORS
330
257
330
258
102
}
330
71
100
AcDbEntity
  8
0
  6
Continuous
 62
     2
100
AcDbCircle
 10
-245.1034249172785
 20
-242.5716244953661
 30
0.0
 40
2.065479772208492
100
AcDbArc
 50
62.45185182430527
 51
117.5481481756682
  0
ARC
  5
201
102
{ACAD_REACTORS
330
257
330
258
102
}
330
71
100
AcDbEntity
  8
0
  6
Continuous
 62
     2
100
AcDbCircle
 10
-245.1034249172785
 20
-241.49447447476
 30
0.0
 40
2.065479772208497
100
AcDbArc
 50
242.4518518243391
 51
297.5481481756875
  0
ARC
  5
202
102
{ACAD_REACTORS
330
259
330
25A
102
}
330
71
100
AcDbEntity
  8
0
  6
Continuous
 62
     2
100
AcDbCircle
 10
-240.9427374001387
 20
-238.673859008889
 30
0.0
 40
0.7717997786796198
100
AcDbArc
 50
141.8795802028454
 51
218.1204197971612
  0
ARC
  5
203
102
{ACAD_REACTORS
330
259
330
25A
102
}
330
71
100
AcDbEntity
  8
0
  6
Continuous
 62
     2
100
AcDbCircle
 10
-241.142477436485
 20
-238.5171278307685
 30
0.0
 40
0.5179085730134564
100
AcDbArc
 50
38.12041979713344
 51
141.8795802028588
  0
ARC
  5
204
102
{ACAD_REACTORS
330
25B
330
25C
102
}
330
71
100
AcDbEntity
  8
0
  6
Continuous
 62
     2
100
AcDbCircle
 10
-256.0339134506395
 20
-243.1357096315853
 30
0.0
 40
0.4242446153828041
100
AcDbArc
 50
180.0
 51
270.0
  0
ARC
  5
205
102
{ACAD_REACTORS
330
25B
330
25C
102
}
330
71
100
AcDbEntity
  8
0
  6
Continuous
 62
     2
100
AcDbCircle
 10
-253.9641855128834
 20
-241.0009108368034
 30
0.0
 40
0.315716923076593
100
AcDbArc
 50
0.0
 51
64.80558935145369
  0
ARC
  5
206
102
{ACAD_REACTORS
330
25B
330
25C
102
}
330
71
100
AcDbEntity
  8
0
  6
Continuous
 62
     2
100
AcDbCircle
 10
-253.4416010653084
 20
-239.8900810907406
 30
0.0
 40
0.9118975235576268
100
AcDbArc
 50
115.1944106485298
 51
244.8055893514884
  0
ARC
  5
207
102
{ACAD_REACTORS
330
25B
330
25C
102
}
330
71
100
AcDbEntity
  8
0
  6
Continuous
 62
     2
100
AcDbCircle
 10
-255.440018773893
 20
-238.1752267256179
 30
0.0
 40
0.3157169230761951
100
AcDbArc
 50
90.0
 51
180.0
  0
ARC
  5
208
102
{ACAD_REACTORS
330
255
330
256
102
}
330
71
100
AcDbEntity
  8
0
  6
Continuous
 62
     2
100
AcDbCircle
 10
-248.101440191876
 20
-238.1629239170943
 30
0.0
 40
0.3528638246712035
100
AcDbArc
 50
270.0
 51
90.0
  0
ARC
  5
209
102
{ACAD_REACTORS
330
259
330
25A
102
}
330
71
100
AcDbEntity
  8
0
  6
Continuous
 62
     2
100
AcDbCircle
 10
-241.3587494466502
 20
-238.673859008889
 30
0.0
 40
1.526904761905882
100
AcDbArc
 50
90.0
 51
270.0
  0
ARC
  5
20A
102
{ACAD_REACTORS
330
25D
330
25E
102
}
330
71
100
AcDbEntity
  8
0
  6
Continuous
 62
     2
100
AcDbCircle
 10
-231.9317543539465
 20
-242.1458398470982
 30
0.0
 40
1.639695123940186
100
AcDbArc
 50
90.0
 51
164.9381082228957
  0
ARC
  5
20B
102
{ACAD_REACTORS
330
25D
330
25E
102
}
330
71
100
AcDbEntity
  8
0
  6
Continuous
 62
     2
100
AcDbCircle
 10
-232.3508821974081
 20
-242.0330494850633
 30
0.0
 40
1.205656168392968
100
AcDbArc
 50
164.9381082229037
 51
195.0618917770975
  0
ARC
  5
20C
102
{ACAD_REACTORS
330
25D
330
25E
102
}
330
71
100
AcDbEntity
  8
0
  6
Continuous
 62
     2
100
AcDbCircle
 10
-231.8010098726307
 20
-242.2381209144018
 30
0.0
 40
0.511580060196008
100
AcDbArc
 50
208.5214732576838
 51
246.6277221118449
  0
ARC
  5
20D
102
{ACAD_REACTORS
330
25D
330
25E
102
}
330
71
100
AcDbEntity
  8
0
  6
Continuous
 62
     2
100
AcDbCircle
 10
-231.8010098726307
 20
-241.8279780557243
 30
0.0
 40
0.511580060194307
100
AcDbArc
 50
109.3371432194895
 51
151.4785267424253
  0
ARC
  5
20E
102
{ACAD_REACTORS
330
25B
330
25C
102
}
330
71
100
AcDbEntity
  8
0
  6
Continuous
 62
     2
100
AcDbCircle
 10
-252.8644700873613
 20
-241.5810740974041
 30
0.0
 40
0.315716923076792
100
AcDbArc
 50
180.0
 51
269.811032957449
  0
ARC
  5
20F
102
{ACAD_REACTORS
330
25B
330
25C
102
}
330
71
100
AcDbEntity
  8
0
  6
Continuous
 62
     2
100
AcDbCircle
 10
-252.8588539520513
 20
-239.8782391498351
 30
0.0
 40
2.018561131933351
100
AcDbArc
 50
269.8110329575858
 51
90.18896704241416
  0
ARC
  5
210
102
{ACAD_REACTORS
330
25B
330
25C
102
}
330
71
100
AcDbEntity
  8
0
  6
Continuous
 62
     2
100
AcDbCircle
 10
-252.8644700873613
 20
-238.7809394907728
 30
0.0
 40
0.315716923076792
100
AcDbArc
 50
180.0
 51
244.6259913216435
  0
ARC
  5
211
102
{ACAD_REACTORS
330
25B
330
25C
102
}
330
71
100
AcDbEntity
  8
0
  6
Continuous
 62
     2
100
AcDbCircle
 10
-252.8644700873613
 20
-240.9992226907091
 30
0.0
 40
0.315716923076622
100
AcDbArc
 50
115.3740086783499
 51
180.0
  0
ARC
  5
212
102
{ACAD_REACTORS
330
25F
330
260
102
}
330
71
100
AcDbEntity
  8
0
  6
Continuous
 62
     2
100
AcDbCircle
 10
-248.0344558331994
 20
-242.1458398470982
 30
0.0
 40
1.639695123940507
100
AcDbArc
 50
84.84185523036236
 51
164.9381082228877
  0
ARC
  5
213
102
{ACAD_REACTORS
330
25F
330
260
102
}
330
71
100
AcDbEntity
  8
0
  6
Continuous
 62
     2
100
AcDbCircle
 10
-248.4535836766622
 20
-242.0330494850633
 30
0.0
 40
1.205656168390964
100
AcDbArc
 50
164.9381082228781
 51
195.0618917770958
  0
ARC
  5
214
102
{ACAD_REACTORS
330
25F
330
260
102
}
330
71
100
AcDbEntity
  8
0
  6
Continuous
 62
     2
100
AcDbCircle
 10
-248.0344558331994
 20
-241.9202591230285
 30
0.0
 40
1.639695123939415
100
AcDbArc
 50
195.0618917770893
 51
275.1581447696395
  0
ARC
  5
215
102
{ACAD_REACTORS
330
25F
330
260
102
}
330
71
100
AcDbEntity
  8
0
  6
Continuous
 62
     2
100
AcDbCircle
 10
-248.3233119279353
 20
-238.7203685398069
 30
0.0
 40
4.852596863498138
100
AcDbArc
 50
275.1581447696249
 51
285.9799912583526
  0
ARC
  5
216
102
{ACAD_REACTORS
330
25F
330
260
102
}
330
71
100
AcDbEntity
  8
0
  6
Continuous
 62
     2
100
AcDbCircle
 10
-247.5263540938033
 20
-242.0330494850633
 30
0.0
 40
0.9410597353332545
100
AcDbArc
 50
151.4785267422669
 51
208.5214732577073
  0
ARC
  5
217
102
{ACAD_REACTORS
330
25F
330
260
102
}
330
71
100
AcDbEntity
  8
0
  6
Continuous
 62
     2
100
AcDbCircle
 10
-247.9037113518836
 20
-241.8279780557243
 30
0.0
 40
0.511580060194863
100
AcDbArc
 50
113.3722778882033
 51
151.4785267423044
  0
ARC
  5
218
102
{ACAD_REACTORS
330
25F
330
260
102
}
330
71
100
AcDbEntity
  8
0
  6
Continuous
 62
     2
100
AcDbCircle
 10
-248.1654390528424
 20
-243.4435158504715
 30
0.0
 40
2.227384008973492
100
AcDbArc
 50
58.0690910500401
 51
71.55192388186583
  0
ARC
  5
219
102
{ACAD_REACTORS
330
257
330
258
102
}
330
71
100
AcDbEntity
  8
0
  6
Continuous
 62
     2
100
AcDbCircle
 10
-245.1034249172785
 20
-241.8763183069428
 30
0.0
 40
0.5179085730132249
100
AcDbArc
 50
38.12041979714156
 51
141.8795802028682
  0
ARC
  5
21A
102
{ACAD_REACTORS
330
257
330
258
102
}
330
71
100
AcDbEntity
  8
0
  6
Continuous
 62
     2
100
AcDbCircle
 10
-244.9036848809324
 20
-242.0330494850633
 30
0.0
 40
0.7717997786794154
100
AcDbArc
 50
141.8795802028442
 51
218.120419797169
  0
ARC
  5
21B
102
{ACAD_REACTORS
330
257
330
258
102
}
330
71
100
AcDbEntity
  8
0
  6
Continuous
 62
     2
100
AcDbCircle
 10
-245.1034249172785
 20
-242.1897806631833
 30
0.0
 40
0.5179085730137577
100
AcDbArc
 50
218.1204197971912
 51
321.879580202799
  0
ARC
  5
21C
102
{ACAD_REACTORS
330
257
330
258
102
}
330
71
100
AcDbEntity
  8
0
  6
Continuous
 62
     2
100
AcDbCircle
 10
-245.3031649536249
 20
-242.0330494850633
 30
0.0
 40
0.77179977867969
100
AcDbArc
 50
321.8795802028388
 51
38.12041979714795
  0
CIRCLE
  5
21D
330
71
100
AcDbEntity
  8
1
  6
Continuous
 62
     2
100
AcDbCircle
 10
-247.9581580660223
 20
-229.728454246985
 30
0.0
 40
2.5
  0
CIRCLE
  5
21E
330
71
100
AcDbEntity
  8
1
  6
Continuous
 62
     2
100
AcDbCircle
 10
-247.9581580660223
 20
-229.728454246985
 30
0.0
 40
1.249999999999886
  0
CIRCLE
  5
21F
102
{ACAD_REACTORS
330
25B
330
25C
102
}
330
71
100
AcDbEntity
  8
0
  6
Continuous
 62
     2
100
AcDbCircle
 10
-253.414327800122
 20
-239.8900810907406
 30
0.0
 40
0.4709789327785074
  0
MTEXT
  5
220
330
71
100
AcDbEntity
  8
1
 62
     3
100
AcDbMText
 10
-418.1449406397631
 20
-64.06214609168615
 30
0.0
 40
1.8
 41
0.0
 71
     7
 72
     1
  3
Weitergabe sowie Vervielf\U+00e4ltigung dieses Dokuments, Verwertung und \PMitteilung seines Inhalts sind verboten, soweit nicht ausdr\U+00fccklich gestattet. \PZuwiderhandlungen verpflichten zu Schadenersatz. Alle Rechte f\U+00fcr den Fall\Pder Pat
  1
ent-, Gebrauchsmuster- oder Designeintragung vorbehalten.
  7
CONVERTER_11
 73
     1
 44
0.99639855942377
  0
MTEXT
  5
221
330
71
100
AcDbEntity
  8
1
 62
     3
100
AcDbMText
 10
-235.291830800975
 20
-64.06214609168615
 30
0.0
 40
1.8
 41
0.0
 71
     7
 72
     1
  3
Transfer or duplication of this document as well as the utilisation or\Pcommunication of its content are not permitted unless express consent\Pis granted. Violations give rise to claims for damages. All rights reserved\Pin case of patent, utility mo
  1
del or design patent registrations.
  7
CONVERTER_11
 73
     1
 44
0.99639855942377
  0
TEXT
  5
222
330
71
100
AcDbEntity
  8
1
 62
     2
100
AcDbText
 10
-241.4948129525851
 20
-249.6124714619766
 30
0.0
 40
1.8
  1
of
 41
0.9
  7
CONVERTER_11
100
AcDbText
  0
TEXT
  5
223
330
71
100
AcDbEntity
  8
1
 62
     2
100
AcDbText
 10
-259.6948129525849
 20
-249.6124714619766
 30
0.0
 40
1.8
  1
page
 41
0.9
  7
CONVERTER_11
100
AcDbText
  0
TEXT
  5
224
330
71
100
AcDbEntity
  8
1
 62
     2
100
AcDbText
 10
-251.0485479822429
 20
-249.652702900787
 30
0.0
 40
1.8
  1
1
 41
0.9
  7
CONVERTER_11
100
AcDbText
  0
TEXT
  5
225
330
71
100
AcDbEntity
  8
1
 62
     2
100
AcDbText
 10
-236.2595041427714
 20
-249.6034542469851
 30
0.0
 40
1.8
  1
1
 41
0.9
  7
CONVERTER_11
100
AcDbText
  0
MTEXT
  5
227
330
71
100
AcDbEntity
  8
1
 62
     7
100
AcDbMText
 10
-177.7224106892094
 20
-247.6034542469847
 30
0.0
 40
3.0
 41
0.0
 71
     5
 72
     1
  1
UCT-EM (20X9)
  7
CONVERTER_12
 73
     1
 44
1.20048019207683
  0
MTEXT
  5
228
330
71
100
AcDbEntity
  8
1
 62
     2
100
AcDbMText
 10
-223.294812952585
 20
-243.3534542469849
 30
0.0
 40
1.8
 41
0.0
 71
     1
 72
     1
  1
description
  7
CONVERTER_11
 73
     1
 44
1.20048019207683
  0
MTEXT
  5
229
330
71
100
AcDbEntity
  8
1
 62
     3
100
AcDbMText
 10
-234.494812952585
 20
-229.7284542469849
 30
0.0
 40
2.5
 41
0.0
 71
     5
 72
     1
  1
DIN A4
  7
CONVERTER_11
 73
     1
 44
1.20048019207683
  0
MTEXT
  5
22A
330
71
100
AcDbEntity
  8
1
 62
     7
100
AcDbMText
 10
-420.650008425834
 20
-228.3534542469849
 30
0.0
 40
3.5
 41
0.0
 71
     5
 72
     1
  1
D
  7
CONVERTER_11
 73
     1
 44
1.20048019207683
  0
MTEXT
  5
22B
330
71
100
AcDbEntity
  8
1
 62
     7
100
AcDbMText
 10
-420.650008425834
 20
-175.8534542469849
 30
0.0
 40
3.5
 41
0.0
 71
     5
 72
     1
  1
C
  7
CONVERTER_11
 73
     1
 44
1.20048019207683
  0
MTEXT
  5
22C
330
71
100
AcDbEntity
  8
1
 62
     7
100
AcDbMText
 10
-420.650008425834
 20
-125.8534542469849
 30
0.0
 40
3.5
 41
0.0
 71
     5
 72
     1
  1
B
  7
CONVERTER_11
 73
     1
 44
1.20048019207683
  0
MTEXT
  5
22D
330
71
100
AcDbEntity
  8
1
 62
     7
100
AcDbMText
 10
-420.650008425834
 20
-73.35345424698494
 30
0.0
 40
3.5
 41
0.0
 71
     5
 72
     1
  1
A
  7
CONVERTER_11
 73
     1
 44
1.20048019207683
  0
MTEXT
  5
22E
330
71
100
AcDbEntity
  8
1
 62
     7
100
AcDbMText
 10
-150.4000084258357
 20
-253.3534542469851
 30
0.0
 40
3.5
 41
0.0
 71
     5
 72
     1
  1
6
  7
CONVERTER_11
 73
     1
 44
1.20048019207683
  0
MTEXT
  5
22F
330
71
100
AcDbEntity
  8
1
 62
     7
100
AcDbMText
 10
-199.6500084258349
 20
-253.3534542469851
 30
0.0
 40
3.5
 41
0.0
 71
     5
 72
     1
  1
5
  7
CONVERTER_11
 73
     1
 44
1.20048019207683
  0
MTEXT
  5
230
330
71
100
AcDbEntity
  8
1
 62
     7
100
AcDbMText
 10
-249.650008425835
 20
-253.3534542469851
 30
0.0
 40
3.5
 41
0.0
 71
     5
 72
     1
  1
4
  7
CONVERTER_11
 73
     1
 44
1.20048019207683
  0
MTEXT
  5
231
330
71
100
AcDbEntity
  8
1
 62
     7
100
AcDbMText
 10
-299.6500084258349
 20
-253.3534542469851
 30
0.0
 40
3.5
 41
0.0
 71
     5
 72
     1
  1
3
  7
CONVERTER_11
 73
     1
 44
1.20048019207683
  0
MTEXT
  5
232
330
71
100
AcDbEntity
  8
1
 62
     7
100
AcDbMText
 10
-349.6500084258349
 20
-253.3534542469851
 30
0.0
 40
3.5
 41
0.0
 71
     5
 72
     1
  1
2
  7
CONVERTER_11
 73
     1
 44
1.20048019207683
  0
MTEXT
  5
233
330
71
100
AcDbEntity
  8
1
 62
     7
100
AcDbMText
 10
-398.9000084258345
 20
-253.3534542469851
 30
0.0
 40
3.5
 41
0.0
 71
     5
 72
     1
  1
1
  7
CONVERTER_11
 73
     1
 44
1.20048019207683
  0
MTEXT
  5
234
330
71
100
AcDbEntity
  8
1
 62
     7
100
AcDbMText
 10
-128.6500084258359
 20
-228.3534542469849
 30
0.0
 40
3.5
 41
0.0
 71
     5
 72
     1
  1
D
  7
CONVERTER_11
 73
     1
 44
1.20048019207683
  0
MTEXT
  5
235
330
71
100
AcDbEntity
  8
1
 62
     7
100
AcDbMText
 10
-128.6500084258359
 20
-125.853454246983
 30
0.0
 40
3.5
 41
0.0
 71
     5
 72
     1
  1
B
  7
CONVERTER_11
 73
     1
 44
1.20048019207683
  0
MTEXT
  5
236
330
71
100
AcDbEntity
  8
1
 62
     7
100
AcDbMText
 10
-128.6500084258359
 20
-73.35345424698494
 30
0.0
 40
3.5
 41
0.0
 71
     5
 72
     1
  1
A
  7
CONVERTER_11
 73
     1
 44
1.20048019207683
  0
MTEXT
  5
237
330
71
100
AcDbEntity
  8
1
 62
     7
100
AcDbMText
 10
-128.6500084258359
 20
-175.853454246983
 30
0.0
 40
3.5
 41
0.0
 71
     5
 72
     1
  1
C
  7
CONVERTER_11
 73
     1
 44
1.20048019207683
  0
MTEXT
  5
238
330
71
100
AcDbEntity
  8
1
 62
     2
100
AcDbMText
 10
-295.1328276776324
 20
-238.103454246985
 30
0.0
 40
2.0
 41
0.0
 71
     5
 72
     1
  1
General Information\P- Simplified representation\P- Document excluded from change process\P- Linear dimensions [mm]
  7
CONVERTER_11
 73
     1
 44
1.20048019207683
  0
TEXT
  5
239
330
71
100
AcDbEntity
  8
1
 62
     7
100
AcDbText
 10
-222.7948129525852
 20
-241.053454246985
 30
0.0
 40
2.5
  1
0801471
 41
0.81
  7
CONVERTER_12
100
AcDbText
  0
MTEXT
  5
23A
330
71
100
AcDbEntity
  8
1
 62
     2
100
AcDbMText
 10
-223.1948129525849
 20
-234.8534542469849
 30
0.0
 40
1.8
 41
0.0
 71
     1
 72
     1
  1
ident.-No.
  7
CONVERTER_11
 73
     1
 44
1.20048019207683
  0
MTEXT
  5
23B
330
71
100
AcDbEntity
  8
1
 62
     2
100
AcDbMText
 10
-138.9684167075122
 20
-226.3534542469849
 30
0.0
 40
1.8
 41
0.0
 71
     1
 72
     1
  1
scale
  7
CONVERTER_11
 73
     1
 44
1.20048019207683
  0
MTEXT
  5
23D
330
71
100
AcDbEntity
  8
1
 62
     3
100
AcDbMText
 10
-135.6092125666726
 20
-232.5534542469848
 30
0.0
 40
2.5
 41
0.0
 71
     8
 72
     1
  1
2:1
  7
CONVERTER_13
 73
     1
 44
1.32052821128451
  0
TEXT
  5
23E
330
71
100
AcDbEntity
  8
1
 62
     7
100
AcDbText
 10
-223.1948129525849
 20
-232.553454246985
 30
0.0
 40
2.5
  1
01175425
 41
0.81
  7
CONVERTER_12
100
AcDbText
  0
MTEXT
  5
240
330
71
100
AcDbEntity
  8
1
 62
     2
100
AcDbMText
 10
-223.1948129525849
 20
-226.3534542469849
 30
0.0
 40
1.8
 41
0.0
 71
     1
 72
     1
  1
document-No. / RI
  7
CONVERTER_14
 73
     1
 44
1.32052821128451
  0
TEXT
  5
241
330
71
100
AcDbEntity
  8
1
 62
     3
100
AcDbText
 10
-195.3948129525849
 20
-241.053454246985
 30
0.0
 40
2.5
  1
TECDOC 2D_Productdrawing
 41
0.81
  7
CONVERTER_12
100
AcDbText
  0
MTEXT
  5
242
330
71
100
AcDbEntity
  8
1
 62
     2
100
AcDbMText
 10
-195.3948129525849
 20
-234.853454246985
 30
0.0
 40
1.8
 41
0.0
 71
     1
 72
     1
  1
document-type
  7
CONVERTER_11
 73
     1
 44
1.20048019207683
  0
MTEXT
  5
243
330
71
100
AcDbEntity
  8
1
 62
     2
100
AcDbMText
 10
-165.568416707512
 20
-226.353454246985
 30
0.0
 40
1.8
 41
0.0
 71
     1
 72
     1
  1
date
  7
CONVERTER_11
 73
     1
 44
1.32052821128451
  0
TEXT
  5
244
330
71
100
AcDbEntity
  8
1
 62
     3
100
AcDbText
 10
-165.568416707512
 20
-232.553454246985
 30
0.0
 40
2.5
  1
19.11.2018
 41
0.81
  7
CONVERTER_12
100
AcDbText
  0
TEXT
  5
245
330
71
100
AcDbEntity
  8
1
 62
     7
100
AcDbText
 10
-203.1649007335291
 20
-232.553454246985
 30
0.0
 40
2.5
  1
00
 41
0.81
  7
CONVERTER_12
100
AcDbText
  0
TEXT
  5
246
330
71
100
AcDbEntity
  8
1
 62
     7
100
AcDbText
 10
-205.3212652305711
 20
-232.553454246985
 30
0.0
 40
2.5
  1
/
 41
0.9
  7
CONVERTER_11
100
AcDbText
  0
HATCH
  5
247
330
71
100
AcDbEntity
  8
1
  6
Continuous
 62
     2
100
AcDbHatch
 10
0.0
 20
0.0
 30
0.0
210
0.0
220
0.0
230
1.0
  2
_USER
 70
     0
 71
     1
 91
        1
 92
        1
 93
       12
 72
     1
 10
-243.0273122396238
 20
-240.2007637707943
 11
-244.2201049417902
 21
-240.2007637707943
 72
     1
 10
-244.2201049417902
 20
-240.2007637707943
 11
-244.2201049417902
 21
-239.0664916619505
 72
     1
 10
-244.2201049417902
 20
-239.0664916619505
 11
-245.2697625196977
 21
-239.0664916619505
 72
     1
 10
-245.2697625196977
 20
-239.0664916619505
 11
-245.2697625196977
 21
-240.2007637707943
 72
     1
 10
-245.2697625196977
 20
-240.2007637707943
 11
-246.4625552218643
 21
-240.2007637707943
 72
     1
 10
-246.4625552218643
 20
-240.2007637707943
 11
-246.4625552218643
 21
-237.1469542469831
 72
     1
 10
-246.4625552218643
 20
-237.1469542469831
 11
-245.2697625196977
 21
-237.1469542469831
 72
     1
 10
-245.2697625196977
 20
-237.1469542469831
 11
-245.2697625196977
 21
-238.2157875803177
 72
     1
 10
-245.2697625196977
 20
-238.2157875803177
 11
-244.2201049417902
 21
-238.2157875803177
 72
     1
 10
-244.2201049417902
 20
-238.2157875803177
 11
-244.2201049417902
 21
-237.1469542469831
 72
     1
 10
-244.2201049417902
 20
-237.1469542469831
 11
-243.0273122396238
 21
-237.1469542469831
 72
     1
 10
-243.0273122396238
 20
-237.1469542469831
 11
-243.0273122396238
 21
-240.2007637707943
 97
       12
330
1B4
330
1B5
330
19F
330
19E
330
19D
330
1B1
330
19C
330
1B2
330
1B3
330
19B
330
19A
330
199
 75
     1
 76
     0
 52
45.0
 41
0.1
 77
     0
 78
     1
 53
45.0
 43
0.0
 44
0.0
 45
-0.0707106781186548
 46
0.0707106781186548
 79
     0
 98
        1
 10
0.0
 20
0.0
  0
HATCH
  5
248
330
71
100
AcDbEntity
  8
1
  6
Continuous
 62
     2
100
AcDbHatch
 10
0.0
 20
0.0
 30
0.0
210
0.0
220
0.0
230
1.0
  2
_USER
 70
     0
 71
     1
 91
        1
 92
        1
 93
       12
 72
     1
 10
-243.0273122396238
 20
-240.2007637707943
 11
-244.2201049417902
 21
-240.2007637707943
 72
     1
 10
-244.2201049417902
 20
-240.2007637707943
 11
-244.2201049417902
 21
-239.0664916619505
 72
     1
 10
-244.2201049417902
 20
-239.0664916619505
 11
-245.2697625196977
 21
-239.0664916619505
 72
     1
 10
-245.2697625196977
 20
-239.0664916619505
 11
-245.2697625196977
 21
-240.2007637707943
 72
     1
 10
-245.2697625196977
 20
-240.2007637707943
 11
-246.4625552218643
 21
-240.2007637707943
 72
     1
 10
-246.4625552218643
 20
-240.2007637707943
 11
-246.4625552218643
 21
-237.1469542469831
 72
     1
 10
-246.4625552218643
 20
-237.1469542469831
 11
-245.2697625196977
 21
-237.1469542469831
 72
     1
 10
-245.2697625196977
 20
-237.1469542469831
 11
-245.2697625196977
 21
-238.2157875803177
 72
     1
 10
-245.2697625196977
 20
-238.2157875803177
 11
-244.2201049417902
 21
-238.2157875803177
 72
     1
 10
-244.2201049417902
 20
-238.2157875803177
 11
-244.2201049417902
 21
-237.1469542469831
 72
     1
 10
-244.2201049417902
 20
-237.1469542469831
 11
-243.0273122396238
 21
-237.1469542469831
 72
     1
 10
-243.0273122396238
 20
-237.1469542469831
 11
-243.0273122396238
 21
-240.2007637707943
 97
       12
330
1B4
330
1B5
330
19F
330
19E
330
19D
330
1B1
330
19C
330
1B2
330
1B3
330
19B
330
19A
330
199
 75
     1
 76
     0
 52
45.0
 41
0.1
 77
     0
 78
     1
 53
45.0
 43
0.0
 44
0.0
 45
-0.0707106781186548
 46
0.0707106781186548
 79
     0
 98
        1
 10
0.0
 20
0.0
  0
HATCH
  5
249
330
71
100
AcDbEntity
  8
1
  6
Continuous
 62
     2
100
AcDbHatch
 10
0.0
 20
0.0
 30
0.0
210
0.0
220
0.0
230
1.0
  2
_USER
 70
     0
 71
     1
 91
        1
 92
        1
 93
       10
 72
     1
 10
-240.7850128904355
 20
-241.8149202333626
 11
-242.0255173006884
 21
-240.5061447231576
 72
     1
 10
-242.0255173006884
 20
-240.5061447231576
 11
-243.218310002856
 21
-240.5061447231576
 72
     1
 10
-243.218310002856
 20
-240.5061447231576
 11
-243.218310002856
 21
-243.5599542469686
 72
     1
 10
-243.218310002856
 20
-243.5599542469686
 11
-242.0255173006884
 21
-243.5599542469686
 72
     1
 10
-242.0255173006884
 20
-243.5599542469686
 11
-242.0255173006884
 21
-242.2511787367641
 72
     1
 10
-242.0255173006884
 20
-242.2511787367641
 11
-240.7850128904355
 21
-243.5599542469686
 72
     1
 10
-240.7850128904355
 20
-243.5599542469686
 11
-239.5922201882691
 21
-243.5599542469686
 72
     1
 10
-239.5922201882691
 20
-243.5599542469686
 11
-239.5922201882691
 21
-240.5061447231576
 72
     1
 10
-239.5922201882691
 20
-240.5061447231576
 11
-240.7850128904355
 21
-240.5061447231576
 72
     1
 10
-240.7850128904355
 20
-240.5061447231576
 11
-240.7850128904355
 21
-241.8149202333626
 97
       10
330
1C2
330
192
330
191
330
194
330
1BD
330
1BE
330
193
330
1BF
330
1C0
330
1C1
 75
     1
 76
     0
 52
45.0
 41
0.1
 77
     0
 78
     1
 53
45.0
 43
0.0
 44
0.0
 45
-0.0707106781186548
 46
0.0707106781186548
 79
     0
 98
        1
 10
0.0
 20
0.0
  0
HATCH
  5
24A
330
71
100
AcDbEntity
  8
1
  6
Continuous
 62
     2
100
AcDbHatch
 10
0.0
 20
0.0
 30
0.0
210
0.0
220
0.0
230
1.0
  2
_USER
 70
     0
 71
     1
 91
        1
 92
        1
 93
       10
 72
     1
 10
-240.7850128904355
 20
-241.8149202333626
 11
-242.0255173006884
 21
-240.5061447231576
 72
     1
 10
-242.0255173006884
 20
-240.5061447231576
 11
-243.218310002856
 21
-240.5061447231576
 72
     1
 10
-243.218310002856
 20
-240.5061447231576
 11
-243.218310002856
 21
-243.5599542469686
 72
     1
 10
-243.218310002856
 20
-243.5599542469686
 11
-242.0255173006884
 21
-243.5599542469686
 72
     1
 10
-242.0255173006884
 20
-243.5599542469686
 11
-242.0255173006884
 21
-242.2511787367641
 72
     1
 10
-242.0255173006884
 20
-242.2511787367641
 11
-240.7850128904355
 21
-243.5599542469686
 72
     1
 10
-240.7850128904355
 20
-243.5599542469686
 11
-239.5922201882691
 21
-243.5599542469686
 72
     1
 10
-239.5922201882691
 20
-243.5599542469686
 11
-239.5922201882691
 21
-240.5061447231576
 72
     1
 10
-239.5922201882691
 20
-240.5061447231576
 11
-240.7850128904355
 21
-240.5061447231576
 72
     1
 10
-240.7850128904355
 20
-240.5061447231576
 11
-240.7850128904355
 21
-241.8149202333626
 97
       10
330
1C2
330
192
330
191
330
194
330
1BD
330
1BE
330
193
330
1BF
330
1C0
330
1C1
 75
     1
 76
     0
 52
45.0
 41
0.1
 77
     0
 78
     1
 53
45.0
 43
0.0
 44
0.0
 45
-0.0707106781186548
 46
0.0707106781186548
 79
     0
 98
        1
 10
0.0
 20
0.0
  0
HATCH
  5
24B
330
71
100
AcDbEntity
  8
1
  6
Continuous
 62
     2
100
AcDbHatch
 10
0.0
 20
0.0
 30
0.0
210
0.0
220
0.0
230
1.0
  2
_USER
 70
     0
 71
     1
 91
        1
 92
        1
 93
       10
 72
     1
 10
-235.5365740700158
 20
-238.4557297571883
 11
-236.7770784802698
 21
-237.1469542469831
 72
     1
 10
-236.7770784802698
 20
-237.1469542469831
 11
-237.9698711824363
 21
-237.1469542469831
 72
     1
 10
-237.9698711824363
 20
-237.1469542469831
 11
-237.9698711824363
 21
-240.2007637707943
 72
     1
 10
-237.9698711824363
 20
-240.2007637707943
 11
-236.7770784802698
 21
-240.2007637707943
 72
     1
 10
-236.7770784802698
 20
-240.2007637707943
 11
-236.7770784802698
 21
-238.8919882605896
 72
     1
 10
-236.7770784802698
 20
-238.8919882605896
 11
-235.5365740700158
 21
-240.2007637707943
 72
     1
 10
-235.5365740700158
 20
-240.2007637707943
 11
-234.3437813678492
 21
-240.2007637707943
 72
     1
 10
-234.3437813678492
 20
-240.2007637707943
 11
-234.3437813678492
 21
-237.1469542469831
 72
     1
 10
-234.3437813678492
 20
-237.1469542469831
 11
-235.5365740700158
 21
-237.1469542469831
 72
     1
 10
-235.5365740700158
 20
-237.1469542469831
 11
-235.5365740700158
 21
-238.4557297571883
 97
       10
330
1C7
330
18F
330
18E
330
1C8
330
18D
330
1C3
330
1C4
330
1C5
330
1C6
330
190
 75
     1
 76
     0
 52
45.0
 41
0.1
 77
     0
 78
     1
 53
45.0
 43
0.0
 44
0.0
 45
-0.0707106781186548
 46
0.0707106781186548
 79
     0
 98
        1
 10
0.0
 20
0.0
  0
HATCH
  5
24C
330
71
100
AcDbEntity
  8
1
  6
Continuous
 62
     2
100
AcDbHatch
 10
0.0
 20
0.0
 30
0.0
210
0.0
220
0.0
230
1.0
  2
_USER
 70
     0
 71
     1
 91
        1
 92
        1
 93
       10
 72
     1
 10
-235.5365740700158
 20
-238.4557297571883
 11
-236.7770784802698
 21
-237.1469542469831
 72
     1
 10
-236.7770784802698
 20
-237.1469542469831
 11
-237.9698711824363
 21
-237.1469542469831
 72
     1
 10
-237.9698711824363
 20
-237.1469542469831
 11
-237.9698711824363
 21
-240.2007637707943
 72
     1
 10
-237.9698711824363
 20
-240.2007637707943
 11
-236.7770784802698
 21
-240.2007637707943
 72
     1
 10
-236.7770784802698
 20
-240.2007637707943
 11
-236.7770784802698
 21
-238.8919882605896
 72
     1
 10
-236.7770784802698
 20
-238.8919882605896
 11
-235.5365740700158
 21
-240.2007637707943
 72
     1
 10
-235.5365740700158
 20
-240.2007637707943
 11
-234.3437813678492
 21
-240.2007637707943
 72
     1
 10
-234.3437813678492
 20
-240.2007637707943
 11
-234.3437813678492
 21
-237.1469542469831
 72
     1
 10
-234.3437813678492
 20
-237.1469542469831
 11
-235.5365740700158
 21
-237.1469542469831
 72
     1
 10
-235.5365740700158
 20
-237.1469542469831
 11
-235.5365740700158
 21
-238.4557297571883
 97
       10
330
1C7
330
18F
330
18E
330
1C8
330
18D
330
1C3
330
1C4
330
1C5
330
1C6
330
190
 75
     1
 76
     0
 52
45.0
 41
0.1
 77
     0
 78
     1
 53
45.0
 43
0.0
 44
0.0
 45
-0.0707106781186548
 46
0.0707106781186548
 79
     0
 98
        1
 10
0.0
 20
0.0
  0
HATCH
  5
24D
330
71
100
AcDbEntity
  8
1
  6
Continuous
 62
     2
100
AcDbHatch
 10
0.0
 20
0.0
 30
0.0
210
0.0
220
0.0
230
1.0
  2
_USER
 70
     0
 71
     1
 91
        1
 92
        1
 93
        8
 72
     1
 10
-236.6340942868953
 20
-240.5061447231576
 11
-239.4490850640089
 21
-240.5061447231576
 72
     1
 10
-239.4490850640089
 20
-240.5061447231576
 11
-239.4490850640089
 21
-241.2914100292811
 72
     1
 10
-239.4490850640089
 20
-241.2914100292811
 11
-238.6379860265343
 21
-241.2914100292811
 72
     1
 10
-238.6379860265343
 20
-241.2914100292811
 11
-238.6379860265343
 21
-243.5599542469686
 72
     1
 10
-238.6379860265343
 20
-243.5599542469686
 11
-237.4451933243678
 21
-243.5599542469686
 72
     1
 10
-237.4451933243678
 20
-243.5599542469686
 11
-237.4451933243678
 21
-241.2914100292811
 72
     1
 10
-237.4451933243678
 20
-241.2914100292811
 11
-236.6340942868953
 21
-241.2914100292811
 72
     1
 10
-236.6340942868953
 20
-241.2914100292811
 11
-236.6340942868953
 21
-240.5061447231576
 97
        8
330
189
330
1C9
330
188
330
1CA
330
1CB
330
18C
330
18B
330
18A
 75
     1
 76
     0
 52
45.0
 41
0.1
 77
     0
 78
     1
 53
45.0
 43
0.0
 44
0.0
 45
-0.0707106781186548
 46
0.0707106781186548
 79
     0
 98
        1
 10
0.0
 20
0.0
  0
HATCH
  5
24E
330
71
100
AcDbEntity
  8
1
  6
Continuous
 62
     2
100
AcDbHatch
 10
0.0
 20
0.0
 30
0.0
210
0.0
220
0.0
230
1.0
  2
_USER
 70
     0
 71
     1
 91
        1
 92
        1
 93
        8
 72
     1
 10
-236.6340942868953
 20
-240.5061447231576
 11
-239.4490850640089
 21
-240.5061447231576
 72
     1
 10
-239.4490850640089
 20
-240.5061447231576
 11
-239.4490850640089
 21
-241.2914100292811
 72
     1
 10
-239.4490850640089
 20
-241.2914100292811
 11
-238.6379860265343
 21
-241.2914100292811
 72
     1
 10
-238.6379860265343
 20
-241.2914100292811
 11
-238.6379860265343
 21
-243.5599542469686
 72
     1
 10
-238.6379860265343
 20
-243.5599542469686
 11
-237.4451933243678
 21
-243.5599542469686
 72
     1
 10
-237.4451933243678
 20
-243.5599542469686
 11
-237.4451933243678
 21
-241.2914100292811
 72
     1
 10
-237.4451933243678
 20
-241.2914100292811
 11
-236.6340942868953
 21
-241.2914100292811
 72
     1
 10
-236.6340942868953
 20
-241.2914100292811
 11
-236.6340942868953
 21
-240.5061447231576
 97
        8
330
189
330
1C9
330
188
330
1CA
330
1CB
330
18C
330
18B
330
18A
 75
     1
 76
     0
 52
45.0
 41
0.1
 77
     0
 78
     1
 53
45.0
 43
0.0
 44
0.0
 45
-0.0707106781186548
 46
0.0707106781186548
 79
     0
 98
        1
 10
0.0
 20
0.0
  0
HATCH
  5
24F
330
71
100
AcDbEntity
  8
1
  6
Continuous
 62
     2
100
AcDbHatch
 10
0.0
 20
0.0
 30
0.0
210
0.0
220
0.0
230
1.0
  2
_USER
 70
     0
 71
     1
 91
        2
 92
        1
 93
        8
 72
     1
 10
-234.4956668309483
 20
-243.5599542469686
 11
-234.7071468844241
 21
-243.0189937027508
 72
     1
 10
-234.7071468844241
 20
-243.0189937027508
 11
-235.8395884610979
 21
-243.0189937027508
 72
     1
 10
-235.8395884610979
 20
-243.0189937027508
 11
-236.0510685145737
 21
-243.5599542469686
 72
     1
 10
-236.0510685145737
 20
-243.5599542469686
 11
-237.2915729248267
 21
-243.5599542469686
 72
     1
 10
-237.2915729248267
 20
-243.5599542469686
 11
-235.8936198778874
 21
-240.5061447231576
 72
     1
 10
-235.8936198778874
 20
-240.5061447231576
 11
-234.6531154676347
 21
-240.5061447231576
 72
     1
 10
-234.6531154676347
 20
-240.5061447231576
 11
-233.2551624206944
 21
-243.5599542469686
 72
     1
 10
-233.2551624206944
 20
-243.5599542469686
 11
-234.4956668309483
 21
-243.5599542469686
 97
        8
330
1CD
330
1CE
330
185
330
1CF
330
184
330
187
330
1CC
330
186
 92
       16
 93
        3
 72
     1
 10
-235.5735329099529
 20
-242.3384304374442
 11
-235.2733676727605
 21
-241.5706154714574
 72
     1
 10
-235.2733676727605
 20
-241.5706154714574
 11
-234.9732024355704
 21
-242.3384304374442
 72
     1
 10
-234.9732024355704
 20
-242.3384304374442
 11
-235.5735329099529
 21
-242.3384304374442
 97
        3
330
183
330
1D1
330
1D0
 75
     1
 76
     0
 52
45.0
 41
0.1
 77
     0
 78
     1
 53
45.0
 43
0.0
 44
0.0
 45
-0.0707106781186548
 46
0.0707106781186548
 79
     0
 98
        1
 10
0.0
 20
0.0
  0
HATCH
  5
250
330
71
100
AcDbEntity
  8
1
  6
Continuous
 62
     2
100
AcDbHatch
 10
0.0
 20
0.0
 30
0.0
210
0.0
220
0.0
230
1.0
  2
_USER
 70
     0
 71
     1
 91
        2
 92
        1
 93
        8
 72
     1
 10
-234.4956668309483
 20
-243.5599542469686
 11
-234.7071468844241
 21
-243.0189937027508
 72
     1
 10
-234.7071468844241
 20
-243.0189937027508
 11
-235.8395884610979
 21
-243.0189937027508
 72
     1
 10
-235.8395884610979
 20
-243.0189937027508
 11
-236.0510685145737
 21
-243.5599542469686
 72
     1
 10
-236.0510685145737
 20
-243.5599542469686
 11
-237.2915729248267
 21
-243.5599542469686
 72
     1
 10
-237.2915729248267
 20
-243.5599542469686
 11
-235.8936198778874
 21
-240.5061447231576
 72
     1
 10
-235.8936198778874
 20
-240.5061447231576
 11
-234.6531154676347
 21
-240.5061447231576
 72
     1
 10
-234.6531154676347
 20
-240.5061447231576
 11
-233.2551624206944
 21
-243.5599542469686
 72
     1
 10
-233.2551624206944
 20
-243.5599542469686
 11
-234.4956668309483
 21
-243.5599542469686
 97
        8
330
1CD
330
1CE
330
185
330
1CF
330
184
330
187
330
1CC
330
186
 92
       16
 93
        3
 72
     1
 10
-235.5735329099529
 20
-242.3384304374442
 11
-235.2733676727605
 21
-241.5706154714574
 72
     1
 10
-235.2733676727605
 20
-241.5706154714574
 11
-234.9732024355704
 21
-242.3384304374442
 72
     1
 10
-234.9732024355704
 20
-242.3384304374442
 11
-235.5735329099529
 21
-242.3384304374442
 97
        3
330
183
330
1D1
330
1D0
 75
     1
 76
     0
 52
45.0
 41
0.1
 77
     0
 78
     1
 53
45.0
 43
0.0
 44
0.0
 45
-0.0707106781186548
 46
0.0707106781186548
 79
     0
 98
        1
 10
0.0
 20
0.0
  0
HATCH
  5
251
330
71
100
AcDbEntity
  8
1
  6
Continuous
 62
     2
100
AcDbHatch
 10
0.0
 20
0.0
 30
0.0
210
0.0
220
0.0
230
1.0
  2
_USER
 70
     0
 71
     1
 91
        1
 92
        1
 93
        4
 72
     1
 10
-232.8647184171624
 20
-240.2007637707943
 11
-234.1052228274153
 21
-240.2007637707943
 72
     1
 10
-234.1052228274153
 20
-240.2007637707943
 11
-234.1052228274153
 21
-237.1469542469831
 72
     1
 10
-234.1052228274153
 20
-237.1469542469831
 11
-232.8647184171624
 21
-237.1469542469831
 72
     1
 10
-232.8647184171624
 20
-237.1469542469831
 11
-232.8647184171624
 21
-240.2007637707943
 97
        4
330
180
330
182
330
1D2
330
181
 75
     1
 76
     0
 52
45.0
 41
0.1
 77
     0
 78
     1
 53
45.0
 43
0.0
 44
0.0
 45
-0.0707106781186548
 46
0.0707106781186548
 79
     0
 98
        1
 10
0.0
 20
0.0
  0
HATCH
  5
252
330
71
100
AcDbEntity
  8
1
  6
Continuous
 62
     2
100
AcDbHatch
 10
0.0
 20
0.0
 30
0.0
210
0.0
220
0.0
230
1.0
  2
_USER
 70
     0
 71
     1
 91
        1
 92
        1
 93
        4
 72
     1
 10
-232.8647184171624
 20
-240.2007637707943
 11
-234.1052228274153
 21
-240.2007637707943
 72
     1
 10
-234.1052228274153
 20
-240.2007637707943
 11
-234.1052228274153
 21
-237.1469542469831
 72
     1
 10
-234.1052228274153
 20
-237.1469542469831
 11
-232.8647184171624
 21
-237.1469542469831
 72
     1
 10
-232.8647184171624
 20
-237.1469542469831
 11
-232.8647184171624
 21
-240.2007637707943
 97
        4
330
180
330
182
330
1D2
330
181
 75
     1
 76
     0
 52
45.0
 41
0.1
 77
     0
 78
     1
 53
45.0
 43
0.0
 44
0.0
 45
-0.0707106781186548
 46
0.0707106781186548
 79
     0
 98
        1
 10
0.0
 20
0.0
  0
HATCH
  5
253
330
71
100
AcDbEntity
  8
1
  6
Continuous
 62
     2
100
AcDbHatch
 10
0.0
 20
0.0
 30
0.0
210
0.0
220
0.0
230
1.0
  2
_USER
 70
     0
 71
     1
 91
        1
 92
        1
 93
       12
 72
     1
 10
-228.6422322514916
 20
-237.1469542469831
 11
-229.9447618822581
 21
-238.6199047770193
 72
     1
 10
-229.9447618822581
 20
-238.6199047770193
 11
-228.5468088353178
 21
-240.2007637707943
 72
     1
 10
-228.5468088353178
 20
-240.2007637707943
 11
-229.9495330530661
 21
-240.2007637707943
 72
     1
 10
-229.9495330530661
 20
-240.2007637707943
 11
-230.6461239911316
 21
-239.4130319855006
 72
     1
 10
-230.6461239911316
 20
-239.4130319855006
 11
-231.3427149291973
 21
-240.2007637707943
 72
     1
 10
-231.3427149291973
 20
-240.2007637707943
 11
-232.7454391469455
 21
-240.2007637707943
 72
     1
 10
-232.7454391469455
 20
-240.2007637707943
 11
-231.3474861000052
 21
-238.6199047770193
 72
     1
 10
-231.3474861000052
 20
-238.6199047770193
 11
-232.6500157307727
 21
-237.1469542469831
 72
     1
 10
-232.6500157307727
 20
-237.1469542469831
 11
-231.2472915130234
 21
-237.1469542469831
 72
     1
 10
-231.2472915130234
 20
-237.1469542469831
 11
-230.6461239911316
 21
-237.8267775685386
 72
     1
 10
-230.6461239911316
 20
-237.8267775685386
 11
-230.0449564692388
 21
-237.1469542469831
 72
     1
 10
-230.0449564692388
 20
-237.1469542469831
 11
-228.6422322514916
 21
-237.1469542469831
 97
       12
330
17B
330
17A
330
179
330
1D6
330
1D7
330
1D3
330
1D4
330
17F
330
17E
330
17D
330
17C
330
1D5
 75
     1
 76
     0
 52
45.0
 41
0.1
 77
     0
 78
     1
 53
45.0
 43
0.0
 44
0.0
 45
-0.0707106781186548
 46
0.0707106781186548
 79
     0
 98
        1
 10
0.0
 20
0.0
  0
HATCH
  5
254
330
71
100
AcDbEntity
  8
1
  6
Continuous
 62
     2
100
AcDbHatch
 10
0.0
 20
0.0
 30
0.0
210
0.0
220
0.0
230
1.0
  2
_USER
 70
     0
 71
     1
 91
        1
 92
        1
 93
       12
 72
     1
 10
-228.6422322514916
 20
-237.1469542469831
 11
-229.9447618822581
 21
-238.6199047770193
 72
     1
 10
-229.9447618822581
 20
-238.6199047770193
 11
-228.5468088353178
 21
-240.2007637707943
 72
     1
 10
-228.5468088353178
 20
-240.2007637707943
 11
-229.9495330530661
 21
-240.2007637707943
 72
     1
 10
-229.9495330530661
 20
-240.2007637707943
 11
-230.6461239911316
 21
-239.4130319855006
 72
     1
 10
-230.6461239911316
 20
-239.4130319855006
 11
-231.3427149291973
 21
-240.2007637707943
 72
     1
 10
-231.3427149291973
 20
-240.2007637707943
 11
-232.7454391469455
 21
-240.2007637707943
 72
     1
 10
-232.7454391469455
 20
-240.2007637707943
 11
-231.3474861000052
 21
-238.6199047770193
 72
     1
 10
-231.3474861000052
 20
-238.6199047770193
 11
-232.6500157307727
 21
-237.1469542469831
 72
     1
 10
-232.6500157307727
 20
-237.1469542469831
 11
-231.2472915130234
 21
-237.1469542469831
 72
     1
 10
-231.2472915130234
 20
-237.1469542469831
 11
-230.6461239911316
 21
-237.8267775685386
 72
     1
 10
-230.6461239911316
 20
-237.8267775685386
 11
-230.0449564692388
 21
-237.1469542469831
 72
     1
 10
-230.0449564692388
 20
-237.1469542469831
 11
-228.6422322514916
 21
-237.1469542469831
 97
       12
330
17B
330
17A
330
179
330
1D6
330
1D7
330
1D3
330
1D4
330
17F
330
17E
330
17D
330
17C
330
1D5
 75
     1
 76
     0
 52
45.0
 41
0.1
 77
     0
 78
     1
 53
45.0
 43
0.0
 44
0.0
 45
-0.0707106781186548
 46
0.0707106781186548
 79
     0
 98
        1
 10
0.0
 20
0.0
  0
HATCH
  5
255
330
71
100
AcDbEntity
  8
1
  6
Continuous
 62
     2
100
AcDbHatch
 10
0.0
 20
0.0
 30
0.0
210
0.0
220
0.0
230
1.0
  2
_USER
 70
     0
 71
     1
 91
        2
 92
        1
 93
        6
 72
     1
 10
-247.6599676656376
 20
-239.2576855296505
 11
-248.4187352534179
 21
-239.2576855296505
 72
     1
 10
-248.4187352534179
 20
-239.2576855296505
 11
-248.4187352534179
 21
-240.2007637707943
 72
     1
 10
-248.4187352534179
 20
-240.2007637707943
 11
-249.659239663672
 21
-240.2007637707943
 72
     1
 10
-249.659239663672
 20
-240.2007637707943
 11
-249.659239663672
 21
-237.1469542469831
 72
     1
 10
-249.659239663672
 20
-237.1469542469831
 11
-247.6599676656376
 21
-237.1469542469831
 72
     2
 10
-247.6599676656376
 20
-238.2023198883168
 40
1.055365641333708
 50
270.0
 51
450.0
 73
     0
 97
        6
330
1A3
330
1A2
330
1AF
330
1AE
330
1A4
330
1F4
 92
       16
 93
        4
 72
     2
 10
-248.101440191876
 20
-238.1629239170943
 40
0.3528638246712035
 50
270.0
 51
450.0
 73
     1
 72
     1
 10
-248.101440191876
 20
-237.8100600924232
 11
-248.4187352534179
 21
-237.8100600924232
 72
     1
 10
-248.4187352534179
 20
-237.8100600924232
 11
-248.4187352534179
 21
-238.5157877417655
 72
     1
 10
-248.4187352534179
 20
-238.5157877417655
 11
-248.101440191876
 21
-238.5157877417655
 97
        4
330
208
330
1A0
330
1B0
330
1A1
 75
     1
 76
     0
 52
45.0
 41
0.1
 77
     0
 78
     1
 53
45.0
 43
0.0
 44
0.0
 45
-0.0707106781186548
 46
0.0707106781186548
 79
     0
 98
        1
 10
0.0
 20
0.0
  0
HATCH
  5
256
330
71
100
AcDbEntity
  8
1
  6
Continuous
 62
     2
100
AcDbHatch
 10
0.0
 20
0.0
 30
0.0
210
0.0
220
0.0
230
1.0
  2
_USER
 70
     0
 71
     1
 91
        2
 92
        1
 93
        6
 72
     1
 10
-247.6599676656376
 20
-239.2576855296505
 11
-248.4187352534179
 21
-239.2576855296505
 72
     1
 10
-248.4187352534179
 20
-239.2576855296505
 11
-248.4187352534179
 21
-240.2007637707943
 72
     1
 10
-248.4187352534179
 20
-240.2007637707943
 11
-249.659239663672
 21
-240.2007637707943
 72
     1
 10
-249.659239663672
 20
-240.2007637707943
 11
-249.659239663672
 21
-237.1469542469831
 72
     1
 10
-249.659239663672
 20
-237.1469542469831
 11
-247.6599676656376
 21
-237.1469542469831
 72
     2
 10
-247.6599676656376
 20
-238.2023198883168
 40
1.055365641333708
 50
270.0
 51
450.0
 73
     0
 97
        6
330
1A3
330
1A2
330
1AF
330
1AE
330
1A4
330
1F4
 92
       16
 93
        4
 72
     2
 10
-248.101440191876
 20
-238.1629239170943
 40
0.3528638246712035
 50
270.0
 51
450.0
 73
     1
 72
     1
 10
-248.101440191876
 20
-237.8100600924232
 11
-248.4187352534179
 21
-237.8100600924232
 72
     1
 10
-248.4187352534179
 20
-237.8100600924232
 11
-248.4187352534179
 21
-238.5157877417655
 72
     1
 10
-248.4187352534179
 20
-238.5157877417655
 11
-248.101440191876
 21
-238.5157877417655
 97
        4
330
208
330
1A0
330
1B0
330
1A1
 75
     1
 76
     0
 52
45.0
 41
0.1
 77
     0
 78
     1
 53
45.0
 43
0.0
 44
0.0
 45
-0.0707106781186548
 46
0.0707106781186548
 79
     0
 98
        1
 10
0.0
 20
0.0
  0
HATCH
  5
257
330
71
100
AcDbEntity
  8
1
  6
Continuous
 62
     2
100
AcDbHatch
 10
0.0
 20
0.0
 30
0.0
210
0.0
220
0.0
230
1.0
  2
_USER
 70
     0
 71
     1
 91
        2
 92
        1
 93
        4
 72
     2
 10
-245.1034249172785
 20
-242.5716244953661
 40
2.065479772208492
 50
62.45185182430527
 51
117.5481481756682
 73
     1
 72
     2
 10
-245.3843648091118
 20
-242.0330494850633
 40
1.458034083651402
 50
117.5481481756655
 51
242.4518518243366
 73
     1
 72
     2
 10
-245.1034249172785
 20
-241.49447447476
 40
2.065479772208497
 50
242.4518518243391
 51
297.5481481756875
 73
     1
 72
     2
 10
-244.8224850254452
 20
-242.0330494850633
 40
1.458034083652003
 50
297.548148175701
 51
422.4518518242969
 73
     1
 97
        4
330
200
330
1FF
330
201
330
1FE
 92
       16
 93
        4
 72
     2
 10
-245.3031649536249
 20
-242.0330494850633
 40
0.77179977867969
 50
321.8795802028388
 51
398.1204197971479
 73
     1
 72
     2
 10
-245.1034249172785
 20
-241.8763183069428
 40
0.5179085730132249
 50
38.12041979714156
 51
141.8795802028682
 73
     1
 72
     2
 10
-244.9036848809324
 20
-242.0330494850633
 40
0.7717997786794154
 50
141.8795802028442
 51
218.120419797169
 73
     1
 72
     2
 10
-245.1034249172785
 20
-242.1897806631833
 40
0.5179085730137577
 50
218.1204197971912
 51
321.879580202799
 73
     1
 97
        4
330
21C
330
219
330
21A
330
21B
 75
     1
 76
     0
 52
45.0
 41
0.1
 77
     0
 78
     1
 53
45.0
 43
0.0
 44
0.0
 45
-0.0707106781186548
 46
0.0707106781186548
 79
     0
 98
        1
 10
0.0
 20
0.0
  0
HATCH
  5
258
330
71
100
AcDbEntity
  8
1
  6
Continuous
 62
     2
100
AcDbHatch
 10
0.0
 20
0.0
 30
0.0
210
0.0
220
0.0
230
1.0
  2
_USER
 70
     0
 71
     1
 91
        2
 92
        1
 93
        4
 72
     2
 10
-245.1034249172785
 20
-242.5716244953661
 40
2.065479772208492
 50
62.45185182430527
 51
117.5481481756682
 73
     1
 72
     2
 10
-245.3843648091118
 20
-242.0330494850633
 40
1.458034083651402
 50
117.5481481756655
 51
242.4518518243366
 73
     1
 72
     2
 10
-245.1034249172785
 20
-241.49447447476
 40
2.065479772208497
 50
242.4518518243391
 51
297.5481481756875
 73
     1
 72
     2
 10
-244.8224850254452
 20
-242.0330494850633
 40
1.458034083652003
 50
297.548148175701
 51
422.4518518242969
 73
     1
 97
        4
330
200
330
1FF
330
201
330
1FE
 92
       16
 93
        4
 72
     2
 10
-245.3031649536249
 20
-242.0330494850633
 40
0.77179977867969
 50
321.8795802028388
 51
398.1204197971479
 73
     1
 72
     2
 10
-245.1034249172785
 20
-241.8763183069428
 40
0.5179085730132249
 50
38.12041979714156
 51
141.8795802028682
 73
     1
 72
     2
 10
-244.9036848809324
 20
-242.0330494850633
 40
0.7717997786794154
 50
141.8795802028442
 51
218.120419797169
 73
     1
 72
     2
 10
-245.1034249172785
 20
-242.1897806631833
 40
0.5179085730137577
 50
218.1204197971912
 51
321.879580202799
 73
     1
 97
        4
330
21C
330
219
330
21A
330
21B
 75
     1
 76
     0
 52
45.0
 41
0.1
 77
     0
 78
     1
 53
45.0
 43
0.0
 44
0.0
 45
-0.0707106781186548
 46
0.0707106781186548
 79
     0
 98
        1
 10
0.0
 20
0.0
  0
HATCH
  5
259
330
71
100
AcDbEntity
  8
1
  6
Continuous
 62
     2
100
AcDbHatch
 10
0.0
 20
0.0
 30
0.0
210
0.0
220
0.0
230
1.0
  2
_USER
 70
     0
 71
     1
 91
        2
 92
        1
 93
       12
 72
     1
 10
-238.2084297228692
 20
-237.8449678524261
 11
-239.5443575492969
 21
-237.8449678524261
 72
     1
 10
-239.5443575492969
 20
-237.8449678524261
 11
-239.5443575492969
 21
-238.3248522061678
 72
     1
 10
-239.5443575492969
 20
-238.3248522061678
 11
-238.2084297228692
 21
-238.3248522061678
 72
     1
 10
-238.2084297228692
 20
-238.3248522061678
 11
-238.2084297228692
 21
-239.0228658116101
 72
     1
 10
-238.2084297228692
 20
-239.0228658116101
 11
-239.5443575492969
 21
-239.0228658116101
 72
     1
 10
-239.5443575492969
 20
-239.0228658116101
 11
-239.5443575492969
 21
-239.5027501653518
 72
     1
 10
-239.5443575492969
 20
-239.5027501653518
 11
-238.2084297228692
 21
-239.5027501653518
 72
     1
 10
-238.2084297228692
 20
-239.5027501653518
 11
-238.2084297228692
 21
-240.2007637707943
 72
     1
 10
-238.2084297228692
 20
-240.2007637707943
 11
-241.3587494466502
 21
-240.2007637707943
 72
     2
 10
-241.3587494466502
 20
-238.673859008889
 40
1.526904761905882
 50
90.0
 51
270.0
 73
     0
 72
     1
 10
-241.3587494466502
 20
-237.1469542469831
 11
-238.2084297228692
 21
-237.1469542469831
 72
     1
 10
-238.2084297228692
 20
-237.1469542469831
 11
-238.2084297228692
 21
-237.8449678524261
 97
       12
330
1B7
330
209
330
1B8
330
1B9
330
1BA
330
1BB
330
198
330
197
330
196
330
195
330
1BC
330
1B6
 92
       16
 93
        4
 72
     2
 10
-241.142477436485
 20
-238.5171278307685
 40
0.5179085730134564
 50
38.12041979713344
 51
141.8795802028588
 73
     1
 72
     2
 10
-240.9427374001387
 20
-238.673859008889
 40
0.7717997786796198
 50
141.8795802028454
 51
218.1204197971612
 73
     1
 72
     2
 10
-241.142477436485
 20
-238.8305901870095
 40
0.5179085730134372
 50
218.1204197971511
 51
321.8795802028566
 73
     1
 72
     2
 10
-241.3422174728312
 20
-238.673859008889
 40
0.7717997786797123
 50
321.8795802028401
 51
398.1204197971533
 73
     1
 97
        4
330
203
330
202
330
1FD
330
1FC
 75
     1
 76
     0
 52
45.0
 41
0.1
 77
     0
 78
     1
 53
45.0
 43
0.0
 44
0.0
 45
-0.0707106781186548
 46
0.0707106781186548
 79
     0
 98
        1
 10
0.0
 20
0.0
  0
HATCH
  5
25A
330
71
100
AcDbEntity
  8
1
  6
Continuous
 62
     2
100
AcDbHatch
 10
0.0
 20
0.0
 30
0.0
210
0.0
220
0.0
230
1.0
  2
_USER
 70
     0
 71
     1
 91
        2
 92
        1
 93
       12
 72
     1
 10
-238.2084297228692
 20
-237.8449678524261
 11
-239.5443575492969
 21
-237.8449678524261
 72
     1
 10
-239.5443575492969
 20
-237.8449678524261
 11
-239.5443575492969
 21
-238.3248522061678
 72
     1
 10
-239.5443575492969
 20
-238.3248522061678
 11
-238.2084297228692
 21
-238.3248522061678
 72
     1
 10
-238.2084297228692
 20
-238.3248522061678
 11
-238.2084297228692
 21
-239.0228658116101
 72
     1
 10
-238.2084297228692
 20
-239.0228658116101
 11
-239.5443575492969
 21
-239.0228658116101
 72
     1
 10
-239.5443575492969
 20
-239.0228658116101
 11
-239.5443575492969
 21
-239.5027501653518
 72
     1
 10
-239.5443575492969
 20
-239.5027501653518
 11
-238.2084297228692
 21
-239.5027501653518
 72
     1
 10
-238.2084297228692
 20
-239.5027501653518
 11
-238.2084297228692
 21
-240.2007637707943
 72
     1
 10
-238.2084297228692
 20
-240.2007637707943
 11
-241.3587494466502
 21
-240.2007637707943
 72
     2
 10
-241.3587494466502
 20
-238.673859008889
 40
1.526904761905882
 50
90.0
 51
270.0
 73
     0
 72
     1
 10
-241.3587494466502
 20
-237.1469542469831
 11
-238.2084297228692
 21
-237.1469542469831
 72
     1
 10
-238.2084297228692
 20
-237.1469542469831
 11
-238.2084297228692
 21
-237.8449678524261
 97
       12
330
1B7
330
209
330
1B8
330
1B9
330
1BA
330
1BB
330
198
330
197
330
196
330
195
330
1BC
330
1B6
 92
       16
 93
        4
 72
     2
 10
-241.142477436485
 20
-238.5171278307685
 40
0.5179085730134564
 50
38.12041979713344
 51
141.8795802028588
 73
     1
 72
     2
 10
-240.9427374001387
 20
-238.673859008889
 40
0.7717997786796198
 50
141.8795802028454
 51
218.1204197971612
 73
     1
 72
     2
 10
-241.142477436485
 20
-238.8305901870095
 40
0.5179085730134372
 50
218.1204197971511
 51
321.8795802028566
 73
     1
 72
     2
 10
-241.3422174728312
 20
-238.673859008889
 40
0.7717997786797123
 50
321.8795802028401
 51
398.1204197971533
 73
     1
 97
        4
330
203
330
202
330
1FD
330
1FC
 75
     1
 76
     0
 52
45.0
 41
0.1
 77
     0
 78
     1
 53
45.0
 43
0.0
 44
0.0
 45
-0.0707106781186548
 46
0.0707106781186548
 79
     0
 98
        1
 10
0.0
 20
0.0
  0
HATCH
  5
25B
330
71
100
AcDbEntity
  8
1
  6
Continuous
 62
     2
100
AcDbHatch
 10
0.0
 20
0.0
 30
0.0
210
0.0
220
0.0
230
1.0
  2
_USER
 70
     0
 71
     1
 91
        4
 92
        1
 93
        8
 72
     1
 10
-250.1363567445388
 20
-237.5711988623851
 11
-250.1363567445388
 21
-243.1357096315853
 72
     2
 10
-250.5606013599227
 20
-243.1357096315853
 40
0.4242446153832873
 50
0.0
 51
90.0
 73
     0
 72
     1
 10
-250.5606013599227
 20
-243.5599542469686
 11
-256.0339134506395
 21
-243.5599542469686
 72
     2
 10
-256.0339134506395
 20
-243.1357096315853
 40
0.4242446153828041
 50
90.0
 51
180.0
 73
     0
 72
     1
 10
-256.4581580660223
 20
-243.1357096315853
 11
-256.4581580660223
 21
-237.5711988623851
 72
     2
 10
-256.0339134506395
 20
-237.5711988623851
 40
0.4242446153837989
 50
180.0
 51
270.0
 73
     0
 72
     1
 10
-256.0339134506395
 20
-237.1469542470013
 11
-250.5606013599227
 21
-237.1469542470013
 72
     2
 10
-250.5606013599227
 20
-237.5711988623851
 40
0.4242446153839126
 50
270.0
 51
360.0
 73
     0
 97
        8
330
1AB
330
1F9
330
1AC
330
204
330
1A9
330
1FB
330
1AA
330
1FA
 92
       16
 93
        1
 72
     2
 10
-253.414327800122
 20
-239.8900810907406
 40
0.4709789327785074
 50
0.0
 51
360.0
 73
     1
 97
        1
330
21F
 92
       16
 93
        8
 72
     2
 10
-252.8644700873613
 20
-240.9992226907091
 40
0.315716923076622
 50
115.3740086783499
 51
180.0
 73
     1
 72
     1
 10
-253.1801870104381
 20
-240.9992226907091
 11
-253.1801870104381
 21
-241.5810740974041
 72
     2
 10
-252.8644700873613
 20
-241.5810740974041
 40
0.315716923076792
 50
180.0
 51
269.811032957449
 73
     1
 72
     2
 10
-252.8588539520513
 20
-239.8782391498351
 40
2.018561131933351
 50
269.8110329575858
 51
450.1889670424142
 73
     1
 72
     2
 10
-252.8644700873613
 20
-238.175404202266
 40
0.3157169230760711
 50
90.18896704255108
 51
180.0
 73
     1
 72
     1
 10
-253.1801870104381
 20
-238.175404202266
 11
-253.1801870104381
 21
-238.7809394907728
 72
     2
 10
-252.8644700873613
 20
-238.7809394907728
 40
0.315716923076792
 50
180.0
 51
244.6259913216435
 73
     1
 72
     2
 10
-253.3905127854492
 20
-239.8900810907406
 40
0.911848150144459
 50
295.3740086781925
 51
424.6259913218236
 73
     0
 97
        8
330
211
330
172
330
20E
330
20F
330
1ED
330
171
330
210
330
1EC
 92
       16
 93
       12
 72
     2
 10
-255.440018773893
 20
-242.531681768335
 40
0.315716923075712
 50
180.0
 51
270.0
 73
     1
 72
     1
 10
-255.440018773893
 20
-242.8473986914117
 11
-253.9641855128834
 21
-242.8473986914117
 72
     2
 10
-253.9641855128834
 20
-242.531681768335
 40
0.3157169230767067
 50
270.0
 51
360.0
 73
     1
 72
     1
 10
-253.6484685898068
 20
-242.531681768335
 11
-253.6484685898068
 21
-241.0009108368034
 72
     2
 10
-253.9641855128834
 20
-241.0009108368034
 40
0.315716923076593
 50
0.0
 51
64.80558935145369
 73
     1
 72
     2
 10
-253.4416010653084
 20
-239.8900810907406
 40
0.9118975235576268
 50
115.1944106485116
 51
244.8055893514702
 73
     0
 72
     2
 10
-253.9641855128834
 20
-238.7792513446784
 40
0.3157169230761203
 50
295.1944106485397
 51
360.0
 73
     1
 72
     1
 10
-253.6484685898068
 20
-238.7792513446784
 11
-253.6484685898068
 21
-238.1752267256179
 72
     2
 10
-253.9641855128834
 20
-238.1752267256179
 40
0.315716923076593
 50
0.0
 51
90.0
 73
     1
 72
     1
 10
-253.9641855128834
 20
-237.8595098025417
 11
-255.440018773893
 21
-237.8595098025417
 72
     2
 10
-255.440018773893
 20
-238.1752267256179
 40
0.3157169230761951
 50
90.0
 51
180.0
 73
     1
 72
     1
 10
-255.7557356969687
 20
-238.1752267256179
 11
-255.7557356969687
 21
-242.531681768335
 97
       12
330
1F5
330
1AD
330
1F8
330
1A8
330
205
330
206
330
1F7
330
1A7
330
1F6
330
1A6
330
207
330
1A5
 75
     1
 76
     0
 52
45.0
 41
0.1
 77
     0
 78
     1
 53
45.0
 43
0.0
 44
0.0
 45
-0.0707106781186548
 46
0.0707106781186548
 79
     0
 98
        1
 10
0.0
 20
0.0
  0
HATCH
  5
25C
330
71
100
AcDbEntity
  8
1
  6
Continuous
 62
     2
100
AcDbHatch
 10
0.0
 20
0.0
 30
0.0
210
0.0
220
0.0
230
1.0
  2
_USER
 70
     0
 71
     1
 91
        4
 92
        1
 93
        8
 72
     1
 10
-250.1363567445388
 20
-237.5711988623851
 11
-250.1363567445388
 21
-243.1357096315853
 72
     2
 10
-250.5606013599227
 20
-243.1357096315853
 40
0.4242446153832873
 50
0.0
 51
90.0
 73
     0
 72
     1
 10
-250.5606013599227
 20
-243.5599542469686
 11
-256.0339134506395
 21
-243.5599542469686
 72
     2
 10
-256.0339134506395
 20
-243.1357096315853
 40
0.4242446153828041
 50
90.0
 51
180.0
 73
     0
 72
     1
 10
-256.4581580660223
 20
-243.1357096315853
 11
-256.4581580660223
 21
-237.5711988623851
 72
     2
 10
-256.0339134506395
 20
-237.5711988623851
 40
0.4242446153837989
 50
180.0
 51
270.0
 73
     0
 72
     1
 10
-256.0339134506395
 20
-237.1469542470013
 11
-250.5606013599227
 21
-237.1469542470013
 72
     2
 10
-250.5606013599227
 20
-237.5711988623851
 40
0.4242446153839126
 50
270.0
 51
360.0
 73
     0
 97
        8
330
1AB
330
1F9
330
1AC
330
204
330
1A9
330
1FB
330
1AA
330
1FA
 92
       16
 93
        1
 72
     2
 10
-253.414327800122
 20
-239.8900810907406
 40
0.4709789327785074
 50
0.0
 51
360.0
 73
     1
 97
        1
330
21F
 92
       16
 93
        8
 72
     2
 10
-252.8644700873613
 20
-240.9992226907091
 40
0.315716923076622
 50
115.3740086783499
 51
180.0
 73
     1
 72
     1
 10
-253.1801870104381
 20
-240.9992226907091
 11
-253.1801870104381
 21
-241.5810740974041
 72
     2
 10
-252.8644700873613
 20
-241.5810740974041
 40
0.315716923076792
 50
180.0
 51
269.811032957449
 73
     1
 72
     2
 10
-252.8588539520513
 20
-239.8782391498351
 40
2.018561131933351
 50
269.8110329575858
 51
450.1889670424142
 73
     1
 72
     2
 10
-252.8644700873613
 20
-238.175404202266
 40
0.3157169230760711
 50
90.18896704255108
 51
180.0
 73
     1
 72
     1
 10
-253.1801870104381
 20
-238.175404202266
 11
-253.1801870104381
 21
-238.7809394907728
 72
     2
 10
-252.8644700873613
 20
-238.7809394907728
 40
0.315716923076792
 50
180.0
 51
244.6259913216435
 73
     1
 72
     2
 10
-253.3905127854492
 20
-239.8900810907406
 40
0.911848150144459
 50
295.3740086781925
 51
424.6259913218236
 73
     0
 97
        8
330
211
330
172
330
20E
330
20F
330
1ED
330
171
330
210
330
1EC
 92
       16
 93
       12
 72
     2
 10
-255.440018773893
 20
-242.531681768335
 40
0.315716923075712
 50
180.0
 51
270.0
 73
     1
 72
     1
 10
-255.440018773893
 20
-242.8473986914117
 11
-253.9641855128834
 21
-242.8473986914117
 72
     2
 10
-253.9641855128834
 20
-242.531681768335
 40
0.3157169230767067
 50
270.0
 51
360.0
 73
     1
 72
     1
 10
-253.6484685898068
 20
-242.531681768335
 11
-253.6484685898068
 21
-241.0009108368034
 72
     2
 10
-253.9641855128834
 20
-241.0009108368034
 40
0.315716923076593
 50
0.0
 51
64.80558935145369
 73
     1
 72
     2
 10
-253.4416010653084
 20
-239.8900810907406
 40
0.9118975235576268
 50
115.1944106485116
 51
244.8055893514702
 73
     0
 72
     2
 10
-253.9641855128834
 20
-238.7792513446784
 40
0.3157169230761203
 50
295.1944106485397
 51
360.0
 73
     1
 72
     1
 10
-253.6484685898068
 20
-238.7792513446784
 11
-253.6484685898068
 21
-238.1752267256179
 72
     2
 10
-253.9641855128834
 20
-238.1752267256179
 40
0.315716923076593
 50
0.0
 51
90.0
 73
     1
 72
     1
 10
-253.9641855128834
 20
-237.8595098025417
 11
-255.440018773893
 21
-237.8595098025417
 72
     2
 10
-255.440018773893
 20
-238.1752267256179
 40
0.3157169230761951
 50
90.0
 51
180.0
 73
     1
 72
     1
 10
-255.7557356969687
 20
-238.1752267256179
 11
-255.7557356969687
 21
-242.531681768335
 97
       12
330
1F5
330
1AD
330
1F8
330
1A8
330
205
330
206
330
1F7
330
1A7
330
1F6
330
1A6
330
207
330
1A5
 75
     1
 76
     0
 52
45.0
 41
0.1
 77
     0
 78
     1
 53
45.0
 43
0.0
 44
0.0
 45
-0.0707106781186548
 46
0.0707106781186548
 79
     0
 98
        1
 10
0.0
 20
0.0
  0
HATCH
  5
25D
330
71
100
AcDbEntity
  8
1
  6
Continuous
 62
     2
100
AcDbHatch
 10
0.0
 20
0.0
 30
0.0
210
0.0
220
0.0
230
1.0
  2
_USER
 70
     0
 71
     1
 91
        1
 92
        1
 93
       18
 72
     1
 10
-228.5468088353178
 20
-241.2914100292811
 11
-229.3579078727912
 21
-241.2914100292811
 72
     1
 10
-229.3579078727912
 20
-241.2914100292811
 11
-229.3579078727912
 21
-243.5599542469686
 72
     1
 10
-229.3579078727912
 20
-243.5599542469686
 11
-230.5507005749589
 21
-243.5599542469686
 72
     1
 10
-230.5507005749589
 20
-243.5599542469686
 11
-230.5507005749589
 21
-241.2914100292811
 72
     1
 10
-230.5507005749589
 20
-241.2914100292811
 11
-231.654339874527
 21
-241.2914100292811
 72
     2
 10
-231.654339874527
 20
-242.2459330361072
 40
0.9545230068260935
 50
90.0
 51
109.3371432194321
 73
     1
 72
     2
 10
-231.8010098726307
 20
-241.8279780557243
 40
0.511580060194307
 50
109.3371432194895
 51
151.4785267424253
 73
     1
 72
     2
 10
-231.4236526145493
 20
-242.0330494850633
 40
0.9410597353348789
 50
151.478526742364
 51
208.5214732576695
 73
     1
 72
     2
 10
-231.8010098726307
 20
-242.2381209144018
 40
0.511580060196008
 50
208.5214732576838
 51
246.6277221118449
 73
     1
 72
     2
 10
-231.6445698399276
 20
-241.8761288956918
 40
0.9059297849852688
 50
246.6277221118199
 51
288.4480761180817
 73
     1
 72
     2
 10
-232.0627375735895
 20
-240.6225831196553
 40
2.227384008972656
 50
288.4480761181335
 51
301.9309089499403
 73
     1
 72
     1
 10
-230.8846825315656
 20
-242.512933838805
 11
-230.8846825315656
 21
-243.3854508456084
 72
     2
 10
-232.2206104486823
 20
-238.7203685398069
 40
4.852596863498822
 50
74.0200087416619
 51
84.84185523036402
 73
     0
 72
     2
 10
-231.9317543539465
 20
-241.9202591230285
 40
1.639695123940421
 50
84.8418552303238
 51
164.9381082228985
 73
     0
 72
     2
 10
-232.3508821974081
 20
-242.0330494850633
 40
1.205656168392968
 50
164.9381082229024
 51
195.0618917770962
 73
     0
 72
     2
 10
-231.9317543539465
 20
-242.1458398470982
 40
1.639695123940186
 50
195.0618917771043
 51
270.0
 73
     0
 72
     1
 10
-231.9317543539465
 20
-240.506144723158
 11
-228.5468088353178
 21
-240.5061447231576
 72
     1
 10
-228.5468088353178
 20
-240.5061447231576
 11
-228.5468088353178
 21
-241.2914100292811
 97
       18
330
174
330
20A
330
20B
330
1F3
330
1F2
330
1D8
330
1F1
330
1F0
330
20C
330
1EF
330
20D
330
1EE
330
1D9
330
173
330
178
330
177
330
176
330
175
 75
     1
 76
     0
 52
45.0
 41
0.1
 77
     0
 78
     1
 53
45.0
 43
0.0
 44
0.0
 45
-0.0707106781186548
 46
0.0707106781186548
 79
     0
 98
        1
 10
0.0
 20
0.0
  0
HATCH
  5
25E
330
71
100
AcDbEntity
  8
1
  6
Continuous
 62
     2
100
AcDbHatch
 10
0.0
 20
0.0
 30
0.0
210
0.0
220
0.0
230
1.0
  2
_USER
 70
     0
 71
     1
 91
        1
 92
        1
 93
       18
 72
     1
 10
-228.5468088353178
 20
-241.2914100292811
 11
-229.3579078727912
 21
-241.2914100292811
 72
     1
 10
-229.3579078727912
 20
-241.2914100292811
 11
-229.3579078727912
 21
-243.5599542469686
 72
     1
 10
-229.3579078727912
 20
-243.5599542469686
 11
-230.5507005749589
 21
-243.5599542469686
 72
     1
 10
-230.5507005749589
 20
-243.5599542469686
 11
-230.5507005749589
 21
-241.2914100292811
 72
     1
 10
-230.5507005749589
 20
-241.2914100292811
 11
-231.654339874527
 21
-241.2914100292811
 72
     2
 10
-231.654339874527
 20
-242.2459330361072
 40
0.9545230068260935
 50
90.0
 51
109.3371432194321
 73
     1
 72
     2
 10
-231.8010098726307
 20
-241.8279780557243
 40
0.511580060194307
 50
109.3371432194895
 51
151.4785267424253
 73
     1
 72
     2
 10
-231.4236526145493
 20
-242.0330494850633
 40
0.9410597353348789
 50
151.478526742364
 51
208.5214732576695
 73
     1
 72
     2
 10
-231.8010098726307
 20
-242.2381209144018
 40
0.511580060196008
 50
208.5214732576838
 51
246.6277221118449
 73
     1
 72
     2
 10
-231.6445698399276
 20
-241.8761288956918
 40
0.9059297849852688
 50
246.6277221118199
 51
288.4480761180817
 73
     1
 72
     2
 10
-232.0627375735895
 20
-240.6225831196553
 40
2.227384008972656
 50
288.4480761181335
 51
301.9309089499403
 73
     1
 72
     1
 10
-230.8846825315656
 20
-242.512933838805
 11
-230.8846825315656
 21
-243.3854508456084
 72
     2
 10
-232.2206104486823
 20
-238.7203685398069
 40
4.852596863498822
 50
74.0200087416619
 51
84.84185523036402
 73
     0
 72
     2
 10
-231.9317543539465
 20
-241.9202591230285
 40
1.639695123940421
 50
84.8418552303238
 51
164.9381082228985
 73
     0
 72
     2
 10
-232.3508821974081
 20
-242.0330494850633
 40
1.205656168392968
 50
164.9381082229024
 51
195.0618917770962
 73
     0
 72
     2
 10
-231.9317543539465
 20
-242.1458398470982
 40
1.639695123940186
 50
195.0618917771043
 51
270.0
 73
     0
 72
     1
 10
-231.9317543539465
 20
-240.506144723158
 11
-228.5468088353178
 21
-240.5061447231576
 72
     1
 10
-228.5468088353178
 20
-240.5061447231576
 11
-228.5468088353178
 21
-241.2914100292811
 97
       18
330
174
330
20A
330
20B
330
1F3
330
1F2
330
1D8
330
1F1
330
1F0
330
20C
330
1EF
330
20D
330
1EE
330
1D9
330
173
330
178
330
177
330
176
330
175
 75
     1
 76
     0
 52
45.0
 41
0.1
 77
     0
 78
     1
 53
45.0
 43
0.0
 44
0.0
 45
-0.0707106781186548
 46
0.0707106781186548
 79
     0
 98
        1
 10
0.0
 20
0.0
  0
HATCH
  5
25F
330
71
100
AcDbEntity
  8
1
  6
Continuous
 62
     2
100
AcDbHatch
 10
0.0
 20
0.0
 30
0.0
210
0.0
220
0.0
230
1.0
  2
_USER
 70
     0
 71
     1
 91
        1
 92
        1
 93
       14
 72
     2
 10
-248.0344558331994
 20
-242.1458398470982
 40
1.639695123940507
 50
84.84185523036236
 51
164.9381082228877
 73
     1
 72
     2
 10
-248.4535836766622
 20
-242.0330494850633
 40
1.205656168390964
 50
164.9381082228781
 51
195.0618917770958
 73
     1
 72
     2
 10
-248.0344558331994
 20
-241.9202591230285
 40
1.639695123939415
 50
195.0618917770893
 51
275.1581447696395
 73
     1
 72
     2
 10
-248.3233119279353
 20
-238.7203685398069
 40
4.852596863498138
 50
275.1581447696249
 51
285.9799912583526
 73
     1
 72
     1
 10
-246.9873840108175
 20
-243.3854508456078
 11
-246.9873840108175
 21
-242.5129338388045
 72
     2
 10
-248.1654390528424
 20
-240.6225831196547
 40
2.227384008972665
 50
58.06909105003893
 51
71.5519238818658
 73
     0
 72
     2
 10
-247.7472713191816
 20
-241.8761288956918
 40
0.9059297849849192
 50
71.55192388183985
 51
113.372277888129
 73
     0
 72
     2
 10
-247.9037113518836
 20
-242.2381209144018
 40
0.5115800601948034
 50
113.3722778881755
 51
151.4785267423044
 73
     0
 72
     2
 10
-247.5263540938033
 20
-242.0330494850633
 40
0.9410597353332545
 50
151.4785267422927
 51
208.5214732577331
 73
     0
 72
     2
 10
-247.9037113518836
 20
-241.8279780557243
 40
0.511580060194863
 50
208.5214732576956
 51
246.6277221117967
 73
     0
 72
     2
 10
-247.7472713191816
 20
-242.1899700744349
 40
0.9059297849852509
 50
246.627722111871
 51
288.4480761181499
 73
     0
 72
     2
 10
-248.1654390528424
 20
-243.4435158504715
 40
2.227384008973492
 50
288.4480761181342
 51
301.9309089499599
 73
     0
 72
     1
 10
-246.9873840108175
 20
-241.5531651313216
 11
-246.9873840108175
 21
-240.6806481245183
 72
     2
 10
-248.3233119279353
 20
-245.3457304303192
 40
4.852596863498068
 50
74.02000874164739
 51
84.84185523037509
 73
     1
 97
       14
330
212
330
213
330
214
330
215
330
1DA
330
1EB
330
1EA
330
1E9
330
216
330
217
330
1E8
330
218
330
1DB
330
1E7
 75
     1
 76
     0
 52
45.0
 41
0.1
 77
     0
 78
     1
 53
45.0
 43
0.0
 44
0.0
 45
-0.0707106781186548
 46
0.0707106781186548
 79
     0
 98
        1
 10
0.0
 20
0.0
  0
HATCH
  5
260
330
71
100
AcDbEntity
  8
1
  6
Continuous
 62
     2
100
AcDbHatch
 10
0.0
 20
0.0
 30
0.0
210
0.0
220
0.0
230
1.0
  2
_USER
 70
     0
 71
     1
 91
        1
 92
        1
 93
       14
 72
     2
 10
-248.0344558331994
 20
-242.1458398470982
 40
1.639695123940507
 50
84.84185523036236
 51
164.9381082228877
 73
     1
 72
     2
 10
-248.4535836766622
 20
-242.0330494850633
 40
1.205656168390964
 50
164.9381082228781
 51
195.0618917770958
 73
     1
 72
     2
 10
-248.0344558331994
 20
-241.9202591230285
 40
1.639695123939415
 50
195.0618917770893
 51
275.1581447696395
 73
     1
 72
     2
 10
-248.3233119279353
 20
-238.7203685398069
 40
4.852596863498138
 50
275.1581447696249
 51
285.9799912583526
 73
     1
 72
     1
 10
-246.9873840108175
 20
-243.3854508456078
 11
-246.9873840108175
 21
-242.5129338388045
 72
     2
 10
-248.1654390528424
 20
-240.6225831196547
 40
2.227384008972665
 50
58.06909105003893
 51
71.5519238818658
 73
     0
 72
     2
 10
-247.7472713191816
 20
-241.8761288956918
 40
0.9059297849849192
 50
71.55192388183985
 51
113.372277888129
 73
     0
 72
     2
 10
-247.9037113518836
 20
-242.2381209144018
 40
0.5115800601948034
 50
113.3722778881755
 51
151.4785267423044
 73
     0
 72
     2
 10
-247.5263540938033
 20
-242.0330494850633
 40
0.9410597353332545
 50
151.4785267422927
 51
208.5214732577331
 73
     0
 72
     2
 10
-247.9037113518836
 20
-241.8279780557243
 40
0.511580060194863
 50
208.5214732576956
 51
246.6277221117967
 73
     0
 72
     2
 10
-247.7472713191816
 20
-242.1899700744349
 40
0.9059297849852509
 50
246.627722111871
 51
288.4480761181499
 73
     0
 72
     2
 10
-248.1654390528424
 20
-243.4435158504715
 40
2.227384008973492
 50
288.4480761181342
 51
301.9309089499599
 73
     0
 72
     1
 10
-246.9873840108175
 20
-241.5531651313216
 11
-246.9873840108175
 21
-240.6806481245183
 72
     2
 10
-248.3233119279353
 20
-245.3457304303192
 40
4.852596863498068
 50
74.02000874164739
 51
84.84185523037509
 73
     1
 97
       14
330
212
330
213
330
214
330
215
330
1DA
330
1EB
330
1EA
330
1E9
330
216
330
217
330
1E8
330
218
330
1DB
330
1E7
 75
     1
 76
     0
 52
45.0
 41
0.1
 77
     0
 78
     1
 53
45.0
 43
0.0
 44
0.0
 45
-0.0707106781186548
 46
0.0707106781186548
 79
     0
 98
        1
 10
0.0
 20
0.0
  0
ENDBLK
  5
73
330
71
100
AcDbEntity
  8
0
100
AcDbBlockEnd
  0
BLOCK
  5
75
330
74
100
AcDbEntity
  8
0
100
AcDbBlockBegin
  2
_punkt
 70
     0
 10
-131.1500084258349
 20
-250.8534542469849
 30
0.0
  3
_punkt
  1

  0
LINE
  5
261
330
74
100
AcDbEntity
  8
1
  6
Continuous
 62
     2
100
AcDbLine
 10
-131.1500084258349
 20
-250.8534542469849
 30
0.0
 11
-126.1500084258359
 21
-250.8534542469849
 31
0.0
  0
LINE
  5
262
330
74
100
AcDbEntity
  8
1
  6
Continuous
 62
     2
100
AcDbLine
 10
-131.1500084258349
 20
-250.8534542469849
 30
0.0
 11
-131.1500084258349
 21
-255.8534542469851
 31
0.0
  0
ENDBLK
  5
76
330
74
100
AcDbEntity
  8
0
100
AcDbBlockEnd
  0
BLOCK
  5
7A
330
77
100
AcDbEntity
  8
0
100
AcDbBlockBegin
  2
A4I_CS
 70
     0
 10
-131.1500084258349
 20
-255.8534542469851
 30
0.0
  3
A4I_CS
  1

  0
INSERT
  5
78
330
77
100
AcDbEntity
  8
1
100
AcDbBlockReference
  2
_rahmen
 10
-131.1500084258349
 20
-255.8534542469851
 30
0.0
  0
INSERT
  5
79
330
77
100
AcDbEntity
  8
1
100
AcDbBlockReference
  2
_punkt
 10
-131.1500084258349
 20
-250.8534542469849
 30
0.0
  0
ENDBLK
  5
7B
330
77
100
AcDbEntity
  8
0
100
AcDbBlockEnd
  0
BLOCK
  5
84
330
7C
100
AcDbEntity
  8
0
100
AcDbBlockBegin
  2
1
 70
     0
 10
0.0
 20
0.0
 30
0.0
  3
1
  1

  0
INSERT
  5
7D
330
7C
100
AcDbEntity
  8
0
100
AcDbBlockReference
  2
Allg1
 10
-206.0000000000958
 20
-171.999999999998
 30
0.0
 41
2.0
 42
2.0
 43
2.0
  0
INSERT
  5
7E
330
7C
100
AcDbEntity
  8
0
100
AcDbBlockReference
  2
Drfsicht1
 10
-288.2000086308628
 20
-155.2500045299832
 30
0.0
 41
2.0
 42
2.0
 43
2.0
  0
INSERT
  5
7F
330
7C
100
AcDbEntity
  8
0
100
AcDbBlockReference
  2
Rckans1
 10
-190.999999999725
 20
-113.0000000000749
 30
0.0
 41
2.0
 42
2.0
 43
2.0
  0
INSERT
  5
80
330
7C
100
AcDbEntity
  8
0
100
AcDbBlockReference
  2
SA_Links1
 10
-236.6000035269356
 20
-113.00000000003
 30
0.0
 41
2.0
 42
2.0
 43
2.0
  0
INSERT
  5
81
330
7C
100
AcDbEntity
  8
0
100
AcDbBlockReference
  2
SA_Rechts1
 10
-336.8000100579456
 20
-113.0000000000299
 30
0.0
 41
2.0
 42
2.0
 43
2.0
  0
INSERT
  5
82
330
7C
100
AcDbEntity
  8
0
100
AcDbBlockReference
  2
Vordans1
 10
-288.2000086308628
 20
-113.0000000000301
 30
0.0
 41
2.0
 42
2.0
 43
2.0
  0
INSERT
  5
83
330
7C
100
AcDbEntity
  8
0
100
AcDbBlockReference
  2
A4I_CS
 10
-131.1500084258349
 20
-255.8534542469851
 30
0.0
  0
ENDBLK
  5
85
330
7C
100
AcDbEntity
  8
0
100
AcDbBlockEnd
  0
BLOCK
  5
C2
330
BB
100
AcDbEntity
  8
0
100
AcDbBlockBegin
  2
*D17
 70
     1
 10
0.0
 20
0.0
 30
0.0
  3
*D17
  1

  0
LINE
  5
BC
330
BB
100
AcDbEntity
  8
1
  6
Continuous
 62
     2
100
AcDbLine
 10
-134.6500042129175
 20
-67.77500255083356
 30
0.0
 11
-134.6500042129175
 21
-87.47500255083352
 31
0.0
  0
LINE
  5
BD
330
BB
100
AcDbEntity
  8
1
  6
Continuous
 62
     2
100
AcDbLine
 10
-139.6500042129175
 20
-67.77500255083356
 30
0.0
 11
-133.9000042129175
 21
-67.77500255083356
 31
0.0
  0
LINE
  5
BE
330
BB
100
AcDbEntity
  8
1
  6
Continuous
 62
     2
100
AcDbLine
 10
-139.6500042129175
 20
-87.47500255083352
 30
0.0
 11
-133.9000042129175
 21
-87.47500255083352
 31
0.0
  0
SOLID
  5
BF
330
BB
100
AcDbEntity
  8
1
 62
     2
100
AcDbTrace
 10
-134.4196123421395
 20
-69.52500255083356
 30
0.0
 11
-134.8803960836954
 21
-69.52500255083356
 31
0.0
 12
-134.6500042129175
 22
-67.77500255083356
 32
0.0
 13
-134.6500042129175
 23
-67.77500255083356
 33
0.0
  0
SOLID
  5
C0
330
BB
100
AcDbEntity
  8
1
 62
     2
100
AcDbTrace
 10
-134.8803960836954
 20
-85.72500255083352
 30
0.0
 11
-134.4196123421395
 21
-85.72500255083352
 31
0.0
 12
-134.6500042129175
 22
-87.47500255083352
 32
0.0
 13
-134.6500042129175
 23
-87.47500255083352
 33
0.0
  0
MTEXT
  5
C1
330
BB
100
AcDbEntity
  8
1
 62
     3
100
AcDbMText
 10
-135.5750042129175
 20
-79.71422712349249
 30
0.0
 40
1.75
 41
0.0
 71
     7
 72
     1
  1
19,7
  7
CONVERTER_11
 11
0.0
 21
1.0
 31
0.0
 73
     1
 44
0.60024009603842
  0
ENDBLK
  5
C3
330
BB
100
AcDbEntity
  8
0
100
AcDbBlockEnd
  0
BLOCK
  5
119
330
112
100
AcDbEntity
  8
0
100
AcDbBlockBegin
  2
*D18
 70
     1
 10
0.0
 20
0.0
 30
0.0
  3
*D18
  1

  0
LINE
  5
113
330
112
100
AcDbEntity
  8
1
  6
Continuous
 62
     2
100
AcDbLine
 10
-139.6500042129174
 20
-50.87499998572232
 30
0.0
 11
-148.5500042129174
 21
-50.87499998572232
 31
0.0
  0
LINE
  5
114
330
112
100
AcDbEntity
  8
1
  6
Continuous
 62
     2
100
AcDbLine
 10
-139.6500042129174
 20
-55.87499998572248
 30
0.0
 11
-139.6500042129174
 21
-50.12499998572232
 31
0.0
  0
LINE
  5
115
330
112
100
AcDbEntity
  8
1
  6
Continuous
 62
     2
100
AcDbLine
 10
-148.5500042129174
 20
-55.87499998572233
 30
0.0
 11
-148.5500042129174
 21
-50.12499998572232
 31
0.0
  0
SOLID
  5
116
330
112
100
AcDbEntity
  8
1
 62
     2
100
AcDbTrace
 10
-141.4000042129174
 20
-51.10539185650026
 30
0.0
 11
-141.4000042129174
 21
-50.64460811494438
 31
0.0
 12
-139.6500042129174
 22
-50.87499998572232
 32
0.0
 13
-139.6500042129174
 23
-50.87499998572232
 33
0.0
  0
SOLID
  5
117
330
112
100
AcDbEntity
  8
1
 62
     2
100
AcDbTrace
 10
-146.8000042129174
 20
-50.64460811494438
 30
0.0
 11
-146.8000042129174
 21
-51.10539185650026
 31
0.0
 12
-148.5500042129174
 22
-50.87499998572232
 32
0.0
 13
-148.5500042129174
 23
-50.87499998572232
 33
0.0
  0
MTEXT
  5
118
330
112
100
AcDbEntity
  8
1
 62
     3
100
AcDbMText
 10
-145.5824902320115
 20
-49.94999998572232
 30
0.0
 40
1.75
 41
0.0
 71
     7
 72
     1
  1
8,9
  7
CONVERTER_11
 11
0.9999999999970619
 21
2.424068405545306E-6
 31
0.0
 73
     1
 44
0.60024009603842
  0
ENDBLK
  5
11A
330
112
100
AcDbEntity
  8
0
100
AcDbBlockEnd
  0
BLOCK
  5
126
330
11D
100
AcDbEntity
  8
0
100
AcDbBlockBegin
  2
*D19
 70
     1
 10
0.0
 20
0.0
 30
0.0
  3
*D19
  1

  0
LINE
  5
11E
330
11D
100
AcDbEntity
  8
1
  6
Continuous
 62
     2
100
AcDbLine
 10
-134.7506161759719
 20
-51.22499998572626
 30
0.0
 11
-134.7506161759719
 21
-54.72499998572626
 31
0.0
  0
LINE
  5
11F
330
11D
100
AcDbEntity
  8
1
  6
Continuous
 62
     2
100
AcDbLine
 10
-134.7506161759719
 20
-54.72499998572626
 30
0.0
 11
-134.7506161759719
 21
-58.27499998572246
 31
0.0
  0
LINE
  5
120
330
11D
100
AcDbEntity
  8
1
  6
Continuous
 62
     2
100
AcDbLine
 10
-134.7506161759719
 20
-58.27499998572246
 30
0.0
 11
-134.7506161759719
 21
-63.86994176377598
 31
0.0
  0
LINE
  5
121
330
11D
100
AcDbEntity
  8
1
  6
Continuous
 62
     2
100
AcDbLine
 10
-139.7506161759719
 20
-54.72499998572626
 30
0.0
 11
-134.0006161759719
 21
-54.72499998572626
 31
0.0
  0
LINE
  5
122
330
11D
100
AcDbEntity
  8
1
  6
Continuous
 62
     2
100
AcDbLine
 10
-141.8500042129175
 20
-58.27499998572246
 30
0.0
 11
-134.0006161759719
 21
-58.27499998572246
 31
0.0
  0
SOLID
  5
123
330
11D
100
AcDbEntity
  8
1
 62
     2
100
AcDbTrace
 10
-134.9810080467498
 20
-52.97499998572626
 30
0.0
 11
-134.5202243051939
 21
-52.97499998572626
 31
0.0
 12
-134.7506161759719
 22
-54.72499998572626
 32
0.0
 13
-134.7506161759719
 23
-54.72499998572626
 33
0.0
  0
SOLID
  5
124
330
11D
100
AcDbEntity
  8
1
 62
     2
100
AcDbTrace
 10
-134.5202243051939
 20
-60.02499998572246
 30
0.0
 11
-134.9810080467498
 21
-60.02499998572246
 31
0.0
 12
-134.7506161759719
 22
-58.27499998572246
 32
0.0
 13
-134.7506161759719
 23
-58.27499998572246
 33
0.0
  0
MTEXT
  5
125
330
11D
100
AcDbEntity
  8
1
 62
     3
100
AcDbMText
 10
-135.6756161759719
 20
-63.86994176377598
 30
0.0
 40
1.75
 41
0.0
 71
     7
 72
     1
  1
3,6
  7
CONVERTER_11
 11
0.0
 21
1.0
 31
0.0
 73
     1
 44
0.60024009603842
  0
ENDBLK
  5
127
330
11D
100
AcDbEntity
  8
0
100
AcDbBlockEnd
  0
ENDSEC
  0
SECTION
  2
ENTITIES
  0
INSERT
  5
86
330
1F
100
AcDbEntity
  8
1
100
AcDbBlockReference
  2
1
 10
0.0
 20
0.0
 30
0.0
  0
ENDSEC
  0
SECTION
  2
OBJECTS
  0
DICTIONARY
  5
C
330
0
100
AcDbDictionary
281
     1
  3
ACAD_GROUP
350
D
  3
ACAD_LAYOUT
350
1A
  3
ACAD_MATERIAL
350
3B
  3
ACAD_MLEADERSTYLE
350
28A
  3
ACAD_MLINESTYLE
350
17
  3
ACAD_PLOTSETTINGS
350
19
  3
ACAD_PLOTSTYLENAME
350
E
  3
ACAD_TABLESTYLE
350
289
  3
ACAD_VISUALSTYLE
350
2A
  0
DICTIONARY
  5
D
102
{ACAD_REACTORS
330
C
102
}
330
C
100
AcDbDictionary
281
     1
  0
DICTIONARY
  5
1A
102
{ACAD_REACTORS
330
C
102
}
330
C
100
AcDbDictionary
281
     1
  3
Layout1
350
1E
  3
Layout2
350
26
  3
Model
350
22
  0
DICTIONARY
  5
3B
102
{ACAD_REACTORS
330
C
102
}
330
C
100
AcDbDictionary
281
     1
  3
ByBlock
350
3D
  3
ByLayer
350
3C
  3
Global
350
3E
  0
DICTIONARY
  5
28A
102
{ACAD_REACTORS
330
C
102
}
330
C
100
AcDbDictionary
281
     1
  0
DICTIONARY
  5
17
102
{ACAD_REACTORS
330
C
102
}
330
C
100
AcDbDictionary
281
     1
  3
Standard
350
18
  0
DICTIONARY
  5
19
102
{ACAD_REACTORS
330
C
102
}
330
C
100
AcDbDictionary
281
     1
  0
ACDBDICTIONARYWDFLT
  5
E
102
{ACAD_REACTORS
330
C
102
}
330
C
100
AcDbDictionary
281
     1
  3
Normal
350
F
100
AcDbDictionaryWithDefault
340
F
  0
DICTIONARY
  5
289
102
{ACAD_REACTORS
330
C
102
}
330
C
100
AcDbDictionary
281
     1
  0
DICTIONARY
  5
2A
102
{ACAD_REACTORS
330
C
102
}
330
C
100
AcDbDictionary
281
     1
  3
2dWireframe
350
2F
  3
3D Hidden
350
31
  3
3dWireframe
350
30
  3
Basic
350
32
  3
Brighten
350
36
  3
ColorChange
350
3A
  3
Conceptual
350
34
  3
Dim
350
35
  3
Facepattern
350
39
  3
Flat
350
2B
  3
FlatWithEdges
350
2C
  3
Gouraud
350
2D
  3
GouraudWithEdges
350
2E
  3
Linepattern
350
38
  3
Realistic
350
33
  3
Thicken
350
37
  0
LAYOUT
  5
1E
102
{ACAD_REACTORS
330
1A
102
}
330
1A
100
AcDbPlotSettings
  1

  2
none_device
  4

  6

 40
0.0
 41
0.0
 42
0.0
 43
0.0
 44
0.0
 45
0.0
 46
0.0
 47
0.0
 48
0.0
 49
0.0
140
0.0
141
0.0
142
1.0
143
1.0
 70
   688
 72
     0
 73
     0
 74
     5
  7

 75
    16
 76
     0
 77
     2
 78
   300
147
1.0
148
0.0
149
0.0
100
AcDbLayout
  1
Layout1
 70
     1
 71
     1
 10
0.0
 20
0.0
 11
12.0
 21
9.0
 12
0.0
 22
0.0
 32
0.0
 14
1.00000000000000E+20
 24
1.00000000000000E+20
 34
1.00000000000000E+20
 15
-1.00000000000000E+20
 25
-1.00000000000000E+20
 35
-1.00000000000000E+20
146
0.0
 13
0.0
 23
0.0
 33
0.0
 16
1.0
 26
0.0
 36
0.0
 17
0.0
 27
1.0
 37
0.0
 76
     0
330
1B
  0
LAYOUT
  5
26
102
{ACAD_REACTORS
330
1A
102
}
330
1A
100
AcDbPlotSettings
  1

  2
none_device
  4

  6

 40
0.0
 41
0.0
 42
0.0
 43
0.0
 44
0.0
 45
0.0
 46
0.0
 47
0.0
 48
0.0
 49
0.0
140
0.0
141
0.0
142
1.0
143
1.0
 70
   688
 72
     0
 73
     0
 74
     5
  7

 75
    16
 76
     0
 77
     2
 78
   300
147
1.0
148
0.0
149
0.0
100
AcDbLayout
  1
Layout2
 70
     1
 71
     2
 10
0.0
 20
0.0
 11
0.0
 21
0.0
 12
0.0
 22
0.0
 32
0.0
 14
0.0
 24
0.0
 34
0.0
 15
0.0
 25
0.0
 35
0.0
146
0.0
 13
0.0
 23
0.0
 33
0.0
 16
1.0
 26
0.0
 36
0.0
 17
0.0
 27
1.0
 37
0.0
 76
     0
330
23
  0
LAYOUT
  5
22
102
{ACAD_REACTORS
330
1A
102
}
330
1A
100
AcDbPlotSettings
  1

  2
none_device
  4

  6

 40
0.0
 41
0.0
 42
0.0
 43
0.0
 44
0.0
 45
0.0
 46
0.0
 47
0.0
 48
0.0
 49
0.0
140
0.0
141
0.0
142
1.0
143
1.0
 70
  1712
 72
     0
 73
     0
 74
     0
  7

 75
     0
 76
     0
 77
     2
 78
   300
147
1.0
148
0.0
149
0.0
100
AcDbLayout
  1
Model
 70
     1
 71
     0
 10
0.0
 20
0.0
 11
12.0
 21
9.0
 12
0.0
 22
0.0
 32
0.0
 14
-423.150008425834
 24
-255.8534542469851
 34
0.0
 15
-126.1500084258359
 25
-45.85345424698494
 35
0.0
146
0.0
 13
0.0
 23
0.0
 33
0.0
 16
1.0
 26
0.0
 36
0.0
 17
0.0
 27
1.0
 37
0.0
 76
     0
330
1F
331
29
  0
MATERIAL
  5
3D
102
{ACAD_REACTORS
330
3B
102
}
102
{ACAD_XDICTIONARY
360
285
102
}
330
3B
100
AcDbMaterial
  1
ByBlock
  0
MATERIAL
  5
3C
102
{ACAD_REACTORS
330
3B
102
}
102
{ACAD_XDICTIONARY
360
283
102
}
330
3B
100
AcDbMaterial
  1
ByLayer
  0
MATERIAL
  5
3E
102
{ACAD_REACTORS
330
3B
102
}
102
{ACAD_XDICTIONARY
360
287
102
}
330
3B
100
AcDbMaterial
  1
Global
  0
MLINESTYLE
  5
18
102
{ACAD_REACTORS
330
17
102
}
330
17
100
AcDbMlineStyle
  2
Standard
 70
     0
  3

 62
   256
 51
90.0
 52
90.0
 71
     2
 49
0.5
 62
   256
  6
BYLAYER
 49
-0.5
 62
   256
  6
BYLAYER
  0
ACDBPLACEHOLDER
  5
F
102
{ACAD_REACTORS
330
E
102
}
330
E
  0
VISUALSTYLE
  5
2F
102
{ACAD_REACTORS
330
2A
102
}
102
{ACAD_XDICTIONARY
360
26B
102
}
330
2A
100
AcDbVisualStyle
  2
2dWireframe
 70
     4
 71
     0
 72
     2
 73
     0
 90
        0
 40
-0.6
 41
-30.0
 62
     5
 63
     7
421
 16777215
 74
     1
 91
        4
 64
     7
 65
   257
 75
     1
175
     1
 42
1.0
 92
        0
 66
   257
 43
1.0
 76
     1
 77
     6
 78
     2
 67
     7
 79
     5
170
     0
171
     0
290
     0
174
     0
 93
        1
 44
0.0
173
     0
291
     0
 45
0.0
1001
ACAD
1000
AcDbSavedByObjectVersion
1070
     0
  0
VISUALSTYLE
  5
31
102
{ACAD_REACTORS
330
2A
102
}
102
{ACAD_XDICTIONARY
360
26F
102
}
330
2A
100
AcDbVisualStyle
  2
3D Hidden
 70
     6
 71
     1
 72
     2
 73
     2
 90
        0
 40
-0.6
 41
-30.0
 62
     5
 63
     7
421
 16777215
 74
     2
 91
        2
 64
     7
 65
   257
 75
     2
175
     1
 42
40.0
 92
        0
 66
   257
 43
1.0
 76
     1
 77
     6
 78
     2
 67
     7
 79
     3
170
     0
171
     0
290
     0
174
     0
 93
        1
 44
0.0
173
     0
291
     0
 45
0.0
1001
ACAD
1000
AcDbSavedByObjectVersion
1070
     0
  0
VISUALSTYLE
  5
30
102
{ACAD_REACTORS
330
2A
102
}
102
{ACAD_XDICTIONARY
360
26D
102
}
330
2A
100
AcDbVisualStyle
  2
3dWireframe
 70
     5
 71
     0
 72
     2
 73
     0
 90
        0
 40
-0.6
 41
-30.0
 62
     5
 63
     7
421
 16777215
 74
     1
 91
        4
 64
     7
 65
   257
 75
     1
175
     1
 42
1.0
 92
        0
 66
   257
 43
1.0
 76
     1
 77
     6
 78
     2
 67
     7
 79
     5
170
     0
171
     0
290
     0
174
     0
 93
        1
 44
0.0
173
     0
291
     0
 45
0.0
1001
ACAD
1000
AcDbSavedByObjectVersion
1070
     0
  0
VISUALSTYLE
  5
32
102
{ACAD_REACTORS
330
2A
102
}
102
{ACAD_XDICTIONARY
360
271
102
}
330
2A
100
AcDbVisualStyle
  2
Basic
 70
     7
 71
     1
 72
     0
 73
     1
 90
        0
 40
-0.6
 41
-30.0
 62
     5
 63
     7
421
 16777215
 74
     0
 91
        4
 64
     7
 65
   257
 75
     1
175
     1
 42
1.0
 92
        8
 66
     7
 43
1.0
 76
     1
 77
     6
 78
     2
 67
     7
 79
     5
170
     0
171
     0
290
     0
174
     0
 93
        1
 44
0.0
173
     0
291
     1
 45
0.0
1001
ACAD
1000
AcDbSavedByObjectVersion
1070
     0
  0
VISUALSTYLE
  5
36
102
{ACAD_REACTORS
330
2A
102
}
102
{ACAD_XDICTIONARY
360
279
102
}
330
2A
100
AcDbVisualStyle
  2
Brighten
 70
    12
 71
     2
 72
     2
 73
     0
 90
        0
 40
-0.6
 41
-30.0
 62
     5
 63
     7
421
 16777215
 74
     1
 91
        4
 64
     7
 65
   257
 75
     1
175
     1
 42
1.0
 92
        8
 66
     7
 43
1.0
 76
     1
 77
     6
 78
     2
 67
     7
 79
     5
170
     0
171
     0
290
     0
174
     0
 93
        1
 44
50.0
173
     0
291
     1
 45
0.0
1001
ACAD
1000
AcDbSavedByObjectVersion
1070
     0
  0
VISUALSTYLE
  5
3A
102
{ACAD_REACTORS
330
2A
102
}
102
{ACAD_XDICTIONARY
360
281
102
}
330
2A
100
AcDbVisualStyle
  2
ColorChange
 70
    16
 71
     2
 72
     2
 73
     3
 90
        0
 40
-0.6
 41
-30.0
 62
     5
 63
     8
421
  8421504
 74
     1
 91
        4
 64
     7
 65
   257
 75
     1
175
     1
 42
1.0
 92
        8
 66
     8
424
  8421504
 43
1.0
 76
     1
 77
     6
 78
     2
 67
     7
 79
     5
170
     0
171
     0
290
     0
174
     0
 93
        1
 44
0.0
173
     0
291
     1
 45
0.0
1001
ACAD
1000
AcDbSavedByObjectVersion
1070
     0
  0
VISUALSTYLE
  5
34
102
{ACAD_REACTORS
330
2A
102
}
102
{ACAD_XDICTIONARY
360
275
102
}
330
2A
100
AcDbVisualStyle
  2
Conceptual
 70
     9
 71
     3
 72
     2
 73
     0
 90
        0
 40
-0.6
 41
-30.0
 62
     5
 63
     7
421
 16777215
 74
     2
 91
        2
 64
     7
 65
   257
 75
     1
175
     1
 42
40.0
 92
        8
 66
     7
 43
1.0
 76
     1
 77
     6
 78
     2
 67
     7
 79
     3
170
     0
171
     0
290
     0
174
     0
 93
        1
 44
0.0
173
     0
291
     0
 45
0.0
1001
ACAD
1000
AcDbSavedByObjectVersion
1070
     0
  0
VISUALSTYLE
  5
35
102
{ACAD_REACTORS
330
2A
102
}
102
{ACAD_XDICTIONARY
360
277
102
}
330
2A
100
AcDbVisualStyle
  2
Dim
 70
    11
 71
     2
 72
     2
 73
     0
 90
        0
 40
-0.6
 41
-30.0
 62
     5
 63
     7
421
 16777215
 74
     1
 91
        4
 64
     7
 65
   257
 75
     1
175
     1
 42
1.0
 92
        8
 66
     7
 43
1.0
 76
     1
 77
     6
 78
     2
 67
     7
 79
     5
170
     0
171
     0
290
     0
174
     0
 93
        1
 44
-50.0
173
     0
291
     1
 45
0.0
1001
ACAD
1000
AcDbSavedByObjectVersion
1070
     0
  0
VISUALSTYLE
  5
39
102
{ACAD_REACTORS
330
2A
102
}
102
{ACAD_XDICTIONARY
360
27F
102
}
330
2A
100
AcDbVisualStyle
  2
Facepattern
 70
    15
 71
     2
 72
     2
 73
     0
 90
        0
 40
-0.6
 41
-30.0
 62
     5
 63
     7
421
 16777215
 74
     1
 91
        4
 64
     7
 65
   257
 75
     1
175
     1
 42
1.0
 92
        8
 66
     7
 43
1.0
 76
     1
 77
     6
 78
     2
 67
     7
 79
     5
170
     0
171
     0
290
     0
174
     0
 93
        1
 44
0.0
173
     0
291
     1
 45
0.0
1001
ACAD
1000
AcDbSavedByObjectVersion
1070
     0
  0
VISUALSTYLE
  5
2B
102
{ACAD_REACTORS
330
2A
102
}
102
{ACAD_XDICTIONARY
360
263
102
}
330
2A
100
AcDbVisualStyle
  2
Flat
 70
     0
 71
     2
 72
     1
 73
     1
 90
        2
 40
-0.6
 41
30.0
 62
     5
 63
     7
421
 16777215
 74
     0
 91
        4
 64
     7
 65
   257
 75
     1
175
     1
 42
1.0
 92
        8
 66
     7
 43
1.0
 76
     1
 77
     6
 78
     2
 67
     7
 79
     5
170
     0
171
     0
290
     0
174
     0
 93
       13
 44
0.0
173
     0
291
     1
 45
0.0
1001
ACAD
1000
AcDbSavedByObjectVersion
1070
     0
  0
VISUALSTYLE
  5
2C
102
{ACAD_REACTORS
330
2A
102
}
102
{ACAD_XDICTIONARY
360
265
102
}
330
2A
100
AcDbVisualStyle
  2
FlatWithEdges
 70
     1
 71
     2
 72
     1
 73
     1
 90
        2
 40
-0.6
 41
30.0
 62
     5
 63
     7
421
 16777215
 74
     1
 91
        4
 64
     7
 65
   257
 75
     1
175
     1
 42
1.0
 92
        0
 66
   257
 43
1.0
 76
     1
 77
     6
 78
     2
 67
     7
 79
     5
170
     0
171
     0
290
     0
174
     0
 93
       13
 44
0.0
173
     0
291
     1
 45
0.0
1001
ACAD
1000
AcDbSavedByObjectVersion
1070
     0
  0
VISUALSTYLE
  5
2D
102
{ACAD_REACTORS
330
2A
102
}
102
{ACAD_XDICTIONARY
360
267
102
}
330
2A
100
AcDbVisualStyle
  2
Gouraud
 70
     2
 71
     2
 72
     2
 73
     1
 90
        2
 40
-0.6
 41
30.0
 62
     5
 63
     7
421
 16777215
 74
     0
 91
        4
 64
     7
 65
   257
 75
     1
175
     1
 42
1.0
 92
        0
 66
     7
 43
1.0
 76
     1
 77
     6
 78
     2
 67
     7
 79
     5
170
     0
171
     0
290
     0
174
     0
 93
       13
 44
0.0
173
     0
291
     1
 45
0.0
1001
ACAD
1000
AcDbSavedByObjectVersion
1070
     0
  0
VISUALSTYLE
  5
2E
102
{ACAD_REACTORS
330
2A
102
}
102
{ACAD_XDICTIONARY
360
269
102
}
330
2A
100
AcDbVisualStyle
  2
GouraudWithEdges
 70
     3
 71
     2
 72
     2
 73
     1
 90
        2
 40
-0.6
 41
30.0
 62
     5
 63
     7
421
 16777215
 74
     1
 91
        4
 64
     7
 65
   257
 75
     1
175
     1
 42
1.0
 92
        0
 66
   257
 43
1.0
 76
     1
 77
     6
 78
     2
 67
     7
 79
     5
170
     0
171
     0
290
     0
174
     0
 93
       13
 44
0.0
173
     0
291
     1
 45
0.0
1001
ACAD
1000
AcDbSavedByObjectVersion
1070
     0
  0
VISUALSTYLE
  5
38
102
{ACAD_REACTORS
330
2A
102
}
102
{ACAD_XDICTIONARY
360
27D
102
}
330
2A
100
AcDbVisualStyle
  2
Linepattern
 70
    14
 71
     2
 72
     2
 73
     0
 90
        0
 40
-0.6
 41
-30.0
 62
     5
 63
     7
421
 16777215
 74
     1
 91
        4
 64
     7
 65
   257
 75
     7
175
     7
 42
1.0
 92
        8
 66
     7
 43
1.0
 76
     1
 77
     6
 78
     2
 67
     7
 79
     5
170
     0
171
     0
290
     0
174
     0
 93
        1
 44
0.0
173
     0
291
     1
 45
0.0
1001
ACAD
1000
AcDbSavedByObjectVersion
1070
     0
  0
VISUALSTYLE
  5
33
102
{ACAD_REACTORS
330
2A
102
}
102
{ACAD_XDICTIONARY
360
273
102
}
330
2A
100
AcDbVisualStyle
  2
Realistic
 70
     8
 71
     2
 72
     2
 73
     0
 90
        0
 40
-0.6
 41
-30.0
 62
     5
 63
     7
421
 16777215
 74
     1
 91
        0
 64
     7
 65
   257
 75
     1
175
     1
 42
1.0
 92
        8
 66
     8
424
  7895160
 43
1.0
 76
     1
 77
     6
 78
     2
 67
     7
 79
     5
170
     0
171
     0
290
     0
174
     0
 93
       13
 44
0.0
173
     0
291
     0
 45
0.0
1001
ACAD
1000
AcDbSavedByObjectVersion
1070
     0
  0
VISUALSTYLE
  5
37
102
{ACAD_REACTORS
330
2A
102
}
102
{ACAD_XDICTIONARY
360
27B
102
}
330
2A
100
AcDbVisualStyle
  2
Thicken
 70
    13
 71
     2
 72
     2
 73
     0
 90
        0
 40
-0.6
 41
-30.0
 62
     5
 63
     7
421
 16777215
 74
     1
 91
        4
 64
     7
 65
   257
 75
     1
175
     1
 42
1.0
 92
       12
 66
     7
 43
1.0
 76
     1
 77
     6
 78
     2
 67
     7
 79
     5
170
     0
171
     0
290
     0
174
     0
 93
        1
 44
0.0
173
     0
291
     1
 45
0.0
1001
ACAD
1000
AcDbSavedByObjectVersion
1070
     0
  0
DICTIONARY
  5
285
330
3D
100
AcDbDictionary
280
     1
281
     1
  3
ACAD_XREC_ROUNDTRIP
360
286
  0
DICTIONARY
  5
283
330
3C
100
AcDbDictionary
280
     1
281
     1
  3
ACAD_XREC_ROUNDTRIP
360
284
  0
DICTIONARY
  5
287
330
3E
100
AcDbDictionary
280
     1
281
     1
  3
ACAD_XREC_ROUNDTRIP
360
288
  0
DICTIONARY
  5
26B
330
2F
100
AcDbDictionary
280
     1
281
     1
  3
ACAD_XREC_ROUNDTRIP
360
26C
  0
DICTIONARY
  5
26F
330
31
100
AcDbDictionary
280
     1
281
     1
  3
ACAD_XREC_ROUNDTRIP
360
270
  0
DICTIONARY
  5
26D
330
30
100
AcDbDictionary
280
     1
281
     1
  3
ACAD_XREC_ROUNDTRIP
360
26E
  0
DICTIONARY
  5
271
330
32
100
AcDbDictionary
280
     1
281
     1
  3
ACAD_XREC_ROUNDTRIP
360
272
  0
DICTIONARY
  5
279
330
36
100
AcDbDictionary
280
     1
281
     1
  3
ACAD_XREC_ROUNDTRIP
360
27A
  0
DICTIONARY
  5
281
330
3A
100
AcDbDictionary
280
     1
281
     1
  3
ACAD_XREC_ROUNDTRIP
360
282
  0
DICTIONARY
  5
275
330
34
100
AcDbDictionary
280
     1
281
     1
  3
ACAD_XREC_ROUNDTRIP
360
276
  0
DICTIONARY
  5
277
330
35
100
AcDbDictionary
280
     1
281
     1
  3
ACAD_XREC_ROUNDTRIP
360
278
  0
DICTIONARY
  5
27F
330
39
100
AcDbDictionary
280
     1
281
     1
  3
ACAD_XREC_ROUNDTRIP
360
280
  0
DICTIONARY
  5
263
330
2B
100
AcDbDictionary
280
     1
281
     1
  3
ACAD_XREC_ROUNDTRIP
360
264
  0
DICTIONARY
  5
265
330
2C
100
AcDbDictionary
280
     1
281
     1
  3
ACAD_XREC_ROUNDTRIP
360
266
  0
DICTIONARY
  5
267
330
2D
100
AcDbDictionary
280
     1
281
     1
  3
ACAD_XREC_ROUNDTRIP
360
268
  0
DICTIONARY
  5
269
330
2E
100
AcDbDictionary
280
     1
281
     1
  3
ACAD_XREC_ROUNDTRIP
360
26A
  0
DICTIONARY
  5
27D
330
38
100
AcDbDictionary
280
     1
281
     1
  3
ACAD_XREC_ROUNDTRIP
360
27E
  0
DICTIONARY
  5
273
330
33
100
AcDbDictionary
280
     1
281
     1
  3
ACAD_XREC_ROUNDTRIP
360
274
  0
DICTIONARY
  5
27B
330
37
100
AcDbDictionary
280
     1
281
     1
  3
ACAD_XREC_ROUNDTRIP
360
27C
  0
XRECORD
  5
286
102
{ACAD_REACTORS
330
285
102
}
330
285
100
AcDbXrecord
280
     1
102
MATERIAL
148
0.0
149
0.0
149
0.0
 93
        0
 94
      127
282
     0
 72
     1
 77
     1
171
     1
175
     1
179
     1
273
     0
  0
XRECORD
  5
284
102
{ACAD_REACTORS
330
283
102
}
330
283
100
AcDbXrecord
280
     1
102
MATERIAL
148
0.0
149
0.0
149
0.0
 93
        0
 94
      127
282
     0
 72
     1
 77
     1
171
     1
175
     1
179
     1
273
     0
  0
XRECORD
  5
288
102
{ACAD_REACTORS
330
287
102
}
330
287
100
AcDbXrecord
280
     1
102
MATERIAL
148
0.0
149
0.0
149
0.0
 93
        0
 94
      127
282
     0
 72
     1
 77
     1
171
     1
175
     1
179
     1
273
     0
  0
XRECORD
  5
26C
102
{ACAD_REACTORS
330
26B
102
}
330
26B
100
AcDbXrecord
280
     1
102
RTVSPropertyOp0
 70
     1
102
RTVSPropertyOp1
 70
     1
102
RTVSPropertyOp2
 70
     1
102
RTVSPropertyOp3
 70
     1
102
RTVSPropertyOp4
 70
     1
102
RTVSPropertyOp5
 70
     1
102
RTVSPropertyOp6
 70
     1
102
RTVSPropertyOp7
 70
     1
102
RTVSPropertyOp8
 70
     1
102
RTVSPropertyOp9
 70
     1
102
RTVSPropertyOp10
 70
     1
102
RTVSPropertyOp11
 70
     1
102
RTVSPropertyOp12
 70
     1
102
RTVSPropertyOp13
 70
     1
102
RTVSPropertyOp14
 70
     1
102
RTVSPropertyOp15
 70
     1
102
RTVSPropertyOp16
 70
     1
102
RTVSPropertyOp17
 70
     1
102
RTVSPropertyOp18
 70
     1
102
RTVSPropertyOp19
 70
     1
102
RTVSPropertyOp20
 70
     1
102
RTVSPropertyOp21
 70
     1
102
RTVSPropertyOp22
 70
     1
102
RTVSPropertyOp23
 70
     1
102
RTVSPropertyOp24
 70
     1
102
RTVSPropertyOp25
 70
     1
102
RTVSPropertyOp26
 70
     1
102
RTVSPropertyOp27
 70
     1
102
RTVSPropertyOp28
 70
     1
102
RTVSPropertyOp29
 70
     1
102
RTVSPropertyOp30
 70
     1
102
RTVSPropertyOp31
 70
     1
102
RTVSPropertyOp32
 70
     1
  0
XRECORD
  5
270
102
{ACAD_REACTORS
330
26F
102
}
330
26F
100
AcDbXrecord
280
     1
102
RTVSPropertyOp0
 70
     1
102
RTVSPropertyOp1
 70
     1
102
RTVSPropertyOp2
 70
     1
102
RTVSPropertyOp3
 70
     1
102
RTVSPropertyOp4
 70
     1
102
RTVSPropertyOp5
 70
     1
102
RTVSPropertyOp6
 70
     1
102
RTVSPropertyOp7
 70
     1
102
RTVSPropertyOp8
 70
     1
102
RTVSPropertyOp9
 70
     1
102
RTVSPropertyOp10
 70
     1
102
RTVSPropertyOp11
 70
     1
102
RTVSPropertyOp12
 70
     1
102
RTVSPropertyOp13
 70
     1
102
RTVSPropertyOp14
 70
     1
102
RTVSPropertyOp15
 70
     1
102
RTVSPropertyOp16
 70
     1
102
RTVSPropertyOp17
 70
     1
102
RTVSPropertyOp18
 70
     1
102
RTVSPropertyOp19
 70
     1
102
RTVSPropertyOp20
 70
     1
102
RTVSPropertyOp21
 70
     1
102
RTVSPropertyOp22
 70
     1
102
RTVSPropertyOp23
 70
     1
102
RTVSPropertyOp24
 70
     1
102
RTVSPropertyOp25
 70
     1
102
RTVSPropertyOp26
 70
     1
102
RTVSPropertyOp27
 70
     1
102
RTVSPropertyOp28
 70
     1
102
RTVSPropertyOp29
 70
     1
102
RTVSPropertyOp30
 70
     1
102
RTVSPropertyOp31
 70
     1
102
RTVSPropertyOp32
 70
     1
  0
XRECORD
  5
26E
102
{ACAD_REACTORS
330
26D
102
}
330
26D
100
AcDbXrecord
280
     1
102
RTVSPropertyOp0
 70
     1
102
RTVSPropertyOp1
 70
     1
102
RTVSPropertyOp2
 70
     1
102
RTVSPropertyOp3
 70
     1
102
RTVSPropertyOp4
 70
     1
102
RTVSPropertyOp5
 70
     1
102
RTVSPropertyOp6
 70
     1
102
RTVSPropertyOp7
 70
     1
102
RTVSPropertyOp8
 70
     1
102
RTVSPropertyOp9
 70
     1
102
RTVSPropertyOp10
 70
     1
102
RTVSPropertyOp11
 70
     1
102
RTVSPropertyOp12
 70
     1
102
RTVSPropertyOp13
 70
     1
102
RTVSPropertyOp14
 70
     1
102
RTVSPropertyOp15
 70
     1
102
RTVSPropertyOp16
 70
     1
102
RTVSPropertyOp17
 70
     1
102
RTVSPropertyOp18
 70
     1
102
RTVSPropertyOp19
 70
     1
102
RTVSPropertyOp20
 70
     1
102
RTVSPropertyOp21
 70
     1
102
RTVSPropertyOp22
 70
     1
102
RTVSPropertyOp23
 70
     1
102
RTVSPropertyOp24
 70
     1
102
RTVSPropertyOp25
 70
     1
102
RTVSPropertyOp26
 70
     1
102
RTVSPropertyOp27
 70
     1
102
RTVSPropertyOp28
 70
     1
102
RTVSPropertyOp29
 70
     1
102
RTVSPropertyOp30
 70
     1
102
RTVSPropertyOp31
 70
     1
102
RTVSPropertyOp32
 70
     1
  0
XRECORD
  5
272
102
{ACAD_REACTORS
330
271
102
}
330
271
100
AcDbXrecord
280
     1
102
RTVSPropertyOp0
 70
     1
102
RTVSPropertyOp1
 70
     1
102
RTVSPropertyOp2
 70
     1
102
RTVSPropertyOp3
 70
     1
102
RTVSPropertyOp4
 70
     1
102
RTVSPropertyOp5
 70
     1
102
RTVSPropertyOp6
 70
     1
102
RTVSPropertyOp7
 70
     1
102
RTVSPropertyOp8
 70
     1
102
RTVSPropertyOp9
 70
     1
102
RTVSPropertyOp10
 70
     1
102
RTVSPropertyOp11
 70
     1
102
RTVSPropertyOp12
 70
     1
102
RTVSPropertyOp13
 70
     1
102
RTVSPropertyOp14
 70
     1
102
RTVSPropertyOp15
 70
     1
102
RTVSPropertyOp16
 70
     1
102
RTVSPropertyOp17
 70
     1
102
RTVSPropertyOp18
 70
     1
102
RTVSPropertyOp19
 70
     1
102
RTVSPropertyOp20
 70
     1
102
RTVSPropertyOp21
 70
     1
102
RTVSPropertyOp22
 70
     1
102
RTVSPropertyOp23
 70
     1
102
RTVSPropertyOp24
 70
     1
102
RTVSPropertyOp25
 70
     1
102
RTVSPropertyOp26
 70
     1
102
RTVSPropertyOp27
 70
     1
102
RTVSPropertyOp28
 70
     1
102
RTVSPropertyOp29
 70
     1
102
RTVSPropertyOp30
 70
     1
102
RTVSPropertyOp31
 70
     1
102
RTVSPropertyOp32
 70
     1
  0
XRECORD
  5
27A
102
{ACAD_REACTORS
330
279
102
}
330
279
100
AcDbXrecord
280
     1
102
RTVSPropertyOp0
 70
     1
102
RTVSPropertyOp1
 70
     1
102
RTVSPropertyOp2
 70
     1
102
RTVSPropertyOp3
 70
     1
102
RTVSPropertyOp4
 70
     1
102
RTVSPropertyOp5
 70
     1
102
RTVSPropertyOp6
 70
     1
102
RTVSPropertyOp7
 70
     1
102
RTVSPropertyOp8
 70
     1
102
RTVSPropertyOp9
 70
     1
102
RTVSPropertyOp10
 70
     1
102
RTVSPropertyOp11
 70
     1
102
RTVSPropertyOp12
 70
     1
102
RTVSPropertyOp13
 70
     1
102
RTVSPropertyOp14
 70
     1
102
RTVSPropertyOp15
 70
     1
102
RTVSPropertyOp16
 70
     1
102
RTVSPropertyOp17
 70
     1
102
RTVSPropertyOp18
 70
     1
102
RTVSPropertyOp19
 70
     1
102
RTVSPropertyOp20
 70
     1
102
RTVSPropertyOp21
 70
     1
102
RTVSPropertyOp22
 70
     1
102
RTVSPropertyOp23
 70
     1
102
RTVSPropertyOp24
 70
     1
102
RTVSPropertyOp25
 70
     1
102
RTVSPropertyOp26
 70
     1
102
RTVSPropertyOp27
 70
     1
102
RTVSPropertyOp28
 70
     1
102
RTVSPropertyOp29
 70
     1
102
RTVSPropertyOp30
 70
     1
102
RTVSPropertyOp31
 70
     1
102
RTVSPropertyOp32
 70
     1
  0
XRECORD
  5
282
102
{ACAD_REACTORS
330
281
102
}
330
281
100
AcDbXrecord
280
     1
102
RTVSPropertyOp0
 70
     1
102
RTVSPropertyOp1
 70
     1
102
RTVSPropertyOp2
 70
     1
102
RTVSPropertyOp3
 70
     1
102
RTVSPropertyOp4
 70
     1
102
RTVSPropertyOp5
 70
     1
102
RTVSPropertyOp6
 70
     1
102
RTVSPropertyOp7
 70
     1
102
RTVSPropertyOp8
 70
     1
102
RTVSPropertyOp9
 70
     1
102
RTVSPropertyOp10
 70
     1
102
RTVSPropertyOp11
 70
     1
102
RTVSPropertyOp12
 70
     1
102
RTVSPropertyOp13
 70
     1
102
RTVSPropertyOp14
 70
     1
102
RTVSPropertyOp15
 70
     1
102
RTVSPropertyOp16
 70
     1
102
RTVSPropertyOp17
 70
     1
102
RTVSPropertyOp18
 70
     1
102
RTVSPropertyOp19
 70
     1
102
RTVSPropertyOp20
 70
     1
102
RTVSPropertyOp21
 70
     1
102
RTVSPropertyOp22
 70
     1
102
RTVSPropertyOp23
 70
     1
102
RTVSPropertyOp24
 70
     1
102
RTVSPropertyOp25
 70
     1
102
RTVSPropertyOp26
 70
     1
102
RTVSPropertyOp27
 70
     1
102
RTVSPropertyOp28
 70
     1
102
RTVSPropertyOp29
 70
     1
102
RTVSPropertyOp30
 70
     1
102
RTVSPropertyOp31
 70
     1
102
RTVSPropertyOp32
 70
     1
  0
XRECORD
  5
276
102
{ACAD_REACTORS
330
275
102
}
330
275
100
AcDbXrecord
280
     1
102
RTVSPropertyOp0
 70
     1
102
RTVSPropertyOp1
 70
     1
102
RTVSPropertyOp2
 70
     1
102
RTVSPropertyOp3
 70
     1
102
RTVSPropertyOp4
 70
     1
102
RTVSPropertyOp5
 70
     1
102
RTVSPropertyOp6
 70
     1
102
RTVSPropertyOp7
 70
     1
102
RTVSPropertyOp8
 70
     1
102
RTVSPropertyOp9
 70
     1
102
RTVSPropertyOp10
 70
     1
102
RTVSPropertyOp11
 70
     1
102
RTVSPropertyOp12
 70
     1
102
RTVSPropertyOp13
 70
     1
102
RTVSPropertyOp14
 70
     1
102
RTVSPropertyOp15
 70
     1
102
RTVSPropertyOp16
 70
     1
102
RTVSPropertyOp17
 70
     1
102
RTVSPropertyOp18
 70
     1
102
RTVSPropertyOp19
 70
     1
102
RTVSPropertyOp20
 70
     1
102
RTVSPropertyOp21
 70
     1
102
RTVSPropertyOp22
 70
     1
102
RTVSPropertyOp23
 70
     1
102
RTVSPropertyOp24
 70
     1
102
RTVSPropertyOp25
 70
     1
102
RTVSPropertyOp26
 70
     1
102
RTVSPropertyOp27
 70
     1
102
RTVSPropertyOp28
 70
     1
102
RTVSPropertyOp29
 70
     1
102
RTVSPropertyOp30
 70
     1
102
RTVSPropertyOp31
 70
     1
102
RTVSPropertyOp32
 70
     1
  0
XRECORD
  5
278
102
{ACAD_REACTORS
330
277
102
}
330
277
100
AcDbXrecord
280
     1
102
RTVSPropertyOp0
 70
     1
102
RTVSPropertyOp1
 70
     1
102
RTVSPropertyOp2
 70
     1
102
RTVSPropertyOp3
 70
     1
102
RTVSPropertyOp4
 70
     1
102
RTVSPropertyOp5
 70
     1
102
RTVSPropertyOp6
 70
     1
102
RTVSPropertyOp7
 70
     1
102
RTVSPropertyOp8
 70
     1
102
RTVSPropertyOp9
 70
     1
102
RTVSPropertyOp10
 70
     1
102
RTVSPropertyOp11
 70
     1
102
RTVSPropertyOp12
 70
     1
102
RTVSPropertyOp13
 70
     1
102
RTVSPropertyOp14
 70
     1
102
RTVSPropertyOp15
 70
     1
102
RTVSPropertyOp16
 70
     1
102
RTVSPropertyOp17
 70
     1
102
RTVSPropertyOp18
 70
     1
102
RTVSPropertyOp19
 70
     1
102
RTVSPropertyOp20
 70
     1
102
RTVSPropertyOp21
 70
     1
102
RTVSPropertyOp22
 70
     1
102
RTVSPropertyOp23
 70
     1
102
RTVSPropertyOp24
 70
     1
102
RTVSPropertyOp25
 70
     1
102
RTVSPropertyOp26
 70
     1
102
RTVSPropertyOp27
 70
     1
102
RTVSPropertyOp28
 70
     1
102
RTVSPropertyOp29
 70
     1
102
RTVSPropertyOp30
 70
     1
102
RTVSPropertyOp31
 70
     1
102
RTVSPropertyOp32
 70
     1
  0
XRECORD
  5
280
102
{ACAD_REACTORS
330
27F
102
}
330
27F
100
AcDbXrecord
280
     1
102
RTVSPropertyOp0
 70
     1
102
RTVSPropertyOp1
 70
     1
102
RTVSPropertyOp2
 70
     1
102
RTVSPropertyOp3
 70
     1
102
RTVSPropertyOp4
 70
     1
102
RTVSPropertyOp5
 70
     1
102
RTVSPropertyOp6
 70
     1
102
RTVSPropertyOp7
 70
     1
102
RTVSPropertyOp8
 70
     1
102
RTVSPropertyOp9
 70
     1
102
RTVSPropertyOp10
 70
     1
102
RTVSPropertyOp11
 70
     1
102
RTVSPropertyOp12
 70
     1
102
RTVSPropertyOp13
 70
     1
102
RTVSPropertyOp14
 70
     1
102
RTVSPropertyOp15
 70
     1
102
RTVSPropertyOp16
 70
     1
102
RTVSPropertyOp17
 70
     1
102
RTVSPropertyOp18
 70
     1
102
RTVSPropertyOp19
 70
     1
102
RTVSPropertyOp20
 70
     1
102
RTVSPropertyOp21
 70
     1
102
RTVSPropertyOp22
 70
     1
102
RTVSPropertyOp23
 70
     1
102
RTVSPropertyOp24
 70
     1
102
RTVSPropertyOp25
 70
     1
102
RTVSPropertyOp26
 70
     1
102
RTVSPropertyOp27
 70
     1
102
RTVSPropertyOp28
 70
     1
102
RTVSPropertyOp29
 70
     1
102
RTVSPropertyOp30
 70
     1
102
RTVSPropertyOp31
 70
     1
102
RTVSPropertyOp32
 70
     1
  0
XRECORD
  5
264
102
{ACAD_REACTORS
330
263
102
}
330
263
100
AcDbXrecord
280
     1
102
RTVSPropertyOp0
 70
     1
102
RTVSPropertyOp1
 70
     1
102
RTVSPropertyOp2
 70
     1
102
RTVSPropertyOp3
 70
     1
102
RTVSPropertyOp4
 70
     1
102
RTVSPropertyOp5
 70
     1
102
RTVSPropertyOp6
 70
     1
102
RTVSPropertyOp7
 70
     1
102
RTVSPropertyOp8
 70
     1
102
RTVSPropertyOp9
 70
     1
102
RTVSPropertyOp10
 70
     1
102
RTVSPropertyOp11
 70
     1
102
RTVSPropertyOp12
 70
     1
102
RTVSPropertyOp13
 70
     1
102
RTVSPropertyOp14
 70
     1
102
RTVSPropertyOp15
 70
     1
102
RTVSPropertyOp16
 70
     1
102
RTVSPropertyOp17
 70
     1
102
RTVSPropertyOp18
 70
     1
102
RTVSPropertyOp19
 70
     1
102
RTVSPropertyOp20
 70
     1
102
RTVSPropertyOp21
 70
     1
102
RTVSPropertyOp22
 70
     1
102
RTVSPropertyOp23
 70
     1
102
RTVSPropertyOp24
 70
     1
102
RTVSPropertyOp25
 70
     1
102
RTVSPropertyOp26
 70
     1
102
RTVSPropertyOp27
 70
     1
102
RTVSPropertyOp28
 70
     1
102
RTVSPropertyOp29
 70
     1
102
RTVSPropertyOp30
 70
     1
102
RTVSPropertyOp31
 70
     1
102
RTVSPropertyOp32
 70
     1
  0
XRECORD
  5
266
102
{ACAD_REACTORS
330
265
102
}
330
265
100
AcDbXrecord
280
     1
102
RTVSPropertyOp0
 70
     1
102
RTVSPropertyOp1
 70
     1
102
RTVSPropertyOp2
 70
     1
102
RTVSPropertyOp3
 70
     1
102
RTVSPropertyOp4
 70
     1
102
RTVSPropertyOp5
 70
     1
102
RTVSPropertyOp6
 70
     1
102
RTVSPropertyOp7
 70
     1
102
RTVSPropertyOp8
 70
     1
102
RTVSPropertyOp9
 70
     1
102
RTVSPropertyOp10
 70
     1
102
RTVSPropertyOp11
 70
     1
102
RTVSPropertyOp12
 70
     1
102
RTVSPropertyOp13
 70
     1
102
RTVSPropertyOp14
 70
     1
102
RTVSPropertyOp15
 70
     1
102
RTVSPropertyOp16
 70
     1
102
RTVSPropertyOp17
 70
     1
102
RTVSPropertyOp18
 70
     1
102
RTVSPropertyOp19
 70
     1
102
RTVSPropertyOp20
 70
     1
102
RTVSPropertyOp21
 70
     1
102
RTVSPropertyOp22
 70
     1
102
RTVSPropertyOp23
 70
     1
102
RTVSPropertyOp24
 70
     1
102
RTVSPropertyOp25
 70
     1
102
RTVSPropertyOp26
 70
     1
102
RTVSPropertyOp27
 70
     1
102
RTVSPropertyOp28
 70
     1
102
RTVSPropertyOp29
 70
     1
102
RTVSPropertyOp30
 70
     1
102
RTVSPropertyOp31
 70
     1
102
RTVSPropertyOp32
 70
     1
  0
XRECORD
  5
268
102
{ACAD_REACTORS
330
267
102
}
330
267
100
AcDbXrecord
280
     1
102
RTVSPropertyOp0
 70
     1
102
RTVSPropertyOp1
 70
     1
102
RTVSPropertyOp2
 70
     1
102
RTVSPropertyOp3
 70
     1
102
RTVSPropertyOp4
 70
     1
102
RTVSPropertyOp5
 70
     1
102
RTVSPropertyOp6
 70
     1
102
RTVSPropertyOp7
 70
     1
102
RTVSPropertyOp8
 70
     1
102
RTVSPropertyOp9
 70
     1
102
RTVSPropertyOp10
 70
     1
102
RTVSPropertyOp11
 70
     1
102
RTVSPropertyOp12
 70
     1
102
RTVSPropertyOp13
 70
     1
102
RTVSPropertyOp14
 70
     1
102
RTVSPropertyOp15
 70
     1
102
RTVSPropertyOp16
 70
     1
102
RTVSPropertyOp17
 70
     1
102
RTVSPropertyOp18
 70
     1
102
RTVSPropertyOp19
 70
     1
102
RTVSPropertyOp20
 70
     1
102
RTVSPropertyOp21
 70
     1
102
RTVSPropertyOp22
 70
     1
102
RTVSPropertyOp23
 70
     1
102
RTVSPropertyOp24
 70
     1
102
RTVSPropertyOp25
 70
     1
102
RTVSPropertyOp26
 70
     1
102
RTVSPropertyOp27
 70
     1
102
RTVSPropertyOp28
 70
     1
102
RTVSPropertyOp29
 70
     1
102
RTVSPropertyOp30
 70
     1
102
RTVSPropertyOp31
 70
     1
102
RTVSPropertyOp32
 70
     1
  0
XRECORD
  5
26A
102
{ACAD_REACTORS
330
269
102
}
330
269
100
AcDbXrecord
280
     1
102
RTVSPropertyOp0
 70
     1
102
RTVSPropertyOp1
 70
     1
102
RTVSPropertyOp2
 70
     1
102
RTVSPropertyOp3
 70
     1
102
RTVSPropertyOp4
 70
     1
102
RTVSPropertyOp5
 70
     1
102
RTVSPropertyOp6
 70
     1
102
RTVSPropertyOp7
 70
     1
102
RTVSPropertyOp8
 70
     1
102
RTVSPropertyOp9
 70
     1
102
RTVSPropertyOp10
 70
     1
102
RTVSPropertyOp11
 70
     1
102
RTVSPropertyOp12
 70
     1
102
RTVSPropertyOp13
 70
     1
102
RTVSPropertyOp14
 70
     1
102
RTVSPropertyOp15
 70
     1
102
RTVSPropertyOp16
 70
     1
102
RTVSPropertyOp17
 70
     1
102
RTVSPropertyOp18
 70
     1
102
RTVSPropertyOp19
 70
     1
102
RTVSPropertyOp20
 70
     1
102
RTVSPropertyOp21
 70
     1
102
RTVSPropertyOp22
 70
     1
102
RTVSPropertyOp23
 70
     1
102
RTVSPropertyOp24
 70
     1
102
RTVSPropertyOp25
 70
     1
102
RTVSPropertyOp26
 70
     1
102
RTVSPropertyOp27
 70
     1
102
RTVSPropertyOp28
 70
     1
102
RTVSPropertyOp29
 70
     1
102
RTVSPropertyOp30
 70
     1
102
RTVSPropertyOp31
 70
     1
102
RTVSPropertyOp32
 70
     1
  0
XRECORD
  5
27E
102
{ACAD_REACTORS
330
27D
102
}
330
27D
100
AcDbXrecord
280
     1
102
RTVSPropertyOp0
 70
     1
102
RTVSPropertyOp1
 70
     1
102
RTVSPropertyOp2
 70
     1
102
RTVSPropertyOp3
 70
     1
102
RTVSPropertyOp4
 70
     1
102
RTVSPropertyOp5
 70
     1
102
RTVSPropertyOp6
 70
     1
102
RTVSPropertyOp7
 70
     1
102
RTVSPropertyOp8
 70
     1
102
RTVSPropertyOp9
 70
     1
102
RTVSPropertyOp10
 70
     1
102
RTVSPropertyOp11
 70
     1
102
RTVSPropertyOp12
 70
     1
102
RTVSPropertyOp13
 70
     1
102
RTVSPropertyOp14
 70
     1
102
RTVSPropertyOp15
 70
     1
102
RTVSPropertyOp16
 70
     1
102
RTVSPropertyOp17
 70
     1
102
RTVSPropertyOp18
 70
     1
102
RTVSPropertyOp19
 70
     1
102
RTVSPropertyOp20
 70
     1
102
RTVSPropertyOp21
 70
     1
102
RTVSPropertyOp22
 70
     1
102
RTVSPropertyOp23
 70
     1
102
RTVSPropertyOp24
 70
     1
102
RTVSPropertyOp25
 70
     1
102
RTVSPropertyOp26
 70
     1
102
RTVSPropertyOp27
 70
     1
102
RTVSPropertyOp28
 70
     1
102
RTVSPropertyOp29
 70
     1
102
RTVSPropertyOp30
 70
     1
102
RTVSPropertyOp31
 70
     1
102
RTVSPropertyOp32
 70
     1
  0
XRECORD
  5
274
102
{ACAD_REACTORS
330
273
102
}
330
273
100
AcDbXrecord
280
     1
102
RTVSPropertyOp0
 70
     1
102
RTVSPropertyOp1
 70
     1
102
RTVSPropertyOp2
 70
     1
102
RTVSPropertyOp3
 70
     1
102
RTVSPropertyOp4
 70
     1
102
RTVSPropertyOp5
 70
     1
102
RTVSPropertyOp6
 70
     1
102
RTVSPropertyOp7
 70
     1
102
RTVSPropertyOp8
 70
     1
102
RTVSPropertyOp9
 70
     1
102
RTVSPropertyOp10
 70
     1
102
RTVSPropertyOp11
 70
     1
102
RTVSPropertyOp12
 70
     1
102
RTVSPropertyOp13
 70
     1
102
RTVSPropertyOp14
 70
     1
102
RTVSPropertyOp15
 70
     1
102
RTVSPropertyOp16
 70
     1
102
RTVSPropertyOp17
 70
     1
102
RTVSPropertyOp18
 70
     1
102
RTVSPropertyOp19
 70
     1
102
RTVSPropertyOp20
 70
     1
102
RTVSPropertyOp21
 70
     1
102
RTVSPropertyOp22
 70
     1
102
RTVSPropertyOp23
 70
     1
102
RTVSPropertyOp24
 70
     1
102
RTVSPropertyOp25
 70
     1
102
RTVSPropertyOp26
 70
     1
102
RTVSPropertyOp27
 70
     1
102
RTVSPropertyOp28
 70
     1
102
RTVSPropertyOp29
 70
     1
102
RTVSPropertyOp30
 70
     1
102
RTVSPropertyOp31
 70
     1
102
RTVSPropertyOp32
 70
     1
  0
XRECORD
  5
27C
102
{ACAD_REACTORS
330
27B
102
}
330
27B
100
AcDbXrecord
280
     1
102
RTVSPropertyOp0
 70
     1
102
RTVSPropertyOp1
 70
     1
102
RTVSPropertyOp2
 70
     1
102
RTVSPropertyOp3
 70
     1
102
RTVSPropertyOp4
 70
     1
102
RTVSPropertyOp5
 70
     1
102
RTVSPropertyOp6
 70
     1
102
RTVSPropertyOp7
 70
     1
102
RTVSPropertyOp8
 70
     1
102
RTVSPropertyOp9
 70
     1
102
RTVSPropertyOp10
 70
     1
102
RTVSPropertyOp11
 70
     1
102
RTVSPropertyOp12
 70
     1
102
RTVSPropertyOp13
 70
     1
102
RTVSPropertyOp14
 70
     1
102
RTVSPropertyOp15
 70
     1
102
RTVSPropertyOp16
 70
     1
102
RTVSPropertyOp17
 70
     1
102
RTVSPropertyOp18
 70
     1
102
RTVSPropertyOp19
 70
     1
102
RTVSPropertyOp20
 70
     1
102
RTVSPropertyOp21
 70
     1
102
RTVSPropertyOp22
 70
     1
102
RTVSPropertyOp23
 70
     1
102
RTVSPropertyOp24
 70
     1
102
RTVSPropertyOp25
 70
     1
102
RTVSPropertyOp26
 70
     1
102
RTVSPropertyOp27
 70
     1
102
RTVSPropertyOp28
 70
     1
102
RTVSPropertyOp29
 70
     1
102
RTVSPropertyOp30
 70
     1
102
RTVSPropertyOp31
 70
     1
102
RTVSPropertyOp32
 70
     1
  0
ENDSEC
  0
EOF
