  0
SECTION
  2
HEADER
  9
$ACADVER
  1
AC1018
  9
$ACADMAINTVER
 70
     0
  9
$DWGCODEPAGE
  3
ANSI_1252
  9
$INSBASE
 10
0.0
 20
0.0
 30
0.0
  9
$EXTMIN
 10
-210.2065054078738
 20
-6.35377489989344
 30
0.0
  9
$EXTMAX
 10
86.79349459212423
 20
203.6462251001067
 30
0.0
  9
$LIMMIN
 10
0.0
 20
0.0
  9
$LIMMAX
 10
12.0
 20
9.0
  9
$ORTHOMODE
 70
     0
  9
$REGENMODE
 70
     1
  9
$FILLMODE
 70
     1
  9
$QTEXTMODE
 70
     0
  9
$MIRRTEXT
 70
     1
  9
$LTSCALE
 40
1.0
  9
$ATTMODE
 70
     1
  9
$TEXTSIZE
 40
0.2
  9
$TRACEWID
 40
0.05
  9
$TEXTSTYLE
  7
Standard
  9
$CLAYER
  8
0
  9
$CELTYPE
  6
ByLayer
  9
$CECOLOR
 62
   256
  9
$CELTSCALE
 40
1.0
  9
$DISPSILH
 70
     0
  9
$DIMSCALE
 40
1.0
  9
$DIMASZ
 40
0.18
  9
$DIMEXO
 40
0.0625
  9
$DIMDLI
 40
0.38
  9
$DIMRND
 40
0.0
  9
$DIMDLE
 40
0.0
  9
$DIMEXE
 40
0.18
  9
$DIMTP
 40
0.0
  9
$DIMTM
 40
0.0
  9
$DIMTXT
 40
0.18
  9
$DIMCEN
 40
0.09
  9
$DIMTSZ
 40
0.0
  9
$DIMTOL
 70
     0
  9
$DIMLIM
 70
     0
  9
$DIMTIH
 70
     1
  9
$DIMTOH
 70
     1
  9
$DIMSE1
 70
     0
  9
$DIMSE2
 70
     0
  9
$DIMTAD
 70
     0
  9
$DIMZIN
 70
     0
  9
$DIMBLK
  1

  9
$DIMASO
 70
     1
  9
$DIMSHO
 70
     1
  9
$DIMPOST
  1

  9
$DIMAPOST
  1

  9
$DIMALT
 70
     0
  9
$DIMALTD
 70
     2
  9
$DIMALTF
 40
25.4
  9
$DIMLFAC
 40
1.0
  9
$DIMTOFL
 70
     0
  9
$DIMTVP
 40
0.0
  9
$DIMTIX
 70
     0
  9
$DIMSOXD
 70
     0
  9
$DIMSAH
 70
     0
  9
$DIMBLK1
  1

  9
$DIMBLK2
  1

  9
$DIMSTYLE
  2
Standard
  9
$DIMCLRD
 70
     0
  9
$DIMCLRE
 70
     0
  9
$DIMCLRT
 70
     0
  9
$DIMTFAC
 40
1.0
  9
$DIMGAP
 40
0.09
  9
$DIMJUST
 70
     0
  9
$DIMSD1
 70
     0
  9
$DIMSD2
 70
     0
  9
$DIMTOLJ
 70
     1
  9
$DIMTZIN
 70
     0
  9
$DIMALTZ
 70
     0
  9
$DIMALTTZ
 70
     0
  9
$DIMUPT
 70
     0
  9
$DIMDEC
 70
     4
  9
$DIMTDEC
 70
     4
  9
$DIMALTU
 70
     2
  9
$DIMALTTD
 70
     2
  9
$DIMTXSTY
  7
Standard
  9
$DIMAUNIT
 70
     0
  9
$DIMADEC
 70
     0
  9
$DIMALTRND
 40
0.0
  9
$DIMAZIN
 70
     0
  9
$DIMDSEP
 70
    46
  9
$DIMATFIT
 70
     3
  9
$DIMFRAC
 70
     0
  9
$DIMLDRBLK
  1

  9
$DIMLUNIT
 70
     2
  9
$DIMLWD
 70
    -2
  9
$DIMLWE
 70
    -2
  9
$DIMTMOVE
 70
     0
  9
$LUNITS
 70
     2
  9
$LUPREC
 70
     4
  9
$SKETCHINC
 40
0.1
  9
$FILLETRAD
 40
0.5
  9
$AUNITS
 70
     0
  9
$AUPREC
 70
     0
  9
$MENU
  1
.
  9
$ELEVATION
 40
0.0
  9
$PELEVATION
 40
0.0
  9
$THICKNESS
 40
0.0
  9
$LIMCHECK
 70
     0
  9
$CHAMFERA
 40
0.0
  9
$CHAMFERB
 40
0.0
  9
$CHAMFERC
 40
0.0
  9
$CHAMFERD
 40
0.0
  9
$SKPOLY
 70
     0
  9
$TDCREATE
 40
2459164.00699838
  9
$TDUCREATE
 40
2459163.965331713
  9
$TDUPDATE
 40
2459164.006998553
  9
$TDUUPDATE
 40
2459163.965331886
  9
$TDINDWG
 40
0.0000000116
  9
$TDUSRTIMER
 40
0.0000000116
  9
$USRTIMER
 70
     1
  9
$ANGBASE
 50
0.0
  9
$ANGDIR
 70
     0
  9
$PDMODE
 70
     0
  9
$PDSIZE
 40
0.0
  9
$PLINEWID
 40
0.0
  9
$SPLFRAME
 70
     0
  9
$SPLINETYPE
 70
     6
  9
$SPLINESEGS
 70
     8
  9
$HANDSEED
  5
39D
  9
$SURFTAB1
 70
     6
  9
$SURFTAB2
 70
     6
  9
$SURFTYPE
 70
     6
  9
$SURFU
 70
     6
  9
$SURFV
 70
     6
  9
$UCSBASE
  2

  9
$UCSNAME
  2

  9
$UCSORG
 10
0.0
 20
0.0
 30
0.0
  9
$UCSXDIR
 10
1.0
 20
0.0
 30
0.0
  9
$UCSYDIR
 10
0.0
 20
1.0
 30
0.0
  9
$UCSORTHOREF
  2

  9
$UCSORTHOVIEW
 70
     0
  9
$UCSORGTOP
 10
0.0
 20
0.0
 30
0.0
  9
$UCSORGBOTTOM
 10
0.0
 20
0.0
 30
0.0
  9
$UCSORGLEFT
 10
0.0
 20
0.0
 30
0.0
  9
$UCSORGRIGHT
 10
0.0
 20
0.0
 30
0.0
  9
$UCSORGFRONT
 10
0.0
 20
0.0
 30
0.0
  9
$UCSORGBACK
 10
0.0
 20
0.0
 30
0.0
  9
$PUCSBASE
  2

  9
$PUCSNAME
  2

  9
$PUCSORG
 10
0.0
 20
0.0
 30
0.0
  9
$PUCSXDIR
 10
1.0
 20
0.0
 30
0.0
  9
$PUCSYDIR
 10
0.0
 20
1.0
 30
0.0
  9
$PUCSORTHOREF
  2

  9
$PUCSORTHOVIEW
 70
     0
  9
$PUCSORGTOP
 10
0.0
 20
0.0
 30
0.0
  9
$PUCSORGBOTTOM
 10
0.0
 20
0.0
 30
0.0
  9
$PUCSORGLEFT
 10
0.0
 20
0.0
 30
0.0
  9
$PUCSORGRIGHT
 10
0.0
 20
0.0
 30
0.0
  9
$PUCSORGFRONT
 10
0.0
 20
0.0
 30
0.0
  9
$PUCSORGBACK
 10
0.0
 20
0.0
 30
0.0
  9
$USERI1
 70
     0
  9
$USERI2
 70
     0
  9
$USERI3
 70
     0
  9
$USERI4
 70
     0
  9
$USERI5
 70
     0
  9
$USERR1
 40
20.1
  9
$USERR2
 40
0.0
  9
$USERR3
 40
0.0
  9
$USERR4
 40
0.0
  9
$USERR5
 40
0.0
  9
$WORLDVIEW
 70
     1
  9
$SHADEDGE
 70
     3
  9
$SHADEDIF
 70
    70
  9
$TILEMODE
 70
     1
  9
$MAXACTVP
 70
    64
  9
$PINSBASE
 10
0.0
 20
0.0
 30
0.0
  9
$PLIMCHECK
 70
     0
  9
$PEXTMIN
 10
1.00000000000000E+20
 20
1.00000000000000E+20
 30
1.00000000000000E+20
  9
$PEXTMAX
 10
-1.00000000000000E+20
 20
-1.00000000000000E+20
 30
-1.00000000000000E+20
  9
$PLIMMIN
 10
0.0
 20
0.0
  9
$PLIMMAX
 10
12.0
 20
9.0
  9
$UNITMODE
 70
     0
  9
$VISRETAIN
 70
     1
  9
$PLINEGEN
 70
     0
  9
$PSLTSCALE
 70
     1
  9
$TREEDEPTH
 70
  3020
  9
$CMLSTYLE
  2
Standard
  9
$CMLJUST
 70
     0
  9
$CMLSCALE
 40
1.0
  9
$PROXYGRAPHICS
 70
     1
  9
$MEASUREMENT
 70
     1
  9
$CELWEIGHT
370
    -1
  9
$ENDCAPS
280
     0
  9
$JOINSTYLE
280
     0
  9
$LWDISPLAY
290
     0
  9
$INSUNITS
 70
     4
  9
$HYPERLINKBASE
  1

  9
$STYLESHEET
  1

  9
$XEDIT
290
     1
  9
$CEPSNTYPE
380
     0
  9
$PSTYLEMODE
290
     1
  9
$FINGERPRINTGUID
  2
{26bd9e6e-0c4c-49bc-ba3f-e4c87358c6e8}
  9
$VERSIONGUID
  2
{FAEB1C32-E019-11D5-929B-00C0DF256EC4}
  9
$EXTNAMES
290
     1
  9
$PSVPSCALE
 40
0.0
  9
$OLESTARTUP
290
     0
  9
$SORTENTS
280
   127
  9
$INDEXCTL
280
     0
  9
$HIDETEXT
280
     1
  9
$XCLIPFRAME
290
     0
  9
$HALOGAP
280
     0
  9
$OBSCOLOR
 70
   257
  9
$OBSLTYPE
280
     0
  9
$INTERSECTIONDISPLAY
280
     0
  9
$INTERSECTIONCOLOR
 70
   257
  9
$DIMASSOC
280
     2
  9
$PROJECTNAME
  1

  0
ENDSEC
  0
SECTION
  2
CLASSES
  0
CLASS
  1
ACDBDICTIONARYWDFLT
  2
AcDbDictionaryWithDefault
  3
ObjectDBX Classes
 90
        0
 91
        3
280
     0
281
     0
  0
CLASS
  1
VISUALSTYLE
  2
AcDbVisualStyle
  3
ObjectDBX Classes
 90
     4095
 91
        3
280
     0
281
     0
  0
CLASS
  1
MATERIAL
  2
AcDbMaterial
  3
ObjectDBX Classes
 90
     1153
 91
        3
280
     0
281
     0
  0
CLASS
  1
SCALE
  2
AcDbScale
  3
ObjectDBX Classes
 90
     1153
 91
        3
280
     0
281
     0
  0
CLASS
  1
TABLESTYLE
  2
AcDbTableStyle
  3
ObjectDBX Classes
 90
     4095
 91
        3
280
     0
281
     0
  0
CLASS
  1
MLEADERSTYLE
  2
AcDbMLeaderStyle
  3
ACDB_MLEADERSTYLE_CLASS
 90
     4095
 91
        3
280
     0
281
     0
  0
CLASS
  1
SUN
  2
AcDbSun
  3
SCENEOE
 90
     1153
 91
        3
280
     0
281
     0
  0
CLASS
  1
DICTIONARYVAR
  2
AcDbDictionaryVar
  3
ObjectDBX Classes
 90
        0
 91
        3
280
     0
281
     0
  0
CLASS
  1
CELLSTYLEMAP
  2
AcDbCellStyleMap
  3
ObjectDBX Classes
 90
     1152
 91
        3
280
     0
281
     0
  0
ENDSEC
  0
SECTION
  2
TABLES
  0
TABLE
  2
VPORT
  5
8
102
{ACAD_XDICTIONARY
360
356
102
}
330
0
100
AcDbSymbolTable
 70
     1
  0
VPORT
  5
29
330
8
100
AcDbSymbolTableRecord
100
AcDbViewportTableRecord
  2
*Active
 70
     0
 10
0.0
 20
0.0
 11
1.0
 21
1.0
 12
-61.70650540787479
 22
98.64622510010663
 13
0.0
 23
0.0
 14
0.5
 24
0.5
 15
0.5
 25
0.5
 16
0.0
 26
0.0
 36
1.0
 17
0.0
 27
0.0
 37
0.0
 40
231.0000000000002
 41
1.60267857142857
 42
50.0
 43
0.0
 44
0.0
 50
0.0
 51
0.0
 71
     0
 72
   100
 73
     1
 74
     3
 75
     0
 76
     0
 77
     0
 78
     0
281
     0
 65
     1
110
0.0
120
0.0
130
0.0
111
1.0
121
0.0
131
0.0
112
0.0
122
1.0
132
0.0
 79
     0
146
0.0
  0
ENDTAB
  0
TABLE
  2
LTYPE
  5
5
330
0
100
AcDbSymbolTable
 70
     8
  0
LTYPE
  5
14
330
5
100
AcDbSymbolTableRecord
100
AcDbLinetypeTableRecord
  2
ByBlock
 70
     0
  3

 72
    65
 73
     0
 40
0.0
  0
LTYPE
  5
15
330
5
100
AcDbSymbolTableRecord
100
AcDbLinetypeTableRecord
  2
ByLayer
 70
     0
  3

 72
    65
 73
     0
 40
0.0
  0
LTYPE
  5
16
330
5
100
AcDbSymbolTableRecord
100
AcDbLinetypeTableRecord
  2
Continuous
 70
     0
  3
Solid line
 72
    65
 73
     0
 40
0.0
  0
LTYPE
  5
6E
330
5
100
AcDbSymbolTableRecord
100
AcDbLinetypeTableRecord
  2
DASHED
 70
     0
  3
Dashed
 72
    65
 73
     2
 40
15.0
 49
7.0
 74
     0
 49
-8.0
 74
     0
  0
LTYPE
  5
6F
330
5
100
AcDbSymbolTableRecord
100
AcDbLinetypeTableRecord
  2
DOTTED
 70
     0
  3
Dotted
 72
    65
 73
     2
 40
1.0
 49
0.0
 74
     0
 49
-1.0
 74
     0
  0
LTYPE
  5
70
330
5
100
AcDbSymbolTableRecord
100
AcDbLinetypeTableRecord
  2
DOT_CENTER
 70
     0
  3
Dot_Center
 72
    65
 73
     4
 40
14.0
 49
12.0
 74
     0
 49
-1.0
 74
     0
 49
0.0
 74
     0
 49
-1.0
 74
     0
  0
LTYPE
  5
71
330
5
100
AcDbSymbolTableRecord
100
AcDbLinetypeTableRecord
  2
LONG_DASHED
 70
     0
  3
Long_Dashed
 72
    65
 73
     2
 40
15.0
 49
10.0
 74
     0
 49
-5.0
 74
     0
  0
LTYPE
  5
72
330
5
100
AcDbSymbolTableRecord
100
AcDbLinetypeTableRecord
  2
DASH_CENTER
 70
     0
  3
Dash_Center
 72
    65
 73
     4
 40
14.0
 49
11.0
 74
     0
 49
-1.0
 74
     0
 49
1.0
 74
     0
 49
-1.0
 74
     0
  0
LTYPE
  5
73
330
5
100
AcDbSymbolTableRecord
100
AcDbLinetypeTableRecord
  2
PHANTOM
 70
     0
  3
Phantom
 72
    65
 73
     6
 40
13.0
 49
10.0
 74
     0
 49
-1.0
 74
     0
 49
0.0
 74
     0
 49
-1.0
 74
     0
 49
0.0
 74
     0
 49
-1.0
 74
     0
  0
LTYPE
  5
74
330
5
100
AcDbSymbolTableRecord
100
AcDbLinetypeTableRecord
  2
CENTER_DASH_DASH
 70
     0
  3
Center_Dash_Dash
 72
    65
 73
     6
 40
14.0
 49
9.0
 74
     0
 49
-1.0
 74
     0
 49
1.0
 74
     0
 49
-1.0
 74
     0
 49
1.0
 74
     0
 49
-1.0
 74
     0
  0
ENDTAB
  0
TABLE
  2
LAYER
  5
2
330
0
100
AcDbSymbolTable
 70
     2
  0
LAYER
  5
10
330
2
100
AcDbSymbolTableRecord
100
AcDbLayerTableRecord
  2
0
 70
     0
 62
     7
  6
Continuous
370
    -3
390
F
  0
LAYER
  5
75
330
2
100
AcDbSymbolTableRecord
100
AcDbLayerTableRecord
  2
1
 70
     0
 62
     7
  6
Continuous
370
    -3
390
F
  0
ENDTAB
  0
TABLE
  2
STYLE
  5
3
330
0
100
AcDbSymbolTable
 70
     5
  0
STYLE
  5
11
330
3
100
AcDbSymbolTableRecord
100
AcDbTextStyleTableRecord
  2
Standard
 70
     0
 40
0.0
 41
1.0
 50
0.0
 71
     0
 42
0.2
  3
txt
  4

  0
STYLE
  5
1AC
330
3
100
AcDbSymbolTableRecord
100
AcDbTextStyleTableRecord
  2
CONVERTER_11
 70
     0
 40
0.0
 41
0.9
 50
0.0
 71
     0
 42
0.2
  3
txt.shx
  4

  0
STYLE
  5
1AE
330
3
100
AcDbSymbolTableRecord
100
AcDbTextStyleTableRecord
  2
CONVERTER_12
 70
     0
 40
0.0
 41
0.81
 50
0.0
 71
     0
 42
0.2
  3
txt.shx
  4

  0
STYLE
  5
1B4
330
3
100
AcDbSymbolTableRecord
100
AcDbTextStyleTableRecord
  2
CONVERTER_13
 70
     0
 40
0.0
 41
0.855
 50
0.0
 71
     0
 42
0.2
  3
txt.shx
  4

  0
STYLE
  5
1B7
330
3
100
AcDbSymbolTableRecord
100
AcDbTextStyleTableRecord
  2
CONVERTER_14
 70
     0
 40
0.0
 41
0.72
 50
0.0
 71
     0
 42
0.2
  3
txt.shx
  4

  0
ENDTAB
  0
TABLE
  2
VIEW
  5
6
330
0
100
AcDbSymbolTable
 70
     0
  0
ENDTAB
  0
TABLE
  2
UCS
  5
7
330
0
100
AcDbSymbolTable
 70
     0
  0
ENDTAB
  0
TABLE
  2
APPID
  5
9
330
0
100
AcDbSymbolTable
 70
     2
  0
APPID
  5
12
330
9
100
AcDbSymbolTableRecord
100
AcDbRegAppTableRecord
  2
ACAD
 70
     0
  0
APPID
  5
395
330
9
100
AcDbSymbolTableRecord
100
AcDbRegAppTableRecord
  2
ACAD_MLEADERVER
 70
     0
  0
ENDTAB
  0
TABLE
  2
DIMSTYLE
  5
A
330
0
100
AcDbSymbolTable
 70
     4
100
AcDbDimStyleTable
  0
DIMSTYLE
105
27
330
A
100
AcDbSymbolTableRecord
100
AcDbDimStyleTableRecord
  2
Standard
 70
     0
178
     0
340
11
  0
DIMSTYLE
105
283
102
{ACAD_REACTORS
330
284
102
}
330
A
100
AcDbSymbolTableRecord
100
AcDbDimStyleTableRecord
  2
ME10_DIM_10
 70
     0
 41
1.75
 42
0.0
 44
0.75
 73
     0
 74
     0
 77
     1
 78
     8
140
1.75
147
0.75
172
     1
173
     1
174
     1
175
     1
176
     2
177
     2
178
     3
340
1AC
  0
DIMSTYLE
105
349
102
{ACAD_REACTORS
330
34A
102
}
330
A
100
AcDbSymbolTableRecord
100
AcDbDimStyleTableRecord
  2
ME10_DIM_11
 70
     0
 41
1.75
 42
0.0
 44
0.75
 73
     0
 74
     0
 77
     1
 78
     8
140
1.75
147
0.75
172
     1
173
     1
174
     1
175
     1
176
     2
177
     2
271
     1
178
     3
271
     1
340
1AC
  0
DIMSTYLE
105
354
102
{ACAD_REACTORS
330
355
102
}
330
A
100
AcDbSymbolTableRecord
100
AcDbDimStyleTableRecord
  2
ME10_DIM_12
 70
     0
 41
1.75
 42
0.0
 44
0.75
 73
     0
 74
     0
 77
     1
 78
     8
140
1.75
147
0.75
172
     1
173
     1
174
     1
175
     1
176
     2
177
     2
271
     1
178
     3
271
     1
340
1AC
  0
ENDTAB
  0
TABLE
  2
BLOCK_RECORD
  5
1
330
0
100
AcDbSymbolTable
 70
    20
  0
BLOCK_RECORD
  5
1F
330
1
100
AcDbSymbolTableRecord
100
AcDbBlockTableRecord
  2
*Model_Space
340
22
  0
BLOCK_RECORD
  5
1B
330
1
100
AcDbSymbolTableRecord
100
AcDbBlockTableRecord
  2
*Paper_Space
340
1E
  0
BLOCK_RECORD
  5
23
330
1
100
AcDbSymbolTableRecord
100
AcDbBlockTableRecord
  2
*Paper_Space0
340
26
  0
BLOCK_RECORD
  5
76
330
1
100
AcDbSymbolTableRecord
100
AcDbBlockTableRecord
  2
_rahmen
340
0
102
{BLKREFS
331
7D
102
}
  0
BLOCK_RECORD
  5
79
330
1
100
AcDbSymbolTableRecord
100
AcDbBlockTableRecord
  2
_punkt
340
0
102
{BLKREFS
331
7E
102
}
  0
BLOCK_RECORD
  5
7C
330
1
100
AcDbSymbolTableRecord
100
AcDbBlockTableRecord
  2
A4I_CS
340
0
102
{BLKREFS
331
AC
102
}
  0
BLOCK_RECORD
  5
81
330
1
100
AcDbSymbolTableRecord
100
AcDbBlockTableRecord
  2
STP_5_2-s-select__1
340
0
102
{BLKREFS
331
85
102
}
  0
BLOCK_RECORD
  5
84
330
1
100
AcDbSymbolTableRecord
100
AcDbBlockTableRecord
  2
AllgSicht1
340
0
102
{BLKREFS
331
AD
102
}
  0
BLOCK_RECORD
  5
88
330
1
100
AcDbSymbolTableRecord
100
AcDbBlockTableRecord
  2
STP_5_2-s-select__2
340
0
102
{BLKREFS
331
8C
102
}
  0
BLOCK_RECORD
  5
8B
330
1
100
AcDbSymbolTableRecord
100
AcDbBlockTableRecord
  2
Drfsicht1
340
0
102
{BLKREFS
331
AE
102
}
  0
BLOCK_RECORD
  5
8F
330
1
100
AcDbSymbolTableRecord
100
AcDbBlockTableRecord
  2
STP_5_2-s-select__3
340
0
102
{BLKREFS
331
93
102
}
  0
BLOCK_RECORD
  5
92
330
1
100
AcDbSymbolTableRecord
100
AcDbBlockTableRecord
  2
Rckans1
340
0
102
{BLKREFS
331
AF
102
}
  0
BLOCK_RECORD
  5
96
330
1
100
AcDbSymbolTableRecord
100
AcDbBlockTableRecord
  2
STP_5_2-s-select__4
340
0
102
{BLKREFS
331
9A
102
}
  0
BLOCK_RECORD
  5
99
330
1
100
AcDbSymbolTableRecord
100
AcDbBlockTableRecord
  2
SA_Rechts1
340
0
102
{BLKREFS
331
B0
102
}
  0
BLOCK_RECORD
  5
9D
330
1
100
AcDbSymbolTableRecord
100
AcDbBlockTableRecord
  2
STP_5_2-s-select__5
340
0
102
{BLKREFS
331
A1
102
}
  0
BLOCK_RECORD
  5
A0
330
1
100
AcDbSymbolTableRecord
100
AcDbBlockTableRecord
  2
SA_links1
340
0
102
{BLKREFS
331
B1
102
}
  0
BLOCK_RECORD
  5
A4
330
1
100
AcDbSymbolTableRecord
100
AcDbBlockTableRecord
  2
STP_5_2-s-select__6
340
0
102
{BLKREFS
331
A8
102
}
  0
BLOCK_RECORD
  5
A7
330
1
100
AcDbSymbolTableRecord
100
AcDbBlockTableRecord
  2
Vordans1
340
0
102
{BLKREFS
331
B2
102
}
  0
BLOCK_RECORD
  5
AB
330
1
100
AcDbSymbolTableRecord
100
AcDbBlockTableRecord
  2
1
340
0
102
{BLKREFS
331
B5
102
}
  0
BLOCK_RECORD
  5
27A
330
1
100
AcDbSymbolTableRecord
100
AcDbBlockTableRecord
  2
*D17
340
0
  0
BLOCK_RECORD
  5
340
330
1
100
AcDbSymbolTableRecord
100
AcDbBlockTableRecord
  2
*D18
340
0
  0
BLOCK_RECORD
  5
34B
330
1
100
AcDbSymbolTableRecord
100
AcDbBlockTableRecord
  2
*D19
340
0
  0
ENDTAB
  0
ENDSEC
  0
SECTION
  2
BLOCKS
  0
BLOCK
  5
20
330
1F
100
AcDbEntity
  8
0
100
AcDbBlockBegin
  2
*Model_Space
 70
     0
 10
0.0
 20
0.0
 30
0.0
  3
*Model_Space
  1

  0
ENDBLK
  5
21
330
1F
100
AcDbEntity
  8
0
100
AcDbBlockEnd
  0
BLOCK
  5
1C
330
1B
100
AcDbEntity
 67
     1
  8
0
100
AcDbBlockBegin
  2
*Paper_Space
 70
     0
 10
0.0
 20
0.0
 30
0.0
  3
*Paper_Space
  1

  0
ENDBLK
  5
1D
330
1B
100
AcDbEntity
 67
     1
  8
0
100
AcDbBlockEnd
  0
BLOCK
  5
24
330
23
100
AcDbEntity
  8
0
100
AcDbBlockBegin
  2
*Paper_Space0
 70
     0
 10
0.0
 20
0.0
 30
0.0
  3
*Paper_Space0
  1

  0
ENDBLK
  5
25
330
23
100
AcDbEntity
  8
0
100
AcDbBlockEnd
  0
BLOCK
  5
77
330
76
100
AcDbEntity
  8
0
100
AcDbBlockBegin
  2
_rahmen
 70
     0
 10
81.79349459212524
 20
-6.35377489989344
 30
0.0
  3
_rahmen
  1

  0
LINE
  5
B6
330
76
100
AcDbEntity
  8
1
  6
DOT_CENTER
 62
     2
100
AcDbLine
 10
-43.76465504806217
 20
19.77122510010659
 30
0.0
 11
-38.26465504806217
 21
19.77122510010659
 31
0.0
  0
LINE
  5
B7
330
76
100
AcDbEntity
  8
1
  6
PHANTOM
 62
     2
100
AcDbLine
 10
-35.01465504806217
 20
22.52122510010659
 30
0.0
 11
-35.01465504806217
 21
17.02122510010659
 31
0.0
  0
LINE
  5
B8
330
76
100
AcDbEntity
  8
1
  6
PHANTOM
 62
     2
100
AcDbLine
 10
-32.26465504806217
 20
19.77122510010659
 30
0.0
 11
-37.76465504806217
 21
19.77122510010659
 31
0.0
  0
LINE
  5
B9
330
76
100
AcDbEntity
  8
1
  6
Continuous
 62
     7
100
AcDbLine
 10
16.54869006537524
 20
7.14622510010659
 30
0.0
 11
16.54869006537524
 21
15.64622510010668
 31
0.0
  0
LINE
  5
BA
330
76
100
AcDbEntity
  8
1
  6
Continuous
 62
     6
100
AcDbLine
 10
-11.35130993462485
 20
15.64622510010668
 30
0.0
 11
81.79349459212693
 21
15.64622510010668
 31
0.0
  0
LINE
  5
BB
330
76
100
AcDbEntity
  8
1
  6
Continuous
 62
     7
100
AcDbLine
 10
-47.75130993462477
 20
15.64622510010668
 30
0.0
 11
-47.75130993462477
 21
24.14622510010668
 31
0.0
  0
LINE
  5
BC
330
76
100
AcDbEntity
  8
1
  6
Continuous
 62
     7
100
AcDbLine
 10
-11.35130993462485
 20
15.64622510010668
 30
0.0
 11
-11.35130993462485
 21
24.14622510010668
 31
0.0
  0
LINE
  5
BD
330
76
100
AcDbEntity
  8
1
  6
Continuous
 62
     7
100
AcDbLine
 10
46.37508631044813
 20
24.14622510010668
 30
0.0
 11
46.37508631044813
 21
15.64622510010668
 31
0.0
  0
LINE
  5
BE
330
76
100
AcDbEntity
  8
1
  6
Continuous
 62
     7
100
AcDbLine
 10
72.87508631044773
 20
24.14622510010668
 30
0.0
 11
72.87508631044773
 21
15.64622510010668
 31
0.0
  0
LINE
  5
BF
330
76
100
AcDbEntity
  8
1
  6
Continuous
 62
     6
100
AcDbLine
 10
-116.7513099346247
 20
-1.35377489989332
 30
0.0
 11
-161.7065054078747
 21
-1.35377489989332
 31
0.0
  0
LINE
  5
C0
330
76
100
AcDbEntity
  8
1
  6
Continuous
 62
     7
100
AcDbLine
 10
81.79349459212654
 20
7.14622510010668
 30
0.0
 11
-11.35130993462485
 21
7.14622510010668
 31
0.0
  0
LINE
  5
C1
102
{ACAD_REACTORS
330
1D4
330
1D5
102
}
330
76
100
AcDbEntity
  8
0
  6
Continuous
 62
     2
100
AcDbLine
 10
-34.04388099285737
 20
7.94651421576998
 30
0.0
 11
-34.04388099285737
 21
8.81903122257327
 31
0.0
  0
LINE
  5
C2
102
{ACAD_REACTORS
330
1D4
330
1D5
102
}
330
76
100
AcDbEntity
  8
0
  6
Continuous
 62
     2
100
AcDbLine
 10
-34.04388099285737
 20
6.98674550828707
 30
0.0
 11
-34.04388099285737
 21
6.11422850148386
 31
0.0
  0
LINE
  5
C3
102
{ACAD_REACTORS
330
1D6
330
1D7
102
}
330
76
100
AcDbEntity
  8
0
  6
Continuous
 62
     2
100
AcDbLine
 10
-18.71083685656686
 20
8.20826931781048
 30
0.0
 11
-17.60719755699876
 21
8.20826931781048
 31
0.0
  0
LINE
  5
C4
102
{ACAD_REACTORS
330
1D6
330
1D7
102
}
330
76
100
AcDbEntity
  8
0
  6
Continuous
 62
     2
100
AcDbLine
 10
-17.94117951360545
 20
6.98674550828659
 30
0.0
 11
-17.94117951360545
 21
6.11422850148327
 31
0.0
  0
LINE
  5
C5
102
{ACAD_REACTORS
330
1E0
330
1E1
102
}
330
76
100
AcDbEntity
  8
0
  6
Continuous
 62
     2
100
AcDbLine
 10
-19.80193612898538
 20
9.29891557629728
 30
0.0
 11
-18.40398308204507
 21
10.87977457007227
 31
0.0
  0
LINE
  5
C6
102
{ACAD_REACTORS
330
1E0
330
1E1
102
}
330
76
100
AcDbEntity
  8
0
  6
Continuous
 62
     2
100
AcDbLine
 10
-19.70651271281255
 20
12.35272510010847
 30
0.0
 11
-18.40398308204507
 21
10.87977457007227
 31
0.0
  0
LINE
  5
C7
102
{ACAD_REACTORS
330
1E0
330
1E1
102
}
330
76
100
AcDbEntity
  8
0
  6
Continuous
 62
     2
100
AcDbLine
 10
-17.10145345127867
 20
12.35272510010847
 30
0.0
 11
-15.69872923353145
 21
12.35272510010847
 31
0.0
  0
LINE
  5
C8
102
{ACAD_REACTORS
330
1E0
330
1E1
102
}
330
76
100
AcDbEntity
  8
0
  6
Continuous
 62
     2
100
AcDbLine
 10
-18.39921191123716
 20
9.29891557629728
 30
0.0
 11
-17.70262097317146
 21
10.08664736159099
 31
0.0
  0
LINE
  5
C9
102
{ACAD_REACTORS
330
1E0
330
1E1
102
}
330
76
100
AcDbEntity
  8
0
  6
Continuous
 62
     2
100
AcDbLine
 10
-18.39921191123716
 20
9.29891557629728
 30
0.0
 11
-19.80193612898538
 21
9.29891557629728
 31
0.0
  0
LINE
  5
CA
102
{ACAD_REACTORS
330
1E2
330
1E3
102
}
330
76
100
AcDbEntity
  8
0
  6
Continuous
 62
     2
100
AcDbLine
 10
-19.92121539920225
 20
9.29891557629728
 30
0.0
 11
-21.16171980945515
 21
9.29891557629728
 31
0.0
  0
LINE
  5
CB
102
{ACAD_REACTORS
330
1E4
330
1E5
102
}
330
76
100
AcDbEntity
  8
0
  6
Continuous
 62
     2
100
AcDbLine
 10
-22.02969941761026
 20
7.16124890964747
 30
0.0
 11
-22.32986465480036
 21
7.92906387563417
 31
0.0
  0
LINE
  5
CC
102
{ACAD_REACTORS
330
1E4
330
1E5
102
}
330
76
100
AcDbEntity
  8
0
  6
Continuous
 62
     2
100
AcDbLine
 10
-22.63002989199276
 20
7.16124890964747
 30
0.0
 11
-22.02969941761026
 21
7.16124890964747
 31
0.0
  0
LINE
  5
CD
102
{ACAD_REACTORS
330
1E4
330
1E5
102
}
330
76
100
AcDbEntity
  8
0
  6
Continuous
 62
     2
100
AcDbLine
 10
-24.34806990686656
 20
5.93972510012298
 30
0.0
 11
-23.10756549661357
 21
5.93972510012298
 31
0.0
  0
LINE
  5
CE
102
{ACAD_REACTORS
330
1E4
330
1E5
102
}
330
76
100
AcDbEntity
  8
0
  6
Continuous
 62
     2
100
AcDbLine
 10
-22.95011685992725
 20
8.99353462393407
 30
0.0
 11
-21.70961244967455
 21
8.99353462393407
 31
0.0
  0
LINE
  5
CF
102
{ACAD_REACTORS
330
1E4
330
1E5
102
}
330
76
100
AcDbEntity
  8
0
  6
Continuous
 62
     2
100
AcDbLine
 10
-21.70961244967455
 20
8.99353462393407
 30
0.0
 11
-20.31165940273425
 21
5.93972510012298
 31
0.0
  0
LINE
  5
D0
102
{ACAD_REACTORS
330
1E4
330
1E5
102
}
330
76
100
AcDbEntity
  8
0
  6
Continuous
 62
     2
100
AcDbLine
 10
-21.55216381298817
 20
5.93972510012298
 30
0.0
 11
-21.76364386646395
 21
6.48068564434087
 31
0.0
  0
LINE
  5
D1
102
{ACAD_REACTORS
330
1E6
330
1E7
102
}
330
76
100
AcDbEntity
  8
0
  6
Continuous
 62
     2
100
AcDbLine
 10
-25.69448300857417
 20
5.93972510012298
 30
0.0
 11
-24.50169030640765
 21
5.93972510012298
 31
0.0
  0
LINE
  5
D2
102
{ACAD_REACTORS
330
1E6
330
1E7
102
}
330
76
100
AcDbEntity
  8
0
  6
Continuous
 62
     2
100
AcDbLine
 10
-25.69448300857417
 20
8.20826931781048
 30
0.0
 11
-25.69448300857417
 21
5.93972510012298
 31
0.0
  0
LINE
  5
D3
102
{ACAD_REACTORS
330
1E6
330
1E7
102
}
330
76
100
AcDbEntity
  8
0
  6
Continuous
 62
     2
100
AcDbLine
 10
-26.50558204604877
 20
8.99353462393407
 30
0.0
 11
-26.50558204604877
 21
8.20826931781048
 31
0.0
  0
LINE
  5
D4
102
{ACAD_REACTORS
330
1E8
330
1E9
102
}
330
76
100
AcDbEntity
  8
0
  6
Continuous
 62
     2
100
AcDbLine
 10
-25.02636816447617
 20
9.29891557629728
 30
0.0
 11
-23.83357546230965
 21
9.29891557629728
 31
0.0
  0
LINE
  5
D5
102
{ACAD_REACTORS
330
1E8
330
1E9
102
}
330
76
100
AcDbEntity
  8
0
  6
Continuous
 62
     2
100
AcDbLine
 10
-22.59307105205565
 20
11.04394958990329
 30
0.0
 11
-23.83357546230965
 21
12.35272510010847
 31
0.0
  0
LINE
  5
D6
102
{ACAD_REACTORS
330
1E8
330
1E9
102
}
330
76
100
AcDbEntity
  8
0
  6
Continuous
 62
     2
100
AcDbLine
 10
-21.40027834988905
 20
12.35272510010847
 30
0.0
 11
-22.59307105205565
 21
12.35272510010847
 31
0.0
  0
LINE
  5
D7
102
{ACAD_REACTORS
330
1E8
330
1E9
102
}
330
76
100
AcDbEntity
  8
0
  6
Continuous
 62
     2
100
AcDbLine
 10
-21.40027834988905
 20
9.29891557629728
 30
0.0
 11
-21.40027834988905
 21
12.35272510010847
 31
0.0
  0
LINE
  5
D8
102
{ACAD_REACTORS
330
1E8
330
1E9
102
}
330
76
100
AcDbEntity
  8
0
  6
Continuous
 62
     2
100
AcDbLine
 10
-22.59307105205565
 20
9.29891557629728
 30
0.0
 11
-21.40027834988905
 21
9.29891557629728
 31
0.0
  0
LINE
  5
D9
102
{ACAD_REACTORS
330
1E8
330
1E9
102
}
330
76
100
AcDbEntity
  8
0
  6
Continuous
 62
     2
100
AcDbLine
 10
-23.83357546230965
 20
10.60769108650197
 30
0.0
 11
-22.59307105205565
 21
9.29891557629728
 31
0.0
  0
LINE
  5
DA
102
{ACAD_REACTORS
330
1EA
330
1EB
102
}
330
76
100
AcDbEntity
  8
0
  6
Continuous
 62
     2
100
AcDbLine
 10
-27.84150987247537
 20
7.68475911372897
 30
0.0
 11
-29.08201428272827
 21
8.99353462393407
 31
0.0
  0
LINE
  5
DB
102
{ACAD_REACTORS
330
1EA
330
1EB
102
}
330
76
100
AcDbEntity
  8
0
  6
Continuous
 62
     2
100
AcDbLine
 10
-27.84150987247537
 20
8.99353462393407
 30
0.0
 11
-27.84150987247537
 21
7.68475911372897
 31
0.0
  0
LINE
  5
DC
102
{ACAD_REACTORS
330
1EA
330
1EB
102
}
330
76
100
AcDbEntity
  8
0
  6
Continuous
 62
     2
100
AcDbLine
 10
-26.64871717030897
 20
8.99353462393407
 30
0.0
 11
-27.84150987247537
 21
8.99353462393407
 31
0.0
  0
LINE
  5
DD
102
{ACAD_REACTORS
330
1EA
330
1EB
102
}
330
76
100
AcDbEntity
  8
0
  6
Continuous
 62
     2
100
AcDbLine
 10
-26.64871717030897
 20
5.93972510012298
 30
0.0
 11
-26.64871717030897
 21
8.99353462393407
 31
0.0
  0
LINE
  5
DE
102
{ACAD_REACTORS
330
1EA
330
1EB
102
}
330
76
100
AcDbEntity
  8
0
  6
Continuous
 62
     2
100
AcDbLine
 10
-29.08201428272827
 20
7.24850061032757
 30
0.0
 11
-27.84150987247537
 21
5.93972510012298
 31
0.0
  0
LINE
  5
DF
102
{ACAD_REACTORS
330
1EA
330
1EB
102
}
330
76
100
AcDbEntity
  8
0
  6
Continuous
 62
     2
100
AcDbLine
 10
-29.08201428272827
 20
5.93972510012298
 30
0.0
 11
-29.08201428272827
 21
7.24850061032757
 31
0.0
  0
LINE
  5
E0
102
{ACAD_REACTORS
330
1DA
330
1DB
102
}
330
76
100
AcDbEntity
  8
0
  6
Continuous
 62
     2
100
AcDbLine
 10
-26.60085453133675
 20
11.65471149466549
 30
0.0
 11
-25.26492670490907
 21
11.65471149466549
 31
0.0
  0
LINE
  5
E1
102
{ACAD_REACTORS
330
1DA
330
1DB
102
}
330
76
100
AcDbEntity
  8
0
  6
Continuous
 62
     2
100
AcDbLine
 10
-26.60085453133675
 20
9.99692918173977
 30
0.0
 11
-26.60085453133675
 21
10.47681353548148
 31
0.0
  0
LINE
  5
E2
102
{ACAD_REACTORS
330
1DA
330
1DB
102
}
330
76
100
AcDbEntity
  8
0
  6
Continuous
 62
     2
100
AcDbLine
 10
-25.26492670490907
 20
9.99692918173977
 30
0.0
 11
-26.60085453133675
 21
9.99692918173977
 31
0.0
  0
LINE
  5
E3
102
{ACAD_REACTORS
330
1DA
330
1DB
102
}
330
76
100
AcDbEntity
  8
0
  6
Continuous
 62
     2
100
AcDbLine
 10
-25.26492670490907
 20
9.29891557629728
 30
0.0
 11
-25.26492670490907
 21
9.99692918173977
 31
0.0
  0
LINE
  5
E4
102
{ACAD_REACTORS
330
1DA
330
1DB
102
}
330
76
100
AcDbEntity
  8
0
  6
Continuous
 62
     2
100
AcDbLine
 10
-28.41524642869007
 20
9.29891557629728
 30
0.0
 11
-25.26492670490907
 21
9.29891557629728
 31
0.0
  0
LINE
  5
E5
102
{ACAD_REACTORS
330
1DA
330
1DB
102
}
330
76
100
AcDbEntity
  8
0
  6
Continuous
 62
     2
100
AcDbLine
 10
-28.41524642869007
 20
12.35272510010847
 30
0.0
 11
-25.26492670490907
 21
12.35272510010847
 31
0.0
  0
LINE
  5
E6
102
{ACAD_REACTORS
330
1DA
330
1DB
102
}
330
76
100
AcDbEntity
  8
0
  6
Continuous
 62
     2
100
AcDbLine
 10
-25.26492670490907
 20
11.65471149466549
 30
0.0
 11
-25.26492670490907
 21
12.35272510010847
 31
0.0
  0
LINE
  5
E7
102
{ACAD_REACTORS
330
1EC
330
1ED
102
}
330
76
100
AcDbEntity
  8
0
  6
Continuous
 62
     2
100
AcDbLine
 10
-31.27660192383007
 20
11.28389176677388
 30
0.0
 11
-31.27660192383007
 21
12.35272510010847
 31
0.0
  0
LINE
  5
E8
102
{ACAD_REACTORS
330
1EC
330
1ED
102
}
330
76
100
AcDbEntity
  8
0
  6
Continuous
 62
     2
100
AcDbLine
 10
-31.27660192383007
 20
12.35272510010847
 30
0.0
 11
-30.08380922166367
 21
12.35272510010847
 31
0.0
  0
LINE
  5
E9
102
{ACAD_REACTORS
330
1EC
330
1ED
102
}
330
76
100
AcDbEntity
  8
0
  6
Continuous
 62
     2
100
AcDbLine
 10
-31.27660192383007
 20
10.43318768514109
 30
0.0
 11
-32.32625950173755
 21
10.43318768514109
 31
0.0
  0
LINE
  5
EA
102
{ACAD_REACTORS
330
1EC
330
1ED
102
}
330
76
100
AcDbEntity
  8
0
  6
Continuous
 62
     2
100
AcDbLine
 10
-32.32625950173755
 20
10.43318768514109
 30
0.0
 11
-32.32625950173755
 21
9.29891557629728
 31
0.0
  0
LINE
  5
EB
102
{ACAD_REACTORS
330
1EC
330
1ED
102
}
330
76
100
AcDbEntity
  8
0
  6
Continuous
 62
     2
100
AcDbLine
 10
-33.51905220390415
 20
12.35272510010847
 30
0.0
 11
-33.51905220390415
 21
9.29891557629728
 31
0.0
  0
LINE
  5
EC
102
{ACAD_REACTORS
330
1DE
330
1DF
102
}
330
76
100
AcDbEntity
  8
0
  6
Continuous
 62
     2
100
AcDbLine
 10
-35.47523223545775
 20
10.98389160532616
 30
0.0
 11
-35.47523223545775
 21
11.68961925466837
 31
0.0
  0
LINE
  5
ED
102
{ACAD_REACTORS
330
1DE
330
1DF
102
}
330
76
100
AcDbEntity
  8
0
  6
Continuous
 62
     2
100
AcDbLine
 10
-36.71573664571187
 20
9.29891557629728
 30
0.0
 11
-35.47523223545775
 21
9.29891557629728
 31
0.0
  0
LINE
  5
EE
102
{ACAD_REACTORS
330
1DE
330
1DF
102
}
330
76
100
AcDbEntity
  8
0
  6
Continuous
 62
     2
100
AcDbLine
 10
-35.47523223545775
 20
9.29891557629728
 30
0.0
 11
-35.47523223545775
 21
10.24199381744109
 31
0.0
  0
LINE
  5
EF
102
{ACAD_REACTORS
330
1D8
330
1D9
102
}
330
76
100
AcDbEntity
  8
0
  6
Continuous
 62
     2
100
AcDbLine
 10
-41.02068249492325
 20
6.65228065567987
 30
0.0
 11
-42.49651575593288
 21
6.65228065567987
 31
0.0
  0
LINE
  5
F0
102
{ACAD_REACTORS
330
1D8
330
1D9
102
}
330
76
100
AcDbEntity
  8
0
  6
Continuous
 62
     2
100
AcDbLine
 10
-43.51465504806217
 20
11.92848048470648
 30
0.0
 11
-43.51465504806217
 21
6.36396971550627
 31
0.0
  0
LINE
  5
F1
102
{ACAD_REACTORS
330
1D8
330
1D9
102
}
330
76
100
AcDbEntity
  8
0
  6
Continuous
 62
     2
100
AcDbLine
 10
-43.09041043267936
 20
12.35272510009028
 30
0.0
 11
-37.61709834196256
 21
12.35272510009028
 31
0.0
  0
LINE
  5
F2
102
{ACAD_REACTORS
330
1D8
330
1D9
102
}
330
76
100
AcDbEntity
  8
0
  6
Continuous
 62
     2
100
AcDbLine
 10
-37.19285372657868
 20
11.92848048470648
 30
0.0
 11
-37.19285372657868
 21
6.36396971550627
 31
0.0
  0
LINE
  5
F3
102
{ACAD_REACTORS
330
1D8
330
1D9
102
}
330
76
100
AcDbEntity
  8
0
  6
Continuous
 62
     2
100
AcDbLine
 10
-37.61709834196256
 20
5.93972510012298
 30
0.0
 11
-43.09041043267936
 21
5.93972510012298
 31
0.0
  0
LINE
  5
F4
102
{ACAD_REACTORS
330
1D8
330
1D9
102
}
330
76
100
AcDbEntity
  8
0
  6
Continuous
 62
     2
100
AcDbLine
 10
-40.70496557184666
 20
6.96799757875658
 30
0.0
 11
-40.70496557184666
 21
8.49876851028819
 31
0.0
  0
LINE
  5
F5
102
{ACAD_REACTORS
330
1D8
330
1D9
102
}
330
76
100
AcDbEntity
  8
0
  6
Continuous
 62
     2
100
AcDbLine
 10
-40.70496557184666
 20
10.72042800241317
 30
0.0
 11
-40.70496557184666
 21
11.32445262147368
 31
0.0
  0
LINE
  5
F6
102
{ACAD_REACTORS
330
1D8
330
1D9
102
}
330
76
100
AcDbEntity
  8
0
  6
Continuous
 62
     2
100
AcDbLine
 10
-42.49651575593288
 20
11.64016954454988
 30
0.0
 11
-41.02068249492325
 21
11.64016954454988
 31
0.0
  0
LINE
  5
F7
102
{ACAD_REACTORS
330
1D8
330
1D9
102
}
330
76
100
AcDbEntity
  8
0
  6
Continuous
 62
     2
100
AcDbLine
 10
-42.81223267900856
 20
11.32445262147368
 30
0.0
 11
-42.81223267900856
 21
6.96799757875658
 31
0.0
  0
LINE
  5
F8
102
{ACAD_REACTORS
330
1DE
330
1DF
102
}
330
76
100
AcDbEntity
  8
0
  6
Continuous
 62
     2
100
AcDbLine
 10
-35.47523223545775
 20
10.24199381744109
 30
0.0
 11
-34.71646464767747
 21
10.24199381744109
 31
0.0
  0
LINE
  5
F9
102
{ACAD_REACTORS
330
1DE
330
1DF
102
}
330
76
100
AcDbEntity
  8
0
  6
Continuous
 62
     2
100
AcDbLine
 10
-36.71573664571187
 20
12.35272510010847
 30
0.0
 11
-34.71646464767747
 21
12.35272510010847
 31
0.0
  0
LINE
  5
FA
102
{ACAD_REACTORS
330
1DE
330
1DF
102
}
330
76
100
AcDbEntity
  8
0
  6
Continuous
 62
     2
100
AcDbLine
 10
-36.71573664571187
 20
12.35272510010847
 30
0.0
 11
-36.71573664571187
 21
9.29891557629728
 31
0.0
  0
LINE
  5
FB
102
{ACAD_REACTORS
330
1DE
330
1DF
102
}
330
76
100
AcDbEntity
  8
0
  6
Continuous
 62
     2
100
AcDbLine
 10
-35.47523223545775
 20
10.98389160532616
 30
0.0
 11
-35.15793717391586
 21
10.98389160532616
 31
0.0
  0
LINE
  5
FC
102
{ACAD_REACTORS
330
1DE
330
1DF
102
}
330
76
100
AcDbEntity
  8
0
  6
Continuous
 62
     2
100
AcDbLine
 10
-35.47523223545775
 20
11.68961925466837
 30
0.0
 11
-35.15793717391586
 21
11.68961925466837
 31
0.0
  0
LINE
  5
FD
102
{ACAD_REACTORS
330
1EC
330
1ED
102
}
330
76
100
AcDbEntity
  8
0
  6
Continuous
 62
     2
100
AcDbLine
 10
-32.32625950173755
 20
11.28389176677388
 30
0.0
 11
-31.27660192383007
 21
11.28389176677388
 31
0.0
  0
LINE
  5
FE
102
{ACAD_REACTORS
330
1EC
330
1ED
102
}
330
76
100
AcDbEntity
  8
0
  6
Continuous
 62
     2
100
AcDbLine
 10
-32.32625950173755
 20
12.35272510010847
 30
0.0
 11
-32.32625950173755
 21
11.28389176677388
 31
0.0
  0
LINE
  5
FF
102
{ACAD_REACTORS
330
1EC
330
1ED
102
}
330
76
100
AcDbEntity
  8
0
  6
Continuous
 62
     2
100
AcDbLine
 10
-33.51905220390415
 20
12.35272510010847
 30
0.0
 11
-32.32625950173755
 21
12.35272510010847
 31
0.0
  0
LINE
  5
100
102
{ACAD_REACTORS
330
1EC
330
1ED
102
}
330
76
100
AcDbEntity
  8
0
  6
Continuous
 62
     2
100
AcDbLine
 10
-32.32625950173755
 20
9.29891557629728
 30
0.0
 11
-33.51905220390415
 21
9.29891557629728
 31
0.0
  0
LINE
  5
101
102
{ACAD_REACTORS
330
1EC
330
1ED
102
}
330
76
100
AcDbEntity
  8
0
  6
Continuous
 62
     2
100
AcDbLine
 10
-31.27660192383007
 20
9.29891557629728
 30
0.0
 11
-31.27660192383007
 21
10.43318768514109
 31
0.0
  0
LINE
  5
102
102
{ACAD_REACTORS
330
1EC
330
1ED
102
}
330
76
100
AcDbEntity
  8
0
  6
Continuous
 62
     2
100
AcDbLine
 10
-30.08380922166367
 20
9.29891557629728
 30
0.0
 11
-31.27660192383007
 21
9.29891557629728
 31
0.0
  0
LINE
  5
103
102
{ACAD_REACTORS
330
1EC
330
1ED
102
}
330
76
100
AcDbEntity
  8
0
  6
Continuous
 62
     2
100
AcDbLine
 10
-30.08380922166367
 20
12.35272510010847
 30
0.0
 11
-30.08380922166367
 21
9.29891557629728
 31
0.0
  0
LINE
  5
104
102
{ACAD_REACTORS
330
1DA
330
1DB
102
}
330
76
100
AcDbEntity
  8
0
  6
Continuous
 62
     2
100
AcDbLine
 10
-26.60085453133675
 20
10.47681353548148
 30
0.0
 11
-25.26492670490907
 21
10.47681353548148
 31
0.0
  0
LINE
  5
105
102
{ACAD_REACTORS
330
1DA
330
1DB
102
}
330
76
100
AcDbEntity
  8
0
  6
Continuous
 62
     2
100
AcDbLine
 10
-25.26492670490907
 20
10.47681353548148
 30
0.0
 11
-25.26492670490907
 21
11.17482714092378
 31
0.0
  0
LINE
  5
106
102
{ACAD_REACTORS
330
1DA
330
1DB
102
}
330
76
100
AcDbEntity
  8
0
  6
Continuous
 62
     2
100
AcDbLine
 10
-25.26492670490907
 20
11.17482714092378
 30
0.0
 11
-26.60085453133675
 21
11.17482714092378
 31
0.0
  0
LINE
  5
107
102
{ACAD_REACTORS
330
1DA
330
1DB
102
}
330
76
100
AcDbEntity
  8
0
  6
Continuous
 62
     2
100
AcDbLine
 10
-26.60085453133675
 20
11.17482714092378
 30
0.0
 11
-26.60085453133675
 21
11.65471149466549
 31
0.0
  0
LINE
  5
108
102
{ACAD_REACTORS
330
1EA
330
1EB
102
}
330
76
100
AcDbEntity
  8
0
  6
Continuous
 62
     2
100
AcDbLine
 10
-30.27480698489586
 20
5.93972510012298
 30
0.0
 11
-29.08201428272827
 21
5.93972510012298
 31
0.0
  0
LINE
  5
109
102
{ACAD_REACTORS
330
1EA
330
1EB
102
}
330
76
100
AcDbEntity
  8
0
  6
Continuous
 62
     2
100
AcDbLine
 10
-27.84150987247537
 20
5.93972510012298
 30
0.0
 11
-26.64871717030897
 21
5.93972510012298
 31
0.0
  0
LINE
  5
10A
102
{ACAD_REACTORS
330
1EA
330
1EB
102
}
330
76
100
AcDbEntity
  8
0
  6
Continuous
 62
     2
100
AcDbLine
 10
-29.08201428272827
 20
8.99353462393407
 30
0.0
 11
-30.27480698489586
 21
8.99353462393407
 31
0.0
  0
LINE
  5
10B
102
{ACAD_REACTORS
330
1EA
330
1EB
102
}
330
76
100
AcDbEntity
  8
0
  6
Continuous
 62
     2
100
AcDbLine
 10
-30.27480698489586
 20
8.99353462393407
 30
0.0
 11
-30.27480698489586
 21
5.93972510012298
 31
0.0
  0
LINE
  5
10C
102
{ACAD_REACTORS
330
1E8
330
1E9
102
}
330
76
100
AcDbEntity
  8
0
  6
Continuous
 62
     2
100
AcDbLine
 10
-22.59307105205565
 20
12.35272510010847
 30
0.0
 11
-22.59307105205565
 21
11.04394958990329
 31
0.0
  0
LINE
  5
10D
102
{ACAD_REACTORS
330
1E8
330
1E9
102
}
330
76
100
AcDbEntity
  8
0
  6
Continuous
 62
     2
100
AcDbLine
 10
-23.83357546230965
 20
12.35272510010847
 30
0.0
 11
-25.02636816447617
 21
12.35272510010847
 31
0.0
  0
LINE
  5
10E
102
{ACAD_REACTORS
330
1E8
330
1E9
102
}
330
76
100
AcDbEntity
  8
0
  6
Continuous
 62
     2
100
AcDbLine
 10
-25.02636816447617
 20
12.35272510010847
 30
0.0
 11
-25.02636816447617
 21
9.29891557629728
 31
0.0
  0
LINE
  5
10F
102
{ACAD_REACTORS
330
1E8
330
1E9
102
}
330
76
100
AcDbEntity
  8
0
  6
Continuous
 62
     2
100
AcDbLine
 10
-23.83357546230965
 20
9.29891557629728
 30
0.0
 11
-23.83357546230965
 21
10.60769108650197
 31
0.0
  0
LINE
  5
110
102
{ACAD_REACTORS
330
1E6
330
1E7
102
}
330
76
100
AcDbEntity
  8
0
  6
Continuous
 62
     2
100
AcDbLine
 10
-24.50169030640765
 20
5.93972510012298
 30
0.0
 11
-24.50169030640765
 21
8.20826931781048
 31
0.0
  0
LINE
  5
111
102
{ACAD_REACTORS
330
1E6
330
1E7
102
}
330
76
100
AcDbEntity
  8
0
  6
Continuous
 62
     2
100
AcDbLine
 10
-24.50169030640765
 20
8.20826931781048
 30
0.0
 11
-23.69059126893515
 21
8.20826931781048
 31
0.0
  0
LINE
  5
112
102
{ACAD_REACTORS
330
1E6
330
1E7
102
}
330
76
100
AcDbEntity
  8
0
  6
Continuous
 62
     2
100
AcDbLine
 10
-23.69059126893515
 20
8.20826931781048
 30
0.0
 11
-23.69059126893515
 21
8.99353462393407
 31
0.0
  0
LINE
  5
113
102
{ACAD_REACTORS
330
1E6
330
1E7
102
}
330
76
100
AcDbEntity
  8
0
  6
Continuous
 62
     2
100
AcDbLine
 10
-23.69059126893515
 20
8.99353462393407
 30
0.0
 11
-26.50558204604877
 21
8.99353462393407
 31
0.0
  0
LINE
  5
114
102
{ACAD_REACTORS
330
1E6
330
1E7
102
}
330
76
100
AcDbEntity
  8
0
  6
Continuous
 62
     2
100
AcDbLine
 10
-26.50558204604877
 20
8.20826931781048
 30
0.0
 11
-25.69448300857417
 21
8.20826931781048
 31
0.0
  0
LINE
  5
115
102
{ACAD_REACTORS
330
1E4
330
1E5
102
}
330
76
100
AcDbEntity
  8
0
  6
Continuous
 62
     2
100
AcDbLine
 10
-22.89608544313776
 20
6.48068564434087
 30
0.0
 11
-21.76364386646395
 21
6.48068564434087
 31
0.0
  0
LINE
  5
116
102
{ACAD_REACTORS
330
1E4
330
1E5
102
}
330
76
100
AcDbEntity
  8
0
  6
Continuous
 62
     2
100
AcDbLine
 10
-20.31165940273425
 20
5.93972510012298
 30
0.0
 11
-21.55216381298817
 21
5.93972510012298
 31
0.0
  0
LINE
  5
117
102
{ACAD_REACTORS
330
1E4
330
1E5
102
}
330
76
100
AcDbEntity
  8
0
  6
Continuous
 62
     2
100
AcDbLine
 10
-22.95011685992725
 20
8.99353462393407
 30
0.0
 11
-24.34806990686656
 21
5.93972510012298
 31
0.0
  0
LINE
  5
118
102
{ACAD_REACTORS
330
1E4
330
1E5
102
}
330
76
100
AcDbEntity
  8
0
  6
Continuous
 62
     2
100
AcDbLine
 10
-23.10756549661357
 20
5.93972510012298
 30
0.0
 11
-22.89608544313776
 21
6.48068564434087
 31
0.0
  0
LINE
  5
119
102
{ACAD_REACTORS
330
1E4
330
1E5
102
}
330
76
100
AcDbEntity
  8
0
  6
Continuous
 62
     2
100
AcDbLine
 10
-22.63002989199276
 20
7.16124890964747
 30
0.0
 11
-22.32986465480036
 21
7.92906387563417
 31
0.0
  0
LINE
  5
11A
102
{ACAD_REACTORS
330
1E2
330
1E3
102
}
330
76
100
AcDbEntity
  8
0
  6
Continuous
 62
     2
100
AcDbLine
 10
-21.16171980945515
 20
9.29891557629728
 30
0.0
 11
-21.16171980945515
 21
12.35272510010847
 31
0.0
  0
LINE
  5
11B
102
{ACAD_REACTORS
330
1E2
330
1E3
102
}
330
76
100
AcDbEntity
  8
0
  6
Continuous
 62
     2
100
AcDbLine
 10
-19.92121539920225
 20
12.35272510010847
 30
0.0
 11
-19.92121539920225
 21
9.29891557629728
 31
0.0
  0
LINE
  5
11C
102
{ACAD_REACTORS
330
1E2
330
1E3
102
}
330
76
100
AcDbEntity
  8
0
  6
Continuous
 62
     2
100
AcDbLine
 10
-21.16171980945515
 20
12.35272510010847
 30
0.0
 11
-19.92121539920225
 21
12.35272510010847
 31
0.0
  0
LINE
  5
11D
102
{ACAD_REACTORS
330
1E0
330
1E1
102
}
330
76
100
AcDbEntity
  8
0
  6
Continuous
 62
     2
100
AcDbLine
 10
-17.70262097317146
 20
10.08664736159099
 30
0.0
 11
-17.00603003510597
 21
9.29891557629728
 31
0.0
  0
LINE
  5
11E
102
{ACAD_REACTORS
330
1E0
330
1E1
102
}
330
76
100
AcDbEntity
  8
0
  6
Continuous
 62
     2
100
AcDbLine
 10
-17.00603003510597
 20
9.29891557629728
 30
0.0
 11
-15.60330581735767
 21
9.29891557629728
 31
0.0
  0
LINE
  5
11F
102
{ACAD_REACTORS
330
1E0
330
1E1
102
}
330
76
100
AcDbEntity
  8
0
  6
Continuous
 62
     2
100
AcDbLine
 10
-17.00125886429797
 20
10.87977457007227
 30
0.0
 11
-15.60330581735767
 21
9.29891557629728
 31
0.0
  0
LINE
  5
120
102
{ACAD_REACTORS
330
1E0
330
1E1
102
}
330
76
100
AcDbEntity
  8
0
  6
Continuous
 62
     2
100
AcDbLine
 10
-17.00125886429797
 20
10.87977457007227
 30
0.0
 11
-15.69872923353145
 21
12.35272510010847
 31
0.0
  0
LINE
  5
121
102
{ACAD_REACTORS
330
1E0
330
1E1
102
}
330
76
100
AcDbEntity
  8
0
  6
Continuous
 62
     2
100
AcDbLine
 10
-17.70262097317146
 20
11.67290177855298
 30
0.0
 11
-17.10145345127867
 21
12.35272510010847
 31
0.0
  0
LINE
  5
122
102
{ACAD_REACTORS
330
1E0
330
1E1
102
}
330
76
100
AcDbEntity
  8
0
  6
Continuous
 62
     2
100
AcDbLine
 10
-18.30378849506326
 20
12.35272510010847
 30
0.0
 11
-17.70262097317146
 21
11.67290177855298
 31
0.0
  0
LINE
  5
123
102
{ACAD_REACTORS
330
1E0
330
1E1
102
}
330
76
100
AcDbEntity
  8
0
  6
Continuous
 62
     2
100
AcDbLine
 10
-18.30378849506326
 20
12.35272510010847
 30
0.0
 11
-19.70651271281255
 21
12.35272510010847
 31
0.0
  0
LINE
  5
124
102
{ACAD_REACTORS
330
1D6
330
1D7
102
}
330
76
100
AcDbEntity
  8
0
  6
Continuous
 62
     2
100
AcDbLine
 10
-17.60719755699876
 20
5.93972510012298
 30
0.0
 11
-16.41440485483105
 21
5.93972510012298
 31
0.0
  0
LINE
  5
125
102
{ACAD_REACTORS
330
1D6
330
1D7
102
}
330
76
100
AcDbEntity
  8
0
  6
Continuous
 62
     2
100
AcDbLine
 10
-16.41440485483105
 20
5.93972510012298
 30
0.0
 11
-16.41440485483105
 21
8.20826931781048
 31
0.0
  0
LINE
  5
126
102
{ACAD_REACTORS
330
1D6
330
1D7
102
}
330
76
100
AcDbEntity
  8
0
  6
Continuous
 62
     2
100
AcDbLine
 10
-16.41440485483105
 20
8.20826931781048
 30
0.0
 11
-15.60330581735767
 21
8.20826931781048
 31
0.0
  0
LINE
  5
127
102
{ACAD_REACTORS
330
1D6
330
1D7
102
}
330
76
100
AcDbEntity
  8
0
  6
Continuous
 62
     2
100
AcDbLine
 10
-15.60330581735767
 20
8.20826931781048
 30
0.0
 11
-15.60330581735767
 21
8.99353462393407
 31
0.0
  0
LINE
  5
128
102
{ACAD_REACTORS
330
1D6
330
1D7
102
}
330
76
100
AcDbEntity
  8
0
  6
Continuous
 62
     2
100
AcDbLine
 10
-18.98825133598635
 20
8.99353462393358
 30
0.0
 11
-15.60330581735767
 21
8.99353462393407
 31
0.0
  0
LINE
  5
129
102
{ACAD_REACTORS
330
1D6
330
1D7
102
}
330
76
100
AcDbEntity
  8
0
  6
Continuous
 62
     2
100
AcDbLine
 10
-17.60719755699876
 20
8.20826931781048
 30
0.0
 11
-17.60719755699876
 21
5.93972510012298
 31
0.0
  0
LINE
  5
12A
102
{ACAD_REACTORS
330
1D8
330
1D9
102
}
330
76
100
AcDbEntity
  8
0
  6
Continuous
 62
     2
100
AcDbLine
 10
-40.23668399247796
 20
7.91860524968749
 30
0.0
 11
-40.23668399247796
 21
8.50045665638257
 31
0.0
  0
LINE
  5
12B
102
{ACAD_REACTORS
330
1D8
330
1D9
102
}
330
76
100
AcDbEntity
  8
0
  6
Continuous
 62
     2
100
AcDbLine
 10
-40.23668399247796
 20
10.71873985631879
 30
0.0
 11
-40.23668399247796
 21
11.32427514482558
 31
0.0
  0
LINE
  5
12C
330
76
100
AcDbEntity
  8
1
  6
Continuous
 62
     6
100
AcDbLine
 10
-61.70650540787474
 20
-1.35377489989332
 30
0.0
 11
-47.75130993462477
 21
-1.35377489989344
 31
0.0
  0
LINE
  5
12D
330
76
100
AcDbEntity
  8
1
  6
Continuous
 62
     6
100
AcDbLine
 10
-111.706505407875
 20
-1.35377489989332
 30
0.0
 11
-116.7513099346247
 21
-1.35377489989332
 31
0.0
  0
LINE
  5
12E
330
76
100
AcDbEntity
  8
1
  6
Continuous
 62
     6
100
AcDbLine
 10
38.29349459212523
 20
-1.35377489989332
 30
0.0
 11
81.79349459212524
 21
-1.35377489989332
 31
0.0
  0
LINE
  5
12F
330
76
100
AcDbEntity
  8
1
  6
Continuous
 62
     6
100
AcDbLine
 10
-11.70650540787477
 20
-1.35377489989332
 30
0.0
 11
-29.55130993462475
 21
-1.35377489989332
 31
0.0
  0
LINE
  5
130
330
76
100
AcDbEntity
  8
1
  6
Continuous
 62
     2
100
AcDbLine
 10
81.79349459212524
 20
-1.35377489989332
 30
0.0
 11
86.79349459212423
 21
-1.35377489989332
 31
0.0
  0
LINE
  5
131
330
76
100
AcDbEntity
  8
1
  6
Continuous
 62
     2
100
AcDbLine
 10
81.79349459212524
 20
-1.35377489989332
 30
0.0
 11
81.79349459212524
 21
-6.35377489989344
 31
0.0
  0
LINE
  5
132
330
76
100
AcDbEntity
  8
1
  6
Continuous
 62
     6
100
AcDbLine
 10
-47.75130993462477
 20
15.64622510010668
 30
0.0
 11
-11.35130993462485
 21
15.64622510010668
 31
0.0
  0
LINE
  5
133
330
76
100
AcDbEntity
  8
1
  6
Continuous
 62
     2
100
AcDbLine
 10
86.79349459212423
 20
-6.35377489989344
 30
0.0
 11
86.79349459212423
 21
-1.35377489989332
 31
0.0
  0
LINE
  5
134
330
76
100
AcDbEntity
  8
1
  6
Continuous
 62
     2
100
AcDbLine
 10
86.79349459212423
 20
-6.35377489989344
 30
0.0
 11
81.79349459212524
 21
-6.35377489989344
 31
0.0
  0
LINE
  5
135
330
76
100
AcDbEntity
  8
1
  6
Continuous
 62
     2
100
AcDbLine
 10
81.79349459212524
 20
-6.35377489989344
 30
0.0
 11
38.29349459212523
 21
-6.35377489989344
 31
0.0
  0
LINE
  5
136
330
76
100
AcDbEntity
  8
1
  6
Continuous
 62
     6
100
AcDbLine
 10
81.79349459212693
 20
15.64622510010668
 30
0.0
 11
81.79349459212614
 21
48.64622510010679
 31
0.0
  0
LINE
  5
137
330
76
100
AcDbEntity
  8
1
  6
Continuous
 62
     2
100
AcDbLine
 10
86.79349459212423
 20
203.6462251001067
 30
0.0
 11
-61.70650540787474
 21
203.6462251001067
 31
0.0
  0
LINE
  5
138
330
76
100
AcDbEntity
  8
1
  6
Continuous
 62
     6
100
AcDbLine
 10
81.79349459212423
 20
183.6462251001067
 30
0.0
 11
-205.2065054078738
 21
183.6462251001067
 31
0.0
  0
LINE
  5
139
330
76
100
AcDbEntity
  8
1
  6
Continuous
 62
     2
100
AcDbLine
 10
81.79349459212614
 20
48.64622510010679
 30
0.0
 11
86.79349459212423
 21
48.64622510010679
 31
0.0
  0
LINE
  5
13A
330
76
100
AcDbEntity
  8
1
  6
Continuous
 62
     6
100
AcDbLine
 10
81.79349459212614
 20
48.64622510010679
 30
0.0
 11
81.79349459212564
 21
98.64622510010659
 31
0.0
  0
LINE
  5
13B
330
76
100
AcDbEntity
  8
1
  6
Continuous
 62
     2
100
AcDbLine
 10
86.79349459212423
 20
48.64622510010679
 30
0.0
 11
86.79349459212423
 21
98.64622510010659
 31
0.0
  0
LINE
  5
13C
330
76
100
AcDbEntity
  8
1
  6
Continuous
 62
     2
100
AcDbLine
 10
81.79349459212564
 20
98.64622510010659
 30
0.0
 11
86.79349459212423
 21
98.64622510010659
 31
0.0
  0
LINE
  5
13D
330
76
100
AcDbEntity
  8
1
  6
Continuous
 62
     6
100
AcDbLine
 10
81.79349459212564
 20
98.64622510010659
 30
0.0
 11
81.79349459212443
 21
148.6462251001067
 31
0.0
  0
LINE
  5
13E
330
76
100
AcDbEntity
  8
1
  6
Continuous
 62
     2
100
AcDbLine
 10
86.79349459212423
 20
98.64622510010659
 30
0.0
 11
86.79349459212423
 21
148.6462251001067
 31
0.0
  0
LINE
  5
13F
330
76
100
AcDbEntity
  8
1
  6
Continuous
 62
     2
100
AcDbLine
 10
81.79349459212443
 20
148.6462251001067
 30
0.0
 11
86.79349459212423
 21
148.6462251001067
 31
0.0
  0
LINE
  5
140
330
76
100
AcDbEntity
  8
1
  6
Continuous
 62
     6
100
AcDbLine
 10
81.79349459212443
 20
148.6462251001067
 30
0.0
 11
81.79349459212423
 21
183.6462251001067
 31
0.0
  0
LINE
  5
141
330
76
100
AcDbEntity
  8
1
  6
Continuous
 62
     2
100
AcDbLine
 10
86.79349459212423
 20
148.6462251001067
 30
0.0
 11
86.79349459212423
 21
203.6462251001067
 31
0.0
  0
LINE
  5
142
330
76
100
AcDbEntity
  8
1
  6
Continuous
 62
     2
100
AcDbLine
 10
86.79349459212423
 20
-1.35377489989332
 30
0.0
 11
86.79349459212423
 21
48.64622510010679
 31
0.0
  0
LINE
  5
143
330
76
100
AcDbEntity
  8
1
  6
Continuous
 62
     2
100
AcDbLine
 10
-61.70650540787474
 20
203.6462251001067
 30
0.0
 11
-210.2065054078738
 21
203.6462251001067
 31
0.0
  0
LINE
  5
144
330
76
100
AcDbEntity
  8
1
  6
Continuous
 62
     2
100
AcDbLine
 10
-61.70650540787474
 20
203.6462251001067
 30
0.0
 11
-61.70650540787474
 21
194.4375332554054
 31
0.0
  0
LINE
  5
145
330
76
100
AcDbEntity
  8
1
  6
Continuous
 62
     2
100
AcDbLine
 10
-210.2065054078738
 20
-6.35377489989344
 30
0.0
 11
-205.2065054078729
 21
-6.35377489989344
 31
0.0
  0
LINE
  5
146
330
76
100
AcDbEntity
  8
1
  6
Continuous
 62
     2
100
AcDbLine
 10
-210.2065054078738
 20
203.6462251001067
 30
0.0
 11
-210.2065054078738
 21
148.6462251001067
 31
0.0
  0
LINE
  5
147
330
76
100
AcDbEntity
  8
1
  6
Continuous
 62
     6
100
AcDbLine
 10
-205.2065054078738
 20
183.6462251001067
 30
0.0
 11
-205.2065054078738
 21
148.6462251001067
 31
0.0
  0
LINE
  5
148
330
76
100
AcDbEntity
  8
1
  6
Continuous
 62
     2
100
AcDbLine
 10
-210.2065054078738
 20
148.6462251001067
 30
0.0
 11
-205.2065054078738
 21
148.6462251001067
 31
0.0
  0
LINE
  5
149
330
76
100
AcDbEntity
  8
1
  6
Continuous
 62
     2
100
AcDbLine
 10
-210.2065054078738
 20
148.6462251001067
 30
0.0
 11
-210.2065054078738
 21
98.64622510010659
 31
0.0
  0
LINE
  5
14A
330
76
100
AcDbEntity
  8
1
  6
Continuous
 62
     6
100
AcDbLine
 10
-205.2065054078738
 20
148.6462251001067
 30
0.0
 11
-205.2065054078733
 21
98.64622510010659
 31
0.0
  0
LINE
  5
14B
330
76
100
AcDbEntity
  8
1
  6
Continuous
 62
     2
100
AcDbLine
 10
-210.2065054078738
 20
98.64622510010659
 30
0.0
 11
-205.2065054078733
 21
98.64622510010659
 31
0.0
  0
LINE
  5
14C
330
76
100
AcDbEntity
  8
1
  6
Continuous
 62
     2
100
AcDbLine
 10
-210.2065054078738
 20
98.64622510010659
 30
0.0
 11
-210.2065054078738
 21
48.64622510010679
 31
0.0
  0
LINE
  5
14D
330
76
100
AcDbEntity
  8
1
  6
Continuous
 62
     6
100
AcDbLine
 10
-205.2065054078733
 20
98.64622510010659
 30
0.0
 11
-205.206505407873
 21
48.64622510010679
 31
0.0
  0
LINE
  5
14E
330
76
100
AcDbEntity
  8
1
  6
Continuous
 62
     2
100
AcDbLine
 10
-210.2065054078738
 20
48.64622510010679
 30
0.0
 11
-205.206505407873
 21
48.64622510010679
 31
0.0
  0
LINE
  5
14F
330
76
100
AcDbEntity
  8
1
  6
Continuous
 62
     2
100
AcDbLine
 10
-210.2065054078738
 20
48.64622510010679
 30
0.0
 11
-210.2065054078738
 21
-1.35377489989332
 31
0.0
  0
LINE
  5
150
330
76
100
AcDbEntity
  8
1
  6
Continuous
 62
     6
100
AcDbLine
 10
-205.206505407873
 20
48.64622510010679
 30
0.0
 11
-205.2065054078729
 21
-1.35377489989332
 31
0.0
  0
LINE
  5
151
330
76
100
AcDbEntity
  8
1
  6
Continuous
 62
     2
100
AcDbLine
 10
-161.7065054078747
 20
-6.35377489989344
 30
0.0
 11
-161.7065054078747
 21
-1.35377489989332
 31
0.0
  0
LINE
  5
152
330
76
100
AcDbEntity
  8
1
  6
Continuous
 62
     2
100
AcDbLine
 10
-161.7065054078747
 20
-6.35377489989344
 30
0.0
 11
-111.706505407875
 21
-6.35377489989344
 31
0.0
  0
LINE
  5
153
330
76
100
AcDbEntity
  8
1
  6
Continuous
 62
     2
100
AcDbLine
 10
-111.706505407875
 20
-6.35377489989344
 30
0.0
 11
-111.706505407875
 21
-1.35377489989332
 31
0.0
  0
LINE
  5
154
330
76
100
AcDbEntity
  8
1
  6
Continuous
 62
     2
100
AcDbLine
 10
-111.706505407875
 20
-6.35377489989344
 30
0.0
 11
-61.70650540787474
 21
-6.35377489989344
 31
0.0
  0
LINE
  5
155
330
76
100
AcDbEntity
  8
1
  6
Continuous
 62
     2
100
AcDbLine
 10
-61.70650540787474
 20
-6.35377489989344
 30
0.0
 11
-61.70650540787474
 21
-1.35377489989332
 31
0.0
  0
LINE
  5
156
330
76
100
AcDbEntity
  8
1
  6
Continuous
 62
     2
100
AcDbLine
 10
-61.70650540787474
 20
-6.35377489989344
 30
0.0
 11
-11.70650540787477
 21
-6.35377489989344
 31
0.0
  0
LINE
  5
157
330
76
100
AcDbEntity
  8
1
  6
Continuous
 62
     2
100
AcDbLine
 10
-11.70650540787477
 20
-6.35377489989344
 30
0.0
 11
-11.70650540787477
 21
-1.35377489989332
 31
0.0
  0
LINE
  5
158
330
76
100
AcDbEntity
  8
1
  6
Continuous
 62
     2
100
AcDbLine
 10
38.29349459212523
 20
-6.35377489989344
 30
0.0
 11
38.29349459212523
 21
-1.35377489989332
 31
0.0
  0
LINE
  5
159
330
76
100
AcDbEntity
  8
1
  6
Continuous
 62
     2
100
AcDbLine
 10
38.29349459212523
 20
-6.35377489989344
 30
0.0
 11
-11.70650540787477
 21
-6.35377489989344
 31
0.0
  0
LINE
  5
15A
330
76
100
AcDbEntity
  8
1
  6
Continuous
 62
     2
100
AcDbLine
 10
-205.2065054078729
 20
-1.35377489989332
 30
0.0
 11
-205.2065054078729
 21
-6.35377489989344
 31
0.0
  0
LINE
  5
15B
330
76
100
AcDbEntity
  8
1
  6
Continuous
 62
     2
100
AcDbLine
 10
-205.2065054078729
 20
-6.35377489989344
 30
0.0
 11
-161.7065054078747
 21
-6.35377489989344
 31
0.0
  0
LINE
  5
15C
330
76
100
AcDbEntity
  8
1
  6
Continuous
 62
     2
100
AcDbLine
 10
-205.2065054078729
 20
-1.35377489989332
 30
0.0
 11
-210.2065054078738
 21
-1.35377489989332
 31
0.0
  0
LINE
  5
15D
330
76
100
AcDbEntity
  8
1
  6
Continuous
 62
     2
100
AcDbLine
 10
-210.2065054078738
 20
-1.35377489989332
 30
0.0
 11
-210.2065054078738
 21
-6.35377489989344
 31
0.0
  0
LINE
  5
15E
330
76
100
AcDbEntity
  8
1
  6
Continuous
 62
     6
100
AcDbLine
 10
81.79349459212524
 20
-1.35377489989332
 30
0.0
 11
81.79349459212654
 21
7.14622510010668
 31
0.0
  0
LINE
  5
15F
330
76
100
AcDbEntity
  8
1
  6
Continuous
 62
     6
100
AcDbLine
 10
-11.35130993462485
 20
-1.35377489989344
 30
0.0
 11
38.29349459212523
 21
-1.35377489989332
 31
0.0
  0
LINE
  5
160
330
76
100
AcDbEntity
  8
1
  6
Continuous
 62
     6
100
AcDbLine
 10
-164.006505407875
 20
-1.35377489989344
 30
0.0
 11
-161.7065054078747
 21
-1.35377489989332
 31
0.0
  0
LINE
  5
161
330
76
100
AcDbEntity
  8
1
  6
Continuous
 62
     6
100
AcDbLine
 10
-61.70650540787474
 20
-1.35377489989332
 30
0.0
 11
-111.706505407875
 21
-1.35377489989332
 31
0.0
  0
LINE
  5
162
330
76
100
AcDbEntity
  8
1
  6
Continuous
 62
     7
100
AcDbLine
 10
-47.75130993462477
 20
15.64622510010668
 30
0.0
 11
-47.75130993462477
 21
2.89622510010656
 31
0.0
  0
LINE
  5
163
330
76
100
AcDbEntity
  8
1
  6
Continuous
 62
     7
100
AcDbLine
 10
-11.35130993462485
 20
15.64622510010668
 30
0.0
 11
-11.35130993462485
 21
2.89622510010668
 31
0.0
  0
LINE
  5
164
330
76
100
AcDbEntity
  8
1
  6
Continuous
 62
     6
100
AcDbLine
 10
-164.006505407875
 20
-1.35377489989344
 30
0.0
 11
-170.206505407873
 21
-1.35377489989332
 31
0.0
  0
LINE
  5
165
330
76
100
AcDbEntity
  8
1
  6
Continuous
 62
     6
100
AcDbLine
 10
-11.35130993462485
 20
-1.35377489989344
 30
0.0
 11
-11.70650540787477
 21
-1.35377489989332
 31
0.0
  0
LINE
  5
166
330
76
100
AcDbEntity
  8
1
  6
Continuous
 62
     6
100
AcDbLine
 10
81.79349459212693
 20
15.64622510010668
 30
0.0
 11
81.79349459212654
 21
7.14622510010668
 31
0.0
  0
LINE
  5
167
330
76
100
AcDbEntity
  8
1
  6
Continuous
 62
     6
100
AcDbLine
 10
-170.206505407873
 20
-1.35377489989332
 30
0.0
 11
-205.2065054078729
 21
-1.35377489989332
 31
0.0
  0
LINE
  5
168
330
76
100
AcDbEntity
  8
1
  6
Continuous
 62
     2
100
AcDbLine
 10
-43.51465504806217
 20
21.02122510010659
 30
0.0
 11
-38.51465504806217
 21
22.27122510010659
 31
0.0
  0
LINE
  5
169
330
76
100
AcDbEntity
  8
1
  6
Continuous
 62
     2
100
AcDbLine
 10
-43.51465504806217
 20
18.52122510010659
 30
0.0
 11
-43.51465504806217
 21
21.02122510010659
 31
0.0
  0
LINE
  5
16A
330
76
100
AcDbEntity
  8
1
  6
Continuous
 62
     2
100
AcDbLine
 10
-38.51465504806217
 20
17.27122510010659
 30
0.0
 11
-43.51465504806217
 21
18.52122510010659
 31
0.0
  0
LINE
  5
16B
330
76
100
AcDbEntity
  8
1
  6
Continuous
 62
     2
100
AcDbLine
 10
-38.51465504806217
 20
22.27122510010659
 30
0.0
 11
-38.51465504806217
 21
17.27122510010659
 31
0.0
  0
LINE
  5
16C
330
76
100
AcDbEntity
  8
1
  6
Continuous
 62
     7
100
AcDbLine
 10
-47.75130993462477
 20
2.89622510010656
 30
0.0
 11
-29.55130993462475
 21
2.89622510010668
 31
0.0
  0
LINE
  5
16D
330
76
100
AcDbEntity
  8
1
  6
Continuous
 62
     7
100
AcDbLine
 10
-47.75130993462477
 20
2.89622510010656
 30
0.0
 11
-47.75130993462477
 21
-1.35377489989344
 31
0.0
  0
LINE
  5
16E
330
76
100
AcDbEntity
  8
1
  6
Continuous
 62
     7
100
AcDbLine
 10
-11.35130993462485
 20
2.89622510010668
 30
0.0
 11
-11.35130993462485
 21
-1.35377489989344
 31
0.0
  0
LINE
  5
16F
330
76
100
AcDbEntity
  8
1
  6
Continuous
 62
     7
100
AcDbLine
 10
-29.55130993462475
 20
2.89622510010668
 30
0.0
 11
-29.55130993462475
 21
-1.35377489989332
 31
0.0
  0
LINE
  5
170
330
76
100
AcDbEntity
  8
1
  6
Continuous
 62
     6
100
AcDbLine
 10
-29.55130993462475
 20
-1.35377489989332
 30
0.0
 11
-47.75130993462477
 21
-1.35377489989344
 31
0.0
  0
LINE
  5
171
330
76
100
AcDbEntity
  8
1
  6
Continuous
 62
     7
100
AcDbLine
 10
-29.55130993462475
 20
2.89622510010668
 30
0.0
 11
-11.35130993462485
 21
2.89622510010668
 31
0.0
  0
LINE
  5
172
330
76
100
AcDbEntity
  8
1
  6
Continuous
 62
     6
100
AcDbLine
 10
-47.75130993462477
 20
24.14622510010668
 30
0.0
 11
81.79349459212693
 21
24.14622510010668
 31
0.0
  0
ARC
  5
173
102
{ACAD_REACTORS
330
1DC
330
1DD
102
}
330
76
100
AcDbEntity
  8
0
  6
Continuous
 62
     2
100
AcDbCircle
 10
-32.35966193566478
 20
7.46662986202827
 30
0.0
 40
0.7717997786796975
100
AcDbArc
 50
321.8795802028419
 51
38.12041979715318
  0
ARC
  5
174
102
{ACAD_REACTORS
330
1DC
330
1DD
102
}
330
76
100
AcDbEntity
  8
0
  6
Continuous
 62
     2
100
AcDbCircle
 10
-32.15992189931836
 20
7.30989868390827
 30
0.0
 40
0.5179085730137409
100
AcDbArc
 50
218.1204197971927
 51
321.8795802028008
  0
ARC
  5
175
102
{ACAD_REACTORS
330
1DC
330
1DD
102
}
330
76
100
AcDbEntity
  8
0
  6
Continuous
 62
     2
100
AcDbCircle
 10
-31.96018186297226
 20
7.46662986202827
 30
0.0
 40
0.7717997786794721
100
AcDbArc
 50
141.8795802028367
 51
218.1204197971682
  0
ARC
  5
176
102
{ACAD_REACTORS
330
1DC
330
1DD
102
}
330
76
100
AcDbEntity
  8
0
  6
Continuous
 62
     2
100
AcDbCircle
 10
-32.15992189931836
 20
7.62336104014878
 30
0.0
 40
0.5179085730132971
100
AcDbArc
 50
38.12041979714728
 51
141.8795802028593
  0
ARC
  5
177
102
{ACAD_REACTORS
330
1D4
330
1D5
102
}
330
76
100
AcDbEntity
  8
0
  6
Continuous
 62
     2
100
AcDbCircle
 10
-35.22193603488225
 20
6.05616349662009
 30
0.0
 40
2.227384008973478
100
AcDbArc
 50
58.06909105004071
 51
71.55192388186705
  0
ARC
  5
178
102
{ACAD_REACTORS
330
1D4
330
1D5
102
}
330
76
100
AcDbEntity
  8
0
  6
Continuous
 62
     2
100
AcDbCircle
 10
-34.96020833392348
 20
7.67170129136727
 30
0.0
 40
0.5115800601948751
100
AcDbArc
 50
113.3722778881984
 51
151.4785267423037
  0
ARC
  5
179
102
{ACAD_REACTORS
330
1D4
330
1D5
102
}
330
76
100
AcDbEntity
  8
0
  6
Continuous
 62
     2
100
AcDbCircle
 10
-34.58285107584317
 20
7.46662986202827
 30
0.0
 40
0.941059735333242
100
AcDbArc
 50
151.4785267422665
 51
208.5214732577062
  0
ARC
  5
17A
102
{ACAD_REACTORS
330
1D4
330
1D5
102
}
330
76
100
AcDbEntity
  8
0
  6
Continuous
 62
     2
100
AcDbCircle
 10
-35.37980890997517
 20
10.77931080728467
 30
0.0
 40
4.852596863498134
100
AcDbArc
 50
275.1581447696249
 51
285.9799912583529
  0
ARC
  5
17B
102
{ACAD_REACTORS
330
1D4
330
1D5
102
}
330
76
100
AcDbEntity
  8
0
  6
Continuous
 62
     2
100
AcDbCircle
 10
-35.09095281523926
 20
7.57942022406309
 30
0.0
 40
1.639695123939387
100
AcDbArc
 50
195.0618917770896
 51
275.1581447696393
  0
ARC
  5
17C
102
{ACAD_REACTORS
330
1D4
330
1D5
102
}
330
76
100
AcDbEntity
  8
0
  6
Continuous
 62
     2
100
AcDbCircle
 10
-35.51008065870207
 20
7.46662986202827
 30
0.0
 40
1.205656168390937
100
AcDbArc
 50
164.9381082228764
 51
195.0618917770949
  0
ARC
  5
17D
102
{ACAD_REACTORS
330
1D4
330
1D5
102
}
330
76
100
AcDbEntity
  8
0
  6
Continuous
 62
     2
100
AcDbCircle
 10
-35.09095281523926
 20
7.35383949999337
 30
0.0
 40
1.639695123940506
100
AcDbArc
 50
84.84185523036261
 51
164.9381082228864
  0
ARC
  5
17E
102
{ACAD_REACTORS
330
1D8
330
1D9
102
}
330
76
100
AcDbEntity
  8
0
  6
Continuous
 62
     2
100
AcDbCircle
 10
-39.92096706940117
 20
8.50045665638257
 30
0.0
 40
0.3157169230765328
100
AcDbArc
 50
115.3740086783519
 51
180.0
  0
ARC
  5
17F
102
{ACAD_REACTORS
330
1D8
330
1D9
102
}
330
76
100
AcDbEntity
  8
0
  6
Continuous
 62
     2
100
AcDbCircle
 10
-39.92096706940117
 20
10.71873985631879
 30
0.0
 40
0.3157169230767849
100
AcDbArc
 50
180.0
 51
244.6259913216483
  0
ARC
  5
180
102
{ACAD_REACTORS
330
1D8
330
1D9
102
}
330
76
100
AcDbEntity
  8
0
  6
Continuous
 62
     2
100
AcDbCircle
 10
-39.91535093409115
 20
9.62144019725648
 30
0.0
 40
2.018561131933266
100
AcDbArc
 50
269.8110329575858
 51
90.18896704241416
  0
ARC
  5
181
102
{ACAD_REACTORS
330
1D8
330
1D9
102
}
330
76
100
AcDbEntity
  8
0
  6
Continuous
 62
     2
100
AcDbCircle
 10
-39.92096706940117
 20
7.91860524968749
 30
0.0
 40
0.3157169230767849
100
AcDbArc
 50
180.0
 51
269.8110329574542
  0
ARC
  5
182
102
{ACAD_REACTORS
330
1D6
330
1D7
102
}
330
76
100
AcDbEntity
  8
0
  6
Continuous
 62
     2
100
AcDbCircle
 10
-18.85750685467056
 20
7.67170129136727
 30
0.0
 40
0.5115800601944154
100
AcDbArc
 50
109.3371432194857
 51
151.4785267424226
  0
ARC
  5
183
102
{ACAD_REACTORS
330
1D6
330
1D7
102
}
330
76
100
AcDbEntity
  8
0
  6
Continuous
 62
     2
100
AcDbCircle
 10
-18.85750685467056
 20
7.26155843268978
 30
0.0
 40
0.5115800601960248
100
AcDbArc
 50
208.5214732576864
 51
246.6277221118453
  0
ARC
  5
184
102
{ACAD_REACTORS
330
1D6
330
1D7
102
}
330
76
100
AcDbEntity
  8
0
  6
Continuous
 62
     2
100
AcDbCircle
 10
-19.40737917944796
 20
7.46662986202827
 30
0.0
 40
1.205656168392996
100
AcDbArc
 50
164.9381082229027
 51
195.061891777096
  0
ARC
  5
185
102
{ACAD_REACTORS
330
1D6
330
1D7
102
}
330
76
100
AcDbEntity
  8
0
  6
Continuous
 62
     2
100
AcDbCircle
 10
-18.98825133598635
 20
7.35383949999337
 30
0.0
 40
1.639695123940214
100
AcDbArc
 50
90.0
 51
164.9381082228949
  0
ARC
  5
186
102
{ACAD_REACTORS
330
1DA
330
1DB
102
}
330
76
100
AcDbEntity
  8
0
  6
Continuous
 62
     2
100
AcDbCircle
 10
-28.41524642869007
 20
10.82582033820259
 30
0.0
 40
1.526904761905881
100
AcDbArc
 50
90.0
 51
270.0
  0
ARC
  5
187
102
{ACAD_REACTORS
330
1DE
330
1DF
102
}
330
76
100
AcDbEntity
  8
0
  6
Continuous
 62
     2
100
AcDbCircle
 10
-35.15793717391586
 20
11.33675542999728
 30
0.0
 40
0.35286382467112
100
AcDbArc
 50
270.0
 51
90.0
  0
ARC
  5
188
102
{ACAD_REACTORS
330
1D8
330
1D9
102
}
330
76
100
AcDbEntity
  8
0
  6
Continuous
 62
     2
100
AcDbCircle
 10
-42.49651575593288
 20
11.32445262147368
 30
0.0
 40
0.3157169230761987
100
AcDbArc
 50
90.0
 51
180.0
  0
ARC
  5
189
102
{ACAD_REACTORS
330
1D8
330
1D9
102
}
330
76
100
AcDbEntity
  8
0
  6
Continuous
 62
     2
100
AcDbCircle
 10
-40.49809804734827
 20
9.60959825635098
 30
0.0
 40
0.91189752355761
100
AcDbArc
 50
115.1944106485279
 51
244.8055893514882
  0
ARC
  5
18A
102
{ACAD_REACTORS
330
1D8
330
1D9
102
}
330
76
100
AcDbEntity
  8
0
  6
Continuous
 62
     2
100
AcDbCircle
 10
-41.02068249492325
 20
8.49876851028819
 30
0.0
 40
0.315716923076593
100
AcDbArc
 50
0.0
 51
64.80558935146027
  0
ARC
  5
18B
102
{ACAD_REACTORS
330
1D8
330
1D9
102
}
330
76
100
AcDbEntity
  8
0
  6
Continuous
 62
     2
100
AcDbCircle
 10
-43.09041043267936
 20
6.36396971550627
 30
0.0
 40
0.4242446153828041
100
AcDbArc
 50
180.0
 51
270.0
  0
ARC
  5
18C
102
{ACAD_REACTORS
330
1DA
330
1DB
102
}
330
76
100
AcDbEntity
  8
0
  6
Continuous
 62
     2
100
AcDbCircle
 10
-28.19897441852487
 20
10.98255151632307
 30
0.0
 40
0.5179085730135293
100
AcDbArc
 50
38.1204197971431
 51
141.8795802028489
  0
ARC
  5
18D
102
{ACAD_REACTORS
330
1DA
330
1DB
102
}
330
76
100
AcDbEntity
  8
0
  6
Continuous
 62
     2
100
AcDbCircle
 10
-27.99923438217857
 20
10.82582033820259
 30
0.0
 40
0.7717997786796724
100
AcDbArc
 50
141.8795802028404
 51
218.120419797156
  0
ARC
  5
18E
102
{ACAD_REACTORS
330
1DC
330
1DD
102
}
330
76
100
AcDbEntity
  8
0
  6
Continuous
 62
     2
100
AcDbCircle
 10
-32.15992189931836
 20
8.00520487233157
 30
0.0
 40
2.065479772208509
100
AcDbArc
 50
242.4518518243402
 51
297.548148175687
  0
ARC
  5
18F
102
{ACAD_REACTORS
330
1DC
330
1DD
102
}
330
76
100
AcDbEntity
  8
0
  6
Continuous
 62
     2
100
AcDbCircle
 10
-32.15992189931836
 20
6.92805485172548
 30
0.0
 40
2.065479772208566
100
AcDbArc
 50
62.45185182430646
 51
117.5481481756664
  0
ARC
  5
190
102
{ACAD_REACTORS
330
1DC
330
1DD
102
}
330
76
100
AcDbEntity
  8
0
  6
Continuous
 62
     2
100
AcDbCircle
 10
-32.44086179115166
 20
7.46662986202827
 30
0.0
 40
1.45803408365149
100
AcDbArc
 50
117.5481481756624
 51
242.4518518243375
  0
ARC
  5
191
102
{ACAD_REACTORS
330
1DC
330
1DD
102
}
330
76
100
AcDbEntity
  8
0
  6
Continuous
 62
     2
100
AcDbCircle
 10
-31.87898200748506
 20
7.46662986202827
 30
0.0
 40
1.458034083651999
100
AcDbArc
 50
297.5481481757009
 51
62.4518518242992
  0
ARC
  5
192
102
{ACAD_REACTORS
330
1DA
330
1DB
102
}
330
76
100
AcDbEntity
  8
0
  6
Continuous
 62
     2
100
AcDbCircle
 10
-28.19897441852487
 20
10.66908916008217
 30
0.0
 40
0.5179085730134372
100
AcDbArc
 50
218.1204197971511
 51
321.8795802028569
  0
ARC
  5
193
102
{ACAD_REACTORS
330
1DA
330
1DB
102
}
330
76
100
AcDbEntity
  8
0
  6
Continuous
 62
     2
100
AcDbCircle
 10
-28.39871445487106
 20
10.82582033820259
 30
0.0
 40
0.7717997786796436
100
AcDbArc
 50
321.8795802028444
 51
38.12041979715907
  0
ARC
  5
194
102
{ACAD_REACTORS
330
1D8
330
1D9
102
}
330
76
100
AcDbEntity
  8
0
  6
Continuous
 62
     2
100
AcDbCircle
 10
-37.61709834196256
 20
6.36396971550627
 30
0.0
 40
0.4242446153832873
100
AcDbArc
 50
270.0
 51
0.0
  0
ARC
  5
195
102
{ACAD_REACTORS
330
1D8
330
1D9
102
}
330
76
100
AcDbEntity
  8
0
  6
Continuous
 62
     2
100
AcDbCircle
 10
-37.61709834196256
 20
11.92848048470648
 30
0.0
 40
0.424244615383877
100
AcDbArc
 50
0.0
 51
90.0
  0
ARC
  5
196
102
{ACAD_REACTORS
330
1D8
330
1D9
102
}
330
76
100
AcDbEntity
  8
0
  6
Continuous
 62
     2
100
AcDbCircle
 10
-43.09041043267936
 20
11.92848048470648
 30
0.0
 40
0.4242446153838006
100
AcDbArc
 50
90.0
 51
180.0
  0
ARC
  5
197
102
{ACAD_REACTORS
330
1D8
330
1D9
102
}
330
76
100
AcDbEntity
  8
0
  6
Continuous
 62
     2
100
AcDbCircle
 10
-41.02068249492325
 20
6.96799757875658
 30
0.0
 40
0.3157169230767067
100
AcDbArc
 50
270.0
 51
0.0
  0
ARC
  5
198
102
{ACAD_REACTORS
330
1D8
330
1D9
102
}
330
76
100
AcDbEntity
  8
0
  6
Continuous
 62
     2
100
AcDbCircle
 10
-41.02068249492325
 20
10.72042800241317
 30
0.0
 40
0.3157169230761203
100
AcDbArc
 50
295.1944106485397
 51
0.0
  0
ARC
  5
199
102
{ACAD_REACTORS
330
1D8
330
1D9
102
}
330
76
100
AcDbEntity
  8
0
  6
Continuous
 62
     2
100
AcDbCircle
 10
-41.02068249492325
 20
11.32445262147368
 30
0.0
 40
0.315716923076593
100
AcDbArc
 50
0.0
 51
90.0
  0
ARC
  5
19A
102
{ACAD_REACTORS
330
1D8
330
1D9
102
}
330
76
100
AcDbEntity
  8
0
  6
Continuous
 62
     2
100
AcDbCircle
 10
-42.49651575593288
 20
6.96799757875658
 30
0.0
 40
0.3157169230756764
100
AcDbArc
 50
180.0
 51
270.0
  0
ARC
  5
19B
102
{ACAD_REACTORS
330
1DE
330
1DF
102
}
330
76
100
AcDbEntity
  8
0
  6
Continuous
 62
     2
100
AcDbCircle
 10
-34.71646464767747
 20
11.29735945877479
 30
0.0
 40
1.055365641333701
100
AcDbArc
 50
270.0
 51
90.0
  0
ARC
  5
19C
102
{ACAD_REACTORS
330
1D6
330
1D7
102
}
330
76
100
AcDbEntity
  8
0
  6
Continuous
 62
     2
100
AcDbCircle
 10
-18.98825133598635
 20
7.57942022406309
 30
0.0
 40
1.639695123940441
100
AcDbArc
 50
195.0618917771012
 51
275.1581447696765
  0
ARC
  5
19D
102
{ACAD_REACTORS
330
1D6
330
1D7
102
}
330
76
100
AcDbEntity
  8
0
  6
Continuous
 62
     2
100
AcDbCircle
 10
-19.27710743072217
 20
10.77931080728467
 30
0.0
 40
4.852596863498822
100
AcDbArc
 50
275.1581447696365
 51
285.9799912583387
  0
ARC
  5
19E
102
{ACAD_REACTORS
330
1D6
330
1D7
102
}
330
76
100
AcDbEntity
  8
0
  6
Continuous
 62
     2
100
AcDbCircle
 10
-19.11923455562936
 20
8.87709622743637
 30
0.0
 40
2.227384008972746
100
AcDbArc
 50
288.4480761181335
 51
301.9309089499396
  0
ARC
  5
19F
102
{ACAD_REACTORS
330
1D6
330
1D7
102
}
330
76
100
AcDbEntity
  8
0
  6
Continuous
 62
     2
100
AcDbCircle
 10
-18.70106682196746
 20
7.62355045139978
 30
0.0
 40
0.9059297849852787
100
AcDbArc
 50
246.6277221118185
 51
288.4480761180817
  0
ARC
  5
1A0
102
{ACAD_REACTORS
330
1D6
330
1D7
102
}
330
76
100
AcDbEntity
  8
0
  6
Continuous
 62
     2
100
AcDbCircle
 10
-18.48014959658917
 20
7.46662986202827
 30
0.0
 40
0.9410597353348987
100
AcDbArc
 50
151.4785267423626
 51
208.5214732576693
  0
ARC
  5
1A1
102
{ACAD_REACTORS
330
1D6
330
1D7
102
}
330
76
100
AcDbEntity
  8
0
  6
Continuous
 62
     2
100
AcDbCircle
 10
-18.71083685656686
 20
7.25374631098438
 30
0.0
 40
0.9545230068260935
100
AcDbArc
 50
90.0
 51
109.337143219432
  0
ARC
  5
1A2
102
{ACAD_REACTORS
330
1D8
330
1D9
102
}
330
76
100
AcDbEntity
  8
0
  6
Continuous
 62
     2
100
AcDbCircle
 10
-39.92096706940117
 20
11.32427514482558
 30
0.0
 40
0.3157169230760746
100
AcDbArc
 50
90.18896704254594
 51
180.0
  0
ARC
  5
1A3
102
{ACAD_REACTORS
330
1D8
330
1D9
102
}
330
76
100
AcDbEntity
  8
0
  6
Continuous
 62
     2
100
AcDbCircle
 10
-40.44700976748905
 20
9.60959825635098
 30
0.0
 40
0.911848150144459
100
AcDbArc
 50
295.3740086781764
 51
64.62599132180736
  0
ARC
  5
1A4
102
{ACAD_REACTORS
330
1D4
330
1D5
102
}
330
76
100
AcDbEntity
  8
0
  6
Continuous
 62
     2
100
AcDbCircle
 10
-35.22193603488225
 20
8.87709622743697
 30
0.0
 40
2.227384008972739
100
AcDbArc
 50
288.448076118133
 51
301.9309089499593
  0
ARC
  5
1A5
102
{ACAD_REACTORS
330
1D4
330
1D5
102
}
330
76
100
AcDbEntity
  8
0
  6
Continuous
 62
     2
100
AcDbCircle
 10
-34.80376830122145
 20
7.62355045139978
 30
0.0
 40
0.9059297849849192
100
AcDbArc
 50
246.627722111871
 51
288.4480761181589
  0
ARC
  5
1A6
102
{ACAD_REACTORS
330
1D4
330
1D5
102
}
330
76
100
AcDbEntity
  8
0
  6
Continuous
 62
     2
100
AcDbCircle
 10
-34.96020833392348
 20
7.26155843268978
 30
0.0
 40
0.511580060194791
100
AcDbArc
 50
208.5214732576963
 51
246.6277221118281
  0
ARC
  5
1A7
102
{ACAD_REACTORS
330
1D4
330
1D5
102
}
330
76
100
AcDbEntity
  8
0
  6
Continuous
 62
     2
100
AcDbCircle
 10
-34.80376830122145
 20
7.30970927265668
 30
0.0
 40
0.9059297849853251
100
AcDbArc
 50
71.55192388185306
 51
113.372277888129
  0
ARC
  5
1A8
102
{ACAD_REACTORS
330
1D4
330
1D5
102
}
330
76
100
AcDbEntity
  8
0
  6
Continuous
 62
     2
100
AcDbCircle
 10
-35.37980890997517
 20
4.15394891677238
 30
0.0
 40
4.852596863498068
100
AcDbArc
 50
74.02000874164739
 51
84.84185523037515
  0
CIRCLE
  5
1A9
102
{ACAD_REACTORS
330
1D8
330
1D9
102
}
330
76
100
AcDbEntity
  8
0
  6
Continuous
 62
     2
100
AcDbCircle
 10
-40.47082478216186
 20
9.60959825635098
 30
0.0
 40
0.4709789327785145
  0
CIRCLE
  5
1AA
330
76
100
AcDbEntity
  8
1
  6
Continuous
 62
     2
100
AcDbCircle
 10
-35.01465504806217
 20
19.77122510010659
 30
0.0
 40
1.249999999999915
  0
CIRCLE
  5
1AB
330
76
100
AcDbEntity
  8
1
  6
Continuous
 62
     2
100
AcDbCircle
 10
-35.01465504806217
 20
19.77122510010659
 30
0.0
 40
2.5
  0
TEXT
  5
1AD
330
76
100
AcDbEntity
  8
1
 62
     7
100
AcDbText
 10
7.62223778738903
 20
16.94622510010657
 30
0.0
 40
2.5
  1
/
 41
0.9
  7
CONVERTER_11
100
AcDbText
  0
TEXT
  5
1AF
330
76
100
AcDbEntity
  8
1
 62
     7
100
AcDbText
 10
9.77860228443103
 20
16.94622510010657
 30
0.0
 40
2.5
  1
02
 41
0.81
  7
CONVERTER_12
100
AcDbText
  0
TEXT
  5
1B0
330
76
100
AcDbEntity
  8
1
 62
     3
100
AcDbText
 10
47.37508631044813
 20
16.94622510010657
 30
0.0
 40
2.5
  1
29.06.2018
 41
0.81
  7
CONVERTER_12
100
AcDbText
  0
MTEXT
  5
1B1
330
76
100
AcDbEntity
  8
1
 62
     2
100
AcDbMText
 10
47.37508631044813
 20
23.14622510010659
 30
0.0
 40
1.8
 41
0.0
 71
     1
 72
     1
  1
date
  7
CONVERTER_11
 73
     1
 44
1.32052821128451
  0
MTEXT
  5
1B2
330
76
100
AcDbEntity
  8
1
 62
     2
100
AcDbMText
 10
17.54869006537524
 20
14.64622510010659
 30
0.0
 40
1.8
 41
0.0
 71
     1
 72
     1
  1
document-type
  7
CONVERTER_11
 73
     1
 44
1.20048019207683
  0
TEXT
  5
1B3
330
76
100
AcDbEntity
  8
1
 62
     3
100
AcDbText
 10
17.54869006537524
 20
8.44622510010657
 30
0.0
 40
2.5
  1
TECDOC 2D_Productdrawing
 41
0.81
  7
CONVERTER_12
100
AcDbText
  0
MTEXT
  5
1B5
330
76
100
AcDbEntity
  8
1
 62
     2
100
AcDbMText
 10
-10.25130993462477
 20
23.14622510010668
 30
0.0
 40
1.8
 41
0.0
 71
     1
 72
     1
  1
document-No. / RI
  7
CONVERTER_13
 73
     1
 44
1.32052821128451
  0
TEXT
  5
1B6
330
76
100
AcDbEntity
  8
1
 62
     7
100
AcDbText
 10
-10.25130993462477
 20
16.94622510010657
 30
0.0
 40
2.5
  1
00448511
 41
0.81
  7
CONVERTER_12
100
AcDbText
  0
MTEXT
  5
1B8
330
76
100
AcDbEntity
  8
1
 62
     3
100
AcDbMText
 10
77.33429045128754
 20
16.94622510010677
 30
0.0
 40
2.5
 41
0.0
 71
     8
 72
     1
  1
2:1
  7
CONVERTER_14
 73
     1
 44
1.32052821128451
  0
MTEXT
  5
1B9
330
76
100
AcDbEntity
  8
1
 62
     2
100
AcDbMText
 10
73.97508631044795
 20
23.14622510010668
 30
0.0
 40
1.8
 41
0.0
 71
     1
 72
     1
  1
scale
  7
CONVERTER_11
 73
     1
 44
1.20048019207683
  0
MTEXT
  5
1BA
330
76
100
AcDbEntity
  8
1
 62
     2
100
AcDbMText
 10
-10.25130993462477
 20
14.64622510010668
 30
0.0
 40
1.8
 41
0.0
 71
     1
 72
     1
  1
ident.-No.
  7
CONVERTER_11
 73
     1
 44
1.20048019207683
  0
TEXT
  5
1BB
330
76
100
AcDbEntity
  8
1
 62
     7
100
AcDbText
 10
-9.85130993462505
 20
8.44622510010657
 30
0.0
 40
2.5
  1
0800970
 41
0.81
  7
CONVERTER_12
100
AcDbText
  0
MTEXT
  5
1BC
330
76
100
AcDbEntity
  8
1
 62
     2
100
AcDbMText
 10
-82.18932465967228
 20
11.39622510010659
 30
0.0
 40
2.0
 41
0.0
 71
     5
 72
     1
  1
General Information\P- Simplified representation\P- Document excluded from change process\P- Linear dimensions [mm]
  7
CONVERTER_11
 73
     1
 44
1.20048019207683
  0
MTEXT
  5
1BD
330
76
100
AcDbEntity
  8
1
 62
     7
100
AcDbMText
 10
84.29349459212423
 20
73.64622510010858
 30
0.0
 40
3.5
 41
0.0
 71
     5
 72
     1
  1
C
  7
CONVERTER_11
 73
     1
 44
1.20048019207683
  0
MTEXT
  5
1BE
330
76
100
AcDbEntity
  8
1
 62
     7
100
AcDbMText
 10
84.29349459212423
 20
176.1462251001067
 30
0.0
 40
3.5
 41
0.0
 71
     5
 72
     1
  1
A
  7
CONVERTER_11
 73
     1
 44
1.20048019207683
  0
MTEXT
  5
1BF
330
76
100
AcDbEntity
  8
1
 62
     7
100
AcDbMText
 10
84.29349459212423
 20
123.6462251001086
 30
0.0
 40
3.5
 41
0.0
 71
     5
 72
     1
  1
B
  7
CONVERTER_11
 73
     1
 44
1.20048019207683
  0
MTEXT
  5
1C0
330
76
100
AcDbEntity
  8
1
 62
     7
100
AcDbMText
 10
84.29349459212423
 20
21.14622510010668
 30
0.0
 40
3.5
 41
0.0
 71
     5
 72
     1
  1
D
  7
CONVERTER_11
 73
     1
 44
1.20048019207683
  0
MTEXT
  5
1C1
330
76
100
AcDbEntity
  8
1
 62
     7
100
AcDbMText
 10
-185.9565054078744
 20
-3.85377489989344
 30
0.0
 40
3.5
 41
0.0
 71
     5
 72
     1
  1
1
  7
CONVERTER_11
 73
     1
 44
1.20048019207683
  0
MTEXT
  5
1C2
330
76
100
AcDbEntity
  8
1
 62
     7
100
AcDbMText
 10
-136.7065054078747
 20
-3.85377489989344
 30
0.0
 40
3.5
 41
0.0
 71
     5
 72
     1
  1
2
  7
CONVERTER_11
 73
     1
 44
1.20048019207683
  0
MTEXT
  5
1C3
330
76
100
AcDbEntity
  8
1
 62
     7
100
AcDbMText
 10
-86.70650540787474
 20
-3.85377489989344
 30
0.0
 40
3.5
 41
0.0
 71
     5
 72
     1
  1
3
  7
CONVERTER_11
 73
     1
 44
1.20048019207683
  0
MTEXT
  5
1C4
330
76
100
AcDbEntity
  8
1
 62
     7
100
AcDbMText
 10
-36.70650540787486
 20
-3.85377489989344
 30
0.0
 40
3.5
 41
0.0
 71
     5
 72
     1
  1
4
  7
CONVERTER_11
 73
     1
 44
1.20048019207683
  0
MTEXT
  5
1C5
330
76
100
AcDbEntity
  8
1
 62
     7
100
AcDbMText
 10
13.29349459212523
 20
-3.85377489989344
 30
0.0
 40
3.5
 41
0.0
 71
     5
 72
     1
  1
5
  7
CONVERTER_11
 73
     1
 44
1.20048019207683
  0
MTEXT
  5
1C6
330
76
100
AcDbEntity
  8
1
 62
     7
100
AcDbMText
 10
62.54349459212443
 20
-3.85377489989344
 30
0.0
 40
3.5
 41
0.0
 71
     5
 72
     1
  1
6
  7
CONVERTER_11
 73
     1
 44
1.20048019207683
  0
MTEXT
  5
1C7
330
76
100
AcDbEntity
  8
1
 62
     7
100
AcDbMText
 10
-207.7065054078738
 20
176.1462251001067
 30
0.0
 40
3.5
 41
0.0
 71
     5
 72
     1
  1
A
  7
CONVERTER_11
 73
     1
 44
1.20048019207683
  0
MTEXT
  5
1C8
330
76
100
AcDbEntity
  8
1
 62
     7
100
AcDbMText
 10
-207.7065054078738
 20
123.6462251001067
 30
0.0
 40
3.5
 41
0.0
 71
     5
 72
     1
  1
B
  7
CONVERTER_11
 73
     1
 44
1.20048019207683
  0
MTEXT
  5
1C9
330
76
100
AcDbEntity
  8
1
 62
     7
100
AcDbMText
 10
-207.7065054078738
 20
73.64622510010668
 30
0.0
 40
3.5
 41
0.0
 71
     5
 72
     1
  1
C
  7
CONVERTER_11
 73
     1
 44
1.20048019207683
  0
MTEXT
  5
1CA
330
76
100
AcDbEntity
  8
1
 62
     7
100
AcDbMText
 10
-207.7065054078738
 20
21.14622510010668
 30
0.0
 40
3.5
 41
0.0
 71
     5
 72
     1
  1
D
  7
CONVERTER_11
 73
     1
 44
1.20048019207683
  0
MTEXT
  5
1CB
330
76
100
AcDbEntity
  8
1
 62
     3
100
AcDbMText
 10
-21.55130993462487
 20
19.77122510010668
 30
0.0
 40
2.5
 41
0.0
 71
     5
 72
     1
  1
DIN A4
  7
CONVERTER_11
 73
     1
 44
1.20048019207683
  0
MTEXT
  5
1CC
330
76
100
AcDbEntity
  8
1
 62
     2
100
AcDbMText
 10
-10.35130993462485
 20
6.14622510010668
 30
0.0
 40
1.8
 41
0.0
 71
     1
 72
     1
  1
description
  7
CONVERTER_11
 73
     1
 44
1.20048019207683
  0
MTEXT
  5
1CD
330
76
100
AcDbEntity
  8
1
 62
     7
100
AcDbMText
 10
35.22109232875073
 20
1.8962251001069
 30
0.0
 40
3.0
 41
0.0
 71
     5
 72
     1
  1
STP 5-2/S
  7
CONVERTER_12
 73
     1
 44
1.20048019207683
  0
TEXT
  5
1CE
330
76
100
AcDbEntity
  8
1
 62
     2
100
AcDbText
 10
-23.31600112481127
 20
-0.10377489989344
 30
0.0
 40
1.8
  1
1
 41
0.9
  7
CONVERTER_11
100
AcDbText
  0
TEXT
  5
1CF
330
76
100
AcDbEntity
  8
1
 62
     2
100
AcDbText
 10
-38.10504496428277
 20
-0.15302355369533
 30
0.0
 40
1.8
  1
1
 41
0.9
  7
CONVERTER_11
100
AcDbText
  0
TEXT
  5
1D0
330
76
100
AcDbEntity
  8
1
 62
     2
100
AcDbText
 10
-46.75130993462477
 20
-0.112792114885
 30
0.0
 40
1.8
  1
page
 41
0.9
  7
CONVERTER_11
100
AcDbText
  0
TEXT
  5
1D1
330
76
100
AcDbEntity
  8
1
 62
     2
100
AcDbText
 10
-28.55130993462495
 20
-0.11279211488494
 30
0.0
 40
1.8
  1
of
 41
0.9
  7
CONVERTER_11
100
AcDbText
  0
MTEXT
  5
1D2
330
76
100
AcDbEntity
  8
1
 62
     3
100
AcDbMText
 10
-22.34832778301487
 20
185.4375332554055
 30
0.0
 40
1.8
 41
0.0
 71
     7
 72
     1
  3
Transfer or duplication of this document as well as the utilisation or\Pcommunication of its content are not permitted unless express consent\Pis granted. Violations give rise to claims for damages. All rights reserved\Pin case of patent, utility mo
  1
del or design patent registrations.
  7
CONVERTER_11
 73
     1
 44
0.99639855942377
  0
MTEXT
  5
1D3
330
76
100
AcDbEntity
  8
1
 62
     3
100
AcDbMText
 10
-205.201437621803
 20
185.4375332554055
 30
0.0
 40
1.8
 41
0.0
 71
     7
 72
     1
  3
Weitergabe sowie Vervielfältigung dieses Dokuments, Verwertung und \PMitteilung seines Inhalts sind verboten, soweit nicht ausdrücklich gestattet. \PZuwiderhandlungen verpflichten zu Schadenersatz. Alle Rechte für den Fall\Pder Patent-, Gebrauchsmus
  1
ter- oder Designeintragung vorbehalten.
  7
CONVERTER_11
 73
     1
 44
0.99639855942377
  0
HATCH
  5
1D4
330
76
100
AcDbEntity
  8
1
  6
Continuous
 62
     2
100
AcDbHatch
 10
0.0
 20
0.0
 30
0.0
210
0.0
220
0.0
230
1.0
  2
_USER
 70
     0
 71
     1
 91
        1
 92
        1
 93
       14
 72
     2
 10
-35.51008065870207
 20
7.46662986202827
 40
1.205656168390937
 50
164.9381082228764
 51
195.0618917770949
 73
     1
 72
     2
 10
-35.09095281523926
 20
7.579420224063085
 40
1.639695123939387
 50
195.0618917770896
 51
275.1581447696393
 73
     1
 72
     2
 10
-35.37980890997517
 20
10.77931080728467
 40
4.852596863498134
 50
275.1581447696249
 51
285.9799912583529
 73
     1
 72
     1
 10
-34.04388099285737
 20
6.114228501483865
 11
-34.04388099285737
 21
6.986745508287072
 72
     2
 10
-35.22193603488225
 20
8.877096227436965
 40
2.227384008972739
 50
58.0690910500407
 51
71.55192388186703
 73
     0
 72
     2
 10
-34.80376830122145
 20
7.62355045139978
 40
0.9059297849849192
 50
71.55192388184112
 51
113.372277888129
 73
     0
 72
     2
 10
-34.96020833392348
 20
7.261558432689782
 40
0.511580060194791
 50
113.3722778881719
 51
151.4785267423037
 73
     0
 72
     2
 10
-34.58285107584317
 20
7.46662986202827
 40
0.941059735333242
 50
151.4785267422938
 51
208.5214732577335
 73
     0
 72
     2
 10
-34.96020833392348
 20
7.67170129136727
 40
0.5115800601948751
 50
208.5214732576963
 51
246.6277221118016
 73
     0
 72
     2
 10
-34.80376830122145
 20
7.309709272656676
 40
0.9059297849853251
 50
246.627722111871
 51
288.4480761181469
 73
     0
 72
     2
 10
-35.22193603488225
 20
6.056163496620087
 40
2.227384008973478
 50
288.448076118133
 51
301.9309089499593
 73
     0
 72
     1
 10
-34.04388099285737
 20
7.94651421576998
 11
-34.04388099285737
 21
8.819031222573273
 72
     2
 10
-35.37980890997517
 20
4.153948916772379
 40
4.852596863498068
 50
74.02000874164739
 51
84.84185523037515
 73
     1
 72
     2
 10
-35.09095281523926
 20
7.35383949999337
 40
1.639695123940506
 50
84.84185523036261
 51
164.9381082228864
 73
     1
 97
       14
330
1A8
330
C1
330
177
330
1A7
330
178
330
179
330
1A6
330
1A5
330
1A4
330
C2
330
17A
330
17B
330
17C
330
17D
 75
     1
 76
     0
 52
45.0
 41
0.1
 77
     0
 78
     1
 53
45.0
 43
0.0
 44
0.0
 45
-0.0707106781186548
 46
0.0707106781186548
 79
     0
 98
        1
 10
0.0
 20
0.0
  0
HATCH
  5
1D5
330
76
100
AcDbEntity
  8
1
  6
Continuous
 62
     2
100
AcDbHatch
 10
0.0
 20
0.0
 30
0.0
210
0.0
220
0.0
230
1.0
  2
_USER
 70
     0
 71
     1
 91
        1
 92
        1
 93
       14
 72
     2
 10
-35.51008065870207
 20
7.46662986202827
 40
1.205656168390937
 50
164.9381082228764
 51
195.0618917770949
 73
     1
 72
     2
 10
-35.09095281523926
 20
7.579420224063085
 40
1.639695123939387
 50
195.0618917770896
 51
275.1581447696393
 73
     1
 72
     2
 10
-35.37980890997517
 20
10.77931080728467
 40
4.852596863498134
 50
275.1581447696249
 51
285.9799912583529
 73
     1
 72
     1
 10
-34.04388099285737
 20
6.114228501483865
 11
-34.04388099285737
 21
6.986745508287072
 72
     2
 10
-35.22193603488225
 20
8.877096227436965
 40
2.227384008972739
 50
58.0690910500407
 51
71.55192388186703
 73
     0
 72
     2
 10
-34.80376830122145
 20
7.62355045139978
 40
0.9059297849849192
 50
71.55192388184112
 51
113.372277888129
 73
     0
 72
     2
 10
-34.96020833392348
 20
7.261558432689782
 40
0.511580060194791
 50
113.3722778881719
 51
151.4785267423037
 73
     0
 72
     2
 10
-34.58285107584317
 20
7.46662986202827
 40
0.941059735333242
 50
151.4785267422938
 51
208.5214732577335
 73
     0
 72
     2
 10
-34.96020833392348
 20
7.67170129136727
 40
0.5115800601948751
 50
208.5214732576963
 51
246.6277221118016
 73
     0
 72
     2
 10
-34.80376830122145
 20
7.309709272656676
 40
0.9059297849853251
 50
246.627722111871
 51
288.4480761181469
 73
     0
 72
     2
 10
-35.22193603488225
 20
6.056163496620087
 40
2.227384008973478
 50
288.448076118133
 51
301.9309089499593
 73
     0
 72
     1
 10
-34.04388099285737
 20
7.94651421576998
 11
-34.04388099285737
 21
8.819031222573273
 72
     2
 10
-35.37980890997517
 20
4.153948916772379
 40
4.852596863498068
 50
74.02000874164739
 51
84.84185523037515
 73
     1
 72
     2
 10
-35.09095281523926
 20
7.35383949999337
 40
1.639695123940506
 50
84.84185523036261
 51
164.9381082228864
 73
     1
 97
       14
330
1A8
330
C1
330
177
330
1A7
330
178
330
179
330
1A6
330
1A5
330
1A4
330
C2
330
17A
330
17B
330
17C
330
17D
 75
     1
 76
     0
 52
45.0
 41
0.1
 77
     0
 78
     1
 53
45.0
 43
0.0
 44
0.0
 45
-0.0707106781186548
 46
0.0707106781186548
 79
     0
 98
        1
 10
0.0
 20
0.0
  0
HATCH
  5
1D6
330
76
100
AcDbEntity
  8
1
  6
Continuous
 62
     2
100
AcDbHatch
 10
0.0
 20
0.0
 30
0.0
210
0.0
220
0.0
230
1.0
  2
_USER
 70
     0
 71
     1
 91
        1
 92
        1
 93
       18
 72
     2
 10
-18.98825133598635
 20
7.35383949999337
 40
1.639695123940214
 50
90.0
 51
164.9381082228949
 73
     1
 72
     2
 10
-19.40737917944796
 20
7.46662986202827
 40
1.205656168392996
 50
164.9381082229027
 51
195.061891777096
 73
     1
 72
     2
 10
-18.98825133598635
 20
7.579420224063085
 40
1.639695123940441
 50
195.0618917771012
 51
275.1581447696765
 73
     1
 72
     2
 10
-19.27710743072217
 20
10.77931080728467
 40
4.852596863498822
 50
275.1581447696365
 51
285.9799912583387
 73
     1
 72
     1
 10
-17.94117951360545
 20
6.114228501483268
 11
-17.94117951360545
 21
6.986745508286589
 72
     2
 10
-19.11923455562936
 20
8.877096227436368
 40
2.227384008972746
 50
58.06909105006035
 51
71.55192388186651
 73
     0
 72
     2
 10
-18.70106682196746
 20
7.62355045139978
 40
0.9059297849852787
 50
71.55192388191827
 51
113.3722778881815
 73
     0
 72
     2
 10
-18.85750685467056
 20
7.261558432689782
 40
0.5115800601960248
 50
113.3722778881547
 51
151.4785267423136
 73
     0
 72
     2
 10
-18.48014959658917
 20
7.46662986202827
 40
0.9410597353348987
 50
151.4785267423307
 51
208.5214732576374
 73
     0
 72
     2
 10
-18.85750685467056
 20
7.67170129136727
 40
0.5115800601944154
 50
208.5214732575774
 51
250.6628567805143
 73
     0
 72
     2
 10
-18.71083685656686
 20
7.253746310984383
 40
0.9545230068260935
 50
250.662856780568
 51
270.0
 73
     0
 72
     1
 10
-18.71083685656686
 20
8.208269317810476
 11
-17.60719755699876
 21
8.208269317810476
 72
     1
 10
-17.60719755699876
 20
8.208269317810476
 11
-17.60719755699876
 21
5.939725100122985
 72
     1
 10
-17.60719755699876
 20
5.939725100122985
 11
-16.41440485483105
 21
5.939725100122985
 72
     1
 10
-16.41440485483105
 20
5.939725100122985
 11
-16.41440485483105
 21
8.208269317810476
 72
     1
 10
-16.41440485483105
 20
8.208269317810476
 11
-15.60330581735767
 21
8.208269317810476
 72
     1
 10
-15.60330581735767
 20
8.208269317810476
 11
-15.60330581735767
 21
8.993534623934067
 72
     1
 10
-15.60330581735767
 20
8.993534623934067
 11
-18.98825133598635
 21
8.993534623933584
 97
       18
330
127
330
126
330
125
330
124
330
129
330
C3
330
1A1
330
182
330
1A0
330
183
330
19F
330
19E
330
C4
330
19D
330
19C
330
184
330
185
330
128
 75
     1
 76
     0
 52
45.0
 41
0.1
 77
     0
 78
     1
 53
45.0
 43
0.0
 44
0.0
 45
-0.0707106781186548
 46
0.0707106781186548
 79
     0
 98
        1
 10
0.0
 20
0.0
  0
HATCH
  5
1D7
330
76
100
AcDbEntity
  8
1
  6
Continuous
 62
     2
100
AcDbHatch
 10
0.0
 20
0.0
 30
0.0
210
0.0
220
0.0
230
1.0
  2
_USER
 70
     0
 71
     1
 91
        1
 92
        1
 93
       18
 72
     2
 10
-18.98825133598635
 20
7.35383949999337
 40
1.639695123940214
 50
90.0
 51
164.9381082228949
 73
     1
 72
     2
 10
-19.40737917944796
 20
7.46662986202827
 40
1.205656168392996
 50
164.9381082229027
 51
195.061891777096
 73
     1
 72
     2
 10
-18.98825133598635
 20
7.579420224063085
 40
1.639695123940441
 50
195.0618917771012
 51
275.1581447696765
 73
     1
 72
     2
 10
-19.27710743072217
 20
10.77931080728467
 40
4.852596863498822
 50
275.1581447696365
 51
285.9799912583387
 73
     1
 72
     1
 10
-17.94117951360545
 20
6.114228501483268
 11
-17.94117951360545
 21
6.986745508286589
 72
     2
 10
-19.11923455562936
 20
8.877096227436368
 40
2.227384008972746
 50
58.06909105006035
 51
71.55192388186651
 73
     0
 72
     2
 10
-18.70106682196746
 20
7.62355045139978
 40
0.9059297849852787
 50
71.55192388191827
 51
113.3722778881815
 73
     0
 72
     2
 10
-18.85750685467056
 20
7.261558432689782
 40
0.5115800601960248
 50
113.3722778881547
 51
151.4785267423136
 73
     0
 72
     2
 10
-18.48014959658917
 20
7.46662986202827
 40
0.9410597353348987
 50
151.4785267423307
 51
208.5214732576374
 73
     0
 72
     2
 10
-18.85750685467056
 20
7.67170129136727
 40
0.5115800601944154
 50
208.5214732575774
 51
250.6628567805143
 73
     0
 72
     2
 10
-18.71083685656686
 20
7.253746310984383
 40
0.9545230068260935
 50
250.662856780568
 51
270.0
 73
     0
 72
     1
 10
-18.71083685656686
 20
8.208269317810476
 11
-17.60719755699876
 21
8.208269317810476
 72
     1
 10
-17.60719755699876
 20
8.208269317810476
 11
-17.60719755699876
 21
5.939725100122985
 72
     1
 10
-17.60719755699876
 20
5.939725100122985
 11
-16.41440485483105
 21
5.939725100122985
 72
     1
 10
-16.41440485483105
 20
5.939725100122985
 11
-16.41440485483105
 21
8.208269317810476
 72
     1
 10
-16.41440485483105
 20
8.208269317810476
 11
-15.60330581735767
 21
8.208269317810476
 72
     1
 10
-15.60330581735767
 20
8.208269317810476
 11
-15.60330581735767
 21
8.993534623934067
 72
     1
 10
-15.60330581735767
 20
8.993534623934067
 11
-18.98825133598635
 21
8.993534623933584
 97
       18
330
127
330
126
330
125
330
124
330
129
330
C3
330
1A1
330
182
330
1A0
330
183
330
19F
330
19E
330
C4
330
19D
330
19C
330
184
330
185
330
128
 75
     1
 76
     0
 52
45.0
 41
0.1
 77
     0
 78
     1
 53
45.0
 43
0.0
 44
0.0
 45
-0.0707106781186548
 46
0.0707106781186548
 79
     0
 98
        1
 10
0.0
 20
0.0
  0
HATCH
  5
1D8
330
76
100
AcDbEntity
  8
1
  6
Continuous
 62
     2
100
AcDbHatch
 10
0.0
 20
0.0
 30
0.0
210
0.0
220
0.0
230
1.0
  2
_USER
 70
     0
 71
     1
 91
        4
 92
        1
 93
        8
 72
     2
 10
-43.09041043267936
 20
11.92848048470648
 40
0.4242446153838006
 50
90.0
 51
180.0
 73
     1
 72
     1
 10
-43.51465504806217
 20
11.92848048470648
 11
-43.51465504806217
 21
6.363969715506272
 72
     2
 10
-43.09041043267936
 20
6.363969715506272
 40
0.4242446153828041
 50
180.0
 51
270.0
 73
     1
 72
     1
 10
-43.09041043267936
 20
5.939725100122985
 11
-37.61709834196256
 21
5.939725100122985
 72
     2
 10
-37.61709834196256
 20
6.363969715506272
 40
0.4242446153832873
 50
270.0
 51
360.0
 73
     1
 72
     1
 10
-37.19285372657868
 20
6.363969715506272
 11
-37.19285372657868
 21
11.92848048470648
 72
     2
 10
-37.61709834196256
 20
11.92848048470648
 40
0.424244615383877
 50
0.0
 51
90.0
 73
     1
 72
     1
 10
-37.61709834196256
 20
12.35272510009028
 11
-43.09041043267936
 21
12.35272510009028
 97
        8
330
195
330
F2
330
194
330
F3
330
18B
330
F0
330
196
330
F1
 92
       16
 93
        1
 72
     2
 10
-40.47082478216186
 20
9.609598256350978
 40
0.4709789327785145
 50
0.0
 51
360.0
 73
     1
 97
        1
330
1A9
 92
       16
 93
        8
 72
     2
 10
-40.44700976748905
 20
9.609598256350978
 40
0.911848150144459
 50
295.3740086781764
 51
424.6259913218074
 73
     1
 72
     2
 10
-39.92096706940117
 20
10.71873985631879
 40
0.3157169230767849
 50
115.3740086783517
 51
180.0
 73
     0
 72
     1
 10
-40.23668399247796
 20
10.71873985631879
 11
-40.23668399247796
 21
11.32427514482558
 72
     2
 10
-39.92096706940117
 20
11.32427514482558
 40
0.3157169230760746
 50
180.0
 51
269.8110329574541
 73
     0
 72
     2
 10
-39.91535093409115
 20
9.621440197256476
 40
2.018561131933266
 50
269.8110329575858
 51
450.1889670424142
 73
     0
 72
     2
 10
-39.92096706940117
 20
7.918605249687488
 40
0.3157169230767849
 50
90.18896704254585
 51
180.0
 73
     0
 72
     1
 10
-40.23668399247796
 20
7.918605249687488
 11
-40.23668399247796
 21
8.500456656382568
 72
     2
 10
-39.92096706940117
 20
8.500456656382568
 40
0.3157169230765328
 50
180.0
 51
244.6259913216482
 73
     0
 97
        8
330
1A3
330
17F
330
12B
330
1A2
330
180
330
181
330
12A
330
17E
 92
       16
 93
       12
 72
     1
 10
-42.49651575593288
 20
6.652280655679874
 11
-41.02068249492325
 21
6.652280655679874
 72
     2
 10
-41.02068249492325
 20
6.967997578756581
 40
0.3157169230767067
 50
270.0
 51
360.0
 73
     1
 72
     1
 10
-40.70496557184666
 20
6.967997578756581
 11
-40.70496557184666
 21
8.498768510288187
 72
     2
 10
-41.02068249492325
 20
8.498768510288187
 40
0.315716923076593
 50
0.0
 51
64.80558935146027
 73
     1
 72
     2
 10
-40.49809804734827
 20
9.609598256350978
 40
0.91189752355761
 50
115.1944106485118
 51
244.8055893514721
 73
     0
 72
     2
 10
-41.02068249492325
 20
10.72042800241317
 40
0.3157169230761203
 50
295.1944106485397
 51
360.0
 73
     1
 72
     1
 10
-40.70496557184666
 20
10.72042800241317
 11
-40.70496557184666
 21
11.32445262147368
 72
     2
 10
-41.02068249492325
 20
11.32445262147368
 40
0.315716923076593
 50
0.0
 51
90.0
 73
     1
 72
     1
 10
-41.02068249492325
 20
11.64016954454988
 11
-42.49651575593288
 21
11.64016954454988
 72
     2
 10
-42.49651575593288
 20
11.32445262147368
 40
0.3157169230761987
 50
90.0
 51
180.0
 73
     1
 72
     1
 10
-42.81223267900856
 20
11.32445262147368
 11
-42.81223267900856
 21
6.967997578756581
 72
     2
 10
-42.49651575593288
 20
6.967997578756581
 40
0.3157169230756764
 50
180.0
 51
270.0
 73
     1
 97
       12
330
F7
330
188
330
F6
330
199
330
F5
330
198
330
189
330
18A
330
F4
330
197
330
EF
330
19A
 75
     1
 76
     0
 52
45.0
 41
0.1
 77
     0
 78
     1
 53
45.0
 43
0.0
 44
0.0
 45
-0.0707106781186548
 46
0.0707106781186548
 79
     0
 98
        1
 10
0.0
 20
0.0
  0
HATCH
  5
1D9
330
76
100
AcDbEntity
  8
1
  6
Continuous
 62
     2
100
AcDbHatch
 10
0.0
 20
0.0
 30
0.0
210
0.0
220
0.0
230
1.0
  2
_USER
 70
     0
 71
     1
 91
        4
 92
        1
 93
        8
 72
     2
 10
-43.09041043267936
 20
11.92848048470648
 40
0.4242446153838006
 50
90.0
 51
180.0
 73
     1
 72
     1
 10
-43.51465504806217
 20
11.92848048470648
 11
-43.51465504806217
 21
6.363969715506272
 72
     2
 10
-43.09041043267936
 20
6.363969715506272
 40
0.4242446153828041
 50
180.0
 51
270.0
 73
     1
 72
     1
 10
-43.09041043267936
 20
5.939725100122985
 11
-37.61709834196256
 21
5.939725100122985
 72
     2
 10
-37.61709834196256
 20
6.363969715506272
 40
0.4242446153832873
 50
270.0
 51
360.0
 73
     1
 72
     1
 10
-37.19285372657868
 20
6.363969715506272
 11
-37.19285372657868
 21
11.92848048470648
 72
     2
 10
-37.61709834196256
 20
11.92848048470648
 40
0.424244615383877
 50
0.0
 51
90.0
 73
     1
 72
     1
 10
-37.61709834196256
 20
12.35272510009028
 11
-43.09041043267936
 21
12.35272510009028
 97
        8
330
195
330
F2
330
194
330
F3
330
18B
330
F0
330
196
330
F1
 92
       16
 93
        1
 72
     2
 10
-40.47082478216186
 20
9.609598256350978
 40
0.4709789327785145
 50
0.0
 51
360.0
 73
     1
 97
        1
330
1A9
 92
       16
 93
        8
 72
     2
 10
-40.44700976748905
 20
9.609598256350978
 40
0.911848150144459
 50
295.3740086781764
 51
424.6259913218074
 73
     1
 72
     2
 10
-39.92096706940117
 20
10.71873985631879
 40
0.3157169230767849
 50
115.3740086783517
 51
180.0
 73
     0
 72
     1
 10
-40.23668399247796
 20
10.71873985631879
 11
-40.23668399247796
 21
11.32427514482558
 72
     2
 10
-39.92096706940117
 20
11.32427514482558
 40
0.3157169230760746
 50
180.0
 51
269.8110329574541
 73
     0
 72
     2
 10
-39.91535093409115
 20
9.621440197256476
 40
2.018561131933266
 50
269.8110329575858
 51
450.1889670424142
 73
     0
 72
     2
 10
-39.92096706940117
 20
7.918605249687488
 40
0.3157169230767849
 50
90.18896704254585
 51
180.0
 73
     0
 72
     1
 10
-40.23668399247796
 20
7.918605249687488
 11
-40.23668399247796
 21
8.500456656382568
 72
     2
 10
-39.92096706940117
 20
8.500456656382568
 40
0.3157169230765328
 50
180.0
 51
244.6259913216482
 73
     0
 97
        8
330
1A3
330
17F
330
12B
330
1A2
330
180
330
181
330
12A
330
17E
 92
       16
 93
       12
 72
     1
 10
-42.49651575593288
 20
6.652280655679874
 11
-41.02068249492325
 21
6.652280655679874
 72
     2
 10
-41.02068249492325
 20
6.967997578756581
 40
0.3157169230767067
 50
270.0
 51
360.0
 73
     1
 72
     1
 10
-40.70496557184666
 20
6.967997578756581
 11
-40.70496557184666
 21
8.498768510288187
 72
     2
 10
-41.02068249492325
 20
8.498768510288187
 40
0.315716923076593
 50
0.0
 51
64.80558935146027
 73
     1
 72
     2
 10
-40.49809804734827
 20
9.609598256350978
 40
0.91189752355761
 50
115.1944106485118
 51
244.8055893514721
 73
     0
 72
     2
 10
-41.02068249492325
 20
10.72042800241317
 40
0.3157169230761203
 50
295.1944106485397
 51
360.0
 73
     1
 72
     1
 10
-40.70496557184666
 20
10.72042800241317
 11
-40.70496557184666
 21
11.32445262147368
 72
     2
 10
-41.02068249492325
 20
11.32445262147368
 40
0.315716923076593
 50
0.0
 51
90.0
 73
     1
 72
     1
 10
-41.02068249492325
 20
11.64016954454988
 11
-42.49651575593288
 21
11.64016954454988
 72
     2
 10
-42.49651575593288
 20
11.32445262147368
 40
0.3157169230761987
 50
90.0
 51
180.0
 73
     1
 72
     1
 10
-42.81223267900856
 20
11.32445262147368
 11
-42.81223267900856
 21
6.967997578756581
 72
     2
 10
-42.49651575593288
 20
6.967997578756581
 40
0.3157169230756764
 50
180.0
 51
270.0
 73
     1
 97
       12
330
F7
330
188
330
F6
330
199
330
F5
330
198
330
189
330
18A
330
F4
330
197
330
EF
330
19A
 75
     1
 76
     0
 52
45.0
 41
0.1
 77
     0
 78
     1
 53
45.0
 43
0.0
 44
0.0
 45
-0.0707106781186548
 46
0.0707106781186548
 79
     0
 98
        1
 10
0.0
 20
0.0
  0
HATCH
  5
1DA
330
76
100
AcDbEntity
  8
1
  6
Continuous
 62
     2
100
AcDbHatch
 10
0.0
 20
0.0
 30
0.0
210
0.0
220
0.0
230
1.0
  2
_USER
 70
     0
 71
     1
 91
        2
 92
        1
 93
       12
 72
     2
 10
-28.41524642869007
 20
10.82582033820259
 40
1.526904761905881
 50
90.0
 51
270.0
 73
     1
 72
     1
 10
-28.41524642869007
 20
9.298915576297276
 11
-25.26492670490907
 21
9.298915576297276
 72
     1
 10
-25.26492670490907
 20
9.298915576297276
 11
-25.26492670490907
 21
9.996929181739773
 72
     1
 10
-25.26492670490907
 20
9.996929181739773
 11
-26.60085453133675
 21
9.996929181739773
 72
     1
 10
-26.60085453133675
 20
9.996929181739773
 11
-26.60085453133675
 21
10.47681353548148
 72
     1
 10
-26.60085453133675
 20
10.47681353548148
 11
-25.26492670490907
 21
10.47681353548148
 72
     1
 10
-25.26492670490907
 20
10.47681353548148
 11
-25.26492670490907
 21
11.17482714092378
 72
     1
 10
-25.26492670490907
 20
11.17482714092378
 11
-26.60085453133675
 21
11.17482714092378
 72
     1
 10
-26.60085453133675
 20
11.17482714092378
 11
-26.60085453133675
 21
11.65471149466549
 72
     1
 10
-26.60085453133675
 20
11.65471149466549
 11
-25.26492670490907
 21
11.65471149466549
 72
     1
 10
-25.26492670490907
 20
11.65471149466549
 11
-25.26492670490907
 21
12.35272510010847
 72
     1
 10
-25.26492670490907
 20
12.35272510010847
 11
-28.41524642869007
 21
12.35272510010847
 97
       12
330
E6
330
E0
330
107
330
106
330
105
330
104
330
E1
330
E2
330
E3
330
E4
330
186
330
E5
 92
       16
 93
        4
 72
     2
 10
-27.99923438217857
 20
10.82582033820259
 40
0.7717997786796724
 50
141.8795802028404
 51
218.120419797156
 73
     1
 72
     2
 10
-28.19897441852487
 20
10.66908916008217
 40
0.5179085730134372
 50
218.1204197971511
 51
321.8795802028569
 73
     1
 72
     2
 10
-28.39871445487106
 20
10.82582033820259
 40
0.7717997786796436
 50
321.8795802028444
 51
398.1204197971591
 73
     1
 72
     2
 10
-28.19897441852487
 20
10.98255151632307
 40
0.5179085730135293
 50
38.1204197971431
 51
141.8795802028489
 73
     1
 97
        4
330
193
330
192
330
18D
330
18C
 75
     1
 76
     0
 52
45.0
 41
0.1
 77
     0
 78
     1
 53
45.0
 43
0.0
 44
0.0
 45
-0.0707106781186548
 46
0.0707106781186548
 79
     0
 98
        1
 10
0.0
 20
0.0
  0
HATCH
  5
1DB
330
76
100
AcDbEntity
  8
1
  6
Continuous
 62
     2
100
AcDbHatch
 10
0.0
 20
0.0
 30
0.0
210
0.0
220
0.0
230
1.0
  2
_USER
 70
     0
 71
     1
 91
        2
 92
        1
 93
       12
 72
     2
 10
-28.41524642869007
 20
10.82582033820259
 40
1.526904761905881
 50
90.0
 51
270.0
 73
     1
 72
     1
 10
-28.41524642869007
 20
9.298915576297276
 11
-25.26492670490907
 21
9.298915576297276
 72
     1
 10
-25.26492670490907
 20
9.298915576297276
 11
-25.26492670490907
 21
9.996929181739773
 72
     1
 10
-25.26492670490907
 20
9.996929181739773
 11
-26.60085453133675
 21
9.996929181739773
 72
     1
 10
-26.60085453133675
 20
9.996929181739773
 11
-26.60085453133675
 21
10.47681353548148
 72
     1
 10
-26.60085453133675
 20
10.47681353548148
 11
-25.26492670490907
 21
10.47681353548148
 72
     1
 10
-25.26492670490907
 20
10.47681353548148
 11
-25.26492670490907
 21
11.17482714092378
 72
     1
 10
-25.26492670490907
 20
11.17482714092378
 11
-26.60085453133675
 21
11.17482714092378
 72
     1
 10
-26.60085453133675
 20
11.17482714092378
 11
-26.60085453133675
 21
11.65471149466549
 72
     1
 10
-26.60085453133675
 20
11.65471149466549
 11
-25.26492670490907
 21
11.65471149466549
 72
     1
 10
-25.26492670490907
 20
11.65471149466549
 11
-25.26492670490907
 21
12.35272510010847
 72
     1
 10
-25.26492670490907
 20
12.35272510010847
 11
-28.41524642869007
 21
12.35272510010847
 97
       12
330
E6
330
E0
330
107
330
106
330
105
330
104
330
E1
330
E2
330
E3
330
E4
330
186
330
E5
 92
       16
 93
        4
 72
     2
 10
-27.99923438217857
 20
10.82582033820259
 40
0.7717997786796724
 50
141.8795802028404
 51
218.120419797156
 73
     1
 72
     2
 10
-28.19897441852487
 20
10.66908916008217
 40
0.5179085730134372
 50
218.1204197971511
 51
321.8795802028569
 73
     1
 72
     2
 10
-28.39871445487106
 20
10.82582033820259
 40
0.7717997786796436
 50
321.8795802028444
 51
398.1204197971591
 73
     1
 72
     2
 10
-28.19897441852487
 20
10.98255151632307
 40
0.5179085730135293
 50
38.1204197971431
 51
141.8795802028489
 73
     1
 97
        4
330
193
330
192
330
18D
330
18C
 75
     1
 76
     0
 52
45.0
 41
0.1
 77
     0
 78
     1
 53
45.0
 43
0.0
 44
0.0
 45
-0.0707106781186548
 46
0.0707106781186548
 79
     0
 98
        1
 10
0.0
 20
0.0
  0
HATCH
  5
1DC
330
76
100
AcDbEntity
  8
1
  6
Continuous
 62
     2
100
AcDbHatch
 10
0.0
 20
0.0
 30
0.0
210
0.0
220
0.0
230
1.0
  2
_USER
 70
     0
 71
     1
 91
        2
 92
        1
 93
        4
 72
     2
 10
-32.44086179115166
 20
7.46662986202827
 40
1.45803408365149
 50
117.5481481756624
 51
242.4518518243375
 73
     1
 72
     2
 10
-32.15992189931836
 20
8.005204872331575
 40
2.065479772208509
 50
242.4518518243402
 51
297.548148175687
 73
     1
 72
     2
 10
-31.87898200748506
 20
7.46662986202827
 40
1.458034083651999
 50
297.5481481757009
 51
422.4518518242992
 73
     1
 72
     2
 10
-32.15992189931836
 20
6.928054851725477
 40
2.065479772208566
 50
62.45185182430646
 51
117.5481481756664
 73
     1
 97
        4
330
191
330
18E
330
190
330
18F
 92
       16
 93
        4
 72
     2
 10
-32.15992189931836
 20
7.62336104014878
 40
0.5179085730132971
 50
38.12041979714728
 51
141.8795802028593
 73
     1
 72
     2
 10
-31.96018186297226
 20
7.46662986202827
 40
0.7717997786794721
 50
141.8795802028367
 51
218.1204197971682
 73
     1
 72
     2
 10
-32.15992189931836
 20
7.309898683908273
 40
0.5179085730137409
 50
218.1204197971927
 51
321.8795802028008
 73
     1
 72
     2
 10
-32.35966193566478
 20
7.46662986202827
 40
0.7717997786796975
 50
321.8795802028419
 51
398.1204197971532
 73
     1
 97
        4
330
174
330
175
330
176
330
173
 75
     1
 76
     0
 52
45.0
 41
0.1
 77
     0
 78
     1
 53
45.0
 43
0.0
 44
0.0
 45
-0.0707106781186548
 46
0.0707106781186548
 79
     0
 98
        1
 10
0.0
 20
0.0
  0
HATCH
  5
1DD
330
76
100
AcDbEntity
  8
1
  6
Continuous
 62
     2
100
AcDbHatch
 10
0.0
 20
0.0
 30
0.0
210
0.0
220
0.0
230
1.0
  2
_USER
 70
     0
 71
     1
 91
        2
 92
        1
 93
        4
 72
     2
 10
-32.44086179115166
 20
7.46662986202827
 40
1.45803408365149
 50
117.5481481756624
 51
242.4518518243375
 73
     1
 72
     2
 10
-32.15992189931836
 20
8.005204872331575
 40
2.065479772208509
 50
242.4518518243402
 51
297.548148175687
 73
     1
 72
     2
 10
-31.87898200748506
 20
7.46662986202827
 40
1.458034083651999
 50
297.5481481757009
 51
422.4518518242992
 73
     1
 72
     2
 10
-32.15992189931836
 20
6.928054851725477
 40
2.065479772208566
 50
62.45185182430646
 51
117.5481481756664
 73
     1
 97
        4
330
191
330
18E
330
190
330
18F
 92
       16
 93
        4
 72
     2
 10
-32.15992189931836
 20
7.62336104014878
 40
0.5179085730132971
 50
38.12041979714728
 51
141.8795802028593
 73
     1
 72
     2
 10
-31.96018186297226
 20
7.46662986202827
 40
0.7717997786794721
 50
141.8795802028367
 51
218.1204197971682
 73
     1
 72
     2
 10
-32.15992189931836
 20
7.309898683908273
 40
0.5179085730137409
 50
218.1204197971927
 51
321.8795802028008
 73
     1
 72
     2
 10
-32.35966193566478
 20
7.46662986202827
 40
0.7717997786796975
 50
321.8795802028419
 51
398.1204197971532
 73
     1
 97
        4
330
174
330
175
330
176
330
173
 75
     1
 76
     0
 52
45.0
 41
0.1
 77
     0
 78
     1
 53
45.0
 43
0.0
 44
0.0
 45
-0.0707106781186548
 46
0.0707106781186548
 79
     0
 98
        1
 10
0.0
 20
0.0
  0
HATCH
  5
1DE
330
76
100
AcDbEntity
  8
1
  6
Continuous
 62
     2
100
AcDbHatch
 10
0.0
 20
0.0
 30
0.0
210
0.0
220
0.0
230
1.0
  2
_USER
 70
     0
 71
     1
 91
        2
 92
        1
 93
        6
 72
     1
 10
-36.71573664571187
 20
12.35272510010847
 11
-36.71573664571187
 21
9.298915576297276
 72
     1
 10
-36.71573664571187
 20
9.298915576297276
 11
-35.47523223545775
 21
9.298915576297276
 72
     1
 10
-35.47523223545775
 20
9.298915576297276
 11
-35.47523223545775
 21
10.24199381744109
 72
     1
 10
-35.47523223545775
 20
10.24199381744109
 11
-34.71646464767747
 21
10.24199381744109
 72
     2
 10
-34.71646464767747
 20
11.29735945877479
 40
1.055365641333701
 50
270.0
 51
450.0
 73
     1
 72
     1
 10
-34.71646464767747
 20
12.35272510010847
 11
-36.71573664571187
 21
12.35272510010847
 97
        6
330
19B
330
F8
330
EE
330
ED
330
FA
330
F9
 92
       16
 93
        4
 72
     1
 10
-35.15793717391586
 20
11.68961925466837
 11
-35.47523223545775
 21
11.68961925466837
 72
     1
 10
-35.47523223545775
 20
11.68961925466837
 11
-35.47523223545775
 21
10.98389160532616
 72
     1
 10
-35.47523223545775
 20
10.98389160532616
 11
-35.15793717391586
 21
10.98389160532616
 72
     2
 10
-35.15793717391586
 20
11.33675542999728
 40
0.35286382467112
 50
270.0
 51
450.0
 73
     1
 97
        4
330
FB
330
EC
330
FC
330
187
 75
     1
 76
     0
 52
45.0
 41
0.1
 77
     0
 78
     1
 53
45.0
 43
0.0
 44
0.0
 45
-0.0707106781186548
 46
0.0707106781186548
 79
     0
 98
        1
 10
0.0
 20
0.0
  0
HATCH
  5
1DF
330
76
100
AcDbEntity
  8
1
  6
Continuous
 62
     2
100
AcDbHatch
 10
0.0
 20
0.0
 30
0.0
210
0.0
220
0.0
230
1.0
  2
_USER
 70
     0
 71
     1
 91
        2
 92
        1
 93
        6
 72
     1
 10
-36.71573664571187
 20
12.35272510010847
 11
-36.71573664571187
 21
9.298915576297276
 72
     1
 10
-36.71573664571187
 20
9.298915576297276
 11
-35.47523223545775
 21
9.298915576297276
 72
     1
 10
-35.47523223545775
 20
9.298915576297276
 11
-35.47523223545775
 21
10.24199381744109
 72
     1
 10
-35.47523223545775
 20
10.24199381744109
 11
-34.71646464767747
 21
10.24199381744109
 72
     2
 10
-34.71646464767747
 20
11.29735945877479
 40
1.055365641333701
 50
270.0
 51
450.0
 73
     1
 72
     1
 10
-34.71646464767747
 20
12.35272510010847
 11
-36.71573664571187
 21
12.35272510010847
 97
        6
330
19B
330
F8
330
EE
330
ED
330
FA
330
F9
 92
       16
 93
        4
 72
     1
 10
-35.15793717391586
 20
11.68961925466837
 11
-35.47523223545775
 21
11.68961925466837
 72
     1
 10
-35.47523223545775
 20
11.68961925466837
 11
-35.47523223545775
 21
10.98389160532616
 72
     1
 10
-35.47523223545775
 20
10.98389160532616
 11
-35.15793717391586
 21
10.98389160532616
 72
     2
 10
-35.15793717391586
 20
11.33675542999728
 40
0.35286382467112
 50
270.0
 51
450.0
 73
     1
 97
        4
330
FB
330
EC
330
FC
330
187
 75
     1
 76
     0
 52
45.0
 41
0.1
 77
     0
 78
     1
 53
45.0
 43
0.0
 44
0.0
 45
-0.0707106781186548
 46
0.0707106781186548
 79
     0
 98
        1
 10
0.0
 20
0.0
  0
HATCH
  5
1E0
330
76
100
AcDbEntity
  8
1
  6
Continuous
 62
     2
100
AcDbHatch
 10
0.0
 20
0.0
 30
0.0
210
0.0
220
0.0
230
1.0
  2
_USER
 70
     0
 71
     1
 91
        1
 92
        1
 93
       12
 72
     1
 10
-17.10145345127867
 20
12.35272510010847
 11
-15.69872923353145
 21
12.35272510010847
 72
     1
 10
-15.69872923353145
 20
12.35272510010847
 11
-17.00125886429797
 21
10.87977457007227
 72
     1
 10
-17.00125886429797
 20
10.87977457007227
 11
-15.60330581735767
 21
9.298915576297276
 72
     1
 10
-15.60330581735767
 20
9.298915576297276
 11
-17.00603003510597
 21
9.298915576297276
 72
     1
 10
-17.00603003510597
 20
9.298915576297276
 11
-17.70262097317146
 21
10.08664736159099
 72
     1
 10
-17.70262097317146
 20
10.08664736159099
 11
-18.39921191123716
 21
9.298915576297276
 72
     1
 10
-18.39921191123716
 20
9.298915576297276
 11
-19.80193612898538
 21
9.298915576297276
 72
     1
 10
-19.80193612898538
 20
9.298915576297276
 11
-18.40398308204507
 21
10.87977457007227
 72
     1
 10
-18.40398308204507
 20
10.87977457007227
 11
-19.70651271281255
 21
12.35272510010847
 72
     1
 10
-19.70651271281255
 20
12.35272510010847
 11
-18.30378849506326
 21
12.35272510010847
 72
     1
 10
-18.30378849506326
 20
12.35272510010847
 11
-17.70262097317146
 21
11.67290177855298
 72
     1
 10
-17.70262097317146
 20
11.67290177855298
 11
-17.10145345127867
 21
12.35272510010847
 97
       12
330
C7
330
120
330
11F
330
11E
330
11D
330
C8
330
C9
330
C5
330
C6
330
123
330
122
330
121
 75
     1
 76
     0
 52
45.0
 41
0.1
 77
     0
 78
     1
 53
45.0
 43
0.0
 44
0.0
 45
-0.0707106781186548
 46
0.0707106781186548
 79
     0
 98
        1
 10
0.0
 20
0.0
  0
HATCH
  5
1E1
330
76
100
AcDbEntity
  8
1
  6
Continuous
 62
     2
100
AcDbHatch
 10
0.0
 20
0.0
 30
0.0
210
0.0
220
0.0
230
1.0
  2
_USER
 70
     0
 71
     1
 91
        1
 92
        1
 93
       12
 72
     1
 10
-17.10145345127867
 20
12.35272510010847
 11
-15.69872923353145
 21
12.35272510010847
 72
     1
 10
-15.69872923353145
 20
12.35272510010847
 11
-17.00125886429797
 21
10.87977457007227
 72
     1
 10
-17.00125886429797
 20
10.87977457007227
 11
-15.60330581735767
 21
9.298915576297276
 72
     1
 10
-15.60330581735767
 20
9.298915576297276
 11
-17.00603003510597
 21
9.298915576297276
 72
     1
 10
-17.00603003510597
 20
9.298915576297276
 11
-17.70262097317146
 21
10.08664736159099
 72
     1
 10
-17.70262097317146
 20
10.08664736159099
 11
-18.39921191123716
 21
9.298915576297276
 72
     1
 10
-18.39921191123716
 20
9.298915576297276
 11
-19.80193612898538
 21
9.298915576297276
 72
     1
 10
-19.80193612898538
 20
9.298915576297276
 11
-18.40398308204507
 21
10.87977457007227
 72
     1
 10
-18.40398308204507
 20
10.87977457007227
 11
-19.70651271281255
 21
12.35272510010847
 72
     1
 10
-19.70651271281255
 20
12.35272510010847
 11
-18.30378849506326
 21
12.35272510010847
 72
     1
 10
-18.30378849506326
 20
12.35272510010847
 11
-17.70262097317146
 21
11.67290177855298
 72
     1
 10
-17.70262097317146
 20
11.67290177855298
 11
-17.10145345127867
 21
12.35272510010847
 97
       12
330
C7
330
120
330
11F
330
11E
330
11D
330
C8
330
C9
330
C5
330
C6
330
123
330
122
330
121
 75
     1
 76
     0
 52
45.0
 41
0.1
 77
     0
 78
     1
 53
45.0
 43
0.0
 44
0.0
 45
-0.0707106781186548
 46
0.0707106781186548
 79
     0
 98
        1
 10
0.0
 20
0.0
  0
HATCH
  5
1E2
330
76
100
AcDbEntity
  8
1
  6
Continuous
 62
     2
100
AcDbHatch
 10
0.0
 20
0.0
 30
0.0
210
0.0
220
0.0
230
1.0
  2
_USER
 70
     0
 71
     1
 91
        1
 92
        1
 93
        4
 72
     1
 10
-19.92121539920225
 20
12.35272510010847
 11
-19.92121539920225
 21
9.298915576297276
 72
     1
 10
-19.92121539920225
 20
9.298915576297276
 11
-21.16171980945515
 21
9.298915576297276
 72
     1
 10
-21.16171980945515
 20
9.298915576297276
 11
-21.16171980945515
 21
12.35272510010847
 72
     1
 10
-21.16171980945515
 20
12.35272510010847
 11
-19.92121539920225
 21
12.35272510010847
 97
        4
330
11B
330
CA
330
11A
330
11C
 75
     1
 76
     0
 52
45.0
 41
0.1
 77
     0
 78
     1
 53
45.0
 43
0.0
 44
0.0
 45
-0.0707106781186548
 46
0.0707106781186548
 79
     0
 98
        1
 10
0.0
 20
0.0
  0
HATCH
  5
1E3
330
76
100
AcDbEntity
  8
1
  6
Continuous
 62
     2
100
AcDbHatch
 10
0.0
 20
0.0
 30
0.0
210
0.0
220
0.0
230
1.0
  2
_USER
 70
     0
 71
     1
 91
        1
 92
        1
 93
        4
 72
     1
 10
-19.92121539920225
 20
12.35272510010847
 11
-19.92121539920225
 21
9.298915576297276
 72
     1
 10
-19.92121539920225
 20
9.298915576297276
 11
-21.16171980945515
 21
9.298915576297276
 72
     1
 10
-21.16171980945515
 20
9.298915576297276
 11
-21.16171980945515
 21
12.35272510010847
 72
     1
 10
-21.16171980945515
 20
12.35272510010847
 11
-19.92121539920225
 21
12.35272510010847
 97
        4
330
11B
330
CA
330
11A
330
11C
 75
     1
 76
     0
 52
45.0
 41
0.1
 77
     0
 78
     1
 53
45.0
 43
0.0
 44
0.0
 45
-0.0707106781186548
 46
0.0707106781186548
 79
     0
 98
        1
 10
0.0
 20
0.0
  0
HATCH
  5
1E4
330
76
100
AcDbEntity
  8
1
  6
Continuous
 62
     2
100
AcDbHatch
 10
0.0
 20
0.0
 30
0.0
210
0.0
220
0.0
230
1.0
  2
_USER
 70
     0
 71
     1
 91
        2
 92
        1
 93
        8
 72
     1
 10
-20.31165940273425
 20
5.939725100122985
 11
-21.55216381298817
 21
5.939725100122985
 72
     1
 10
-21.55216381298817
 20
5.939725100122985
 11
-21.76364386646395
 21
6.480685644340866
 72
     1
 10
-21.76364386646395
 20
6.480685644340866
 11
-22.89608544313776
 21
6.480685644340866
 72
     1
 10
-22.89608544313776
 20
6.480685644340866
 11
-23.10756549661357
 21
5.939725100122985
 72
     1
 10
-23.10756549661357
 20
5.939725100122985
 11
-24.34806990686656
 21
5.939725100122985
 72
     1
 10
-24.34806990686656
 20
5.939725100122985
 11
-22.95011685992725
 21
8.993534623934067
 72
     1
 10
-22.95011685992725
 20
8.993534623934067
 11
-21.70961244967455
 21
8.993534623934067
 72
     1
 10
-21.70961244967455
 20
8.993534623934067
 11
-20.31165940273425
 21
5.939725100122985
 97
        8
330
116
330
D0
330
115
330
118
330
CD
330
117
330
CE
330
CF
 92
       16
 93
        3
 72
     1
 10
-22.63002989199276
 20
7.161248909647469
 11
-22.02969941761026
 21
7.161248909647469
 72
     1
 10
-22.02969941761026
 20
7.161248909647469
 11
-22.32986465480036
 21
7.929063875634171
 72
     1
 10
-22.32986465480036
 20
7.929063875634171
 11
-22.63002989199276
 21
7.161248909647469
 97
        3
330
CC
330
CB
330
119
 75
     1
 76
     0
 52
45.0
 41
0.1
 77
     0
 78
     1
 53
45.0
 43
0.0
 44
0.0
 45
-0.0707106781186548
 46
0.0707106781186548
 79
     0
 98
        1
 10
0.0
 20
0.0
  0
HATCH
  5
1E5
330
76
100
AcDbEntity
  8
1
  6
Continuous
 62
     2
100
AcDbHatch
 10
0.0
 20
0.0
 30
0.0
210
0.0
220
0.0
230
1.0
  2
_USER
 70
     0
 71
     1
 91
        2
 92
        1
 93
        8
 72
     1
 10
-20.31165940273425
 20
5.939725100122985
 11
-21.55216381298817
 21
5.939725100122985
 72
     1
 10
-21.55216381298817
 20
5.939725100122985
 11
-21.76364386646395
 21
6.480685644340866
 72
     1
 10
-21.76364386646395
 20
6.480685644340866
 11
-22.89608544313776
 21
6.480685644340866
 72
     1
 10
-22.89608544313776
 20
6.480685644340866
 11
-23.10756549661357
 21
5.939725100122985
 72
     1
 10
-23.10756549661357
 20
5.939725100122985
 11
-24.34806990686656
 21
5.939725100122985
 72
     1
 10
-24.34806990686656
 20
5.939725100122985
 11
-22.95011685992725
 21
8.993534623934067
 72
     1
 10
-22.95011685992725
 20
8.993534623934067
 11
-21.70961244967455
 21
8.993534623934067
 72
     1
 10
-21.70961244967455
 20
8.993534623934067
 11
-20.31165940273425
 21
5.939725100122985
 97
        8
330
116
330
D0
330
115
330
118
330
CD
330
117
330
CE
330
CF
 92
       16
 93
        3
 72
     1
 10
-22.63002989199276
 20
7.161248909647469
 11
-22.02969941761026
 21
7.161248909647469
 72
     1
 10
-22.02969941761026
 20
7.161248909647469
 11
-22.32986465480036
 21
7.929063875634171
 72
     1
 10
-22.32986465480036
 20
7.929063875634171
 11
-22.63002989199276
 21
7.161248909647469
 97
        3
330
CC
330
CB
330
119
 75
     1
 76
     0
 52
45.0
 41
0.1
 77
     0
 78
     1
 53
45.0
 43
0.0
 44
0.0
 45
-0.0707106781186548
 46
0.0707106781186548
 79
     0
 98
        1
 10
0.0
 20
0.0
  0
HATCH
  5
1E6
330
76
100
AcDbEntity
  8
1
  6
Continuous
 62
     2
100
AcDbHatch
 10
0.0
 20
0.0
 30
0.0
210
0.0
220
0.0
230
1.0
  2
_USER
 70
     0
 71
     1
 91
        1
 92
        1
 93
        8
 72
     1
 10
-26.50558204604877
 20
8.993534623934067
 11
-26.50558204604877
 21
8.208269317810476
 72
     1
 10
-26.50558204604877
 20
8.208269317810476
 11
-25.69448300857417
 21
8.208269317810476
 72
     1
 10
-25.69448300857417
 20
8.208269317810476
 11
-25.69448300857417
 21
5.939725100122985
 72
     1
 10
-25.69448300857417
 20
5.939725100122985
 11
-24.50169030640765
 21
5.939725100122985
 72
     1
 10
-24.50169030640765
 20
5.939725100122985
 11
-24.50169030640765
 21
8.208269317810476
 72
     1
 10
-24.50169030640765
 20
8.208269317810476
 11
-23.69059126893515
 21
8.208269317810476
 72
     1
 10
-23.69059126893515
 20
8.208269317810476
 11
-23.69059126893515
 21
8.993534623934067
 72
     1
 10
-23.69059126893515
 20
8.993534623934067
 11
-26.50558204604877
 21
8.993534623934067
 97
        8
330
112
330
111
330
110
330
D1
330
D2
330
114
330
D3
330
113
 75
     1
 76
     0
 52
45.0
 41
0.1
 77
     0
 78
     1
 53
45.0
 43
0.0
 44
0.0
 45
-0.0707106781186548
 46
0.0707106781186548
 79
     0
 98
        1
 10
0.0
 20
0.0
  0
HATCH
  5
1E7
330
76
100
AcDbEntity
  8
1
  6
Continuous
 62
     2
100
AcDbHatch
 10
0.0
 20
0.0
 30
0.0
210
0.0
220
0.0
230
1.0
  2
_USER
 70
     0
 71
     1
 91
        1
 92
        1
 93
        8
 72
     1
 10
-26.50558204604877
 20
8.993534623934067
 11
-26.50558204604877
 21
8.208269317810476
 72
     1
 10
-26.50558204604877
 20
8.208269317810476
 11
-25.69448300857417
 21
8.208269317810476
 72
     1
 10
-25.69448300857417
 20
8.208269317810476
 11
-25.69448300857417
 21
5.939725100122985
 72
     1
 10
-25.69448300857417
 20
5.939725100122985
 11
-24.50169030640765
 21
5.939725100122985
 72
     1
 10
-24.50169030640765
 20
5.939725100122985
 11
-24.50169030640765
 21
8.208269317810476
 72
     1
 10
-24.50169030640765
 20
8.208269317810476
 11
-23.69059126893515
 21
8.208269317810476
 72
     1
 10
-23.69059126893515
 20
8.208269317810476
 11
-23.69059126893515
 21
8.993534623934067
 72
     1
 10
-23.69059126893515
 20
8.993534623934067
 11
-26.50558204604877
 21
8.993534623934067
 97
        8
330
112
330
111
330
110
330
D1
330
D2
330
114
330
D3
330
113
 75
     1
 76
     0
 52
45.0
 41
0.1
 77
     0
 78
     1
 53
45.0
 43
0.0
 44
0.0
 45
-0.0707106781186548
 46
0.0707106781186548
 79
     0
 98
        1
 10
0.0
 20
0.0
  0
HATCH
  5
1E8
330
76
100
AcDbEntity
  8
1
  6
Continuous
 62
     2
100
AcDbHatch
 10
0.0
 20
0.0
 30
0.0
210
0.0
220
0.0
230
1.0
  2
_USER
 70
     0
 71
     1
 91
        1
 92
        1
 93
       10
 72
     1
 10
-23.83357546230965
 20
12.35272510010847
 11
-25.02636816447617
 21
12.35272510010847
 72
     1
 10
-25.02636816447617
 20
12.35272510010847
 11
-25.02636816447617
 21
9.298915576297276
 72
     1
 10
-25.02636816447617
 20
9.298915576297276
 11
-23.83357546230965
 21
9.298915576297276
 72
     1
 10
-23.83357546230965
 20
9.298915576297276
 11
-23.83357546230965
 21
10.60769108650197
 72
     1
 10
-23.83357546230965
 20
10.60769108650197
 11
-22.59307105205565
 21
9.298915576297276
 72
     1
 10
-22.59307105205565
 20
9.298915576297276
 11
-21.40027834988905
 21
9.298915576297276
 72
     1
 10
-21.40027834988905
 20
9.298915576297276
 11
-21.40027834988905
 21
12.35272510010847
 72
     1
 10
-21.40027834988905
 20
12.35272510010847
 11
-22.59307105205565
 21
12.35272510010847
 72
     1
 10
-22.59307105205565
 20
12.35272510010847
 11
-22.59307105205565
 21
11.04394958990329
 72
     1
 10
-22.59307105205565
 20
11.04394958990329
 11
-23.83357546230965
 21
12.35272510010847
 97
       10
330
10C
330
D6
330
D7
330
D8
330
D9
330
10F
330
D4
330
10E
330
10D
330
D5
 75
     1
 76
     0
 52
45.0
 41
0.1
 77
     0
 78
     1
 53
45.0
 43
0.0
 44
0.0
 45
-0.0707106781186548
 46
0.0707106781186548
 79
     0
 98
        1
 10
0.0
 20
0.0
  0
HATCH
  5
1E9
330
76
100
AcDbEntity
  8
1
  6
Continuous
 62
     2
100
AcDbHatch
 10
0.0
 20
0.0
 30
0.0
210
0.0
220
0.0
230
1.0
  2
_USER
 70
     0
 71
     1
 91
        1
 92
        1
 93
       10
 72
     1
 10
-23.83357546230965
 20
12.35272510010847
 11
-25.02636816447617
 21
12.35272510010847
 72
     1
 10
-25.02636816447617
 20
12.35272510010847
 11
-25.02636816447617
 21
9.298915576297276
 72
     1
 10
-25.02636816447617
 20
9.298915576297276
 11
-23.83357546230965
 21
9.298915576297276
 72
     1
 10
-23.83357546230965
 20
9.298915576297276
 11
-23.83357546230965
 21
10.60769108650197
 72
     1
 10
-23.83357546230965
 20
10.60769108650197
 11
-22.59307105205565
 21
9.298915576297276
 72
     1
 10
-22.59307105205565
 20
9.298915576297276
 11
-21.40027834988905
 21
9.298915576297276
 72
     1
 10
-21.40027834988905
 20
9.298915576297276
 11
-21.40027834988905
 21
12.35272510010847
 72
     1
 10
-21.40027834988905
 20
12.35272510010847
 11
-22.59307105205565
 21
12.35272510010847
 72
     1
 10
-22.59307105205565
 20
12.35272510010847
 11
-22.59307105205565
 21
11.04394958990329
 72
     1
 10
-22.59307105205565
 20
11.04394958990329
 11
-23.83357546230965
 21
12.35272510010847
 97
       10
330
10C
330
D6
330
D7
330
D8
330
D9
330
10F
330
D4
330
10E
330
10D
330
D5
 75
     1
 76
     0
 52
45.0
 41
0.1
 77
     0
 78
     1
 53
45.0
 43
0.0
 44
0.0
 45
-0.0707106781186548
 46
0.0707106781186548
 79
     0
 98
        1
 10
0.0
 20
0.0
  0
HATCH
  5
1EA
330
76
100
AcDbEntity
  8
1
  6
Continuous
 62
     2
100
AcDbHatch
 10
0.0
 20
0.0
 30
0.0
210
0.0
220
0.0
230
1.0
  2
_USER
 70
     0
 71
     1
 91
        1
 92
        1
 93
       10
 72
     1
 10
-29.08201428272827
 20
8.993534623934067
 11
-30.27480698489586
 21
8.993534623934067
 72
     1
 10
-30.27480698489586
 20
8.993534623934067
 11
-30.27480698489586
 21
5.939725100122985
 72
     1
 10
-30.27480698489586
 20
5.939725100122985
 11
-29.08201428272827
 21
5.939725100122985
 72
     1
 10
-29.08201428272827
 20
5.939725100122985
 11
-29.08201428272827
 21
7.248500610327568
 72
     1
 10
-29.08201428272827
 20
7.248500610327568
 11
-27.84150987247537
 21
5.939725100122985
 72
     1
 10
-27.84150987247537
 20
5.939725100122985
 11
-26.64871717030897
 21
5.939725100122985
 72
     1
 10
-26.64871717030897
 20
5.939725100122985
 11
-26.64871717030897
 21
8.993534623934067
 72
     1
 10
-26.64871717030897
 20
8.993534623934067
 11
-27.84150987247537
 21
8.993534623934067
 72
     1
 10
-27.84150987247537
 20
8.993534623934067
 11
-27.84150987247537
 21
7.684759113728973
 72
     1
 10
-27.84150987247537
 20
7.684759113728973
 11
-29.08201428272827
 21
8.993534623934067
 97
       10
330
DB
330
DC
330
DD
330
109
330
DE
330
DF
330
108
330
10B
330
10A
330
DA
 75
     1
 76
     0
 52
45.0
 41
0.1
 77
     0
 78
     1
 53
45.0
 43
0.0
 44
0.0
 45
-0.0707106781186548
 46
0.0707106781186548
 79
     0
 98
        1
 10
0.0
 20
0.0
  0
HATCH
  5
1EB
330
76
100
AcDbEntity
  8
1
  6
Continuous
 62
     2
100
AcDbHatch
 10
0.0
 20
0.0
 30
0.0
210
0.0
220
0.0
230
1.0
  2
_USER
 70
     0
 71
     1
 91
        1
 92
        1
 93
       10
 72
     1
 10
-29.08201428272827
 20
8.993534623934067
 11
-30.27480698489586
 21
8.993534623934067
 72
     1
 10
-30.27480698489586
 20
8.993534623934067
 11
-30.27480698489586
 21
5.939725100122985
 72
     1
 10
-30.27480698489586
 20
5.939725100122985
 11
-29.08201428272827
 21
5.939725100122985
 72
     1
 10
-29.08201428272827
 20
5.939725100122985
 11
-29.08201428272827
 21
7.248500610327568
 72
     1
 10
-29.08201428272827
 20
7.248500610327568
 11
-27.84150987247537
 21
5.939725100122985
 72
     1
 10
-27.84150987247537
 20
5.939725100122985
 11
-26.64871717030897
 21
5.939725100122985
 72
     1
 10
-26.64871717030897
 20
5.939725100122985
 11
-26.64871717030897
 21
8.993534623934067
 72
     1
 10
-26.64871717030897
 20
8.993534623934067
 11
-27.84150987247537
 21
8.993534623934067
 72
     1
 10
-27.84150987247537
 20
8.993534623934067
 11
-27.84150987247537
 21
7.684759113728973
 72
     1
 10
-27.84150987247537
 20
7.684759113728973
 11
-29.08201428272827
 21
8.993534623934067
 97
       10
330
DB
330
DC
330
DD
330
109
330
DE
330
DF
330
108
330
10B
330
10A
330
DA
 75
     1
 76
     0
 52
45.0
 41
0.1
 77
     0
 78
     1
 53
45.0
 43
0.0
 44
0.0
 45
-0.0707106781186548
 46
0.0707106781186548
 79
     0
 98
        1
 10
0.0
 20
0.0
  0
HATCH
  5
1EC
330
76
100
AcDbEntity
  8
1
  6
Continuous
 62
     2
100
AcDbHatch
 10
0.0
 20
0.0
 30
0.0
210
0.0
220
0.0
230
1.0
  2
_USER
 70
     0
 71
     1
 91
        1
 92
        1
 93
       12
 72
     1
 10
-30.08380922166367
 20
12.35272510010847
 11
-30.08380922166367
 21
9.298915576297276
 72
     1
 10
-30.08380922166367
 20
9.298915576297276
 11
-31.27660192383007
 21
9.298915576297276
 72
     1
 10
-31.27660192383007
 20
9.298915576297276
 11
-31.27660192383007
 21
10.43318768514109
 72
     1
 10
-31.27660192383007
 20
10.43318768514109
 11
-32.32625950173755
 21
10.43318768514109
 72
     1
 10
-32.32625950173755
 20
10.43318768514109
 11
-32.32625950173755
 21
9.298915576297276
 72
     1
 10
-32.32625950173755
 20
9.298915576297276
 11
-33.51905220390415
 21
9.298915576297276
 72
     1
 10
-33.51905220390415
 20
9.298915576297276
 11
-33.51905220390415
 21
12.35272510010847
 72
     1
 10
-33.51905220390415
 20
12.35272510010847
 11
-32.32625950173755
 21
12.35272510010847
 72
     1
 10
-32.32625950173755
 20
12.35272510010847
 11
-32.32625950173755
 21
11.28389176677388
 72
     1
 10
-32.32625950173755
 20
11.28389176677388
 11
-31.27660192383007
 21
11.28389176677388
 72
     1
 10
-31.27660192383007
 20
11.28389176677388
 11
-31.27660192383007
 21
12.35272510010847
 72
     1
 10
-31.27660192383007
 20
12.35272510010847
 11
-30.08380922166367
 21
12.35272510010847
 97
       12
330
103
330
102
330
101
330
E9
330
EA
330
100
330
EB
330
FF
330
FE
330
FD
330
E7
330
E8
 75
     1
 76
     0
 52
45.0
 41
0.1
 77
     0
 78
     1
 53
45.0
 43
0.0
 44
0.0
 45
-0.0707106781186548
 46
0.0707106781186548
 79
     0
 98
        1
 10
0.0
 20
0.0
  0
HATCH
  5
1ED
330
76
100
AcDbEntity
  8
1
  6
Continuous
 62
     2
100
AcDbHatch
 10
0.0
 20
0.0
 30
0.0
210
0.0
220
0.0
230
1.0
  2
_USER
 70
     0
 71
     1
 91
        1
 92
        1
 93
       12
 72
     1
 10
-30.08380922166367
 20
12.35272510010847
 11
-30.08380922166367
 21
9.298915576297276
 72
     1
 10
-30.08380922166367
 20
9.298915576297276
 11
-31.27660192383007
 21
9.298915576297276
 72
     1
 10
-31.27660192383007
 20
9.298915576297276
 11
-31.27660192383007
 21
10.43318768514109
 72
     1
 10
-31.27660192383007
 20
10.43318768514109
 11
-32.32625950173755
 21
10.43318768514109
 72
     1
 10
-32.32625950173755
 20
10.43318768514109
 11
-32.32625950173755
 21
9.298915576297276
 72
     1
 10
-32.32625950173755
 20
9.298915576297276
 11
-33.51905220390415
 21
9.298915576297276
 72
     1
 10
-33.51905220390415
 20
9.298915576297276
 11
-33.51905220390415
 21
12.35272510010847
 72
     1
 10
-33.51905220390415
 20
12.35272510010847
 11
-32.32625950173755
 21
12.35272510010847
 72
     1
 10
-32.32625950173755
 20
12.35272510010847
 11
-32.32625950173755
 21
11.28389176677388
 72
     1
 10
-32.32625950173755
 20
11.28389176677388
 11
-31.27660192383007
 21
11.28389176677388
 72
     1
 10
-31.27660192383007
 20
11.28389176677388
 11
-31.27660192383007
 21
12.35272510010847
 72
     1
 10
-31.27660192383007
 20
12.35272510010847
 11
-30.08380922166367
 21
12.35272510010847
 97
       12
330
103
330
102
330
101
330
E9
330
EA
330
100
330
EB
330
FF
330
FE
330
FD
330
E7
330
E8
 75
     1
 76
     0
 52
45.0
 41
0.1
 77
     0
 78
     1
 53
45.0
 43
0.0
 44
0.0
 45
-0.0707106781186548
 46
0.0707106781186548
 79
     0
 98
        1
 10
0.0
 20
0.0
  0
ENDBLK
  5
78
330
76
100
AcDbEntity
  8
0
100
AcDbBlockEnd
  0
BLOCK
  5
7A
330
79
100
AcDbEntity
  8
0
100
AcDbBlockBegin
  2
_punkt
 70
     0
 10
81.79349459212524
 20
-1.35377489989332
 30
0.0
  3
_punkt
  1

  0
LINE
  5
1EE
330
79
100
AcDbEntity
  8
1
  6
Continuous
 62
     2
100
AcDbLine
 10
81.79349459212524
 20
-1.35377489989332
 30
0.0
 11
81.79349459212524
 21
-6.35377489989344
 31
0.0
  0
LINE
  5
1EF
330
79
100
AcDbEntity
  8
1
  6
Continuous
 62
     2
100
AcDbLine
 10
81.79349459212524
 20
-1.35377489989332
 30
0.0
 11
86.79349459212423
 21
-1.35377489989332
 31
0.0
  0
ENDBLK
  5
7B
330
79
100
AcDbEntity
  8
0
100
AcDbBlockEnd
  0
BLOCK
  5
7F
330
7C
100
AcDbEntity
  8
0
100
AcDbBlockBegin
  2
A4I_CS
 70
     0
 10
81.79349459212524
 20
-6.35377489989344
 30
0.0
  3
A4I_CS
  1

  0
INSERT
  5
7D
330
7C
100
AcDbEntity
  8
1
100
AcDbBlockReference
  2
_rahmen
 10
81.79349459212524
 20
-6.35377489989344
 30
0.0
  0
INSERT
  5
7E
330
7C
100
AcDbEntity
  8
1
100
AcDbBlockReference
  2
_punkt
 10
81.79349459212524
 20
-1.35377489989332
 30
0.0
  0
ENDBLK
  5
80
330
7C
100
AcDbEntity
  8
0
100
AcDbBlockEnd
  0
BLOCK
  5
82
330
81
100
AcDbEntity
  8
0
100
AcDbBlockBegin
  2
STP_5_2-s-select__1
 70
     0
 10
24.41301123448359
 20
19.51037374992022
 30
0.0
  3
STP_5_2-s-select__1
  1

  0
LINE
  5
1F0
330
81
100
AcDbEntity
  8
0
  6
Continuous
 62
     7
100
AcDbLine
 10
24.41301123448359
 20
37.81867449074872
 30
0.0
 11
30.47518906097457
 21
30.00649666425785
 31
0.0
  0
LINE
  5
1F1
330
81
100
AcDbEntity
  8
0
  6
Continuous
 62
     7
100
AcDbLine
 10
33.21673979305995
 20
47.22630885966269
 30
0.0
 11
33.70663774161667
 21
46.5949895548687
 31
0.0
  0
LINE
  5
1F2
330
81
100
AcDbEntity
  8
0
  6
Continuous
 62
     7
100
AcDbLine
 10
34.08698908292251
 20
32.65850241338691
 30
0.0
 11
34.08698908292251
 21
32.94547798747267
 31
0.0
  0
LINE
  5
1F3
330
81
100
AcDbEntity
  8
0
  6
Continuous
 62
     7
100
AcDbLine
 10
34.50122955279472
 20
36.57366306876152
 30
0.0
 11
32.00122955279472
 21
34.40859955930043
 31
0.0
  0
LINE
  5
1F4
330
81
100
AcDbEntity
  8
0
  6
Continuous
 62
     7
100
AcDbLine
 10
33.8412144647591
 20
32.48367681620184
 30
0.0
 11
33.84121446475913
 21
30.24474660012145
 31
0.0
  0
LINE
  5
1F5
330
81
100
AcDbEntity
  8
0
  6
Continuous
 62
     7
100
AcDbLine
 10
32.60436735736406
 20
46.79071311926337
 30
0.0
 11
33.21673979305995
 21
47.22630885966269
 31
0.0
  0
LINE
  5
1F6
330
81
100
AcDbEntity
  8
0
  6
Continuous
 62
     7
100
AcDbLine
 10
31.3412144647591
 20
30.70536465268903
 30
0.0
 11
34.08698908292251
 21
32.65850241338691
 31
0.0
  0
LINE
  5
1F7
330
81
100
AcDbEntity
  8
0
  6
Continuous
 62
     7
100
AcDbLine
 10
30.47518906097457
 20
30.00649666425785
 30
0.0
 11
30.4751890609746
 21
28.32968309066035
 31
0.0
  0
LINE
  5
1F8
330
81
100
AcDbEntity
  8
0
  6
Continuous
 62
     7
100
AcDbLine
 10
31.3412144647591
 20
30.70536465268903
 30
0.0
 11
31.34121446475914
 21
28.07968309066033
 31
0.0
  0
LINE
  5
1F9
330
81
100
AcDbEntity
  8
0
  6
Continuous
 62
     7
100
AcDbLine
 10
31.34121446475914
 20
28.07968309066033
 30
0.0
 11
30.4751890609746
 21
28.32968309066035
 31
0.0
  0
LINE
  5
1FA
330
81
100
AcDbEntity
  8
0
  6
Continuous
 62
     7
100
AcDbLine
 10
31.88272081570537
 20
27.43261594310573
 30
0.0
 11
30.58368271002857
 21
27.80761594310576
 31
0.0
  0
LINE
  5
1FB
330
81
100
AcDbEntity
  8
0
  6
Continuous
 62
     7
100
AcDbLine
 10
33.84121446475913
 20
30.24474660012145
 30
0.0
 11
31.34121446475914
 21
28.07968309066033
 31
0.0
  0
LINE
  5
1FC
330
81
100
AcDbEntity
  8
0
  6
Continuous
 62
     7
100
AcDbLine
 10
32.63272081570537
 20
28.08213499594422
 30
0.0
 11
31.88272081570537
 21
27.43261594310573
 31
0.0
  0
LINE
  5
1FD
330
81
100
AcDbEntity
  8
0
  6
Continuous
 62
     7
100
AcDbLine
 10
32.63272081570537
 20
28.08213499594422
 30
0.0
 11
33.84121446475913
 21
30.24474660012145
 31
0.0
  0
LINE
  5
1FE
330
81
100
AcDbEntity
  8
0
  6
Continuous
 62
     7
100
AcDbLine
 10
30.58368271002857
 20
27.80761594310576
 30
0.0
 11
30.4751890609746
 21
28.32968309066035
 31
0.0
  0
LINE
  5
1FF
330
81
100
AcDbEntity
  8
0
  6
Continuous
 62
     7
100
AcDbLine
 10
34.08698908292251
 20
32.65850241338691
 30
0.0
 11
36.58698908292251
 21
34.82356592284801
 31
0.0
  0
LINE
  5
200
330
81
100
AcDbEntity
  8
0
  6
Continuous
 62
     7
100
AcDbLine
 10
34.08698908292251
 20
32.94547798747267
 30
0.0
 11
36.58698908292251
 21
35.11054149693376
 31
0.0
  0
LINE
  5
201
330
81
100
AcDbEntity
  8
0
  6
Continuous
 62
     7
100
AcDbLine
 10
33.74057892140869
 20
33.3918881489865
 30
0.0
 11
36.24057892140869
 21
35.55695165844759
 31
0.0
  0
LINE
  5
202
330
81
100
AcDbEntity
  8
0
  6
Continuous
 62
     7
100
AcDbLine
 10
33.12820648571287
 20
32.95629240858715
 30
0.0
 11
35.62820648571286
 21
35.12135591804825
 31
0.0
  0
LINE
  5
203
330
81
100
AcDbEntity
  8
0
  6
Continuous
 62
     7
100
AcDbLine
 10
33.74057892140869
 20
33.3918881489865
 30
0.0
 11
33.12820648571287
 21
32.95629240858715
 31
0.0
  0
LINE
  5
204
330
81
100
AcDbEntity
  8
0
  6
Continuous
 62
     7
100
AcDbLine
 10
34.08698908292251
 20
32.94547798747267
 30
0.0
 11
33.74057892140869
 21
33.3918881489865
 31
0.0
  0
LINE
  5
205
330
81
100
AcDbEntity
  8
0
  6
Continuous
 62
     7
100
AcDbLine
 10
26.51458418019822
 20
41.47910302330539
 30
0.0
 11
33.70663774161667
 21
46.5949895548687
 31
0.0
  0
LINE
  5
206
330
81
100
AcDbEntity
  8
0
  6
Continuous
 62
     7
100
AcDbLine
 10
30.14156111311622
 20
42.19185938205312
 30
0.0
 11
29.20795985317218
 21
43.39496811136941
 31
0.0
  0
LINE
  5
207
330
81
100
AcDbEntity
  8
0
  6
Continuous
 62
     7
100
AcDbLine
 10
32.12186958526565
 20
50.22115939233298
 30
0.0
 11
29.62186958526564
 21
48.05609588287189
 31
0.0
  0
LINE
  5
208
330
81
100
AcDbEntity
  8
0
  6
Continuous
 62
     7
100
AcDbLine
 10
30.14156111311622
 20
42.19185938205312
 30
0.0
 11
27.64156111311622
 21
40.02679587259203
 31
0.0
  0
LINE
  5
209
330
81
100
AcDbEntity
  8
0
  6
Continuous
 62
     7
100
AcDbLine
 10
29.41899399801742
 20
40.54492570207755
 30
0.0
 11
30.14156111311622
 21
42.19185938205312
 31
0.0
  0
LINE
  5
20A
330
81
100
AcDbEntity
  8
0
  6
Continuous
 62
     7
100
AcDbLine
 10
32.60436735736406
 20
46.79071311926337
 30
0.0
 11
31.47739042444602
 21
48.24302026997673
 31
0.0
  0
LINE
  5
20B
330
81
100
AcDbEntity
  8
0
  6
Continuous
 62
     7
100
AcDbLine
 10
31.47739042444602
 20
48.24302026997673
 30
0.0
 11
29.62186958526564
 21
48.05609588287189
 31
0.0
  0
LINE
  5
20C
330
81
100
AcDbEntity
  8
0
  6
Continuous
 62
     7
100
AcDbLine
 10
24.41301123448359
 20
52.85064196981949
 30
0.0
 11
24.41301123448359
 21
37.81867449074872
 31
0.0
  0
LINE
  5
20D
330
81
100
AcDbEntity
  8
0
  6
Continuous
 62
     7
100
AcDbLine
 10
26.59572352792785
 20
38.79645280916965
 30
0.0
 11
26.91899399801743
 21
38.37986219261646
 31
0.0
  0
LINE
  5
20E
330
81
100
AcDbEntity
  8
0
  6
Continuous
 62
     7
100
AcDbLine
 10
26.10888744154965
 20
38.4501541955523
 30
0.0
 11
26.59572352792785
 21
38.79645280916965
 31
0.0
  0
LINE
  5
20F
330
81
100
AcDbEntity
  8
0
  6
Continuous
 62
     7
100
AcDbLine
 10
29.45830396897682
 20
47.29320665270141
 30
0.0
 11
25.58504831320092
 21
52.28457490622857
 31
0.0
  0
LINE
  5
210
330
81
100
AcDbEntity
  8
0
  6
Continuous
 62
     7
100
AcDbLine
 10
31.6699867572746
 20
49.82981738375878
 30
0.0
 11
28.44327204167773
 21
53.98800440417975
 31
0.0
  0
LINE
  5
211
330
81
100
AcDbEntity
  8
0
  6
Continuous
 62
     7
100
AcDbLine
 10
29.61772198476737
 20
56.02628009272941
 30
0.0
 11
28.53471141460069
 21
57.42192888500668
 31
0.0
  0
LINE
  5
212
330
81
100
AcDbEntity
  8
0
  6
Continuous
 62
     7
100
AcDbLine
 10
35.10436735736406
 20
48.95577662872448
 30
0.0
 11
33.97739042444602
 21
50.40808377943782
 31
0.0
  0
LINE
  5
213
330
81
100
AcDbEntity
  8
0
  6
Continuous
 62
     7
100
AcDbLine
 10
28.46973175194589
 20
58.44343585783045
 30
0.0
 11
28.75670732603162
 21
58.36059314535584
 31
0.0
  0
LINE
  5
214
330
81
100
AcDbEntity
  8
0
  6
Continuous
 62
     7
100
AcDbLine
 10
33.97739042444602
 20
50.40808377943782
 30
0.0
 11
32.12186958526565
 21
50.22115939233298
 31
0.0
  0
LINE
  5
215
330
81
100
AcDbEntity
  8
0
  6
Continuous
 62
     7
100
AcDbLine
 10
28.89515486966867
 20
54.37934641275385
 30
0.0
 11
29.61772198476737
 21
56.02628009272941
 31
0.0
  0
LINE
  5
216
330
81
100
AcDbEntity
  8
0
  6
Continuous
 62
     7
100
AcDbLine
 10
28.75670732603162
 20
58.36059314535584
 30
0.0
 11
29.10311748754536
 21
57.9141829838421
 31
0.0
  0
LINE
  5
217
330
81
100
AcDbEntity
  8
0
  6
Continuous
 62
     7
100
AcDbLine
 10
28.46973175194589
 20
58.44343585783045
 30
0.0
 11
27.76233525128612
 21
57.94024713721055
 31
0.0
  0
LINE
  5
218
330
81
100
AcDbEntity
  8
0
  6
Continuous
 62
     7
100
AcDbLine
 10
29.62186958526564
 20
48.05609588287189
 30
0.0
 11
29.94514005535506
 21
47.63950526631875
 31
0.0
  0
LINE
  5
219
330
81
100
AcDbEntity
  8
0
  6
Continuous
 62
     7
100
AcDbLine
 10
29.94514005535506
 20
47.63950526631875
 30
0.0
 11
29.45830396897682
 21
47.29320665270141
 31
0.0
  0
LINE
  5
21A
330
81
100
AcDbEntity
  8
0
  6
Continuous
 62
     7
100
AcDbLine
 10
29.45830396897682
 20
47.29320665270141
 30
0.0
 11
29.91018679696777
 21
47.68454866127553
 31
0.0
  0
LINE
  5
21B
330
81
100
AcDbEntity
  8
0
  6
Continuous
 62
     7
100
AcDbLine
 10
25.58504831320092
 20
52.28457490622857
 30
0.0
 11
26.07188439957911
 21
52.63087351984589
 31
0.0
  0
LINE
  5
21C
330
81
100
AcDbEntity
  8
0
  6
Continuous
 62
     7
100
AcDbLine
 10
26.07188439957911
 20
52.63087351984589
 30
0.0
 11
26.39515486966866
 21
52.21428290329277
 31
0.0
  0
LINE
  5
21D
330
81
100
AcDbEntity
  8
0
  6
Continuous
 62
     7
100
AcDbLine
 10
25.99074505184941
 20
55.31352373398174
 30
0.0
 11
26.60311748754536
 21
55.749119474381
 31
0.0
  0
LINE
  5
21E
330
81
100
AcDbEntity
  8
0
  6
Continuous
 62
     7
100
AcDbLine
 10
26.60311748754536
 20
55.749119474381
 30
0.0
 11
29.10311748754536
 21
57.9141829838421
 31
0.0
  0
LINE
  5
21F
330
81
100
AcDbEntity
  8
0
  6
Continuous
 62
     7
100
AcDbLine
 10
26.60311748754536
 20
55.749119474381
 30
0.0
 11
26.25670732603162
 21
56.19552963589473
 31
0.0
  0
LINE
  5
220
330
81
100
AcDbEntity
  8
0
  6
Continuous
 62
     7
100
AcDbLine
 10
32.60436735736406
 20
46.79071311926337
 30
0.0
 11
35.10436735736406
 21
48.95577662872448
 31
0.0
  0
LINE
  5
221
330
81
100
AcDbEntity
  8
0
  6
Continuous
 62
     7
100
AcDbLine
 10
33.21673979305995
 20
47.22630885966269
 30
0.0
 11
35.71673979305995
 21
49.3913723691238
 31
0.0
  0
LINE
  5
222
330
81
100
AcDbEntity
  8
0
  6
Continuous
 62
     7
100
AcDbLine
 10
35.71673979305995
 20
49.3913723691238
 30
0.0
 11
36.20663774161668
 21
48.76005306432981
 31
0.0
  0
LINE
  5
223
330
81
100
AcDbEntity
  8
0
  6
Continuous
 62
     7
100
AcDbLine
 10
33.70663774161667
 20
46.5949895548687
 30
0.0
 11
36.20663774161668
 21
48.76005306432981
 31
0.0
  0
LINE
  5
224
330
81
100
AcDbEntity
  8
0
  6
Continuous
 62
     7
100
AcDbLine
 10
36.58698908292251
 20
35.11054149693376
 30
0.0
 11
36.58698908292251
 21
34.82356592284801
 31
0.0
  0
LINE
  5
225
330
81
100
AcDbEntity
  8
0
  6
Continuous
 62
     7
100
AcDbLine
 10
36.24057892140869
 20
35.55695165844759
 30
0.0
 11
36.58698908292251
 21
35.11054149693376
 31
0.0
  0
LINE
  5
226
330
81
100
AcDbEntity
  8
0
  6
Continuous
 62
     7
100
AcDbLine
 10
36.24057892140869
 20
35.55695165844759
 30
0.0
 11
35.62820648571286
 21
35.12135591804825
 31
0.0
  0
LINE
  5
227
330
81
100
AcDbEntity
  8
0
  6
Continuous
 62
     7
100
AcDbLine
 10
35.62820648571286
 20
35.12135591804825
 30
0.0
 11
34.50122955279472
 21
36.57366306876152
 31
0.0
  0
LINE
  5
228
330
81
100
AcDbEntity
  8
0
  6
Continuous
 62
     7
100
AcDbLine
 10
35.10436735736406
 20
48.95577662872448
 30
0.0
 11
35.71673979305995
 21
49.3913723691238
 31
0.0
  0
LINE
  5
229
330
81
100
AcDbEntity
  8
0
  6
Continuous
 62
     7
100
AcDbLine
 10
32.632720815705
 20
20.46027841772104
 30
0.0
 11
32.19970811381289
 21
19.9267847686673
 31
0.0
  0
LINE
  5
22A
330
81
100
AcDbEntity
  8
0
  6
Continuous
 62
     7
100
AcDbLine
 10
31.88272081570519
 20
19.81075936488257
 30
0.0
 11
32.632720815705
 21
20.46027841772104
 31
0.0
  0
LINE
  5
22B
330
81
100
AcDbEntity
  8
0
  6
Continuous
 62
     2
100
AcDbLine
 10
31.01669541192069
 20
19.76829111961341
 30
0.0
 11
31.76669541192068
 21
19.55178476866729
 31
0.0
  0
LINE
  5
22C
330
81
100
AcDbEntity
  8
0
  6
Continuous
 62
     7
100
AcDbLine
 10
30.58368271002875
 20
20.18575936488267
 30
0.0
 11
31.01669541192069
 21
19.76829111961341
 31
0.0
  0
LINE
  5
22D
330
81
100
AcDbEntity
  8
0
  6
Continuous
 62
     7
100
AcDbLine
 10
30.58368271002875
 20
20.18575936488267
 30
0.0
 11
31.88272081570519
 21
19.81075936488257
 31
0.0
  0
LINE
  5
22E
330
81
100
AcDbEntity
  8
0
  6
Continuous
 62
     7
100
AcDbLine
 10
31.88272081570519
 20
19.81075936488257
 30
0.0
 11
31.88272081570537
 21
27.43261594310573
 31
0.0
  0
LINE
  5
22F
330
81
100
AcDbEntity
  8
0
  6
Continuous
 62
     7
100
AcDbLine
 10
31.34121446475914
 20
28.07968309066033
 30
0.0
 11
31.88272081570537
 21
27.43261594310573
 31
0.0
  0
LINE
  5
230
330
81
100
AcDbEntity
  8
0
  6
Continuous
 62
     7
100
AcDbLine
 10
30.58368271002857
 20
27.80761594310576
 30
0.0
 11
30.58368271002875
 21
20.18575936488267
 31
0.0
  0
LINE
  5
231
330
81
100
AcDbEntity
  8
0
  6
Continuous
 62
     7
100
AcDbLine
 10
31.76669541192068
 20
19.55178476866729
 30
0.0
 11
31.88272081570519
 21
19.81075936488257
 31
0.0
  0
LINE
  5
232
330
81
100
AcDbEntity
  8
0
  6
Continuous
 62
     2
100
AcDbLine
 10
32.19970811381289
 20
19.9267847686673
 30
0.0
 11
31.76669541192068
 21
19.55178476866729
 31
0.0
  0
LINE
  5
233
330
81
100
AcDbEntity
  8
0
  6
Continuous
 62
     7
100
AcDbLine
 10
32.632720815705
 20
20.46027841772104
 30
0.0
 11
32.63272081570537
 21
28.08213499594422
 31
0.0
  0
LINE
  5
234
330
81
100
AcDbEntity
  8
0
  6
Continuous
 62
     7
100
AcDbLine
 10
25.26233525128612
 20
55.77518362774944
 30
0.0
 11
24.41301123448359
 21
52.85064196981949
 31
0.0
  0
LINE
  5
235
330
81
100
AcDbEntity
  8
0
  6
Continuous
 62
     7
100
AcDbLine
 10
27.76233525128612
 20
57.94024713721055
 30
0.0
 11
25.26233525128612
 21
55.77518362774944
 31
0.0
  0
LINE
  5
236
330
81
100
AcDbEntity
  8
0
  6
Continuous
 62
     7
100
AcDbLine
 10
29.61772198476737
 20
56.02628009272941
 30
0.0
 11
27.11772198476736
 21
53.86121658326832
 31
0.0
  0
LINE
  5
237
330
81
100
AcDbEntity
  8
0
  6
Continuous
 62
     7
100
AcDbLine
 10
28.89515486966867
 20
54.37934641275385
 30
0.0
 11
26.39515486966866
 21
52.21428290329277
 31
0.0
  0
LINE
  5
238
330
81
100
AcDbEntity
  8
0
  6
Continuous
 62
     7
100
AcDbLine
 10
25.96973175194589
 20
56.27837234836936
 30
0.0
 11
28.46973175194589
 21
58.44343585783045
 31
0.0
  0
LINE
  5
239
330
81
100
AcDbEntity
  8
0
  6
Continuous
 62
     7
100
AcDbLine
 10
26.25670732603162
 20
56.19552963589473
 30
0.0
 11
28.75670732603162
 21
58.36059314535584
 31
0.0
  0
LINE
  5
23A
330
81
100
AcDbEntity
  8
0
  6
Continuous
 62
     7
100
AcDbLine
 10
33.97739042444602
 20
50.40808377943782
 30
0.0
 11
31.47739042444602
 21
48.24302026997673
 31
0.0
  0
LINE
  5
23B
330
81
100
AcDbEntity
  8
0
  6
Continuous
 62
     7
100
AcDbLine
 10
26.39515486966866
 20
52.21428290329277
 30
0.0
 11
27.11772198476736
 21
53.86121658326832
 31
0.0
  0
LINE
  5
23C
330
81
100
AcDbEntity
  8
0
  6
Continuous
 62
     7
100
AcDbLine
 10
27.11772198476736
 20
53.86121658326832
 30
0.0
 11
25.99074505184941
 21
55.31352373398174
 31
0.0
  0
LINE
  5
23D
330
81
100
AcDbEntity
  8
0
  6
Continuous
 62
     7
100
AcDbLine
 10
25.96973175194589
 20
56.27837234836936
 30
0.0
 11
26.25670732603162
 21
56.19552963589473
 31
0.0
  0
LINE
  5
23E
330
81
100
AcDbEntity
  8
0
  6
Continuous
 62
     7
100
AcDbLine
 10
25.96973175194589
 20
56.27837234836936
 30
0.0
 11
25.26233525128612
 21
55.77518362774944
 31
0.0
  0
LINE
  5
23F
330
81
100
AcDbEntity
  8
0
  6
Continuous
 62
     7
100
AcDbLine
 10
32.19382588562324
 20
35.99539667308265
 30
0.0
 11
28.96711117002651
 21
40.15358369350348
 31
0.0
  0
LINE
  5
240
330
81
100
AcDbEntity
  8
0
  6
Continuous
 62
     7
100
AcDbLine
 10
29.98214309732556
 20
33.45878594202517
 30
0.0
 11
26.10888744154965
 21
38.4501541955523
 31
0.0
  0
LINE
  5
241
330
81
100
AcDbEntity
  8
0
  6
Continuous
 62
     7
100
AcDbLine
 10
32.00122955279472
 20
34.40859955930043
 30
0.0
 11
30.14570871361423
 21
34.2216751721957
 31
0.0
  0
LINE
  5
242
330
81
100
AcDbEntity
  8
0
  6
Continuous
 62
     7
100
AcDbLine
 10
32.64570871361423
 20
36.38673868165679
 30
0.0
 11
30.14570871361423
 21
34.2216751721957
 31
0.0
  0
LINE
  5
243
330
81
100
AcDbEntity
  8
0
  6
Continuous
 62
     7
100
AcDbLine
 10
33.12820648571287
 20
32.95629240858715
 30
0.0
 11
32.00122955279472
 21
34.40859955930043
 31
0.0
  0
LINE
  5
244
330
81
100
AcDbEntity
  8
0
  6
Continuous
 62
     7
100
AcDbLine
 10
30.14570871361423
 20
34.2216751721957
 30
0.0
 11
30.46897918370373
 21
33.80508455564252
 31
0.0
  0
LINE
  5
245
330
81
100
AcDbEntity
  8
0
  6
Continuous
 62
     7
100
AcDbLine
 10
29.98214309732556
 20
33.45878594202517
 30
0.0
 11
30.43402592531647
 21
33.85012795059926
 31
0.0
  0
LINE
  5
246
330
81
100
AcDbEntity
  8
0
  6
Continuous
 62
     7
100
AcDbLine
 10
30.46897918370373
 20
33.80508455564252
 30
0.0
 11
29.98214309732556
 21
33.45878594202517
 31
0.0
  0
LINE
  5
247
330
81
100
AcDbEntity
  8
0
  6
Continuous
 62
     7
100
AcDbLine
 10
27.64156111311622
 20
40.02679587259203
 30
0.0
 11
26.51458418019822
 21
41.47910302330539
 31
0.0
  0
LINE
  5
248
330
81
100
AcDbEntity
  8
0
  6
Continuous
 62
     7
100
AcDbLine
 10
29.41899399801742
 20
40.54492570207755
 30
0.0
 11
26.91899399801743
 21
38.37986219261646
 31
0.0
  0
LINE
  5
249
330
81
100
AcDbEntity
  8
0
  6
Continuous
 62
     7
100
AcDbLine
 10
26.91899399801743
 20
38.37986219261646
 30
0.0
 11
27.64156111311622
 21
40.02679587259203
 31
0.0
  0
LINE
  5
24A
330
81
100
AcDbEntity
  8
0
  6
Continuous
 62
     7
100
AcDbLine
 10
34.50122955279472
 20
36.57366306876152
 30
0.0
 11
32.64570871361423
 21
36.38673868165679
 31
0.0
  0
LINE
  5
24B
330
81
100
AcDbEntity
  8
0
  6
Continuous
 62
     7
100
AcDbLine
 10
31.2293344831029
 20
19.65299735819939
 30
0.0
 11
31.70971894451828
 21
19.51432230914304
 31
0.0
  0
LINE
  5
24C
330
81
100
AcDbEntity
  8
0
  6
Continuous
 62
     7
100
AcDbLine
 10
31.74654636171635
 20
19.52241640440023
 30
0.0
 11
32.12451083472567
 21
19.8497432397543
 31
0.0
  0
SPLINE
  5
24D
330
81
100
AcDbEntity
  8
0
  6
Continuous
 62
     7
100
AcDbSpline
210
0.0
220
0.0
230
1.0
 70
  1064
 71
     3
 72
     9
 73
     5
 74
     3
 42
0.000000001
 43
0.0000000001
 44
0.00000001
 40
0.0
 40
0.0
 40
0.0
 40
0.0
 40
0.1287282347466907
 40
0.2436472722378434
 40
0.2436472722378434
 40
0.2436472722378434
 40
0.2436472722378434
 10
31.2293344831029
 20
19.65299735819939
 30
0.0
 10
31.18822012157634
 20
19.66665038444989
 30
0.0
 10
31.11040191062693
 20
19.69249183955031
 30
0.0
 10
31.04672795852335
 20
19.74399775465448
 30
0.0
 10
31.01669541192069
 20
19.76829111961341
 30
0.0
 11
31.2293344831029
 21
19.65299735819939
 31
0.0
 11
31.10993965345419
 21
19.70112046474711
 31
0.0
 11
31.01669541192069
 21
19.76829111961341
 31
0.0
  0
SPLINE
  5
24E
330
81
100
AcDbEntity
  8
0
  6
Continuous
 62
     7
100
AcDbSpline
210
0.0
220
0.0
230
1.0
 70
  1064
 71
     3
 72
     9
 73
     5
 74
     3
 42
0.000000001
 43
0.0000000001
 44
0.00000001
 40
0.0
 40
0.0
 40
0.0
 40
0.0
 40
0.0526968696540877
 40
0.1077599978648252
 40
0.1077599978648252
 40
0.1077599978648252
 40
0.1077599978648252
 10
32.19970811381289
 20
19.9267847686673
 30
0.0
 10
32.18828168794593
 20
19.91341667579202
 30
0.0
 10
32.16491573839842
 20
19.88608023338146
 30
0.0
 10
32.13817487138029
 20
19.86203159094423
 30
0.0
 10
32.12451083472567
 20
19.8497432397543
 30
0.0
 11
32.19970811381289
 21
19.9267847686673
 31
0.0
 11
32.16462174710452
 21
19.88746674495517
 31
0.0
 11
32.12451083472567
 21
19.8497432397543
 31
0.0
  0
SPLINE
  5
24F
330
81
100
AcDbEntity
  8
0
  6
Continuous
 62
     7
100
AcDbSpline
210
0.0
220
0.0
230
1.0
 70
  1064
 71
     3
 72
     9
 73
     5
 74
     3
 42
0.000000001
 43
0.0000000001
 44
0.00000001
 40
0.0
 40
0.0
 40
0.0
 40
0.0
 40
0.0195293951705873
 40
0.0390587903411763
 40
0.0390587903411763
 40
0.0390587903411763
 40
0.0390587903411763
 10
31.74654636171635
 20
19.52241640440023
 30
0.0
 10
31.74095525684773
 20
19.51857950992942
 30
0.0
 10
31.72977304064982
 20
19.51090573865173
 30
0.0
 10
31.7164036437426
 20
19.51318344606424
 30
0.0
 10
31.70971894451828
 20
19.51432230914304
 30
0.0
 11
31.74654636171635
 21
19.52241640440023
 31
0.0
 11
31.7292262476191
 21
19.51339359855739
 31
0.0
 11
31.70971894451828
 21
19.51432230914304
 31
0.0
  0
SPLINE
  5
250
330
81
100
AcDbEntity
  8
0
  6
Continuous
 62
     7
100
AcDbSpline
210
0.0
220
0.0
230
1.0
 70
  1064
 71
     3
 72
     9
 73
     5
 74
     3
 42
0.000000001
 43
0.0000000001
 44
0.00000001
 40
0.0
 40
0.0
 40
0.0
 40
0.0
 40
0.0194913438787988
 40
0.0358210782944957
 40
0.0358210782944957
 40
0.0358210782944957
 40
0.0358210782944957
 10
31.76669541192068
 20
19.55178476866729
 30
0.0
 10
31.76387243056071
 20
19.54587576099975
 30
0.0
 10
31.75868435503319
 20
19.5350162318195
 30
0.0
 10
31.75034707836346
 20
19.52636172416167
 30
0.0
 10
31.74654636171635
 20
19.52241640440023
 30
0.0
 11
31.76669541192068
 21
19.55178476866729
 31
0.0
 11
31.75729404829593
 21
19.53471061012186
 31
0.0
 11
31.74654636171635
 21
19.52241640440023
 31
0.0
  0
ENDBLK
  5
83
330
81
100
AcDbEntity
  8
0
100
AcDbBlockEnd
  0
BLOCK
  5
86
330
84
100
AcDbEntity
  8
0
100
AcDbBlockBegin
  2
AllgSicht1
 70
     0
 10
30.49999999996108
 20
38.49999999981606
 30
0.0
  3
AllgSicht1
  1

  0
INSERT
  5
85
330
84
100
AcDbEntity
  8
0
100
AcDbBlockReference
  2
STP_5_2-s-select__1
 10
24.41301123448359
 20
19.51037374992022
 30
0.0
  0
MTEXT
  5
251
330
84
100
AcDbEntity
  8
1
 62
     6
100
AcDbMText
 10
30.50000015870305
 20
17.01240099117511
 30
0.0
 40
2.5
 41
0.0
 71
     2
 72
     1
  1
 
  7
CONVERTER_11
 73
     1
 44
1.32052821128451
  0
ENDBLK
  5
87
330
84
100
AcDbEntity
  8
0
100
AcDbBlockEnd
  0
BLOCK
  5
89
330
88
100
AcDbEntity
  8
0
100
AcDbBlockBegin
  2
STP_5_2-s-select__2
 70
     0
 10
-55.62791018026358
 20
22.41978185688038
 30
0.0
  3
STP_5_2-s-select__2
  1

  0
LINE
  5
252
330
88
100
AcDbEntity
  8
0
  6
Continuous
 62
     7
100
AcDbLine
 10
-46.16934685511731
 20
22.41978185688038
 30
0.0
 11
-47.47066772629877
 21
22.41978185688039
 31
0.0
  0
LINE
  5
253
330
88
100
AcDbEntity
  8
0
  6
Continuous
 62
     7
100
AcDbLine
 10
-52.50477922075075
 20
27.41978185688039
 30
0.0
 11
-53.09899331074539
 21
27.41978185688039
 31
0.0
  0
LINE
  5
254
330
88
100
AcDbEntity
  8
0
  6
Continuous
 62
     7
100
AcDbLine
 10
-46.16934685511731
 20
27.41978185688039
 30
0.0
 11
-47.47066772629877
 21
27.41978185688039
 31
0.0
  0
LINE
  5
255
330
88
100
AcDbEntity
  8
0
  6
Continuous
 62
     7
100
AcDbLine
 10
-53.83036416064383
 20
27.41978185688039
 30
0.0
 11
-53.49899331074535
 21
27.41978185688039
 31
0.0
  0
LINE
  5
256
330
88
100
AcDbEntity
  8
0
  6
Continuous
 62
     7
100
AcDbLine
 10
-47.47066772629877
 20
27.41978185688039
 30
0.0
 11
-49.61323863827427
 21
27.41978185688039
 31
0.0
  0
LINE
  5
257
330
88
100
AcDbEntity
  8
0
  6
Continuous
 62
     7
100
AcDbLine
 10
-49.80210794346331
 20
27.41978185688039
 30
0.0
 11
-52.50477922075075
 21
27.41978185688039
 31
0.0
  0
LINE
  5
258
330
88
100
AcDbEntity
  8
0
  6
Continuous
 62
     7
100
AcDbLine
 10
-53.09899331074539
 20
27.41978185688039
 30
0.0
 11
-53.49899331074535
 21
27.41978185688039
 31
0.0
  0
LINE
  5
259
330
88
100
AcDbEntity
  8
0
  6
Continuous
 62
     7
100
AcDbLine
 10
-49.61323863827427
 20
27.41978185688039
 30
0.0
 11
-49.80210794346331
 21
27.41978185688039
 31
0.0
  0
LINE
  5
25A
330
88
100
AcDbEntity
  8
0
  6
Continuous
 62
     7
100
AcDbLine
 10
-54.64719528080326
 20
27.41978185688039
 30
0.0
 11
-55.62791018026358
 21
27.41978185688039
 31
0.0
  0
LINE
  5
25B
330
88
100
AcDbEntity
  8
0
  6
Continuous
 62
     7
100
AcDbLine
 10
-53.83036416064383
 20
27.41978185688039
 30
0.0
 11
-54.64719528080326
 21
27.41978185688039
 31
0.0
  0
LINE
  5
25C
330
88
100
AcDbEntity
  8
0
  6
Continuous
 62
     7
100
AcDbLine
 10
-44.89655464898131
 20
22.41978185688039
 30
0.0
 11
-44.89655464898131
 21
27.41978185688039
 31
0.0
  0
LINE
  5
25D
330
88
100
AcDbEntity
  8
0
  6
Continuous
 62
     7
100
AcDbLine
 10
-45.46224007393066
 20
22.41978185688039
 30
0.0
 11
-45.46224007393066
 21
27.41978185688039
 31
0.0
  0
LINE
  5
25E
330
88
100
AcDbEntity
  8
0
  6
Continuous
 62
     7
100
AcDbLine
 10
-46.16934685511731
 20
22.41978185688038
 30
0.0
 11
-46.16934685511731
 21
27.41978185688039
 31
0.0
  0
LINE
  5
25F
330
88
100
AcDbEntity
  8
0
  6
Continuous
 62
     7
100
AcDbLine
 10
-44.89655464898131
 20
27.41978185688039
 30
0.0
 11
-45.46224007393066
 21
27.41978185688039
 31
0.0
  0
LINE
  5
260
330
88
100
AcDbEntity
  8
0
  6
Continuous
 62
     7
100
AcDbLine
 10
-44.85736275040225
 20
27.41978185688039
 30
0.0
 11
-44.89655464898131
 21
27.41978185688039
 31
0.0
  0
LINE
  5
261
330
88
100
AcDbEntity
  8
0
  6
Continuous
 62
     7
100
AcDbLine
 10
-45.46224007393066
 20
27.41978185688039
 30
0.0
 11
-46.16934685511731
 21
27.41978185688039
 31
0.0
  0
LINE
  5
262
330
88
100
AcDbEntity
  8
0
  6
Continuous
 62
     7
100
AcDbLine
 10
-44.85736275040225
 20
22.41978185688039
 30
0.0
 11
-44.85736275040225
 21
27.41978185688039
 31
0.0
  0
LINE
  5
263
330
88
100
AcDbEntity
  8
0
  6
Continuous
 62
     7
100
AcDbLine
 10
-44.89655464898131
 20
22.41978185688039
 30
0.0
 11
-45.46224007393066
 21
22.41978185688039
 31
0.0
  0
LINE
  5
264
330
88
100
AcDbEntity
  8
0
  6
Continuous
 62
     7
100
AcDbLine
 10
-44.85736275040225
 20
22.41978185688039
 30
0.0
 11
-44.89655464898131
 21
22.41978185688039
 31
0.0
  0
LINE
  5
265
330
88
100
AcDbEntity
  8
0
  6
Continuous
 62
     7
100
AcDbLine
 10
-44.85736275040225
 20
27.41978185688039
 30
0.0
 11
-44.4573627504022
 21
27.41978185688039
 31
0.0
  0
LINE
  5
266
330
88
100
AcDbEntity
  8
0
  6
Continuous
 62
     7
100
AcDbLine
 10
-44.4573627504022
 20
22.41978185688039
 30
0.0
 11
-44.85736275040225
 21
22.41978185688039
 31
0.0
  0
LINE
  5
267
330
88
100
AcDbEntity
  8
0
  6
Continuous
 62
     7
100
AcDbLine
 10
-44.4573627504022
 20
22.41978185688039
 30
0.0
 11
-44.4573627504022
 21
27.41978185688039
 31
0.0
  0
LINE
  5
268
330
88
100
AcDbEntity
  8
0
  6
Continuous
 62
     7
100
AcDbLine
 10
-45.46224007393066
 20
22.41978185688039
 30
0.0
 11
-46.16934685511731
 21
22.41978185688038
 31
0.0
  0
LINE
  5
269
330
88
100
AcDbEntity
  8
0
  6
Continuous
 62
     7
100
AcDbLine
 10
-47.47066772629877
 20
27.41978185688039
 30
0.0
 11
-47.47066772629877
 21
22.41978185688039
 31
0.0
  0
LINE
  5
26A
330
88
100
AcDbEntity
  8
0
  6
Continuous
 62
     7
100
AcDbLine
 10
-53.09899331074539
 20
22.41978185688039
 30
0.0
 11
-53.09899331074539
 21
27.41978185688039
 31
0.0
  0
LINE
  5
26B
330
88
100
AcDbEntity
  8
0
  6
Continuous
 62
     7
100
AcDbLine
 10
-54.64719528080326
 20
27.41978185688039
 30
0.0
 11
-54.64719528080326
 21
22.41978185688039
 31
0.0
  0
LINE
  5
26C
330
88
100
AcDbEntity
  8
0
  6
Continuous
 62
     7
100
AcDbLine
 10
-53.83036416064383
 20
22.41978185688039
 30
0.0
 11
-53.83036416064383
 21
27.41978185688039
 31
0.0
  0
LINE
  5
26D
330
88
100
AcDbEntity
  8
0
  6
Continuous
 62
     7
100
AcDbLine
 10
-53.49899331074535
 20
22.41978185688039
 30
0.0
 11
-53.49899331074535
 21
27.41978185688039
 31
0.0
  0
LINE
  5
26E
330
88
100
AcDbEntity
  8
0
  6
Continuous
 62
     7
100
AcDbLine
 10
-49.61323863827427
 20
27.41978185688039
 30
0.0
 11
-49.61323863827427
 21
22.41978185688039
 31
0.0
  0
LINE
  5
26F
330
88
100
AcDbEntity
  8
0
  6
Continuous
 62
     7
100
AcDbLine
 10
-47.47066772629877
 20
22.41978185688039
 30
0.0
 11
-49.61323863827427
 21
22.41978185688039
 31
0.0
  0
LINE
  5
270
330
88
100
AcDbEntity
  8
0
  6
Continuous
 62
     7
100
AcDbLine
 10
-52.50477922075076
 20
22.41978185688039
 30
0.0
 11
-53.09899331074539
 21
22.41978185688039
 31
0.0
  0
LINE
  5
271
330
88
100
AcDbEntity
  8
0
  6
Continuous
 62
     7
100
AcDbLine
 10
-52.50477922075075
 20
27.41978185688039
 30
0.0
 11
-52.50477922075076
 21
22.41978185688039
 31
0.0
  0
LINE
  5
272
330
88
100
AcDbEntity
  8
0
  6
Continuous
 62
     7
100
AcDbLine
 10
-53.09899331074539
 20
22.41978185688039
 30
0.0
 11
-53.49899331074535
 21
22.41978185688039
 31
0.0
  0
LINE
  5
273
330
88
100
AcDbEntity
  8
0
  6
Continuous
 62
     7
100
AcDbLine
 10
-49.80210794346331
 20
22.41978185688039
 30
0.0
 11
-52.50477922075076
 21
22.41978185688039
 31
0.0
  0
LINE
  5
274
330
88
100
AcDbEntity
  8
0
  6
Continuous
 62
     7
100
AcDbLine
 10
-49.80210794346331
 20
22.41978185688039
 30
0.0
 11
-49.80210794346331
 21
27.41978185688039
 31
0.0
  0
LINE
  5
275
330
88
100
AcDbEntity
  8
0
  6
Continuous
 62
     7
100
AcDbLine
 10
-49.61323863827427
 20
22.41978185688039
 30
0.0
 11
-49.80210794346331
 21
22.41978185688039
 31
0.0
  0
LINE
  5
276
330
88
100
AcDbEntity
  8
0
  6
Continuous
 62
     7
100
AcDbLine
 10
-53.83036416064383
 20
22.41978185688039
 30
0.0
 11
-53.49899331074535
 21
22.41978185688039
 31
0.0
  0
LINE
  5
277
330
88
100
AcDbEntity
  8
0
  6
Continuous
 62
     7
100
AcDbLine
 10
-53.83036416064383
 20
22.41978185688039
 30
0.0
 11
-54.64719528080326
 21
22.41978185688039
 31
0.0
  0
LINE
  5
278
330
88
100
AcDbEntity
  8
0
  6
Continuous
 62
     7
100
AcDbLine
 10
-54.64719528080326
 20
22.41978185688039
 30
0.0
 11
-55.62791018026358
 21
22.41978185688039
 31
0.0
  0
LINE
  5
279
330
88
100
AcDbEntity
  8
0
  6
Continuous
 62
     7
100
AcDbLine
 10
-55.62791018026358
 20
27.41978185688039
 30
0.0
 11
-55.62791018026358
 21
22.41978185688039
 31
0.0
  0
ENDBLK
  5
8A
330
88
100
AcDbEntity
  8
0
100
AcDbBlockEnd
  0
BLOCK
  5
8D
330
8B
100
AcDbEntity
  8
0
100
AcDbBlockBegin
  2
Drfsicht1
 70
     0
 10
-50.04263659013064
 20
24.91978175555249
 30
0.0
  3
Drfsicht1
  1

  0
INSERT
  5
8C
330
8B
100
AcDbEntity
  8
0
100
AcDbBlockReference
  2
STP_5_2-s-select__2
 10
-55.62791018026358
 20
22.41978185688038
 30
0.0
  0
DIMENSION
  5
284
330
8B
100
AcDbEntity
  8
1
100
AcDbDimension
  2
*D17
 10
-59.64719528080326
 20
27.41978185688039
 30
0.0
 11
-61.27219528080326
 21
24.99890859352025
 31
0.0
 70
    33
  1
<>
 71
     5
 42
-1.0
 53
90.0
  3
ME10_DIM_10
100
AcDbAlignedDimension
 13
-54.64719528080326
 23
22.41978185688039
 33
0.0
 14
-54.64719528080326
 24
27.41978185688039
 34
0.0
  0
ENDBLK
  5
8E
330
8B
100
AcDbEntity
  8
0
100
AcDbBlockEnd
  0
BLOCK
  5
90
330
8F
100
AcDbEntity
  8
0
100
AcDbBlockBegin
  2
STP_5_2-s-select__3
 70
     0
 10
4.91472616032162
 20
44.31472587540435
 30
0.0
  3
STP_5_2-s-select__3
  1

  0
LINE
  5
285
330
8F
100
AcDbEntity
  8
0
  6
Continuous
 62
     7
100
AcDbLine
 10
13.65858617832306
 20
68.7781665240791
 30
0.0
 11
5.35391805890074
 21
77.08283464350191
 31
0.0
  0
LINE
  5
286
330
8F
100
AcDbEntity
  8
0
  6
Continuous
 62
     7
100
AcDbLine
 10
6.02183294150826
 20
61.14141328726443
 30
0.0
 11
7.32315381268985
 21
62.4427341584457
 31
0.0
  0
LINE
  5
287
330
8F
100
AcDbEntity
  8
0
  6
Continuous
 62
     7
100
AcDbLine
 10
6.62671026503674
 20
76.9414132872644
 30
0.0
 11
5.91960348385008
 21
77.64852006845118
 31
0.0
  0
LINE
  5
288
330
8F
100
AcDbEntity
  8
0
  6
Continuous
 62
     7
100
AcDbLine
 10
6.62671026503674
 20
76.9414132872644
 30
0.0
 11
7.9280311362182
 21
78.24273415844578
 31
0.0
  0
LINE
  5
289
330
8F
100
AcDbEntity
  8
0
  6
Continuous
 62
     7
100
AcDbLine
 10
7.83527359018302
 20
45.11376398108098
 30
0.0
 11
7.83527359018282
 21
53.91472587540457
 31
0.0
  0
LINE
  5
28A
330
8F
100
AcDbEntity
  8
0
  6
Continuous
 62
     7
100
AcDbLine
 10
5.91960348385008
 20
77.64852006845118
 30
0.0
 11
5.35391805890074
 21
77.08283464350191
 31
0.0
  0
LINE
  5
28B
330
8F
100
AcDbEntity
  8
0
  6
Continuous
 62
     7
100
AcDbLine
 10
13.19161394396135
 20
65.33427474092204
 30
0.0
 11
12.35726530714165
 21
67.47684565289768
 31
0.0
  0
LINE
  5
28C
330
8F
100
AcDbEntity
  8
0
  6
Continuous
 62
     7
100
AcDbLine
 10
9.33527359018297
 20
53.91472587540446
 30
0.0
 11
9.33527359018311
 21
45.11376398108141
 31
0.0
  0
LINE
  5
28D
330
8F
100
AcDbEntity
  8
0
  6
Continuous
 62
     7
100
AcDbLine
 10
13.95635672066477
 20
85.6852733052659
 30
0.0
 11
13.55635672066482
 21
85.28527330526595
 31
0.0
  0
LINE
  5
28E
330
8F
100
AcDbEntity
  8
0
  6
Continuous
 62
     7
100
AcDbLine
 10
9.69732146233935
 20
77.03510493577164
 30
0.0
 11
10.25947135338274
 21
76.47295504472831
 31
0.0
  0
LINE
  5
28F
330
8F
100
AcDbEntity
  8
0
  6
Continuous
 62
     7
100
AcDbLine
 10
10.07060204819369
 20
77.40838552162614
 30
0.0
 11
9.69732146233935
 21
77.03510493577164
 31
0.0
  0
LINE
  5
290
330
8F
100
AcDbEntity
  8
0
  6
Continuous
 62
     7
100
AcDbLine
 10
12.35726530714165
 20
67.47684565289768
 30
0.0
 11
13.65858617832306
 21
68.7781665240791
 31
0.0
  0
LINE
  5
291
330
8F
100
AcDbEntity
  8
0
  6
Continuous
 62
     7
100
AcDbLine
 10
13.79649126748979
 20
81.13427474092208
 30
0.0
 11
12.96214263067017
 21
83.27684565289769
 31
0.0
  0
LINE
  5
292
330
8F
100
AcDbEntity
  8
0
  6
Continuous
 62
     7
100
AcDbLine
 10
13.5648945298159
 20
65.70755532677657
 30
0.0
 11
13.19161394396135
 21
65.33427474092204
 31
0.0
  0
LINE
  5
293
330
8F
100
AcDbEntity
  8
0
  6
Continuous
 62
     7
100
AcDbLine
 10
7.83527359018302
 20
45.11376398108098
 30
0.0
 11
9.33527359018311
 21
45.11376398108141
 31
0.0
  0
LINE
  5
294
330
8F
100
AcDbEntity
  8
0
  6
Continuous
 62
     7
100
AcDbLine
 10
9.08527359018309
 20
56.85094341159913
 30
0.0
 11
16.085273590183
 21
63.85094341159891
 31
0.0
  0
LINE
  5
295
330
8F
100
AcDbEntity
  8
0
  6
Continuous
 62
     7
100
AcDbLine
 10
8.085273590183
 20
57.94660178869148
 30
0.0
 11
4.91472616032162
 21
61.11714921855264
 31
0.0
  0
LINE
  5
296
330
8F
100
AcDbEntity
  8
0
  6
Continuous
 62
     7
100
AcDbLine
 10
5.31472616032167
 20
61.84852006845119
 30
0.0
 11
4.91472616032162
 21
61.44852006845116
 31
0.0
  0
LINE
  5
297
330
8F
100
AcDbEntity
  8
0
  6
Continuous
 62
     7
100
AcDbLine
 10
5.31472616032167
 20
61.84852006845119
 30
0.0
 11
6.02183294150826
 21
61.14141328726443
 31
0.0
  0
LINE
  5
298
330
8F
100
AcDbEntity
  8
0
  6
Continuous
 62
     7
100
AcDbLine
 10
7.32315381268985
 20
62.4427341584457
 30
0.0
 11
9.46572472466547
 21
61.60838552162616
 31
0.0
  0
LINE
  5
299
330
8F
100
AcDbEntity
  8
0
  6
Continuous
 62
     7
100
AcDbLine
 10
7.83527359018282
 20
53.91472587540457
 30
0.0
 11
9.33527359018297
 21
53.91472587540446
 31
0.0
  0
LINE
  5
29A
330
8F
100
AcDbEntity
  8
0
  6
Continuous
 62
     7
100
AcDbLine
 10
4.91472616032162
 20
61.44852006845116
 30
0.0
 11
4.91472616032162
 21
61.11714921855264
 31
0.0
  0
LINE
  5
29B
330
8F
100
AcDbEntity
  8
0
  6
Continuous
 62
     7
100
AcDbLine
 10
7.83527359018302
 20
45.11376398108098
 30
0.0
 11
8.15226088829073
 21
44.56472587540446
 31
0.0
  0
LINE
  5
29C
330
8F
100
AcDbEntity
  8
0
  6
Continuous
 62
     7
100
AcDbLine
 10
9.01828629207515
 20
44.56472587540446
 30
0.0
 11
9.33527359018311
 21
45.11376398108141
 31
0.0
  0
LINE
  5
29D
330
8F
100
AcDbEntity
  8
0
  6
Continuous
 62
     2
100
AcDbLine
 10
9.01828629207515
 20
44.56472587540446
 30
0.0
 11
8.15226088829073
 21
44.56472587540446
 31
0.0
  0
LINE
  5
29E
330
8F
100
AcDbEntity
  8
0
  6
Continuous
 62
     7
100
AcDbLine
 10
16.085273590183
 20
81.20836435258133
 30
0.0
 11
16.085273590183
 21
63.85094341159891
 31
0.0
  0
LINE
  5
29F
330
8F
100
AcDbEntity
  8
0
  6
Continuous
 62
     7
100
AcDbLine
 10
7.9280311362182
 20
78.24273415844578
 30
0.0
 11
10.07060204819369
 21
77.40838552162614
 31
0.0
  0
LINE
  5
2A0
330
8F
100
AcDbEntity
  8
0
  6
Continuous
 62
     7
100
AcDbLine
 10
7.83527359018282
 20
53.91472587540457
 30
0.0
 11
8.08527359018295
 21
54.9147258754045
 31
0.0
  0
LINE
  5
2A1
330
8F
100
AcDbEntity
  8
0
  6
Continuous
 62
     7
100
AcDbLine
 10
9.09244413881101
 20
61.23510493577163
 30
0.0
 11
9.65459402985433
 21
60.6729550447283
 31
0.0
  0
LINE
  5
2A2
330
8F
100
AcDbEntity
  8
0
  6
Continuous
 62
     7
100
AcDbLine
 10
9.46572472466547
 20
61.60838552162616
 30
0.0
 11
9.09244413881101
 21
61.23510493577163
 31
0.0
  0
LINE
  5
2A3
330
8F
100
AcDbEntity
  8
0
  6
Continuous
 62
     7
100
AcDbLine
 10
8.085273590183
 20
57.94660178869148
 30
0.0
 11
8.08527359018295
 21
54.9147258754045
 31
0.0
  0
LINE
  5
2A4
330
8F
100
AcDbEntity
  8
0
  6
Continuous
 62
     7
100
AcDbLine
 10
9.08527359018309
 20
56.85094341159913
 30
0.0
 11
9.08527359018306
 21
54.91472587540446
 31
0.0
  0
LINE
  5
2A5
330
8F
100
AcDbEntity
  8
0
  6
Continuous
 62
     7
100
AcDbLine
 10
15.10455869072269
 20
84.86844218510646
 30
0.0
 11
16.085273590183
 21
81.20836435258133
 31
0.0
  0
LINE
  5
2A6
330
8F
100
AcDbEntity
  8
0
  6
Continuous
 62
     7
100
AcDbLine
 10
10.25947135338274
 20
76.47295504472831
 30
0.0
 11
14.73192174438766
 21
80.94540543573328
 31
0.0
  0
LINE
  5
2A7
330
8F
100
AcDbEntity
  8
0
  6
Continuous
 62
     7
100
AcDbLine
 10
9.65459402985433
 20
60.6729550447283
 30
0.0
 11
14.12704442085926
 21
65.14540543573321
 31
0.0
  0
LINE
  5
2A8
330
8F
100
AcDbEntity
  8
0
  6
Continuous
 62
     7
100
AcDbLine
 10
9.08527359018306
 20
54.91472587540446
 30
0.0
 11
9.33527359018297
 21
53.91472587540446
 31
0.0
  0
LINE
  5
2A9
330
8F
100
AcDbEntity
  8
0
  6
Continuous
 62
     7
100
AcDbLine
 10
9.08527359018306
 20
54.91472587540446
 30
0.0
 11
8.08527359018295
 21
54.9147258754045
 31
0.0
  0
LINE
  5
2AA
330
8F
100
AcDbEntity
  8
0
  6
Continuous
 62
     7
100
AcDbLine
 10
14.28772757056326
 20
85.6852733052659
 30
0.0
 11
13.95635672066477
 21
85.6852733052659
 31
0.0
  0
LINE
  5
2AB
330
8F
100
AcDbEntity
  8
0
  6
Continuous
 62
     7
100
AcDbLine
 10
14.16977185334432
 20
81.50755532677655
 30
0.0
 11
13.79649126748979
 21
81.13427474092208
 31
0.0
  0
LINE
  5
2AC
330
8F
100
AcDbEntity
  8
0
  6
Continuous
 62
     7
100
AcDbLine
 10
14.26346350185155
 20
84.5781665240792
 30
0.0
 11
13.55635672066482
 21
85.28527330526595
 31
0.0
  0
LINE
  5
2AD
330
8F
100
AcDbEntity
  8
0
  6
Continuous
 62
     7
100
AcDbLine
 10
14.12704442085926
 20
65.14540543573321
 30
0.0
 11
13.5648945298159
 21
65.70755532677657
 31
0.0
  0
LINE
  5
2AE
330
8F
100
AcDbEntity
  8
0
  6
Continuous
 62
     7
100
AcDbLine
 10
12.96214263067017
 20
83.27684565289769
 30
0.0
 11
14.26346350185155
 21
84.5781665240792
 31
0.0
  0
LINE
  5
2AF
330
8F
100
AcDbEntity
  8
0
  6
Continuous
 62
     7
100
AcDbLine
 10
14.28772757056326
 20
85.6852733052659
 30
0.0
 11
15.10455869072269
 21
84.86844218510646
 31
0.0
  0
LINE
  5
2B0
330
8F
100
AcDbEntity
  8
0
  6
Continuous
 62
     7
100
AcDbLine
 10
14.73192174438766
 20
80.94540543573328
 30
0.0
 11
14.16977185334432
 21
81.50755532677655
 31
0.0
  0
ARC
  5
2B1
330
8F
100
AcDbEntity
  8
0
  6
Continuous
 62
     7
100
AcDbCircle
 10
8.58527359018294
 20
44.81472587540446
 30
0.0
 40
0.4999999999999918
100
AcDbArc
 50
210.0000000000005
 51
270.0
  0
ARC
  5
2B2
330
8F
100
AcDbEntity
  8
0
  6
Continuous
 62
     7
100
AcDbCircle
 10
8.58527359018294
 20
44.81472587540446
 30
0.0
 40
0.5000000000001137
100
AcDbArc
 50
270.0
 51
329.9999999999995
  0
ENDBLK
  5
91
330
8F
100
AcDbEntity
  8
0
100
AcDbBlockEnd
  0
BLOCK
  5
94
330
92
100
AcDbEntity
  8
0
100
AcDbBlockBegin
  2
Rckans1
 70
     0
 10
10.50000000005007
 20
64.9999999997749
 30
0.0
  3
Rckans1
  1

  0
INSERT
  5
93
330
92
100
AcDbEntity
  8
0
100
AcDbBlockReference
  2
STP_5_2-s-select__3
 10
4.91472616032162
 20
44.31472587540435
 30
0.0
  0
MTEXT
  5
2B3
330
92
100
AcDbEntity
  8
1
 62
     6
100
AcDbMText
 10
10.49999987525231
 20
41.81472587540435
 30
0.0
 40
2.5
 41
0.0
 71
     2
 72
     1
  1
 
  7
CONVERTER_11
 73
     1
 44
1.32052821128451
  0
ENDBLK
  5
95
330
92
100
AcDbEntity
  8
0
100
AcDbBlockEnd
  0
BLOCK
  5
97
330
96
100
AcDbEntity
  8
0
100
AcDbBlockBegin
  2
STP_5_2-s-select__4
 70
     0
 10
-85.49999989867212
 20
44.31472587540421
 30
0.0
  3
STP_5_2-s-select__4
  1

  0
LINE
  5
2B4
330
96
100
AcDbEntity
  8
0
  6
Continuous
 62
     7
100
AcDbLine
 10
-83.34999989867211
 20
53.91472587540457
 30
0.0
 11
-80.4999998986721
 21
54.91472587540449
 31
0.0
  0
LINE
  5
2B5
330
96
100
AcDbEntity
  8
0
  6
Continuous
 62
     7
100
AcDbLine
 10
-80.4999998986721
 20
57.94660178869148
 30
0.0
 11
-85.49999989867212
 21
57.94660178869147
 31
0.0
  0
LINE
  5
2B6
330
96
100
AcDbEntity
  8
0
  6
Continuous
 62
     7
100
AcDbLine
 10
-80.4999998986721
 20
54.91472587540449
 30
0.0
 11
-85.49999989867212
 21
54.91472587540446
 31
0.0
  0
LINE
  5
2B7
330
96
100
AcDbEntity
  8
0
  6
Continuous
 62
     7
100
AcDbLine
 10
-85.49999989867212
 20
57.94660178869147
 30
0.0
 11
-85.49999989867212
 21
54.91472587540446
 31
0.0
  0
LINE
  5
2B8
330
96
100
AcDbEntity
  8
0
  6
Continuous
 62
     7
100
AcDbLine
 10
-80.4999998986721
 20
57.94660178869148
 30
0.0
 11
-80.4999998986721
 21
54.91472587540449
 31
0.0
  0
LINE
  5
2B9
330
96
100
AcDbEntity
  8
0
  6
Continuous
 62
     7
100
AcDbLine
 10
-85.49999989867212
 20
61.11714921855263
 30
0.0
 11
-80.4999998986721
 21
61.11714921855263
 31
0.0
  0
LINE
  5
2BA
330
96
100
AcDbEntity
  8
0
  6
Continuous
 62
     7
100
AcDbLine
 10
-85.49999989867212
 20
61.44852006845115
 30
0.0
 11
-80.4999998986721
 21
61.44852006845115
 31
0.0
  0
LINE
  5
2BB
330
96
100
AcDbEntity
  8
0
  6
Continuous
 62
     7
100
AcDbLine
 10
-80.4999998986721
 20
62.44273415844569
 30
0.0
 11
-85.49999989867212
 21
62.44273415844569
 31
0.0
  0
LINE
  5
2BC
330
96
100
AcDbEntity
  8
0
  6
Continuous
 62
     7
100
AcDbLine
 10
-85.49999989867212
 20
61.84852006845119
 30
0.0
 11
-80.4999998986721
 21
61.84852006845119
 31
0.0
  0
LINE
  5
2BD
330
96
100
AcDbEntity
  8
0
  6
Continuous
 62
     7
100
AcDbLine
 10
-85.49999989867212
 20
61.44852006845115
 30
0.0
 11
-85.49999989867212
 21
61.84852006845119
 31
0.0
  0
LINE
  5
2BE
330
96
100
AcDbEntity
  8
0
  6
Continuous
 62
     7
100
AcDbLine
 10
-80.4999998986721
 20
61.44852006845115
 30
0.0
 11
-80.4999998986721
 21
61.84852006845119
 31
0.0
  0
LINE
  5
2BF
330
96
100
AcDbEntity
  8
0
  6
Continuous
 62
     7
100
AcDbLine
 10
-85.49999989867212
 20
61.11714921855263
 30
0.0
 11
-85.49999989867212
 21
61.44852006845115
 31
0.0
  0
LINE
  5
2C0
330
96
100
AcDbEntity
  8
0
  6
Continuous
 62
     7
100
AcDbLine
 10
-80.4999998986721
 20
61.44852006845115
 30
0.0
 11
-80.4999998986721
 21
61.11714921855263
 31
0.0
  0
LINE
  5
2C1
330
96
100
AcDbEntity
  8
0
  6
Continuous
 62
     7
100
AcDbLine
 10
-84.5330126005646
 20
44.56472587540445
 30
0.0
 11
-84.84999989867211
 21
45.11376398108061
 31
0.0
  0
LINE
  5
2C2
330
96
100
AcDbEntity
  8
0
  6
Continuous
 62
     7
100
AcDbLine
 10
-84.84999989867211
 20
45.11376398108061
 30
0.0
 11
-84.84999989867211
 21
53.9147258754044
 31
0.0
  0
LINE
  5
2C3
330
96
100
AcDbEntity
  8
0
  6
Continuous
 62
     7
100
AcDbLine
 10
-85.49999989867212
 20
54.91472587540446
 30
0.0
 11
-84.84999989867211
 21
53.9147258754044
 31
0.0
  0
LINE
  5
2C4
330
96
100
AcDbEntity
  8
0
  6
Continuous
 62
     7
100
AcDbLine
 10
-85.49999989867212
 20
65.14540543573321
 30
0.0
 11
-80.4999998986721
 21
65.14540543573321
 31
0.0
  0
LINE
  5
2C5
330
96
100
AcDbEntity
  8
0
  6
Continuous
 62
     7
100
AcDbLine
 10
-85.49999989867212
 20
68.7781665240791
 30
0.0
 11
-80.4999998986721
 21
68.7781665240791
 31
0.0
  0
LINE
  5
2C6
330
96
100
AcDbEntity
  8
0
  6
Continuous
 62
     7
100
AcDbLine
 10
-80.4999998986721
 20
67.47684565289768
 30
0.0
 11
-85.49999989867212
 21
67.47684565289765
 31
0.0
  0
LINE
  5
2C7
330
96
100
AcDbEntity
  8
0
  6
Continuous
 62
     7
100
AcDbLine
 10
-85.49999989867212
 20
65.33427474092201
 30
0.0
 11
-85.49999989867212
 21
67.47684565289765
 31
0.0
  0
LINE
  5
2C8
330
96
100
AcDbEntity
  8
0
  6
Continuous
 62
     7
100
AcDbLine
 10
-80.4999998986721
 20
65.33427474092201
 30
0.0
 11
-85.49999989867212
 21
65.33427474092201
 31
0.0
  0
LINE
  5
2C9
330
96
100
AcDbEntity
  8
0
  6
Continuous
 62
     7
100
AcDbLine
 10
-80.4999998986721
 20
78.24273415844578
 30
0.0
 11
-80.4999998986721
 21
80.94540543573325
 31
0.0
  0
LINE
  5
2CA
330
96
100
AcDbEntity
  8
0
  6
Continuous
 62
     7
100
AcDbLine
 10
-80.4999998986721
 20
67.47684565289768
 30
0.0
 11
-80.4999998986721
 21
68.7781665240791
 31
0.0
  0
LINE
  5
2CB
330
96
100
AcDbEntity
  8
0
  6
Continuous
 62
     7
100
AcDbLine
 10
-80.4999998986721
 20
77.64852006845115
 30
0.0
 11
-80.4999998986721
 21
78.24273415844578
 31
0.0
  0
LINE
  5
2CC
330
96
100
AcDbEntity
  8
0
  6
Continuous
 62
     7
100
AcDbLine
 10
-80.4999998986721
 20
77.08283464350191
 30
0.0
 11
-80.4999998986721
 21
77.64852006845115
 31
0.0
  0
LINE
  5
2CD
330
96
100
AcDbEntity
  8
0
  6
Continuous
 62
     7
100
AcDbLine
 10
-80.4999998986721
 20
68.7781665240791
 30
0.0
 11
-80.4999998986721
 21
77.08283464350191
 31
0.0
  0
LINE
  5
2CE
330
96
100
AcDbEntity
  8
0
  6
Continuous
 62
     7
100
AcDbLine
 10
-80.4999998986721
 20
84.57816652407917
 30
0.0
 11
-80.4999998986721
 21
85.28527330526592
 31
0.0
  0
LINE
  5
2CF
330
96
100
AcDbEntity
  8
0
  6
Continuous
 62
     7
100
AcDbLine
 10
-80.4999998986721
 20
83.27684565289766
 30
0.0
 11
-80.4999998986721
 21
84.57816652407917
 31
0.0
  0
LINE
  5
2D0
330
96
100
AcDbEntity
  8
0
  6
Continuous
 62
     7
100
AcDbLine
 10
-80.4999998986721
 20
80.94540543573325
 30
0.0
 11
-80.4999998986721
 21
81.13427474092208
 31
0.0
  0
LINE
  5
2D1
330
96
100
AcDbEntity
  8
0
  6
Continuous
 62
     7
100
AcDbLine
 10
-80.4999998986721
 20
81.13427474092208
 30
0.0
 11
-80.4999998986721
 21
83.27684565289766
 31
0.0
  0
LINE
  5
2D2
330
96
100
AcDbEntity
  8
0
  6
Continuous
 62
     7
100
AcDbLine
 10
-80.4999998986721
 20
85.68527330526587
 30
0.0
 11
-80.4999998986721
 21
85.28527330526592
 31
0.0
  0
LINE
  5
2D3
330
96
100
AcDbEntity
  8
0
  6
Continuous
 62
     7
100
AcDbLine
 10
-85.49999989867212
 20
67.47684565289765
 30
0.0
 11
-85.49999989867212
 21
68.7781665240791
 31
0.0
  0
LINE
  5
2D4
330
96
100
AcDbEntity
  8
0
  6
Continuous
 62
     7
100
AcDbLine
 10
-85.49999989867212
 20
77.64852006845115
 30
0.0
 11
-85.49999989867212
 21
78.24273415844578
 31
0.0
  0
LINE
  5
2D5
330
96
100
AcDbEntity
  8
0
  6
Continuous
 62
     7
100
AcDbLine
 10
-85.49999989867212
 20
77.08283464350191
 30
0.0
 11
-85.49999989867212
 21
77.64852006845115
 31
0.0
  0
LINE
  5
2D6
330
96
100
AcDbEntity
  8
0
  6
Continuous
 62
     7
100
AcDbLine
 10
-85.49999989867212
 20
68.7781665240791
 30
0.0
 11
-85.49999989867212
 21
77.08283464350191
 31
0.0
  0
LINE
  5
2D7
330
96
100
AcDbEntity
  8
0
  6
Continuous
 62
     7
100
AcDbLine
 10
-85.49999989867212
 20
84.57816652407917
 30
0.0
 11
-85.49999989867212
 21
85.28527330526592
 31
0.0
  0
LINE
  5
2D8
330
96
100
AcDbEntity
  8
0
  6
Continuous
 62
     7
100
AcDbLine
 10
-85.49999989867212
 20
83.27684565289769
 30
0.0
 11
-85.49999989867212
 21
84.57816652407917
 31
0.0
  0
LINE
  5
2D9
330
96
100
AcDbEntity
  8
0
  6
Continuous
 62
     7
100
AcDbLine
 10
-85.49999989867212
 20
81.13427474092208
 30
0.0
 11
-85.49999989867212
 21
83.27684565289769
 31
0.0
  0
LINE
  5
2DA
330
96
100
AcDbEntity
  8
0
  6
Continuous
 62
     7
100
AcDbLine
 10
-85.49999989867212
 20
78.24273415844578
 30
0.0
 11
-85.49999989867212
 21
80.94540543573325
 31
0.0
  0
LINE
  5
2DB
330
96
100
AcDbEntity
  8
0
  6
Continuous
 62
     7
100
AcDbLine
 10
-85.49999989867212
 20
80.94540543573325
 30
0.0
 11
-85.49999989867212
 21
81.13427474092208
 31
0.0
  0
LINE
  5
2DC
330
96
100
AcDbEntity
  8
0
  6
Continuous
 62
     7
100
AcDbLine
 10
-80.4999998986721
 20
62.44273415844569
 30
0.0
 11
-80.4999998986721
 21
65.14540543573321
 31
0.0
  0
LINE
  5
2DD
330
96
100
AcDbEntity
  8
0
  6
Continuous
 62
     7
100
AcDbLine
 10
-80.4999998986721
 20
61.84852006845119
 30
0.0
 11
-80.4999998986721
 21
62.44273415844569
 31
0.0
  0
LINE
  5
2DE
330
96
100
AcDbEntity
  8
0
  6
Continuous
 62
     7
100
AcDbLine
 10
-80.4999998986721
 20
65.14540543573321
 30
0.0
 11
-80.4999998986721
 21
65.33427474092201
 31
0.0
  0
LINE
  5
2DF
330
96
100
AcDbEntity
  8
0
  6
Continuous
 62
     7
100
AcDbLine
 10
-80.4999998986721
 20
65.33427474092201
 30
0.0
 11
-80.4999998986721
 21
67.47684565289768
 31
0.0
  0
LINE
  5
2E0
330
96
100
AcDbEntity
  8
0
  6
Continuous
 62
     7
100
AcDbLine
 10
-80.4999998986721
 20
57.94660178869148
 30
0.0
 11
-80.4999998986721
 21
61.11714921855263
 31
0.0
  0
LINE
  5
2E1
330
96
100
AcDbEntity
  8
0
  6
Continuous
 62
     7
100
AcDbLine
 10
-85.49999989867212
 20
61.84852006845119
 30
0.0
 11
-85.49999989867212
 21
62.44273415844569
 31
0.0
  0
LINE
  5
2E2
330
96
100
AcDbEntity
  8
0
  6
Continuous
 62
     7
100
AcDbLine
 10
-85.49999989867212
 20
57.94660178869147
 30
0.0
 11
-85.49999989867212
 21
61.11714921855263
 31
0.0
  0
LINE
  5
2E3
330
96
100
AcDbEntity
  8
0
  6
Continuous
 62
     7
100
AcDbLine
 10
-85.49999989867212
 20
65.14540543573321
 30
0.0
 11
-85.49999989867212
 21
65.33427474092201
 31
0.0
  0
LINE
  5
2E4
330
96
100
AcDbEntity
  8
0
  6
Continuous
 62
     7
100
AcDbLine
 10
-85.49999989867212
 20
62.44273415844569
 30
0.0
 11
-85.49999989867212
 21
65.14540543573321
 31
0.0
  0
LINE
  5
2E5
330
96
100
AcDbEntity
  8
0
  6
Continuous
 62
     7
100
AcDbLine
 10
-85.49999989867212
 20
85.68527330526587
 30
0.0
 11
-80.4999998986721
 21
85.68527330526587
 31
0.0
  0
LINE
  5
2E6
330
96
100
AcDbEntity
  8
0
  6
Continuous
 62
     7
100
AcDbLine
 10
-85.49999989867212
 20
85.28527330526592
 30
0.0
 11
-80.4999998986721
 21
85.28527330526592
 31
0.0
  0
LINE
  5
2E7
330
96
100
AcDbEntity
  8
0
  6
Continuous
 62
     7
100
AcDbLine
 10
-85.49999989867212
 20
84.57816652407917
 30
0.0
 11
-80.4999998986721
 21
84.57816652407917
 31
0.0
  0
LINE
  5
2E8
330
96
100
AcDbEntity
  8
0
  6
Continuous
 62
     7
100
AcDbLine
 10
-85.49999989867212
 20
77.08283464350191
 30
0.0
 11
-80.4999998986721
 21
77.08283464350191
 31
0.0
  0
LINE
  5
2E9
330
96
100
AcDbEntity
  8
0
  6
Continuous
 62
     7
100
AcDbLine
 10
-80.4999998986721
 20
78.24273415844578
 30
0.0
 11
-85.49999989867212
 21
78.24273415844578
 31
0.0
  0
LINE
  5
2EA
330
96
100
AcDbEntity
  8
0
  6
Continuous
 62
     7
100
AcDbLine
 10
-85.49999989867212
 20
77.64852006845115
 30
0.0
 11
-80.4999998986721
 21
77.64852006845115
 31
0.0
  0
LINE
  5
2EB
330
96
100
AcDbEntity
  8
0
  6
Continuous
 62
     7
100
AcDbLine
 10
-80.4999998986721
 20
83.27684565289766
 30
0.0
 11
-85.49999989867212
 21
83.27684565289769
 31
0.0
  0
LINE
  5
2EC
330
96
100
AcDbEntity
  8
0
  6
Continuous
 62
     7
100
AcDbLine
 10
-80.4999998986721
 20
81.13427474092208
 30
0.0
 11
-85.49999989867212
 21
81.13427474092208
 31
0.0
  0
LINE
  5
2ED
330
96
100
AcDbEntity
  8
0
  6
Continuous
 62
     7
100
AcDbLine
 10
-85.49999989867212
 20
80.94540543573325
 30
0.0
 11
-80.4999998986721
 21
80.94540543573325
 31
0.0
  0
LINE
  5
2EE
330
96
100
AcDbEntity
  8
0
  6
Continuous
 62
     7
100
AcDbLine
 10
-85.49999989867212
 20
85.28527330526592
 30
0.0
 11
-85.49999989867212
 21
85.68527330526587
 31
0.0
  0
LINE
  5
2EF
330
96
100
AcDbEntity
  8
0
  6
Continuous
 62
     7
100
AcDbLine
 10
-83.34999989867248
 20
45.11376398108097
 30
0.0
 11
-83.66698719678018
 21
44.56472587540446
 31
0.0
  0
LINE
  5
2F0
330
96
100
AcDbEntity
  8
0
  6
Continuous
 62
     7
100
AcDbLine
 10
-83.34999989867248
 20
45.11376398108097
 30
0.0
 11
-83.34999989867211
 21
53.91472587540457
 31
0.0
  0
LINE
  5
2F1
330
96
100
AcDbEntity
  8
0
  6
Continuous
 62
     7
100
AcDbLine
 10
-84.84999989867211
 20
45.11376398108061
 30
0.0
 11
-83.34999989867248
 21
45.11376398108097
 31
0.0
  0
LINE
  5
2F2
330
96
100
AcDbEntity
  8
0
  6
Continuous
 62
     7
100
AcDbLine
 10
-83.34999989867211
 20
53.91472587540457
 30
0.0
 11
-84.84999989867211
 21
53.9147258754044
 31
0.0
  0
LINE
  5
2F3
330
96
100
AcDbEntity
  8
0
  6
Continuous
 62
     2
100
AcDbLine
 10
-83.66698719678018
 20
44.56472587540446
 30
0.0
 11
-84.5330126005646
 21
44.56472587540445
 31
0.0
  0
ARC
  5
2F4
330
96
100
AcDbEntity
  8
0
  6
Continuous
 62
     7
100
AcDbCircle
 10
-84.09999989867211
 20
44.81472587540446
 30
0.0
 40
0.500000000000245
100
AcDbArc
 50
209.9999999999857
 51
270.0
  0
ARC
  5
2F5
330
96
100
AcDbEntity
  8
0
  6
Continuous
 62
     7
100
AcDbCircle
 10
-84.09999989867211
 20
44.81472587540446
 30
0.0
 40
0.5000000000001208
100
AcDbArc
 50
270.0
 51
329.9999999999832
  0
ENDBLK
  5
98
330
96
100
AcDbEntity
  8
0
100
AcDbBlockEnd
  0
BLOCK
  5
9B
330
99
100
AcDbEntity
  8
0
100
AcDbBlockBegin
  2
SA_Rechts1
 70
     0
 10
-83.0
 20
64.9999999997749
 30
0.0
  3
SA_Rechts1
  1

  0
INSERT
  5
9A
330
99
100
AcDbEntity
  8
0
100
AcDbBlockReference
  2
STP_5_2-s-select__4
 10
-85.49999989867212
 20
44.31472587540421
 30
0.0
  0
MTEXT
  5
2F6
330
99
100
AcDbEntity
  8
1
 62
     6
100
AcDbMText
 10
-82.99999989867212
 20
41.81472587540434
 30
0.0
 40
2.5
 41
0.0
 71
     2
 72
     1
  1
 
  7
CONVERTER_11
 73
     1
 44
1.32052821128451
  0
ENDBLK
  5
9C
330
99
100
AcDbEntity
  8
0
100
AcDbBlockEnd
  0
BLOCK
  5
9E
330
9D
100
AcDbEntity
  8
0
100
AcDbBlockBegin
  2
STP_5_2-s-select__5
 70
     0
 10
-26.00000020265595
 20
44.31472546618946
 30
0.0
  3
STP_5_2-s-select__5
  1

  0
LINE
  5
2F7
330
9D
100
AcDbEntity
  8
0
  6
Continuous
 62
     7
100
AcDbLine
 10
-26.00000020265595
 20
54.91472546618957
 30
0.0
 11
-23.15000020265595
 21
53.91472546618957
 31
0.0
  0
LINE
  5
2F8
330
9D
100
AcDbEntity
  8
0
  6
Continuous
 62
     7
100
AcDbLine
 10
-26.00000020265595
 20
81.20836394336641
 30
0.0
 11
-21.00000020265595
 21
81.20836394336644
 31
0.0
  0
LINE
  5
2F9
330
9D
100
AcDbEntity
  8
0
  6
Continuous
 62
     7
100
AcDbLine
 10
-26.00000020265595
 20
84.86844177589157
 30
0.0
 11
-21.00000020265595
 21
84.86844177589157
 31
0.0
  0
LINE
  5
2FA
330
9D
100
AcDbEntity
  8
0
  6
Continuous
 62
     7
100
AcDbLine
 10
-26.00000020265595
 20
81.20836394336641
 30
0.0
 11
-26.00000020265595
 21
63.85094300238404
 31
0.0
  0
LINE
  5
2FB
330
9D
100
AcDbEntity
  8
0
  6
Continuous
 62
     7
100
AcDbLine
 10
-21.00000020265595
 20
85.685272896051
 30
0.0
 11
-26.00000020265595
 21
85.685272896051
 31
0.0
  0
LINE
  5
2FC
330
9D
100
AcDbEntity
  8
0
  6
Continuous
 62
     7
100
AcDbLine
 10
-21.00000020265595
 20
81.20836394336644
 30
0.0
 11
-21.00000020265595
 21
63.85094300238404
 31
0.0
  0
LINE
  5
2FD
330
9D
100
AcDbEntity
  8
0
  6
Continuous
 62
     7
100
AcDbLine
 10
-21.00000020265595
 20
84.86844177589157
 30
0.0
 11
-21.00000020265595
 21
81.20836394336644
 31
0.0
  0
LINE
  5
2FE
330
9D
100
AcDbEntity
  8
0
  6
Continuous
 62
     7
100
AcDbLine
 10
-21.65000020265595
 20
53.91472546618951
 30
0.0
 11
-21.00000020265595
 21
54.91472546618958
 31
0.0
  0
LINE
  5
2FF
330
9D
100
AcDbEntity
  8
0
  6
Continuous
 62
     7
100
AcDbLine
 10
-26.00000020265595
 20
63.85094300238404
 30
0.0
 11
-21.00000020265595
 21
63.85094300238404
 31
0.0
  0
LINE
  5
300
330
9D
100
AcDbEntity
  8
0
  6
Continuous
 62
     7
100
AcDbLine
 10
-26.00000020265595
 20
63.85094300238404
 30
0.0
 11
-26.00000020265595
 21
56.85094300238424
 31
0.0
  0
LINE
  5
301
330
9D
100
AcDbEntity
  8
0
  6
Continuous
 62
     7
100
AcDbLine
 10
-26.00000020265595
 20
84.86844177589157
 30
0.0
 11
-26.00000020265595
 21
81.20836394336641
 31
0.0
  0
LINE
  5
302
330
9D
100
AcDbEntity
  8
0
  6
Continuous
 62
     7
100
AcDbLine
 10
-26.00000020265595
 20
85.685272896051
 30
0.0
 11
-26.00000020265595
 21
84.86844177589157
 31
0.0
  0
LINE
  5
303
330
9D
100
AcDbEntity
  8
0
  6
Continuous
 62
     7
100
AcDbLine
 10
-26.00000020265595
 20
56.85094300238424
 30
0.0
 11
-21.00000020265595
 21
56.85094300238424
 31
0.0
  0
LINE
  5
304
330
9D
100
AcDbEntity
  8
0
  6
Continuous
 62
     7
100
AcDbLine
 10
-21.00000020265595
 20
54.91472546618958
 30
0.0
 11
-26.00000020265595
 21
54.91472546618957
 31
0.0
  0
LINE
  5
305
330
9D
100
AcDbEntity
  8
0
  6
Continuous
 62
     7
100
AcDbLine
 10
-26.00000020265595
 20
56.85094300238424
 30
0.0
 11
-26.00000020265595
 21
54.91472546618957
 31
0.0
  0
LINE
  5
306
330
9D
100
AcDbEntity
  8
0
  6
Continuous
 62
     7
100
AcDbLine
 10
-21.00000020265595
 20
85.685272896051
 30
0.0
 11
-21.00000020265595
 21
84.86844177589157
 31
0.0
  0
LINE
  5
307
330
9D
100
AcDbEntity
  8
0
  6
Continuous
 62
     7
100
AcDbLine
 10
-21.00000020265595
 20
56.85094300238424
 30
0.0
 11
-21.00000020265595
 21
54.91472546618958
 31
0.0
  0
LINE
  5
308
330
9D
100
AcDbEntity
  8
0
  6
Continuous
 62
     7
100
AcDbLine
 10
-21.00000020265595
 20
63.85094300238404
 30
0.0
 11
-21.00000020265595
 21
56.85094300238424
 31
0.0
  0
LINE
  5
309
330
9D
100
AcDbEntity
  8
0
  6
Continuous
 62
     7
100
AcDbLine
 10
-23.15000020265595
 20
53.91472546618957
 30
0.0
 11
-23.15000020265595
 21
45.11376357186651
 31
0.0
  0
LINE
  5
30A
330
9D
100
AcDbEntity
  8
0
  6
Continuous
 62
     7
100
AcDbLine
 10
-21.65000020265595
 20
53.91472546618951
 30
0.0
 11
-21.65000020265595
 21
45.11376357186592
 31
0.0
  0
LINE
  5
30B
330
9D
100
AcDbEntity
  8
0
  6
Continuous
 62
     7
100
AcDbLine
 10
-22.83301290454788
 20
44.56472546618957
 30
0.0
 11
-23.15000020265595
 21
45.11376357186651
 31
0.0
  0
LINE
  5
30C
330
9D
100
AcDbEntity
  8
0
  6
Continuous
 62
     7
100
AcDbLine
 10
-21.65000020265595
 20
53.91472546618951
 30
0.0
 11
-23.15000020265595
 21
53.91472546618957
 31
0.0
  0
LINE
  5
30D
330
9D
100
AcDbEntity
  8
0
  6
Continuous
 62
     2
100
AcDbLine
 10
-22.83301290454788
 20
44.56472546618957
 30
0.0
 11
-21.96698750076345
 21
44.56472546618957
 31
0.0
  0
LINE
  5
30E
330
9D
100
AcDbEntity
  8
0
  6
Continuous
 62
     7
100
AcDbLine
 10
-21.65000020265595
 20
45.11376357186592
 30
0.0
 11
-21.96698750076345
 21
44.56472546618957
 31
0.0
  0
LINE
  5
30F
330
9D
100
AcDbEntity
  8
0
  6
Continuous
 62
     7
100
AcDbLine
 10
-21.65000020265595
 20
45.11376357186592
 30
0.0
 11
-23.15000020265595
 21
45.11376357186651
 31
0.0
  0
ARC
  5
310
330
9D
100
AcDbEntity
  8
0
  6
Continuous
 62
     7
100
AcDbCircle
 10
-22.40000020265596
 20
44.81472546618957
 30
0.0
 40
0.5000000000001137
100
AcDbArc
 50
270.0
 51
330.0000000000166
  0
ARC
  5
311
330
9D
100
AcDbEntity
  8
0
  6
Continuous
 62
     7
100
AcDbCircle
 10
-22.40000020265596
 20
44.81472546618957
 30
0.0
 40
0.4999999999997395
100
AcDbArc
 50
210.0000000000172
 51
270.0
  0
ENDBLK
  5
9F
330
9D
100
AcDbEntity
  8
0
100
AcDbBlockEnd
  0
BLOCK
  5
A2
330
A0
100
AcDbEntity
  8
0
100
AcDbBlockBegin
  2
SA_links1
 70
     0
 10
-23.50000010132806
 20
64.99999959056004
 30
0.0
  3
SA_links1
  1

  0
INSERT
  5
A1
330
A0
100
AcDbEntity
  8
0
100
AcDbBlockReference
  2
STP_5_2-s-select__5
 10
-26.00000020265595
 20
44.31472546618946
 30
0.0
  0
ENDBLK
  5
A3
330
A0
100
AcDbEntity
  8
0
100
AcDbBlockEnd
  0
BLOCK
  5
A5
330
A4
100
AcDbEntity
  8
0
100
AcDbBlockBegin
  2
STP_5_2-s-select__6
 70
     0
 10
-55.62791018026367
 20
44.31472546618933
 30
0.0
  3
STP_5_2-s-select__6
  1

  0
LINE
  5
312
330
A4
100
AcDbEntity
  8
0
  6
Continuous
 62
     7
100
AcDbLine
 10
-53.20122276840372
 20
68.77816611486409
 30
0.0
 11
-44.89655464898142
 21
77.0828342342869
 31
0.0
  0
LINE
  5
313
330
A4
100
AcDbEntity
  8
0
  6
Continuous
 62
     7
100
AcDbLine
 10
-44.85736275040235
 20
61.84851965923619
 30
0.0
 11
-45.56446953158893
 21
61.14141287804941
 31
0.0
  0
LINE
  5
314
330
A4
100
AcDbEntity
  8
0
  6
Continuous
 62
     7
100
AcDbLine
 10
-44.4573627504023
 20
61.11714880933762
 30
0.0
 11
-44.4573627504023
 21
61.44851965923614
 31
0.0
  0
LINE
  5
315
330
A4
100
AcDbEntity
  8
0
  6
Continuous
 62
     7
100
AcDbLine
 10
-47.62791018026367
 20
57.94660137947646
 30
0.0
 11
-44.4573627504023
 21
61.11714880933762
 31
0.0
  0
LINE
  5
316
330
A4
100
AcDbEntity
  8
0
  6
Continuous
 62
     7
100
AcDbLine
 10
-47.62791018026363
 20
54.91472546618945
 30
0.0
 11
-47.37791018026348
 21
53.9147254661894
 31
0.0
  0
LINE
  5
317
330
A4
100
AcDbEntity
  8
0
  6
Continuous
 62
     7
100
AcDbLine
 10
-47.62791018026363
 20
54.91472546618945
 30
0.0
 11
-48.62791018026374
 21
54.91472546618945
 31
0.0
  0
LINE
  5
318
330
A4
100
AcDbEntity
  8
0
  6
Continuous
 62
     7
100
AcDbLine
 10
-44.4573627504023
 20
61.44851965923614
 30
0.0
 11
-44.85736275040235
 21
61.84851965923619
 31
0.0
  0
LINE
  5
319
330
A4
100
AcDbEntity
  8
0
  6
Continuous
 62
     7
100
AcDbLine
 10
-46.16934685511741
 20
76.94141287804939
 30
0.0
 11
-47.47066772629887
 21
78.24273374923075
 31
0.0
  0
LINE
  5
31A
330
A4
100
AcDbEntity
  8
0
  6
Continuous
 62
     7
100
AcDbLine
 10
-47.69489747837139
 20
44.56472546618944
 30
0.0
 11
-47.3779101802637
 21
45.1137635718656
 31
0.0
  0
LINE
  5
31B
330
A4
100
AcDbEntity
  8
0
  6
Continuous
 62
     7
100
AcDbLine
 10
-48.87791018026344
 20
45.1137635718658
 30
0.0
 11
-47.3779101802637
 21
45.1137635718656
 31
0.0
  0
LINE
  5
31C
330
A4
100
AcDbEntity
  8
0
  6
Continuous
 62
     7
100
AcDbLine
 10
-53.83036416064392
 20
85.68527289605089
 30
0.0
 11
-53.49899331074545
 21
85.68527289605089
 31
0.0
  0
LINE
  5
31D
330
A4
100
AcDbEntity
  8
0
  6
Continuous
 62
     7
100
AcDbLine
 10
-53.09899331074549
 20
85.28527289605091
 30
0.0
 11
-53.49899331074545
 21
85.68527289605089
 31
0.0
  0
LINE
  5
31E
330
A4
100
AcDbEntity
  8
0
  6
Continuous
 62
     7
100
AcDbLine
 10
-53.80610009193221
 20
84.57816611486419
 30
0.0
 11
-53.09899331074549
 21
85.28527289605091
 31
0.0
  0
LINE
  5
31F
330
A4
100
AcDbEntity
  8
0
  6
Continuous
 62
     7
100
AcDbLine
 10
-48.87791018026344
 20
45.1137635718658
 30
0.0
 11
-48.56092288215582
 21
44.56472546618944
 31
0.0
  0
LINE
  5
320
330
A4
100
AcDbEntity
  8
0
  6
Continuous
 62
     7
100
AcDbLine
 10
-46.16934685511741
 20
76.94141287804939
 30
0.0
 11
-45.46224007393076
 21
77.64851965923614
 31
0.0
  0
LINE
  5
321
330
A4
100
AcDbEntity
  8
0
  6
Continuous
 62
     7
100
AcDbLine
 10
-47.62791018026367
 20
57.94660137947646
 30
0.0
 11
-47.62791018026363
 21
54.91472546618945
 31
0.0
  0
LINE
  5
322
330
A4
100
AcDbEntity
  8
0
  6
Continuous
 62
     7
100
AcDbLine
 10
-47.3779101802637
 20
45.1137635718656
 30
0.0
 11
-47.37791018026348
 21
53.9147254661894
 31
0.0
  0
LINE
  5
323
330
A4
100
AcDbEntity
  8
0
  6
Continuous
 62
     7
100
AcDbLine
 10
-45.46224007393076
 20
77.64851965923614
 30
0.0
 11
-44.89655464898142
 21
77.0828342342869
 31
0.0
  0
LINE
  5
324
330
A4
100
AcDbEntity
  8
0
  6
Continuous
 62
     7
100
AcDbLine
 10
-47.47066772629887
 20
78.24273374923075
 30
0.0
 11
-49.61323863827438
 21
77.40838511241114
 31
0.0
  0
LINE
  5
325
330
A4
100
AcDbEntity
  8
0
  6
Continuous
 62
     7
100
AcDbLine
 10
-48.87791018026366
 20
53.91472546618938
 30
0.0
 11
-48.87791018026344
 21
45.1137635718658
 31
0.0
  0
LINE
  5
326
330
A4
100
AcDbEntity
  8
0
  6
Continuous
 62
     7
100
AcDbLine
 10
-55.62791018026367
 20
63.8509430023839
 30
0.0
 11
-48.62791018026378
 21
56.85094300238413
 31
0.0
  0
LINE
  5
327
330
A4
100
AcDbEntity
  8
0
  6
Continuous
 62
     7
100
AcDbLine
 10
-46.86579040277051
 20
62.44273374923068
 30
0.0
 11
-49.00836131474615
 21
61.60838511241116
 31
0.0
  0
LINE
  5
328
330
A4
100
AcDbEntity
  8
0
  6
Continuous
 62
     7
100
AcDbLine
 10
-45.56446953158893
 20
61.14141287804941
 30
0.0
 11
-46.86579040277051
 21
62.44273374923068
 31
0.0
  0
LINE
  5
329
330
A4
100
AcDbEntity
  8
0
  6
Continuous
 62
     7
100
AcDbLine
 10
-47.37791018026348
 20
53.9147254661894
 30
0.0
 11
-48.87791018026366
 21
53.91472546618938
 31
0.0
  0
LINE
  5
32A
330
A4
100
AcDbEntity
  8
0
  6
Continuous
 62
     2
100
AcDbLine
 10
-48.56092288215582
 20
44.56472546618944
 30
0.0
 11
-47.69489747837139
 21
44.56472546618944
 31
0.0
  0
LINE
  5
32B
330
A4
100
AcDbEntity
  8
0
  6
Continuous
 62
     7
100
AcDbLine
 10
-53.83036416064392
 20
85.68527289605089
 30
0.0
 11
-54.64719528080336
 21
84.86844177589143
 31
0.0
  0
LINE
  5
32C
330
A4
100
AcDbEntity
  8
0
  6
Continuous
 62
     7
100
AcDbLine
 10
-49.80210794346341
 20
76.4729546355133
 30
0.0
 11
-54.27455833446832
 21
80.94540502651824
 31
0.0
  0
LINE
  5
32D
330
A4
100
AcDbEntity
  8
0
  6
Continuous
 62
     7
100
AcDbLine
 10
-49.19723061993501
 20
60.67295463551328
 30
0.0
 11
-53.66968101093993
 21
65.1454050265182
 31
0.0
  0
LINE
  5
32E
330
A4
100
AcDbEntity
  8
0
  6
Continuous
 62
     7
100
AcDbLine
 10
-48.87791018026366
 20
53.91472546618938
 30
0.0
 11
-48.62791018026374
 21
54.91472546618945
 31
0.0
  0
LINE
  5
32F
330
A4
100
AcDbEntity
  8
0
  6
Continuous
 62
     7
100
AcDbLine
 10
-48.62791018026378
 20
56.85094300238413
 30
0.0
 11
-48.62791018026374
 21
54.91472546618945
 31
0.0
  0
LINE
  5
330
330
A4
100
AcDbEntity
  8
0
  6
Continuous
 62
     7
100
AcDbLine
 10
-55.62791018026367
 20
81.20836394336632
 30
0.0
 11
-55.62791018026367
 21
63.8509430023839
 31
0.0
  0
LINE
  5
331
330
A4
100
AcDbEntity
  8
0
  6
Continuous
 62
     7
100
AcDbLine
 10
-49.00836131474615
 20
61.60838511241116
 30
0.0
 11
-48.63508072889168
 21
61.23510452655663
 31
0.0
  0
LINE
  5
332
330
A4
100
AcDbEntity
  8
0
  6
Continuous
 62
     7
100
AcDbLine
 10
-48.63508072889168
 20
61.23510452655663
 30
0.0
 11
-49.19723061993501
 21
60.67295463551328
 31
0.0
  0
LINE
  5
333
330
A4
100
AcDbEntity
  8
0
  6
Continuous
 62
     7
100
AcDbLine
 10
-49.23995805242002
 20
77.03510452655664
 30
0.0
 11
-49.80210794346341
 21
76.4729546355133
 31
0.0
  0
LINE
  5
334
330
A4
100
AcDbEntity
  8
0
  6
Continuous
 62
     7
100
AcDbLine
 10
-53.66968101093993
 20
65.1454050265182
 30
0.0
 11
-53.10753111989656
 21
65.70755491756154
 31
0.0
  0
LINE
  5
335
330
A4
100
AcDbEntity
  8
0
  6
Continuous
 62
     7
100
AcDbLine
 10
-51.89990189722231
 20
67.47684524368265
 30
0.0
 11
-53.20122276840372
 21
68.77816611486409
 31
0.0
  0
LINE
  5
336
330
A4
100
AcDbEntity
  8
0
  6
Continuous
 62
     7
100
AcDbLine
 10
-49.61323863827438
 20
77.40838511241114
 30
0.0
 11
-49.23995805242002
 21
77.03510452655664
 31
0.0
  0
LINE
  5
337
330
A4
100
AcDbEntity
  8
0
  6
Continuous
 62
     7
100
AcDbLine
 10
-52.73425053404202
 20
65.33427433170701
 30
0.0
 11
-51.89990189722231
 21
67.47684524368265
 31
0.0
  0
LINE
  5
338
330
A4
100
AcDbEntity
  8
0
  6
Continuous
 62
     7
100
AcDbLine
 10
-53.10753111989656
 20
65.70755491756154
 30
0.0
 11
-52.73425053404202
 21
65.33427433170701
 31
0.0
  0
LINE
  5
339
330
A4
100
AcDbEntity
  8
0
  6
Continuous
 62
     7
100
AcDbLine
 10
-54.64719528080336
 20
84.86844177589143
 30
0.0
 11
-55.62791018026367
 21
81.20836394336632
 31
0.0
  0
LINE
  5
33A
330
A4
100
AcDbEntity
  8
0
  6
Continuous
 62
     7
100
AcDbLine
 10
-54.27455833446832
 20
80.94540502651824
 30
0.0
 11
-53.71240844342499
 21
81.50755491756155
 31
0.0
  0
LINE
  5
33B
330
A4
100
AcDbEntity
  8
0
  6
Continuous
 62
     7
100
AcDbLine
 10
-53.71240844342499
 20
81.50755491756155
 30
0.0
 11
-53.33912785757046
 21
81.13427433170708
 31
0.0
  0
LINE
  5
33C
330
A4
100
AcDbEntity
  8
0
  6
Continuous
 62
     7
100
AcDbLine
 10
-53.33912785757046
 20
81.13427433170708
 30
0.0
 11
-52.50477922075085
 21
83.27684524368269
 31
0.0
  0
LINE
  5
33D
330
A4
100
AcDbEntity
  8
0
  6
Continuous
 62
     7
100
AcDbLine
 10
-52.50477922075085
 20
83.27684524368269
 30
0.0
 11
-53.80610009193221
 21
84.57816611486419
 31
0.0
  0
ARC
  5
33E
330
A4
100
AcDbEntity
  8
0
  6
Continuous
 62
     7
100
AcDbCircle
 10
-48.12791018026361
 20
44.81472546618946
 30
0.0
 40
0.5000000000001279
100
AcDbArc
 50
270.0
 51
329.9999999999981
  0
ARC
  5
33F
330
A4
100
AcDbEntity
  8
0
  6
Continuous
 62
     7
100
AcDbCircle
 10
-48.12791018026361
 20
44.81472546618946
 30
0.0
 40
0.5000000000000024
100
AcDbArc
 50
210.0000000000026
 51
270.0
  0
ENDBLK
  5
A6
330
A4
100
AcDbEntity
  8
0
100
AcDbBlockEnd
  0
BLOCK
  5
A9
330
A7
100
AcDbEntity
  8
0
100
AcDbBlockBegin
  2
Vordans1
 70
     0
 10
-50.04263659013074
 20
64.9999995905599
 30
0.0
  3
Vordans1
  1

  0
INSERT
  5
A8
330
A7
100
AcDbEntity
  8
0
100
AcDbBlockReference
  2
STP_5_2-s-select__6
 10
-55.62791018026367
 20
44.31472546618933
 30
0.0
  0
DIMENSION
  5
34A
330
A7
100
AcDbEntity
  8
1
100
AcDbDimension
  2
*D18
 10
-59.89421852698451
 20
44.31472546618933
 30
0.0
 11
-61.60671852698451
 21
64.5770469457705
 31
0.0
 70
    32
  1
<>
 71
     5
 42
-1.0
 53
90.0
  3
ME10_DIM_11
100
AcDbAlignedDimension
 13
-53.49899331074545
 23
85.68527289605089
 33
0.0
 14
-48.12791018026361
 24
44.31472546618933
 34
0.0
 50
90.0
100
AcDbRotatedDimension
  0
DIMENSION
  5
355
330
A7
100
AcDbEntity
  8
1
100
AcDbDimension
  2
*D19
 10
-55.62791018026367
 20
39.75551578136615
 30
0.0
 11
-49.5692004174621
 21
41.46801578136615
 31
0.0
 70
    32
  1
<>
 71
     5
 42
-1.0
 53
0.00013888888889
  3
ME10_DIM_12
100
AcDbAlignedDimension
 13
-44.4573627504023
 23
61.11714880933762
 33
0.0
 14
-55.62791018026367
 24
63.8509430023839
 34
0.0
100
AcDbRotatedDimension
  0
ENDBLK
  5
AA
330
A7
100
AcDbEntity
  8
0
100
AcDbBlockEnd
  0
BLOCK
  5
B3
330
AB
100
AcDbEntity
  8
0
100
AcDbBlockBegin
  2
1
 70
     0
 10
0.0
 20
0.0
 30
0.0
  3
1
  1

  0
INSERT
  5
AC
330
AB
100
AcDbEntity
  8
0
100
AcDbBlockReference
  2
A4I_CS
 10
81.79349459212524
 20
-6.35377489989344
 30
0.0
  0
INSERT
  5
AD
330
AB
100
AcDbEntity
  8
0
100
AcDbBlockReference
  2
AllgSicht1
 10
60.99999999992216
 20
76.99999999963212
 30
0.0
 41
2.0
 42
2.0
 43
2.0
  0
INSERT
  5
AE
330
AB
100
AcDbEntity
  8
0
100
AcDbBlockReference
  2
Drfsicht1
 10
-100.0852731802613
 20
49.83956351110498
 30
0.0
 41
2.0
 42
2.0
 43
2.0
  0
INSERT
  5
AF
330
AB
100
AcDbEntity
  8
0
100
AcDbBlockReference
  2
Rckans1
 10
21.00000000010014
 20
129.9999999995498
 30
0.0
 41
2.0
 42
2.0
 43
2.0
  0
INSERT
  5
B0
330
AB
100
AcDbEntity
  8
0
100
AcDbBlockReference
  2
SA_Rechts1
 10
-166.0
 20
129.9999999995498
 30
0.0
 41
2.0
 42
2.0
 43
2.0
  0
INSERT
  5
B1
330
AB
100
AcDbEntity
  8
0
100
AcDbBlockReference
  2
SA_links1
 10
-47.00000020265612
 20
129.9999991811201
 30
0.0
 41
2.0
 42
2.0
 43
2.0
  0
INSERT
  5
B2
330
AB
100
AcDbEntity
  8
0
100
AcDbBlockReference
  2
Vordans1
 10
-100.0852731802615
 20
129.9999991811198
 30
0.0
 41
2.0
 42
2.0
 43
2.0
  0
ENDBLK
  5
B4
330
AB
100
AcDbEntity
  8
0
100
AcDbBlockEnd
  0
BLOCK
  5
281
330
27A
100
AcDbEntity
  8
0
100
AcDbBlockBegin
  2
*D17
 70
     1
 10
0.0
 20
0.0
 30
0.0
  3
*D17
  1

  0
LINE
  5
27B
330
27A
100
AcDbEntity
  8
1
  6
Continuous
 62
     2
100
AcDbLine
 10
-59.64719528080326
 20
27.41978185688039
 30
0.0
 11
-59.64719528080326
 21
22.41978185688039
 31
0.0
  0
LINE
  5
27C
330
27A
100
AcDbEntity
  8
1
  6
Continuous
 62
     2
100
AcDbLine
 10
-54.64719528080326
 20
22.41978185688039
 30
0.0
 11
-60.39719528080326
 21
22.41978185688039
 31
0.0
  0
LINE
  5
27D
330
27A
100
AcDbEntity
  8
1
  6
Continuous
 62
     2
100
AcDbLine
 10
-54.64719528080326
 20
27.41978185688039
 30
0.0
 11
-60.39719528080326
 21
27.41978185688039
 31
0.0
  0
SOLID
  5
27E
330
27A
100
AcDbEntity
  8
1
 62
     2
100
AcDbTrace
 10
-59.41680341002532
 20
25.66978185688039
 30
0.0
 11
-59.8775871515812
 21
25.66978185688039
 31
0.0
 12
-59.64719528080326
 22
27.41978185688039
 32
0.0
 13
-59.64719528080326
 23
27.41978185688039
 33
0.0
  0
SOLID
  5
27F
330
27A
100
AcDbEntity
  8
1
 62
     2
100
AcDbTrace
 10
-59.8775871515812
 20
24.16978185688039
 30
0.0
 11
-59.41680341002532
 21
24.16978185688039
 31
0.0
 12
-59.64719528080326
 22
22.41978185688039
 32
0.0
 13
-59.64719528080326
 23
22.41978185688039
 33
0.0
  0
MTEXT
  5
280
330
27A
100
AcDbEntity
  8
1
 62
     3
100
AcDbMText
 10
-60.39719528080326
 20
24.47390859352025
 30
0.0
 40
1.75
 41
0.0
 71
     7
 72
     1
  1
5
  7
CONVERTER_11
 11
0.0
 21
1.0
 31
0.0
 73
     1
 44
0.60024009603842
  0
ENDBLK
  5
282
330
27A
100
AcDbEntity
  8
0
100
AcDbBlockEnd
  0
BLOCK
  5
347
330
340
100
AcDbEntity
  8
0
100
AcDbBlockBegin
  2
*D18
 70
     1
 10
0.0
 20
0.0
 30
0.0
  3
*D18
  1

  0
LINE
  5
341
330
340
100
AcDbEntity
  8
1
  6
Continuous
 62
     2
100
AcDbLine
 10
-59.89421852698451
 20
44.31472546618933
 30
0.0
 11
-59.89421852698451
 21
85.68527289605089
 31
0.0
  0
LINE
  5
342
330
340
100
AcDbEntity
  8
1
  6
Continuous
 62
     2
100
AcDbLine
 10
-53.49899331074545
 20
85.68527289605089
 30
0.0
 11
-60.64421852698451
 21
85.68527289605089
 31
0.0
  0
LINE
  5
343
330
340
100
AcDbEntity
  8
1
  6
Continuous
 62
     2
100
AcDbLine
 10
-48.12791018026361
 20
44.31472546618933
 30
0.0
 11
-60.64421852698451
 21
44.31472546618933
 31
0.0
  0
SOLID
  5
344
330
340
100
AcDbEntity
  8
1
 62
     2
100
AcDbTrace
 10
-60.12461039776245
 20
46.06472546618933
 30
0.0
 11
-59.66382665620657
 21
46.06472546618933
 31
0.0
 12
-59.89421852698451
 22
44.31472546618933
 32
0.0
 13
-59.89421852698451
 23
44.31472546618933
 33
0.0
  0
SOLID
  5
345
330
340
100
AcDbEntity
  8
1
 62
     2
100
AcDbTrace
 10
-59.66382665620657
 20
83.93527289605089
 30
0.0
 11
-60.12461039776245
 21
83.93527289605089
 31
0.0
 12
-59.89421852698451
 22
85.68527289605089
 32
0.0
 13
-59.89421852698451
 23
85.68527289605089
 33
0.0
  0
MTEXT
  5
346
330
340
100
AcDbEntity
  8
1
 62
     3
100
AcDbMText
 10
-60.81921852698451
 20
62.43329694577051
 30
0.0
 40
1.75
 41
0.0
 71
     7
 72
     1
  1
41,4
  7
CONVERTER_11
 11
0.0
 21
1.0
 31
0.0
 73
     1
 44
0.60024009603842
  0
ENDBLK
  5
348
330
340
100
AcDbEntity
  8
0
100
AcDbBlockEnd
  0
BLOCK
  5
352
330
34B
100
AcDbEntity
  8
0
100
AcDbBlockBegin
  2
*D19
 70
     1
 10
0.0
 20
0.0
 30
0.0
  3
*D19
  1

  0
LINE
  5
34C
330
34B
100
AcDbEntity
  8
1
  6
Continuous
 62
     2
100
AcDbLine
 10
-55.62791018026367
 20
39.75551578136615
 30
0.0
 11
-44.4573627504023
 21
39.75551578136615
 31
0.0
  0
LINE
  5
34D
330
34B
100
AcDbEntity
  8
1
  6
Continuous
 62
     2
100
AcDbLine
 10
-44.4573627504023
 20
61.11714880933762
 30
0.0
 11
-44.4573627504023
 21
39.00551578136615
 31
0.0
  0
LINE
  5
34E
330
34B
100
AcDbEntity
  8
1
  6
Continuous
 62
     2
100
AcDbLine
 10
-55.62791018026367
 20
63.8509430023839
 30
0.0
 11
-55.62791018026367
 21
39.00551578136615
 31
0.0
  0
SOLID
  5
34F
330
34B
100
AcDbEntity
  8
1
 62
     2
100
AcDbTrace
 10
-53.87791018026367
 20
39.98590765214409
 30
0.0
 11
-53.87791018026367
 21
39.52512391058821
 31
0.0
 12
-55.62791018026367
 22
39.75551578136615
 32
0.0
 13
-55.62791018026367
 23
39.75551578136615
 33
0.0
  0
SOLID
  5
350
330
34B
100
AcDbEntity
  8
1
 62
     2
100
AcDbTrace
 10
-46.2073627504023
 20
39.52512391058821
 30
0.0
 11
-46.2073627504023
 21
39.98590765214409
 31
0.0
 12
-44.4573627504023
 22
39.75551578136615
 32
0.0
 13
-44.4573627504023
 23
39.75551578136615
 33
0.0
  0
MTEXT
  5
351
330
34B
100
AcDbEntity
  8
1
 62
     3
100
AcDbMText
 10
-51.4504504174621
 20
40.68051578136615
 30
0.0
 40
1.75
 41
0.0
 71
     7
 72
     1
  1
11,2
  7
CONVERTER_11
 11
0.9999999999970619
 21
2.424068405545306E-6
 31
0.0
 73
     1
 44
0.60024009603842
  0
ENDBLK
  5
353
330
34B
100
AcDbEntity
  8
0
100
AcDbBlockEnd
  0
ENDSEC
  0
SECTION
  2
ENTITIES
  0
INSERT
  5
B5
330
1F
100
AcDbEntity
  8
1
100
AcDbBlockReference
  2
1
 10
0.0
 20
0.0
 30
0.0
  0
ENDSEC
  0
SECTION
  2
OBJECTS
  0
DICTIONARY
  5
C
330
0
100
AcDbDictionary
281
     1
  3
ACAD_DETAILVIEWSTYLE
350
39B
  3
ACAD_GROUP
350
D
  3
ACAD_LAYOUT
350
1A
  3
ACAD_MATERIAL
350
43
  3
ACAD_MLEADERSTYLE
350
6B
  3
ACAD_MLINESTYLE
350
17
  3
ACAD_PLOTSETTINGS
350
19
  3
ACAD_PLOTSTYLENAME
350
E
  3
ACAD_SCALELIST
350
47
  3
ACAD_SECTIONVIEWSTYLE
350
39C
  3
ACAD_TABLESTYLE
350
69
  3
ACAD_VISUALSTYLE
350
2A
  3
ACDB_RECOMPOSE_DATA
350
398
  3
AcDbVariableDictionary
350
358
  0
DICTIONARY
  5
356
330
8
100
AcDbDictionary
280
     1
281
     1
  3
ACAD_XREC_ROUNDTRIP
360
357
  0
DICTIONARY
  5
39B
102
{ACAD_REACTORS
330
C
102
}
330
C
100
AcDbDictionary
281
     1
  0
DICTIONARY
  5
D
102
{ACAD_REACTORS
330
C
102
}
330
C
100
AcDbDictionary
281
     1
  0
DICTIONARY
  5
1A
102
{ACAD_REACTORS
330
C
102
}
330
C
100
AcDbDictionary
281
     1
  3
Layout1
350
1E
  3
Layout2
350
26
  3
Model
350
22
  0
DICTIONARY
  5
43
102
{ACAD_REACTORS
330
C
102
}
330
C
100
AcDbDictionary
281
     1
  3
ByBlock
350
45
  3
ByLayer
350
44
  3
Global
350
46
  0
DICTIONARY
  5
6B
102
{ACAD_REACTORS
330
C
102
}
330
C
100
AcDbDictionary
281
     1
  3
Standard
350
6C
  0
DICTIONARY
  5
17
102
{ACAD_REACTORS
330
C
102
}
330
C
100
AcDbDictionary
281
     1
  3
Standard
350
18
  0
DICTIONARY
  5
19
102
{ACAD_REACTORS
330
C
102
}
330
C
100
AcDbDictionary
281
     1
  0
ACDBDICTIONARYWDFLT
  5
E
102
{ACAD_REACTORS
330
C
102
}
330
C
100
AcDbDictionary
281
     1
  3
Normal
350
F
100
AcDbDictionaryWithDefault
340
F
  0
DICTIONARY
  5
47
102
{ACAD_REACTORS
330
C
102
}
330
C
100
AcDbDictionary
281
     1
  3
A0
350
48
  3
A1
350
49
  3
A2
350
4A
  3
A3
350
4B
  3
A4
350
4C
  3
A5
350
4D
  3
A6
350
4E
  3
A7
350
4F
  3
A8
350
50
  3
A9
350
51
  3
B0
350
52
  3
B1
350
53
  3
B2
350
54
  3
B3
350
55
  3
B4
350
56
  3
B5
350
57
  3
B6
350
58
  3
B7
350
59
  3
B8
350
5A
  3
B9
350
5B
  3
C0
350
5C
  3
C1
350
5D
  3
C2
350
5E
  3
C3
350
5F
  3
C4
350
60
  3
C5
350
61
  3
C6
350
62
  3
C7
350
63
  3
C8
350
64
  3
C9
350
65
  3
D0
350
66
  3
D1
350
67
  3
D2
350
68
  0
DICTIONARY
  5
39C
102
{ACAD_REACTORS
330
C
102
}
330
C
100
AcDbDictionary
281
     1
  0
DICTIONARY
  5
69
102
{ACAD_REACTORS
330
C
102
}
330
C
100
AcDbDictionary
281
     1
  3
Standard
350
6A
  0
DICTIONARY
  5
2A
102
{ACAD_REACTORS
330
C
102
}
330
C
100
AcDbDictionary
281
     1
  3
2dWireframe
350
2F
  3
Basic
350
32
  3
Brighten
350
36
  3
ColorChange
350
3A
  3
Conceptual
350
34
  3
Dim
350
35
  3
EdgeColorOff
350
3D
  3
Facepattern
350
39
  3
Flat
350
2B
  3
FlatWithEdges
350
2C
  3
Gouraud
350
2D
  3
GouraudWithEdges
350
2E
  3
Hidden
350
31
  3
JitterOff
350
3B
  3
Linepattern
350
38
  3
OverhangOff
350
3C
  3
Realistic
350
33
  3
Shaded
350
42
  3
Shaded with edges
350
41
  3
Shades of Gray
350
3E
  3
Sketchy
350
3F
  3
Thicken
350
37
  3
Wireframe
350
30
  3
X-Ray
350
40
  0
XRECORD
  5
398
102
{ACAD_REACTORS
330
C
102
}
330
C
100
AcDbXrecord
280
     1
 90
        1
330
6A
  0
DICTIONARY
  5
358
102
{ACAD_REACTORS
330
C
102
}
330
C
100
AcDbDictionary
281
     1
  3
CANNOSCALE
350
359
  3
CMLEADERSTYLE
350
39A
  3
CTABLESTYLE
350
399
  3
MSLTSCALE
350
35A
  3
XCLIPFRAME
350
35B
  0
XRECORD
  5
357
102
{ACAD_REACTORS
330
356
102
}
330
356
100
AcDbXrecord
280
     1
102
VTR_0.000_0.000_1.000_1.000_VISUALSTYLE
340
2F
102
VTR_0.000_0.000_1.000_1.000_GRIDDISPLAY
 70
     3
102
VTR_0.000_0.000_1.000_1.000_GRIDMAJOR
 70
     5
102
VTR_0.000_0.000_1.000_1.000_DEFAULTLIGHTING
280
     1
102
VTR_0.000_0.000_1.000_1.000_DEFAULTLIGHTINGTYPE
 70
     1
102
VTR_0.000_0.000_1.000_1.000_BRIGHTNESS
141
0.0
102
VTR_0.000_0.000_1.000_1.000_CONTRAST
142
0.0
  0
LAYOUT
  5
1E
102
{ACAD_REACTORS
330
1A
102
}
330
1A
100
AcDbPlotSettings
  1

  2
none_device
  4

  6

 40
0.0
 41
0.0
 42
0.0
 43
0.0
 44
0.0
 45
0.0
 46
0.0
 47
0.0
 48
0.0
 49
0.0
140
0.0
141
0.0
142
1.0
143
1.0
 70
   688
 72
     0
 73
     0
 74
     5
  7

 75
    16
 76
     0
 77
     2
 78
   300
147
1.0
148
0.0
149
0.0
100
AcDbLayout
  1
Layout1
 70
     1
 71
     1
 10
0.0
 20
0.0
 11
12.0
 21
9.0
 12
0.0
 22
0.0
 32
0.0
 14
1.00000000000000E+20
 24
1.00000000000000E+20
 34
1.00000000000000E+20
 15
-1.00000000000000E+20
 25
-1.00000000000000E+20
 35
-1.00000000000000E+20
146
0.0
 13
0.0
 23
0.0
 33
0.0
 16
1.0
 26
0.0
 36
0.0
 17
0.0
 27
1.0
 37
0.0
 76
     0
330
1B
  0
LAYOUT
  5
26
102
{ACAD_REACTORS
330
1A
102
}
330
1A
100
AcDbPlotSettings
  1

  2
none_device
  4

  6

 40
0.0
 41
0.0
 42
0.0
 43
0.0
 44
0.0
 45
0.0
 46
0.0
 47
0.0
 48
0.0
 49
0.0
140
0.0
141
0.0
142
1.0
143
1.0
 70
   688
 72
     0
 73
     0
 74
     5
  7

 75
    16
 76
     0
 77
     2
 78
   300
147
1.0
148
0.0
149
0.0
100
AcDbLayout
  1
Layout2
 70
     1
 71
     2
 10
0.0
 20
0.0
 11
0.0
 21
0.0
 12
0.0
 22
0.0
 32
0.0
 14
0.0
 24
0.0
 34
0.0
 15
0.0
 25
0.0
 35
0.0
146
0.0
 13
0.0
 23
0.0
 33
0.0
 16
1.0
 26
0.0
 36
0.0
 17
0.0
 27
1.0
 37
0.0
 76
     0
330
23
  0
LAYOUT
  5
22
102
{ACAD_REACTORS
330
1A
102
}
330
1A
100
AcDbPlotSettings
  1

  2
none_device
  4
Letter_(8.50_x_11.00_Inches)
  6

 40
6.35
 41
6.35
 42
6.35000508
 43
6.35000508
 44
215.9
 45
279.4
 46
0.0
 47
0.0
 48
0.0
 49
0.0
140
0.0
141
0.0
142
1.0
143
1.0
 70
  1712
 72
     0
 73
     0
 74
     0
  7

 75
     0
 76
     0
 77
     2
 78
   300
147
1.0
148
0.0
149
0.0
100
AcDbLayout
  1
Model
 70
     1
 71
     0
 10
0.0
 20
0.0
 11
12.0
 21
9.0
 12
0.0
 22
0.0
 32
0.0
 14
-210.2065054078738
 24
-6.35377489989344
 34
0.0
 15
86.79349459212423
 25
203.6462251001067
 35
0.0
146
0.0
 13
0.0
 23
0.0
 33
0.0
 16
1.0
 26
0.0
 36
0.0
 17
0.0
 27
1.0
 37
0.0
 76
     0
330
1F
331
29
  0
MATERIAL
  5
45
102
{ACAD_REACTORS
330
43
102
}
102
{ACAD_XDICTIONARY
360
38E
102
}
330
43
100
AcDbMaterial
  1
ByBlock
  0
MATERIAL
  5
44
102
{ACAD_REACTORS
330
43
102
}
102
{ACAD_XDICTIONARY
360
38C
102
}
330
43
100
AcDbMaterial
  1
ByLayer
  0
MATERIAL
  5
46
102
{ACAD_REACTORS
330
43
102
}
102
{ACAD_XDICTIONARY
360
390
102
}
330
43
100
AcDbMaterial
  1
Global
  0
MLEADERSTYLE
  5
6C
102
{ACAD_REACTORS
330
6B
102
}
102
{ACAD_XDICTIONARY
360
396
102
}
330
6B
100
AcDbMLeaderStyle
170
     2
171
     1
172
     0
 90
        2
 40
0.0
 41
0.0
173
     1
 91
-1056964608
340
14
 92
       -2
290
     1
 42
0.09
291
     1
 43
0.36
  3
Standard
341
0
 44
0.18
300

342
11
174
     1
178
     6
175
     1
176
     0
 93
-1056964608
 45
0.18
292
     0
297
     0
 46
0.18
343
0
 94
-1056964608
 47
1.0
 49
1.0
140
1.0
293
     1
141
0.0
294
     1
177
     0
142
1.0
295
     0
296
     0
143
0.125
1001
ACAD_MLEADERVER
1070
     2
  0
MLINESTYLE
  5
18
102
{ACAD_REACTORS
330
17
102
}
330
17
100
AcDbMlineStyle
  2
Standard
 70
     0
  3

 62
   256
 51
90.0
 52
90.0
 71
     2
 49
0.5
 62
   256
  6
BYLAYER
 49
-0.5
 62
   256
  6
BYLAYER
  0
ACDBPLACEHOLDER
  5
F
102
{ACAD_REACTORS
330
E
102
}
330
E
  0
SCALE
  5
48
102
{ACAD_REACTORS
330
47
102
}
330
47
100
AcDbScale
 70
     0
300
1:1
140
1.0
141
1.0
290
     1
  0
SCALE
  5
49
102
{ACAD_REACTORS
330
47
102
}
330
47
100
AcDbScale
 70
     0
300
1:2
140
1.0
141
2.0
290
     0
  0
SCALE
  5
4A
102
{ACAD_REACTORS
330
47
102
}
330
47
100
AcDbScale
 70
     0
300
1:4
140
1.0
141
4.0
290
     0
  0
SCALE
  5
4B
102
{ACAD_REACTORS
330
47
102
}
330
47
100
AcDbScale
 70
     0
300
1:5
140
1.0
141
5.0
290
     0
  0
SCALE
  5
4C
102
{ACAD_REACTORS
330
47
102
}
330
47
100
AcDbScale
 70
     0
300
1:8
140
1.0
141
8.0
290
     0
  0
SCALE
  5
4D
102
{ACAD_REACTORS
330
47
102
}
330
47
100
AcDbScale
 70
     0
300
1:10
140
1.0
141
10.0
290
     0
  0
SCALE
  5
4E
102
{ACAD_REACTORS
330
47
102
}
330
47
100
AcDbScale
 70
     0
300
1:16
140
1.0
141
16.0
290
     0
  0
SCALE
  5
4F
102
{ACAD_REACTORS
330
47
102
}
330
47
100
AcDbScale
 70
     0
300
1:20
140
1.0
141
20.0
290
     0
  0
SCALE
  5
50
102
{ACAD_REACTORS
330
47
102
}
330
47
100
AcDbScale
 70
     0
300
1:30
140
1.0
141
30.0
290
     0
  0
SCALE
  5
51
102
{ACAD_REACTORS
330
47
102
}
330
47
100
AcDbScale
 70
     0
300
1:40
140
1.0
141
40.0
290
     0
  0
SCALE
  5
52
102
{ACAD_REACTORS
330
47
102
}
330
47
100
AcDbScale
 70
     0
300
1:50
140
1.0
141
50.0
290
     0
  0
SCALE
  5
53
102
{ACAD_REACTORS
330
47
102
}
330
47
100
AcDbScale
 70
     0
300
1:100
140
1.0
141
100.0
290
     0
  0
SCALE
  5
54
102
{ACAD_REACTORS
330
47
102
}
330
47
100
AcDbScale
 70
     0
300
2:1
140
2.0
141
1.0
290
     0
  0
SCALE
  5
55
102
{ACAD_REACTORS
330
47
102
}
330
47
100
AcDbScale
 70
     0
300
4:1
140
4.0
141
1.0
290
     0
  0
SCALE
  5
56
102
{ACAD_REACTORS
330
47
102
}
330
47
100
AcDbScale
 70
     0
300
8:1
140
8.0
141
1.0
290
     0
  0
SCALE
  5
57
102
{ACAD_REACTORS
330
47
102
}
330
47
100
AcDbScale
 70
     0
300
10:1
140
10.0
141
1.0
290
     0
  0
SCALE
  5
58
102
{ACAD_REACTORS
330
47
102
}
330
47
100
AcDbScale
 70
     0
300
100:1
140
100.0
141
1.0
290
     0
  0
SCALE
  5
59
102
{ACAD_REACTORS
330
47
102
}
330
47
100
AcDbScale
 70
     0
300
1/128" = 1'-0"
140
0.0078125
141
12.0
290
     0
  0
SCALE
  5
5A
102
{ACAD_REACTORS
330
47
102
}
330
47
100
AcDbScale
 70
     0
300
1/64" = 1'-0"
140
0.015625
141
12.0
290
     0
  0
SCALE
  5
5B
102
{ACAD_REACTORS
330
47
102
}
330
47
100
AcDbScale
 70
     0
300
1/32" = 1'-0"
140
0.03125
141
12.0
290
     0
  0
SCALE
  5
5C
102
{ACAD_REACTORS
330
47
102
}
330
47
100
AcDbScale
 70
     0
300
1/16" = 1'-0"
140
0.0625
141
12.0
290
     0
  0
SCALE
  5
5D
102
{ACAD_REACTORS
330
47
102
}
330
47
100
AcDbScale
 70
     0
300
3/32" = 1'-0"
140
0.09375
141
12.0
290
     0
  0
SCALE
  5
5E
102
{ACAD_REACTORS
330
47
102
}
330
47
100
AcDbScale
 70
     0
300
1/8" = 1'-0"
140
0.125
141
12.0
290
     0
  0
SCALE
  5
5F
102
{ACAD_REACTORS
330
47
102
}
330
47
100
AcDbScale
 70
     0
300
3/16" = 1'-0"
140
0.1875
141
12.0
290
     0
  0
SCALE
  5
60
102
{ACAD_REACTORS
330
47
102
}
330
47
100
AcDbScale
 70
     0
300
1/4" = 1'-0"
140
0.25
141
12.0
290
     0
  0
SCALE
  5
61
102
{ACAD_REACTORS
330
47
102
}
330
47
100
AcDbScale
 70
     0
300
3/8" = 1'-0"
140
0.375
141
12.0
290
     0
  0
SCALE
  5
62
102
{ACAD_REACTORS
330
47
102
}
330
47
100
AcDbScale
 70
     0
300
1/2" = 1'-0"
140
0.5
141
12.0
290
     0
  0
SCALE
  5
63
102
{ACAD_REACTORS
330
47
102
}
330
47
100
AcDbScale
 70
     0
300
3/4" = 1'-0"
140
0.75
141
12.0
290
     0
  0
SCALE
  5
64
102
{ACAD_REACTORS
330
47
102
}
330
47
100
AcDbScale
 70
     0
300
1" = 1'-0"
140
1.0
141
12.0
290
     0
  0
SCALE
  5
65
102
{ACAD_REACTORS
330
47
102
}
330
47
100
AcDbScale
 70
     0
300
1-1/2" = 1'-0"
140
1.5
141
12.0
290
     0
  0
SCALE
  5
66
102
{ACAD_REACTORS
330
47
102
}
330
47
100
AcDbScale
 70
     0
300
3" = 1'-0"
140
3.0
141
12.0
290
     0
  0
SCALE
  5
67
102
{ACAD_REACTORS
330
47
102
}
330
47
100
AcDbScale
 70
     0
300
6" = 1'-0"
140
6.0
141
12.0
290
     0
  0
SCALE
  5
68
102
{ACAD_REACTORS
330
47
102
}
330
47
100
AcDbScale
 70
     0
300
1'-0" = 1'-0"
140
12.0
141
12.0
290
     0
  0
TABLESTYLE
  5
6A
102
{ACAD_REACTORS
330
69
102
}
102
{ACAD_XDICTIONARY
360
392
102
}
330
69
100
AcDbTableStyle
  3
Standard
 70
     0
 71
     0
 40
0.06
 41
0.06
280
     0
281
     0
  7
Standard
140
0.18
170
     2
 62
     0
 63
   257
283
     0
274
    -2
284
     1
 64
     0
275
    -2
285
     1
 65
     0
276
    -2
286
     1
 66
     0
277
    -2
287
     1
 67
     0
278
    -2
288
     1
 68
     0
279
    -2
289
     1
 69
     0
  7
Standard
140
0.25
170
     5
 62
     0
 63
   257
283
     0
274
    -2
284
     1
 64
     0
275
    -2
285
     1
 65
     0
276
    -2
286
     1
 66
     0
277
    -2
287
     1
 67
     0
278
    -2
288
     1
 68
     0
279
    -2
289
     1
 69
     0
  7
Standard
140
0.18
170
     5
 62
     0
 63
   257
283
     0
274
    -2
284
     1
 64
     0
275
    -2
285
     1
 65
     0
276
    -2
286
     1
 66
     0
277
    -2
287
     1
 67
     0
278
    -2
288
     1
 68
     0
279
    -2
289
     1
 69
     0
  0
VISUALSTYLE
  5
2F
102
{ACAD_REACTORS
330
2A
102
}
102
{ACAD_XDICTIONARY
360
364
102
}
330
2A
100
AcDbVisualStyle
  2
2dWireframe
 70
     4
 71
     0
 72
     2
 73
     0
 90
        0
 40
0.6
 41
30.0
 62
     5
 63
     7
421
 16777215
 74
     1
 91
        4
 64
     7
 65
   257
 75
     1
175
     1
 42
1.0
 92
        0
 66
   257
 43
1.0
 76
     1
 77
     6
 78
     2
 67
     7
 79
     5
170
     0
171
     0
290
     0
174
     0
 93
        1
 44
0.0
173
     0
291
     0
 45
0.0
1001
ACAD
1000
AcDbSavedByObjectVersion
1070
     0
  0
VISUALSTYLE
  5
32
102
{ACAD_REACTORS
330
2A
102
}
102
{ACAD_XDICTIONARY
360
36A
102
}
330
2A
100
AcDbVisualStyle
  2
Basic
 70
     7
 71
     1
 72
     0
 73
     1
 90
        0
 40
0.6
 41
30.0
 62
     5
 63
     7
421
 16777215
 74
     0
 91
        4
 64
     7
 65
   257
 75
     1
175
     1
 42
1.0
 92
        8
 66
     7
 43
1.0
 76
     1
 77
     6
 78
     2
 67
     7
 79
     5
170
     0
171
     0
290
     0
174
     0
 93
        1
 44
0.0
173
     0
291
     1
 45
0.0
1001
ACAD
1000
AcDbSavedByObjectVersion
1070
     0
  0
VISUALSTYLE
  5
36
102
{ACAD_REACTORS
330
2A
102
}
102
{ACAD_XDICTIONARY
360
372
102
}
330
2A
100
AcDbVisualStyle
  2
Brighten
 70
    12
 71
     2
 72
     2
 73
     0
 90
        0
 40
0.6
 41
30.0
 62
     5
 63
     7
421
 16777215
 74
     1
 91
        4
 64
     7
 65
   257
 75
     1
175
     1
 42
1.0
 92
        8
 66
     7
 43
1.0
 76
     1
 77
     6
 78
     2
 67
     7
 79
     5
170
     0
171
     0
290
     0
174
     0
 93
        1
 44
50.0
173
     0
291
     1
 45
0.0
1001
ACAD
1000
AcDbSavedByObjectVersion
1070
     0
  0
VISUALSTYLE
  5
3A
102
{ACAD_REACTORS
330
2A
102
}
102
{ACAD_XDICTIONARY
360
37A
102
}
330
2A
100
AcDbVisualStyle
  2
ColorChange
 70
    16
 71
     2
 72
     2
 73
     3
 90
        0
 40
0.6
 41
30.0
 62
     5
 63
     8
421
  8421504
 74
     1
 91
        4
 64
     7
 65
   257
 75
     1
175
     1
 42
1.0
 92
        8
 66
     8
424
  8421504
 43
1.0
 76
     1
 77
     6
 78
     2
 67
     7
 79
     5
170
     0
171
     0
290
     0
174
     0
 93
        1
 44
0.0
173
     0
291
     1
 45
0.0
1001
ACAD
1000
AcDbSavedByObjectVersion
1070
     0
  0
VISUALSTYLE
  5
34
102
{ACAD_REACTORS
330
2A
102
}
102
{ACAD_XDICTIONARY
360
36E
102
}
330
2A
100
AcDbVisualStyle
  2
Conceptual
 70
     9
 71
     3
 72
     2
 73
     0
 90
        0
 40
0.6
 41
30.0
 62
     5
 63
     7
421
 16777215
 74
     2
 91
        2
 64
     7
 65
   257
 75
     1
175
     1
 42
179.0
 92
        8
 66
     7
 43
1.0
 76
     1
 77
     6
 78
     2
 67
     7
 79
     3
170
     0
171
     0
290
     0
174
     0
 93
        1
 44
0.0
173
     0
291
     0
 45
0.0
1001
ACAD
1000
AcDbSavedByObjectVersion
1070
     0
  0
VISUALSTYLE
  5
35
102
{ACAD_REACTORS
330
2A
102
}
102
{ACAD_XDICTIONARY
360
370
102
}
330
2A
100
AcDbVisualStyle
  2
Dim
 70
    11
 71
     2
 72
     2
 73
     0
 90
        0
 40
0.6
 41
30.0
 62
     5
 63
     7
421
 16777215
 74
     1
 91
        4
 64
     7
 65
   257
 75
     1
175
     1
 42
1.0
 92
        8
 66
     7
 43
1.0
 76
     1
 77
     6
 78
     2
 67
     7
 79
     5
170
     0
171
     0
290
     0
174
     0
 93
        1
 44
-50.0
173
     0
291
     1
 45
0.0
1001
ACAD
1000
AcDbSavedByObjectVersion
1070
     0
  0
VISUALSTYLE
  5
3D
102
{ACAD_REACTORS
330
2A
102
}
102
{ACAD_XDICTIONARY
360
380
102
}
330
2A
100
AcDbVisualStyle
  2
EdgeColorOff
 70
    22
 71
     2
 72
     2
 73
     0
 90
        0
 40
0.6
 41
30.0
 62
     5
 63
     7
421
 16777215
 74
     1
 91
        4
 64
     7
 65
   257
 75
     1
175
     1
 42
1.0
 92
        8
 66
     7
 43
1.0
 76
     1
 77
     6
 78
     2
 67
     7
 79
     5
170
     0
171
     0
290
     0
174
     0
 93
        1
 44
0.0
173
     0
291
     1
 45
0.0
1001
ACAD
1000
AcDbSavedByObjectVersion
1070
     0
  0
VISUALSTYLE
  5
39
102
{ACAD_REACTORS
330
2A
102
}
102
{ACAD_XDICTIONARY
360
378
102
}
330
2A
100
AcDbVisualStyle
  2
Facepattern
 70
    15
 71
     2
 72
     2
 73
     0
 90
        0
 40
0.6
 41
30.0
 62
     5
 63
     7
421
 16777215
 74
     1
 91
        4
 64
     7
 65
   257
 75
     1
175
     1
 42
1.0
 92
        8
 66
     7
 43
1.0
 76
     1
 77
     6
 78
     2
 67
     7
 79
     5
170
     0
171
     0
290
     0
174
     0
 93
        1
 44
0.0
173
     0
291
     1
 45
0.0
1001
ACAD
1000
AcDbSavedByObjectVersion
1070
     0
  0
VISUALSTYLE
  5
2B
102
{ACAD_REACTORS
330
2A
102
}
102
{ACAD_XDICTIONARY
360
35C
102
}
330
2A
100
AcDbVisualStyle
  2
Flat
 70
     0
 71
     2
 72
     1
 73
     1
 90
        2
 40
0.6
 41
30.0
 62
     5
 63
     7
421
 16777215
 74
     0
 91
        0
 64
     7
 65
   257
 75
     1
175
     1
 42
1.0
 92
        8
 66
     7
 43
1.0
 76
     1
 77
     6
 78
     2
 67
     7
 79
     5
170
     0
171
     0
290
     0
174
     0
 93
       13
 44
0.0
173
     0
291
     1
 45
0.0
1001
ACAD
1000
AcDbSavedByObjectVersion
1070
     0
  0
VISUALSTYLE
  5
2C
102
{ACAD_REACTORS
330
2A
102
}
102
{ACAD_XDICTIONARY
360
35E
102
}
330
2A
100
AcDbVisualStyle
  2
FlatWithEdges
 70
     1
 71
     2
 72
     1
 73
     1
 90
        2
 40
0.6
 41
30.0
 62
     5
 63
     7
421
 16777215
 74
     1
 91
        0
 64
     7
 65
   257
 75
     1
175
     1
 42
1.0
 92
        0
 66
   257
 43
1.0
 76
     1
 77
     6
 78
     2
 67
     7
 79
     5
170
     0
171
     0
290
     0
174
     0
 93
       13
 44
0.0
173
     0
291
     1
 45
0.0
1001
ACAD
1000
AcDbSavedByObjectVersion
1070
     0
  0
VISUALSTYLE
  5
2D
102
{ACAD_REACTORS
330
2A
102
}
102
{ACAD_XDICTIONARY
360
360
102
}
330
2A
100
AcDbVisualStyle
  2
Gouraud
 70
     2
 71
     2
 72
     2
 73
     1
 90
        2
 40
0.6
 41
30.0
 62
     5
 63
     7
421
 16777215
 74
     0
 91
        0
 64
     7
 65
   257
 75
     1
175
     1
 42
1.0
 92
        0
 66
     7
 43
1.0
 76
     1
 77
     6
 78
     2
 67
     7
 79
     5
170
     0
171
     0
290
     0
174
     0
 93
       13
 44
0.0
173
     0
291
     1
 45
0.0
1001
ACAD
1000
AcDbSavedByObjectVersion
1070
     0
  0
VISUALSTYLE
  5
2E
102
{ACAD_REACTORS
330
2A
102
}
102
{ACAD_XDICTIONARY
360
362
102
}
330
2A
100
AcDbVisualStyle
  2
GouraudWithEdges
 70
     3
 71
     2
 72
     2
 73
     1
 90
        2
 40
0.6
 41
30.0
 62
     5
 63
     7
421
 16777215
 74
     1
 91
        0
 64
     7
 65
   257
 75
     1
175
     1
 42
1.0
 92
        0
 66
   257
 43
1.0
 76
     1
 77
     6
 78
     2
 67
     7
 79
     5
170
     0
171
     0
290
     0
174
     0
 93
       13
 44
0.0
173
     0
291
     1
 45
0.0
1001
ACAD
1000
AcDbSavedByObjectVersion
1070
     0
  0
VISUALSTYLE
  5
31
102
{ACAD_REACTORS
330
2A
102
}
102
{ACAD_XDICTIONARY
360
368
102
}
330
2A
100
AcDbVisualStyle
  2
Hidden
 70
     6
 71
     1
 72
     2
 73
     2
 90
        0
 40
0.6
 41
30.0
 62
     5
 63
     7
421
 16777215
 74
     2
 91
        2
 64
     7
 65
   257
 75
     2
175
     1
 42
40.0
 92
        0
 66
   257
 43
1.0
 76
     1
 77
     6
 78
     2
 67
     7
 79
     3
170
     0
171
     0
290
     0
174
     0
 93
        1
 44
0.0
173
     0
291
     0
 45
0.0
1001
ACAD
1000
AcDbSavedByObjectVersion
1070
     0
  0
VISUALSTYLE
  5
3B
102
{ACAD_REACTORS
330
2A
102
}
102
{ACAD_XDICTIONARY
360
37C
102
}
330
2A
100
AcDbVisualStyle
  2
JitterOff
 70
    20
 71
     2
 72
     2
 73
     0
 90
        0
 40
0.6
 41
30.0
 62
     5
 63
     7
421
 16777215
 74
     1
 91
        4
 64
     7
 65
   257
 75
     1
175
     1
 42
1.0
 92
       10
 66
     7
 43
1.0
 76
     1
 77
     6
 78
     2
 67
     7
 79
     5
170
     0
171
     0
290
     0
174
     0
 93
        1
 44
0.0
173
     0
291
     1
 45
0.0
1001
ACAD
1000
AcDbSavedByObjectVersion
1070
     0
  0
VISUALSTYLE
  5
38
102
{ACAD_REACTORS
330
2A
102
}
102
{ACAD_XDICTIONARY
360
376
102
}
330
2A
100
AcDbVisualStyle
  2
Linepattern
 70
    14
 71
     2
 72
     2
 73
     0
 90
        0
 40
0.6
 41
30.0
 62
     5
 63
     7
421
 16777215
 74
     1
 91
        4
 64
     7
 65
   257
 75
     7
175
     7
 42
1.0
 92
        8
 66
     7
 43
1.0
 76
     1
 77
     6
 78
     2
 67
     7
 79
     5
170
     0
171
     0
290
     0
174
     0
 93
        1
 44
0.0
173
     0
291
     1
 45
0.0
1001
ACAD
1000
AcDbSavedByObjectVersion
1070
     0
  0
VISUALSTYLE
  5
3C
102
{ACAD_REACTORS
330
2A
102
}
102
{ACAD_XDICTIONARY
360
37E
102
}
330
2A
100
AcDbVisualStyle
  2
OverhangOff
 70
    21
 71
     2
 72
     2
 73
     0
 90
        0
 40
0.6
 41
30.0
 62
     5
 63
     7
421
 16777215
 74
     1
 91
        4
 64
     7
 65
   257
 75
     1
175
     1
 42
1.0
 92
        9
 66
     7
 43
1.0
 76
     1
 77
     6
 78
     2
 67
     7
 79
     5
170
     0
171
     0
290
     0
174
     0
 93
        1
 44
0.0
173
     0
291
     1
 45
0.0
1001
ACAD
1000
AcDbSavedByObjectVersion
1070
     0
  0
VISUALSTYLE
  5
33
102
{ACAD_REACTORS
330
2A
102
}
102
{ACAD_XDICTIONARY
360
36C
102
}
330
2A
100
AcDbVisualStyle
  2
Realistic
 70
     8
 71
     2
 72
     3
 73
     0
 90
        2
 40
0.6
 41
30.0
 62
     5
 63
     7
421
 16777215
 74
     0
 91
        0
 64
     7
 65
   257
 75
     1
175
     1
 42
1.0
 92
        8
 66
   257
 43
1.0
 76
     1
 77
     6
 78
     2
 67
     7
 79
     3
170
     0
171
     0
290
     0
174
     0
 93
       13
 44
0.0
173
     0
291
     0
 45
0.0
1001
ACAD
1000
AcDbSavedByObjectVersion
1070
     0
  0
VISUALSTYLE
  5
42
102
{ACAD_REACTORS
330
2A
102
}
102
{ACAD_XDICTIONARY
360
38A
102
}
330
2A
100
AcDbVisualStyle
  2
Shaded
 70
    27
 71
     2
 72
     2
 73
     1
 90
        2
 40
0.6
 41
30.0
 62
     5
 63
     7
421
 16777215
 74
     0
 91
        4
 64
     7
 65
   257
 75
     1
175
     1
 42
1.0
 92
        8
 66
   257
 43
1.0
 76
     1
 77
     6
 78
     2
 67
     8
425
  7895160
 79
     3
170
     0
171
     0
290
     0
174
     0
 93
        5
 44
0.0
173
     0
291
     0
 45
0.0
1001
ACAD
1000
AcDbSavedByObjectVersion
1070
     0
  0
VISUALSTYLE
  5
41
102
{ACAD_REACTORS
330
2A
102
}
102
{ACAD_XDICTIONARY
360
388
102
}
330
2A
100
AcDbVisualStyle
  2
Shaded with edges
 70
    26
 71
     2
 72
     2
 73
     1
 90
        2
 40
0.6
 41
30.0
 62
     5
 63
     7
421
 16777215
 74
     1
 91
       10
 64
     7
 65
   257
 75
     2
175
     1
 42
1.0
 92
        8
 66
   257
 43
1.0
 76
     1
 77
     6
 78
     2
 67
     7
 79
     3
170
     0
171
     0
290
     0
174
     0
 93
        5
 44
0.0
173
     0
291
     0
 45
0.0
1001
ACAD
1000
AcDbSavedByObjectVersion
1070
     0
  0
VISUALSTYLE
  5
3E
102
{ACAD_REACTORS
330
2A
102
}
102
{ACAD_XDICTIONARY
360
382
102
}
330
2A
100
AcDbVisualStyle
  2
Shades of Gray
 70
    23
 71
     2
 72
     2
 73
     3
 90
        0
 40
0.6
 41
30.0
 62
     5
 63
     7
421
 16777215
 74
     2
 91
        2
 64
     7
 65
     7
 75
     1
175
     1
 42
40.0
 92
        8
 66
     7
 43
1.0
 76
     1
 77
     6
 78
     2
 67
     7
 79
     3
170
     0
171
     0
290
     0
174
     0
 93
        1
 44
0.0
173
     0
291
     0
 45
0.0
1001
ACAD
1000
AcDbSavedByObjectVersion
1070
     0
  0
VISUALSTYLE
  5
3F
102
{ACAD_REACTORS
330
2A
102
}
102
{ACAD_XDICTIONARY
360
384
102
}
330
2A
100
AcDbVisualStyle
  2
Sketchy
 70
    24
 71
     1
 72
     2
 73
     2
 90
        0
 40
0.6
 41
30.0
 62
     5
 63
     7
421
 16777215
 74
     2
 91
        2
 64
     7
 65
     7
 75
     1
175
     1
 42
40.0
 92
       11
 66
     7
 43
1.0
 76
     1
 77
     6
 78
     2
 67
     7
 79
     6
170
     0
171
     0
290
     0
174
     0
 93
        1
 44
0.0
173
     0
291
     0
 45
0.0
1001
ACAD
1000
AcDbSavedByObjectVersion
1070
     0
  0
VISUALSTYLE
  5
37
102
{ACAD_REACTORS
330
2A
102
}
102
{ACAD_XDICTIONARY
360
374
102
}
330
2A
100
AcDbVisualStyle
  2
Thicken
 70
    13
 71
     2
 72
     2
 73
     0
 90
        0
 40
0.6
 41
30.0
 62
     5
 63
     7
421
 16777215
 74
     1
 91
        4
 64
     7
 65
   257
 75
     1
175
     1
 42
1.0
 92
       12
 66
     7
 43
1.0
 76
     1
 77
     6
 78
     2
 67
     7
 79
     5
170
     0
171
     0
290
     0
174
     0
 93
        1
 44
0.0
173
     0
291
     1
 45
0.0
1001
ACAD
1000
AcDbSavedByObjectVersion
1070
     0
  0
VISUALSTYLE
  5
30
102
{ACAD_REACTORS
330
2A
102
}
102
{ACAD_XDICTIONARY
360
366
102
}
330
2A
100
AcDbVisualStyle
  2
Wireframe
 70
     5
 71
     0
 72
     2
 73
     0
 90
        0
 40
0.6
 41
30.0
 62
     5
 63
     7
421
 16777215
 74
     1
 91
        4
 64
     7
 65
   257
 75
     1
175
     1
 42
1.0
 92
        0
 66
   257
 43
1.0
 76
     1
 77
     6
 78
     2
 67
     7
 79
     3
170
     0
171
     0
290
     0
174
     0
 93
        1
 44
0.0
173
     0
291
     0
 45
0.0
1001
ACAD
1000
AcDbSavedByObjectVersion
1070
     0
  0
VISUALSTYLE
  5
40
102
{ACAD_REACTORS
330
2A
102
}
102
{ACAD_XDICTIONARY
360
386
102
}
330
2A
100
AcDbVisualStyle
  2
X-Ray
 70
    25
 71
     2
 72
     2
 73
     1
 90
        1
 40
0.5
 41
30.0
 62
     5
 63
     7
421
 16777215
 74
     1
 91
        0
 64
     7
 65
   257
 75
     1
175
     1
 42
1.0
 92
        8
 66
     7
 43
1.0
 76
     1
 77
     6
 78
     2
 67
     7
 79
     3
170
     0
171
     0
290
     0
174
     0
 93
       13
 44
0.0
173
     0
291
     0
 45
0.0
1001
ACAD
1000
AcDbSavedByObjectVersion
1070
     0
  0
DICTIONARYVAR
  5
359
102
{ACAD_REACTORS
330
358
102
}
330
358
100
DictionaryVariables
280
     0
  1
1:1
  0
DICTIONARYVAR
  5
39A
102
{ACAD_REACTORS
330
358
102
}
330
358
100
DictionaryVariables
280
     0
  1
Standard
  0
DICTIONARYVAR
  5
399
102
{ACAD_REACTORS
330
358
102
}
330
358
100
DictionaryVariables
280
     0
  1
Standard
  0
DICTIONARYVAR
  5
35A
102
{ACAD_REACTORS
330
358
102
}
330
358
100
DictionaryVariables
280
     0
  1
1
  0
DICTIONARYVAR
  5
35B
102
{ACAD_REACTORS
330
358
102
}
330
358
100
DictionaryVariables
280
     0
  1
2
  0
DICTIONARY
  5
38E
330
45
100
AcDbDictionary
280
     1
281
     1
  3
ACAD_XREC_ROUNDTRIP
360
38F
  0
DICTIONARY
  5
38C
330
44
100
AcDbDictionary
280
     1
281
     1
  3
ACAD_XREC_ROUNDTRIP
360
38D
  0
DICTIONARY
  5
390
330
46
100
AcDbDictionary
280
     1
281
     1
  3
ACAD_XREC_ROUNDTRIP
360
391
  0
DICTIONARY
  5
396
330
6C
100
AcDbDictionary
280
     1
281
     1
  3
ACAD_XREC_ROUNDTRIP
360
397
  0
DICTIONARY
  5
392
330
6A
100
AcDbDictionary
280
     1
281
     1
  3
ACAD_ROUNDTRIP_2008_TABLESTYLE_CELLSTYLEMAP
360
394
  3
ACAD_XREC_ROUNDTRIP
360
393
  0
DICTIONARY
  5
364
330
2F
100
AcDbDictionary
280
     1
281
     1
  3
ACAD_XREC_ROUNDTRIP
360
365
  0
DICTIONARY
  5
36A
330
32
100
AcDbDictionary
280
     1
281
     1
  3
ACAD_XREC_ROUNDTRIP
360
36B
  0
DICTIONARY
  5
372
330
36
100
AcDbDictionary
280
     1
281
     1
  3
ACAD_XREC_ROUNDTRIP
360
373
  0
DICTIONARY
  5
37A
330
3A
100
AcDbDictionary
280
     1
281
     1
  3
ACAD_XREC_ROUNDTRIP
360
37B
  0
DICTIONARY
  5
36E
330
34
100
AcDbDictionary
280
     1
281
     1
  3
ACAD_XREC_ROUNDTRIP
360
36F
  0
DICTIONARY
  5
370
330
35
100
AcDbDictionary
280
     1
281
     1
  3
ACAD_XREC_ROUNDTRIP
360
371
  0
DICTIONARY
  5
380
330
3D
100
AcDbDictionary
280
     1
281
     1
  3
ACAD_XREC_ROUNDTRIP
360
381
  0
DICTIONARY
  5
378
330
39
100
AcDbDictionary
280
     1
281
     1
  3
ACAD_XREC_ROUNDTRIP
360
379
  0
DICTIONARY
  5
35C
330
2B
100
AcDbDictionary
280
     1
281
     1
  3
ACAD_XREC_ROUNDTRIP
360
35D
  0
DICTIONARY
  5
35E
330
2C
100
AcDbDictionary
280
     1
281
     1
  3
ACAD_XREC_ROUNDTRIP
360
35F
  0
DICTIONARY
  5
360
330
2D
100
AcDbDictionary
280
     1
281
     1
  3
ACAD_XREC_ROUNDTRIP
360
361
  0
DICTIONARY
  5
362
330
2E
100
AcDbDictionary
280
     1
281
     1
  3
ACAD_XREC_ROUNDTRIP
360
363
  0
DICTIONARY
  5
368
330
31
100
AcDbDictionary
280
     1
281
     1
  3
ACAD_XREC_ROUNDTRIP
360
369
  0
DICTIONARY
  5
37C
330
3B
100
AcDbDictionary
280
     1
281
     1
  3
ACAD_XREC_ROUNDTRIP
360
37D
  0
DICTIONARY
  5
376
330
38
100
AcDbDictionary
280
     1
281
     1
  3
ACAD_XREC_ROUNDTRIP
360
377
  0
DICTIONARY
  5
37E
330
3C
100
AcDbDictionary
280
     1
281
     1
  3
ACAD_XREC_ROUNDTRIP
360
37F
  0
DICTIONARY
  5
36C
330
33
100
AcDbDictionary
280
     1
281
     1
  3
ACAD_XREC_ROUNDTRIP
360
36D
  0
DICTIONARY
  5
38A
330
42
100
AcDbDictionary
280
     1
281
     1
  3
ACAD_XREC_ROUNDTRIP
360
38B
  0
DICTIONARY
  5
388
330
41
100
AcDbDictionary
280
     1
281
     1
  3
ACAD_XREC_ROUNDTRIP
360
389
  0
DICTIONARY
  5
382
330
3E
100
AcDbDictionary
280
     1
281
     1
  3
ACAD_XREC_ROUNDTRIP
360
383
  0
DICTIONARY
  5
384
330
3F
100
AcDbDictionary
280
     1
281
     1
  3
ACAD_XREC_ROUNDTRIP
360
385
  0
DICTIONARY
  5
374
330
37
100
AcDbDictionary
280
     1
281
     1
  3
ACAD_XREC_ROUNDTRIP
360
375
  0
DICTIONARY
  5
366
330
30
100
AcDbDictionary
280
     1
281
     1
  3
ACAD_XREC_ROUNDTRIP
360
367
  0
DICTIONARY
  5
386
330
40
100
AcDbDictionary
280
     1
281
     1
  3
ACAD_XREC_ROUNDTRIP
360
387
  0
XRECORD
  5
38F
102
{ACAD_REACTORS
330
38E
102
}
330
38E
100
AcDbXrecord
280
     1
102
MATERIAL
148
0.0
149
0.0
149
0.0
 93
        0
 94
      127
282
     0
 72
     1
 77
     1
171
     1
175
     1
179
     1
273
     0
  0
XRECORD
  5
38D
102
{ACAD_REACTORS
330
38C
102
}
330
38C
100
AcDbXrecord
280
     1
102
MATERIAL
148
0.0
149
0.0
149
0.0
 93
        0
 94
      127
282
     0
 72
     1
 77
     1
171
     1
175
     1
179
     1
273
     0
  0
XRECORD
  5
391
102
{ACAD_REACTORS
330
390
102
}
330
390
100
AcDbXrecord
280
     1
102
MATERIAL
148
0.0
149
0.0
149
0.0
 93
        0
 94
      127
282
     0
 72
     1
 77
     1
171
     1
175
     1
179
     1
273
     0
  0
XRECORD
  5
397
102
{ACAD_REACTORS
330
396
102
}
330
396
100
AcDbXrecord
280
     1
102
ACAD_ROUNDTRIP_2010_MLEADER_STYLE
  0
CELLSTYLEMAP
  5
394
102
{ACAD_REACTORS
330
392
102
}
330
392
100
AcDbCellStyleMap
 90
        3
300
CELLSTYLE
  1
TABLEFORMAT_BEGIN
 90
        5
170
     1
 91
        0
 92
    32768
 62
   257
 93
        1
300
CONTENTFORMAT
  1
CONTENTFORMAT_BEGIN
 90
        0
 91
        0
 92
        4
 93
        0
300

 40
0.0
140
1.0
 94
        5
 62
     0
340
11
144
0.25
309
CONTENTFORMAT_END
171
     1
301
MARGIN
  1
CELLMARGIN_BEGIN
 40
0.06
 40
0.06
 40
0.06
 40
0.06
 40
0.06
 40
0.06
309
CELLMARGIN_END
 94
        6
 95
        1
302
GRIDFORMAT
  1
GRIDFORMAT_BEGIN
 90
        0
 91
        1
 62
     0
 92
       -2
340
14
 93
        0
 40
0.045
309
GRIDFORMAT_END
 95
        2
302
GRIDFORMAT
  1
GRIDFORMAT_BEGIN
 90
        0
 91
        1
 62
     0
 92
       -2
340
14
 93
        0
 40
0.045
309
GRIDFORMAT_END
 95
        4
302
GRIDFORMAT
  1
GRIDFORMAT_BEGIN
 90
        0
 91
        1
 62
     0
 92
       -2
340
14
 93
        0
 40
0.045
309
GRIDFORMAT_END
 95
        8
302
GRIDFORMAT
  1
GRIDFORMAT_BEGIN
 90
        0
 91
        1
 62
     0
 92
       -2
340
14
 93
        0
 40
0.045
309
GRIDFORMAT_END
 95
       16
302
GRIDFORMAT
  1
GRIDFORMAT_BEGIN
 90
        0
 91
        1
 62
     0
 92
       -2
340
14
 93
        0
 40
0.045
309
GRIDFORMAT_END
 95
       32
302
GRIDFORMAT
  1
GRIDFORMAT_BEGIN
 90
        0
 91
        1
 62
     0
 92
       -2
340
14
 93
        0
 40
0.045
309
GRIDFORMAT_END
309
TABLEFORMAT_END
  1
CELLSTYLE_BEGIN
 90
        1
 91
        1
300
_TITLE
309
CELLSTYLE_END
300
CELLSTYLE
  1
TABLEFORMAT_BEGIN
 90
        5
170
     1
 91
        0
 92
        0
 62
   257
 93
        1
300
CONTENTFORMAT
  1
CONTENTFORMAT_BEGIN
 90
        0
 91
        0
 92
        4
 93
        0
300

 40
0.0
140
1.0
 94
        5
 62
     0
340
11
144
0.18
309
CONTENTFORMAT_END
171
     1
301
MARGIN
  1
CELLMARGIN_BEGIN
 40
0.06
 40
0.06
 40
0.06
 40
0.06
 40
0.06
 40
0.06
309
CELLMARGIN_END
 94
        6
 95
        1
302
GRIDFORMAT
  1
GRIDFORMAT_BEGIN
 90
        0
 91
        1
 62
     0
 92
       -2
340
14
 93
        0
 40
0.045
309
GRIDFORMAT_END
 95
        2
302
GRIDFORMAT
  1
GRIDFORMAT_BEGIN
 90
        0
 91
        1
 62
     0
 92
       -2
340
14
 93
        0
 40
0.045
309
GRIDFORMAT_END
 95
        4
302
GRIDFORMAT
  1
GRIDFORMAT_BEGIN
 90
        0
 91
        1
 62
     0
 92
       -2
340
14
 93
        0
 40
0.045
309
GRIDFORMAT_END
 95
        8
302
GRIDFORMAT
  1
GRIDFORMAT_BEGIN
 90
        0
 91
        1
 62
     0
 92
       -2
340
14
 93
        0
 40
0.045
309
GRIDFORMAT_END
 95
       16
302
GRIDFORMAT
  1
GRIDFORMAT_BEGIN
 90
        0
 91
        1
 62
     0
 92
       -2
340
14
 93
        0
 40
0.045
309
GRIDFORMAT_END
 95
       32
302
GRIDFORMAT
  1
GRIDFORMAT_BEGIN
 90
        0
 91
        1
 62
     0
 92
       -2
340
14
 93
        0
 40
0.045
309
GRIDFORMAT_END
309
TABLEFORMAT_END
  1
CELLSTYLE_BEGIN
 90
        2
 91
        1
300
_HEADER
309
CELLSTYLE_END
300
CELLSTYLE
  1
TABLEFORMAT_BEGIN
 90
        5
170
     1
 91
        0
 92
        0
 62
   257
 93
        1
300
CONTENTFORMAT
  1
CONTENTFORMAT_BEGIN
 90
        0
 91
        0
 92
        4
 93
        0
300

 40
0.0
140
1.0
 94
        2
 62
     0
340
11
144
0.18
309
CONTENTFORMAT_END
171
     1
301
MARGIN
  1
CELLMARGIN_BEGIN
 40
0.06
 40
0.06
 40
0.06
 40
0.06
 40
0.06
 40
0.06
309
CELLMARGIN_END
 94
        6
 95
        1
302
GRIDFORMAT
  1
GRIDFORMAT_BEGIN
 90
        0
 91
        1
 62
     0
 92
       -2
340
14
 93
        0
 40
0.045
309
GRIDFORMAT_END
 95
        2
302
GRIDFORMAT
  1
GRIDFORMAT_BEGIN
 90
        0
 91
        1
 62
     0
 92
       -2
340
14
 93
        0
 40
0.045
309
GRIDFORMAT_END
 95
        4
302
GRIDFORMAT
  1
GRIDFORMAT_BEGIN
 90
        0
 91
        1
 62
     0
 92
       -2
340
14
 93
        0
 40
0.045
309
GRIDFORMAT_END
 95
        8
302
GRIDFORMAT
  1
GRIDFORMAT_BEGIN
 90
        0
 91
        1
 62
     0
 92
       -2
340
14
 93
        0
 40
0.045
309
GRIDFORMAT_END
 95
       16
302
GRIDFORMAT
  1
GRIDFORMAT_BEGIN
 90
        0
 91
        1
 62
     0
 92
       -2
340
14
 93
        0
 40
0.045
309
GRIDFORMAT_END
 95
       32
302
GRIDFORMAT
  1
GRIDFORMAT_BEGIN
 90
        0
 91
        1
 62
     0
 92
       -2
340
14
 93
        0
 40
0.045
309
GRIDFORMAT_END
309
TABLEFORMAT_END
  1
CELLSTYLE_BEGIN
 90
        3
 91
        2
300
_DATA
309
CELLSTYLE_END
  0
XRECORD
  5
393
102
{ACAD_REACTORS
330
392
102
}
330
392
100
AcDbXrecord
280
     1
102
ACAD_ROUNDTRIP_PRE2007_TABLESTYLE
 90
        4
 91
        0
  1

 92
        4
 93
        0
  2

 94
        4
 95
        0
  3

  0
XRECORD
  5
365
102
{ACAD_REACTORS
330
364
102
}
330
364
100
AcDbXrecord
280
     1
102
RTVSPropertyOp0
 70
     1
102
RTVSPropertyOp1
 70
     1
102
RTVSPropertyOp2
 70
     1
102
RTVSPropertyOp3
 70
     1
102
RTVSPropertyOp4
 70
     1
102
RTVSPropertyOp5
 70
     1
102
RTVSPropertyOp6
 70
     1
102
RTVSPropertyOp7
 70
     1
102
RTVSPropertyOp8
 70
     1
102
RTVSPropertyOp9
 70
     1
102
RTVSPropertyOp10
 70
     1
102
RTVSPropertyOp11
 70
     1
102
RTVSPropertyOp12
 70
     1
102
RTVSPropertyOp13
 70
     1
102
RTVSPropertyOp14
 70
     1
102
RTVSPropertyOp15
 70
     1
102
RTVSPropertyOp16
 70
     1
102
RTVSPropertyOp17
 70
     1
102
RTVSPropertyOp18
 70
     1
102
RTVSPropertyOp19
 70
     1
102
RTVSPropertyOp20
 70
     1
102
RTVSPropertyOp21
 70
     1
102
RTVSPropertyOp22
 70
     1
102
RTVSPropertyOp23
 70
     1
102
RTVSPropertyOp24
 70
     1
102
RTVSPropertyOp25
 70
     1
102
RTVSPropertyOp26
 70
     1
102
RTVSPropertyOp27
 70
     1
102
RTVSPropertyOp28
 70
     1
102
RTVSPropertyOp29
 70
     1
102
RTVSPropertyOp30
 70
     1
102
RTVSPropertyOp31
 70
     1
102
RTVSPropertyOp32
 70
     1
102
RTVSPropertyOp33
 70
     1
102
RTVSPropertyOp34
 70
     1
102
RTVSPropertyOp35
 70
     1
102
RTVSPropertyOp36
 70
     1
102
RTVSPropertyOp37
 70
     1
102
RTVSPropertyOp38
 70
     1
102
RTVSPropertyOp39
 70
     1
102
RTVSPropertyOp40
 70
     1
102
RTVSPropertyOp41
 70
     1
102
RTVSPropertyOp42
 70
     1
102
RTVSPropertyOp43
 70
     1
102
RTVSPropertyOp44
 70
     1
102
RTVSPropertyOp45
 70
     1
102
RTVSPropertyOp46
 70
     1
102
RTVSPropertyOp47
 70
     1
102
RTVSPropertyOp48
 70
     1
102
RTVSPropertyOp49
 70
     1
102
RTVSPropertyOp50
 70
     1
102
RTVSPropertyOp51
 70
     0
102
RTVSPropertyOp52
 70
     0
102
RTVSPropertyOp53
 70
     1
102
RTVSPropertyOp54
 70
     1
102
RTVSPropertyOp55
 70
     1
102
RTVSPropertyOp56
 70
     1
102
RTVSPropertyOp57
 70
     1
102
RTVSPost2010Prop28
280
     1
102
RTVSPost2010PropOp28
 70
     1
102
RTVSPost2010Prop29
280
     1
102
RTVSPost2010PropOp29
 70
     1
102
RTVSPost2010Prop30
280
     0
102
RTVSPost2010PropOp30
 70
     1
102
RTVSPost2010Prop31
280
     0
102
RTVSPost2010PropOp31
 70
     1
102
RTVSPost2010Prop32
280
     0
102
RTVSPost2010PropOp32
 70
     1
102
RTVSPost2010Prop33
280
     0
102
RTVSPost2010PropOp33
 70
     1
102
RTVSPost2010Prop34
280
     0
102
RTVSPost2010PropOp34
 70
     1
102
RTVSPost2010Prop35
280
     0
102
RTVSPost2010PropOp35
 70
     1
102
RTVSPost2010Prop36
280
     0
102
RTVSPost2010PropOp36
 70
     1
102
RTVSPost2010Prop37
 90
       50
102
RTVSPost2010PropOp37
 70
     1
102
RTVSPost2010Prop38
140
0.0
102
RTVSPost2010PropOp38
 70
     1
102
RTVSPost2010Prop39
140
1.0
102
RTVSPost2010PropOp39
 70
     1
102
RTVSPost2010Prop40
 90
        0
102
RTVSPost2010PropOp40
 70
     1
102
RTVSPost2010Prop41ColorIndex
 90
       18
102
RTVSPost2010Prop41ColorRGB
 90
        0
102
RTVSPost2010PropOp41
 70
     1
102
RTVSPost2010Prop42
 90
       50
102
RTVSPost2010PropOp42
 70
     1
102
RTVSPost2010Prop43
 90
        3
102
RTVSPost2010PropOp43
 70
     1
102
RTVSPost2010Prop44ColorIndex
 90
        5
102
RTVSPost2010Prop44ColorRGB
 90
      255
102
RTVSPost2010PropOp44
 70
     1
102
RTVSPost2010Prop45
280
     0
102
RTVSPost2010PropOp45
 70
     1
102
RTVSPost2010Prop46
 90
       50
102
RTVSPost2010PropOp46
 70
     1
102
RTVSPost2010Prop47
 90
       50
102
RTVSPost2010PropOp47
 70
     1
102
RTVSPost2010Prop48
 90
       50
102
RTVSPost2010PropOp48
 70
     1
102
RTVSPost2010Prop49
280
     0
102
RTVSPost2010PropOp49
 70
     1
102
RTVSPost2010Prop50
 90
       50
102
RTVSPost2010PropOp50
 70
     1
102
RTVSPost2010Prop51ColorIndex
 90
      256
102
RTVSPost2010Prop51ColorRGB
 90
-16777216
102
RTVSPost2010PropOp51
 70
     0
102
RTVSPost2010Prop52
140
1.0
102
RTVSPost2010PropOp52
 70
     0
102
RTVSPost2010Prop53
 90
        2
102
RTVSPost2010PropOp53
 70
     1
102
RTVSPost2010Prop54
  1
strokes_ogs.tif
102
RTVSPost2010PropOp54
 70
     1
102
RTVSPost2010Prop55
280
     0
102
RTVSPost2010PropOp55
 70
     1
102
RTVSPost2010Prop56
140
1.0
102
RTVSPost2010PropOp56
 70
     1
102
RTVSPost2010Prop57
140
1.0
102
RTVSPost2010PropOp57
 70
     1
  0
XRECORD
  5
36B
102
{ACAD_REACTORS
330
36A
102
}
330
36A
100
AcDbXrecord
280
     1
102
RTVSPropertyOp0
 70
     1
102
RTVSPropertyOp1
 70
     1
102
RTVSPropertyOp2
 70
     1
102
RTVSPropertyOp3
 70
     1
102
RTVSPropertyOp4
 70
     1
102
RTVSPropertyOp5
 70
     1
102
RTVSPropertyOp6
 70
     1
102
RTVSPropertyOp7
 70
     1
102
RTVSPropertyOp8
 70
     1
102
RTVSPropertyOp9
 70
     1
102
RTVSPropertyOp10
 70
     1
102
RTVSPropertyOp11
 70
     1
102
RTVSPropertyOp12
 70
     1
102
RTVSPropertyOp13
 70
     1
102
RTVSPropertyOp14
 70
     1
102
RTVSPropertyOp15
 70
     1
102
RTVSPropertyOp16
 70
     1
102
RTVSPropertyOp17
 70
     1
102
RTVSPropertyOp18
 70
     1
102
RTVSPropertyOp19
 70
     1
102
RTVSPropertyOp20
 70
     1
102
RTVSPropertyOp21
 70
     1
102
RTVSPropertyOp22
 70
     1
102
RTVSPropertyOp23
 70
     1
102
RTVSPropertyOp24
 70
     1
102
RTVSPropertyOp25
 70
     1
102
RTVSPropertyOp26
 70
     1
102
RTVSPropertyOp27
 70
     1
102
RTVSPropertyOp28
 70
     1
102
RTVSPropertyOp29
 70
     1
102
RTVSPropertyOp30
 70
     1
102
RTVSPropertyOp31
 70
     1
102
RTVSPropertyOp32
 70
     1
102
RTVSPropertyOp33
 70
     1
102
RTVSPropertyOp34
 70
     1
102
RTVSPropertyOp35
 70
     1
102
RTVSPropertyOp36
 70
     1
102
RTVSPropertyOp37
 70
     1
102
RTVSPropertyOp38
 70
     1
102
RTVSPropertyOp39
 70
     1
102
RTVSPropertyOp40
 70
     1
102
RTVSPropertyOp41
 70
     1
102
RTVSPropertyOp42
 70
     1
102
RTVSPropertyOp43
 70
     1
102
RTVSPropertyOp44
 70
     1
102
RTVSPropertyOp45
 70
     1
102
RTVSPropertyOp46
 70
     1
102
RTVSPropertyOp47
 70
     1
102
RTVSPropertyOp48
 70
     1
102
RTVSPropertyOp49
 70
     1
102
RTVSPropertyOp50
 70
     1
102
RTVSPropertyOp51
 70
     0
102
RTVSPropertyOp52
 70
     0
102
RTVSPropertyOp53
 70
     1
102
RTVSPropertyOp54
 70
     1
102
RTVSPropertyOp55
 70
     1
102
RTVSPropertyOp56
 70
     1
102
RTVSPropertyOp57
 70
     1
102
RTVSPost2010Prop28
280
     0
102
RTVSPost2010PropOp28
 70
     1
102
RTVSPost2010Prop29
280
     1
102
RTVSPost2010PropOp29
 70
     1
102
RTVSPost2010Prop30
280
     1
102
RTVSPost2010PropOp30
 70
     1
102
RTVSPost2010Prop31
280
     0
102
RTVSPost2010PropOp31
 70
     1
102
RTVSPost2010Prop32
280
     0
102
RTVSPost2010PropOp32
 70
     1
102
RTVSPost2010Prop33
280
     0
102
RTVSPost2010PropOp33
 70
     1
102
RTVSPost2010Prop34
280
     0
102
RTVSPost2010PropOp34
 70
     1
102
RTVSPost2010Prop35
280
     0
102
RTVSPost2010PropOp35
 70
     1
102
RTVSPost2010Prop36
280
     0
102
RTVSPost2010PropOp36
 70
     1
102
RTVSPost2010Prop37
 90
       50
102
RTVSPost2010PropOp37
 70
     1
102
RTVSPost2010Prop38
140
0.0
102
RTVSPost2010PropOp38
 70
     1
102
RTVSPost2010Prop39
140
1.0
102
RTVSPost2010PropOp39
 70
     1
102
RTVSPost2010Prop40
 90
        0
102
RTVSPost2010PropOp40
 70
     1
102
RTVSPost2010Prop41ColorIndex
 90
       18
102
RTVSPost2010Prop41ColorRGB
 90
        0
102
RTVSPost2010PropOp41
 70
     1
102
RTVSPost2010Prop42
 90
       50
102
RTVSPost2010PropOp42
 70
     1
102
RTVSPost2010Prop43
 90
        3
102
RTVSPost2010PropOp43
 70
     1
102
RTVSPost2010Prop44ColorIndex
 90
        5
102
RTVSPost2010Prop44ColorRGB
 90
      255
102
RTVSPost2010PropOp44
 70
     1
102
RTVSPost2010Prop45
280
     0
102
RTVSPost2010PropOp45
 70
     1
102
RTVSPost2010Prop46
 90
       50
102
RTVSPost2010PropOp46
 70
     1
102
RTVSPost2010Prop47
 90
       50
102
RTVSPost2010PropOp47
 70
     1
102
RTVSPost2010Prop48
 90
       50
102
RTVSPost2010PropOp48
 70
     1
102
RTVSPost2010Prop49
280
     0
102
RTVSPost2010PropOp49
 70
     1
102
RTVSPost2010Prop50
 90
       50
102
RTVSPost2010PropOp50
 70
     1
102
RTVSPost2010Prop51ColorIndex
 90
      256
102
RTVSPost2010Prop51ColorRGB
 90
-16777216
102
RTVSPost2010PropOp51
 70
     0
102
RTVSPost2010Prop52
140
1.0
102
RTVSPost2010PropOp52
 70
     0
102
RTVSPost2010Prop53
 90
        2
102
RTVSPost2010PropOp53
 70
     1
102
RTVSPost2010Prop54
  1
strokes_ogs.tif
102
RTVSPost2010PropOp54
 70
     1
102
RTVSPost2010Prop55
280
     0
102
RTVSPost2010PropOp55
 70
     1
102
RTVSPost2010Prop56
140
1.0
102
RTVSPost2010PropOp56
 70
     1
102
RTVSPost2010Prop57
140
1.0
102
RTVSPost2010PropOp57
 70
     1
  0
XRECORD
  5
373
102
{ACAD_REACTORS
330
372
102
}
330
372
100
AcDbXrecord
280
     1
102
RTVSPropertyOp0
 70
     1
102
RTVSPropertyOp1
 70
     1
102
RTVSPropertyOp2
 70
     1
102
RTVSPropertyOp3
 70
     1
102
RTVSPropertyOp4
 70
     1
102
RTVSPropertyOp5
 70
     1
102
RTVSPropertyOp6
 70
     1
102
RTVSPropertyOp7
 70
     1
102
RTVSPropertyOp8
 70
     1
102
RTVSPropertyOp9
 70
     1
102
RTVSPropertyOp10
 70
     1
102
RTVSPropertyOp11
 70
     1
102
RTVSPropertyOp12
 70
     1
102
RTVSPropertyOp13
 70
     1
102
RTVSPropertyOp14
 70
     1
102
RTVSPropertyOp15
 70
     1
102
RTVSPropertyOp16
 70
     1
102
RTVSPropertyOp17
 70
     1
102
RTVSPropertyOp18
 70
     1
102
RTVSPropertyOp19
 70
     1
102
RTVSPropertyOp20
 70
     1
102
RTVSPropertyOp21
 70
     1
102
RTVSPropertyOp22
 70
     1
102
RTVSPropertyOp23
 70
     1
102
RTVSPropertyOp24
 70
     1
102
RTVSPropertyOp25
 70
     1
102
RTVSPropertyOp26
 70
     1
102
RTVSPropertyOp27
 70
     1
102
RTVSPropertyOp28
 70
     1
102
RTVSPropertyOp29
 70
     1
102
RTVSPropertyOp30
 70
     1
102
RTVSPropertyOp31
 70
     1
102
RTVSPropertyOp32
 70
     1
102
RTVSPropertyOp33
 70
     1
102
RTVSPropertyOp34
 70
     1
102
RTVSPropertyOp35
 70
     1
102
RTVSPropertyOp36
 70
     1
102
RTVSPropertyOp37
 70
     1
102
RTVSPropertyOp38
 70
     1
102
RTVSPropertyOp39
 70
     1
102
RTVSPropertyOp40
 70
     1
102
RTVSPropertyOp41
 70
     1
102
RTVSPropertyOp42
 70
     1
102
RTVSPropertyOp43
 70
     1
102
RTVSPropertyOp44
 70
     1
102
RTVSPropertyOp45
 70
     1
102
RTVSPropertyOp46
 70
     1
102
RTVSPropertyOp47
 70
     1
102
RTVSPropertyOp48
 70
     1
102
RTVSPropertyOp49
 70
     1
102
RTVSPropertyOp50
 70
     1
102
RTVSPropertyOp51
 70
     0
102
RTVSPropertyOp52
 70
     0
102
RTVSPropertyOp53
 70
     1
102
RTVSPropertyOp54
 70
     1
102
RTVSPropertyOp55
 70
     1
102
RTVSPropertyOp56
 70
     1
102
RTVSPropertyOp57
 70
     1
102
RTVSPost2010Prop28
280
     0
102
RTVSPost2010PropOp28
 70
     1
102
RTVSPost2010Prop29
280
     1
102
RTVSPost2010PropOp29
 70
     1
102
RTVSPost2010Prop30
280
     1
102
RTVSPost2010PropOp30
 70
     1
102
RTVSPost2010Prop31
280
     0
102
RTVSPost2010PropOp31
 70
     1
102
RTVSPost2010Prop32
280
     0
102
RTVSPost2010PropOp32
 70
     1
102
RTVSPost2010Prop33
280
     0
102
RTVSPost2010PropOp33
 70
     1
102
RTVSPost2010Prop34
280
     0
102
RTVSPost2010PropOp34
 70
     1
102
RTVSPost2010Prop35
280
     0
102
RTVSPost2010PropOp35
 70
     1
102
RTVSPost2010Prop36
280
     0
102
RTVSPost2010PropOp36
 70
     1
102
RTVSPost2010Prop37
 90
       50
102
RTVSPost2010PropOp37
 70
     1
102
RTVSPost2010Prop38
140
0.0
102
RTVSPost2010PropOp38
 70
     1
102
RTVSPost2010Prop39
140
1.0
102
RTVSPost2010PropOp39
 70
     1
102
RTVSPost2010Prop40
 90
        0
102
RTVSPost2010PropOp40
 70
     1
102
RTVSPost2010Prop41ColorIndex
 90
       18
102
RTVSPost2010Prop41ColorRGB
 90
        0
102
RTVSPost2010PropOp41
 70
     1
102
RTVSPost2010Prop42
 90
       50
102
RTVSPost2010PropOp42
 70
     1
102
RTVSPost2010Prop43
 90
        3
102
RTVSPost2010PropOp43
 70
     1
102
RTVSPost2010Prop44ColorIndex
 90
        5
102
RTVSPost2010Prop44ColorRGB
 90
      255
102
RTVSPost2010PropOp44
 70
     1
102
RTVSPost2010Prop45
280
     0
102
RTVSPost2010PropOp45
 70
     1
102
RTVSPost2010Prop46
 90
       50
102
RTVSPost2010PropOp46
 70
     1
102
RTVSPost2010Prop47
 90
       50
102
RTVSPost2010PropOp47
 70
     1
102
RTVSPost2010Prop48
 90
       50
102
RTVSPost2010PropOp48
 70
     1
102
RTVSPost2010Prop49
280
     0
102
RTVSPost2010PropOp49
 70
     1
102
RTVSPost2010Prop50
 90
       50
102
RTVSPost2010PropOp50
 70
     1
102
RTVSPost2010Prop51ColorIndex
 90
      256
102
RTVSPost2010Prop51ColorRGB
 90
-16777216
102
RTVSPost2010PropOp51
 70
     0
102
RTVSPost2010Prop52
140
1.0
102
RTVSPost2010PropOp52
 70
     0
102
RTVSPost2010Prop53
 90
        2
102
RTVSPost2010PropOp53
 70
     1
102
RTVSPost2010Prop54
  1
strokes_ogs.tif
102
RTVSPost2010PropOp54
 70
     1
102
RTVSPost2010Prop55
280
     0
102
RTVSPost2010PropOp55
 70
     1
102
RTVSPost2010Prop56
140
1.0
102
RTVSPost2010PropOp56
 70
     1
102
RTVSPost2010Prop57
140
1.0
102
RTVSPost2010PropOp57
 70
     1
  0
XRECORD
  5
37B
102
{ACAD_REACTORS
330
37A
102
}
330
37A
100
AcDbXrecord
280
     1
102
RTVSPropertyOp0
 70
     1
102
RTVSPropertyOp1
 70
     1
102
RTVSPropertyOp2
 70
     1
102
RTVSPropertyOp3
 70
     1
102
RTVSPropertyOp4
 70
     1
102
RTVSPropertyOp5
 70
     1
102
RTVSPropertyOp6
 70
     1
102
RTVSPropertyOp7
 70
     1
102
RTVSPropertyOp8
 70
     1
102
RTVSPropertyOp9
 70
     1
102
RTVSPropertyOp10
 70
     1
102
RTVSPropertyOp11
 70
     1
102
RTVSPropertyOp12
 70
     1
102
RTVSPropertyOp13
 70
     1
102
RTVSPropertyOp14
 70
     1
102
RTVSPropertyOp15
 70
     1
102
RTVSPropertyOp16
 70
     1
102
RTVSPropertyOp17
 70
     1
102
RTVSPropertyOp18
 70
     1
102
RTVSPropertyOp19
 70
     1
102
RTVSPropertyOp20
 70
     1
102
RTVSPropertyOp21
 70
     1
102
RTVSPropertyOp22
 70
     1
102
RTVSPropertyOp23
 70
     1
102
RTVSPropertyOp24
 70
     1
102
RTVSPropertyOp25
 70
     1
102
RTVSPropertyOp26
 70
     1
102
RTVSPropertyOp27
 70
     1
102
RTVSPropertyOp28
 70
     1
102
RTVSPropertyOp29
 70
     1
102
RTVSPropertyOp30
 70
     1
102
RTVSPropertyOp31
 70
     1
102
RTVSPropertyOp32
 70
     1
102
RTVSPropertyOp33
 70
     1
102
RTVSPropertyOp34
 70
     1
102
RTVSPropertyOp35
 70
     1
102
RTVSPropertyOp36
 70
     1
102
RTVSPropertyOp37
 70
     1
102
RTVSPropertyOp38
 70
     1
102
RTVSPropertyOp39
 70
     1
102
RTVSPropertyOp40
 70
     1
102
RTVSPropertyOp41
 70
     1
102
RTVSPropertyOp42
 70
     1
102
RTVSPropertyOp43
 70
     1
102
RTVSPropertyOp44
 70
     1
102
RTVSPropertyOp45
 70
     1
102
RTVSPropertyOp46
 70
     1
102
RTVSPropertyOp47
 70
     1
102
RTVSPropertyOp48
 70
     1
102
RTVSPropertyOp49
 70
     1
102
RTVSPropertyOp50
 70
     1
102
RTVSPropertyOp51
 70
     0
102
RTVSPropertyOp52
 70
     0
102
RTVSPropertyOp53
 70
     1
102
RTVSPropertyOp54
 70
     1
102
RTVSPropertyOp55
 70
     1
102
RTVSPropertyOp56
 70
     1
102
RTVSPropertyOp57
 70
     1
102
RTVSPost2010Prop28
280
     0
102
RTVSPost2010PropOp28
 70
     1
102
RTVSPost2010Prop29
280
     1
102
RTVSPost2010PropOp29
 70
     1
102
RTVSPost2010Prop30
280
     1
102
RTVSPost2010PropOp30
 70
     1
102
RTVSPost2010Prop31
280
     0
102
RTVSPost2010PropOp31
 70
     1
102
RTVSPost2010Prop32
280
     0
102
RTVSPost2010PropOp32
 70
     1
102
RTVSPost2010Prop33
280
     0
102
RTVSPost2010PropOp33
 70
     1
102
RTVSPost2010Prop34
280
     0
102
RTVSPost2010PropOp34
 70
     1
102
RTVSPost2010Prop35
280
     0
102
RTVSPost2010PropOp35
 70
     1
102
RTVSPost2010Prop36
280
     0
102
RTVSPost2010PropOp36
 70
     1
102
RTVSPost2010Prop37
 90
       50
102
RTVSPost2010PropOp37
 70
     1
102
RTVSPost2010Prop38
140
0.0
102
RTVSPost2010PropOp38
 70
     1
102
RTVSPost2010Prop39
140
1.0
102
RTVSPost2010PropOp39
 70
     1
102
RTVSPost2010Prop40
 90
        0
102
RTVSPost2010PropOp40
 70
     1
102
RTVSPost2010Prop41ColorIndex
 90
       18
102
RTVSPost2010Prop41ColorRGB
 90
        0
102
RTVSPost2010PropOp41
 70
     1
102
RTVSPost2010Prop42
 90
       50
102
RTVSPost2010PropOp42
 70
     1
102
RTVSPost2010Prop43
 90
        3
102
RTVSPost2010PropOp43
 70
     1
102
RTVSPost2010Prop44ColorIndex
 90
        5
102
RTVSPost2010Prop44ColorRGB
 90
      255
102
RTVSPost2010PropOp44
 70
     1
102
RTVSPost2010Prop45
280
     0
102
RTVSPost2010PropOp45
 70
     1
102
RTVSPost2010Prop46
 90
       50
102
RTVSPost2010PropOp46
 70
     1
102
RTVSPost2010Prop47
 90
       50
102
RTVSPost2010PropOp47
 70
     1
102
RTVSPost2010Prop48
 90
       50
102
RTVSPost2010PropOp48
 70
     1
102
RTVSPost2010Prop49
280
     0
102
RTVSPost2010PropOp49
 70
     1
102
RTVSPost2010Prop50
 90
       50
102
RTVSPost2010PropOp50
 70
     1
102
RTVSPost2010Prop51ColorIndex
 90
      256
102
RTVSPost2010Prop51ColorRGB
 90
-16777216
102
RTVSPost2010PropOp51
 70
     0
102
RTVSPost2010Prop52
140
1.0
102
RTVSPost2010PropOp52
 70
     0
102
RTVSPost2010Prop53
 90
        2
102
RTVSPost2010PropOp53
 70
     1
102
RTVSPost2010Prop54
  1
strokes_ogs.tif
102
RTVSPost2010PropOp54
 70
     1
102
RTVSPost2010Prop55
280
     0
102
RTVSPost2010PropOp55
 70
     1
102
RTVSPost2010Prop56
140
1.0
102
RTVSPost2010PropOp56
 70
     1
102
RTVSPost2010Prop57
140
1.0
102
RTVSPost2010PropOp57
 70
     1
  0
XRECORD
  5
36F
102
{ACAD_REACTORS
330
36E
102
}
330
36E
100
AcDbXrecord
280
     1
102
RTVSPropertyOp0
 70
     1
102
RTVSPropertyOp1
 70
     1
102
RTVSPropertyOp2
 70
     1
102
RTVSPropertyOp3
 70
     1
102
RTVSPropertyOp4
 70
     1
102
RTVSPropertyOp5
 70
     1
102
RTVSPropertyOp6
 70
     1
102
RTVSPropertyOp7
 70
     1
102
RTVSPropertyOp8
 70
     1
102
RTVSPropertyOp9
 70
     1
102
RTVSPropertyOp10
 70
     1
102
RTVSPropertyOp11
 70
     1
102
RTVSPropertyOp12
 70
     1
102
RTVSPropertyOp13
 70
     1
102
RTVSPropertyOp14
 70
     1
102
RTVSPropertyOp15
 70
     1
102
RTVSPropertyOp16
 70
     1
102
RTVSPropertyOp17
 70
     1
102
RTVSPropertyOp18
 70
     1
102
RTVSPropertyOp19
 70
     1
102
RTVSPropertyOp20
 70
     1
102
RTVSPropertyOp21
 70
     1
102
RTVSPropertyOp22
 70
     1
102
RTVSPropertyOp23
 70
     1
102
RTVSPropertyOp24
 70
     1
102
RTVSPropertyOp25
 70
     1
102
RTVSPropertyOp26
 70
     1
102
RTVSPropertyOp27
 70
     1
102
RTVSPropertyOp28
 70
     1
102
RTVSPropertyOp29
 70
     1
102
RTVSPropertyOp30
 70
     1
102
RTVSPropertyOp31
 70
     1
102
RTVSPropertyOp32
 70
     1
102
RTVSPropertyOp33
 70
     1
102
RTVSPropertyOp34
 70
     1
102
RTVSPropertyOp35
 70
     1
102
RTVSPropertyOp36
 70
     1
102
RTVSPropertyOp37
 70
     1
102
RTVSPropertyOp38
 70
     1
102
RTVSPropertyOp39
 70
     1
102
RTVSPropertyOp40
 70
     1
102
RTVSPropertyOp41
 70
     1
102
RTVSPropertyOp42
 70
     1
102
RTVSPropertyOp43
 70
     1
102
RTVSPropertyOp44
 70
     1
102
RTVSPropertyOp45
 70
     1
102
RTVSPropertyOp46
 70
     1
102
RTVSPropertyOp47
 70
     1
102
RTVSPropertyOp48
 70
     1
102
RTVSPropertyOp49
 70
     1
102
RTVSPropertyOp50
 70
     1
102
RTVSPropertyOp51
 70
     0
102
RTVSPropertyOp52
 70
     0
102
RTVSPropertyOp53
 70
     1
102
RTVSPropertyOp54
 70
     1
102
RTVSPropertyOp55
 70
     1
102
RTVSPropertyOp56
 70
     1
102
RTVSPropertyOp57
 70
     1
102
RTVSPost2010Prop28
280
     0
102
RTVSPost2010PropOp28
 70
     1
102
RTVSPost2010Prop29
280
     1
102
RTVSPost2010PropOp29
 70
     1
102
RTVSPost2010Prop30
280
     1
102
RTVSPost2010PropOp30
 70
     1
102
RTVSPost2010Prop31
280
     0
102
RTVSPost2010PropOp31
 70
     1
102
RTVSPost2010Prop32
280
     0
102
RTVSPost2010PropOp32
 70
     1
102
RTVSPost2010Prop33
280
     0
102
RTVSPost2010PropOp33
 70
     1
102
RTVSPost2010Prop34
280
     0
102
RTVSPost2010PropOp34
 70
     1
102
RTVSPost2010Prop35
280
     0
102
RTVSPost2010PropOp35
 70
     1
102
RTVSPost2010Prop36
280
     0
102
RTVSPost2010PropOp36
 70
     1
102
RTVSPost2010Prop37
 90
       50
102
RTVSPost2010PropOp37
 70
     1
102
RTVSPost2010Prop38
140
0.0
102
RTVSPost2010PropOp38
 70
     1
102
RTVSPost2010Prop39
140
1.0
102
RTVSPost2010PropOp39
 70
     1
102
RTVSPost2010Prop40
 90
        0
102
RTVSPost2010PropOp40
 70
     1
102
RTVSPost2010Prop41ColorIndex
 90
       18
102
RTVSPost2010Prop41ColorRGB
 90
        0
102
RTVSPost2010PropOp41
 70
     1
102
RTVSPost2010Prop42
 90
       50
102
RTVSPost2010PropOp42
 70
     1
102
RTVSPost2010Prop43
 90
        3
102
RTVSPost2010PropOp43
 70
     1
102
RTVSPost2010Prop44ColorIndex
 90
        5
102
RTVSPost2010Prop44ColorRGB
 90
      255
102
RTVSPost2010PropOp44
 70
     1
102
RTVSPost2010Prop45
280
     0
102
RTVSPost2010PropOp45
 70
     1
102
RTVSPost2010Prop46
 90
       50
102
RTVSPost2010PropOp46
 70
     1
102
RTVSPost2010Prop47
 90
       50
102
RTVSPost2010PropOp47
 70
     1
102
RTVSPost2010Prop48
 90
       50
102
RTVSPost2010PropOp48
 70
     1
102
RTVSPost2010Prop49
280
     0
102
RTVSPost2010PropOp49
 70
     1
102
RTVSPost2010Prop50
 90
       50
102
RTVSPost2010PropOp50
 70
     1
102
RTVSPost2010Prop51ColorIndex
 90
      256
102
RTVSPost2010Prop51ColorRGB
 90
-16777216
102
RTVSPost2010PropOp51
 70
     0
102
RTVSPost2010Prop52
140
1.0
102
RTVSPost2010PropOp52
 70
     0
102
RTVSPost2010Prop53
 90
        2
102
RTVSPost2010PropOp53
 70
     1
102
RTVSPost2010Prop54
  1
strokes_ogs.tif
102
RTVSPost2010PropOp54
 70
     1
102
RTVSPost2010Prop55
280
     0
102
RTVSPost2010PropOp55
 70
     1
102
RTVSPost2010Prop56
140
1.0
102
RTVSPost2010PropOp56
 70
     1
102
RTVSPost2010Prop57
140
1.0
102
RTVSPost2010PropOp57
 70
     1
  0
XRECORD
  5
371
102
{ACAD_REACTORS
330
370
102
}
330
370
100
AcDbXrecord
280
     1
102
RTVSPropertyOp0
 70
     1
102
RTVSPropertyOp1
 70
     1
102
RTVSPropertyOp2
 70
     1
102
RTVSPropertyOp3
 70
     1
102
RTVSPropertyOp4
 70
     1
102
RTVSPropertyOp5
 70
     1
102
RTVSPropertyOp6
 70
     1
102
RTVSPropertyOp7
 70
     1
102
RTVSPropertyOp8
 70
     1
102
RTVSPropertyOp9
 70
     1
102
RTVSPropertyOp10
 70
     1
102
RTVSPropertyOp11
 70
     1
102
RTVSPropertyOp12
 70
     1
102
RTVSPropertyOp13
 70
     1
102
RTVSPropertyOp14
 70
     1
102
RTVSPropertyOp15
 70
     1
102
RTVSPropertyOp16
 70
     1
102
RTVSPropertyOp17
 70
     1
102
RTVSPropertyOp18
 70
     1
102
RTVSPropertyOp19
 70
     1
102
RTVSPropertyOp20
 70
     1
102
RTVSPropertyOp21
 70
     1
102
RTVSPropertyOp22
 70
     1
102
RTVSPropertyOp23
 70
     1
102
RTVSPropertyOp24
 70
     1
102
RTVSPropertyOp25
 70
     1
102
RTVSPropertyOp26
 70
     1
102
RTVSPropertyOp27
 70
     1
102
RTVSPropertyOp28
 70
     1
102
RTVSPropertyOp29
 70
     1
102
RTVSPropertyOp30
 70
     1
102
RTVSPropertyOp31
 70
     1
102
RTVSPropertyOp32
 70
     1
102
RTVSPropertyOp33
 70
     1
102
RTVSPropertyOp34
 70
     1
102
RTVSPropertyOp35
 70
     1
102
RTVSPropertyOp36
 70
     1
102
RTVSPropertyOp37
 70
     1
102
RTVSPropertyOp38
 70
     1
102
RTVSPropertyOp39
 70
     1
102
RTVSPropertyOp40
 70
     1
102
RTVSPropertyOp41
 70
     1
102
RTVSPropertyOp42
 70
     1
102
RTVSPropertyOp43
 70
     1
102
RTVSPropertyOp44
 70
     1
102
RTVSPropertyOp45
 70
     1
102
RTVSPropertyOp46
 70
     1
102
RTVSPropertyOp47
 70
     1
102
RTVSPropertyOp48
 70
     1
102
RTVSPropertyOp49
 70
     1
102
RTVSPropertyOp50
 70
     1
102
RTVSPropertyOp51
 70
     0
102
RTVSPropertyOp52
 70
     0
102
RTVSPropertyOp53
 70
     1
102
RTVSPropertyOp54
 70
     1
102
RTVSPropertyOp55
 70
     1
102
RTVSPropertyOp56
 70
     1
102
RTVSPropertyOp57
 70
     1
102
RTVSPost2010Prop28
280
     0
102
RTVSPost2010PropOp28
 70
     1
102
RTVSPost2010Prop29
280
     1
102
RTVSPost2010PropOp29
 70
     1
102
RTVSPost2010Prop30
280
     1
102
RTVSPost2010PropOp30
 70
     1
102
RTVSPost2010Prop31
280
     0
102
RTVSPost2010PropOp31
 70
     1
102
RTVSPost2010Prop32
280
     0
102
RTVSPost2010PropOp32
 70
     1
102
RTVSPost2010Prop33
280
     0
102
RTVSPost2010PropOp33
 70
     1
102
RTVSPost2010Prop34
280
     0
102
RTVSPost2010PropOp34
 70
     1
102
RTVSPost2010Prop35
280
     0
102
RTVSPost2010PropOp35
 70
     1
102
RTVSPost2010Prop36
280
     0
102
RTVSPost2010PropOp36
 70
     1
102
RTVSPost2010Prop37
 90
       50
102
RTVSPost2010PropOp37
 70
     1
102
RTVSPost2010Prop38
140
0.0
102
RTVSPost2010PropOp38
 70
     1
102
RTVSPost2010Prop39
140
1.0
102
RTVSPost2010PropOp39
 70
     1
102
RTVSPost2010Prop40
 90
        0
102
RTVSPost2010PropOp40
 70
     1
102
RTVSPost2010Prop41ColorIndex
 90
       18
102
RTVSPost2010Prop41ColorRGB
 90
        0
102
RTVSPost2010PropOp41
 70
     1
102
RTVSPost2010Prop42
 90
       50
102
RTVSPost2010PropOp42
 70
     1
102
RTVSPost2010Prop43
 90
        3
102
RTVSPost2010PropOp43
 70
     1
102
RTVSPost2010Prop44ColorIndex
 90
        5
102
RTVSPost2010Prop44ColorRGB
 90
      255
102
RTVSPost2010PropOp44
 70
     1
102
RTVSPost2010Prop45
280
     0
102
RTVSPost2010PropOp45
 70
     1
102
RTVSPost2010Prop46
 90
       50
102
RTVSPost2010PropOp46
 70
     1
102
RTVSPost2010Prop47
 90
       50
102
RTVSPost2010PropOp47
 70
     1
102
RTVSPost2010Prop48
 90
       50
102
RTVSPost2010PropOp48
 70
     1
102
RTVSPost2010Prop49
280
     0
102
RTVSPost2010PropOp49
 70
     1
102
RTVSPost2010Prop50
 90
       50
102
RTVSPost2010PropOp50
 70
     1
102
RTVSPost2010Prop51ColorIndex
 90
      256
102
RTVSPost2010Prop51ColorRGB
 90
-16777216
102
RTVSPost2010PropOp51
 70
     0
102
RTVSPost2010Prop52
140
1.0
102
RTVSPost2010PropOp52
 70
     0
102
RTVSPost2010Prop53
 90
        2
102
RTVSPost2010PropOp53
 70
     1
102
RTVSPost2010Prop54
  1
strokes_ogs.tif
102
RTVSPost2010PropOp54
 70
     1
102
RTVSPost2010Prop55
280
     0
102
RTVSPost2010PropOp55
 70
     1
102
RTVSPost2010Prop56
140
1.0
102
RTVSPost2010PropOp56
 70
     1
102
RTVSPost2010Prop57
140
1.0
102
RTVSPost2010PropOp57
 70
     1
  0
XRECORD
  5
381
102
{ACAD_REACTORS
330
380
102
}
330
380
100
AcDbXrecord
280
     1
102
RTVSPropertyOp0
 70
     0
102
RTVSPropertyOp1
 70
     0
102
RTVSPropertyOp2
 70
     0
102
RTVSPropertyOp3
 70
     0
102
RTVSPropertyOp4
 70
     0
102
RTVSPropertyOp5
 70
     0
102
RTVSPropertyOp6
 70
     0
102
RTVSPropertyOp7
 70
     0
102
RTVSPropertyOp8
 70
     0
102
RTVSPropertyOp9
 70
     0
102
RTVSPropertyOp10
 70
     0
102
RTVSPropertyOp11
 70
     0
102
RTVSPropertyOp12
 70
     0
102
RTVSPropertyOp13
 70
     0
102
RTVSPropertyOp14
 70
     2
102
RTVSPropertyOp15
 70
     0
102
RTVSPropertyOp16
 70
     0
102
RTVSPropertyOp17
 70
     0
102
RTVSPropertyOp18
 70
     0
102
RTVSPropertyOp19
 70
     0
102
RTVSPropertyOp20
 70
     0
102
RTVSPropertyOp21
 70
     0
102
RTVSPropertyOp22
 70
     0
102
RTVSPropertyOp23
 70
     0
102
RTVSPropertyOp24
 70
     0
102
RTVSPropertyOp25
 70
     0
102
RTVSPropertyOp26
 70
     0
102
RTVSPropertyOp27
 70
     0
102
RTVSPropertyOp28
 70
     0
102
RTVSPropertyOp29
 70
     0
102
RTVSPropertyOp30
 70
     0
102
RTVSPropertyOp31
 70
     0
102
RTVSPropertyOp32
 70
     0
102
RTVSPropertyOp33
 70
     0
102
RTVSPropertyOp34
 70
     0
102
RTVSPropertyOp35
 70
     0
102
RTVSPropertyOp36
 70
     0
102
RTVSPropertyOp37
 70
     0
102
RTVSPropertyOp38
 70
     0
102
RTVSPropertyOp39
 70
     0
102
RTVSPropertyOp40
 70
     0
102
RTVSPropertyOp41
 70
     0
102
RTVSPropertyOp42
 70
     0
102
RTVSPropertyOp43
 70
     0
102
RTVSPropertyOp44
 70
     0
102
RTVSPropertyOp45
 70
     0
102
RTVSPropertyOp46
 70
     0
102
RTVSPropertyOp47
 70
     0
102
RTVSPropertyOp48
 70
     0
102
RTVSPropertyOp49
 70
     0
102
RTVSPropertyOp50
 70
     0
102
RTVSPropertyOp51
 70
     0
102
RTVSPropertyOp52
 70
     0
102
RTVSPropertyOp53
 70
     0
102
RTVSPropertyOp54
 70
     0
102
RTVSPropertyOp55
 70
     0
102
RTVSPropertyOp56
 70
     0
102
RTVSPropertyOp57
 70
     0
102
RTVSPost2010Prop28
280
     0
102
RTVSPost2010PropOp28
 70
     0
102
RTVSPost2010Prop29
280
     1
102
RTVSPost2010PropOp29
 70
     0
102
RTVSPost2010Prop30
280
     1
102
RTVSPost2010PropOp30
 70
     0
102
RTVSPost2010Prop31
280
     0
102
RTVSPost2010PropOp31
 70
     0
102
RTVSPost2010Prop32
280
     0
102
RTVSPost2010PropOp32
 70
     0
102
RTVSPost2010Prop33
280
     0
102
RTVSPost2010PropOp33
 70
     0
102
RTVSPost2010Prop34
280
     0
102
RTVSPost2010PropOp34
 70
     0
102
RTVSPost2010Prop35
280
     0
102
RTVSPost2010PropOp35
 70
     0
102
RTVSPost2010Prop36
280
     0
102
RTVSPost2010PropOp36
 70
     0
102
RTVSPost2010Prop37
 90
       50
102
RTVSPost2010PropOp37
 70
     0
102
RTVSPost2010Prop38
140
0.0
102
RTVSPost2010PropOp38
 70
     0
102
RTVSPost2010Prop39
140
1.0
102
RTVSPost2010PropOp39
 70
     0
102
RTVSPost2010Prop40
 90
        0
102
RTVSPost2010PropOp40
 70
     0
102
RTVSPost2010Prop41ColorIndex
 90
       18
102
RTVSPost2010Prop41ColorRGB
 90
        0
102
RTVSPost2010PropOp41
 70
     0
102
RTVSPost2010Prop42
 90
       50
102
RTVSPost2010PropOp42
 70
     0
102
RTVSPost2010Prop43
 90
        3
102
RTVSPost2010PropOp43
 70
     0
102
RTVSPost2010Prop44ColorIndex
 90
        5
102
RTVSPost2010Prop44ColorRGB
 90
      255
102
RTVSPost2010PropOp44
 70
     0
102
RTVSPost2010Prop45
280
     0
102
RTVSPost2010PropOp45
 70
     0
102
RTVSPost2010Prop46
 90
       50
102
RTVSPost2010PropOp46
 70
     0
102
RTVSPost2010Prop47
 90
       50
102
RTVSPost2010PropOp47
 70
     0
102
RTVSPost2010Prop48
 90
       50
102
RTVSPost2010PropOp48
 70
     0
102
RTVSPost2010Prop49
280
     0
102
RTVSPost2010PropOp49
 70
     0
102
RTVSPost2010Prop50
 90
       50
102
RTVSPost2010PropOp50
 70
     0
102
RTVSPost2010Prop51ColorIndex
 90
      256
102
RTVSPost2010Prop51ColorRGB
 90
-16777216
102
RTVSPost2010PropOp51
 70
     0
102
RTVSPost2010Prop52
140
1.0
102
RTVSPost2010PropOp52
 70
     0
102
RTVSPost2010Prop53
 90
        2
102
RTVSPost2010PropOp53
 70
     0
102
RTVSPost2010Prop54
  1
strokes_ogs.tif
102
RTVSPost2010PropOp54
 70
     0
102
RTVSPost2010Prop55
280
     0
102
RTVSPost2010PropOp55
 70
     0
102
RTVSPost2010Prop56
140
1.0
102
RTVSPost2010PropOp56
 70
     0
102
RTVSPost2010Prop57
140
1.0
102
RTVSPost2010PropOp57
 70
     0
  0
XRECORD
  5
379
102
{ACAD_REACTORS
330
378
102
}
330
378
100
AcDbXrecord
280
     1
102
RTVSPropertyOp0
 70
     1
102
RTVSPropertyOp1
 70
     1
102
RTVSPropertyOp2
 70
     1
102
RTVSPropertyOp3
 70
     1
102
RTVSPropertyOp4
 70
     1
102
RTVSPropertyOp5
 70
     1
102
RTVSPropertyOp6
 70
     1
102
RTVSPropertyOp7
 70
     1
102
RTVSPropertyOp8
 70
     1
102
RTVSPropertyOp9
 70
     1
102
RTVSPropertyOp10
 70
     1
102
RTVSPropertyOp11
 70
     1
102
RTVSPropertyOp12
 70
     1
102
RTVSPropertyOp13
 70
     1
102
RTVSPropertyOp14
 70
     1
102
RTVSPropertyOp15
 70
     1
102
RTVSPropertyOp16
 70
     1
102
RTVSPropertyOp17
 70
     1
102
RTVSPropertyOp18
 70
     1
102
RTVSPropertyOp19
 70
     1
102
RTVSPropertyOp20
 70
     1
102
RTVSPropertyOp21
 70
     1
102
RTVSPropertyOp22
 70
     1
102
RTVSPropertyOp23
 70
     1
102
RTVSPropertyOp24
 70
     1
102
RTVSPropertyOp25
 70
     1
102
RTVSPropertyOp26
 70
     1
102
RTVSPropertyOp27
 70
     1
102
RTVSPropertyOp28
 70
     1
102
RTVSPropertyOp29
 70
     1
102
RTVSPropertyOp30
 70
     1
102
RTVSPropertyOp31
 70
     1
102
RTVSPropertyOp32
 70
     1
102
RTVSPropertyOp33
 70
     1
102
RTVSPropertyOp34
 70
     1
102
RTVSPropertyOp35
 70
     1
102
RTVSPropertyOp36
 70
     1
102
RTVSPropertyOp37
 70
     1
102
RTVSPropertyOp38
 70
     1
102
RTVSPropertyOp39
 70
     1
102
RTVSPropertyOp40
 70
     1
102
RTVSPropertyOp41
 70
     1
102
RTVSPropertyOp42
 70
     1
102
RTVSPropertyOp43
 70
     1
102
RTVSPropertyOp44
 70
     1
102
RTVSPropertyOp45
 70
     1
102
RTVSPropertyOp46
 70
     1
102
RTVSPropertyOp47
 70
     1
102
RTVSPropertyOp48
 70
     1
102
RTVSPropertyOp49
 70
     1
102
RTVSPropertyOp50
 70
     1
102
RTVSPropertyOp51
 70
     0
102
RTVSPropertyOp52
 70
     0
102
RTVSPropertyOp53
 70
     1
102
RTVSPropertyOp54
 70
     1
102
RTVSPropertyOp55
 70
     1
102
RTVSPropertyOp56
 70
     1
102
RTVSPropertyOp57
 70
     1
102
RTVSPost2010Prop28
280
     0
102
RTVSPost2010PropOp28
 70
     1
102
RTVSPost2010Prop29
280
     1
102
RTVSPost2010PropOp29
 70
     1
102
RTVSPost2010Prop30
280
     1
102
RTVSPost2010PropOp30
 70
     1
102
RTVSPost2010Prop31
280
     0
102
RTVSPost2010PropOp31
 70
     1
102
RTVSPost2010Prop32
280
     0
102
RTVSPost2010PropOp32
 70
     1
102
RTVSPost2010Prop33
280
     0
102
RTVSPost2010PropOp33
 70
     1
102
RTVSPost2010Prop34
280
     0
102
RTVSPost2010PropOp34
 70
     1
102
RTVSPost2010Prop35
280
     0
102
RTVSPost2010PropOp35
 70
     1
102
RTVSPost2010Prop36
280
     0
102
RTVSPost2010PropOp36
 70
     1
102
RTVSPost2010Prop37
 90
       50
102
RTVSPost2010PropOp37
 70
     1
102
RTVSPost2010Prop38
140
0.0
102
RTVSPost2010PropOp38
 70
     1
102
RTVSPost2010Prop39
140
1.0
102
RTVSPost2010PropOp39
 70
     1
102
RTVSPost2010Prop40
 90
        0
102
RTVSPost2010PropOp40
 70
     1
102
RTVSPost2010Prop41ColorIndex
 90
       18
102
RTVSPost2010Prop41ColorRGB
 90
        0
102
RTVSPost2010PropOp41
 70
     1
102
RTVSPost2010Prop42
 90
       50
102
RTVSPost2010PropOp42
 70
     1
102
RTVSPost2010Prop43
 90
        3
102
RTVSPost2010PropOp43
 70
     1
102
RTVSPost2010Prop44ColorIndex
 90
        5
102
RTVSPost2010Prop44ColorRGB
 90
      255
102
RTVSPost2010PropOp44
 70
     1
102
RTVSPost2010Prop45
280
     0
102
RTVSPost2010PropOp45
 70
     1
102
RTVSPost2010Prop46
 90
       50
102
RTVSPost2010PropOp46
 70
     1
102
RTVSPost2010Prop47
 90
       50
102
RTVSPost2010PropOp47
 70
     1
102
RTVSPost2010Prop48
 90
       50
102
RTVSPost2010PropOp48
 70
     1
102
RTVSPost2010Prop49
280
     0
102
RTVSPost2010PropOp49
 70
     1
102
RTVSPost2010Prop50
 90
       50
102
RTVSPost2010PropOp50
 70
     1
102
RTVSPost2010Prop51ColorIndex
 90
      256
102
RTVSPost2010Prop51ColorRGB
 90
-16777216
102
RTVSPost2010PropOp51
 70
     0
102
RTVSPost2010Prop52
140
1.0
102
RTVSPost2010PropOp52
 70
     0
102
RTVSPost2010Prop53
 90
        2
102
RTVSPost2010PropOp53
 70
     1
102
RTVSPost2010Prop54
  1
strokes_ogs.tif
102
RTVSPost2010PropOp54
 70
     1
102
RTVSPost2010Prop55
280
     0
102
RTVSPost2010PropOp55
 70
     1
102
RTVSPost2010Prop56
140
1.0
102
RTVSPost2010PropOp56
 70
     1
102
RTVSPost2010Prop57
140
1.0
102
RTVSPost2010PropOp57
 70
     1
  0
XRECORD
  5
35D
102
{ACAD_REACTORS
330
35C
102
}
330
35C
100
AcDbXrecord
280
     1
102
RTVSPropertyOp0
 70
     1
102
RTVSPropertyOp1
 70
     1
102
RTVSPropertyOp2
 70
     1
102
RTVSPropertyOp3
 70
     1
102
RTVSPropertyOp4
 70
     1
102
RTVSPropertyOp5
 70
     1
102
RTVSPropertyOp6
 70
     1
102
RTVSPropertyOp7
 70
     1
102
RTVSPropertyOp8
 70
     1
102
RTVSPropertyOp9
 70
     1
102
RTVSPropertyOp10
 70
     1
102
RTVSPropertyOp11
 70
     1
102
RTVSPropertyOp12
 70
     1
102
RTVSPropertyOp13
 70
     1
102
RTVSPropertyOp14
 70
     1
102
RTVSPropertyOp15
 70
     1
102
RTVSPropertyOp16
 70
     1
102
RTVSPropertyOp17
 70
     1
102
RTVSPropertyOp18
 70
     1
102
RTVSPropertyOp19
 70
     1
102
RTVSPropertyOp20
 70
     1
102
RTVSPropertyOp21
 70
     1
102
RTVSPropertyOp22
 70
     1
102
RTVSPropertyOp23
 70
     1
102
RTVSPropertyOp24
 70
     1
102
RTVSPropertyOp25
 70
     1
102
RTVSPropertyOp26
 70
     1
102
RTVSPropertyOp27
 70
     1
102
RTVSPropertyOp28
 70
     1
102
RTVSPropertyOp29
 70
     1
102
RTVSPropertyOp30
 70
     1
102
RTVSPropertyOp31
 70
     1
102
RTVSPropertyOp32
 70
     1
102
RTVSPropertyOp33
 70
     1
102
RTVSPropertyOp34
 70
     1
102
RTVSPropertyOp35
 70
     1
102
RTVSPropertyOp36
 70
     1
102
RTVSPropertyOp37
 70
     1
102
RTVSPropertyOp38
 70
     1
102
RTVSPropertyOp39
 70
     1
102
RTVSPropertyOp40
 70
     1
102
RTVSPropertyOp41
 70
     1
102
RTVSPropertyOp42
 70
     1
102
RTVSPropertyOp43
 70
     1
102
RTVSPropertyOp44
 70
     1
102
RTVSPropertyOp45
 70
     1
102
RTVSPropertyOp46
 70
     1
102
RTVSPropertyOp47
 70
     1
102
RTVSPropertyOp48
 70
     1
102
RTVSPropertyOp49
 70
     1
102
RTVSPropertyOp50
 70
     1
102
RTVSPropertyOp51
 70
     0
102
RTVSPropertyOp52
 70
     0
102
RTVSPropertyOp53
 70
     1
102
RTVSPropertyOp54
 70
     1
102
RTVSPropertyOp55
 70
     1
102
RTVSPropertyOp56
 70
     1
102
RTVSPropertyOp57
 70
     1
102
RTVSPost2010Prop28
280
     0
102
RTVSPost2010PropOp28
 70
     1
102
RTVSPost2010Prop29
280
     1
102
RTVSPost2010PropOp29
 70
     1
102
RTVSPost2010Prop30
280
     1
102
RTVSPost2010PropOp30
 70
     1
102
RTVSPost2010Prop31
280
     0
102
RTVSPost2010PropOp31
 70
     1
102
RTVSPost2010Prop32
280
     0
102
RTVSPost2010PropOp32
 70
     1
102
RTVSPost2010Prop33
280
     0
102
RTVSPost2010PropOp33
 70
     1
102
RTVSPost2010Prop34
280
     0
102
RTVSPost2010PropOp34
 70
     1
102
RTVSPost2010Prop35
280
     0
102
RTVSPost2010PropOp35
 70
     1
102
RTVSPost2010Prop36
280
     0
102
RTVSPost2010PropOp36
 70
     1
102
RTVSPost2010Prop37
 90
       50
102
RTVSPost2010PropOp37
 70
     1
102
RTVSPost2010Prop38
140
0.0
102
RTVSPost2010PropOp38
 70
     1
102
RTVSPost2010Prop39
140
1.0
102
RTVSPost2010PropOp39
 70
     1
102
RTVSPost2010Prop40
 90
        0
102
RTVSPost2010PropOp40
 70
     1
102
RTVSPost2010Prop41ColorIndex
 90
       18
102
RTVSPost2010Prop41ColorRGB
 90
        0
102
RTVSPost2010PropOp41
 70
     1
102
RTVSPost2010Prop42
 90
       50
102
RTVSPost2010PropOp42
 70
     1
102
RTVSPost2010Prop43
 90
        3
102
RTVSPost2010PropOp43
 70
     1
102
RTVSPost2010Prop44ColorIndex
 90
        5
102
RTVSPost2010Prop44ColorRGB
 90
      255
102
RTVSPost2010PropOp44
 70
     1
102
RTVSPost2010Prop45
280
     0
102
RTVSPost2010PropOp45
 70
     1
102
RTVSPost2010Prop46
 90
       50
102
RTVSPost2010PropOp46
 70
     1
102
RTVSPost2010Prop47
 90
       50
102
RTVSPost2010PropOp47
 70
     1
102
RTVSPost2010Prop48
 90
       50
102
RTVSPost2010PropOp48
 70
     1
102
RTVSPost2010Prop49
280
     0
102
RTVSPost2010PropOp49
 70
     1
102
RTVSPost2010Prop50
 90
       50
102
RTVSPost2010PropOp50
 70
     1
102
RTVSPost2010Prop51ColorIndex
 90
      256
102
RTVSPost2010Prop51ColorRGB
 90
-16777216
102
RTVSPost2010PropOp51
 70
     0
102
RTVSPost2010Prop52
140
1.0
102
RTVSPost2010PropOp52
 70
     0
102
RTVSPost2010Prop53
 90
        2
102
RTVSPost2010PropOp53
 70
     1
102
RTVSPost2010Prop54
  1
strokes_ogs.tif
102
RTVSPost2010PropOp54
 70
     1
102
RTVSPost2010Prop55
280
     0
102
RTVSPost2010PropOp55
 70
     1
102
RTVSPost2010Prop56
140
1.0
102
RTVSPost2010PropOp56
 70
     1
102
RTVSPost2010Prop57
140
1.0
102
RTVSPost2010PropOp57
 70
     1
  0
XRECORD
  5
35F
102
{ACAD_REACTORS
330
35E
102
}
330
35E
100
AcDbXrecord
280
     1
102
RTVSPropertyOp0
 70
     1
102
RTVSPropertyOp1
 70
     1
102
RTVSPropertyOp2
 70
     1
102
RTVSPropertyOp3
 70
     1
102
RTVSPropertyOp4
 70
     1
102
RTVSPropertyOp5
 70
     1
102
RTVSPropertyOp6
 70
     1
102
RTVSPropertyOp7
 70
     1
102
RTVSPropertyOp8
 70
     1
102
RTVSPropertyOp9
 70
     1
102
RTVSPropertyOp10
 70
     1
102
RTVSPropertyOp11
 70
     1
102
RTVSPropertyOp12
 70
     1
102
RTVSPropertyOp13
 70
     1
102
RTVSPropertyOp14
 70
     1
102
RTVSPropertyOp15
 70
     1
102
RTVSPropertyOp16
 70
     1
102
RTVSPropertyOp17
 70
     1
102
RTVSPropertyOp18
 70
     1
102
RTVSPropertyOp19
 70
     1
102
RTVSPropertyOp20
 70
     1
102
RTVSPropertyOp21
 70
     1
102
RTVSPropertyOp22
 70
     1
102
RTVSPropertyOp23
 70
     1
102
RTVSPropertyOp24
 70
     1
102
RTVSPropertyOp25
 70
     1
102
RTVSPropertyOp26
 70
     1
102
RTVSPropertyOp27
 70
     1
102
RTVSPropertyOp28
 70
     1
102
RTVSPropertyOp29
 70
     1
102
RTVSPropertyOp30
 70
     1
102
RTVSPropertyOp31
 70
     1
102
RTVSPropertyOp32
 70
     1
102
RTVSPropertyOp33
 70
     1
102
RTVSPropertyOp34
 70
     1
102
RTVSPropertyOp35
 70
     1
102
RTVSPropertyOp36
 70
     1
102
RTVSPropertyOp37
 70
     1
102
RTVSPropertyOp38
 70
     1
102
RTVSPropertyOp39
 70
     1
102
RTVSPropertyOp40
 70
     1
102
RTVSPropertyOp41
 70
     1
102
RTVSPropertyOp42
 70
     1
102
RTVSPropertyOp43
 70
     1
102
RTVSPropertyOp44
 70
     1
102
RTVSPropertyOp45
 70
     1
102
RTVSPropertyOp46
 70
     1
102
RTVSPropertyOp47
 70
     1
102
RTVSPropertyOp48
 70
     1
102
RTVSPropertyOp49
 70
     1
102
RTVSPropertyOp50
 70
     1
102
RTVSPropertyOp51
 70
     0
102
RTVSPropertyOp52
 70
     0
102
RTVSPropertyOp53
 70
     1
102
RTVSPropertyOp54
 70
     1
102
RTVSPropertyOp55
 70
     1
102
RTVSPropertyOp56
 70
     1
102
RTVSPropertyOp57
 70
     1
102
RTVSPost2010Prop28
280
     0
102
RTVSPost2010PropOp28
 70
     1
102
RTVSPost2010Prop29
280
     1
102
RTVSPost2010PropOp29
 70
     1
102
RTVSPost2010Prop30
280
     1
102
RTVSPost2010PropOp30
 70
     1
102
RTVSPost2010Prop31
280
     0
102
RTVSPost2010PropOp31
 70
     1
102
RTVSPost2010Prop32
280
     0
102
RTVSPost2010PropOp32
 70
     1
102
RTVSPost2010Prop33
280
     0
102
RTVSPost2010PropOp33
 70
     1
102
RTVSPost2010Prop34
280
     0
102
RTVSPost2010PropOp34
 70
     1
102
RTVSPost2010Prop35
280
     0
102
RTVSPost2010PropOp35
 70
     1
102
RTVSPost2010Prop36
280
     0
102
RTVSPost2010PropOp36
 70
     1
102
RTVSPost2010Prop37
 90
       50
102
RTVSPost2010PropOp37
 70
     1
102
RTVSPost2010Prop38
140
0.0
102
RTVSPost2010PropOp38
 70
     1
102
RTVSPost2010Prop39
140
1.0
102
RTVSPost2010PropOp39
 70
     1
102
RTVSPost2010Prop40
 90
        0
102
RTVSPost2010PropOp40
 70
     1
102
RTVSPost2010Prop41ColorIndex
 90
       18
102
RTVSPost2010Prop41ColorRGB
 90
        0
102
RTVSPost2010PropOp41
 70
     1
102
RTVSPost2010Prop42
 90
       50
102
RTVSPost2010PropOp42
 70
     1
102
RTVSPost2010Prop43
 90
        3
102
RTVSPost2010PropOp43
 70
     1
102
RTVSPost2010Prop44ColorIndex
 90
        5
102
RTVSPost2010Prop44ColorRGB
 90
      255
102
RTVSPost2010PropOp44
 70
     1
102
RTVSPost2010Prop45
280
     0
102
RTVSPost2010PropOp45
 70
     1
102
RTVSPost2010Prop46
 90
       50
102
RTVSPost2010PropOp46
 70
     1
102
RTVSPost2010Prop47
 90
       50
102
RTVSPost2010PropOp47
 70
     1
102
RTVSPost2010Prop48
 90
       50
102
RTVSPost2010PropOp48
 70
     1
102
RTVSPost2010Prop49
280
     0
102
RTVSPost2010PropOp49
 70
     1
102
RTVSPost2010Prop50
 90
       50
102
RTVSPost2010PropOp50
 70
     1
102
RTVSPost2010Prop51ColorIndex
 90
      256
102
RTVSPost2010Prop51ColorRGB
 90
-16777216
102
RTVSPost2010PropOp51
 70
     0
102
RTVSPost2010Prop52
140
1.0
102
RTVSPost2010PropOp52
 70
     0
102
RTVSPost2010Prop53
 90
        2
102
RTVSPost2010PropOp53
 70
     1
102
RTVSPost2010Prop54
  1
strokes_ogs.tif
102
RTVSPost2010PropOp54
 70
     1
102
RTVSPost2010Prop55
280
     0
102
RTVSPost2010PropOp55
 70
     1
102
RTVSPost2010Prop56
140
1.0
102
RTVSPost2010PropOp56
 70
     1
102
RTVSPost2010Prop57
140
1.0
102
RTVSPost2010PropOp57
 70
     1
  0
XRECORD
  5
361
102
{ACAD_REACTORS
330
360
102
}
330
360
100
AcDbXrecord
280
     1
102
RTVSPropertyOp0
 70
     1
102
RTVSPropertyOp1
 70
     1
102
RTVSPropertyOp2
 70
     1
102
RTVSPropertyOp3
 70
     1
102
RTVSPropertyOp4
 70
     1
102
RTVSPropertyOp5
 70
     1
102
RTVSPropertyOp6
 70
     1
102
RTVSPropertyOp7
 70
     1
102
RTVSPropertyOp8
 70
     1
102
RTVSPropertyOp9
 70
     1
102
RTVSPropertyOp10
 70
     1
102
RTVSPropertyOp11
 70
     1
102
RTVSPropertyOp12
 70
     1
102
RTVSPropertyOp13
 70
     1
102
RTVSPropertyOp14
 70
     1
102
RTVSPropertyOp15
 70
     1
102
RTVSPropertyOp16
 70
     1
102
RTVSPropertyOp17
 70
     1
102
RTVSPropertyOp18
 70
     1
102
RTVSPropertyOp19
 70
     1
102
RTVSPropertyOp20
 70
     1
102
RTVSPropertyOp21
 70
     1
102
RTVSPropertyOp22
 70
     1
102
RTVSPropertyOp23
 70
     1
102
RTVSPropertyOp24
 70
     1
102
RTVSPropertyOp25
 70
     1
102
RTVSPropertyOp26
 70
     1
102
RTVSPropertyOp27
 70
     1
102
RTVSPropertyOp28
 70
     1
102
RTVSPropertyOp29
 70
     1
102
RTVSPropertyOp30
 70
     1
102
RTVSPropertyOp31
 70
     1
102
RTVSPropertyOp32
 70
     1
102
RTVSPropertyOp33
 70
     1
102
RTVSPropertyOp34
 70
     1
102
RTVSPropertyOp35
 70
     1
102
RTVSPropertyOp36
 70
     1
102
RTVSPropertyOp37
 70
     1
102
RTVSPropertyOp38
 70
     1
102
RTVSPropertyOp39
 70
     1
102
RTVSPropertyOp40
 70
     1
102
RTVSPropertyOp41
 70
     1
102
RTVSPropertyOp42
 70
     1
102
RTVSPropertyOp43
 70
     1
102
RTVSPropertyOp44
 70
     1
102
RTVSPropertyOp45
 70
     1
102
RTVSPropertyOp46
 70
     1
102
RTVSPropertyOp47
 70
     1
102
RTVSPropertyOp48
 70
     1
102
RTVSPropertyOp49
 70
     1
102
RTVSPropertyOp50
 70
     1
102
RTVSPropertyOp51
 70
     0
102
RTVSPropertyOp52
 70
     0
102
RTVSPropertyOp53
 70
     1
102
RTVSPropertyOp54
 70
     1
102
RTVSPropertyOp55
 70
     1
102
RTVSPropertyOp56
 70
     1
102
RTVSPropertyOp57
 70
     1
102
RTVSPost2010Prop28
280
     0
102
RTVSPost2010PropOp28
 70
     1
102
RTVSPost2010Prop29
280
     1
102
RTVSPost2010PropOp29
 70
     1
102
RTVSPost2010Prop30
280
     1
102
RTVSPost2010PropOp30
 70
     1
102
RTVSPost2010Prop31
280
     0
102
RTVSPost2010PropOp31
 70
     1
102
RTVSPost2010Prop32
280
     0
102
RTVSPost2010PropOp32
 70
     1
102
RTVSPost2010Prop33
280
     0
102
RTVSPost2010PropOp33
 70
     1
102
RTVSPost2010Prop34
280
     0
102
RTVSPost2010PropOp34
 70
     1
102
RTVSPost2010Prop35
280
     0
102
RTVSPost2010PropOp35
 70
     1
102
RTVSPost2010Prop36
280
     0
102
RTVSPost2010PropOp36
 70
     1
102
RTVSPost2010Prop37
 90
       50
102
RTVSPost2010PropOp37
 70
     1
102
RTVSPost2010Prop38
140
0.0
102
RTVSPost2010PropOp38
 70
     1
102
RTVSPost2010Prop39
140
1.0
102
RTVSPost2010PropOp39
 70
     1
102
RTVSPost2010Prop40
 90
        0
102
RTVSPost2010PropOp40
 70
     1
102
RTVSPost2010Prop41ColorIndex
 90
       18
102
RTVSPost2010Prop41ColorRGB
 90
        0
102
RTVSPost2010PropOp41
 70
     1
102
RTVSPost2010Prop42
 90
       50
102
RTVSPost2010PropOp42
 70
     1
102
RTVSPost2010Prop43
 90
        3
102
RTVSPost2010PropOp43
 70
     1
102
RTVSPost2010Prop44ColorIndex
 90
        5
102
RTVSPost2010Prop44ColorRGB
 90
      255
102
RTVSPost2010PropOp44
 70
     1
102
RTVSPost2010Prop45
280
     0
102
RTVSPost2010PropOp45
 70
     1
102
RTVSPost2010Prop46
 90
       50
102
RTVSPost2010PropOp46
 70
     1
102
RTVSPost2010Prop47
 90
       50
102
RTVSPost2010PropOp47
 70
     1
102
RTVSPost2010Prop48
 90
       50
102
RTVSPost2010PropOp48
 70
     1
102
RTVSPost2010Prop49
280
     0
102
RTVSPost2010PropOp49
 70
     1
102
RTVSPost2010Prop50
 90
       50
102
RTVSPost2010PropOp50
 70
     1
102
RTVSPost2010Prop51ColorIndex
 90
      256
102
RTVSPost2010Prop51ColorRGB
 90
-16777216
102
RTVSPost2010PropOp51
 70
     0
102
RTVSPost2010Prop52
140
1.0
102
RTVSPost2010PropOp52
 70
     0
102
RTVSPost2010Prop53
 90
        2
102
RTVSPost2010PropOp53
 70
     1
102
RTVSPost2010Prop54
  1
strokes_ogs.tif
102
RTVSPost2010PropOp54
 70
     1
102
RTVSPost2010Prop55
280
     0
102
RTVSPost2010PropOp55
 70
     1
102
RTVSPost2010Prop56
140
1.0
102
RTVSPost2010PropOp56
 70
     1
102
RTVSPost2010Prop57
140
1.0
102
RTVSPost2010PropOp57
 70
     1
  0
XRECORD
  5
363
102
{ACAD_REACTORS
330
362
102
}
330
362
100
AcDbXrecord
280
     1
102
RTVSPropertyOp0
 70
     1
102
RTVSPropertyOp1
 70
     1
102
RTVSPropertyOp2
 70
     1
102
RTVSPropertyOp3
 70
     1
102
RTVSPropertyOp4
 70
     1
102
RTVSPropertyOp5
 70
     1
102
RTVSPropertyOp6
 70
     1
102
RTVSPropertyOp7
 70
     1
102
RTVSPropertyOp8
 70
     1
102
RTVSPropertyOp9
 70
     1
102
RTVSPropertyOp10
 70
     1
102
RTVSPropertyOp11
 70
     1
102
RTVSPropertyOp12
 70
     1
102
RTVSPropertyOp13
 70
     1
102
RTVSPropertyOp14
 70
     1
102
RTVSPropertyOp15
 70
     1
102
RTVSPropertyOp16
 70
     1
102
RTVSPropertyOp17
 70
     1
102
RTVSPropertyOp18
 70
     1
102
RTVSPropertyOp19
 70
     1
102
RTVSPropertyOp20
 70
     1
102
RTVSPropertyOp21
 70
     1
102
RTVSPropertyOp22
 70
     1
102
RTVSPropertyOp23
 70
     1
102
RTVSPropertyOp24
 70
     1
102
RTVSPropertyOp25
 70
     1
102
RTVSPropertyOp26
 70
     1
102
RTVSPropertyOp27
 70
     1
102
RTVSPropertyOp28
 70
     1
102
RTVSPropertyOp29
 70
     1
102
RTVSPropertyOp30
 70
     1
102
RTVSPropertyOp31
 70
     1
102
RTVSPropertyOp32
 70
     1
102
RTVSPropertyOp33
 70
     1
102
RTVSPropertyOp34
 70
     1
102
RTVSPropertyOp35
 70
     1
102
RTVSPropertyOp36
 70
     1
102
RTVSPropertyOp37
 70
     1
102
RTVSPropertyOp38
 70
     1
102
RTVSPropertyOp39
 70
     1
102
RTVSPropertyOp40
 70
     1
102
RTVSPropertyOp41
 70
     1
102
RTVSPropertyOp42
 70
     1
102
RTVSPropertyOp43
 70
     1
102
RTVSPropertyOp44
 70
     1
102
RTVSPropertyOp45
 70
     1
102
RTVSPropertyOp46
 70
     1
102
RTVSPropertyOp47
 70
     1
102
RTVSPropertyOp48
 70
     1
102
RTVSPropertyOp49
 70
     1
102
RTVSPropertyOp50
 70
     1
102
RTVSPropertyOp51
 70
     0
102
RTVSPropertyOp52
 70
     0
102
RTVSPropertyOp53
 70
     1
102
RTVSPropertyOp54
 70
     1
102
RTVSPropertyOp55
 70
     1
102
RTVSPropertyOp56
 70
     1
102
RTVSPropertyOp57
 70
     1
102
RTVSPost2010Prop28
280
     0
102
RTVSPost2010PropOp28
 70
     1
102
RTVSPost2010Prop29
280
     1
102
RTVSPost2010PropOp29
 70
     1
102
RTVSPost2010Prop30
280
     1
102
RTVSPost2010PropOp30
 70
     1
102
RTVSPost2010Prop31
280
     0
102
RTVSPost2010PropOp31
 70
     1
102
RTVSPost2010Prop32
280
     0
102
RTVSPost2010PropOp32
 70
     1
102
RTVSPost2010Prop33
280
     0
102
RTVSPost2010PropOp33
 70
     1
102
RTVSPost2010Prop34
280
     0
102
RTVSPost2010PropOp34
 70
     1
102
RTVSPost2010Prop35
280
     0
102
RTVSPost2010PropOp35
 70
     1
102
RTVSPost2010Prop36
280
     0
102
RTVSPost2010PropOp36
 70
     1
102
RTVSPost2010Prop37
 90
       50
102
RTVSPost2010PropOp37
 70
     1
102
RTVSPost2010Prop38
140
0.0
102
RTVSPost2010PropOp38
 70
     1
102
RTVSPost2010Prop39
140
1.0
102
RTVSPost2010PropOp39
 70
     1
102
RTVSPost2010Prop40
 90
        0
102
RTVSPost2010PropOp40
 70
     1
102
RTVSPost2010Prop41ColorIndex
 90
       18
102
RTVSPost2010Prop41ColorRGB
 90
        0
102
RTVSPost2010PropOp41
 70
     1
102
RTVSPost2010Prop42
 90
       50
102
RTVSPost2010PropOp42
 70
     1
102
RTVSPost2010Prop43
 90
        3
102
RTVSPost2010PropOp43
 70
     1
102
RTVSPost2010Prop44ColorIndex
 90
        5
102
RTVSPost2010Prop44ColorRGB
 90
      255
102
RTVSPost2010PropOp44
 70
     1
102
RTVSPost2010Prop45
280
     0
102
RTVSPost2010PropOp45
 70
     1
102
RTVSPost2010Prop46
 90
       50
102
RTVSPost2010PropOp46
 70
     1
102
RTVSPost2010Prop47
 90
       50
102
RTVSPost2010PropOp47
 70
     1
102
RTVSPost2010Prop48
 90
       50
102
RTVSPost2010PropOp48
 70
     1
102
RTVSPost2010Prop49
280
     0
102
RTVSPost2010PropOp49
 70
     1
102
RTVSPost2010Prop50
 90
       50
102
RTVSPost2010PropOp50
 70
     1
102
RTVSPost2010Prop51ColorIndex
 90
      256
102
RTVSPost2010Prop51ColorRGB
 90
-16777216
102
RTVSPost2010PropOp51
 70
     0
102
RTVSPost2010Prop52
140
1.0
102
RTVSPost2010PropOp52
 70
     0
102
RTVSPost2010Prop53
 90
        2
102
RTVSPost2010PropOp53
 70
     1
102
RTVSPost2010Prop54
  1
strokes_ogs.tif
102
RTVSPost2010PropOp54
 70
     1
102
RTVSPost2010Prop55
280
     0
102
RTVSPost2010PropOp55
 70
     1
102
RTVSPost2010Prop56
140
1.0
102
RTVSPost2010PropOp56
 70
     1
102
RTVSPost2010Prop57
140
1.0
102
RTVSPost2010PropOp57
 70
     1
  0
XRECORD
  5
369
102
{ACAD_REACTORS
330
368
102
}
330
368
100
AcDbXrecord
280
     1
102
RTVSPropertyOp0
 70
     1
102
RTVSPropertyOp1
 70
     1
102
RTVSPropertyOp2
 70
     1
102
RTVSPropertyOp3
 70
     1
102
RTVSPropertyOp4
 70
     1
102
RTVSPropertyOp5
 70
     1
102
RTVSPropertyOp6
 70
     1
102
RTVSPropertyOp7
 70
     1
102
RTVSPropertyOp8
 70
     1
102
RTVSPropertyOp9
 70
     1
102
RTVSPropertyOp10
 70
     1
102
RTVSPropertyOp11
 70
     1
102
RTVSPropertyOp12
 70
     1
102
RTVSPropertyOp13
 70
     1
102
RTVSPropertyOp14
 70
     1
102
RTVSPropertyOp15
 70
     1
102
RTVSPropertyOp16
 70
     1
102
RTVSPropertyOp17
 70
     1
102
RTVSPropertyOp18
 70
     1
102
RTVSPropertyOp19
 70
     1
102
RTVSPropertyOp20
 70
     1
102
RTVSPropertyOp21
 70
     1
102
RTVSPropertyOp22
 70
     1
102
RTVSPropertyOp23
 70
     1
102
RTVSPropertyOp24
 70
     1
102
RTVSPropertyOp25
 70
     1
102
RTVSPropertyOp26
 70
     1
102
RTVSPropertyOp27
 70
     1
102
RTVSPropertyOp28
 70
     1
102
RTVSPropertyOp29
 70
     1
102
RTVSPropertyOp30
 70
     1
102
RTVSPropertyOp31
 70
     1
102
RTVSPropertyOp32
 70
     1
102
RTVSPropertyOp33
 70
     1
102
RTVSPropertyOp34
 70
     1
102
RTVSPropertyOp35
 70
     1
102
RTVSPropertyOp36
 70
     1
102
RTVSPropertyOp37
 70
     1
102
RTVSPropertyOp38
 70
     1
102
RTVSPropertyOp39
 70
     1
102
RTVSPropertyOp40
 70
     1
102
RTVSPropertyOp41
 70
     1
102
RTVSPropertyOp42
 70
     1
102
RTVSPropertyOp43
 70
     1
102
RTVSPropertyOp44
 70
     1
102
RTVSPropertyOp45
 70
     1
102
RTVSPropertyOp46
 70
     1
102
RTVSPropertyOp47
 70
     1
102
RTVSPropertyOp48
 70
     1
102
RTVSPropertyOp49
 70
     1
102
RTVSPropertyOp50
 70
     1
102
RTVSPropertyOp51
 70
     0
102
RTVSPropertyOp52
 70
     0
102
RTVSPropertyOp53
 70
     1
102
RTVSPropertyOp54
 70
     1
102
RTVSPropertyOp55
 70
     1
102
RTVSPropertyOp56
 70
     1
102
RTVSPropertyOp57
 70
     1
102
RTVSPost2010Prop28
280
     0
102
RTVSPost2010PropOp28
 70
     1
102
RTVSPost2010Prop29
280
     1
102
RTVSPost2010PropOp29
 70
     1
102
RTVSPost2010Prop30
280
     1
102
RTVSPost2010PropOp30
 70
     1
102
RTVSPost2010Prop31
280
     0
102
RTVSPost2010PropOp31
 70
     1
102
RTVSPost2010Prop32
280
     0
102
RTVSPost2010PropOp32
 70
     1
102
RTVSPost2010Prop33
280
     0
102
RTVSPost2010PropOp33
 70
     1
102
RTVSPost2010Prop34
280
     0
102
RTVSPost2010PropOp34
 70
     1
102
RTVSPost2010Prop35
280
     0
102
RTVSPost2010PropOp35
 70
     1
102
RTVSPost2010Prop36
280
     0
102
RTVSPost2010PropOp36
 70
     1
102
RTVSPost2010Prop37
 90
       50
102
RTVSPost2010PropOp37
 70
     1
102
RTVSPost2010Prop38
140
0.0
102
RTVSPost2010PropOp38
 70
     1
102
RTVSPost2010Prop39
140
1.0
102
RTVSPost2010PropOp39
 70
     1
102
RTVSPost2010Prop40
 90
        0
102
RTVSPost2010PropOp40
 70
     1
102
RTVSPost2010Prop41ColorIndex
 90
       18
102
RTVSPost2010Prop41ColorRGB
 90
        0
102
RTVSPost2010PropOp41
 70
     1
102
RTVSPost2010Prop42
 90
       50
102
RTVSPost2010PropOp42
 70
     1
102
RTVSPost2010Prop43
 90
        3
102
RTVSPost2010PropOp43
 70
     1
102
RTVSPost2010Prop44ColorIndex
 90
        5
102
RTVSPost2010Prop44ColorRGB
 90
      255
102
RTVSPost2010PropOp44
 70
     1
102
RTVSPost2010Prop45
280
     0
102
RTVSPost2010PropOp45
 70
     1
102
RTVSPost2010Prop46
 90
       50
102
RTVSPost2010PropOp46
 70
     1
102
RTVSPost2010Prop47
 90
       50
102
RTVSPost2010PropOp47
 70
     1
102
RTVSPost2010Prop48
 90
       50
102
RTVSPost2010PropOp48
 70
     1
102
RTVSPost2010Prop49
280
     0
102
RTVSPost2010PropOp49
 70
     1
102
RTVSPost2010Prop50
 90
       50
102
RTVSPost2010PropOp50
 70
     1
102
RTVSPost2010Prop51ColorIndex
 90
      256
102
RTVSPost2010Prop51ColorRGB
 90
-16777216
102
RTVSPost2010PropOp51
 70
     0
102
RTVSPost2010Prop52
140
1.0
102
RTVSPost2010PropOp52
 70
     0
102
RTVSPost2010Prop53
 90
        2
102
RTVSPost2010PropOp53
 70
     1
102
RTVSPost2010Prop54
  1
strokes_ogs.tif
102
RTVSPost2010PropOp54
 70
     1
102
RTVSPost2010Prop55
280
     0
102
RTVSPost2010PropOp55
 70
     1
102
RTVSPost2010Prop56
140
1.0
102
RTVSPost2010PropOp56
 70
     1
102
RTVSPost2010Prop57
140
1.0
102
RTVSPost2010PropOp57
 70
     1
  0
XRECORD
  5
37D
102
{ACAD_REACTORS
330
37C
102
}
330
37C
100
AcDbXrecord
280
     1
102
RTVSPropertyOp0
 70
     0
102
RTVSPropertyOp1
 70
     0
102
RTVSPropertyOp2
 70
     0
102
RTVSPropertyOp3
 70
     0
102
RTVSPropertyOp4
 70
     0
102
RTVSPropertyOp5
 70
     0
102
RTVSPropertyOp6
 70
     0
102
RTVSPropertyOp7
 70
     0
102
RTVSPropertyOp8
 70
     0
102
RTVSPropertyOp9
 70
     0
102
RTVSPropertyOp10
 70
     0
102
RTVSPropertyOp11
 70
     0
102
RTVSPropertyOp12
 70
     0
102
RTVSPropertyOp13
 70
     0
102
RTVSPropertyOp14
 70
     2
102
RTVSPropertyOp15
 70
     0
102
RTVSPropertyOp16
 70
     0
102
RTVSPropertyOp17
 70
     0
102
RTVSPropertyOp18
 70
     0
102
RTVSPropertyOp19
 70
     0
102
RTVSPropertyOp20
 70
     0
102
RTVSPropertyOp21
 70
     0
102
RTVSPropertyOp22
 70
     0
102
RTVSPropertyOp23
 70
     0
102
RTVSPropertyOp24
 70
     0
102
RTVSPropertyOp25
 70
     0
102
RTVSPropertyOp26
 70
     0
102
RTVSPropertyOp27
 70
     0
102
RTVSPropertyOp28
 70
     0
102
RTVSPropertyOp29
 70
     0
102
RTVSPropertyOp30
 70
     0
102
RTVSPropertyOp31
 70
     0
102
RTVSPropertyOp32
 70
     0
102
RTVSPropertyOp33
 70
     0
102
RTVSPropertyOp34
 70
     0
102
RTVSPropertyOp35
 70
     0
102
RTVSPropertyOp36
 70
     0
102
RTVSPropertyOp37
 70
     0
102
RTVSPropertyOp38
 70
     0
102
RTVSPropertyOp39
 70
     0
102
RTVSPropertyOp40
 70
     0
102
RTVSPropertyOp41
 70
     0
102
RTVSPropertyOp42
 70
     0
102
RTVSPropertyOp43
 70
     0
102
RTVSPropertyOp44
 70
     0
102
RTVSPropertyOp45
 70
     0
102
RTVSPropertyOp46
 70
     0
102
RTVSPropertyOp47
 70
     0
102
RTVSPropertyOp48
 70
     0
102
RTVSPropertyOp49
 70
     0
102
RTVSPropertyOp50
 70
     0
102
RTVSPropertyOp51
 70
     0
102
RTVSPropertyOp52
 70
     0
102
RTVSPropertyOp53
 70
     0
102
RTVSPropertyOp54
 70
     0
102
RTVSPropertyOp55
 70
     0
102
RTVSPropertyOp56
 70
     0
102
RTVSPropertyOp57
 70
     0
102
RTVSPost2010Prop28
280
     0
102
RTVSPost2010PropOp28
 70
     0
102
RTVSPost2010Prop29
280
     1
102
RTVSPost2010PropOp29
 70
     0
102
RTVSPost2010Prop30
280
     1
102
RTVSPost2010PropOp30
 70
     0
102
RTVSPost2010Prop31
280
     0
102
RTVSPost2010PropOp31
 70
     0
102
RTVSPost2010Prop32
280
     0
102
RTVSPost2010PropOp32
 70
     0
102
RTVSPost2010Prop33
280
     0
102
RTVSPost2010PropOp33
 70
     0
102
RTVSPost2010Prop34
280
     0
102
RTVSPost2010PropOp34
 70
     0
102
RTVSPost2010Prop35
280
     0
102
RTVSPost2010PropOp35
 70
     0
102
RTVSPost2010Prop36
280
     0
102
RTVSPost2010PropOp36
 70
     0
102
RTVSPost2010Prop37
 90
       50
102
RTVSPost2010PropOp37
 70
     0
102
RTVSPost2010Prop38
140
0.0
102
RTVSPost2010PropOp38
 70
     0
102
RTVSPost2010Prop39
140
1.0
102
RTVSPost2010PropOp39
 70
     0
102
RTVSPost2010Prop40
 90
        0
102
RTVSPost2010PropOp40
 70
     0
102
RTVSPost2010Prop41ColorIndex
 90
       18
102
RTVSPost2010Prop41ColorRGB
 90
        0
102
RTVSPost2010PropOp41
 70
     0
102
RTVSPost2010Prop42
 90
       50
102
RTVSPost2010PropOp42
 70
     0
102
RTVSPost2010Prop43
 90
        3
102
RTVSPost2010PropOp43
 70
     0
102
RTVSPost2010Prop44ColorIndex
 90
        5
102
RTVSPost2010Prop44ColorRGB
 90
      255
102
RTVSPost2010PropOp44
 70
     0
102
RTVSPost2010Prop45
280
     0
102
RTVSPost2010PropOp45
 70
     0
102
RTVSPost2010Prop46
 90
       50
102
RTVSPost2010PropOp46
 70
     0
102
RTVSPost2010Prop47
 90
       50
102
RTVSPost2010PropOp47
 70
     0
102
RTVSPost2010Prop48
 90
       50
102
RTVSPost2010PropOp48
 70
     0
102
RTVSPost2010Prop49
280
     0
102
RTVSPost2010PropOp49
 70
     0
102
RTVSPost2010Prop50
 90
       50
102
RTVSPost2010PropOp50
 70
     0
102
RTVSPost2010Prop51ColorIndex
 90
      256
102
RTVSPost2010Prop51ColorRGB
 90
-16777216
102
RTVSPost2010PropOp51
 70
     0
102
RTVSPost2010Prop52
140
1.0
102
RTVSPost2010PropOp52
 70
     0
102
RTVSPost2010Prop53
 90
        2
102
RTVSPost2010PropOp53
 70
     0
102
RTVSPost2010Prop54
  1
strokes_ogs.tif
102
RTVSPost2010PropOp54
 70
     0
102
RTVSPost2010Prop55
280
     0
102
RTVSPost2010PropOp55
 70
     0
102
RTVSPost2010Prop56
140
1.0
102
RTVSPost2010PropOp56
 70
     0
102
RTVSPost2010Prop57
140
1.0
102
RTVSPost2010PropOp57
 70
     0
  0
XRECORD
  5
377
102
{ACAD_REACTORS
330
376
102
}
330
376
100
AcDbXrecord
280
     1
102
RTVSPropertyOp0
 70
     1
102
RTVSPropertyOp1
 70
     1
102
RTVSPropertyOp2
 70
     1
102
RTVSPropertyOp3
 70
     1
102
RTVSPropertyOp4
 70
     1
102
RTVSPropertyOp5
 70
     1
102
RTVSPropertyOp6
 70
     1
102
RTVSPropertyOp7
 70
     1
102
RTVSPropertyOp8
 70
     1
102
RTVSPropertyOp9
 70
     1
102
RTVSPropertyOp10
 70
     1
102
RTVSPropertyOp11
 70
     1
102
RTVSPropertyOp12
 70
     1
102
RTVSPropertyOp13
 70
     1
102
RTVSPropertyOp14
 70
     1
102
RTVSPropertyOp15
 70
     1
102
RTVSPropertyOp16
 70
     1
102
RTVSPropertyOp17
 70
     1
102
RTVSPropertyOp18
 70
     1
102
RTVSPropertyOp19
 70
     1
102
RTVSPropertyOp20
 70
     1
102
RTVSPropertyOp21
 70
     1
102
RTVSPropertyOp22
 70
     1
102
RTVSPropertyOp23
 70
     1
102
RTVSPropertyOp24
 70
     1
102
RTVSPropertyOp25
 70
     1
102
RTVSPropertyOp26
 70
     1
102
RTVSPropertyOp27
 70
     1
102
RTVSPropertyOp28
 70
     1
102
RTVSPropertyOp29
 70
     1
102
RTVSPropertyOp30
 70
     1
102
RTVSPropertyOp31
 70
     1
102
RTVSPropertyOp32
 70
     1
102
RTVSPropertyOp33
 70
     1
102
RTVSPropertyOp34
 70
     1
102
RTVSPropertyOp35
 70
     1
102
RTVSPropertyOp36
 70
     1
102
RTVSPropertyOp37
 70
     1
102
RTVSPropertyOp38
 70
     1
102
RTVSPropertyOp39
 70
     1
102
RTVSPropertyOp40
 70
     1
102
RTVSPropertyOp41
 70
     1
102
RTVSPropertyOp42
 70
     1
102
RTVSPropertyOp43
 70
     1
102
RTVSPropertyOp44
 70
     1
102
RTVSPropertyOp45
 70
     1
102
RTVSPropertyOp46
 70
     1
102
RTVSPropertyOp47
 70
     1
102
RTVSPropertyOp48
 70
     1
102
RTVSPropertyOp49
 70
     1
102
RTVSPropertyOp50
 70
     1
102
RTVSPropertyOp51
 70
     0
102
RTVSPropertyOp52
 70
     0
102
RTVSPropertyOp53
 70
     1
102
RTVSPropertyOp54
 70
     1
102
RTVSPropertyOp55
 70
     1
102
RTVSPropertyOp56
 70
     1
102
RTVSPropertyOp57
 70
     1
102
RTVSPost2010Prop28
280
     0
102
RTVSPost2010PropOp28
 70
     1
102
RTVSPost2010Prop29
280
     1
102
RTVSPost2010PropOp29
 70
     1
102
RTVSPost2010Prop30
280
     1
102
RTVSPost2010PropOp30
 70
     1
102
RTVSPost2010Prop31
280
     0
102
RTVSPost2010PropOp31
 70
     1
102
RTVSPost2010Prop32
280
     0
102
RTVSPost2010PropOp32
 70
     1
102
RTVSPost2010Prop33
280
     0
102
RTVSPost2010PropOp33
 70
     1
102
RTVSPost2010Prop34
280
     0
102
RTVSPost2010PropOp34
 70
     1
102
RTVSPost2010Prop35
280
     0
102
RTVSPost2010PropOp35
 70
     1
102
RTVSPost2010Prop36
280
     0
102
RTVSPost2010PropOp36
 70
     1
102
RTVSPost2010Prop37
 90
       50
102
RTVSPost2010PropOp37
 70
     1
102
RTVSPost2010Prop38
140
0.0
102
RTVSPost2010PropOp38
 70
     1
102
RTVSPost2010Prop39
140
1.0
102
RTVSPost2010PropOp39
 70
     1
102
RTVSPost2010Prop40
 90
        0
102
RTVSPost2010PropOp40
 70
     1
102
RTVSPost2010Prop41ColorIndex
 90
       18
102
RTVSPost2010Prop41ColorRGB
 90
        0
102
RTVSPost2010PropOp41
 70
     1
102
RTVSPost2010Prop42
 90
       50
102
RTVSPost2010PropOp42
 70
     1
102
RTVSPost2010Prop43
 90
        3
102
RTVSPost2010PropOp43
 70
     1
102
RTVSPost2010Prop44ColorIndex
 90
        5
102
RTVSPost2010Prop44ColorRGB
 90
      255
102
RTVSPost2010PropOp44
 70
     1
102
RTVSPost2010Prop45
280
     0
102
RTVSPost2010PropOp45
 70
     1
102
RTVSPost2010Prop46
 90
       50
102
RTVSPost2010PropOp46
 70
     1
102
RTVSPost2010Prop47
 90
       50
102
RTVSPost2010PropOp47
 70
     1
102
RTVSPost2010Prop48
 90
       50
102
RTVSPost2010PropOp48
 70
     1
102
RTVSPost2010Prop49
280
     0
102
RTVSPost2010PropOp49
 70
     1
102
RTVSPost2010Prop50
 90
       50
102
RTVSPost2010PropOp50
 70
     1
102
RTVSPost2010Prop51ColorIndex
 90
      256
102
RTVSPost2010Prop51ColorRGB
 90
-16777216
102
RTVSPost2010PropOp51
 70
     0
102
RTVSPost2010Prop52
140
1.0
102
RTVSPost2010PropOp52
 70
     0
102
RTVSPost2010Prop53
 90
        2
102
RTVSPost2010PropOp53
 70
     1
102
RTVSPost2010Prop54
  1
strokes_ogs.tif
102
RTVSPost2010PropOp54
 70
     1
102
RTVSPost2010Prop55
280
     0
102
RTVSPost2010PropOp55
 70
     1
102
RTVSPost2010Prop56
140
1.0
102
RTVSPost2010PropOp56
 70
     1
102
RTVSPost2010Prop57
140
1.0
102
RTVSPost2010PropOp57
 70
     1
  0
XRECORD
  5
37F
102
{ACAD_REACTORS
330
37E
102
}
330
37E
100
AcDbXrecord
280
     1
102
RTVSPropertyOp0
 70
     0
102
RTVSPropertyOp1
 70
     0
102
RTVSPropertyOp2
 70
     0
102
RTVSPropertyOp3
 70
     0
102
RTVSPropertyOp4
 70
     0
102
RTVSPropertyOp5
 70
     0
102
RTVSPropertyOp6
 70
     0
102
RTVSPropertyOp7
 70
     0
102
RTVSPropertyOp8
 70
     0
102
RTVSPropertyOp9
 70
     0
102
RTVSPropertyOp10
 70
     0
102
RTVSPropertyOp11
 70
     0
102
RTVSPropertyOp12
 70
     0
102
RTVSPropertyOp13
 70
     0
102
RTVSPropertyOp14
 70
     2
102
RTVSPropertyOp15
 70
     0
102
RTVSPropertyOp16
 70
     0
102
RTVSPropertyOp17
 70
     0
102
RTVSPropertyOp18
 70
     0
102
RTVSPropertyOp19
 70
     0
102
RTVSPropertyOp20
 70
     0
102
RTVSPropertyOp21
 70
     0
102
RTVSPropertyOp22
 70
     0
102
RTVSPropertyOp23
 70
     0
102
RTVSPropertyOp24
 70
     0
102
RTVSPropertyOp25
 70
     0
102
RTVSPropertyOp26
 70
     0
102
RTVSPropertyOp27
 70
     0
102
RTVSPropertyOp28
 70
     0
102
RTVSPropertyOp29
 70
     0
102
RTVSPropertyOp30
 70
     0
102
RTVSPropertyOp31
 70
     0
102
RTVSPropertyOp32
 70
     0
102
RTVSPropertyOp33
 70
     0
102
RTVSPropertyOp34
 70
     0
102
RTVSPropertyOp35
 70
     0
102
RTVSPropertyOp36
 70
     0
102
RTVSPropertyOp37
 70
     0
102
RTVSPropertyOp38
 70
     0
102
RTVSPropertyOp39
 70
     0
102
RTVSPropertyOp40
 70
     0
102
RTVSPropertyOp41
 70
     0
102
RTVSPropertyOp42
 70
     0
102
RTVSPropertyOp43
 70
     0
102
RTVSPropertyOp44
 70
     0
102
RTVSPropertyOp45
 70
     0
102
RTVSPropertyOp46
 70
     0
102
RTVSPropertyOp47
 70
     0
102
RTVSPropertyOp48
 70
     0
102
RTVSPropertyOp49
 70
     0
102
RTVSPropertyOp50
 70
     0
102
RTVSPropertyOp51
 70
     0
102
RTVSPropertyOp52
 70
     0
102
RTVSPropertyOp53
 70
     0
102
RTVSPropertyOp54
 70
     0
102
RTVSPropertyOp55
 70
     0
102
RTVSPropertyOp56
 70
     0
102
RTVSPropertyOp57
 70
     0
102
RTVSPost2010Prop28
280
     0
102
RTVSPost2010PropOp28
 70
     0
102
RTVSPost2010Prop29
280
     1
102
RTVSPost2010PropOp29
 70
     0
102
RTVSPost2010Prop30
280
     1
102
RTVSPost2010PropOp30
 70
     0
102
RTVSPost2010Prop31
280
     0
102
RTVSPost2010PropOp31
 70
     0
102
RTVSPost2010Prop32
280
     0
102
RTVSPost2010PropOp32
 70
     0
102
RTVSPost2010Prop33
280
     0
102
RTVSPost2010PropOp33
 70
     0
102
RTVSPost2010Prop34
280
     0
102
RTVSPost2010PropOp34
 70
     0
102
RTVSPost2010Prop35
280
     0
102
RTVSPost2010PropOp35
 70
     0
102
RTVSPost2010Prop36
280
     0
102
RTVSPost2010PropOp36
 70
     0
102
RTVSPost2010Prop37
 90
       50
102
RTVSPost2010PropOp37
 70
     0
102
RTVSPost2010Prop38
140
0.0
102
RTVSPost2010PropOp38
 70
     0
102
RTVSPost2010Prop39
140
1.0
102
RTVSPost2010PropOp39
 70
     0
102
RTVSPost2010Prop40
 90
        0
102
RTVSPost2010PropOp40
 70
     0
102
RTVSPost2010Prop41ColorIndex
 90
       18
102
RTVSPost2010Prop41ColorRGB
 90
        0
102
RTVSPost2010PropOp41
 70
     0
102
RTVSPost2010Prop42
 90
       50
102
RTVSPost2010PropOp42
 70
     0
102
RTVSPost2010Prop43
 90
        3
102
RTVSPost2010PropOp43
 70
     0
102
RTVSPost2010Prop44ColorIndex
 90
        5
102
RTVSPost2010Prop44ColorRGB
 90
      255
102
RTVSPost2010PropOp44
 70
     0
102
RTVSPost2010Prop45
280
     0
102
RTVSPost2010PropOp45
 70
     0
102
RTVSPost2010Prop46
 90
       50
102
RTVSPost2010PropOp46
 70
     0
102
RTVSPost2010Prop47
 90
       50
102
RTVSPost2010PropOp47
 70
     0
102
RTVSPost2010Prop48
 90
       50
102
RTVSPost2010PropOp48
 70
     0
102
RTVSPost2010Prop49
280
     0
102
RTVSPost2010PropOp49
 70
     0
102
RTVSPost2010Prop50
 90
       50
102
RTVSPost2010PropOp50
 70
     0
102
RTVSPost2010Prop51ColorIndex
 90
      256
102
RTVSPost2010Prop51ColorRGB
 90
-16777216
102
RTVSPost2010PropOp51
 70
     0
102
RTVSPost2010Prop52
140
1.0
102
RTVSPost2010PropOp52
 70
     0
102
RTVSPost2010Prop53
 90
        2
102
RTVSPost2010PropOp53
 70
     0
102
RTVSPost2010Prop54
  1
strokes_ogs.tif
102
RTVSPost2010PropOp54
 70
     0
102
RTVSPost2010Prop55
280
     0
102
RTVSPost2010PropOp55
 70
     0
102
RTVSPost2010Prop56
140
1.0
102
RTVSPost2010PropOp56
 70
     0
102
RTVSPost2010Prop57
140
1.0
102
RTVSPost2010PropOp57
 70
     0
  0
XRECORD
  5
36D
102
{ACAD_REACTORS
330
36C
102
}
330
36C
100
AcDbXrecord
280
     1
102
RTVSPropertyOp0
 70
     1
102
RTVSPropertyOp1
 70
     1
102
RTVSPropertyOp2
 70
     1
102
RTVSPropertyOp3
 70
     1
102
RTVSPropertyOp4
 70
     1
102
RTVSPropertyOp5
 70
     1
102
RTVSPropertyOp6
 70
     1
102
RTVSPropertyOp7
 70
     1
102
RTVSPropertyOp8
 70
     1
102
RTVSPropertyOp9
 70
     1
102
RTVSPropertyOp10
 70
     1
102
RTVSPropertyOp11
 70
     1
102
RTVSPropertyOp12
 70
     1
102
RTVSPropertyOp13
 70
     1
102
RTVSPropertyOp14
 70
     1
102
RTVSPropertyOp15
 70
     1
102
RTVSPropertyOp16
 70
     1
102
RTVSPropertyOp17
 70
     1
102
RTVSPropertyOp18
 70
     1
102
RTVSPropertyOp19
 70
     1
102
RTVSPropertyOp20
 70
     1
102
RTVSPropertyOp21
 70
     1
102
RTVSPropertyOp22
 70
     1
102
RTVSPropertyOp23
 70
     1
102
RTVSPropertyOp24
 70
     1
102
RTVSPropertyOp25
 70
     1
102
RTVSPropertyOp26
 70
     1
102
RTVSPropertyOp27
 70
     1
102
RTVSPropertyOp28
 70
     1
102
RTVSPropertyOp29
 70
     1
102
RTVSPropertyOp30
 70
     1
102
RTVSPropertyOp31
 70
     1
102
RTVSPropertyOp32
 70
     1
102
RTVSPropertyOp33
 70
     1
102
RTVSPropertyOp34
 70
     1
102
RTVSPropertyOp35
 70
     1
102
RTVSPropertyOp36
 70
     1
102
RTVSPropertyOp37
 70
     1
102
RTVSPropertyOp38
 70
     1
102
RTVSPropertyOp39
 70
     1
102
RTVSPropertyOp40
 70
     1
102
RTVSPropertyOp41
 70
     1
102
RTVSPropertyOp42
 70
     1
102
RTVSPropertyOp43
 70
     1
102
RTVSPropertyOp44
 70
     1
102
RTVSPropertyOp45
 70
     1
102
RTVSPropertyOp46
 70
     1
102
RTVSPropertyOp47
 70
     1
102
RTVSPropertyOp48
 70
     1
102
RTVSPropertyOp49
 70
     1
102
RTVSPropertyOp50
 70
     1
102
RTVSPropertyOp51
 70
     0
102
RTVSPropertyOp52
 70
     0
102
RTVSPropertyOp53
 70
     1
102
RTVSPropertyOp54
 70
     1
102
RTVSPropertyOp55
 70
     1
102
RTVSPropertyOp56
 70
     1
102
RTVSPropertyOp57
 70
     1
102
RTVSPost2010Prop28
280
     0
102
RTVSPost2010PropOp28
 70
     1
102
RTVSPost2010Prop29
280
     1
102
RTVSPost2010PropOp29
 70
     1
102
RTVSPost2010Prop30
280
     1
102
RTVSPost2010PropOp30
 70
     1
102
RTVSPost2010Prop31
280
     0
102
RTVSPost2010PropOp31
 70
     1
102
RTVSPost2010Prop32
280
     0
102
RTVSPost2010PropOp32
 70
     1
102
RTVSPost2010Prop33
280
     0
102
RTVSPost2010PropOp33
 70
     1
102
RTVSPost2010Prop34
280
     0
102
RTVSPost2010PropOp34
 70
     1
102
RTVSPost2010Prop35
280
     0
102
RTVSPost2010PropOp35
 70
     1
102
RTVSPost2010Prop36
280
     0
102
RTVSPost2010PropOp36
 70
     1
102
RTVSPost2010Prop37
 90
       50
102
RTVSPost2010PropOp37
 70
     1
102
RTVSPost2010Prop38
140
0.0
102
RTVSPost2010PropOp38
 70
     1
102
RTVSPost2010Prop39
140
1.0
102
RTVSPost2010PropOp39
 70
     1
102
RTVSPost2010Prop40
 90
        0
102
RTVSPost2010PropOp40
 70
     1
102
RTVSPost2010Prop41ColorIndex
 90
       18
102
RTVSPost2010Prop41ColorRGB
 90
        0
102
RTVSPost2010PropOp41
 70
     1
102
RTVSPost2010Prop42
 90
       50
102
RTVSPost2010PropOp42
 70
     1
102
RTVSPost2010Prop43
 90
        3
102
RTVSPost2010PropOp43
 70
     1
102
RTVSPost2010Prop44ColorIndex
 90
        5
102
RTVSPost2010Prop44ColorRGB
 90
      255
102
RTVSPost2010PropOp44
 70
     1
102
RTVSPost2010Prop45
280
     0
102
RTVSPost2010PropOp45
 70
     1
102
RTVSPost2010Prop46
 90
       50
102
RTVSPost2010PropOp46
 70
     1
102
RTVSPost2010Prop47
 90
       50
102
RTVSPost2010PropOp47
 70
     1
102
RTVSPost2010Prop48
 90
       50
102
RTVSPost2010PropOp48
 70
     1
102
RTVSPost2010Prop49
280
     0
102
RTVSPost2010PropOp49
 70
     1
102
RTVSPost2010Prop50
 90
       50
102
RTVSPost2010PropOp50
 70
     1
102
RTVSPost2010Prop51ColorIndex
 90
      256
102
RTVSPost2010Prop51ColorRGB
 90
-16777216
102
RTVSPost2010PropOp51
 70
     0
102
RTVSPost2010Prop52
140
1.0
102
RTVSPost2010PropOp52
 70
     0
102
RTVSPost2010Prop53
 90
        2
102
RTVSPost2010PropOp53
 70
     1
102
RTVSPost2010Prop54
  1
strokes_ogs.tif
102
RTVSPost2010PropOp54
 70
     1
102
RTVSPost2010Prop55
280
     0
102
RTVSPost2010PropOp55
 70
     1
102
RTVSPost2010Prop56
140
1.0
102
RTVSPost2010PropOp56
 70
     1
102
RTVSPost2010Prop57
140
1.0
102
RTVSPost2010PropOp57
 70
     1
  0
XRECORD
  5
38B
102
{ACAD_REACTORS
330
38A
102
}
330
38A
100
AcDbXrecord
280
     1
102
RTVSPropertyOp0
 70
     1
102
RTVSPropertyOp1
 70
     1
102
RTVSPropertyOp2
 70
     1
102
RTVSPropertyOp3
 70
     1
102
RTVSPropertyOp4
 70
     1
102
RTVSPropertyOp5
 70
     1
102
RTVSPropertyOp6
 70
     1
102
RTVSPropertyOp7
 70
     1
102
RTVSPropertyOp8
 70
     1
102
RTVSPropertyOp9
 70
     1
102
RTVSPropertyOp10
 70
     1
102
RTVSPropertyOp11
 70
     1
102
RTVSPropertyOp12
 70
     1
102
RTVSPropertyOp13
 70
     1
102
RTVSPropertyOp14
 70
     1
102
RTVSPropertyOp15
 70
     1
102
RTVSPropertyOp16
 70
     1
102
RTVSPropertyOp17
 70
     1
102
RTVSPropertyOp18
 70
     1
102
RTVSPropertyOp19
 70
     1
102
RTVSPropertyOp20
 70
     1
102
RTVSPropertyOp21
 70
     1
102
RTVSPropertyOp22
 70
     1
102
RTVSPropertyOp23
 70
     1
102
RTVSPropertyOp24
 70
     1
102
RTVSPropertyOp25
 70
     1
102
RTVSPropertyOp26
 70
     1
102
RTVSPropertyOp27
 70
     1
102
RTVSPropertyOp28
 70
     1
102
RTVSPropertyOp29
 70
     1
102
RTVSPropertyOp30
 70
     1
102
RTVSPropertyOp31
 70
     1
102
RTVSPropertyOp32
 70
     1
102
RTVSPropertyOp33
 70
     1
102
RTVSPropertyOp34
 70
     1
102
RTVSPropertyOp35
 70
     1
102
RTVSPropertyOp36
 70
     1
102
RTVSPropertyOp37
 70
     1
102
RTVSPropertyOp38
 70
     1
102
RTVSPropertyOp39
 70
     1
102
RTVSPropertyOp40
 70
     1
102
RTVSPropertyOp41
 70
     1
102
RTVSPropertyOp42
 70
     1
102
RTVSPropertyOp43
 70
     1
102
RTVSPropertyOp44
 70
     1
102
RTVSPropertyOp45
 70
     1
102
RTVSPropertyOp46
 70
     1
102
RTVSPropertyOp47
 70
     1
102
RTVSPropertyOp48
 70
     1
102
RTVSPropertyOp49
 70
     1
102
RTVSPropertyOp50
 70
     1
102
RTVSPropertyOp51
 70
     0
102
RTVSPropertyOp52
 70
     0
102
RTVSPropertyOp53
 70
     1
102
RTVSPropertyOp54
 70
     1
102
RTVSPropertyOp55
 70
     1
102
RTVSPropertyOp56
 70
     1
102
RTVSPropertyOp57
 70
     1
102
RTVSPost2010Prop28
280
     0
102
RTVSPost2010PropOp28
 70
     1
102
RTVSPost2010Prop29
280
     1
102
RTVSPost2010PropOp29
 70
     1
102
RTVSPost2010Prop30
280
     1
102
RTVSPost2010PropOp30
 70
     1
102
RTVSPost2010Prop31
280
     0
102
RTVSPost2010PropOp31
 70
     1
102
RTVSPost2010Prop32
280
     0
102
RTVSPost2010PropOp32
 70
     1
102
RTVSPost2010Prop33
280
     0
102
RTVSPost2010PropOp33
 70
     1
102
RTVSPost2010Prop34
280
     0
102
RTVSPost2010PropOp34
 70
     1
102
RTVSPost2010Prop35
280
     0
102
RTVSPost2010PropOp35
 70
     1
102
RTVSPost2010Prop36
280
     0
102
RTVSPost2010PropOp36
 70
     1
102
RTVSPost2010Prop37
 90
       50
102
RTVSPost2010PropOp37
 70
     1
102
RTVSPost2010Prop38
140
0.0
102
RTVSPost2010PropOp38
 70
     1
102
RTVSPost2010Prop39
140
1.0
102
RTVSPost2010PropOp39
 70
     1
102
RTVSPost2010Prop40
 90
        0
102
RTVSPost2010PropOp40
 70
     1
102
RTVSPost2010Prop41ColorIndex
 90
       18
102
RTVSPost2010Prop41ColorRGB
 90
        0
102
RTVSPost2010PropOp41
 70
     1
102
RTVSPost2010Prop42
 90
       50
102
RTVSPost2010PropOp42
 70
     1
102
RTVSPost2010Prop43
 90
        3
102
RTVSPost2010PropOp43
 70
     1
102
RTVSPost2010Prop44ColorIndex
 90
        5
102
RTVSPost2010Prop44ColorRGB
 90
      255
102
RTVSPost2010PropOp44
 70
     1
102
RTVSPost2010Prop45
280
     0
102
RTVSPost2010PropOp45
 70
     1
102
RTVSPost2010Prop46
 90
       50
102
RTVSPost2010PropOp46
 70
     1
102
RTVSPost2010Prop47
 90
       50
102
RTVSPost2010PropOp47
 70
     1
102
RTVSPost2010Prop48
 90
       50
102
RTVSPost2010PropOp48
 70
     1
102
RTVSPost2010Prop49
280
     0
102
RTVSPost2010PropOp49
 70
     1
102
RTVSPost2010Prop50
 90
       50
102
RTVSPost2010PropOp50
 70
     1
102
RTVSPost2010Prop51ColorIndex
 90
      256
102
RTVSPost2010Prop51ColorRGB
 90
-16777216
102
RTVSPost2010PropOp51
 70
     0
102
RTVSPost2010Prop52
140
1.0
102
RTVSPost2010PropOp52
 70
     0
102
RTVSPost2010Prop53
 90
        2
102
RTVSPost2010PropOp53
 70
     1
102
RTVSPost2010Prop54
  1
strokes_ogs.tif
102
RTVSPost2010PropOp54
 70
     1
102
RTVSPost2010Prop55
280
     0
102
RTVSPost2010PropOp55
 70
     1
102
RTVSPost2010Prop56
140
1.0
102
RTVSPost2010PropOp56
 70
     1
102
RTVSPost2010Prop57
140
1.0
102
RTVSPost2010PropOp57
 70
     1
  0
XRECORD
  5
389
102
{ACAD_REACTORS
330
388
102
}
330
388
100
AcDbXrecord
280
     1
102
RTVSPropertyOp0
 70
     1
102
RTVSPropertyOp1
 70
     1
102
RTVSPropertyOp2
 70
     1
102
RTVSPropertyOp3
 70
     1
102
RTVSPropertyOp4
 70
     1
102
RTVSPropertyOp5
 70
     1
102
RTVSPropertyOp6
 70
     1
102
RTVSPropertyOp7
 70
     1
102
RTVSPropertyOp8
 70
     1
102
RTVSPropertyOp9
 70
     1
102
RTVSPropertyOp10
 70
     1
102
RTVSPropertyOp11
 70
     1
102
RTVSPropertyOp12
 70
     1
102
RTVSPropertyOp13
 70
     1
102
RTVSPropertyOp14
 70
     1
102
RTVSPropertyOp15
 70
     1
102
RTVSPropertyOp16
 70
     1
102
RTVSPropertyOp17
 70
     1
102
RTVSPropertyOp18
 70
     1
102
RTVSPropertyOp19
 70
     1
102
RTVSPropertyOp20
 70
     1
102
RTVSPropertyOp21
 70
     1
102
RTVSPropertyOp22
 70
     1
102
RTVSPropertyOp23
 70
     1
102
RTVSPropertyOp24
 70
     1
102
RTVSPropertyOp25
 70
     1
102
RTVSPropertyOp26
 70
     1
102
RTVSPropertyOp27
 70
     1
102
RTVSPropertyOp28
 70
     1
102
RTVSPropertyOp29
 70
     1
102
RTVSPropertyOp30
 70
     1
102
RTVSPropertyOp31
 70
     1
102
RTVSPropertyOp32
 70
     1
102
RTVSPropertyOp33
 70
     1
102
RTVSPropertyOp34
 70
     1
102
RTVSPropertyOp35
 70
     1
102
RTVSPropertyOp36
 70
     1
102
RTVSPropertyOp37
 70
     1
102
RTVSPropertyOp38
 70
     1
102
RTVSPropertyOp39
 70
     1
102
RTVSPropertyOp40
 70
     1
102
RTVSPropertyOp41
 70
     1
102
RTVSPropertyOp42
 70
     1
102
RTVSPropertyOp43
 70
     1
102
RTVSPropertyOp44
 70
     1
102
RTVSPropertyOp45
 70
     1
102
RTVSPropertyOp46
 70
     1
102
RTVSPropertyOp47
 70
     1
102
RTVSPropertyOp48
 70
     1
102
RTVSPropertyOp49
 70
     1
102
RTVSPropertyOp50
 70
     1
102
RTVSPropertyOp51
 70
     0
102
RTVSPropertyOp52
 70
     0
102
RTVSPropertyOp53
 70
     1
102
RTVSPropertyOp54
 70
     1
102
RTVSPropertyOp55
 70
     1
102
RTVSPropertyOp56
 70
     1
102
RTVSPropertyOp57
 70
     1
102
RTVSPost2010Prop28
280
     0
102
RTVSPost2010PropOp28
 70
     1
102
RTVSPost2010Prop29
280
     1
102
RTVSPost2010PropOp29
 70
     1
102
RTVSPost2010Prop30
280
     1
102
RTVSPost2010PropOp30
 70
     1
102
RTVSPost2010Prop31
280
     0
102
RTVSPost2010PropOp31
 70
     1
102
RTVSPost2010Prop32
280
     0
102
RTVSPost2010PropOp32
 70
     1
102
RTVSPost2010Prop33
280
     0
102
RTVSPost2010PropOp33
 70
     1
102
RTVSPost2010Prop34
280
     0
102
RTVSPost2010PropOp34
 70
     1
102
RTVSPost2010Prop35
280
     0
102
RTVSPost2010PropOp35
 70
     1
102
RTVSPost2010Prop36
280
     0
102
RTVSPost2010PropOp36
 70
     1
102
RTVSPost2010Prop37
 90
       50
102
RTVSPost2010PropOp37
 70
     1
102
RTVSPost2010Prop38
140
0.0
102
RTVSPost2010PropOp38
 70
     1
102
RTVSPost2010Prop39
140
1.0
102
RTVSPost2010PropOp39
 70
     1
102
RTVSPost2010Prop40
 90
        0
102
RTVSPost2010PropOp40
 70
     1
102
RTVSPost2010Prop41ColorIndex
 90
       18
102
RTVSPost2010Prop41ColorRGB
 90
        0
102
RTVSPost2010PropOp41
 70
     1
102
RTVSPost2010Prop42
 90
       50
102
RTVSPost2010PropOp42
 70
     1
102
RTVSPost2010Prop43
 90
        3
102
RTVSPost2010PropOp43
 70
     1
102
RTVSPost2010Prop44ColorIndex
 90
        5
102
RTVSPost2010Prop44ColorRGB
 90
      255
102
RTVSPost2010PropOp44
 70
     1
102
RTVSPost2010Prop45
280
     0
102
RTVSPost2010PropOp45
 70
     1
102
RTVSPost2010Prop46
 90
       50
102
RTVSPost2010PropOp46
 70
     1
102
RTVSPost2010Prop47
 90
       50
102
RTVSPost2010PropOp47
 70
     1
102
RTVSPost2010Prop48
 90
       50
102
RTVSPost2010PropOp48
 70
     1
102
RTVSPost2010Prop49
280
     0
102
RTVSPost2010PropOp49
 70
     1
102
RTVSPost2010Prop50
 90
       50
102
RTVSPost2010PropOp50
 70
     1
102
RTVSPost2010Prop51ColorIndex
 90
      256
102
RTVSPost2010Prop51ColorRGB
 90
-16777216
102
RTVSPost2010PropOp51
 70
     0
102
RTVSPost2010Prop52
140
1.0
102
RTVSPost2010PropOp52
 70
     0
102
RTVSPost2010Prop53
 90
        2
102
RTVSPost2010PropOp53
 70
     1
102
RTVSPost2010Prop54
  1
strokes_ogs.tif
102
RTVSPost2010PropOp54
 70
     1
102
RTVSPost2010Prop55
280
     0
102
RTVSPost2010PropOp55
 70
     1
102
RTVSPost2010Prop56
140
1.0
102
RTVSPost2010PropOp56
 70
     1
102
RTVSPost2010Prop57
140
1.0
102
RTVSPost2010PropOp57
 70
     1
  0
XRECORD
  5
383
102
{ACAD_REACTORS
330
382
102
}
330
382
100
AcDbXrecord
280
     1
102
RTVSPropertyOp0
 70
     1
102
RTVSPropertyOp1
 70
     1
102
RTVSPropertyOp2
 70
     1
102
RTVSPropertyOp3
 70
     1
102
RTVSPropertyOp4
 70
     1
102
RTVSPropertyOp5
 70
     1
102
RTVSPropertyOp6
 70
     1
102
RTVSPropertyOp7
 70
     1
102
RTVSPropertyOp8
 70
     1
102
RTVSPropertyOp9
 70
     1
102
RTVSPropertyOp10
 70
     1
102
RTVSPropertyOp11
 70
     1
102
RTVSPropertyOp12
 70
     1
102
RTVSPropertyOp13
 70
     1
102
RTVSPropertyOp14
 70
     1
102
RTVSPropertyOp15
 70
     1
102
RTVSPropertyOp16
 70
     1
102
RTVSPropertyOp17
 70
     1
102
RTVSPropertyOp18
 70
     1
102
RTVSPropertyOp19
 70
     1
102
RTVSPropertyOp20
 70
     1
102
RTVSPropertyOp21
 70
     1
102
RTVSPropertyOp22
 70
     1
102
RTVSPropertyOp23
 70
     1
102
RTVSPropertyOp24
 70
     1
102
RTVSPropertyOp25
 70
     1
102
RTVSPropertyOp26
 70
     1
102
RTVSPropertyOp27
 70
     1
102
RTVSPropertyOp28
 70
     1
102
RTVSPropertyOp29
 70
     1
102
RTVSPropertyOp30
 70
     1
102
RTVSPropertyOp31
 70
     1
102
RTVSPropertyOp32
 70
     1
102
RTVSPropertyOp33
 70
     1
102
RTVSPropertyOp34
 70
     1
102
RTVSPropertyOp35
 70
     1
102
RTVSPropertyOp36
 70
     1
102
RTVSPropertyOp37
 70
     1
102
RTVSPropertyOp38
 70
     1
102
RTVSPropertyOp39
 70
     1
102
RTVSPropertyOp40
 70
     1
102
RTVSPropertyOp41
 70
     1
102
RTVSPropertyOp42
 70
     1
102
RTVSPropertyOp43
 70
     1
102
RTVSPropertyOp44
 70
     1
102
RTVSPropertyOp45
 70
     1
102
RTVSPropertyOp46
 70
     1
102
RTVSPropertyOp47
 70
     1
102
RTVSPropertyOp48
 70
     1
102
RTVSPropertyOp49
 70
     1
102
RTVSPropertyOp50
 70
     1
102
RTVSPropertyOp51
 70
     0
102
RTVSPropertyOp52
 70
     0
102
RTVSPropertyOp53
 70
     1
102
RTVSPropertyOp54
 70
     1
102
RTVSPropertyOp55
 70
     1
102
RTVSPropertyOp56
 70
     1
102
RTVSPropertyOp57
 70
     1
102
RTVSPost2010Prop28
280
     0
102
RTVSPost2010PropOp28
 70
     1
102
RTVSPost2010Prop29
280
     1
102
RTVSPost2010PropOp29
 70
     1
102
RTVSPost2010Prop30
280
     1
102
RTVSPost2010PropOp30
 70
     1
102
RTVSPost2010Prop31
280
     0
102
RTVSPost2010PropOp31
 70
     1
102
RTVSPost2010Prop32
280
     0
102
RTVSPost2010PropOp32
 70
     1
102
RTVSPost2010Prop33
280
     0
102
RTVSPost2010PropOp33
 70
     1
102
RTVSPost2010Prop34
280
     0
102
RTVSPost2010PropOp34
 70
     1
102
RTVSPost2010Prop35
280
     0
102
RTVSPost2010PropOp35
 70
     1
102
RTVSPost2010Prop36
280
     0
102
RTVSPost2010PropOp36
 70
     1
102
RTVSPost2010Prop37
 90
       50
102
RTVSPost2010PropOp37
 70
     1
102
RTVSPost2010Prop38
140
0.0
102
RTVSPost2010PropOp38
 70
     1
102
RTVSPost2010Prop39
140
1.0
102
RTVSPost2010PropOp39
 70
     1
102
RTVSPost2010Prop40
 90
        0
102
RTVSPost2010PropOp40
 70
     1
102
RTVSPost2010Prop41ColorIndex
 90
       18
102
RTVSPost2010Prop41ColorRGB
 90
        0
102
RTVSPost2010PropOp41
 70
     1
102
RTVSPost2010Prop42
 90
       50
102
RTVSPost2010PropOp42
 70
     1
102
RTVSPost2010Prop43
 90
        3
102
RTVSPost2010PropOp43
 70
     1
102
RTVSPost2010Prop44ColorIndex
 90
        5
102
RTVSPost2010Prop44ColorRGB
 90
      255
102
RTVSPost2010PropOp44
 70
     1
102
RTVSPost2010Prop45
280
     0
102
RTVSPost2010PropOp45
 70
     1
102
RTVSPost2010Prop46
 90
       50
102
RTVSPost2010PropOp46
 70
     1
102
RTVSPost2010Prop47
 90
       50
102
RTVSPost2010PropOp47
 70
     1
102
RTVSPost2010Prop48
 90
       50
102
RTVSPost2010PropOp48
 70
     1
102
RTVSPost2010Prop49
280
     0
102
RTVSPost2010PropOp49
 70
     1
102
RTVSPost2010Prop50
 90
       50
102
RTVSPost2010PropOp50
 70
     1
102
RTVSPost2010Prop51ColorIndex
 90
      256
102
RTVSPost2010Prop51ColorRGB
 90
-16777216
102
RTVSPost2010PropOp51
 70
     0
102
RTVSPost2010Prop52
140
1.0
102
RTVSPost2010PropOp52
 70
     0
102
RTVSPost2010Prop53
 90
        2
102
RTVSPost2010PropOp53
 70
     1
102
RTVSPost2010Prop54
  1
strokes_ogs.tif
102
RTVSPost2010PropOp54
 70
     1
102
RTVSPost2010Prop55
280
     0
102
RTVSPost2010PropOp55
 70
     1
102
RTVSPost2010Prop56
140
1.0
102
RTVSPost2010PropOp56
 70
     1
102
RTVSPost2010Prop57
140
1.0
102
RTVSPost2010PropOp57
 70
     1
  0
XRECORD
  5
385
102
{ACAD_REACTORS
330
384
102
}
330
384
100
AcDbXrecord
280
     1
102
RTVSPropertyOp0
 70
     1
102
RTVSPropertyOp1
 70
     1
102
RTVSPropertyOp2
 70
     1
102
RTVSPropertyOp3
 70
     1
102
RTVSPropertyOp4
 70
     1
102
RTVSPropertyOp5
 70
     1
102
RTVSPropertyOp6
 70
     1
102
RTVSPropertyOp7
 70
     1
102
RTVSPropertyOp8
 70
     1
102
RTVSPropertyOp9
 70
     1
102
RTVSPropertyOp10
 70
     1
102
RTVSPropertyOp11
 70
     1
102
RTVSPropertyOp12
 70
     1
102
RTVSPropertyOp13
 70
     1
102
RTVSPropertyOp14
 70
     1
102
RTVSPropertyOp15
 70
     1
102
RTVSPropertyOp16
 70
     1
102
RTVSPropertyOp17
 70
     1
102
RTVSPropertyOp18
 70
     1
102
RTVSPropertyOp19
 70
     1
102
RTVSPropertyOp20
 70
     1
102
RTVSPropertyOp21
 70
     1
102
RTVSPropertyOp22
 70
     1
102
RTVSPropertyOp23
 70
     1
102
RTVSPropertyOp24
 70
     1
102
RTVSPropertyOp25
 70
     1
102
RTVSPropertyOp26
 70
     1
102
RTVSPropertyOp27
 70
     1
102
RTVSPropertyOp28
 70
     1
102
RTVSPropertyOp29
 70
     1
102
RTVSPropertyOp30
 70
     1
102
RTVSPropertyOp31
 70
     1
102
RTVSPropertyOp32
 70
     1
102
RTVSPropertyOp33
 70
     1
102
RTVSPropertyOp34
 70
     1
102
RTVSPropertyOp35
 70
     1
102
RTVSPropertyOp36
 70
     1
102
RTVSPropertyOp37
 70
     1
102
RTVSPropertyOp38
 70
     1
102
RTVSPropertyOp39
 70
     1
102
RTVSPropertyOp40
 70
     1
102
RTVSPropertyOp41
 70
     1
102
RTVSPropertyOp42
 70
     1
102
RTVSPropertyOp43
 70
     1
102
RTVSPropertyOp44
 70
     1
102
RTVSPropertyOp45
 70
     1
102
RTVSPropertyOp46
 70
     1
102
RTVSPropertyOp47
 70
     1
102
RTVSPropertyOp48
 70
     1
102
RTVSPropertyOp49
 70
     1
102
RTVSPropertyOp50
 70
     1
102
RTVSPropertyOp51
 70
     0
102
RTVSPropertyOp52
 70
     0
102
RTVSPropertyOp53
 70
     1
102
RTVSPropertyOp54
 70
     1
102
RTVSPropertyOp55
 70
     1
102
RTVSPropertyOp56
 70
     1
102
RTVSPropertyOp57
 70
     1
102
RTVSPost2010Prop28
280
     0
102
RTVSPost2010PropOp28
 70
     1
102
RTVSPost2010Prop29
280
     1
102
RTVSPost2010PropOp29
 70
     1
102
RTVSPost2010Prop30
280
     1
102
RTVSPost2010PropOp30
 70
     1
102
RTVSPost2010Prop31
280
     0
102
RTVSPost2010PropOp31
 70
     1
102
RTVSPost2010Prop32
280
     0
102
RTVSPost2010PropOp32
 70
     1
102
RTVSPost2010Prop33
280
     0
102
RTVSPost2010PropOp33
 70
     1
102
RTVSPost2010Prop34
280
     0
102
RTVSPost2010PropOp34
 70
     1
102
RTVSPost2010Prop35
280
     0
102
RTVSPost2010PropOp35
 70
     1
102
RTVSPost2010Prop36
280
     0
102
RTVSPost2010PropOp36
 70
     1
102
RTVSPost2010Prop37
 90
       50
102
RTVSPost2010PropOp37
 70
     1
102
RTVSPost2010Prop38
140
0.0
102
RTVSPost2010PropOp38
 70
     1
102
RTVSPost2010Prop39
140
1.0
102
RTVSPost2010PropOp39
 70
     1
102
RTVSPost2010Prop40
 90
        0
102
RTVSPost2010PropOp40
 70
     1
102
RTVSPost2010Prop41ColorIndex
 90
       18
102
RTVSPost2010Prop41ColorRGB
 90
        0
102
RTVSPost2010PropOp41
 70
     1
102
RTVSPost2010Prop42
 90
       50
102
RTVSPost2010PropOp42
 70
     1
102
RTVSPost2010Prop43
 90
        3
102
RTVSPost2010PropOp43
 70
     1
102
RTVSPost2010Prop44ColorIndex
 90
        5
102
RTVSPost2010Prop44ColorRGB
 90
      255
102
RTVSPost2010PropOp44
 70
     1
102
RTVSPost2010Prop45
280
     0
102
RTVSPost2010PropOp45
 70
     1
102
RTVSPost2010Prop46
 90
       50
102
RTVSPost2010PropOp46
 70
     1
102
RTVSPost2010Prop47
 90
       50
102
RTVSPost2010PropOp47
 70
     1
102
RTVSPost2010Prop48
 90
       50
102
RTVSPost2010PropOp48
 70
     1
102
RTVSPost2010Prop49
280
     0
102
RTVSPost2010PropOp49
 70
     1
102
RTVSPost2010Prop50
 90
       50
102
RTVSPost2010PropOp50
 70
     1
102
RTVSPost2010Prop51ColorIndex
 90
      256
102
RTVSPost2010Prop51ColorRGB
 90
-16777216
102
RTVSPost2010PropOp51
 70
     0
102
RTVSPost2010Prop52
140
1.0
102
RTVSPost2010PropOp52
 70
     0
102
RTVSPost2010Prop53
 90
        2
102
RTVSPost2010PropOp53
 70
     1
102
RTVSPost2010Prop54
  1
strokes_ogs.tif
102
RTVSPost2010PropOp54
 70
     1
102
RTVSPost2010Prop55
280
     0
102
RTVSPost2010PropOp55
 70
     1
102
RTVSPost2010Prop56
140
1.0
102
RTVSPost2010PropOp56
 70
     1
102
RTVSPost2010Prop57
140
1.0
102
RTVSPost2010PropOp57
 70
     1
  0
XRECORD
  5
375
102
{ACAD_REACTORS
330
374
102
}
330
374
100
AcDbXrecord
280
     1
102
RTVSPropertyOp0
 70
     1
102
RTVSPropertyOp1
 70
     1
102
RTVSPropertyOp2
 70
     1
102
RTVSPropertyOp3
 70
     1
102
RTVSPropertyOp4
 70
     1
102
RTVSPropertyOp5
 70
     1
102
RTVSPropertyOp6
 70
     1
102
RTVSPropertyOp7
 70
     1
102
RTVSPropertyOp8
 70
     1
102
RTVSPropertyOp9
 70
     1
102
RTVSPropertyOp10
 70
     1
102
RTVSPropertyOp11
 70
     1
102
RTVSPropertyOp12
 70
     1
102
RTVSPropertyOp13
 70
     1
102
RTVSPropertyOp14
 70
     1
102
RTVSPropertyOp15
 70
     1
102
RTVSPropertyOp16
 70
     1
102
RTVSPropertyOp17
 70
     1
102
RTVSPropertyOp18
 70
     1
102
RTVSPropertyOp19
 70
     1
102
RTVSPropertyOp20
 70
     1
102
RTVSPropertyOp21
 70
     1
102
RTVSPropertyOp22
 70
     1
102
RTVSPropertyOp23
 70
     1
102
RTVSPropertyOp24
 70
     1
102
RTVSPropertyOp25
 70
     1
102
RTVSPropertyOp26
 70
     1
102
RTVSPropertyOp27
 70
     1
102
RTVSPropertyOp28
 70
     1
102
RTVSPropertyOp29
 70
     1
102
RTVSPropertyOp30
 70
     1
102
RTVSPropertyOp31
 70
     1
102
RTVSPropertyOp32
 70
     1
102
RTVSPropertyOp33
 70
     1
102
RTVSPropertyOp34
 70
     1
102
RTVSPropertyOp35
 70
     1
102
RTVSPropertyOp36
 70
     1
102
RTVSPropertyOp37
 70
     1
102
RTVSPropertyOp38
 70
     1
102
RTVSPropertyOp39
 70
     1
102
RTVSPropertyOp40
 70
     1
102
RTVSPropertyOp41
 70
     1
102
RTVSPropertyOp42
 70
     1
102
RTVSPropertyOp43
 70
     1
102
RTVSPropertyOp44
 70
     1
102
RTVSPropertyOp45
 70
     1
102
RTVSPropertyOp46
 70
     1
102
RTVSPropertyOp47
 70
     1
102
RTVSPropertyOp48
 70
     1
102
RTVSPropertyOp49
 70
     1
102
RTVSPropertyOp50
 70
     1
102
RTVSPropertyOp51
 70
     0
102
RTVSPropertyOp52
 70
     0
102
RTVSPropertyOp53
 70
     1
102
RTVSPropertyOp54
 70
     1
102
RTVSPropertyOp55
 70
     1
102
RTVSPropertyOp56
 70
     1
102
RTVSPropertyOp57
 70
     1
102
RTVSPost2010Prop28
280
     0
102
RTVSPost2010PropOp28
 70
     1
102
RTVSPost2010Prop29
280
     1
102
RTVSPost2010PropOp29
 70
     1
102
RTVSPost2010Prop30
280
     1
102
RTVSPost2010PropOp30
 70
     1
102
RTVSPost2010Prop31
280
     0
102
RTVSPost2010PropOp31
 70
     1
102
RTVSPost2010Prop32
280
     0
102
RTVSPost2010PropOp32
 70
     1
102
RTVSPost2010Prop33
280
     0
102
RTVSPost2010PropOp33
 70
     1
102
RTVSPost2010Prop34
280
     0
102
RTVSPost2010PropOp34
 70
     1
102
RTVSPost2010Prop35
280
     0
102
RTVSPost2010PropOp35
 70
     1
102
RTVSPost2010Prop36
280
     0
102
RTVSPost2010PropOp36
 70
     1
102
RTVSPost2010Prop37
 90
       50
102
RTVSPost2010PropOp37
 70
     1
102
RTVSPost2010Prop38
140
0.0
102
RTVSPost2010PropOp38
 70
     1
102
RTVSPost2010Prop39
140
1.0
102
RTVSPost2010PropOp39
 70
     1
102
RTVSPost2010Prop40
 90
        0
102
RTVSPost2010PropOp40
 70
     1
102
RTVSPost2010Prop41ColorIndex
 90
       18
102
RTVSPost2010Prop41ColorRGB
 90
        0
102
RTVSPost2010PropOp41
 70
     1
102
RTVSPost2010Prop42
 90
       50
102
RTVSPost2010PropOp42
 70
     1
102
RTVSPost2010Prop43
 90
        3
102
RTVSPost2010PropOp43
 70
     1
102
RTVSPost2010Prop44ColorIndex
 90
        5
102
RTVSPost2010Prop44ColorRGB
 90
      255
102
RTVSPost2010PropOp44
 70
     1
102
RTVSPost2010Prop45
280
     0
102
RTVSPost2010PropOp45
 70
     1
102
RTVSPost2010Prop46
 90
       50
102
RTVSPost2010PropOp46
 70
     1
102
RTVSPost2010Prop47
 90
       50
102
RTVSPost2010PropOp47
 70
     1
102
RTVSPost2010Prop48
 90
       50
102
RTVSPost2010PropOp48
 70
     1
102
RTVSPost2010Prop49
280
     0
102
RTVSPost2010PropOp49
 70
     1
102
RTVSPost2010Prop50
 90
       50
102
RTVSPost2010PropOp50
 70
     1
102
RTVSPost2010Prop51ColorIndex
 90
      256
102
RTVSPost2010Prop51ColorRGB
 90
-16777216
102
RTVSPost2010PropOp51
 70
     0
102
RTVSPost2010Prop52
140
1.0
102
RTVSPost2010PropOp52
 70
     0
102
RTVSPost2010Prop53
 90
        2
102
RTVSPost2010PropOp53
 70
     1
102
RTVSPost2010Prop54
  1
strokes_ogs.tif
102
RTVSPost2010PropOp54
 70
     1
102
RTVSPost2010Prop55
280
     0
102
RTVSPost2010PropOp55
 70
     1
102
RTVSPost2010Prop56
140
1.0
102
RTVSPost2010PropOp56
 70
     1
102
RTVSPost2010Prop57
140
1.0
102
RTVSPost2010PropOp57
 70
     1
  0
XRECORD
  5
367
102
{ACAD_REACTORS
330
366
102
}
330
366
100
AcDbXrecord
280
     1
102
RTVSPropertyOp0
 70
     1
102
RTVSPropertyOp1
 70
     1
102
RTVSPropertyOp2
 70
     1
102
RTVSPropertyOp3
 70
     1
102
RTVSPropertyOp4
 70
     1
102
RTVSPropertyOp5
 70
     1
102
RTVSPropertyOp6
 70
     1
102
RTVSPropertyOp7
 70
     1
102
RTVSPropertyOp8
 70
     1
102
RTVSPropertyOp9
 70
     1
102
RTVSPropertyOp10
 70
     1
102
RTVSPropertyOp11
 70
     1
102
RTVSPropertyOp12
 70
     1
102
RTVSPropertyOp13
 70
     1
102
RTVSPropertyOp14
 70
     1
102
RTVSPropertyOp15
 70
     1
102
RTVSPropertyOp16
 70
     1
102
RTVSPropertyOp17
 70
     1
102
RTVSPropertyOp18
 70
     1
102
RTVSPropertyOp19
 70
     1
102
RTVSPropertyOp20
 70
     1
102
RTVSPropertyOp21
 70
     1
102
RTVSPropertyOp22
 70
     1
102
RTVSPropertyOp23
 70
     1
102
RTVSPropertyOp24
 70
     1
102
RTVSPropertyOp25
 70
     1
102
RTVSPropertyOp26
 70
     1
102
RTVSPropertyOp27
 70
     1
102
RTVSPropertyOp28
 70
     1
102
RTVSPropertyOp29
 70
     1
102
RTVSPropertyOp30
 70
     1
102
RTVSPropertyOp31
 70
     1
102
RTVSPropertyOp32
 70
     1
102
RTVSPropertyOp33
 70
     1
102
RTVSPropertyOp34
 70
     1
102
RTVSPropertyOp35
 70
     1
102
RTVSPropertyOp36
 70
     1
102
RTVSPropertyOp37
 70
     1
102
RTVSPropertyOp38
 70
     1
102
RTVSPropertyOp39
 70
     1
102
RTVSPropertyOp40
 70
     1
102
RTVSPropertyOp41
 70
     1
102
RTVSPropertyOp42
 70
     1
102
RTVSPropertyOp43
 70
     1
102
RTVSPropertyOp44
 70
     1
102
RTVSPropertyOp45
 70
     1
102
RTVSPropertyOp46
 70
     1
102
RTVSPropertyOp47
 70
     1
102
RTVSPropertyOp48
 70
     1
102
RTVSPropertyOp49
 70
     1
102
RTVSPropertyOp50
 70
     1
102
RTVSPropertyOp51
 70
     0
102
RTVSPropertyOp52
 70
     0
102
RTVSPropertyOp53
 70
     1
102
RTVSPropertyOp54
 70
     1
102
RTVSPropertyOp55
 70
     1
102
RTVSPropertyOp56
 70
     1
102
RTVSPropertyOp57
 70
     1
102
RTVSPost2010Prop28
280
     0
102
RTVSPost2010PropOp28
 70
     1
102
RTVSPost2010Prop29
280
     1
102
RTVSPost2010PropOp29
 70
     1
102
RTVSPost2010Prop30
280
     1
102
RTVSPost2010PropOp30
 70
     1
102
RTVSPost2010Prop31
280
     0
102
RTVSPost2010PropOp31
 70
     1
102
RTVSPost2010Prop32
280
     0
102
RTVSPost2010PropOp32
 70
     1
102
RTVSPost2010Prop33
280
     0
102
RTVSPost2010PropOp33
 70
     1
102
RTVSPost2010Prop34
280
     0
102
RTVSPost2010PropOp34
 70
     1
102
RTVSPost2010Prop35
280
     0
102
RTVSPost2010PropOp35
 70
     1
102
RTVSPost2010Prop36
280
     0
102
RTVSPost2010PropOp36
 70
     1
102
RTVSPost2010Prop37
 90
       50
102
RTVSPost2010PropOp37
 70
     1
102
RTVSPost2010Prop38
140
0.0
102
RTVSPost2010PropOp38
 70
     1
102
RTVSPost2010Prop39
140
1.0
102
RTVSPost2010PropOp39
 70
     1
102
RTVSPost2010Prop40
 90
        0
102
RTVSPost2010PropOp40
 70
     1
102
RTVSPost2010Prop41ColorIndex
 90
       18
102
RTVSPost2010Prop41ColorRGB
 90
        0
102
RTVSPost2010PropOp41
 70
     1
102
RTVSPost2010Prop42
 90
       50
102
RTVSPost2010PropOp42
 70
     1
102
RTVSPost2010Prop43
 90
        3
102
RTVSPost2010PropOp43
 70
     1
102
RTVSPost2010Prop44ColorIndex
 90
        5
102
RTVSPost2010Prop44ColorRGB
 90
      255
102
RTVSPost2010PropOp44
 70
     1
102
RTVSPost2010Prop45
280
     0
102
RTVSPost2010PropOp45
 70
     1
102
RTVSPost2010Prop46
 90
       50
102
RTVSPost2010PropOp46
 70
     1
102
RTVSPost2010Prop47
 90
       50
102
RTVSPost2010PropOp47
 70
     1
102
RTVSPost2010Prop48
 90
       50
102
RTVSPost2010PropOp48
 70
     1
102
RTVSPost2010Prop49
280
     0
102
RTVSPost2010PropOp49
 70
     1
102
RTVSPost2010Prop50
 90
       50
102
RTVSPost2010PropOp50
 70
     1
102
RTVSPost2010Prop51ColorIndex
 90
      256
102
RTVSPost2010Prop51ColorRGB
 90
-16777216
102
RTVSPost2010PropOp51
 70
     0
102
RTVSPost2010Prop52
140
1.0
102
RTVSPost2010PropOp52
 70
     0
102
RTVSPost2010Prop53
 90
        2
102
RTVSPost2010PropOp53
 70
     1
102
RTVSPost2010Prop54
  1
strokes_ogs.tif
102
RTVSPost2010PropOp54
 70
     1
102
RTVSPost2010Prop55
280
     0
102
RTVSPost2010PropOp55
 70
     1
102
RTVSPost2010Prop56
140
1.0
102
RTVSPost2010PropOp56
 70
     1
102
RTVSPost2010Prop57
140
1.0
102
RTVSPost2010PropOp57
 70
     1
  0
XRECORD
  5
387
102
{ACAD_REACTORS
330
386
102
}
330
386
100
AcDbXrecord
280
     1
102
RTVSPropertyOp0
 70
     1
102
RTVSPropertyOp1
 70
     1
102
RTVSPropertyOp2
 70
     1
102
RTVSPropertyOp3
 70
     1
102
RTVSPropertyOp4
 70
     1
102
RTVSPropertyOp5
 70
     1
102
RTVSPropertyOp6
 70
     1
102
RTVSPropertyOp7
 70
     1
102
RTVSPropertyOp8
 70
     1
102
RTVSPropertyOp9
 70
     1
102
RTVSPropertyOp10
 70
     1
102
RTVSPropertyOp11
 70
     1
102
RTVSPropertyOp12
 70
     1
102
RTVSPropertyOp13
 70
     1
102
RTVSPropertyOp14
 70
     1
102
RTVSPropertyOp15
 70
     1
102
RTVSPropertyOp16
 70
     1
102
RTVSPropertyOp17
 70
     1
102
RTVSPropertyOp18
 70
     1
102
RTVSPropertyOp19
 70
     1
102
RTVSPropertyOp20
 70
     1
102
RTVSPropertyOp21
 70
     1
102
RTVSPropertyOp22
 70
     1
102
RTVSPropertyOp23
 70
     1
102
RTVSPropertyOp24
 70
     1
102
RTVSPropertyOp25
 70
     1
102
RTVSPropertyOp26
 70
     1
102
RTVSPropertyOp27
 70
     1
102
RTVSPropertyOp28
 70
     1
102
RTVSPropertyOp29
 70
     1
102
RTVSPropertyOp30
 70
     1
102
RTVSPropertyOp31
 70
     1
102
RTVSPropertyOp32
 70
     1
102
RTVSPropertyOp33
 70
     1
102
RTVSPropertyOp34
 70
     1
102
RTVSPropertyOp35
 70
     1
102
RTVSPropertyOp36
 70
     1
102
RTVSPropertyOp37
 70
     1
102
RTVSPropertyOp38
 70
     1
102
RTVSPropertyOp39
 70
     1
102
RTVSPropertyOp40
 70
     1
102
RTVSPropertyOp41
 70
     1
102
RTVSPropertyOp42
 70
     1
102
RTVSPropertyOp43
 70
     1
102
RTVSPropertyOp44
 70
     1
102
RTVSPropertyOp45
 70
     1
102
RTVSPropertyOp46
 70
     1
102
RTVSPropertyOp47
 70
     1
102
RTVSPropertyOp48
 70
     1
102
RTVSPropertyOp49
 70
     1
102
RTVSPropertyOp50
 70
     1
102
RTVSPropertyOp51
 70
     0
102
RTVSPropertyOp52
 70
     0
102
RTVSPropertyOp53
 70
     1
102
RTVSPropertyOp54
 70
     1
102
RTVSPropertyOp55
 70
     1
102
RTVSPropertyOp56
 70
     1
102
RTVSPropertyOp57
 70
     1
102
RTVSPost2010Prop28
280
     0
102
RTVSPost2010PropOp28
 70
     1
102
RTVSPost2010Prop29
280
     1
102
RTVSPost2010PropOp29
 70
     1
102
RTVSPost2010Prop30
280
     1
102
RTVSPost2010PropOp30
 70
     1
102
RTVSPost2010Prop31
280
     0
102
RTVSPost2010PropOp31
 70
     1
102
RTVSPost2010Prop32
280
     0
102
RTVSPost2010PropOp32
 70
     1
102
RTVSPost2010Prop33
280
     0
102
RTVSPost2010PropOp33
 70
     1
102
RTVSPost2010Prop34
280
     0
102
RTVSPost2010PropOp34
 70
     1
102
RTVSPost2010Prop35
280
     0
102
RTVSPost2010PropOp35
 70
     1
102
RTVSPost2010Prop36
280
     0
102
RTVSPost2010PropOp36
 70
     1
102
RTVSPost2010Prop37
 90
       50
102
RTVSPost2010PropOp37
 70
     1
102
RTVSPost2010Prop38
140
0.0
102
RTVSPost2010PropOp38
 70
     1
102
RTVSPost2010Prop39
140
1.0
102
RTVSPost2010PropOp39
 70
     1
102
RTVSPost2010Prop40
 90
        0
102
RTVSPost2010PropOp40
 70
     1
102
RTVSPost2010Prop41ColorIndex
 90
       18
102
RTVSPost2010Prop41ColorRGB
 90
        0
102
RTVSPost2010PropOp41
 70
     1
102
RTVSPost2010Prop42
 90
       50
102
RTVSPost2010PropOp42
 70
     1
102
RTVSPost2010Prop43
 90
        3
102
RTVSPost2010PropOp43
 70
     1
102
RTVSPost2010Prop44ColorIndex
 90
        5
102
RTVSPost2010Prop44ColorRGB
 90
      255
102
RTVSPost2010PropOp44
 70
     1
102
RTVSPost2010Prop45
280
     0
102
RTVSPost2010PropOp45
 70
     1
102
RTVSPost2010Prop46
 90
       50
102
RTVSPost2010PropOp46
 70
     1
102
RTVSPost2010Prop47
 90
       50
102
RTVSPost2010PropOp47
 70
     1
102
RTVSPost2010Prop48
 90
       50
102
RTVSPost2010PropOp48
 70
     1
102
RTVSPost2010Prop49
280
     0
102
RTVSPost2010PropOp49
 70
     1
102
RTVSPost2010Prop50
 90
       50
102
RTVSPost2010PropOp50
 70
     1
102
RTVSPost2010Prop51ColorIndex
 90
      256
102
RTVSPost2010Prop51ColorRGB
 90
-16777216
102
RTVSPost2010PropOp51
 70
     0
102
RTVSPost2010Prop52
140
1.0
102
RTVSPost2010PropOp52
 70
     0
102
RTVSPost2010Prop53
 90
        2
102
RTVSPost2010PropOp53
 70
     1
102
RTVSPost2010Prop54
  1
strokes_ogs.tif
102
RTVSPost2010PropOp54
 70
     1
102
RTVSPost2010Prop55
280
     0
102
RTVSPost2010PropOp55
 70
     1
102
RTVSPost2010Prop56
140
1.0
102
RTVSPost2010PropOp56
 70
     1
102
RTVSPost2010Prop57
140
1.0
102
RTVSPost2010PropOp57
 70
     1
  0
ENDSEC
  0
EOF
