  0
SECTION
  2
HEADER
  9
$ACADVER
  1
AC1018
  9
$ACADMAINTVER
 70
     0
  9
$DWGCODEPAGE
  3
ANSI_1252
  9
$INSBASE
 10
0.0
 20
0.0
 30
0.0
  9
$EXTMIN
 10
-234.2250008692238
 20
-1.46730497967121
 30
0.0
  9
$EXTMAX
 10
62.77499913077423
 20
208.5326950203289
 30
0.0
  9
$LIMMIN
 10
0.0
 20
0.0
  9
$LIMMAX
 10
12.0
 20
9.0
  9
$ORTHOMODE
 70
     0
  9
$REGENMODE
 70
     1
  9
$FILLMODE
 70
     1
  9
$QTEXTMODE
 70
     0
  9
$MIRRTEXT
 70
     1
  9
$LTSCALE
 40
1.0
  9
$ATTMODE
 70
     1
  9
$TEXTSIZE
 40
0.2
  9
$TRACEWID
 40
0.05
  9
$TEXTSTYLE
  7
Standard
  9
$CLAYER
  8
0
  9
$CELTYPE
  6
ByLayer
  9
$CECOLOR
 62
   256
  9
$CELTSCALE
 40
1.0
  9
$DISPSILH
 70
     0
  9
$DIMSCALE
 40
1.0
  9
$DIMASZ
 40
0.18
  9
$DIMEXO
 40
0.0625
  9
$DIMDLI
 40
0.38
  9
$DIMRND
 40
0.0
  9
$DIMDLE
 40
0.0
  9
$DIMEXE
 40
0.18
  9
$DIMTP
 40
0.0
  9
$DIMTM
 40
0.0
  9
$DIMTXT
 40
0.18
  9
$DIMCEN
 40
0.09
  9
$DIMTSZ
 40
0.0
  9
$DIMTOL
 70
     0
  9
$DIMLIM
 70
     0
  9
$DIMTIH
 70
     1
  9
$DIMTOH
 70
     1
  9
$DIMSE1
 70
     0
  9
$DIMSE2
 70
     0
  9
$DIMTAD
 70
     0
  9
$DIMZIN
 70
     0
  9
$DIMBLK
  1

  9
$DIMASO
 70
     1
  9
$DIMSHO
 70
     1
  9
$DIMPOST
  1

  9
$DIMAPOST
  1

  9
$DIMALT
 70
     0
  9
$DIMALTD
 70
     2
  9
$DIMALTF
 40
25.4
  9
$DIMLFAC
 40
1.0
  9
$DIMTOFL
 70
     0
  9
$DIMTVP
 40
0.0
  9
$DIMTIX
 70
     0
  9
$DIMSOXD
 70
     0
  9
$DIMSAH
 70
     0
  9
$DIMBLK1
  1

  9
$DIMBLK2
  1

  9
$DIMSTYLE
  2
Standard
  9
$DIMCLRD
 70
     0
  9
$DIMCLRE
 70
     0
  9
$DIMCLRT
 70
     0
  9
$DIMTFAC
 40
1.0
  9
$DIMGAP
 40
0.09
  9
$DIMJUST
 70
     0
  9
$DIMSD1
 70
     0
  9
$DIMSD2
 70
     0
  9
$DIMTOLJ
 70
     1
  9
$DIMTZIN
 70
     0
  9
$DIMALTZ
 70
     0
  9
$DIMALTTZ
 70
     0
  9
$DIMUPT
 70
     0
  9
$DIMDEC
 70
     4
  9
$DIMTDEC
 70
     4
  9
$DIMALTU
 70
     2
  9
$DIMALTTD
 70
     2
  9
$DIMTXSTY
  7
Standard
  9
$DIMAUNIT
 70
     0
  9
$DIMADEC
 70
     0
  9
$DIMALTRND
 40
0.0
  9
$DIMAZIN
 70
     0
  9
$DIMDSEP
 70
    46
  9
$DIMATFIT
 70
     3
  9
$DIMFRAC
 70
     0
  9
$DIMLDRBLK
  1

  9
$DIMLUNIT
 70
     2
  9
$DIMLWD
 70
    -2
  9
$DIMLWE
 70
    -2
  9
$DIMTMOVE
 70
     0
  9
$LUNITS
 70
     2
  9
$LUPREC
 70
     4
  9
$SKETCHINC
 40
0.1
  9
$FILLETRAD
 40
0.5
  9
$AUNITS
 70
     0
  9
$AUPREC
 70
     0
  9
$MENU
  1
.
  9
$ELEVATION
 40
0.0
  9
$PELEVATION
 40
0.0
  9
$THICKNESS
 40
0.0
  9
$LIMCHECK
 70
     0
  9
$CHAMFERA
 40
0.5
  9
$CHAMFERB
 40
0.5
  9
$CHAMFERC
 40
1.0
  9
$CHAMFERD
 40
0.0
  9
$SKPOLY
 70
     0
  9
$TDCREATE
 40
2458403.374749653
  9
$TDUCREATE
 40
2458403.29141632
  9
$TDUPDATE
 40
2458403.374750382
  9
$TDUUPDATE
 40
2458403.291417049
  9
$TDINDWG
 40
0.0000000116
  9
$TDUSRTIMER
 40
0.0000000116
  9
$USRTIMER
 70
     1
  9
$ANGBASE
 50
0.0
  9
$ANGDIR
 70
     0
  9
$PDMODE
 70
     0
  9
$PDSIZE
 40
0.0
  9
$PLINEWID
 40
0.0
  9
$SPLFRAME
 70
     0
  9
$SPLINETYPE
 70
     6
  9
$SPLINESEGS
 70
     8
  9
$HANDSEED
  5
504
  9
$SURFTAB1
 70
     6
  9
$SURFTAB2
 70
     6
  9
$SURFTYPE
 70
     6
  9
$SURFU
 70
     6
  9
$SURFV
 70
     6
  9
$UCSBASE
  2

  9
$UCSNAME
  2

  9
$UCSORG
 10
0.0
 20
0.0
 30
0.0
  9
$UCSXDIR
 10
1.0
 20
0.0
 30
0.0
  9
$UCSYDIR
 10
0.0
 20
1.0
 30
0.0
  9
$UCSORTHOREF
  2

  9
$UCSORTHOVIEW
 70
     0
  9
$UCSORGTOP
 10
0.0
 20
0.0
 30
0.0
  9
$UCSORGBOTTOM
 10
0.0
 20
0.0
 30
0.0
  9
$UCSORGLEFT
 10
0.0
 20
0.0
 30
0.0
  9
$UCSORGRIGHT
 10
0.0
 20
0.0
 30
0.0
  9
$UCSORGFRONT
 10
0.0
 20
0.0
 30
0.0
  9
$UCSORGBACK
 10
0.0
 20
0.0
 30
0.0
  9
$PUCSBASE
  2

  9
$PUCSNAME
  2

  9
$PUCSORG
 10
0.0
 20
0.0
 30
0.0
  9
$PUCSXDIR
 10
1.0
 20
0.0
 30
0.0
  9
$PUCSYDIR
 10
0.0
 20
1.0
 30
0.0
  9
$PUCSORTHOREF
  2

  9
$PUCSORTHOVIEW
 70
     0
  9
$PUCSORGTOP
 10
0.0
 20
0.0
 30
0.0
  9
$PUCSORGBOTTOM
 10
0.0
 20
0.0
 30
0.0
  9
$PUCSORGLEFT
 10
0.0
 20
0.0
 30
0.0
  9
$PUCSORGRIGHT
 10
0.0
 20
0.0
 30
0.0
  9
$PUCSORGFRONT
 10
0.0
 20
0.0
 30
0.0
  9
$PUCSORGBACK
 10
0.0
 20
0.0
 30
0.0
  9
$USERI1
 70
     0
  9
$USERI2
 70
     0
  9
$USERI3
 70
     0
  9
$USERI4
 70
     0
  9
$USERI5
 70
     0
  9
$USERR1
 40
18.1
  9
$USERR2
 40
0.0
  9
$USERR3
 40
0.0
  9
$USERR4
 40
0.0
  9
$USERR5
 40
0.0
  9
$WORLDVIEW
 70
     1
  9
$SHADEDGE
 70
     3
  9
$SHADEDIF
 70
    70
  9
$TILEMODE
 70
     1
  9
$MAXACTVP
 70
    64
  9
$PINSBASE
 10
0.0
 20
0.0
 30
0.0
  9
$PLIMCHECK
 70
     0
  9
$PEXTMIN
 10
1.00000000000000E+20
 20
1.00000000000000E+20
 30
1.00000000000000E+20
  9
$PEXTMAX
 10
-1.00000000000000E+20
 20
-1.00000000000000E+20
 30
-1.00000000000000E+20
  9
$PLIMMIN
 10
0.0
 20
0.0
  9
$PLIMMAX
 10
12.0
 20
9.0
  9
$UNITMODE
 70
     0
  9
$VISRETAIN
 70
     1
  9
$PLINEGEN
 70
     0
  9
$PSLTSCALE
 70
     1
  9
$TREEDEPTH
 70
  3020
  9
$CMLSTYLE
  2
Standard
  9
$CMLJUST
 70
     0
  9
$CMLSCALE
 40
1.0
  9
$PROXYGRAPHICS
 70
     1
  9
$MEASUREMENT
 70
     1
  9
$CELWEIGHT
370
    -1
  9
$ENDCAPS
280
     0
  9
$JOINSTYLE
280
     0
  9
$LWDISPLAY
290
     0
  9
$INSUNITS
 70
     4
  9
$HYPERLINKBASE
  1

  9
$STYLESHEET
  1

  9
$XEDIT
290
     1
  9
$CEPSNTYPE
380
     0
  9
$PSTYLEMODE
290
     1
  9
$FINGERPRINTGUID
  2
{7B0A8558-A850-469E-8C0E-ED33476293C3}
  9
$VERSIONGUID
  2
{FAEB1C32-E019-11D5-929B-00C0DF256EC4}
  9
$EXTNAMES
290
     1
  9
$PSVPSCALE
 40
0.0
  9
$OLESTARTUP
290
     0
  9
$SORTENTS
280
   127
  9
$INDEXCTL
280
     0
  9
$HIDETEXT
280
     1
  9
$XCLIPFRAME
290
     0
  9
$HALOGAP
280
     0
  9
$OBSCOLOR
 70
   257
  9
$OBSLTYPE
280
     0
  9
$INTERSECTIONDISPLAY
280
     0
  9
$INTERSECTIONCOLOR
 70
   257
  9
$DIMASSOC
280
     2
  9
$PROJECTNAME
  1

  0
ENDSEC
  0
SECTION
  2
CLASSES
  0
CLASS
  1
ACDBDICTIONARYWDFLT
  2
AcDbDictionaryWithDefault
  3
ObjectDBX Classes
 90
        0
 91
        4
280
     0
281
     0
  0
CLASS
  1
VISUALSTYLE
  2
AcDbVisualStyle
  3
ObjectDBX Classes
 90
     4095
 91
        4
280
     0
281
     0
  0
CLASS
  1
MATERIAL
  2
AcDbMaterial
  3
ObjectDBX Classes
 90
     1153
 91
        4
280
     0
281
     0
  0
ENDSEC
  0
SECTION
  2
TABLES
  0
TABLE
  2
VPORT
  5
8
330
0
100
AcDbSymbolTable
 70
     1
  0
VPORT
  5
29
330
8
100
AcDbSymbolTableRecord
100
AcDbViewportTableRecord
  2
*Active
 70
     0
 10
0.0
 20
0.0
 11
1.0
 21
1.0
 12
-85.72500086922479
 22
103.5326950203288
 13
0.0
 23
0.0
 14
0.5
 24
0.5
 15
0.5
 25
0.5
 16
0.0
 26
0.0
 36
1.0
 17
0.0
 27
0.0
 37
0.0
 40
231.0000000000001
 41
1.60267857142857
 42
50.0
 43
0.0
 44
0.0
 50
0.0
 51
0.0
 71
     0
 72
   100
 73
     1
 74
     3
 75
     0
 76
     0
 77
     0
 78
     0
281
     0
 65
     1
110
0.0
120
0.0
130
0.0
111
1.0
121
0.0
131
0.0
112
0.0
122
1.0
132
0.0
 79
     0
146
0.0
  0
ENDTAB
  0
TABLE
  2
LTYPE
  5
5
330
0
100
AcDbSymbolTable
 70
     8
  0
LTYPE
  5
14
330
5
100
AcDbSymbolTableRecord
100
AcDbLinetypeTableRecord
  2
ByBlock
 70
     0
  3

 72
    65
 73
     0
 40
0.0
  0
LTYPE
  5
15
330
5
100
AcDbSymbolTableRecord
100
AcDbLinetypeTableRecord
  2
ByLayer
 70
     0
  3

 72
    65
 73
     0
 40
0.0
  0
LTYPE
  5
16
330
5
100
AcDbSymbolTableRecord
100
AcDbLinetypeTableRecord
  2
Continuous
 70
     0
  3
Solid line
 72
    65
 73
     0
 40
0.0
  0
LTYPE
  5
3F
330
5
100
AcDbSymbolTableRecord
100
AcDbLinetypeTableRecord
  2
DASHED
 70
     0
  3
Dashed
 72
    65
 73
     2
 40
15.0
 49
7.0
 74
     0
 49
-8.0
 74
     0
  0
LTYPE
  5
40
330
5
100
AcDbSymbolTableRecord
100
AcDbLinetypeTableRecord
  2
DOTTED
 70
     0
  3
Dotted
 72
    65
 73
     2
 40
1.0
 49
0.0
 74
     0
 49
-1.0
 74
     0
  0
LTYPE
  5
41
330
5
100
AcDbSymbolTableRecord
100
AcDbLinetypeTableRecord
  2
DOT_CENTER
 70
     0
  3
Dot_Center
 72
    65
 73
     4
 40
14.0
 49
12.0
 74
     0
 49
-1.0
 74
     0
 49
0.0
 74
     0
 49
-1.0
 74
     0
  0
LTYPE
  5
42
330
5
100
AcDbSymbolTableRecord
100
AcDbLinetypeTableRecord
  2
LONG_DASHED
 70
     0
  3
Long_Dashed
 72
    65
 73
     2
 40
15.0
 49
10.0
 74
     0
 49
-5.0
 74
     0
  0
LTYPE
  5
43
330
5
100
AcDbSymbolTableRecord
100
AcDbLinetypeTableRecord
  2
DASH_CENTER
 70
     0
  3
Dash_Center
 72
    65
 73
     4
 40
14.0
 49
11.0
 74
     0
 49
-1.0
 74
     0
 49
1.0
 74
     0
 49
-1.0
 74
     0
  0
LTYPE
  5
44
330
5
100
AcDbSymbolTableRecord
100
AcDbLinetypeTableRecord
  2
PHANTOM
 70
     0
  3
Phantom
 72
    65
 73
     6
 40
13.0
 49
10.0
 74
     0
 49
-1.0
 74
     0
 49
0.0
 74
     0
 49
-1.0
 74
     0
 49
0.0
 74
     0
 49
-1.0
 74
     0
  0
LTYPE
  5
45
330
5
100
AcDbSymbolTableRecord
100
AcDbLinetypeTableRecord
  2
CENTER_DASH_DASH
 70
     0
  3
Center_Dash_Dash
 72
    65
 73
     6
 40
14.0
 49
9.0
 74
     0
 49
-1.0
 74
     0
 49
1.0
 74
     0
 49
-1.0
 74
     0
 49
1.0
 74
     0
 49
-1.0
 74
     0
  0
ENDTAB
  0
TABLE
  2
LAYER
  5
2
330
0
100
AcDbSymbolTable
 70
     2
  0
LAYER
  5
10
330
2
100
AcDbSymbolTableRecord
100
AcDbLayerTableRecord
  2
0
 70
     0
 62
     7
  6
Continuous
370
    -3
390
F
  0
LAYER
  5
46
330
2
100
AcDbSymbolTableRecord
100
AcDbLayerTableRecord
  2
1
 70
     0
 62
     7
  6
Continuous
370
    -3
390
F
  0
ENDTAB
  0
TABLE
  2
STYLE
  5
3
330
0
100
AcDbSymbolTable
 70
     5
  0
STYLE
  5
11
330
3
100
AcDbSymbolTableRecord
100
AcDbTextStyleTableRecord
  2
Standard
 70
     0
 40
0.0
 41
1.0
 50
0.0
 71
     0
 42
0.2
  3
txt
  4

  0
STYLE
  5
16B
330
3
100
AcDbSymbolTableRecord
100
AcDbTextStyleTableRecord
  2
CONVERTER_11
 70
     0
 40
0.0
 41
0.9
 50
0.0
 71
     0
 42
0.2
  3
txt.shx
  4

  0
STYLE
  5
49A
330
3
100
AcDbSymbolTableRecord
100
AcDbTextStyleTableRecord
  2
CONVERTER_12
 70
     0
 40
0.0
 41
0.81
 50
0.0
 71
     0
 42
0.2
  3
txt.shx
  4

  0
STYLE
  5
4A0
330
3
100
AcDbSymbolTableRecord
100
AcDbTextStyleTableRecord
  2
CONVERTER_13
 70
     0
 40
0.0
 41
0.855
 50
0.0
 71
     0
 42
0.2
  3
txt.shx
  4

  0
STYLE
  5
4A3
330
3
100
AcDbSymbolTableRecord
100
AcDbTextStyleTableRecord
  2
CONVERTER_14
 70
     0
 40
0.0
 41
0.72
 50
0.0
 71
     0
 42
0.2
  3
txt.shx
  4

  0
ENDTAB
  0
TABLE
  2
VIEW
  5
6
330
0
100
AcDbSymbolTable
 70
     0
  0
ENDTAB
  0
TABLE
  2
UCS
  5
7
330
0
100
AcDbSymbolTable
 70
     0
  0
ENDTAB
  0
TABLE
  2
APPID
  5
9
330
0
100
AcDbSymbolTable
 70
     1
  0
APPID
  5
12
330
9
100
AcDbSymbolTableRecord
100
AcDbRegAppTableRecord
  2
ACAD
 70
     0
  0
ENDTAB
  0
TABLE
  2
DIMSTYLE
  5
A
330
0
100
AcDbSymbolTable
 70
     7
100
AcDbDimStyleTable
  0
DIMSTYLE
105
27
330
A
100
AcDbSymbolTableRecord
100
AcDbDimStyleTableRecord
  2
Standard
 70
     0
178
     0
340
11
  0
DIMSTYLE
105
1DD
102
{ACAD_REACTORS
330
1DE
102
}
330
A
100
AcDbSymbolTableRecord
100
AcDbDimStyleTableRecord
  2
ME10_DIM_10
 70
     0
 41
3.5
 42
0.0
 44
1.5
 73
     0
 74
     0
 77
     1
 78
     8
140
3.5
147
1.5
172
     1
173
     1
174
     1
175
     1
176
     2
177
     2
178
     3
340
16B
  0
DIMSTYLE
105
375
102
{ACAD_REACTORS
330
376
102
}
330
A
100
AcDbSymbolTableRecord
100
AcDbDimStyleTableRecord
  2
ME10_DIM_11
 70
     0
 41
3.5
 42
0.0
 44
1.5
 73
     0
 74
     0
 77
     1
 78
     8
140
3.5
147
1.5
172
     1
173
     1
174
     1
175
     1
176
     2
177
     2
178
     3
340
16B
  0
DIMSTYLE
105
380
102
{ACAD_REACTORS
330
381
102
}
330
A
100
AcDbSymbolTableRecord
100
AcDbDimStyleTableRecord
  2
ME10_DIM_12
 70
     0
 41
3.5
 42
0.0
 44
1.5
 73
     0
 74
     0
 77
     1
 78
     8
140
3.5
147
1.5
172
     1
173
     1
174
     1
175
     1
176
     2
177
     2
178
     3
340
16B
  0
DIMSTYLE
105
38B
102
{ACAD_REACTORS
330
38C
102
}
330
A
100
AcDbSymbolTableRecord
100
AcDbDimStyleTableRecord
  2
ME10_DIM_13
 70
     0
 41
3.5
 42
0.0
 44
1.5
 73
     0
 74
     0
 77
     1
 78
     8
140
3.5
147
1.5
172
     1
173
     1
174
     1
175
     1
176
     2
177
     2
178
     3
340
16B
  0
DIMSTYLE
105
396
102
{ACAD_REACTORS
330
397
102
}
330
A
100
AcDbSymbolTableRecord
100
AcDbDimStyleTableRecord
  2
ME10_DIM_14
 70
     0
 41
3.5
 42
0.0
 44
1.5
 73
     0
 74
     0
 77
     1
 78
     8
140
3.5
147
1.5
172
     1
173
     1
174
     1
175
     1
176
     2
177
     2
271
     1
178
     3
271
     1
340
16B
  0
DIMSTYLE
105
3A1
102
{ACAD_REACTORS
330
3A2
102
}
330
A
100
AcDbSymbolTableRecord
100
AcDbDimStyleTableRecord
  2
ME10_DIM_15
 70
     0
 41
3.5
 42
0.0
 44
2.0
 73
     0
 74
     0
 77
     1
 78
     8
140
3.5
147
2.0
172
     1
173
     1
174
     1
175
     1
176
     2
177
     2
178
     3
340
16B
  0
ENDTAB
  0
TABLE
  2
BLOCK_RECORD
  5
1
330
0
100
AcDbSymbolTable
 70
    23
  0
BLOCK_RECORD
  5
1F
330
1
100
AcDbSymbolTableRecord
100
AcDbBlockTableRecord
  2
*Model_Space
340
22
  0
BLOCK_RECORD
  5
1B
330
1
100
AcDbSymbolTableRecord
100
AcDbBlockTableRecord
  2
*Paper_Space
340
1E
  0
BLOCK_RECORD
  5
23
330
1
100
AcDbSymbolTableRecord
100
AcDbBlockTableRecord
  2
*Paper_Space0
340
26
  0
BLOCK_RECORD
  5
47
330
1
100
AcDbSymbolTableRecord
100
AcDbBlockTableRecord
  2
E_NS_35_N_select__1
340
0
102
{BLKREFS
331
4B
102
}
  0
BLOCK_RECORD
  5
4A
330
1
100
AcDbSymbolTableRecord
100
AcDbBlockTableRecord
  2
AllgSicht1
340
0
102
{BLKREFS
331
7D
102
}
  0
BLOCK_RECORD
  5
4E
330
1
100
AcDbSymbolTableRecord
100
AcDbBlockTableRecord
  2
E_NS_35_N_select__2
340
0
102
{BLKREFS
331
52
102
}
  0
BLOCK_RECORD
  5
51
330
1
100
AcDbSymbolTableRecord
100
AcDbBlockTableRecord
  2
Drfsicht1
340
0
102
{BLKREFS
331
7E
102
}
  0
BLOCK_RECORD
  5
55
330
1
100
AcDbSymbolTableRecord
100
AcDbBlockTableRecord
  2
E_NS_35_N_select__3
340
0
102
{BLKREFS
331
59
102
}
  0
BLOCK_RECORD
  5
58
330
1
100
AcDbSymbolTableRecord
100
AcDbBlockTableRecord
  2
Rckans1
340
0
102
{BLKREFS
331
7F
102
}
  0
BLOCK_RECORD
  5
5C
330
1
100
AcDbSymbolTableRecord
100
AcDbBlockTableRecord
  2
E_NS_35_N_select__4
340
0
102
{BLKREFS
331
60
102
}
  0
BLOCK_RECORD
  5
5F
330
1
100
AcDbSymbolTableRecord
100
AcDbBlockTableRecord
  2
SA_Rechts1
340
0
102
{BLKREFS
331
80
102
}
  0
BLOCK_RECORD
  5
63
330
1
100
AcDbSymbolTableRecord
100
AcDbBlockTableRecord
  2
E_NS_35_N_select__5
340
0
102
{BLKREFS
331
67
102
}
  0
BLOCK_RECORD
  5
66
330
1
100
AcDbSymbolTableRecord
100
AcDbBlockTableRecord
  2
SA_links1
340
0
102
{BLKREFS
331
81
102
}
  0
BLOCK_RECORD
  5
6A
330
1
100
AcDbSymbolTableRecord
100
AcDbBlockTableRecord
  2
E_NS_35_N_select__6
340
0
102
{BLKREFS
331
6E
102
}
  0
BLOCK_RECORD
  5
6D
330
1
100
AcDbSymbolTableRecord
100
AcDbBlockTableRecord
  2
Vordans1
340
0
102
{BLKREFS
331
82
102
}
  0
BLOCK_RECORD
  5
71
330
1
100
AcDbSymbolTableRecord
100
AcDbBlockTableRecord
  2
_rahmen
340
0
102
{BLKREFS
331
78
102
}
  0
BLOCK_RECORD
  5
74
330
1
100
AcDbSymbolTableRecord
100
AcDbBlockTableRecord
  2
_punkt
340
0
102
{BLKREFS
331
79
102
}
  0
BLOCK_RECORD
  5
77
330
1
100
AcDbSymbolTableRecord
100
AcDbBlockTableRecord
  2
A4I_CS
340
0
102
{BLKREFS
331
83
102
}
  0
BLOCK_RECORD
  5
7C
330
1
100
AcDbSymbolTableRecord
100
AcDbBlockTableRecord
  2
1
340
0
102
{BLKREFS
331
86
102
}
  0
BLOCK_RECORD
  5
1D2
330
1
100
AcDbSymbolTableRecord
100
AcDbBlockTableRecord
  2
*D17
340
0
  0
BLOCK_RECORD
  5
36C
330
1
100
AcDbSymbolTableRecord
100
AcDbBlockTableRecord
  2
*D18
340
0
  0
BLOCK_RECORD
  5
377
330
1
100
AcDbSymbolTableRecord
100
AcDbBlockTableRecord
  2
*D19
340
0
  0
BLOCK_RECORD
  5
382
330
1
100
AcDbSymbolTableRecord
100
AcDbBlockTableRecord
  2
*D20
340
0
  0
BLOCK_RECORD
  5
38D
330
1
100
AcDbSymbolTableRecord
100
AcDbBlockTableRecord
  2
*D21
340
0
  0
BLOCK_RECORD
  5
398
330
1
100
AcDbSymbolTableRecord
100
AcDbBlockTableRecord
  2
*D22
340
0
  0
ENDTAB
  0
ENDSEC
  0
SECTION
  2
BLOCKS
  0
BLOCK
  5
20
330
1F
100
AcDbEntity
  8
0
100
AcDbBlockBegin
  2
*Model_Space
 70
     0
 10
0.0
 20
0.0
 30
0.0
  3
*Model_Space
  1

  0
ENDBLK
  5
21
330
1F
100
AcDbEntity
  8
0
100
AcDbBlockEnd
  0
BLOCK
  5
1C
330
1B
100
AcDbEntity
 67
     1
  8
0
100
AcDbBlockBegin
  2
*Paper_Space
 70
     0
 10
0.0
 20
0.0
 30
0.0
  3
*Paper_Space
  1

  0
ENDBLK
  5
1D
330
1B
100
AcDbEntity
 67
     1
  8
0
100
AcDbBlockEnd
  0
BLOCK
  5
24
330
23
100
AcDbEntity
  8
0
100
AcDbBlockBegin
  2
*Paper_Space0
 70
     0
 10
0.0
 20
0.0
 30
0.0
  3
*Paper_Space0
  1

  0
ENDBLK
  5
25
330
23
100
AcDbEntity
  8
0
100
AcDbBlockEnd
  0
BLOCK
  5
48
330
47
100
AcDbEntity
  8
0
100
AcDbBlockBegin
  2
E_NS_35_N_select__1
 70
     0
 10
-35.4194158065188
 20
56.6653794434796
 30
0.0
  3
E_NS_35_N_select__1
  1

  0
LINE
  5
87
330
47
100
AcDbEntity
  8
0
  6
Continuous
 62
     7
100
AcDbLine
 10
-17.83910010969478
 20
68.33031408353702
 30
0.0
 11
-17.83910010969478
 21
92.14601268760885
 31
0.0
  0
LINE
  5
88
330
47
100
AcDbEntity
  8
0
  6
Continuous
 62
     7
100
AcDbLine
 10
-23.03525253240139
 20
93.64601268760876
 30
0.0
 11
-23.03525253240139
 21
71.12935218921368
 31
0.0
  0
LINE
  5
89
330
47
100
AcDbEntity
  8
0
  6
Continuous
 62
     7
100
AcDbLine
 10
-26.53792569213898
 20
72.14048683504252
 30
0.0
 11
-27.26290288095649
 21
70.35791126670924
 31
0.0
  0
LINE
  5
8A
330
47
100
AcDbEntity
  8
0
  6
Continuous
 62
     7
100
AcDbLine
 10
-27.26290288095649
 20
70.35791126670924
 30
0.0
 11
-25.96290288095239
 21
71.4837442916391
 31
0.0
  0
LINE
  5
8B
330
47
100
AcDbEntity
  8
0
  6
Continuous
 62
     7
100
AcDbLine
 10
-10.91089687941928
 20
90.14601268760899
 30
0.0
 11
-10.91089687941928
 21
66.33031408353702
 31
0.0
  0
LINE
  5
8C
330
47
100
AcDbEntity
  8
0
  6
Continuous
 62
     7
100
AcDbLine
 10
-6.01378256238908
 20
66.07133948732141
 30
0.0
 11
-5.71474445671258
 21
66.33031408353688
 31
0.0
  0
LINE
  5
8D
330
47
100
AcDbEntity
  8
0
  6
Continuous
 62
     7
100
AcDbLine
 10
-6.01378256238908
 20
66.07133948732141
 30
0.0
 11
-5.99110776791068
 21
67.36383194365008
 31
0.0
  0
LINE
  5
8E
330
47
100
AcDbEntity
  8
0
  6
Continuous
 62
     7
100
AcDbLine
 10
-9.91089687941928
 20
67.19633948732145
 30
0.0
 11
-6.01378256238908
 21
66.07133948732141
 31
0.0
  0
LINE
  5
8F
330
47
100
AcDbEntity
  8
0
  6
Continuous
 62
     7
100
AcDbLine
 10
2.34836545828291
 20
61.80987439336747
 30
0.0
 11
1.96290589183853
 21
61.92114698559152
 31
0.0
  0
LINE
  5
90
330
47
100
AcDbEntity
  8
0
  6
Continuous
 62
     7
100
AcDbLine
 10
-10.41089687941928
 20
70.57383856208065
 30
0.0
 11
-9.91089687941928
 21
71.00685126397286
 31
0.0
  0
LINE
  5
91
330
47
100
AcDbEntity
  8
0
  6
Continuous
 62
     7
100
AcDbLine
 10
-5.71474445671258
 20
69.79552639856766
 30
0.0
 11
-9.91089687941928
 21
71.00685126397286
 31
0.0
  0
LINE
  5
92
330
47
100
AcDbEntity
  8
0
  6
Continuous
 62
     7
100
AcDbLine
 10
-5.71474445671268
 20
69.21817612937807
 30
0.0
 11
-10.41089687941928
 21
70.57383856208065
 31
0.0
  0
LINE
  5
93
330
47
100
AcDbEntity
  8
0
  6
Continuous
 62
     7
100
AcDbLine
 10
-27.26290288095649
 20
70.35791126670924
 30
0.0
 11
-30.76807673423065
 21
71.36976780058009
 31
0.0
  0
LINE
  5
94
330
47
100
AcDbEntity
  8
0
  6
Continuous
 62
     7
100
AcDbLine
 10
-23.03525253240139
 20
71.12935218921368
 30
0.0
 11
-29.70364814154117
 21
73.05435218921355
 31
0.0
  0
LINE
  5
95
330
47
100
AcDbEntity
  8
0
  6
Continuous
 62
     7
100
AcDbLine
 10
6.66941881740503
 20
77.19018151317012
 30
0.0
 11
6.66941881740503
 21
56.6653794434796
 31
0.0
  0
LINE
  5
96
330
47
100
AcDbEntity
  8
0
  6
Continuous
 62
     7
100
AcDbLine
 10
1.96290589183853
 20
61.92114698559152
 30
0.0
 11
1.54565353151502
 21
63.18798880506972
 31
0.0
  0
LINE
  5
97
330
47
100
AcDbEntity
  8
0
  6
Continuous
 62
     7
100
AcDbLine
 10
-30.76807673423065
 20
71.36976780058009
 30
0.0
 11
-29.37336242836646
 21
72.95900691650809
 31
0.0
  0
LINE
  5
98
330
47
100
AcDbEntity
  8
0
  6
Continuous
 62
     7
100
AcDbLine
 10
0.95365115242741
 20
64.20435218921375
 30
0.0
 11
-5.71474445671258
 21
66.12935218921368
 31
0.0
  0
LINE
  5
99
330
47
100
AcDbEntity
  8
0
  6
Continuous
 62
     7
100
AcDbLine
 10
-18.28525253240139
 20
97.18228308639519
 30
0.0
 11
-18.28525253240139
 21
97.75963335558484
 31
0.0
  0
LINE
  5
9A
330
47
100
AcDbEntity
  8
0
  6
Continuous
 62
     7
100
AcDbLine
 10
-22.78858463208059
 20
99.05963335558482
 30
0.0
 11
-18.28525253240139
 21
97.75963335558484
 31
0.0
  0
LINE
  5
9B
330
47
100
AcDbEntity
  8
0
  6
Continuous
 62
     7
100
AcDbLine
 10
-18.78525253240139
 20
97.32662065369263
 30
0.0
 11
-18.28525253240139
 21
97.75963335558484
 31
0.0
  0
LINE
  5
9C
330
47
100
AcDbEntity
  8
0
  6
Continuous
 62
     7
100
AcDbLine
 10
-13.08910010969478
 20
96.25963335558494
 30
0.0
 11
-13.58910010969478
 21
95.82662065369271
 31
0.0
  0
LINE
  5
9D
330
47
100
AcDbEntity
  8
0
  6
Continuous
 62
     7
100
AcDbLine
 10
-18.85030178323598
 20
96.24515550623254
 30
0.0
 11
-18.85030178323598
 21
94.11551498474647
 31
0.0
  0
LINE
  5
9E
330
47
100
AcDbEntity
  8
0
  6
Continuous
 62
     7
100
AcDbLine
 10
-15.16992044521648
 20
95.18272092811958
 30
0.0
 11
-17.01424323775218
 21
93.58549053700501
 31
0.0
  0
LINE
  5
9F
330
47
100
AcDbEntity
  8
0
  6
Continuous
 62
     7
100
AcDbLine
 10
-20.69462457577168
 20
94.64792511511796
 30
0.0
 11
-18.85030178323598
 21
96.24515550623254
 31
0.0
  0
LINE
  5
A0
330
47
100
AcDbEntity
  8
0
  6
Continuous
 62
     7
100
AcDbLine
 10
-22.53525253240139
 20
93.38620506647365
 30
0.0
 11
-22.53525253240139
 21
94.07902538950097
 31
0.0
  0
LINE
  5
A1
330
47
100
AcDbEntity
  8
0
  6
Continuous
 62
     7
100
AcDbLine
 10
-6.16089687941928
 20
93.68228308639542
 30
0.0
 11
-6.16089687941928
 21
94.25963335558507
 31
0.0
  0
LINE
  5
A2
330
47
100
AcDbEntity
  8
0
  6
Continuous
 62
     7
100
AcDbLine
 10
-0.96474445671258
 20
92.75963335558517
 30
0.0
 11
-1.46474445671258
 21
92.32662065369294
 31
0.0
  0
LINE
  5
A3
330
47
100
AcDbEntity
  8
0
  6
Continuous
 62
     7
100
AcDbLine
 10
-6.66089687941928
 20
93.82662065369284
 30
0.0
 11
-6.16089687941928
 21
94.25963335558507
 31
0.0
  0
LINE
  5
A4
330
47
100
AcDbEntity
  8
0
  6
Continuous
 62
     7
100
AcDbLine
 10
-27.53858463208059
 20
94.94601268760874
 30
0.0
 11
-23.03525253240139
 21
93.64601268760876
 31
0.0
  0
LINE
  5
A5
330
47
100
AcDbEntity
  8
0
  6
Continuous
 62
     7
100
AcDbLine
 10
-22.53525253240139
 20
94.07902538950097
 30
0.0
 11
-23.03525253240139
 21
93.64601268760876
 31
0.0
  0
LINE
  5
A6
330
47
100
AcDbEntity
  8
0
  6
Continuous
 62
     7
100
AcDbLine
 10
-1.46474445671258
 20
92.32662065369294
 30
0.0
 11
-6.66089687941928
 21
93.82662065369284
 31
0.0
  0
LINE
  5
A7
330
47
100
AcDbEntity
  8
0
  6
Continuous
 62
     7
100
AcDbLine
 10
-13.08910010969478
 20
96.25963335558494
 30
0.0
 11
-6.16089687941928
 21
94.25963335558507
 31
0.0
  0
LINE
  5
A8
330
47
100
AcDbEntity
  8
0
  6
Continuous
 62
     7
100
AcDbLine
 10
-18.85030178323598
 20
96.24515550623254
 30
0.0
 11
-15.16992044521648
 21
95.18272092811958
 31
0.0
  0
LINE
  5
A9
330
47
100
AcDbEntity
  8
0
  6
Continuous
 62
     7
100
AcDbLine
 10
-13.58910010969478
 20
95.82662065369271
 30
0.0
 11
-18.78525253240139
 21
97.32662065369263
 31
0.0
  0
LINE
  5
AA
330
47
100
AcDbEntity
  8
0
  6
Continuous
 62
     7
100
AcDbLine
 10
-17.01424323775218
 20
93.58549053700501
 30
0.0
 11
-20.69462457577168
 21
94.64792511511796
 31
0.0
  0
LINE
  5
AB
330
47
100
AcDbEntity
  8
0
  6
Continuous
 62
     7
100
AcDbLine
 10
6.66941881740503
 20
56.6653794434796
 30
0.0
 11
11.41941881740503
 21
60.77900011145569
 31
0.0
  0
LINE
  5
AC
330
47
100
AcDbEntity
  8
0
  6
Continuous
 62
     7
100
AcDbLine
 10
11.41941881740503
 20
81.30380218114621
 30
0.0
 11
11.41941881740503
 21
60.77900011145569
 31
0.0
  0
LINE
  5
AD
330
47
100
AcDbEntity
  8
0
  6
Continuous
 62
     7
100
AcDbLine
 10
6.66941881740503
 20
56.6653794434796
 30
0.0
 11
5.07715426130223
 21
57.12502662852279
 31
0.0
  0
LINE
  5
AE
330
47
100
AcDbEntity
  8
0
  6
Continuous
 62
     7
100
AcDbLine
 10
9.65883745002502
 20
83.57261961172007
 30
0.0
 11
11.41941881740503
 21
81.30380218114621
 31
0.0
  0
LINE
  5
AF
330
47
100
AcDbEntity
  8
0
  6
Continuous
 62
     7
100
AcDbLine
 10
4.90883745002502
 20
79.45899894374399
 30
0.0
 11
9.65883745002502
 21
83.57261961172007
 31
0.0
  0
LINE
  5
B0
330
47
100
AcDbEntity
  8
0
  6
Continuous
 62
     7
100
AcDbLine
 10
7.80331661084451
 20
83.38569522461526
 30
0.0
 11
9.65883745002502
 21
83.57261961172007
 31
0.0
  0
LINE
  5
B1
330
47
100
AcDbEntity
  8
0
  6
Continuous
 62
     7
100
AcDbLine
 10
5.90214420826872
 20
84.52521181400292
 30
0.0
 11
6.36142353504083
 21
84.851908619302
 31
0.0
  0
LINE
  5
B2
330
47
100
AcDbEntity
  8
0
  6
Continuous
 62
     7
100
AcDbLine
 10
5.62657661220543
 20
85.79888757649348
 30
0.0
 11
5.25915315078832
 21
86.27237705508836
 31
0.0
  0
LINE
  5
B3
330
47
100
AcDbEntity
  8
0
  6
Continuous
 62
     7
100
AcDbLine
 10
5.90214420826872
 20
84.52521181400292
 30
0.0
 11
5.20027205749703
 21
85.42969700236696
 31
0.0
  0
LINE
  5
B4
330
47
100
AcDbEntity
  8
0
  6
Continuous
 62
     7
100
AcDbLine
 10
5.62657661220543
 20
85.79888757649348
 30
0.0
 11
0.87657661220543
 21
81.68526690851736
 31
0.0
  0
LINE
  5
B5
330
47
100
AcDbEntity
  8
0
  6
Continuous
 62
     7
100
AcDbLine
 10
7.19512211279361
 20
82.85898333886121
 30
0.0
 11
6.30254244174971
 21
84.00922856658033
 31
0.0
  0
LINE
  5
B6
330
47
100
AcDbEntity
  8
0
  6
Continuous
 62
     7
100
AcDbLine
 10
3.0533166108445
 20
79.27207455663917
 30
0.0
 11
7.80331661084451
 21
83.38569522461526
 31
0.0
  0
LINE
  5
B7
330
47
100
AcDbEntity
  8
0
  6
Continuous
 62
     7
100
AcDbLine
 10
6.72884699645813
 20
84.37841914070681
 30
0.0
 11
6.36142353504083
 21
84.851908619302
 31
0.0
  0
LINE
  5
B8
330
47
100
AcDbEntity
  8
0
  6
Continuous
 62
     7
100
AcDbLine
 10
0.87657661220543
 20
81.68526690851736
 30
0.0
 11
0.50915315078832
 21
82.15875638711222
 31
0.0
  0
LINE
  5
B9
330
47
100
AcDbEntity
  8
0
  6
Continuous
 62
     7
100
AcDbLine
 10
0.50915315078832
 20
82.15875638711222
 30
0.0
 11
0.04987382401622
 21
81.8320595818132
 31
0.0
  0
LINE
  5
BA
330
47
100
AcDbEntity
  8
0
  6
Continuous
 62
     7
100
AcDbLine
 10
5.25915315078832
 20
86.27237705508836
 30
0.0
 11
0.50915315078832
 21
82.15875638711222
 31
0.0
  0
LINE
  5
BB
330
47
100
AcDbEntity
  8
0
  6
Continuous
 62
     7
100
AcDbLine
 10
1.15214420826872
 20
80.41159114602684
 30
0.0
 11
0.41729728543372
 21
81.35857010321769
 31
0.0
  0
LINE
  5
BC
330
47
100
AcDbEntity
  8
0
  6
Continuous
 62
     7
100
AcDbLine
 10
0.04987382401622
 20
81.8320595818132
 30
0.0
 11
-1.15190708103678
 21
83.38076475138578
 31
0.0
  0
LINE
  5
BD
330
47
100
AcDbEntity
  8
0
  6
Continuous
 62
     7
100
AcDbLine
 10
-0.49666857484198
 20
83.84685219361303
 30
0.0
 11
-1.15190708103678
 21
83.38076475138578
 31
0.0
  0
LINE
  5
BE
330
47
100
AcDbEntity
  8
0
  6
Continuous
 62
     7
100
AcDbLine
 10
3.0533166108445
 20
79.27207455663917
 30
0.0
 11
4.90883745002502
 21
79.45899894374399
 31
0.0
  0
LINE
  5
BF
330
47
100
AcDbEntity
  8
0
  6
Continuous
 62
     7
100
AcDbLine
 10
0.41729728543372
 20
81.35857010321769
 30
0.0
 11
0.87657661220543
 21
81.68526690851736
 31
0.0
  0
LINE
  5
C0
330
47
100
AcDbEntity
  8
0
  6
Continuous
 62
     7
100
AcDbLine
 10
-3.30537241362919
 20
91.75772092819471
 30
0.0
 11
-5.14969520616488
 21
90.16049053708014
 31
0.0
  0
LINE
  5
C1
330
47
100
AcDbEntity
  8
0
  6
Continuous
 62
     7
100
AcDbLine
 10
-0.17339810475228
 20
83.43026157705953
 30
0.0
 11
-0.49666857484198
 21
83.84685219361303
 31
0.0
  0
LINE
  5
C2
330
47
100
AcDbEntity
  8
0
  6
Continuous
 62
     7
100
AcDbLine
 10
-5.71474445671258
 20
88.64601268760907
 30
0.0
 11
-5.21474445671258
 21
89.0790253895013
 31
0.0
  0
LINE
  5
C3
330
47
100
AcDbEntity
  8
0
  6
Continuous
 62
     7
100
AcDbLine
 10
4.79987382401622
 20
85.94568024978929
 30
0.0
 11
5.25915315078832
 21
86.27237705508836
 31
0.0
  0
LINE
  5
C4
330
47
100
AcDbEntity
  8
0
  6
Continuous
 62
     7
100
AcDbLine
 10
4.79987382401622
 20
85.94568024978929
 30
0.0
 11
3.96840739719691
 21
87.01717035928166
 31
0.0
  0
LINE
  5
C5
330
47
100
AcDbEntity
  8
0
  6
Continuous
 62
     7
100
AcDbLine
 10
0.54916901034612
 20
85.07719525703554
 30
0.0
 11
-0.17339810475228
 21
83.43026157705953
 31
0.0
  0
LINE
  5
C6
330
47
100
AcDbEntity
  8
0
  6
Continuous
 62
     7
100
AcDbLine
 10
-0.17339810475228
 20
83.43026157705953
 30
0.0
 11
4.57660189524772
 21
87.5438822450356
 31
0.0
  0
LINE
  5
C7
330
47
100
AcDbEntity
  8
0
  6
Continuous
 62
     7
100
AcDbLine
 10
5.29916901034612
 20
89.19081592501163
 30
0.0
 11
4.57660189524772
 21
87.5438822450356
 31
0.0
  0
LINE
  5
C8
330
47
100
AcDbEntity
  8
0
  6
Continuous
 62
     7
100
AcDbLine
 10
0.54916901034612
 20
85.07719525703554
 30
0.0
 11
5.29916901034612
 21
89.19081592501163
 31
0.0
  0
LINE
  5
C9
330
47
100
AcDbEntity
  8
0
  6
Continuous
 62
     7
100
AcDbLine
 10
-5.71474445671258
 20
88.64601268760907
 30
0.0
 11
-1.21141235703368
 21
87.34601268760922
 31
0.0
  0
LINE
  5
CA
330
47
100
AcDbEntity
  8
0
  6
Continuous
 62
     7
100
AcDbLine
 10
-1.21141235703368
 20
87.34601268760922
 30
0.0
 11
3.53858764296631
 21
91.45963335558531
 31
0.0
  0
LINE
  5
CB
330
47
100
AcDbEntity
  8
0
  6
Continuous
 62
     7
100
AcDbLine
 10
-0.96474445671258
 20
92.75963335558517
 30
0.0
 11
3.53858764296631
 21
91.45963335558531
 31
0.0
  0
LINE
  5
CC
330
47
100
AcDbEntity
  8
0
  6
Continuous
 62
     7
100
AcDbLine
 10
-6.98575375113309
 20
92.82015550615883
 30
0.0
 11
-3.30537241362919
 21
91.75772092819471
 31
0.0
  0
LINE
  5
CD
330
47
100
AcDbEntity
  8
0
  6
Continuous
 62
     7
100
AcDbLine
 10
-1.21141235703368
 20
87.34601268760922
 30
0.0
 11
0.54916901034612
 21
85.07719525703554
 31
0.0
  0
LINE
  5
CE
330
47
100
AcDbEntity
  8
0
  6
Continuous
 62
     7
100
AcDbLine
 10
3.53858764296631
 20
91.45963335558531
 30
0.0
 11
5.29916901034612
 21
89.19081592501163
 31
0.0
  0
LINE
  5
CF
330
47
100
AcDbEntity
  8
0
  6
Continuous
 62
     7
100
AcDbLine
 10
0.04987382401622
 20
81.8320595818132
 30
0.0
 11
4.79987382401622
 21
85.94568024978929
 31
0.0
  0
LINE
  5
D0
330
47
100
AcDbEntity
  8
0
  6
Continuous
 62
     7
100
AcDbLine
 10
6.72884699645813
 20
84.37841914070681
 30
0.0
 11
1.97884699645813
 21
80.26479847273073
 31
0.0
  0
LINE
  5
D1
330
47
100
AcDbEntity
  8
0
  6
Continuous
 62
     7
100
AcDbLine
 10
1.15214420826872
 20
80.41159114602684
 30
0.0
 11
5.90214420826872
 21
84.52521181400292
 31
0.0
  0
LINE
  5
D2
330
47
100
AcDbEntity
  8
0
  6
Continuous
 62
     7
100
AcDbLine
 10
6.36142353504083
 20
84.851908619302
 30
0.0
 11
1.61142353504083
 21
80.73828795132587
 31
0.0
  0
LINE
  5
D3
330
47
100
AcDbEntity
  8
0
  6
Continuous
 62
     7
100
AcDbLine
 10
1.51956766968623
 20
79.93810166743134
 30
0.0
 11
1.97884699645813
 21
80.26479847273073
 31
0.0
  0
LINE
  5
D4
330
47
100
AcDbEntity
  8
0
  6
Continuous
 62
     7
100
AcDbLine
 10
1.61142353504083
 20
80.73828795132587
 30
0.0
 11
1.15214420826872
 21
80.41159114602684
 31
0.0
  0
LINE
  5
D5
330
47
100
AcDbEntity
  8
0
  6
Continuous
 62
     7
100
AcDbLine
 10
1.97884699645813
 20
80.26479847273073
 30
0.0
 11
1.61142353504083
 21
80.73828795132587
 31
0.0
  0
LINE
  5
D6
330
47
100
AcDbEntity
  8
0
  6
Continuous
 62
     7
100
AcDbLine
 10
2.72134857473922
 20
78.38939649785878
 30
0.0
 11
1.51956766968623
 21
79.93810166743134
 31
0.0
  0
LINE
  5
D7
330
47
100
AcDbEntity
  8
0
  6
Continuous
 62
     7
100
AcDbLine
 10
2.72134857473922
 20
78.38939649785878
 30
0.0
 11
3.32954307279012
 21
78.91610838361272
 31
0.0
  0
LINE
  5
D8
330
47
100
AcDbEntity
  8
0
  6
Continuous
 62
     7
100
AcDbLine
 10
3.37658708093393
 20
78.855483940086
 30
0.0
 11
3.0533166108445
 21
79.27207455663917
 31
0.0
  0
LINE
  5
D9
330
47
100
AcDbEntity
  8
0
  6
Continuous
 62
     7
100
AcDbLine
 10
4.90883745002502
 20
79.45899894374399
 30
0.0
 11
6.66941881740503
 21
77.19018151317012
 31
0.0
  0
LINE
  5
DA
330
47
100
AcDbEntity
  8
0
  6
Continuous
 62
     7
100
AcDbLine
 10
2.72134857473922
 20
78.38939649785878
 30
0.0
 11
3.37658708093393
 21
78.855483940086
 31
0.0
  0
LINE
  5
DB
330
47
100
AcDbEntity
  8
0
  6
Continuous
 62
     7
100
AcDbLine
 10
6.66941881740503
 20
77.19018151317012
 30
0.0
 11
11.41941881740503
 21
81.30380218114621
 31
0.0
  0
LINE
  5
DC
330
47
100
AcDbEntity
  8
0
  6
Continuous
 62
     7
100
AcDbLine
 10
-22.53525253240139
 20
88.36325772452389
 30
0.0
 11
-22.03525253240139
 21
88.7962704264161
 31
0.0
  0
LINE
  5
DD
330
47
100
AcDbEntity
  8
0
  6
Continuous
 62
     7
100
AcDbLine
 10
-17.83910010969478
 20
87.58494556101094
 30
0.0
 11
-22.03525253240139
 21
88.7962704264161
 31
0.0
  0
LINE
  5
DE
330
47
100
AcDbEntity
  8
0
  6
Continuous
 62
     7
100
AcDbLine
 10
-9.91089687941928
 20
88.15415425890475
 30
0.0
 11
-9.91089687941918
 21
89.74186749917621
 31
0.0
  0
LINE
  5
DF
330
47
100
AcDbEntity
  8
0
  6
Continuous
 62
     7
100
AcDbLine
 10
-22.03525253240139
 20
88.7962704264161
 30
0.0
 11
-22.03525253240139
 21
90.38398366668757
 31
0.0
  0
LINE
  5
E0
330
47
100
AcDbEntity
  8
0
  6
Continuous
 62
     7
100
AcDbLine
 10
-5.14969520616488
 20
90.16049053708014
 30
0.0
 11
-8.83007654366888
 21
91.22292511504426
 31
0.0
  0
LINE
  5
E1
330
47
100
AcDbEntity
  8
0
  6
Continuous
 62
     7
100
AcDbLine
 10
-10.41089687941928
 20
90.5790253895012
 30
0.0
 11
-10.41089687941928
 21
89.88620506647365
 31
0.0
  0
LINE
  5
E2
330
47
100
AcDbEntity
  8
0
  6
Continuous
 62
     7
100
AcDbLine
 10
-6.98575375113309
 20
92.82015550615883
 30
0.0
 11
-6.98575375113309
 21
90.69051498467275
 31
0.0
  0
LINE
  5
E3
330
47
100
AcDbEntity
  8
0
  6
Continuous
 62
     7
100
AcDbLine
 10
-8.83007654366888
 20
91.22292511504426
 30
0.0
 11
-6.98575375113309
 21
92.82015550615883
 31
0.0
  0
LINE
  5
E4
330
47
100
AcDbEntity
  8
0
  6
Continuous
 62
     7
100
AcDbLine
 10
-5.21474445671258
 20
89.0790253895013
 30
0.0
 11
-10.41089687941928
 21
90.5790253895012
 31
0.0
  0
LINE
  5
E5
330
47
100
AcDbEntity
  8
0
  6
Continuous
 62
     7
100
AcDbLine
 10
-10.41089687941928
 20
90.5790253895012
 30
0.0
 11
-10.91089687941928
 21
90.14601268760899
 31
0.0
  0
LINE
  5
E6
330
47
100
AcDbEntity
  8
0
  6
Continuous
 62
     7
100
AcDbLine
 10
-22.03525253240139
 20
91.65415425890477
 30
0.0
 11
-22.03525253240139
 21
93.24186749917621
 31
0.0
  0
LINE
  5
E7
330
47
100
AcDbEntity
  8
0
  6
Continuous
 62
     7
100
AcDbLine
 10
-22.53525253240139
 20
91.22114155701254
 30
0.0
 11
-22.03525253240139
 21
91.65415425890477
 31
0.0
  0
LINE
  5
E8
330
47
100
AcDbEntity
  8
0
  6
Continuous
 62
     7
100
AcDbLine
 10
-22.53525253240139
 20
90.52832123398498
 30
0.0
 11
-22.53525253240139
 21
91.22114155701254
 31
0.0
  0
LINE
  5
E9
330
47
100
AcDbEntity
  8
0
  6
Continuous
 62
     7
100
AcDbLine
 10
-17.33910010969478
 20
92.57902538950107
 30
0.0
 11
-22.53525253240139
 21
94.07902538950097
 31
0.0
  0
LINE
  5
EA
330
47
100
AcDbEntity
  8
0
  6
Continuous
 62
     7
100
AcDbLine
 10
-17.83910010969478
 20
92.14601268760885
 30
0.0
 11
-17.33910010969478
 21
92.57902538950107
 31
0.0
  0
LINE
  5
EB
330
47
100
AcDbEntity
  8
0
  6
Continuous
 62
     7
100
AcDbLine
 10
-17.83910010969478
 20
92.14601268760885
 30
0.0
 11
-10.91089687941928
 21
90.14601268760899
 31
0.0
  0
LINE
  5
EC
330
47
100
AcDbEntity
  8
0
  6
Continuous
 62
     7
100
AcDbLine
 10
-17.83910010969478
 20
90.44282939349958
 30
0.0
 11
-22.03525253240139
 21
91.65415425890477
 31
0.0
  0
LINE
  5
ED
330
47
100
AcDbEntity
  8
0
  6
Continuous
 62
     7
100
AcDbLine
 10
-22.53525253240139
 20
90.52832123398498
 30
0.0
 11
-17.83910010969478
 21
89.1726588012824
 31
0.0
  0
LINE
  5
EE
330
47
100
AcDbEntity
  8
0
  6
Continuous
 62
     7
100
AcDbLine
 10
-10.41089687941928
 20
89.88620506647365
 30
0.0
 11
-5.71474445671268
 21
88.53054263377103
 31
0.0
  0
LINE
  5
EF
330
47
100
AcDbEntity
  8
0
  6
Continuous
 62
     7
100
AcDbLine
 10
-17.83910010969478
 20
89.86547912430996
 30
0.0
 11
-22.53525253240139
 21
91.22114155701254
 31
0.0
  0
LINE
  5
F0
330
47
100
AcDbEntity
  8
0
  6
Continuous
 62
     7
100
AcDbLine
 10
-22.53525253240139
 20
93.38620506647365
 30
0.0
 11
-17.83910010969478
 21
92.03054263377103
 31
0.0
  0
LINE
  5
F1
330
47
100
AcDbEntity
  8
0
  6
Continuous
 62
     7
100
AcDbLine
 10
-35.4194158065187
 20
89.34018151317012
 30
0.0
 11
-35.4194158065188
 21
68.81537944347963
 31
0.0
  0
LINE
  5
F2
330
47
100
AcDbEntity
  8
0
  6
Continuous
 62
     7
100
AcDbLine
 10
-29.70364814154117
 20
73.05435218921355
 30
0.0
 11
-33.82715125041601
 21
68.35573225843571
 31
0.0
  0
LINE
  5
F3
330
47
100
AcDbEntity
  8
0
  6
Continuous
 62
     7
100
AcDbLine
 10
-33.82715125041601
 20
68.35573225843571
 30
0.0
 11
-30.45215127396332
 21
71.27856797581558
 31
0.0
  0
LINE
  5
F4
330
47
100
AcDbEntity
  8
0
  6
Continuous
 62
     7
100
AcDbLine
 10
-35.4194158065188
 20
68.81537944347963
 30
0.0
 11
-33.82715125041601
 21
68.35573225843571
 31
0.0
  0
LINE
  5
F5
330
47
100
AcDbEntity
  8
0
  6
Continuous
 62
     7
100
AcDbLine
 10
-10.91089687941928
 20
66.33031408353702
 30
0.0
 11
-9.91089687941928
 21
67.19633948732145
 31
0.0
  0
LINE
  5
F6
330
47
100
AcDbEntity
  8
0
  6
Continuous
 62
     7
100
AcDbLine
 10
-5.71474445671268
 20
67.28405272759295
 30
0.0
 11
-5.99110776791068
 21
67.36383194365008
 31
0.0
  0
LINE
  5
F7
330
47
100
AcDbEntity
  8
0
  6
Continuous
 62
     7
100
AcDbLine
 10
-9.91089687941928
 20
85.2962704264161
 30
0.0
 11
-9.91089687941918
 21
86.88398366668757
 31
0.0
  0
LINE
  5
F8
330
47
100
AcDbEntity
  8
0
  6
Continuous
 62
     7
100
AcDbLine
 10
-10.41089687941928
 20
87.72114155701254
 30
0.0
 11
-9.91089687941928
 21
88.15415425890475
 31
0.0
  0
LINE
  5
F9
330
47
100
AcDbEntity
  8
0
  6
Continuous
 62
     7
100
AcDbLine
 10
-22.53525253240139
 20
87.67043740149632
 30
0.0
 11
-22.53525253240139
 21
88.36325772452389
 31
0.0
  0
LINE
  5
FA
330
47
100
AcDbEntity
  8
0
  6
Continuous
 62
     7
100
AcDbLine
 10
-22.53525253240139
 20
84.81255356900769
 30
0.0
 11
-22.53525253240139
 21
85.50537389203525
 31
0.0
  0
LINE
  5
FB
330
47
100
AcDbEntity
  8
0
  6
Continuous
 62
     7
100
AcDbLine
 10
-22.53525253240139
 20
85.50537389203525
 30
0.0
 11
-22.03525253240139
 21
85.93838659392748
 31
0.0
  0
LINE
  5
FC
330
47
100
AcDbEntity
  8
0
  6
Continuous
 62
     7
100
AcDbLine
 10
-22.03525253240139
 20
85.93838659392748
 30
0.0
 11
-22.03525253240139
 21
87.5260998341989
 31
0.0
  0
LINE
  5
FD
330
47
100
AcDbEntity
  8
0
  6
Continuous
 62
     7
100
AcDbLine
 10
-17.83910010969478
 20
84.72706172852229
 30
0.0
 11
-22.03525253240139
 21
85.93838659392748
 31
0.0
  0
LINE
  5
FE
330
47
100
AcDbEntity
  8
0
  6
Continuous
 62
     7
100
AcDbLine
 10
-17.83910010969478
 20
84.14971145933266
 30
0.0
 11
-22.53525253240139
 21
85.50537389203525
 31
0.0
  0
LINE
  5
FF
330
47
100
AcDbEntity
  8
0
  6
Continuous
 62
     7
100
AcDbLine
 10
-17.83910010969478
 20
87.0075952918213
 30
0.0
 11
-22.53525253240139
 21
88.36325772452389
 31
0.0
  0
LINE
  5
100
330
47
100
AcDbEntity
  8
0
  6
Continuous
 62
     7
100
AcDbLine
 10
-5.71474445671268
 20
74.93394379435536
 30
0.0
 11
-10.41089687941928
 21
76.28960622705793
 31
0.0
  0
LINE
  5
101
330
47
100
AcDbEntity
  8
0
  6
Continuous
 62
     7
100
AcDbLine
 10
-10.41089687941928
 20
75.5967859040304
 30
0.0
 11
-5.71474445671268
 21
74.24112347132784
 31
0.0
  0
LINE
  5
102
330
47
100
AcDbEntity
  8
0
  6
Continuous
 62
     7
100
AcDbLine
 10
-10.41089687941928
 20
72.73890207154174
 30
0.0
 11
-5.71474445671268
 21
71.38323963883916
 31
0.0
  0
LINE
  5
103
330
47
100
AcDbEntity
  8
0
  6
Continuous
 62
     7
100
AcDbLine
 10
-5.71474445671258
 20
75.51129406354497
 30
0.0
 11
-9.91089687941928
 21
76.72261892895015
 31
0.0
  0
LINE
  5
104
330
47
100
AcDbEntity
  8
0
  6
Continuous
 62
     7
100
AcDbLine
 10
-10.41089687941928
 20
70.57383856208065
 30
0.0
 11
-10.41089687941928
 21
69.88101823905309
 31
0.0
  0
LINE
  5
105
330
47
100
AcDbEntity
  8
0
  6
Continuous
 62
     7
100
AcDbLine
 10
-5.71474445671258
 20
72.65341023105636
 30
0.0
 11
-9.91089687941928
 21
73.86473509646152
 31
0.0
  0
LINE
  5
106
330
47
100
AcDbEntity
  8
0
  6
Continuous
 62
     7
100
AcDbLine
 10
-5.71474445671268
 20
72.07605996186672
 30
0.0
 11
-10.41089687941928
 21
73.4317223945693
 31
0.0
  0
LINE
  5
107
330
47
100
AcDbEntity
  8
0
  6
Continuous
 62
     7
100
AcDbLine
 10
-20.75888922120298
 20
71.62692324234602
 30
0.0
 11
-20.73621442672449
 21
70.32133948732138
 31
0.0
  0
LINE
  5
108
330
47
100
AcDbEntity
  8
0
  6
Continuous
 62
     7
100
AcDbLine
 10
-9.91089687941928
 20
67.19633948732145
 30
0.0
 11
-9.91089687941918
 21
69.73668067175569
 31
0.0
  0
LINE
  5
109
330
47
100
AcDbEntity
  8
0
  6
Continuous
 62
     7
100
AcDbLine
 10
-20.73621442672449
 20
70.32133948732138
 30
0.0
 11
-17.83910010969478
 21
69.48501462191626
 31
0.0
  0
LINE
  5
10A
330
47
100
AcDbEntity
  8
0
  6
Continuous
 62
     7
100
AcDbLine
 10
-5.71474445671268
 20
77.79182762684401
 30
0.0
 11
-10.41089687941928
 21
79.1474900595466
 31
0.0
  0
LINE
  5
10B
330
47
100
AcDbEntity
  8
0
  6
Continuous
 62
     7
100
AcDbLine
 10
-10.41089687941928
 20
81.31255356900769
 30
0.0
 11
-5.71474445671268
 21
79.95689113630513
 31
0.0
  0
LINE
  5
10C
330
47
100
AcDbEntity
  8
0
  6
Continuous
 62
     7
100
AcDbLine
 10
-5.71474445671258
 20
78.36917789603363
 30
0.0
 11
-9.91089687941928
 21
79.58050276143881
 31
0.0
  0
LINE
  5
10D
330
47
100
AcDbEntity
  8
0
  6
Continuous
 62
     7
100
AcDbLine
 10
-10.41089687941928
 20
84.86325772452389
 30
0.0
 11
-9.91089687941928
 21
85.2962704264161
 31
0.0
  0
LINE
  5
10E
330
47
100
AcDbEntity
  8
0
  6
Continuous
 62
     7
100
AcDbLine
 10
-5.71474445671258
 20
81.22706172852227
 30
0.0
 11
-9.91089687941928
 21
82.43838659392748
 31
0.0
  0
LINE
  5
10F
330
47
100
AcDbEntity
  8
0
  6
Continuous
 62
     7
100
AcDbLine
 10
-5.71474445671268
 20
80.64971145933268
 30
0.0
 11
-10.41089687941928
 21
82.00537389203525
 31
0.0
  0
LINE
  5
110
330
47
100
AcDbEntity
  8
0
  6
Continuous
 62
     7
100
AcDbLine
 10
-10.41089687941928
 20
84.17043740149633
 30
0.0
 11
-5.71474445671268
 21
82.81477496879373
 31
0.0
  0
LINE
  5
111
330
47
100
AcDbEntity
  8
0
  6
Continuous
 62
     7
100
AcDbLine
 10
-5.71474445671268
 20
83.5075952918213
 30
0.0
 11
-10.41089687941928
 21
84.86325772452389
 31
0.0
  0
LINE
  5
112
330
47
100
AcDbEntity
  8
0
  6
Continuous
 62
     7
100
AcDbLine
 10
-10.41089687941928
 20
78.45466973651904
 30
0.0
 11
-5.71474445671268
 21
77.09900730381645
 31
0.0
  0
LINE
  5
113
330
47
100
AcDbEntity
  8
0
  6
Continuous
 62
     7
100
AcDbLine
 10
-10.41089687941928
 20
69.88101823905309
 30
0.0
 11
-5.71474445671268
 21
68.52535580635053
 31
0.0
  0
LINE
  5
114
330
47
100
AcDbEntity
  8
0
  6
Continuous
 62
     7
100
AcDbLine
 10
-5.71474445671258
 20
84.08494556101095
 30
0.0
 11
-9.91089687941928
 21
85.2962704264161
 31
0.0
  0
LINE
  5
115
330
47
100
AcDbEntity
  8
0
  6
Continuous
 62
     7
100
AcDbLine
 10
-10.41089687941928
 20
87.02832123398498
 30
0.0
 11
-5.71474445671268
 21
85.6726588012824
 31
0.0
  0
LINE
  5
116
330
47
100
AcDbEntity
  8
0
  6
Continuous
 62
     7
100
AcDbLine
 10
-10.41089687941928
 20
87.72114155701254
 30
0.0
 11
-10.41089687941928
 21
87.02832123398498
 31
0.0
  0
LINE
  5
117
330
47
100
AcDbEntity
  8
0
  6
Continuous
 62
     7
100
AcDbLine
 10
-5.71474445671258
 20
86.9428293934996
 30
0.0
 11
-9.91089687941928
 21
88.15415425890475
 31
0.0
  0
LINE
  5
118
330
47
100
AcDbEntity
  8
0
  6
Continuous
 62
     7
100
AcDbLine
 10
-5.71474445671268
 20
86.36547912430996
 30
0.0
 11
-10.41089687941928
 21
87.72114155701254
 31
0.0
  0
LINE
  5
119
330
47
100
AcDbEntity
  8
0
  6
Continuous
 62
     7
100
AcDbLine
 10
-22.53525253240139
 20
87.67043740149632
 30
0.0
 11
-17.83910010969478
 21
86.31477496879373
 31
0.0
  0
LINE
  5
11A
330
47
100
AcDbEntity
  8
0
  6
Continuous
 62
     7
100
AcDbLine
 10
-5.71474445671258
 20
66.12935218921368
 30
0.0
 11
-5.71474445671258
 21
88.64601268760907
 31
0.0
  0
LINE
  5
11B
330
47
100
AcDbEntity
  8
0
  6
Continuous
 62
     7
100
AcDbLine
 10
-10.41089687941928
 20
76.28960622705793
 30
0.0
 11
-10.41089687941928
 21
75.5967859040304
 31
0.0
  0
LINE
  5
11C
330
47
100
AcDbEntity
  8
0
  6
Continuous
 62
     7
100
AcDbLine
 10
-10.41089687941928
 20
76.28960622705793
 30
0.0
 11
-9.91089687941928
 21
76.72261892895015
 31
0.0
  0
LINE
  5
11D
330
47
100
AcDbEntity
  8
0
  6
Continuous
 62
     7
100
AcDbLine
 10
-10.41089687941928
 20
79.1474900595466
 30
0.0
 11
-9.91089687941928
 21
79.58050276143881
 31
0.0
  0
LINE
  5
11E
330
47
100
AcDbEntity
  8
0
  6
Continuous
 62
     7
100
AcDbLine
 10
-10.41089687941928
 20
82.00537389203525
 30
0.0
 11
-9.91089687941928
 21
82.43838659392748
 31
0.0
  0
LINE
  5
11F
330
47
100
AcDbEntity
  8
0
  6
Continuous
 62
     7
100
AcDbLine
 10
-10.41089687941928
 20
73.4317223945693
 30
0.0
 11
-10.41089687941928
 21
72.73890207154174
 31
0.0
  0
LINE
  5
120
330
47
100
AcDbEntity
  8
0
  6
Continuous
 62
     7
100
AcDbLine
 10
-10.41089687941928
 20
79.1474900595466
 30
0.0
 11
-10.41089687941928
 21
78.45466973651904
 31
0.0
  0
LINE
  5
121
330
47
100
AcDbEntity
  8
0
  6
Continuous
 62
     7
100
AcDbLine
 10
-10.41089687941928
 20
82.00537389203525
 30
0.0
 11
-10.41089687941928
 21
81.31255356900769
 31
0.0
  0
LINE
  5
122
330
47
100
AcDbEntity
  8
0
  6
Continuous
 62
     7
100
AcDbLine
 10
-10.41089687941928
 20
84.86325772452389
 30
0.0
 11
-10.41089687941928
 21
84.17043740149633
 31
0.0
  0
LINE
  5
123
330
47
100
AcDbEntity
  8
0
  6
Continuous
 62
     7
100
AcDbLine
 10
-10.41089687941928
 20
73.4317223945693
 30
0.0
 11
-9.91089687941928
 21
73.86473509646152
 31
0.0
  0
LINE
  5
124
330
47
100
AcDbEntity
  8
0
  6
Continuous
 62
     7
100
AcDbLine
 10
-22.03525253240139
 20
71.99537759299811
 30
0.0
 11
-23.03525253240139
 21
71.12935218921368
 31
0.0
  0
LINE
  5
125
330
47
100
AcDbEntity
  8
0
  6
Continuous
 62
     7
100
AcDbLine
 10
-9.91089687941928
 20
73.86473509646152
 30
0.0
 11
-9.91089687941928
 21
75.45244833673301
 31
0.0
  0
LINE
  5
126
330
47
100
AcDbEntity
  8
0
  6
Continuous
 62
     7
100
AcDbLine
 10
-9.91089687941928
 20
76.72261892895015
 30
0.0
 11
-9.91089687941918
 21
78.31033216922162
 31
0.0
  0
LINE
  5
127
330
47
100
AcDbEntity
  8
0
  6
Continuous
 62
     7
100
AcDbLine
 10
-9.91089687941928
 20
79.58050276143881
 30
0.0
 11
-9.91089687941918
 21
81.1682160017103
 31
0.0
  0
LINE
  5
128
330
47
100
AcDbEntity
  8
0
  6
Continuous
 62
     7
100
AcDbLine
 10
-9.91089687941928
 20
82.43838659392748
 30
0.0
 11
-9.91089687941928
 21
84.0260998341989
 31
0.0
  0
LINE
  5
129
330
47
100
AcDbEntity
  8
0
  6
Continuous
 62
     7
100
AcDbLine
 10
-9.91089687941928
 20
71.00685126397286
 30
0.0
 11
-9.91089687941928
 21
72.59456450424433
 31
0.0
  0
LINE
  5
12A
330
47
100
AcDbEntity
  8
0
  6
Continuous
 62
     7
100
AcDbLine
 10
-22.53525253240139
 20
79.0967859040304
 30
0.0
 11
-22.53525253240139
 21
79.78960622705793
 31
0.0
  0
LINE
  5
12B
330
47
100
AcDbEntity
  8
0
  6
Continuous
 62
     7
100
AcDbLine
 10
-17.83910010969478
 20
78.43394379435536
 30
0.0
 11
-22.53525253240139
 21
79.78960622705793
 31
0.0
  0
LINE
  5
12C
330
47
100
AcDbEntity
  8
0
  6
Continuous
 62
     7
100
AcDbLine
 10
-22.53525253240139
 20
79.0967859040304
 30
0.0
 11
-17.83910010969478
 21
77.74112347132782
 31
0.0
  0
LINE
  5
12D
330
47
100
AcDbEntity
  8
0
  6
Continuous
 62
     7
100
AcDbLine
 10
-22.03525253240139
 20
77.36473509646152
 30
0.0
 11
-22.03525253240139
 21
78.95244833673301
 31
0.0
  0
LINE
  5
12E
330
47
100
AcDbEntity
  8
0
  6
Continuous
 62
     7
100
AcDbLine
 10
-17.83910010969478
 20
79.01129406354498
 30
0.0
 11
-22.03525253240139
 21
80.22261892895015
 31
0.0
  0
LINE
  5
12F
330
47
100
AcDbEntity
  8
0
  6
Continuous
 62
     7
100
AcDbLine
 10
-22.03525253240139
 20
80.22261892895015
 30
0.0
 11
-22.03525253240139
 21
81.81033216922164
 31
0.0
  0
LINE
  5
130
330
47
100
AcDbEntity
  8
0
  6
Continuous
 62
     7
100
AcDbLine
 10
-22.53525253240139
 20
79.78960622705793
 30
0.0
 11
-22.03525253240139
 21
80.22261892895015
 31
0.0
  0
LINE
  5
131
330
47
100
AcDbEntity
  8
0
  6
Continuous
 62
     7
100
AcDbLine
 10
-22.53525253240139
 20
81.95466973651904
 30
0.0
 11
-22.53525253240139
 21
82.6474900595466
 31
0.0
  0
LINE
  5
132
330
47
100
AcDbEntity
  8
0
  6
Continuous
 62
     7
100
AcDbLine
 10
-17.83910010969478
 20
81.86917789603362
 30
0.0
 11
-22.03525253240139
 21
83.08050276143881
 31
0.0
  0
LINE
  5
133
330
47
100
AcDbEntity
  8
0
  6
Continuous
 62
     7
100
AcDbLine
 10
-17.83910010969478
 20
81.29182762684401
 30
0.0
 11
-22.53525253240139
 21
82.6474900595466
 31
0.0
  0
LINE
  5
134
330
47
100
AcDbEntity
  8
0
  6
Continuous
 62
     7
100
AcDbLine
 10
-22.53525253240139
 20
81.95466973651904
 30
0.0
 11
-17.83910010969478
 21
80.59900730381645
 31
0.0
  0
LINE
  5
135
330
47
100
AcDbEntity
  8
0
  6
Continuous
 62
     7
100
AcDbLine
 10
-22.53525253240139
 20
76.23890207154174
 30
0.0
 11
-22.53525253240139
 21
76.9317223945693
 31
0.0
  0
LINE
  5
136
330
47
100
AcDbEntity
  8
0
  6
Continuous
 62
     7
100
AcDbLine
 10
-22.03525253240139
 20
74.50685126397286
 30
0.0
 11
-22.03525253240139
 21
76.09456450424435
 31
0.0
  0
LINE
  5
137
330
47
100
AcDbEntity
  8
0
  6
Continuous
 62
     7
100
AcDbLine
 10
-22.53525253240139
 20
76.9317223945693
 30
0.0
 11
-22.03525253240139
 21
77.36473509646152
 31
0.0
  0
LINE
  5
138
330
47
100
AcDbEntity
  8
0
  6
Continuous
 62
     7
100
AcDbLine
 10
-17.83910010969478
 20
76.15341023105634
 30
0.0
 11
-22.03525253240139
 21
77.36473509646152
 31
0.0
  0
LINE
  5
139
330
47
100
AcDbEntity
  8
0
  6
Continuous
 62
     7
100
AcDbLine
 10
-17.83910010969478
 20
73.29552639856767
 30
0.0
 11
-22.03525253240139
 21
74.50685126397286
 31
0.0
  0
LINE
  5
13A
330
47
100
AcDbEntity
  8
0
  6
Continuous
 62
     7
100
AcDbLine
 10
-22.53525253240139
 20
76.23890207154174
 30
0.0
 11
-17.83910010969478
 21
74.88323963883916
 31
0.0
  0
LINE
  5
13B
330
47
100
AcDbEntity
  8
0
  6
Continuous
 62
     7
100
AcDbLine
 10
-17.83910010969478
 20
72.71817612937807
 30
0.0
 11
-22.53525253240139
 21
74.07383856208065
 31
0.0
  0
LINE
  5
13C
330
47
100
AcDbEntity
  8
0
  6
Continuous
 62
     7
100
AcDbLine
 10
-22.03525253240139
 20
83.08050276143881
 30
0.0
 11
-22.03525253240139
 21
84.6682160017103
 31
0.0
  0
LINE
  5
13D
330
47
100
AcDbEntity
  8
0
  6
Continuous
 62
     7
100
AcDbLine
 10
-22.53525253240139
 20
82.6474900595466
 30
0.0
 11
-22.03525253240139
 21
83.08050276143881
 31
0.0
  0
LINE
  5
13E
330
47
100
AcDbEntity
  8
0
  6
Continuous
 62
     7
100
AcDbLine
 10
-22.53525253240139
 20
84.81255356900769
 30
0.0
 11
-17.83910010969478
 21
83.45689113630513
 31
0.0
  0
LINE
  5
13F
330
47
100
AcDbEntity
  8
0
  6
Continuous
 62
     7
100
AcDbLine
 10
-22.53525253240139
 20
73.38101823905309
 30
0.0
 11
-22.53525253240139
 21
74.07383856208065
 31
0.0
  0
LINE
  5
140
330
47
100
AcDbEntity
  8
0
  6
Continuous
 62
     7
100
AcDbLine
 10
-25.78428530523918
 20
71.92292959491814
 30
0.0
 11
-25.96290288095239
 21
71.4837442916391
 31
0.0
  0
LINE
  5
141
330
47
100
AcDbEntity
  8
0
  6
Continuous
 62
     7
100
AcDbLine
 10
-22.03525253240139
 20
71.99537759299811
 30
0.0
 11
-22.03525253240139
 21
73.2366806717557
 31
0.0
  0
LINE
  5
142
330
47
100
AcDbEntity
  8
0
  6
Continuous
 62
     7
100
AcDbLine
 10
-22.53525253240139
 20
74.07383856208065
 30
0.0
 11
-22.03525253240139
 21
74.50685126397286
 31
0.0
  0
LINE
  5
143
330
47
100
AcDbEntity
  8
0
  6
Continuous
 62
     7
100
AcDbLine
 10
-20.75888922120298
 20
71.62692324234602
 30
0.0
 11
-22.03525253240139
 21
71.99537759299811
 31
0.0
  0
LINE
  5
144
330
47
100
AcDbEntity
  8
0
  6
Continuous
 62
     7
100
AcDbLine
 10
-22.53525253240139
 20
73.38101823905309
 30
0.0
 11
-17.83910010969478
 21
72.02535580635052
 31
0.0
  0
LINE
  5
145
330
47
100
AcDbEntity
  8
0
  6
Continuous
 62
     7
100
AcDbLine
 10
-17.83910010969478
 20
75.5760599618667
 30
0.0
 11
-22.53525253240139
 21
76.9317223945693
 31
0.0
  0
LINE
  5
146
330
47
100
AcDbEntity
  8
0
  6
Continuous
 62
     7
100
AcDbLine
 10
-17.83910010969478
 20
68.33031408353702
 30
0.0
 11
-10.91089687941928
 21
66.33031408353702
 31
0.0
  0
LINE
  5
147
330
47
100
AcDbEntity
  8
0
  6
Continuous
 62
     7
100
AcDbLine
 10
-29.2991659994599
 20
93.69366738342245
 30
0.0
 11
-24.54916599945989
 21
97.80728805139853
 31
0.0
  0
LINE
  5
148
330
47
100
AcDbEntity
  8
0
  6
Continuous
 62
     7
100
AcDbLine
 10
-29.22005390984936
 20
89.96689608385122
 30
0.0
 11
-29.90214119738256
 21
89.37619116524901
 31
0.0
  0
LINE
  5
149
330
47
100
AcDbEntity
  8
0
  6
Continuous
 62
     7
100
AcDbLine
 10
-28.57659888436119
 20
91.62955938503697
 30
0.0
 11
-29.2991659994599
 21
93.69366738342245
 31
0.0
  0
LINE
  5
14A
330
47
100
AcDbEntity
  8
0
  6
Continuous
 62
     7
100
AcDbLine
 10
-30.26956465880024
 20
89.11483372100943
 30
0.0
 11
-31.47134556385316
 21
88.25997708047633
 31
0.0
  0
LINE
  5
14B
330
47
100
AcDbEntity
  8
0
  6
Continuous
 62
     7
100
AcDbLine
 10
-28.90883443913857
 20
94.70614748533305
 30
0.0
 11
-28.47205159267638
 21
94.40996947153313
 31
0.0
  0
LINE
  5
14C
330
47
100
AcDbEntity
  8
0
  6
Continuous
 62
     7
100
AcDbLine
 10
-31.80331359995822
 20
89.33431697426427
 30
0.0
 11
-32.12658407004756
 21
89.10436665063828
 31
0.0
  0
LINE
  5
14D
330
47
100
AcDbEntity
  8
0
  6
Continuous
 62
     7
100
AcDbLine
 10
-32.12658407004756
 20
89.10436665063828
 30
0.0
 11
-31.47134556385316
 21
88.25997708047633
 31
0.0
  0
LINE
  5
14E
330
47
100
AcDbEntity
  8
0
  6
Continuous
 62
     7
100
AcDbLine
 10
-30.72884398557214
 20
89.70669556925387
 30
0.0
 11
-30.26956465880024
 21
89.11483372100943
 31
0.0
  0
LINE
  5
14F
330
47
100
AcDbEntity
  8
0
  6
Continuous
 62
     7
100
AcDbLine
 10
-28.90883443913857
 20
94.70614748533305
 30
0.0
 11
-30.6694158065187
 21
93.4538021811462
 31
0.0
  0
LINE
  5
150
330
47
100
AcDbEntity
  8
0
  6
Continuous
 62
     7
100
AcDbLine
 10
-29.25915013990218
 20
90.75212534621198
 30
0.0
 11
-29.62657360131965
 21
90.49076790197248
 31
0.0
  0
LINE
  5
151
330
47
100
AcDbEntity
  8
0
  6
Continuous
 62
     7
100
AcDbLine
 10
-28.14365322174845
 20
91.71817401517639
 30
0.0
 11
-29.25915013990218
 21
90.75212534621198
 31
0.0
  0
LINE
  5
152
330
47
100
AcDbEntity
  8
0
  6
Continuous
 62
     7
100
AcDbLine
 10
-28.79987081313008
 20
90.16026349796736
 30
0.0
 11
-29.25915013990218
 21
90.75212534621198
 31
0.0
  0
LINE
  5
153
330
47
100
AcDbEntity
  8
0
  6
Continuous
 62
     7
100
AcDbLine
 10
-28.17003303939917
 20
91.75216903023801
 30
0.0
 11
-29.62657360131965
 21
90.49076790197248
 31
0.0
  0
LINE
  5
154
330
47
100
AcDbEntity
  8
0
  6
Continuous
 62
     7
100
AcDbLine
 10
-29.62657360131965
 20
90.49076790197248
 30
0.0
 11
-29.16729427454776
 21
89.8989060537278
 31
0.0
  0
LINE
  5
155
330
47
100
AcDbEntity
  8
0
  6
Continuous
 62
     7
100
AcDbLine
 10
-27.59808990807689
 20
91.01512013850066
 30
0.0
 11
-28.79987081313008
 21
90.16026349796736
 31
0.0
  0
LINE
  5
156
330
47
100
AcDbEntity
  8
0
  6
Continuous
 62
     7
100
AcDbLine
 10
-30.3614205241547
 20
89.96805301349337
 30
0.0
 11
-30.72884398557214
 21
89.70669556925387
 31
0.0
  0
LINE
  5
157
330
47
100
AcDbEntity
  8
0
  6
Continuous
 62
     7
100
AcDbLine
 10
-29.90214119738256
 20
89.37619116524901
 30
0.0
 11
-30.3614205241547
 21
89.96805301349337
 31
0.0
  0
LINE
  5
158
330
47
100
AcDbEntity
  8
0
  6
Continuous
 62
     7
100
AcDbLine
 10
-28.2227926747007
 20
91.82015906036138
 30
0.0
 11
-30.3614205241547
 21
89.96805301349337
 31
0.0
  0
LINE
  5
159
330
47
100
AcDbEntity
  8
0
  6
Continuous
 62
     7
100
AcDbLine
 10
-29.16729427454776
 20
89.8989060537278
 30
0.0
 11
-29.90214119738256
 21
89.37619116524901
 31
0.0
  0
LINE
  5
15A
330
47
100
AcDbEntity
  8
0
  6
Continuous
 62
     7
100
AcDbLine
 10
-31.80331359995822
 20
89.33431697426427
 30
0.0
 11
-28.71068980746624
 21
92.01260774291055
 31
0.0
  0
LINE
  5
15B
330
47
100
AcDbEntity
  8
0
  6
Continuous
 62
     7
100
AcDbLine
 10
-30.35584864569964
 20
89.2260257494405
 30
0.0
 11
-31.47134556385316
 21
88.25997708047633
 31
0.0
  0
LINE
  5
15C
330
47
100
AcDbEntity
  8
0
  6
Continuous
 62
     7
100
AcDbLine
 10
-33.65883443913857
 20
90.59252681735697
 30
0.0
 11
-35.4194158065187
 21
89.34018151317012
 31
0.0
  0
LINE
  5
15D
330
47
100
AcDbEntity
  8
0
  6
Continuous
 62
     7
100
AcDbLine
 10
-33.65883443913857
 20
90.59252681735697
 30
0.0
 11
-31.80331359995822
 21
89.33431697426427
 31
0.0
  0
LINE
  5
15E
330
47
100
AcDbEntity
  8
0
  6
Continuous
 62
     7
100
AcDbLine
 10
-35.4194158065187
 20
89.34018151317012
 30
0.0
 11
-30.6694158065187
 21
93.4538021811462
 31
0.0
  0
LINE
  5
15F
330
47
100
AcDbEntity
  8
0
  6
Continuous
 62
     7
100
AcDbLine
 10
-33.65883443913857
 20
90.59252681735697
 30
0.0
 11
-28.90883443913857
 21
94.70614748533305
 31
0.0
  0
LINE
  5
160
330
47
100
AcDbEntity
  8
0
  6
Continuous
 62
     7
100
AcDbLine
 10
-28.24917249235146
 20
91.85415407542307
 30
0.0
 11
-30.72884398557214
 21
89.70669556925387
 31
0.0
  0
LINE
  5
161
330
47
100
AcDbEntity
  8
0
  6
Continuous
 62
     7
100
AcDbLine
 10
-27.59808990807689
 20
91.01512013850066
 30
0.0
 11
-28.25332841427164
 21
91.85950970866284
 31
0.0
  0
LINE
  5
162
330
47
100
AcDbEntity
  8
0
  6
Continuous
 62
     7
100
AcDbLine
 10
-28.25332841427164
 20
91.85950970866284
 30
0.0
 11
-28.57659888436119
 21
91.62955938503697
 31
0.0
  0
LINE
  5
163
330
47
100
AcDbEntity
  8
0
  6
Continuous
 62
     7
100
AcDbLine
 10
-27.68437389497639
 20
91.12631216693178
 30
0.0
 11
-28.79987081313008
 21
90.16026349796736
 31
0.0
  0
LINE
  5
164
330
47
100
AcDbEntity
  8
0
  6
Continuous
 62
     7
100
AcDbLine
 10
-27.53858463208059
 20
94.94601268760874
 30
0.0
 11
-29.2991659994599
 21
93.69366738342245
 31
0.0
  0
LINE
  5
165
330
47
100
AcDbEntity
  8
0
  6
Continuous
 62
     7
100
AcDbLine
 10
-22.78858463208059
 20
99.05963335558482
 30
0.0
 11
-24.54916599945989
 21
97.80728805139853
 31
0.0
  0
LINE
  5
166
330
47
100
AcDbEntity
  8
0
  6
Continuous
 62
     7
100
AcDbLine
 10
-27.53858463208059
 20
94.94601268760874
 30
0.0
 11
-22.78858463208059
 21
99.05963335558482
 31
0.0
  0
LINE
  5
167
330
47
100
AcDbEntity
  8
0
  6
Continuous
 62
     7
100
AcDbLine
 10
5.07715426130223
 20
57.12502662852279
 30
0.0
 11
0.95365115242741
 21
64.20435218921375
 31
0.0
  0
SPLINE
  5
168
330
47
100
AcDbEntity
  8
0
  6
Continuous
 62
     7
100
AcDbSpline
210
0.0
220
0.0
230
1.0
 70
     8
 71
     3
 72
    17
 73
    13
 74
    11
 42
0.000000001
 43
0.0000000001
 44
0.00000001
 40
0.0
 40
0.0
 40
0.0
 40
0.0
 40
0.4014610005567587
 40
0.8712471548146075
 40
1.440286929418558
 40
2.105766036395373
 40
2.84466364374226
 40
3.622801011199098
 40
4.4009383784329
 40
5.139835984870706
 40
5.805315092454718
 40
6.374354872732282
 40
6.374354872732282
 40
6.374354872732282
 40
6.374354872732282
 10
-8.999998494556976
 20
93.20282302159703
 30
0.0
 10
-9.022857831521886
 20
93.33724444559962
 30
0.0
 10
-9.072466975776896
 20
93.62896464009783
 30
0.0
 10
-9.41643309681443
 20
93.99415080849028
 30
0.0
 10
-9.897196509091708
 20
94.29662589821422
 30
0.0
 10
-10.51922784909925
 20
94.52627822014448
 30
0.0
 10
-11.2342467110316
 20
94.67040494927474
 30
0.0
 10
-11.99988699121168
 20
94.71928083365222
 30
0.0
 10
-12.76618499478337
 20
94.67106973939855
 30
0.0
 10
-13.47939061778827
 20
94.52387785652903
 30
0.0
 10
-14.10708955224464
 20
94.3041620352467
 30
0.0
 10
-14.44316425849291
 20
94.06367379947132
 30
0.0
 10
-14.59807470591028
 20
93.95282302159688
 30
0.0
 11
-8.999998494556976
 21
93.20282302159703
 31
0.0
 11
-9.102221788253985
 21
93.59105148574682
 31
0.0
 11
-9.401922283203731
 21
93.952823021597
 31
0.0
 11
-9.878678716553654
 21
94.26348291059867
 31
0.0
 11
-10.49999849455703
 21
94.5018611272736
 31
0.0
 11
-11.22354156625741
 21
94.65171137474843
 31
0.0
 11
-11.99999849455704
 21
94.70282302159691
 31
0.0
 11
-12.77645542285665
 21
94.6517113747484
 31
0.0
 11
-13.49999849455703
 21
94.50186112727354
 31
0.0
 11
-14.1213182725604
 21
94.26348291059858
 31
0.0
 11
-14.59807470591028
 21
93.95282302159688
 31
0.0
  0
SPLINE
  5
169
330
47
100
AcDbEntity
  8
0
  6
Continuous
 62
     7
100
AcDbSpline
210
0.0
220
0.0
230
1.0
 70
     8
 71
     3
 72
     9
 73
     5
 74
     3
 42
0.000000001
 43
0.0000000001
 44
0.00000001
 40
0.0
 40
0.0
 40
0.0
 40
0.0
 40
0.4697861522010973
 40
0.8712471595482901
 40
0.8712471595482901
 40
0.8712471595482901
 40
0.8712471595482901
 10
-14.59807470591028
 20
93.95282302159688
 30
0.0
 10
-14.71415836566474
 20
93.84054804512662
 30
0.0
 10
-14.92944259813294
 20
93.6323272222343
 30
0.0
 10
-14.97774246235432
 20
93.33830513461153
 30
0.0
 10
-14.99999849455698
 20
93.20282302159688
 30
0.0
 11
-14.59807470591028
 21
93.95282302159688
 31
0.0
 11
-14.89777520086002
 21
93.5910514857467
 31
0.0
 11
-14.99999849455698
 21
93.20282302159688
 31
0.0
  0
SPLINE
  5
16A
330
47
100
AcDbEntity
  8
0
  6
Continuous
 62
     7
100
AcDbSpline
210
0.0
220
0.0
230
1.0
 70
     8
 71
     3
 72
    19
 73
    15
 74
    13
 42
0.000000001
 43
0.0000000001
 44
0.00000001
 40
0.0
 40
0.0
 40
0.0
 40
0.0
 40
0.4014610051777583
 40
0.8712471558980358
 40
1.44028693154705
 40
2.10576604014136
 40
2.844663649928925
 40
3.622801020616925
 40
4.400938391304924
 40
5.139836001092453
 40
5.80531510968673
 40
6.374354885335761
 40
6.844141036056041
 40
7.245602041233815
 40
7.245602041233815
 40
7.245602041233815
 40
7.245602041233815
 10
-14.99999849455698
 20
93.20282302159688
 30
0.0
 10
-14.97713917481117
 20
93.06840162678479
 30
0.0
 10
-14.92753006113067
 20
92.77668150099792
 30
0.0
 10
-14.58356360275352
 20
92.41149471912526
 30
0.0
 10
-14.10280191527782
 20
92.10902267010358
 30
0.0
 10
-13.48076249404245
 20
91.87935613862746
 30
0.0
 10
-12.76577858869998
 20
91.73529087536663
 30
0.0
 10
-11.99999849455694
 20
91.68616917139505
 30
0.0
 10
-11.2342184004139
 20
91.73529087536663
 30
0.0
 10
-10.51923449507148
 20
91.87935613862751
 30
0.0
 10
-9.897195073836114
 20
92.10902267010366
 30
0.0
 10
-9.416433386360458
 20
92.41149471912536
 30
0.0
 10
-9.072466927983285
 20
92.77668150099808
 30
0.0
 10
-9.022857814302789
 20
93.0684016267849
 30
0.0
 10
-8.999998494556976
 20
93.20282302159703
 30
0.0
 11
-14.99999849455698
 21
93.20282302159688
 31
0.0
 11
-14.89777520085999
 21
92.8145945574471
 31
0.0
 11
-14.59807470591029
 21
92.4528230215969
 31
0.0
 11
-14.12131827256039
 21
92.14216313259521
 31
0.0
 11
-13.49999849455699
 21
91.90378491592027
 31
0.0
 11
-12.77645542285657
 21
91.75393466844544
 31
0.0
 11
-11.99999849455694
 21
91.70282302159697
 31
0.0
 11
-11.22354156625731
 21
91.75393466844547
 31
0.0
 11
-10.49999849455693
 21
91.90378491592034
 31
0.0
 11
-9.878678716553567
 21
92.1421631325953
 31
0.0
 11
-9.401922283203682
 21
92.45282302159703
 31
0.0
 11
-9.102221788253978
 21
92.81459455744722
 31
0.0
 11
-8.999998494556976
 21
93.20282302159703
 31
0.0
  0
ENDBLK
  5
49
330
47
100
AcDbEntity
  8
0
100
AcDbBlockEnd
  0
BLOCK
  5
4C
330
4A
100
AcDbEntity
  8
0
100
AcDbBlockBegin
  2
AllgSicht1
 70
     0
 10
-11.99999999998119
 20
79.00000214116005
 30
0.0
  3
AllgSicht1
  1

  0
INSERT
  5
4B
330
4A
100
AcDbEntity
  8
0
100
AcDbBlockReference
  2
E_NS_35_N_select__1
 10
-35.4194158065188
 20
56.6653794434796
 30
0.0
  0
MTEXT
  5
16C
330
4A
100
AcDbEntity
  8
1
 62
     6
100
AcDbMText
 10
-11.99999999998011
 20
51.66537714925153
 30
0.0
 40
5.0
 41
0.0
 71
     2
 72
     1
  1
 
  7
CONVERTER_11
 73
     1
 44
1.32052821128451
  0
ENDBLK
  5
4D
330
4A
100
AcDbEntity
  8
0
100
AcDbBlockEnd
  0
BLOCK
  5
4F
330
4E
100
AcDbEntity
  8
0
100
AcDbBlockBegin
  2
E_NS_35_N_select__2
 70
     0
 10
-153.3499985233358
 20
65.73336701647155
 30
0.0
  3
E_NS_35_N_select__2
  1

  0
LINE
  5
16D
330
4E
100
AcDbEntity
  8
0
  6
Continuous
 62
     7
100
AcDbLine
 10
-147.5095286476703
 20
75.23336701647153
 30
0.0
 11
-147.5095286476703
 21
65.73336701647155
 31
0.0
  0
LINE
  5
16E
330
4E
100
AcDbEntity
  8
0
  6
Continuous
 62
     7
100
AcDbLine
 10
-147.9337927163822
 20
75.23336701647153
 30
0.0
 11
-147.9337927163822
 21
65.73336701647155
 31
0.0
  0
LINE
  5
16F
330
4E
100
AcDbEntity
  8
0
  6
Continuous
 62
     7
100
AcDbLine
 10
-108.9255136880856
 20
75.23336701647155
 30
0.0
 11
-106.78294277611
 21
75.23336701647155
 31
0.0
  0
LINE
  5
170
330
4E
100
AcDbEntity
  8
0
  6
Continuous
 62
     7
100
AcDbLine
 10
-111.1207984848917
 20
65.73336701647155
 30
0.0
 11
-111.1207984848917
 21
75.23336701647156
 31
0.0
  0
LINE
  5
171
330
4E
100
AcDbEntity
  8
0
  6
Continuous
 62
     7
100
AcDbLine
 10
-113.8499985233361
 20
75.23336701647155
 30
0.0
 11
-111.8170542705623
 21
75.23336701647155
 31
0.0
  0
LINE
  5
172
330
4E
100
AcDbEntity
  8
0
  6
Continuous
 62
     7
100
AcDbLine
 10
-133.049998523336
 20
75.23336701647155
 30
0.0
 11
-125.049998523336
 21
75.23336701647155
 31
0.0
  0
LINE
  5
173
330
4E
100
AcDbEntity
  8
0
  6
Continuous
 62
     7
100
AcDbLine
 10
-139.049998523336
 20
74.23336701647155
 30
0.0
 11
-139.049998523336
 21
75.23336701647155
 31
0.0
  0
LINE
  5
174
330
4E
100
AcDbEntity
  8
0
  6
Continuous
 62
     7
100
AcDbLine
 10
-138.0248676795958
 20
68.63904422396695
 30
0.0
 11
-138.0248676795958
 21
72.32768980903835
 31
0.0
  0
LINE
  5
175
330
4E
100
AcDbEntity
  8
0
  6
Continuous
 62
     7
100
AcDbLine
 10
-144.2499985233361
 20
75.23336701647155
 30
0.0
 11
-139.049998523336
 21
75.23336701647155
 31
0.0
  0
LINE
  5
176
330
4E
100
AcDbEntity
  8
0
  6
Continuous
 62
     7
100
AcDbLine
 10
-119.049998523336
 20
75.23336701647155
 30
0.0
 11
-113.8499985233361
 21
75.23336701647155
 31
0.0
  0
LINE
  5
177
330
4E
100
AcDbEntity
  8
0
  6
Continuous
 62
     7
100
AcDbLine
 10
-113.8499985233361
 20
65.73336701647155
 30
0.0
 11
-113.8499985233361
 21
75.23336701647155
 31
0.0
  0
LINE
  5
178
330
4E
100
AcDbEntity
  8
0
  6
Continuous
 62
     7
100
AcDbLine
 10
-129.0499985233358
 20
71.26118447577676
 30
0.0
 11
-127.3535415776212
 21
72.95764142149142
 31
0.0
  0
LINE
  5
179
330
4E
100
AcDbEntity
  8
0
  6
Continuous
 62
     7
100
AcDbLine
 10
-124.3248676793001
 20
72.32768980903835
 30
0.0
 11
-120.0751293674434
 21
72.32768980903835
 31
0.0
  0
LINE
  5
17A
330
4E
100
AcDbEntity
  8
0
  6
Continuous
 62
     7
100
AcDbLine
 10
-138.0248676795958
 20
72.32768980903835
 30
0.0
 11
-133.7751293671437
 21
72.32768980903835
 31
0.0
  0
LINE
  5
17B
330
4E
100
AcDbEntity
  8
0
  6
Continuous
 62
     7
100
AcDbLine
 10
-130.7464554690505
 20
72.95764142149142
 30
0.0
 11
-129.0499985233358
 21
71.26118447577676
 31
0.0
  0
LINE
  5
17C
330
4E
100
AcDbEntity
  8
0
  6
Continuous
 62
     7
100
AcDbLine
 10
-120.0751293674434
 20
72.32768980903835
 30
0.0
 11
-120.0751293674434
 21
68.63904422396695
 31
0.0
  0
LINE
  5
17D
330
4E
100
AcDbEntity
  8
0
  6
Continuous
 62
     7
100
AcDbLine
 10
-125.049998523336
 20
74.23336701647155
 30
0.0
 11
-125.049998523336
 21
75.23336701647155
 31
0.0
  0
LINE
  5
17E
330
4E
100
AcDbEntity
  8
0
  6
Continuous
 62
     7
100
AcDbLine
 10
-124.3248676793001
 20
68.63904422396695
 30
0.0
 11
-124.3248676793001
 21
72.32768980903835
 31
0.0
  0
LINE
  5
17F
330
4E
100
AcDbEntity
  8
0
  6
Continuous
 62
     7
100
AcDbLine
 10
-133.7751293671437
 20
72.32768980903835
 30
0.0
 11
-133.7751293671437
 21
68.63904422396695
 31
0.0
  0
LINE
  5
180
330
4E
100
AcDbEntity
  8
0
  6
Continuous
 62
     7
100
AcDbLine
 10
-144.2499985233361
 20
65.73336701647155
 30
0.0
 11
-144.2499985233361
 21
75.23336701647155
 31
0.0
  0
LINE
  5
181
330
4E
100
AcDbEntity
  8
0
  6
Continuous
 62
     7
100
AcDbLine
 10
-126.575724118316
 20
72.17982396218622
 30
0.0
 11
-128.2721810640307
 21
70.48336701647159
 31
0.0
  0
LINE
  5
182
330
4E
100
AcDbEntity
  8
0
  6
Continuous
 62
     7
100
AcDbLine
 10
-111.8170542705623
 20
65.73336701647155
 30
0.0
 11
-111.8170542705623
 21
75.23336701647155
 31
0.0
  0
LINE
  5
183
330
4E
100
AcDbEntity
  8
0
  6
Continuous
 62
     7
100
AcDbLine
 10
-109.3088373581011
 20
65.73336701647155
 30
0.0
 11
-109.3088373581011
 21
75.23336701647155
 31
0.0
  0
LINE
  5
184
330
4E
100
AcDbEntity
  8
0
  6
Continuous
 62
     7
100
AcDbLine
 10
-108.9255136880856
 20
65.73336701647155
 30
0.0
 11
-108.9255136880856
 21
75.23336701647155
 31
0.0
  0
LINE
  5
185
330
4E
100
AcDbEntity
  8
0
  6
Continuous
 62
     7
100
AcDbLine
 10
-106.78294277611
 20
65.73336701647155
 30
0.0
 11
-106.78294277611
 21
75.23336701647155
 31
0.0
  0
LINE
  5
186
330
4E
100
AcDbEntity
  8
0
  6
Continuous
 62
     7
100
AcDbLine
 10
-104.7499985233358
 20
65.73336701647155
 30
0.0
 11
-104.7499985233358
 21
75.23336701647155
 31
0.0
  0
LINE
  5
187
330
4E
100
AcDbEntity
  8
0
  6
Continuous
 62
     7
100
AcDbLine
 10
-108.9255136880856
 20
65.73336701647155
 30
0.0
 11
-106.78294277611
 21
65.73336701647155
 31
0.0
  0
LINE
  5
188
330
4E
100
AcDbEntity
  8
0
  6
Continuous
 62
     7
100
AcDbLine
 10
-110.5904683990014
 20
65.73336701647155
 30
0.0
 11
-111.1207984848917
 21
65.73336701647155
 31
0.0
  0
LINE
  5
189
330
4E
100
AcDbEntity
  8
0
  6
Continuous
 62
     7
100
AcDbLine
 10
-110.1662043302897
 20
65.73336701647155
 30
0.0
 11
-110.5904683990014
 21
65.73336701647155
 31
0.0
  0
LINE
  5
18A
330
4E
100
AcDbEntity
  8
0
  6
Continuous
 62
     7
100
AcDbLine
 10
-111.1207984848917
 20
65.73336701647155
 30
0.0
 11
-111.4389965364259
 21
65.73336701647155
 31
0.0
  0
LINE
  5
18B
330
4E
100
AcDbEntity
  8
0
  6
Continuous
 62
     7
100
AcDbLine
 10
-111.4389965364259
 20
65.73336701647155
 30
0.0
 11
-111.8170542705623
 21
65.73336701647155
 31
0.0
  0
LINE
  5
18C
330
4E
100
AcDbEntity
  8
0
  6
Continuous
 62
     7
100
AcDbLine
 10
-109.3088373581011
 20
65.73336701647155
 30
0.0
 11
-108.9255136880856
 21
65.73336701647155
 31
0.0
  0
LINE
  5
18D
330
4E
100
AcDbEntity
  8
0
  6
Continuous
 62
     7
100
AcDbLine
 10
-113.8499985233361
 20
65.73336701647155
 30
0.0
 11
-111.8170542705623
 21
65.73336701647155
 31
0.0
  0
LINE
  5
18E
330
4E
100
AcDbEntity
  8
0
  6
Continuous
 62
     7
100
AcDbLine
 10
-146.9791985617801
 20
65.73336701647155
 30
0.0
 11
-147.5095286476703
 21
65.73336701647155
 31
0.0
  0
LINE
  5
18F
330
4E
100
AcDbEntity
  8
0
  6
Continuous
 62
     7
100
AcDbLine
 10
-146.6610005102464
 20
65.73336701647155
 30
0.0
 11
-146.9791985617801
 21
65.73336701647155
 31
0.0
  0
LINE
  5
190
330
4E
100
AcDbEntity
  8
0
  6
Continuous
 62
     7
100
AcDbLine
 10
-144.2499985233361
 20
65.73336701647155
 30
0.0
 11
-146.2829427761095
 21
65.73336701647155
 31
0.0
  0
LINE
  5
191
330
4E
100
AcDbEntity
  8
0
  6
Continuous
 62
     7
100
AcDbLine
 10
-147.5095286476703
 20
65.73336701647155
 30
0.0
 11
-147.9337927163822
 21
65.73336701647155
 31
0.0
  0
LINE
  5
192
330
4E
100
AcDbEntity
  8
0
  6
Continuous
 62
     7
100
AcDbLine
 10
-149.174483358586
 20
65.73336701647155
 30
0.0
 11
-148.7911596885708
 21
65.73336701647155
 31
0.0
  0
LINE
  5
193
330
4E
100
AcDbEntity
  8
0
  6
Continuous
 62
     7
100
AcDbLine
 10
-147.9337927163822
 20
65.73336701647155
 30
0.0
 11
-148.7911596885708
 21
65.73336701647155
 31
0.0
  0
LINE
  5
194
330
4E
100
AcDbEntity
  8
0
  6
Continuous
 62
     7
100
AcDbLine
 10
-151.3170542705615
 20
65.73336701647155
 30
0.0
 11
-149.174483358586
 21
65.73336701647155
 31
0.0
  0
LINE
  5
195
330
4E
100
AcDbEntity
  8
0
  6
Continuous
 62
     7
100
AcDbLine
 10
-151.3170542705615
 20
65.73336701647155
 30
0.0
 11
-153.3499985233358
 21
65.73336701647155
 31
0.0
  0
LINE
  5
196
330
4E
100
AcDbEntity
  8
0
  6
Continuous
 62
     7
100
AcDbLine
 10
-119.049998523336
 20
65.73336701647155
 30
0.0
 11
-113.8499985233361
 21
65.73336701647155
 31
0.0
  0
LINE
  5
197
330
4E
100
AcDbEntity
  8
0
  6
Continuous
 62
     7
100
AcDbLine
 10
-109.3088373581011
 20
65.73336701647155
 30
0.0
 11
-110.1662043302897
 21
65.73336701647155
 31
0.0
  0
LINE
  5
198
330
4E
100
AcDbEntity
  8
0
  6
Continuous
 62
     7
100
AcDbLine
 10
-106.78294277611
 20
65.73336701647155
 30
0.0
 11
-104.7499985233358
 21
65.73336701647155
 31
0.0
  0
LINE
  5
199
330
4E
100
AcDbEntity
  8
0
  6
Continuous
 62
     7
100
AcDbLine
 10
-106.78294277611
 20
75.23336701647155
 30
0.0
 11
-104.7499985233358
 21
75.23336701647155
 31
0.0
  0
LINE
  5
19A
330
4E
100
AcDbEntity
  8
0
  6
Continuous
 62
     7
100
AcDbLine
 10
-111.1207984848917
 20
75.23336701647156
 30
0.0
 11
-111.4389965364259
 21
75.23336701647155
 31
0.0
  0
LINE
  5
19B
330
4E
100
AcDbEntity
  8
0
  6
Continuous
 62
     7
100
AcDbLine
 10
-111.4389965364259
 20
75.23336701647155
 30
0.0
 11
-111.8170542705623
 21
75.23336701647155
 31
0.0
  0
LINE
  5
19C
330
4E
100
AcDbEntity
  8
0
  6
Continuous
 62
     7
100
AcDbLine
 10
-110.1662043302897
 20
75.23336701647155
 30
0.0
 11
-110.5904683990014
 21
75.23336701647155
 31
0.0
  0
LINE
  5
19D
330
4E
100
AcDbEntity
  8
0
  6
Continuous
 62
     7
100
AcDbLine
 10
-110.5904683990014
 20
75.23336701647155
 30
0.0
 11
-111.1207984848917
 21
75.23336701647156
 31
0.0
  0
LINE
  5
19E
330
4E
100
AcDbEntity
  8
0
  6
Continuous
 62
     7
100
AcDbLine
 10
-109.3088373581011
 20
75.23336701647155
 30
0.0
 11
-108.9255136880856
 21
75.23336701647155
 31
0.0
  0
LINE
  5
19F
330
4E
100
AcDbEntity
  8
0
  6
Continuous
 62
     7
100
AcDbLine
 10
-109.3088373581011
 20
75.23336701647155
 30
0.0
 11
-110.1662043302897
 21
75.23336701647155
 31
0.0
  0
LINE
  5
1A0
330
4E
100
AcDbEntity
  8
0
  6
Continuous
 62
     7
100
AcDbLine
 10
-146.9791985617802
 20
75.23336701647155
 30
0.0
 11
-147.5095286476703
 21
75.23336701647153
 31
0.0
  0
LINE
  5
1A1
330
4E
100
AcDbEntity
  8
0
  6
Continuous
 62
     7
100
AcDbLine
 10
-146.6610005102464
 20
75.23336701647153
 30
0.0
 11
-146.9791985617802
 21
75.23336701647155
 31
0.0
  0
LINE
  5
1A2
330
4E
100
AcDbEntity
  8
0
  6
Continuous
 62
     7
100
AcDbLine
 10
-144.2499985233361
 20
75.23336701647155
 30
0.0
 11
-146.2829427761095
 21
75.23336701647155
 31
0.0
  0
LINE
  5
1A3
330
4E
100
AcDbEntity
  8
0
  6
Continuous
 62
     7
100
AcDbLine
 10
-133.049998523336
 20
75.23336701647155
 30
0.0
 11
-133.049998523336
 21
74.23336701647155
 31
0.0
  0
LINE
  5
1A4
330
4E
100
AcDbEntity
  8
0
  6
Continuous
 62
     7
100
AcDbLine
 10
-119.049998523336
 20
75.23336701647155
 30
0.0
 11
-119.049998523336
 21
74.23336701647155
 31
0.0
  0
LINE
  5
1A5
330
4E
100
AcDbEntity
  8
0
  6
Continuous
 62
     7
100
AcDbLine
 10
-147.5095286476703
 20
75.23336701647153
 30
0.0
 11
-147.9337927163822
 21
75.23336701647153
 31
0.0
  0
LINE
  5
1A6
330
4E
100
AcDbEntity
  8
0
  6
Continuous
 62
     7
100
AcDbLine
 10
-151.3170542705615
 20
75.23336701647155
 30
0.0
 11
-149.174483358586
 21
75.23336701647155
 31
0.0
  0
LINE
  5
1A7
330
4E
100
AcDbEntity
  8
0
  6
Continuous
 62
     7
100
AcDbLine
 10
-151.3170542705615
 20
75.23336701647155
 30
0.0
 11
-153.3499985233358
 21
75.23336701647155
 31
0.0
  0
LINE
  5
1A8
330
4E
100
AcDbEntity
  8
0
  6
Continuous
 62
     7
100
AcDbLine
 10
-149.174483358586
 20
75.23336701647155
 30
0.0
 11
-148.7911596885708
 21
75.23336701647155
 31
0.0
  0
LINE
  5
1A9
330
4E
100
AcDbEntity
  8
0
  6
Continuous
 62
     7
100
AcDbLine
 10
-147.9337927163822
 20
75.23336701647153
 30
0.0
 11
-148.7911596885708
 21
75.23336701647155
 31
0.0
  0
LINE
  5
1AA
330
4E
100
AcDbEntity
  8
0
  6
Continuous
 62
     7
100
AcDbLine
 10
-119.049998523336
 20
74.23336701647155
 30
0.0
 11
-125.049998523336
 21
74.23336701647155
 31
0.0
  0
LINE
  5
1AB
330
4E
100
AcDbEntity
  8
0
  6
Continuous
 62
     7
100
AcDbLine
 10
-111.4389965364259
 20
75.23336701647155
 30
0.0
 11
-111.4389965364259
 21
65.73336701647155
 31
0.0
  0
LINE
  5
1AC
330
4E
100
AcDbEntity
  8
0
  6
Continuous
 62
     7
100
AcDbLine
 10
-133.049998523336
 20
74.23336701647155
 30
0.0
 11
-139.049998523336
 21
74.23336701647155
 31
0.0
  0
LINE
  5
1AD
330
4E
100
AcDbEntity
  8
0
  6
Continuous
 62
     7
100
AcDbLine
 10
-125.049998523336
 20
66.73336701647155
 30
0.0
 11
-125.049998523336
 21
65.73336701647155
 31
0.0
  0
LINE
  5
1AE
330
4E
100
AcDbEntity
  8
0
  6
Continuous
 62
     7
100
AcDbLine
 10
-139.049998523336
 20
66.73336701647155
 30
0.0
 11
-139.049998523336
 21
65.73336701647155
 31
0.0
  0
LINE
  5
1AF
330
4E
100
AcDbEntity
  8
0
  6
Continuous
 62
     7
100
AcDbLine
 10
-144.2499985233361
 20
65.73336701647155
 30
0.0
 11
-139.049998523336
 21
65.73336701647155
 31
0.0
  0
LINE
  5
1B0
330
4E
100
AcDbEntity
  8
0
  6
Continuous
 62
     7
100
AcDbLine
 10
-133.049998523336
 20
65.73336701647155
 30
0.0
 11
-133.049998523336
 21
66.73336701647155
 31
0.0
  0
LINE
  5
1B1
330
4E
100
AcDbEntity
  8
0
  6
Continuous
 62
     7
100
AcDbLine
 10
-133.049998523336
 20
65.73336701647155
 30
0.0
 11
-125.049998523336
 21
65.73336701647155
 31
0.0
  0
LINE
  5
1B2
330
4E
100
AcDbEntity
  8
0
  6
Continuous
 62
     7
100
AcDbLine
 10
-110.5904683990014
 20
75.23336701647155
 30
0.0
 11
-110.5904683990014
 21
65.73336701647155
 31
0.0
  0
LINE
  5
1B3
330
4E
100
AcDbEntity
  8
0
  6
Continuous
 62
     7
100
AcDbLine
 10
-110.1662043302897
 20
75.23336701647155
 30
0.0
 11
-110.1662043302897
 21
65.73336701647155
 31
0.0
  0
LINE
  5
1B4
330
4E
100
AcDbEntity
  8
0
  6
Continuous
 62
     7
100
AcDbLine
 10
-146.2829427761095
 20
65.73336701647155
 30
0.0
 11
-146.6610005102464
 21
65.73336701647155
 31
0.0
  0
LINE
  5
1B5
330
4E
100
AcDbEntity
  8
0
  6
Continuous
 62
     7
100
AcDbLine
 10
-146.2829427761095
 20
75.23336701647155
 30
0.0
 11
-146.6610005102464
 21
75.23336701647153
 31
0.0
  0
LINE
  5
1B6
330
4E
100
AcDbEntity
  8
0
  6
Continuous
 62
     7
100
AcDbLine
 10
-146.6610005102464
 20
75.23336701647153
 30
0.0
 11
-146.6610005102464
 21
65.73336701647155
 31
0.0
  0
LINE
  5
1B7
330
4E
100
AcDbEntity
  8
0
  6
Continuous
 62
     7
100
AcDbLine
 10
-146.2829427761095
 20
65.73336701647155
 30
0.0
 11
-146.2829427761095
 21
75.23336701647155
 31
0.0
  0
LINE
  5
1B8
330
4E
100
AcDbEntity
  8
0
  6
Continuous
 62
     7
100
AcDbLine
 10
-146.9791985617802
 20
75.23336701647155
 30
0.0
 11
-146.9791985617801
 21
65.73336701647155
 31
0.0
  0
LINE
  5
1B9
330
4E
100
AcDbEntity
  8
0
  6
Continuous
 62
     7
100
AcDbLine
 10
-151.3170542705615
 20
65.73336701647155
 30
0.0
 11
-151.3170542705615
 21
75.23336701647155
 31
0.0
  0
LINE
  5
1BA
330
4E
100
AcDbEntity
  8
0
  6
Continuous
 62
     7
100
AcDbLine
 10
-153.3499985233358
 20
65.73336701647155
 30
0.0
 11
-153.3499985233358
 21
75.23336701647155
 31
0.0
  0
LINE
  5
1BB
330
4E
100
AcDbEntity
  8
0
  6
Continuous
 62
     7
100
AcDbLine
 10
-119.049998523336
 20
65.73336701647155
 30
0.0
 11
-119.049998523336
 21
66.73336701647155
 31
0.0
  0
LINE
  5
1BC
330
4E
100
AcDbEntity
  8
0
  6
Continuous
 62
     7
100
AcDbLine
 10
-128.2721810640307
 20
70.48336701647159
 30
0.0
 11
-126.575724118316
 21
68.78691007075687
 31
0.0
  0
LINE
  5
1BD
330
4E
100
AcDbEntity
  8
0
  6
Continuous
 62
     7
100
AcDbLine
 10
-127.3535415776212
 20
68.00909261145166
 30
0.0
 11
-129.0499985233359
 21
69.70554955716632
 31
0.0
  0
LINE
  5
1BE
330
4E
100
AcDbEntity
  8
0
  6
Continuous
 62
     7
100
AcDbLine
 10
-119.049998523336
 20
66.73336701647155
 30
0.0
 11
-125.049998523336
 21
66.73336701647155
 31
0.0
  0
LINE
  5
1BF
330
4E
100
AcDbEntity
  8
0
  6
Continuous
 62
     7
100
AcDbLine
 10
-120.0751293674434
 20
68.63904422396695
 30
0.0
 11
-124.3248676793001
 21
68.63904422396695
 31
0.0
  0
LINE
  5
1C0
330
4E
100
AcDbEntity
  8
0
  6
Continuous
 62
     7
100
AcDbLine
 10
-133.7751293671437
 20
68.63904422396695
 30
0.0
 11
-138.0248676795958
 21
68.63904422396695
 31
0.0
  0
LINE
  5
1C1
330
4E
100
AcDbEntity
  8
0
  6
Continuous
 62
     7
100
AcDbLine
 10
-133.049998523336
 20
66.73336701647155
 30
0.0
 11
-139.049998523336
 21
66.73336701647155
 31
0.0
  0
LINE
  5
1C2
330
4E
100
AcDbEntity
  8
0
  6
Continuous
 62
     7
100
AcDbLine
 10
-129.0499985233359
 20
69.70554955716632
 30
0.0
 11
-130.7464554690505
 21
68.00909261145166
 31
0.0
  0
LINE
  5
1C3
330
4E
100
AcDbEntity
  8
0
  6
Continuous
 62
     7
100
AcDbLine
 10
-131.5242729283557
 20
68.78691007075687
 30
0.0
 11
-129.827815982641
 21
70.48336701647155
 31
0.0
  0
LINE
  5
1C4
330
4E
100
AcDbEntity
  8
0
  6
Continuous
 62
     7
100
AcDbLine
 10
-149.174483358586
 20
65.73336701647155
 30
0.0
 11
-149.174483358586
 21
75.23336701647155
 31
0.0
  0
LINE
  5
1C5
330
4E
100
AcDbEntity
  8
0
  6
Continuous
 62
     7
100
AcDbLine
 10
-148.7911596885708
 20
75.23336701647155
 30
0.0
 11
-148.7911596885708
 21
65.73336701647155
 31
0.0
  0
LINE
  5
1C6
330
4E
100
AcDbEntity
  8
0
  6
Continuous
 62
     7
100
AcDbLine
 10
-129.827815982641
 20
70.48336701647155
 30
0.0
 11
-131.5242729283557
 21
72.17982396218622
 31
0.0
  0
LINE
  5
1C7
330
4E
100
AcDbEntity
  8
1
  6
DOT_CENTER
 62
     2
100
AcDbLine
 10
-125.7499985233362
 20
70.48336701647155
 30
0.0
 11
-132.3499985233358
 21
70.48336701647155
 31
0.0
  0
LINE
  5
1C8
330
4E
100
AcDbEntity
  8
1
  6
DOT_CENTER
 62
     2
100
AcDbLine
 10
-129.049998523336
 20
73.7833670164714
 30
0.0
 11
-129.049998523336
 21
67.18336701647169
 31
0.0
  0
ARC
  5
1C9
330
4E
100
AcDbEntity
  8
0
  6
Continuous
 62
     7
100
AcDbCircle
 10
-129.049998523336
 20
70.48336701647155
 30
0.0
 40
2.999999999999893
100
AcDbArc
 50
124.4360224109386
 51
145.5639775890568
  0
ARC
  5
1CA
330
4E
100
AcDbEntity
  8
0
  6
Continuous
 62
     7
100
AcDbCircle
 10
-129.049998523336
 20
70.48336701647155
 30
0.0
 40
3.00000000000007
100
AcDbArc
 50
55.56397758905652
 51
124.4360224109386
  0
ARC
  5
1CB
330
4E
100
AcDbEntity
  8
0
  6
Continuous
 62
     7
100
AcDbCircle
 10
-129.049998523336
 20
70.48336701647155
 30
0.0
 40
2.999999999999868
100
AcDbArc
 50
145.5639775890568
 51
180.0
  0
ARC
  5
1CC
330
4E
100
AcDbEntity
  8
0
  6
Continuous
 62
     7
100
AcDbCircle
 10
-129.049998523336
 20
70.48336701647155
 30
0.0
 40
3.000000000000103
100
AcDbArc
 50
34.43602241094008
 51
55.56397758905652
  0
ARC
  5
1CD
330
4E
100
AcDbEntity
  8
0
  6
Continuous
 62
     7
100
AcDbCircle
 10
-129.049998523336
 20
70.48336701647155
 30
0.0
 40
3.000000000000103
100
AcDbArc
 50
325.5639775890599
 51
34.43602241094008
  0
ARC
  5
1CE
330
4E
100
AcDbEntity
  8
0
  6
Continuous
 62
     7
100
AcDbCircle
 10
-129.049998523336
 20
70.48336701647155
 30
0.0
 40
3.0
100
AcDbArc
 50
180.0
 51
214.4360224109432
  0
ARC
  5
1CF
330
4E
100
AcDbEntity
  8
0
  6
Continuous
 62
     7
100
AcDbCircle
 10
-129.049998523336
 20
70.48336701647155
 30
0.0
 40
2.999999999999868
100
AcDbArc
 50
214.4360224109432
 51
235.5639775890616
  0
ARC
  5
1D0
330
4E
100
AcDbEntity
  8
0
  6
Continuous
 62
     7
100
AcDbCircle
 10
-129.049998523336
 20
70.48336701647155
 30
0.0
 40
3.000000000000081
100
AcDbArc
 50
304.4360224109433
 51
325.5639775890599
  0
ARC
  5
1D1
330
4E
100
AcDbEntity
  8
0
  6
Continuous
 62
     7
100
AcDbCircle
 10
-129.049998523336
 20
70.48336701647155
 30
0.0
 40
2.999999999999905
100
AcDbArc
 50
235.5639775890616
 51
304.4360224109433
  0
ENDBLK
  5
50
330
4E
100
AcDbEntity
  8
0
100
AcDbBlockEnd
  0
BLOCK
  5
53
330
51
100
AcDbEntity
  8
0
100
AcDbBlockBegin
  2
Drfsicht1
 70
     0
 10
-129.0500002616703
 20
70.48336701650658
 30
0.0
  3
Drfsicht1
  1

  0
INSERT
  5
52
330
51
100
AcDbEntity
  8
0
100
AcDbBlockReference
  2
E_NS_35_N_select__2
 10
-153.3499985233358
 20
65.73336701647155
 30
0.0
  0
DIMENSION
  5
1DE
330
51
100
AcDbEntity
  8
1
100
AcDbDimension
  2
*D17
 10
-163.3499985233358
 20
65.73336701647155
 30
0.0
 11
-166.7749985233358
 21
70.54498474431226
 31
0.0
 70
    32
  1
<>
 71
     5
 42
-1.0
 53
90.0
  3
ME10_DIM_10
100
AcDbAlignedDimension
 13
-153.3499985233358
 23
75.23336701647155
 33
0.0
 14
-153.3499985233358
 24
65.73336701647155
 34
0.0
 50
90.0
100
AcDbRotatedDimension
  0
ENDBLK
  5
54
330
51
100
AcDbEntity
  8
0
100
AcDbBlockEnd
  0
BLOCK
  5
56
330
55
100
AcDbEntity
  8
0
100
AcDbBlockBegin
  2
E_NS_35_N_select__3
 70
     0
 10
-26.3000017383796
 20
127.6000128914057
 30
0.0
  3
E_NS_35_N_select__3
  1

  0
LINE
  5
1DF
330
55
100
AcDbEntity
  8
0
  6
Continuous
 62
     7
100
AcDbLine
 10
22.2999982616204
 20
151.3000128914054
 30
0.0
 11
22.29999826162051
 21
127.6000128914062
 31
0.0
  0
LINE
  5
1E0
330
55
100
AcDbEntity
  8
0
  6
Continuous
 62
     7
100
AcDbLine
 10
18.92095295935786
 20
129.8000128600253
 30
0.0
 11
20.46140952144645
 21
127.6000128914057
 31
0.0
  0
LINE
  5
1E1
330
55
100
AcDbEntity
  8
0
  6
Continuous
 62
     7
100
AcDbLine
 10
18.49776368272489
 20
152.1253279215057
 30
0.0
 11
17.7411594268554
 21
151.3687236656361
 31
0.0
  0
LINE
  5
1E2
330
55
100
AcDbEntity
  8
0
  6
Continuous
 62
     7
100
AcDbLine
 10
-21.74116290361426
 20
151.3687236656359
 30
0.0
 11
-22.49776715948415
 21
152.1253279215058
 31
0.0
  0
LINE
  5
1E3
330
55
100
AcDbEntity
  8
0
  6
Continuous
 62
     7
100
AcDbLine
 10
-22.49776715948415
 20
152.1253279215058
 30
0.0
 11
-22.12448657362979
 21
152.4986085073603
 31
0.0
  0
LINE
  5
1E4
330
55
100
AcDbEntity
  8
0
  6
Continuous
 62
     7
100
AcDbLine
 10
-20.88379593142563
 20
153.2867508096043
 30
0.0
 11
-20.45953186271393
 21
153.711014878316
 31
0.0
  0
LINE
  5
1E5
330
55
100
AcDbEntity
  8
0
  6
Continuous
 62
     7
100
AcDbLine
 10
18.12448309687062
 20
152.4986085073603
 30
0.0
 11
18.49776368272489
 21
152.1253279215057
 31
0.0
  0
LINE
  5
1E6
330
55
100
AcDbEntity
  8
0
  6
Continuous
 62
     7
100
AcDbLine
 10
-19.92920177682371
 20
153.1806847924264
 30
0.0
 11
-19.08067363939987
 21
154.0292129298501
 31
0.0
  0
LINE
  5
1E7
330
55
100
AcDbEntity
  8
0
  6
Continuous
 62
     7
100
AcDbLine
 10
-19.92920177682371
 20
153.1806847924264
 30
0.0
 11
-20.45953186271393
 21
153.711014878316
 31
0.0
  0
LINE
  5
1E8
330
55
100
AcDbEntity
  8
0
  6
Continuous
 62
     7
100
AcDbLine
 10
-20.35346584553568
 20
152.7564207237144
 30
0.0
 11
-20.88379593142563
 21
153.2867508096043
 31
0.0
  0
LINE
  5
1E9
330
55
100
AcDbEntity
  8
0
  6
Continuous
 62
     7
100
AcDbLine
 10
-22.12448657362979
 20
152.4986085073603
 30
0.0
 11
-24.26705748560542
 21
153.3329571441799
 31
0.0
  0
LINE
  5
1EA
330
55
100
AcDbEntity
  8
0
  6
Continuous
 62
     7
100
AcDbLine
 10
-19.6110037252895
 20
154.5595430157404
 30
0.0
 11
-19.18673965657809
 21
154.9838070844518
 31
0.0
  0
LINE
  5
1EB
330
55
100
AcDbEntity
  8
0
  6
Continuous
 62
     7
100
AcDbLine
 10
20.26705400884609
 20
153.33295714418
 30
0.0
 11
18.12448309687062
 21
152.4986085073603
 31
0.0
  0
LINE
  5
1EC
330
55
100
AcDbEntity
  8
0
  6
Continuous
 62
     7
100
AcDbLine
 10
-19.08067363939987
 20
154.0292129298501
 30
0.0
 11
-19.6110037252895
 21
154.5595430157404
 31
0.0
  0
LINE
  5
1ED
330
55
100
AcDbEntity
  8
0
  6
Continuous
 62
     7
100
AcDbLine
 10
-18.65640957068786
 20
154.4534769985621
 30
0.0
 11
-19.18673965657809
 21
154.9838070844518
 31
0.0
  0
LINE
  5
1EE
330
55
100
AcDbEntity
  8
0
  6
Continuous
 62
     7
100
AcDbLine
 10
-18.65640957068786
 20
154.4534769985621
 30
0.0
 11
-17.26871251260926
 21
155.8411740566406
 31
0.0
  0
LINE
  5
1EF
330
55
100
AcDbEntity
  8
0
  6
Continuous
 62
     7
100
AcDbLine
 10
-18.0253167684792
 20
156.5977783125105
 30
0.0
 11
-17.26871251260926
 21
155.8411740566406
 31
0.0
  0
LINE
  5
1F0
330
55
100
AcDbEntity
  8
0
  6
Continuous
 62
     7
100
AcDbLine
 10
-18.39859735433391
 20
156.2244977266557
 30
0.0
 11
-18.0253167684792
 21
156.5977783125105
 31
0.0
  0
LINE
  5
1F1
330
55
100
AcDbEntity
  8
0
  6
Continuous
 62
     7
100
AcDbLine
 10
-19.23294599115309
 20
158.3670686386317
 30
0.0
 11
-18.39859735433391
 21
156.2244977266557
 31
0.0
  0
LINE
  5
1F2
330
55
100
AcDbEntity
  8
0
  6
Continuous
 62
     7
100
AcDbLine
 10
-12.00000173837939
 20
160.400012891406
 30
0.0
 11
-17.20000173837923
 21
160.4000128914061
 31
0.0
  0
LINE
  5
1F3
330
55
100
AcDbEntity
  8
0
  6
Continuous
 62
     7
100
AcDbLine
 10
16.35346236877689
 20
152.7564207237143
 30
0.0
 11
16.88379245466686
 21
153.2867508096044
 31
0.0
  0
LINE
  5
1F4
330
55
100
AcDbEntity
  8
0
  6
Continuous
 62
     7
100
AcDbLine
 10
16.45952838595497
 20
153.7110148783163
 30
0.0
 11
16.88379245466686
 21
153.2867508096044
 31
0.0
  0
LINE
  5
1F5
330
55
100
AcDbEntity
  8
0
  6
Continuous
 62
     7
100
AcDbLine
 10
15.92919830006477
 20
153.1806847924264
 30
0.0
 11
16.45952838595497
 21
153.7110148783163
 31
0.0
  0
LINE
  5
1F6
330
55
100
AcDbEntity
  8
0
  6
Continuous
 62
     7
100
AcDbLine
 10
15.08067016264107
 20
154.02921292985
 30
0.0
 11
15.92919830006477
 21
153.1806847924264
 31
0.0
  0
LINE
  5
1F7
330
55
100
AcDbEntity
  8
0
  6
Continuous
 62
     7
100
AcDbLine
 10
15.08067016264107
 20
154.02921292985
 30
0.0
 11
15.61100024853099
 21
154.5595430157403
 31
0.0
  0
LINE
  5
1F8
330
55
100
AcDbEntity
  8
0
  6
Continuous
 62
     7
100
AcDbLine
 10
15.18673617981909
 20
154.9838070844522
 30
0.0
 11
15.61100024853099
 21
154.5595430157403
 31
0.0
  0
LINE
  5
1F9
330
55
100
AcDbEntity
  8
0
  6
Continuous
 62
     7
100
AcDbLine
 10
14.65640609392889
 20
154.4534769985621
 30
0.0
 11
15.18673617981909
 21
154.9838070844522
 31
0.0
  0
LINE
  5
1FA
330
55
100
AcDbEntity
  8
0
  6
Continuous
 62
     7
100
AcDbLine
 10
13.26870903585009
 20
155.8411740566407
 30
0.0
 11
14.65640609392889
 21
154.4534769985621
 31
0.0
  0
LINE
  5
1FB
330
55
100
AcDbEntity
  8
0
  6
Continuous
 62
     7
100
AcDbLine
 10
13.26870903585009
 20
155.8411740566407
 30
0.0
 11
14.02531329172006
 21
156.5977783125106
 31
0.0
  0
LINE
  5
1FC
330
55
100
AcDbEntity
  8
0
  6
Continuous
 62
     7
100
AcDbLine
 10
14.02531329172006
 20
156.5977783125106
 30
0.0
 11
14.39859387757448
 21
156.2244977266561
 31
0.0
  0
LINE
  5
1FD
330
55
100
AcDbEntity
  8
0
  6
Continuous
 62
     7
100
AcDbLine
 10
14.39859387757448
 20
156.2244977266561
 30
0.0
 11
15.23294251439409
 21
158.3670686386318
 31
0.0
  0
LINE
  5
1FE
330
55
100
AcDbEntity
  8
0
  6
Continuous
 62
     7
100
AcDbLine
 10
13.19999826162075
 20
160.4000128914055
 30
0.0
 11
15.23294251439409
 21
158.3670686386318
 31
0.0
  0
LINE
  5
1FF
330
55
100
AcDbEntity
  8
0
  6
Continuous
 62
     7
100
AcDbLine
 10
13.19999826162075
 20
160.4000128914055
 30
0.0
 11
7.99999826162062
 21
160.4000128914056
 31
0.0
  0
LINE
  5
200
330
55
100
AcDbEntity
  8
0
  6
Continuous
 62
     7
100
AcDbLine
 10
1.99999826162062
 20
160.4000128914057
 30
0.0
 11
-6.00000173837938
 21
160.4000128914059
 31
0.0
  0
LINE
  5
201
330
55
100
AcDbEntity
  8
0
  6
Continuous
 62
     7
100
AcDbLine
 10
-12.00000173837939
 20
160.400012891406
 30
0.0
 11
-6.00000173837938
 21
160.4000128914059
 31
0.0
  0
LINE
  5
202
330
55
100
AcDbEntity
  8
0
  6
Continuous
 62
     7
100
AcDbLine
 10
-17.20000173837923
 20
160.4000128914061
 30
0.0
 11
-19.23294599115309
 21
158.3670686386317
 31
0.0
  0
LINE
  5
203
330
55
100
AcDbEntity
  8
0
  6
Continuous
 62
     7
100
AcDbLine
 10
-24.46141299820554
 20
127.6000128914058
 30
0.0
 11
-22.92095643612851
 21
129.8000128600089
 31
0.0
  0
LINE
  5
204
330
55
100
AcDbEntity
  8
0
  6
Continuous
 62
     7
100
AcDbLine
 10
-20.09171210591808
 20
133.8405925107852
 30
0.0
 11
-19.70000173837929
 21
134.400012891406
 31
0.0
  0
LINE
  5
205
330
55
100
AcDbEntity
  8
0
  6
Continuous
 62
     7
100
AcDbLine
 10
14.87352682387584
 20
129.8000128600236
 30
0.0
 11
18.92095295935786
 21
129.8000128600253
 31
0.0
  0
LINE
  5
206
330
55
100
AcDbEntity
  8
0
  6
Continuous
 62
     7
100
AcDbLine
 10
15.97918962306313
 20
133.6296562139529
 30
0.0
 11
15.48705376843443
 21
132.707062615736
 31
0.0
  0
LINE
  5
207
330
55
100
AcDbEntity
  8
0
  6
Continuous
 62
     7
100
AcDbLine
 10
15.9916084336233
 20
133.6529374177354
 30
0.0
 11
16.09170862916633
 21
133.8405925107746
 31
0.0
  0
LINE
  5
208
330
55
100
AcDbEntity
  8
0
  6
Continuous
 62
     7
100
AcDbLine
 10
22.29999826162051
 20
127.6000128914062
 30
0.0
 11
20.46140952144645
 21
127.6000128914057
 31
0.0
  0
LINE
  5
209
330
55
100
AcDbEntity
  8
0
  6
Continuous
 62
     7
100
AcDbLine
 10
-26.3000017383796
 20
127.6000128914062
 30
0.0
 11
-24.46141299820554
 21
127.6000128914058
 31
0.0
  0
LINE
  5
20A
330
55
100
AcDbEntity
  8
0
  6
Continuous
 62
     7
100
AcDbLine
 10
16.09170862916633
 20
133.8405925107746
 30
0.0
 11
18.92095295935786
 21
129.8000128600253
 31
0.0
  0
LINE
  5
20B
330
55
100
AcDbEntity
  8
0
  6
Continuous
 62
     7
100
AcDbLine
 10
20.26705400884609
 20
153.33295714418
 30
0.0
 11
22.2999982616204
 21
151.3000128914054
 31
0.0
  0
LINE
  5
20C
330
55
100
AcDbEntity
  8
0
  6
Continuous
 62
     7
100
AcDbLine
 10
15.6999982616201
 20
134.400012891406
 30
0.0
 11
16.09170862916633
 21
133.8405925107746
 31
0.0
  0
LINE
  5
20D
330
55
100
AcDbEntity
  8
0
  6
Continuous
 62
     7
100
AcDbLine
 10
-20.09171210591808
 20
133.8405925107852
 30
0.0
 11
-19.4870572451888
 21
132.7070626157493
 31
0.0
  0
LINE
  5
20E
330
55
100
AcDbEntity
  8
0
  6
Continuous
 62
     7
100
AcDbLine
 10
-19.4870572451888
 20
132.7070626157493
 30
0.0
 11
-18.52955915496824
 21
133.400012860036
 31
0.0
  0
LINE
  5
20F
330
55
100
AcDbEntity
  8
0
  6
Continuous
 62
     7
100
AcDbLine
 10
13.99999826163605
 20
132.2000128600233
 30
0.0
 11
14.87352682387584
 21
129.8000128600236
 31
0.0
  0
LINE
  5
210
330
55
100
AcDbEntity
  8
0
  6
Continuous
 62
     7
100
AcDbLine
 10
-22.92095643612851
 20
129.8000128600089
 30
0.0
 11
-18.87353030063958
 21
129.8000128600104
 31
0.0
  0
LINE
  5
211
330
55
100
AcDbEntity
  8
0
  6
Continuous
 62
     7
100
AcDbLine
 10
13.99999826163556
 20
133.4000128600236
 30
0.0
 11
14.52955567822242
 21
133.4000128600234
 31
0.0
  0
LINE
  5
212
330
55
100
AcDbEntity
  8
0
  6
Continuous
 62
     7
100
AcDbLine
 10
-18.52955915496824
 20
133.400012860036
 30
0.0
 11
-18.00000173839462
 21
133.4000128600358
 31
0.0
  0
LINE
  5
213
330
55
100
AcDbEntity
  8
0
  6
Continuous
 62
     7
100
AcDbLine
 10
14.52955567822242
 20
133.4000128600234
 30
0.0
 11
15.48705376843443
 21
132.707062615736
 31
0.0
  0
LINE
  5
214
330
55
100
AcDbEntity
  8
0
  6
Continuous
 62
     7
100
AcDbLine
 10
13.99999826163605
 20
132.2000128600233
 30
0.0
 11
13.99999826163556
 21
133.4000128600236
 31
0.0
  0
LINE
  5
215
330
55
100
AcDbEntity
  8
0
  6
Continuous
 62
     7
100
AcDbLine
 10
-18.00000173839462
 20
133.4000128600358
 30
0.0
 11
-18.00000173839507
 21
132.2000128600232
 31
0.0
  0
LINE
  5
216
330
55
100
AcDbEntity
  8
0
  6
Continuous
 62
     7
100
AcDbLine
 10
-26.3000017383796
 20
151.3000128914054
 30
0.0
 11
-26.3000017383796
 21
127.6000128914062
 31
0.0
  0
LINE
  5
217
330
55
100
AcDbEntity
  8
0
  6
Continuous
 62
     7
100
AcDbLine
 10
-19.70000173837929
 20
134.400012891406
 30
0.0
 11
-12.00000173837939
 21
134.400012891406
 31
0.0
  0
LINE
  5
218
330
55
100
AcDbEntity
  8
0
  6
Continuous
 62
     7
100
AcDbLine
 10
7.99999826162062
 20
134.400012891406
 30
0.0
 11
15.6999982616201
 21
134.400012891406
 31
0.0
  0
LINE
  5
219
330
55
100
AcDbEntity
  8
0
  6
Continuous
 62
     7
100
AcDbLine
 10
-18.87353030063958
 20
129.8000128600104
 30
0.0
 11
-18.00000173839507
 21
132.2000128600232
 31
0.0
  0
LINE
  5
21A
330
55
100
AcDbEntity
  8
0
  6
Continuous
 62
     7
100
AcDbLine
 10
-12.00000173837939
 20
139.8000128914058
 30
0.0
 11
-6.00000173837938
 21
139.8000128914058
 31
0.0
  0
LINE
  5
21B
330
55
100
AcDbEntity
  8
0
  6
Continuous
 62
     7
100
AcDbLine
 10
-12.00000173837939
 20
143.1000128914058
 30
0.0
 11
-6.00000173837938
 21
143.1000128914058
 31
0.0
  0
LINE
  5
21C
330
55
100
AcDbEntity
  8
0
  6
Continuous
 62
     7
100
AcDbLine
 10
-6.00000173837938
 20
137.3000128914058
 30
0.0
 11
-12.00000173837939
 21
137.3000128914058
 31
0.0
  0
LINE
  5
21D
330
55
100
AcDbEntity
  8
0
  6
Continuous
 62
     7
100
AcDbLine
 10
-6.00000173837938
 20
140.6000128914058
 30
0.0
 11
-12.00000173837939
 21
140.6000128914058
 31
0.0
  0
LINE
  5
21E
330
55
100
AcDbEntity
  8
0
  6
Continuous
 62
     7
100
AcDbLine
 10
-6.00000173837938
 20
132.900012891406
 30
0.0
 11
-10.50000173837958
 21
132.900012891406
 31
0.0
  0
LINE
  5
21F
330
55
100
AcDbEntity
  8
0
  6
Continuous
 62
     7
100
AcDbLine
 10
-12.00000173837939
 20
134.400012891406
 30
0.0
 11
-10.52618433577152
 21
134.400012891406
 31
0.0
  0
LINE
  5
220
330
55
100
AcDbEntity
  8
0
  6
Continuous
 62
     7
100
AcDbLine
 10
-12.00000173837939
 20
136.5000128914058
 30
0.0
 11
-6.00000173837938
 21
136.5000128914058
 31
0.0
  0
LINE
  5
221
330
55
100
AcDbEntity
  8
0
  6
Continuous
 62
     7
100
AcDbLine
 10
-10.50000173837958
 20
132.900012891406
 30
0.0
 11
-10.52618433577152
 21
134.400012891406
 31
0.0
  0
LINE
  5
222
330
55
100
AcDbEntity
  8
0
  6
Continuous
 62
     7
100
AcDbLine
 10
-6.00000173837938
 20
153.8000128914058
 30
0.0
 11
-12.00000173837939
 21
153.8000128914058
 31
0.0
  0
LINE
  5
223
330
55
100
AcDbEntity
  8
0
  6
Continuous
 62
     7
100
AcDbLine
 10
-12.00000173837939
 20
156.3000128914058
 30
0.0
 11
-6.00000173837938
 21
156.3000128914058
 31
0.0
  0
LINE
  5
224
330
55
100
AcDbEntity
  8
0
  6
Continuous
 62
     7
100
AcDbLine
 10
-6.00000173837938
 20
157.1000128914058
 30
0.0
 11
-12.00000173837939
 21
157.1000128914058
 31
0.0
  0
LINE
  5
225
330
55
100
AcDbEntity
  8
0
  6
Continuous
 62
     7
100
AcDbLine
 10
-6.00000173837938
 20
150.5000128914059
 30
0.0
 11
-12.00000173837939
 21
150.5000128914059
 31
0.0
  0
LINE
  5
226
330
55
100
AcDbEntity
  8
0
  6
Continuous
 62
     7
100
AcDbLine
 10
-6.00000173837938
 20
147.2000128914058
 30
0.0
 11
-12.00000173837939
 21
147.2000128914058
 31
0.0
  0
LINE
  5
227
330
55
100
AcDbEntity
  8
0
  6
Continuous
 62
     7
100
AcDbLine
 10
-12.00000173837939
 20
149.7000128914058
 30
0.0
 11
-6.00000173837938
 21
149.7000128914058
 31
0.0
  0
LINE
  5
228
330
55
100
AcDbEntity
  8
0
  6
Continuous
 62
     7
100
AcDbLine
 10
-12.00000173837939
 20
146.4000128914058
 30
0.0
 11
-6.00000173837938
 21
146.4000128914058
 31
0.0
  0
LINE
  5
229
330
55
100
AcDbEntity
  8
0
  6
Continuous
 62
     7
100
AcDbLine
 10
-6.00000173837938
 20
143.9000128914058
 30
0.0
 11
-12.00000173837939
 21
143.9000128914058
 31
0.0
  0
LINE
  5
22A
330
55
100
AcDbEntity
  8
0
  6
Continuous
 62
     7
100
AcDbLine
 10
-12.00000173837939
 20
140.6000128914058
 30
0.0
 11
-12.00000173837939
 21
139.8000128914058
 31
0.0
  0
LINE
  5
22B
330
55
100
AcDbEntity
  8
0
  6
Continuous
 62
     7
100
AcDbLine
 10
-12.00000173837939
 20
143.9000128914058
 30
0.0
 11
-12.00000173837939
 21
143.1000128914058
 31
0.0
  0
LINE
  5
22C
330
55
100
AcDbEntity
  8
0
  6
Continuous
 62
     7
100
AcDbLine
 10
-12.00000173837939
 20
143.1000128914058
 30
0.0
 11
-12.00000173837939
 21
140.6000128914058
 31
0.0
  0
LINE
  5
22D
330
55
100
AcDbEntity
  8
0
  6
Continuous
 62
     7
100
AcDbLine
 10
-12.00000173837939
 20
146.4000128914058
 30
0.0
 11
-12.00000173837939
 21
143.9000128914058
 31
0.0
  0
LINE
  5
22E
330
55
100
AcDbEntity
  8
0
  6
Continuous
 62
     7
100
AcDbLine
 10
-12.00000173837939
 20
147.2000128914058
 30
0.0
 11
-12.00000173837939
 21
146.4000128914058
 31
0.0
  0
LINE
  5
22F
330
55
100
AcDbEntity
  8
0
  6
Continuous
 62
     7
100
AcDbLine
 10
-12.00000173837939
 20
149.7000128914058
 30
0.0
 11
-12.00000173837939
 21
147.2000128914058
 31
0.0
  0
LINE
  5
230
330
55
100
AcDbEntity
  8
0
  6
Continuous
 62
     7
100
AcDbLine
 10
-12.00000173837939
 20
150.5000128914059
 30
0.0
 11
-12.00000173837939
 21
149.7000128914058
 31
0.0
  0
LINE
  5
231
330
55
100
AcDbEntity
  8
0
  6
Continuous
 62
     7
100
AcDbLine
 10
-12.00000173837939
 20
153.8000128914058
 30
0.0
 11
-12.00000173837939
 21
153.0000128914058
 31
0.0
  0
LINE
  5
232
330
55
100
AcDbEntity
  8
0
  6
Continuous
 62
     7
100
AcDbLine
 10
-12.00000173837939
 20
153.0000128914058
 30
0.0
 11
-12.00000173837939
 21
150.5000128914059
 31
0.0
  0
LINE
  5
233
330
55
100
AcDbEntity
  8
0
  6
Continuous
 62
     7
100
AcDbLine
 10
-12.00000173837939
 20
157.1000128914058
 30
0.0
 11
-12.00000173837939
 21
156.3000128914058
 31
0.0
  0
LINE
  5
234
330
55
100
AcDbEntity
  8
0
  6
Continuous
 62
     7
100
AcDbLine
 10
-12.00000173837939
 20
156.3000128914058
 30
0.0
 11
-12.00000173837939
 21
153.8000128914058
 31
0.0
  0
LINE
  5
235
330
55
100
AcDbEntity
  8
0
  6
Continuous
 62
     7
100
AcDbLine
 10
-12.00000173837939
 20
159.6000128914058
 30
0.0
 11
-12.00000173837939
 21
157.1000128914058
 31
0.0
  0
LINE
  5
236
330
55
100
AcDbEntity
  8
0
  6
Continuous
 62
     7
100
AcDbLine
 10
-12.00000173837939
 20
137.3000128914058
 30
0.0
 11
-12.00000173837939
 21
136.5000128914058
 31
0.0
  0
LINE
  5
237
330
55
100
AcDbEntity
  8
0
  6
Continuous
 62
     7
100
AcDbLine
 10
-12.00000173837939
 20
136.5000128914058
 30
0.0
 11
-12.00000173837939
 21
134.400012891406
 31
0.0
  0
LINE
  5
238
330
55
100
AcDbEntity
  8
0
  6
Continuous
 62
     7
100
AcDbLine
 10
-12.00000173837939
 20
160.400012891406
 30
0.0
 11
-12.00000173837939
 21
159.6000128914058
 31
0.0
  0
LINE
  5
239
330
55
100
AcDbEntity
  8
0
  6
Continuous
 62
     7
100
AcDbLine
 10
-12.00000173837939
 20
139.8000128914058
 30
0.0
 11
-12.00000173837939
 21
137.3000128914058
 31
0.0
  0
LINE
  5
23A
330
55
100
AcDbEntity
  8
0
  6
Continuous
 62
     7
100
AcDbLine
 10
-12.00000173837939
 20
159.6000128914058
 30
0.0
 11
-6.00000173837938
 21
159.6000128914058
 31
0.0
  0
LINE
  5
23B
330
55
100
AcDbEntity
  8
0
  6
Continuous
 62
     7
100
AcDbLine
 10
1.99999826162062
 20
143.1000128914058
 30
0.0
 11
7.99999826162062
 21
143.1000128914058
 31
0.0
  0
LINE
  5
23C
330
55
100
AcDbEntity
  8
0
  6
Continuous
 62
     7
100
AcDbLine
 10
7.99999826162062
 20
147.2000128914058
 30
0.0
 11
1.99999826162062
 21
147.2000128914058
 31
0.0
  0
LINE
  5
23D
330
55
100
AcDbEntity
  8
0
  6
Continuous
 62
     7
100
AcDbLine
 10
7.99999826162062
 20
143.9000128914058
 30
0.0
 11
1.99999826162062
 21
143.9000128914058
 31
0.0
  0
LINE
  5
23E
330
55
100
AcDbEntity
  8
0
  6
Continuous
 62
     7
100
AcDbLine
 10
1.99999826162062
 20
146.4000128914058
 30
0.0
 11
7.99999826162062
 21
146.4000128914058
 31
0.0
  0
LINE
  5
23F
330
55
100
AcDbEntity
  8
0
  6
Continuous
 62
     7
100
AcDbLine
 10
7.99999826162062
 20
150.5000128914059
 30
0.0
 11
1.99999826162062
 21
150.5000128914059
 31
0.0
  0
LINE
  5
240
330
55
100
AcDbEntity
  8
0
  6
Continuous
 62
     7
100
AcDbLine
 10
1.99999826162062
 20
136.5000128914058
 30
0.0
 11
7.99999826162062
 21
136.5000128914058
 31
0.0
  0
LINE
  5
241
330
55
100
AcDbEntity
  8
0
  6
Continuous
 62
     7
100
AcDbLine
 10
1.99999826162062
 20
132.900012891406
 30
0.0
 11
-6.00000173837938
 21
132.900012891406
 31
0.0
  0
LINE
  5
242
330
55
100
AcDbEntity
  8
0
  6
Continuous
 62
     7
100
AcDbLine
 10
6.52618085901227
 20
134.400012891406
 30
0.0
 11
7.99999826162062
 21
134.400012891406
 31
0.0
  0
LINE
  5
243
330
55
100
AcDbEntity
  8
0
  6
Continuous
 62
     7
100
AcDbLine
 10
6.49999826162031
 20
132.900012891406
 30
0.0
 11
1.99999826162062
 21
132.900012891406
 31
0.0
  0
LINE
  5
244
330
55
100
AcDbEntity
  8
0
  6
Continuous
 62
     7
100
AcDbLine
 10
7.99999826162062
 20
137.3000128914058
 30
0.0
 11
1.99999826162062
 21
137.3000128914058
 31
0.0
  0
LINE
  5
245
330
55
100
AcDbEntity
  8
0
  6
Continuous
 62
     7
100
AcDbLine
 10
1.99999826162062
 20
139.8000128914058
 30
0.0
 11
7.99999826162062
 21
139.8000128914058
 31
0.0
  0
LINE
  5
246
330
55
100
AcDbEntity
  8
0
  6
Continuous
 62
     7
100
AcDbLine
 10
7.99999826162062
 20
140.6000128914058
 30
0.0
 11
1.99999826162062
 21
140.6000128914058
 31
0.0
  0
LINE
  5
247
330
55
100
AcDbEntity
  8
0
  6
Continuous
 62
     7
100
AcDbLine
 10
7.99999826162062
 20
153.8000128914058
 30
0.0
 11
1.99999826162062
 21
153.8000128914058
 31
0.0
  0
LINE
  5
248
330
55
100
AcDbEntity
  8
0
  6
Continuous
 62
     7
100
AcDbLine
 10
1.99999826162062
 20
156.3000128914058
 30
0.0
 11
7.99999826162062
 21
156.3000128914058
 31
0.0
  0
LINE
  5
249
330
55
100
AcDbEntity
  8
0
  6
Continuous
 62
     7
100
AcDbLine
 10
7.99999826162062
 20
157.1000128914058
 30
0.0
 11
1.99999826162062
 21
157.1000128914058
 31
0.0
  0
LINE
  5
24A
330
55
100
AcDbEntity
  8
0
  6
Continuous
 62
     7
100
AcDbLine
 10
1.99999826162062
 20
159.6000128914058
 30
0.0
 11
7.99999826162062
 21
159.6000128914058
 31
0.0
  0
LINE
  5
24B
330
55
100
AcDbEntity
  8
0
  6
Continuous
 62
     7
100
AcDbLine
 10
1.99999826162062
 20
160.4000128914057
 30
0.0
 11
7.99999826162062
 21
160.4000128914056
 31
0.0
  0
LINE
  5
24C
330
55
100
AcDbEntity
  8
0
  6
Continuous
 62
     7
100
AcDbLine
 10
-6.00000173837938
 20
139.8000128914058
 30
0.0
 11
-6.00000173837938
 21
140.6000128914058
 31
0.0
  0
LINE
  5
24D
330
55
100
AcDbEntity
  8
0
  6
Continuous
 62
     7
100
AcDbLine
 10
-6.00000173837938
 20
137.3000128914058
 30
0.0
 11
-6.00000173837938
 21
139.8000128914058
 31
0.0
  0
LINE
  5
24E
330
55
100
AcDbEntity
  8
0
  6
Continuous
 62
     7
100
AcDbLine
 10
-6.00000173837938
 20
140.6000128914058
 30
0.0
 11
-6.00000173837938
 21
143.1000128914058
 31
0.0
  0
LINE
  5
24F
330
55
100
AcDbEntity
  8
0
  6
Continuous
 62
     7
100
AcDbLine
 10
-6.00000173837938
 20
143.1000128914058
 30
0.0
 11
-6.00000173837938
 21
143.9000128914058
 31
0.0
  0
LINE
  5
250
330
55
100
AcDbEntity
  8
0
  6
Continuous
 62
     7
100
AcDbLine
 10
-6.00000173837938
 20
136.5000128914058
 30
0.0
 11
-6.00000173837938
 21
137.3000128914058
 31
0.0
  0
LINE
  5
251
330
55
100
AcDbEntity
  8
0
  6
Continuous
 62
     7
100
AcDbLine
 10
-6.00000173837938
 20
132.900012891406
 30
0.0
 11
-6.00000173837938
 21
136.5000128914058
 31
0.0
  0
LINE
  5
252
330
55
100
AcDbEntity
  8
0
  6
Continuous
 62
     7
100
AcDbLine
 10
-6.00000173837938
 20
143.9000128914058
 30
0.0
 11
-6.00000173837938
 21
146.4000128914058
 31
0.0
  0
LINE
  5
253
330
55
100
AcDbEntity
  8
0
  6
Continuous
 62
     7
100
AcDbLine
 10
1.99999826162062
 20
147.2000128914058
 30
0.0
 11
1.99999826162062
 21
146.4000128914058
 31
0.0
  0
LINE
  5
254
330
55
100
AcDbEntity
  8
0
  6
Continuous
 62
     7
100
AcDbLine
 10
1.99999826162062
 20
146.4000128914058
 30
0.0
 11
1.99999826162062
 21
143.9000128914058
 31
0.0
  0
LINE
  5
255
330
55
100
AcDbEntity
  8
0
  6
Continuous
 62
     7
100
AcDbLine
 10
1.99999826162062
 20
150.5000128914059
 30
0.0
 11
1.99999826162062
 21
149.7000128914058
 31
0.0
  0
LINE
  5
256
330
55
100
AcDbEntity
  8
0
  6
Continuous
 62
     7
100
AcDbLine
 10
1.99999826162062
 20
143.9000128914058
 30
0.0
 11
1.99999826162062
 21
143.1000128914058
 31
0.0
  0
LINE
  5
257
330
55
100
AcDbEntity
  8
0
  6
Continuous
 62
     7
100
AcDbLine
 10
1.99999826162062
 20
140.6000128914058
 30
0.0
 11
1.99999826162062
 21
139.8000128914058
 31
0.0
  0
LINE
  5
258
330
55
100
AcDbEntity
  8
0
  6
Continuous
 62
     7
100
AcDbLine
 10
1.99999826162062
 20
143.1000128914058
 30
0.0
 11
1.99999826162062
 21
140.6000128914058
 31
0.0
  0
LINE
  5
259
330
55
100
AcDbEntity
  8
0
  6
Continuous
 62
     7
100
AcDbLine
 10
1.99999826162062
 20
153.0000128914058
 30
0.0
 11
1.99999826162062
 21
150.5000128914059
 31
0.0
  0
LINE
  5
25A
330
55
100
AcDbEntity
  8
0
  6
Continuous
 62
     7
100
AcDbLine
 10
1.99999826162062
 20
137.3000128914058
 30
0.0
 11
1.99999826162062
 21
136.5000128914058
 31
0.0
  0
LINE
  5
25B
330
55
100
AcDbEntity
  8
0
  6
Continuous
 62
     7
100
AcDbLine
 10
1.99999826162062
 20
139.8000128914058
 30
0.0
 11
1.99999826162062
 21
137.3000128914058
 31
0.0
  0
LINE
  5
25C
330
55
100
AcDbEntity
  8
0
  6
Continuous
 62
     7
100
AcDbLine
 10
1.99999826162062
 20
136.5000128914058
 30
0.0
 11
1.99999826162062
 21
132.900012891406
 31
0.0
  0
LINE
  5
25D
330
55
100
AcDbEntity
  8
0
  6
Continuous
 62
     7
100
AcDbLine
 10
1.99999826162062
 20
157.1000128914058
 30
0.0
 11
1.99999826162062
 21
156.3000128914058
 31
0.0
  0
LINE
  5
25E
330
55
100
AcDbEntity
  8
0
  6
Continuous
 62
     7
100
AcDbLine
 10
1.99999826162062
 20
159.6000128914058
 30
0.0
 11
1.99999826162062
 21
157.1000128914058
 31
0.0
  0
LINE
  5
25F
330
55
100
AcDbEntity
  8
0
  6
Continuous
 62
     7
100
AcDbLine
 10
1.99999826162062
 20
160.4000128914057
 30
0.0
 11
1.99999826162062
 21
159.6000128914058
 31
0.0
  0
LINE
  5
260
330
55
100
AcDbEntity
  8
0
  6
Continuous
 62
     7
100
AcDbLine
 10
1.99999826162062
 20
153.8000128914058
 30
0.0
 11
1.99999826162062
 21
153.0000128914058
 31
0.0
  0
LINE
  5
261
330
55
100
AcDbEntity
  8
0
  6
Continuous
 62
     7
100
AcDbLine
 10
1.99999826162062
 20
156.3000128914058
 30
0.0
 11
1.99999826162062
 21
153.8000128914058
 31
0.0
  0
LINE
  5
262
330
55
100
AcDbEntity
  8
0
  6
Continuous
 62
     7
100
AcDbLine
 10
1.99999826162062
 20
149.7000128914058
 30
0.0
 11
1.99999826162062
 21
147.2000128914058
 31
0.0
  0
LINE
  5
263
330
55
100
AcDbEntity
  8
0
  6
Continuous
 62
     7
100
AcDbLine
 10
-6.00000173837938
 20
146.4000128914058
 30
0.0
 11
-6.00000173837938
 21
147.2000128914058
 31
0.0
  0
LINE
  5
264
330
55
100
AcDbEntity
  8
0
  6
Continuous
 62
     7
100
AcDbLine
 10
-6.00000173837938
 20
149.7000128914058
 30
0.0
 11
-6.00000173837938
 21
150.5000128914059
 31
0.0
  0
LINE
  5
265
330
55
100
AcDbEntity
  8
0
  6
Continuous
 62
     7
100
AcDbLine
 10
-6.00000173837938
 20
159.6000128914058
 30
0.0
 11
-6.00000173837938
 21
160.4000128914059
 31
0.0
  0
LINE
  5
266
330
55
100
AcDbEntity
  8
0
  6
Continuous
 62
     7
100
AcDbLine
 10
-6.00000173837938
 20
157.1000128914058
 30
0.0
 11
-6.00000173837938
 21
159.6000128914058
 31
0.0
  0
LINE
  5
267
330
55
100
AcDbEntity
  8
0
  6
Continuous
 62
     7
100
AcDbLine
 10
-6.00000173837938
 20
156.3000128914058
 30
0.0
 11
-6.00000173837938
 21
157.1000128914058
 31
0.0
  0
LINE
  5
268
330
55
100
AcDbEntity
  8
0
  6
Continuous
 62
     7
100
AcDbLine
 10
-6.00000173837938
 20
153.8000128914058
 30
0.0
 11
-6.00000173837938
 21
156.3000128914058
 31
0.0
  0
LINE
  5
269
330
55
100
AcDbEntity
  8
0
  6
Continuous
 62
     7
100
AcDbLine
 10
-6.00000173837938
 20
153.0000128914058
 30
0.0
 11
-6.00000173837938
 21
153.8000128914058
 31
0.0
  0
LINE
  5
26A
330
55
100
AcDbEntity
  8
0
  6
Continuous
 62
     7
100
AcDbLine
 10
-6.00000173837938
 20
150.5000128914059
 30
0.0
 11
-6.00000173837938
 21
153.0000128914058
 31
0.0
  0
LINE
  5
26B
330
55
100
AcDbEntity
  8
0
  6
Continuous
 62
     7
100
AcDbLine
 10
-6.00000173837938
 20
147.2000128914058
 30
0.0
 11
-6.00000173837938
 21
149.7000128914058
 31
0.0
  0
LINE
  5
26C
330
55
100
AcDbEntity
  8
0
  6
Continuous
 62
     7
100
AcDbLine
 10
7.99999826162062
 20
146.4000128914058
 30
0.0
 11
7.99999826162062
 21
147.2000128914058
 31
0.0
  0
LINE
  5
26D
330
55
100
AcDbEntity
  8
0
  6
Continuous
 62
     7
100
AcDbLine
 10
7.99999826162062
 20
143.9000128914058
 30
0.0
 11
7.99999826162062
 21
146.4000128914058
 31
0.0
  0
LINE
  5
26E
330
55
100
AcDbEntity
  8
0
  6
Continuous
 62
     7
100
AcDbLine
 10
7.99999826162062
 20
149.7000128914058
 30
0.0
 11
7.99999826162062
 21
150.5000128914059
 31
0.0
  0
LINE
  5
26F
330
55
100
AcDbEntity
  8
0
  6
Continuous
 62
     7
100
AcDbLine
 10
7.99999826162062
 20
153.0000128914058
 30
0.0
 11
7.99999826162062
 21
153.8000128914058
 31
0.0
  0
LINE
  5
270
330
55
100
AcDbEntity
  8
0
  6
Continuous
 62
     7
100
AcDbLine
 10
7.99999826162062
 20
150.5000128914059
 30
0.0
 11
7.99999826162062
 21
153.0000128914058
 31
0.0
  0
LINE
  5
271
330
55
100
AcDbEntity
  8
0
  6
Continuous
 62
     7
100
AcDbLine
 10
7.99999826162062
 20
137.3000128914058
 30
0.0
 11
7.99999826162062
 21
139.8000128914058
 31
0.0
  0
LINE
  5
272
330
55
100
AcDbEntity
  8
0
  6
Continuous
 62
     7
100
AcDbLine
 10
7.99999826162062
 20
159.6000128914058
 30
0.0
 11
7.99999826162062
 21
160.4000128914056
 31
0.0
  0
LINE
  5
273
330
55
100
AcDbEntity
  8
0
  6
Continuous
 62
     7
100
AcDbLine
 10
7.99999826162062
 20
156.3000128914058
 30
0.0
 11
7.99999826162062
 21
157.1000128914058
 31
0.0
  0
LINE
  5
274
330
55
100
AcDbEntity
  8
0
  6
Continuous
 62
     7
100
AcDbLine
 10
7.99999826162062
 20
153.8000128914058
 30
0.0
 11
7.99999826162062
 21
156.3000128914058
 31
0.0
  0
LINE
  5
275
330
55
100
AcDbEntity
  8
0
  6
Continuous
 62
     7
100
AcDbLine
 10
7.99999826162062
 20
157.1000128914058
 30
0.0
 11
7.99999826162062
 21
159.6000128914058
 31
0.0
  0
LINE
  5
276
330
55
100
AcDbEntity
  8
0
  6
Continuous
 62
     7
100
AcDbLine
 10
7.99999826162062
 20
136.5000128914058
 30
0.0
 11
7.99999826162062
 21
137.3000128914058
 31
0.0
  0
LINE
  5
277
330
55
100
AcDbEntity
  8
0
  6
Continuous
 62
     7
100
AcDbLine
 10
7.99999826162062
 20
134.400012891406
 30
0.0
 11
7.99999826162062
 21
136.5000128914058
 31
0.0
  0
LINE
  5
278
330
55
100
AcDbEntity
  8
0
  6
Continuous
 62
     7
100
AcDbLine
 10
7.99999826162062
 20
143.1000128914058
 30
0.0
 11
7.99999826162062
 21
143.9000128914058
 31
0.0
  0
LINE
  5
279
330
55
100
AcDbEntity
  8
0
  6
Continuous
 62
     7
100
AcDbLine
 10
7.99999826162062
 20
139.8000128914058
 30
0.0
 11
7.99999826162062
 21
140.6000128914058
 31
0.0
  0
LINE
  5
27A
330
55
100
AcDbEntity
  8
0
  6
Continuous
 62
     7
100
AcDbLine
 10
7.99999826162062
 20
140.6000128914058
 30
0.0
 11
7.99999826162062
 21
143.1000128914058
 31
0.0
  0
LINE
  5
27B
330
55
100
AcDbEntity
  8
0
  6
Continuous
 62
     7
100
AcDbLine
 10
7.99999826162062
 20
147.2000128914058
 30
0.0
 11
7.99999826162062
 21
149.7000128914058
 31
0.0
  0
LINE
  5
27C
330
55
100
AcDbEntity
  8
0
  6
Continuous
 62
     7
100
AcDbLine
 10
1.99999826162062
 20
149.7000128914058
 30
0.0
 11
7.99999826162062
 21
149.7000128914058
 31
0.0
  0
LINE
  5
27D
330
55
100
AcDbEntity
  8
0
  6
Continuous
 62
     7
100
AcDbLine
 10
6.52618085901227
 20
134.400012891406
 30
0.0
 11
6.49999826162031
 21
132.900012891406
 31
0.0
  0
LINE
  5
27E
330
55
100
AcDbEntity
  8
0
  6
Continuous
 62
     7
100
AcDbLine
 10
1.99999826162062
 20
153.0000128914058
 30
0.0
 11
7.99999826162062
 21
153.0000128914058
 31
0.0
  0
LINE
  5
27F
330
55
100
AcDbEntity
  8
0
  6
Continuous
 62
     7
100
AcDbLine
 10
-12.00000173837939
 20
153.0000128914058
 30
0.0
 11
-6.00000173837938
 21
153.0000128914058
 31
0.0
  0
LINE
  5
280
330
55
100
AcDbEntity
  8
0
  6
Continuous
 62
     7
100
AcDbLine
 10
16.35346236877689
 20
152.7564207237143
 30
0.0
 11
17.7411594268554
 21
151.3687236656361
 31
0.0
  0
LINE
  5
281
330
55
100
AcDbEntity
  8
0
  6
Continuous
 62
     7
100
AcDbLine
 10
-21.74116290361426
 20
151.3687236656359
 30
0.0
 11
-20.35346584553568
 21
152.7564207237144
 31
0.0
  0
LINE
  5
282
330
55
100
AcDbEntity
  8
0
  6
Continuous
 62
     7
100
AcDbLine
 10
-24.26705748560542
 20
153.3329571441799
 30
0.0
 11
-26.3000017383796
 21
151.3000128914054
 31
0.0
  0
LINE
  5
283
330
55
100
AcDbEntity
  8
0
  6
Continuous
 62
     7
100
AcDbLine
 10
-22.92095643612851
 20
129.8000128600089
 30
0.0
 11
-20.09171210591808
 21
133.8405925107852
 31
0.0
  0
ARC
  5
284
330
55
100
AcDbEntity
  8
0
  6
Continuous
 62
     7
100
AcDbCircle
 10
17.74999826164228
 20
132.7000128600083
 30
0.0
 40
2.000000000000001
100
AcDbArc
 50
151.5453983724916
 51
152.3013180990462
  0
ENDBLK
  5
57
330
55
100
AcDbEntity
  8
0
100
AcDbBlockEnd
  0
BLOCK
  5
5A
330
58
100
AcDbEntity
  8
0
100
AcDbBlockBegin
  2
Rckans1
 70
     0
 10
-2.00000000004502
 20
144.0000074724298
 30
0.0
  3
Rckans1
  1

  0
INSERT
  5
59
330
58
100
AcDbEntity
  8
0
100
AcDbBlockReference
  2
E_NS_35_N_select__3
 10
-26.3000017383796
 20
127.6000128914057
 30
0.0
  0
MTEXT
  5
285
330
58
100
AcDbEntity
  8
1
 62
     6
100
AcDbMText
 10
-2.00000000004502
 20
122.6000084189784
 30
0.0
 40
5.0
 41
0.0
 71
     2
 72
     1
  1
 
  7
CONVERTER_11
 73
     1
 44
1.32052821128451
  0
ENDBLK
  5
5B
330
58
100
AcDbEntity
  8
0
100
AcDbBlockEnd
  0
BLOCK
  5
5D
330
5C
100
AcDbEntity
  8
0
100
AcDbBlockBegin
  2
E_NS_35_N_select__4
 70
     0
 10
-200.750000000071
 20
127.6000128914056
 30
0.0
  3
E_NS_35_N_select__4
  1

  0
LINE
  5
286
330
5C
100
AcDbEntity
  8
0
  6
Continuous
 62
     7
100
AcDbLine
 10
-200.750000000071
 20
151.3000128914052
 30
0.0
 11
-200.750000000071
 21
127.6000128914056
 31
0.0
  0
LINE
  5
287
330
5C
100
AcDbEntity
  8
0
  6
Continuous
 62
     7
100
AcDbLine
 10
-200.750000000071
 20
160.4000128914059
 30
0.0
 11
-191.250000000071
 21
160.4000128914059
 31
0.0
  0
LINE
  5
288
330
5C
100
AcDbEntity
  8
0
  6
Continuous
 62
     7
100
AcDbLine
 10
-191.250000000071
 20
160.4000128914059
 30
0.0
 11
-191.250000000071
 21
158.3670686386316
 31
0.0
  0
LINE
  5
289
330
5C
100
AcDbEntity
  8
0
  6
Continuous
 62
     7
100
AcDbLine
 10
-200.750000000071
 20
160.4000128914059
 30
0.0
 11
-200.750000000071
 21
158.3670686386316
 31
0.0
  0
LINE
  5
28A
330
5C
100
AcDbEntity
  8
0
  6
Continuous
 62
     7
100
AcDbLine
 10
-200.750000000071
 20
158.3670686386316
 30
0.0
 11
-200.750000000071
 21
156.224497726656
 31
0.0
  0
LINE
  5
28B
330
5C
100
AcDbEntity
  8
0
  6
Continuous
 62
     7
100
AcDbLine
 10
-191.250000000071
 20
155.8411740566405
 30
0.0
 11
-200.750000000071
 21
155.8411740566405
 31
0.0
  0
LINE
  5
28C
330
5C
100
AcDbEntity
  8
0
  6
Continuous
 62
     7
100
AcDbLine
 10
-200.750000000071
 20
153.3329571441799
 30
0.0
 11
-191.250000000071
 21
153.3329571441799
 31
0.0
  0
LINE
  5
28D
330
5C
100
AcDbEntity
  8
0
  6
Continuous
 62
     7
100
AcDbLine
 10
-200.750000000071
 20
156.224497726656
 30
0.0
 11
-191.250000000071
 21
156.224497726656
 31
0.0
  0
LINE
  5
28E
330
5C
100
AcDbEntity
  8
0
  6
Continuous
 62
     7
100
AcDbLine
 10
-200.750000000071
 20
158.3670686386316
 30
0.0
 11
-191.250000000071
 21
158.3670686386316
 31
0.0
  0
LINE
  5
28F
330
5C
100
AcDbEntity
  8
0
  6
Continuous
 62
     7
100
AcDbLine
 10
-200.750000000071
 20
127.6000128914056
 30
0.0
 11
-191.250000000071
 21
127.6000128914056
 31
0.0
  0
LINE
  5
290
330
5C
100
AcDbEntity
  8
0
  6
Continuous
 62
     7
100
AcDbLine
 10
-200.750000000071
 20
154.5595430157402
 30
0.0
 11
-200.750000000071
 21
154.9838070844516
 31
0.0
  0
LINE
  5
291
330
5C
100
AcDbEntity
  8
0
  6
Continuous
 62
     7
100
AcDbLine
 10
-200.750000000071
 20
154.02921292985
 30
0.0
 11
-200.750000000071
 21
154.5595430157402
 31
0.0
  0
LINE
  5
292
330
5C
100
AcDbEntity
  8
0
  6
Continuous
 62
     7
100
AcDbLine
 10
-200.750000000071
 20
153.7110148783158
 30
0.0
 11
-200.750000000071
 21
154.02921292985
 31
0.0
  0
LINE
  5
293
330
5C
100
AcDbEntity
  8
0
  6
Continuous
 62
     7
100
AcDbLine
 10
-200.750000000071
 20
153.3329571441799
 30
0.0
 11
-200.750000000071
 21
153.7110148783158
 31
0.0
  0
LINE
  5
294
330
5C
100
AcDbEntity
  8
0
  6
Continuous
 62
     7
100
AcDbLine
 10
-200.750000000071
 20
156.224497726656
 30
0.0
 11
-200.750000000071
 21
155.8411740566405
 31
0.0
  0
LINE
  5
295
330
5C
100
AcDbEntity
  8
0
  6
Continuous
 62
     7
100
AcDbLine
 10
-200.750000000071
 20
153.3329571441799
 30
0.0
 11
-200.750000000071
 21
151.3000128914052
 31
0.0
  0
LINE
  5
296
330
5C
100
AcDbEntity
  8
0
  6
Continuous
 62
     7
100
AcDbLine
 10
-200.750000000071
 20
154.9838070844516
 30
0.0
 11
-200.750000000071
 21
155.8411740566405
 31
0.0
  0
LINE
  5
297
330
5C
100
AcDbEntity
  8
0
  6
Continuous
 62
     7
100
AcDbLine
 10
-191.250000000071
 20
154.9838070844517
 30
0.0
 11
-200.750000000071
 21
154.9838070844516
 31
0.0
  0
LINE
  5
298
330
5C
100
AcDbEntity
  8
0
  6
Continuous
 62
     7
100
AcDbLine
 10
-191.250000000071
 20
154.5595430157403
 30
0.0
 11
-200.750000000071
 21
154.5595430157402
 31
0.0
  0
LINE
  5
299
330
5C
100
AcDbEntity
  8
0
  6
Continuous
 62
     7
100
AcDbLine
 10
-191.250000000071
 20
153.3329571441799
 30
0.0
 11
-191.250000000071
 21
151.3000128914052
 31
0.0
  0
LINE
  5
29A
330
5C
100
AcDbEntity
  8
0
  6
Continuous
 62
     7
100
AcDbLine
 10
-200.750000000071
 20
151.3000128914052
 30
0.0
 11
-191.250000000071
 21
151.3000128914052
 31
0.0
  0
LINE
  5
29B
330
5C
100
AcDbEntity
  8
0
  6
Continuous
 62
     7
100
AcDbLine
 10
-191.250000000071
 20
154.02921292985
 30
0.0
 11
-200.750000000071
 21
154.02921292985
 31
0.0
  0
LINE
  5
29C
330
5C
100
AcDbEntity
  8
0
  6
Continuous
 62
     7
100
AcDbLine
 10
-191.250000000071
 20
153.7110148783159
 30
0.0
 11
-200.750000000071
 21
153.7110148783158
 31
0.0
  0
LINE
  5
29D
330
5C
100
AcDbEntity
  8
0
  6
Continuous
 62
     7
100
AcDbLine
 10
-191.250000000071
 20
154.02921292985
 30
0.0
 11
-191.250000000071
 21
154.5595430157403
 31
0.0
  0
LINE
  5
29E
330
5C
100
AcDbEntity
  8
0
  6
Continuous
 62
     7
100
AcDbLine
 10
-191.250000000071
 20
154.5595430157403
 30
0.0
 11
-191.250000000071
 21
154.9838070844517
 31
0.0
  0
LINE
  5
29F
330
5C
100
AcDbEntity
  8
0
  6
Continuous
 62
     7
100
AcDbLine
 10
-191.250000000071
 20
153.7110148783159
 30
0.0
 11
-191.250000000071
 21
154.02921292985
 31
0.0
  0
LINE
  5
2A0
330
5C
100
AcDbEntity
  8
0
  6
Continuous
 62
     7
100
AcDbLine
 10
-191.250000000071
 20
153.3329571441799
 30
0.0
 11
-191.250000000071
 21
153.7110148783159
 31
0.0
  0
LINE
  5
2A1
330
5C
100
AcDbEntity
  8
0
  6
Continuous
 62
     7
100
AcDbLine
 10
-191.250000000071
 20
156.224497726656
 30
0.0
 11
-191.250000000071
 21
155.8411740566405
 31
0.0
  0
LINE
  5
2A2
330
5C
100
AcDbEntity
  8
0
  6
Continuous
 62
     7
100
AcDbLine
 10
-191.250000000071
 20
158.3670686386316
 30
0.0
 11
-191.250000000071
 21
156.224497726656
 31
0.0
  0
LINE
  5
2A3
330
5C
100
AcDbEntity
  8
0
  6
Continuous
 62
     7
100
AcDbLine
 10
-191.250000000071
 20
154.9838070844517
 30
0.0
 11
-191.250000000071
 21
155.8411740566405
 31
0.0
  0
LINE
  5
2A4
330
5C
100
AcDbEntity
  8
0
  6
Continuous
 62
     7
100
AcDbLine
 10
-191.250000000071
 20
151.3000128914052
 30
0.0
 11
-191.250000000071
 21
127.6000128914056
 31
0.0
  0
ENDBLK
  5
5E
330
5C
100
AcDbEntity
  8
0
100
AcDbBlockEnd
  0
BLOCK
  5
61
330
5F
100
AcDbEntity
  8
0
100
AcDbBlockBegin
  2
SA_Rechts1
 70
     0
 10
-196.0000000000359
 20
144.0000074724297
 30
0.0
  3
SA_Rechts1
  1

  0
INSERT
  5
60
330
5F
100
AcDbEntity
  8
0
100
AcDbBlockReference
  2
E_NS_35_N_select__4
 10
-200.750000000071
 20
127.6000128914056
 30
0.0
  0
MTEXT
  5
2A5
330
5F
100
AcDbEntity
  8
1
 62
     6
100
AcDbMText
 10
-196.0000000000349
 20
122.6000084189784
 30
0.0
 40
5.0
 41
0.0
 71
     2
 72
     1
  1
 
  7
CONVERTER_11
 73
     1
 44
1.32052821128451
  0
ENDBLK
  5
62
330
5F
100
AcDbEntity
  8
0
100
AcDbBlockEnd
  0
BLOCK
  5
64
330
63
100
AcDbEntity
  8
0
100
AcDbBlockBegin
  2
E_NS_35_N_select__5
 70
     0
 10
-69.74999999992497
 20
127.6000128379563
 30
0.0
  3
E_NS_35_N_select__5
  1

  0
LINE
  5
2A6
330
63
100
AcDbEntity
  8
0
  6
Continuous
 62
     7
100
AcDbLine
 10
-69.74999999992495
 20
151.3000128379555
 30
0.0
 11
-69.74999999992495
 21
127.6000128379563
 31
0.0
  0
LINE
  5
2A7
330
63
100
AcDbEntity
  8
0
  6
Continuous
 62
     7
100
AcDbLine
 10
-60.24999999992495
 20
151.3000128379555
 30
0.0
 11
-69.74999999992495
 21
151.3000128379555
 31
0.0
  0
LINE
  5
2A8
330
63
100
AcDbEntity
  8
0
  6
Continuous
 62
     7
100
AcDbLine
 10
-69.74999999992497
 20
153.7110148248662
 30
0.0
 11
-60.24999999992495
 21
153.7110148248661
 31
0.0
  0
LINE
  5
2A9
330
63
100
AcDbEntity
  8
0
  6
Continuous
 62
     7
100
AcDbLine
 10
-69.74999999992495
 20
154.5595429622905
 30
0.0
 11
-60.24999999992495
 21
154.5595429622905
 31
0.0
  0
LINE
  5
2AA
330
63
100
AcDbEntity
  8
0
  6
Continuous
 62
     7
100
AcDbLine
 10
-69.74999999992497
 20
154.983807031002
 30
0.0
 11
-60.24999999992495
 21
154.9838070310019
 31
0.0
  0
LINE
  5
2AB
330
63
100
AcDbEntity
  8
0
  6
Continuous
 62
     7
100
AcDbLine
 10
-60.24999999992495
 20
153.3329570907302
 30
0.0
 11
-69.74999999992495
 21
153.3329570907302
 31
0.0
  0
LINE
  5
2AC
330
63
100
AcDbEntity
  8
0
  6
Continuous
 62
     7
100
AcDbLine
 10
-60.24999999992495
 20
154.0292128764002
 30
0.0
 11
-69.74999999992497
 21
154.0292128764002
 31
0.0
  0
LINE
  5
2AD
330
63
100
AcDbEntity
  8
0
  6
Continuous
 62
     7
100
AcDbLine
 10
-60.24999999992495
 20
155.8411740031909
 30
0.0
 11
-60.24999999992495
 21
154.9838070310019
 31
0.0
  0
LINE
  5
2AE
330
63
100
AcDbEntity
  8
0
  6
Continuous
 62
     7
100
AcDbLine
 10
-60.24999999992495
 20
154.9838070310019
 30
0.0
 11
-60.24999999992495
 21
154.5595429622905
 31
0.0
  0
LINE
  5
2AF
330
63
100
AcDbEntity
  8
0
  6
Continuous
 62
     7
100
AcDbLine
 10
-60.24999999992495
 20
154.5595429622905
 30
0.0
 11
-60.24999999992495
 21
154.0292128764002
 31
0.0
  0
LINE
  5
2B0
330
63
100
AcDbEntity
  8
0
  6
Continuous
 62
     7
100
AcDbLine
 10
-60.24999999992495
 20
153.3329570907302
 30
0.0
 11
-60.24999999992495
 21
151.3000128379555
 31
0.0
  0
LINE
  5
2B1
330
63
100
AcDbEntity
  8
0
  6
Continuous
 62
     7
100
AcDbLine
 10
-60.24999999992495
 20
154.0292128764002
 30
0.0
 11
-60.24999999992495
 21
153.7110148248661
 31
0.0
  0
LINE
  5
2B2
330
63
100
AcDbEntity
  8
0
  6
Continuous
 62
     7
100
AcDbLine
 10
-60.24999999992495
 20
153.7110148248661
 30
0.0
 11
-60.24999999992495
 21
153.3329570907302
 31
0.0
  0
LINE
  5
2B3
330
63
100
AcDbEntity
  8
0
  6
Continuous
 62
     7
100
AcDbLine
 10
-60.24999999992495
 20
151.3000128379555
 30
0.0
 11
-60.24999999992495
 21
127.6000128379563
 31
0.0
  0
LINE
  5
2B4
330
63
100
AcDbEntity
  8
0
  6
Continuous
 62
     7
100
AcDbLine
 10
-60.24999999992495
 20
127.6000128379563
 30
0.0
 11
-69.74999999992495
 21
127.6000128379563
 31
0.0
  0
LINE
  5
2B5
330
63
100
AcDbEntity
  8
0
  6
Continuous
 62
     7
100
AcDbLine
 10
-60.24999999992495
 20
160.4000128379557
 30
0.0
 11
-69.74999999992495
 21
160.4000128379557
 31
0.0
  0
LINE
  5
2B6
330
63
100
AcDbEntity
  8
0
  6
Continuous
 62
     7
100
AcDbLine
 10
-60.24999999992495
 20
156.2244976732059
 30
0.0
 11
-60.24999999992495
 21
158.367068585182
 31
0.0
  0
LINE
  5
2B7
330
63
100
AcDbEntity
  8
0
  6
Continuous
 62
     7
100
AcDbLine
 10
-69.74999999992495
 20
156.2244976732059
 30
0.0
 11
-69.74999999992495
 21
158.367068585182
 31
0.0
  0
LINE
  5
2B8
330
63
100
AcDbEntity
  8
0
  6
Continuous
 62
     7
100
AcDbLine
 10
-60.24999999992495
 20
158.367068585182
 30
0.0
 11
-69.74999999992495
 21
158.367068585182
 31
0.0
  0
LINE
  5
2B9
330
63
100
AcDbEntity
  8
0
  6
Continuous
 62
     7
100
AcDbLine
 10
-60.24999999992495
 20
160.4000128379557
 30
0.0
 11
-60.24999999992495
 21
158.367068585182
 31
0.0
  0
LINE
  5
2BA
330
63
100
AcDbEntity
  8
0
  6
Continuous
 62
     7
100
AcDbLine
 10
-69.74999999992495
 20
160.4000128379557
 30
0.0
 11
-69.74999999992495
 21
158.367068585182
 31
0.0
  0
LINE
  5
2BB
330
63
100
AcDbEntity
  8
0
  6
Continuous
 62
     7
100
AcDbLine
 10
-60.24999999992495
 20
156.2244976732059
 30
0.0
 11
-69.74999999992495
 21
156.2244976732059
 31
0.0
  0
LINE
  5
2BC
330
63
100
AcDbEntity
  8
0
  6
Continuous
 62
     7
100
AcDbLine
 10
-60.24999999992495
 20
155.8411740031909
 30
0.0
 11
-60.24999999992495
 21
156.2244976732059
 31
0.0
  0
LINE
  5
2BD
330
63
100
AcDbEntity
  8
0
  6
Continuous
 62
     7
100
AcDbLine
 10
-69.74999999992495
 20
155.8411740031909
 30
0.0
 11
-69.74999999992495
 21
156.2244976732059
 31
0.0
  0
LINE
  5
2BE
330
63
100
AcDbEntity
  8
0
  6
Continuous
 62
     7
100
AcDbLine
 10
-60.24999999992495
 20
155.8411740031909
 30
0.0
 11
-69.74999999992495
 21
155.8411740031909
 31
0.0
  0
LINE
  5
2BF
330
63
100
AcDbEntity
  8
0
  6
Continuous
 62
     7
100
AcDbLine
 10
-69.74999999992497
 20
154.0292128764002
 30
0.0
 11
-69.74999999992497
 21
153.7110148248662
 31
0.0
  0
LINE
  5
2C0
330
63
100
AcDbEntity
  8
0
  6
Continuous
 62
     7
100
AcDbLine
 10
-69.74999999992495
 20
154.5595429622905
 30
0.0
 11
-69.74999999992497
 21
154.0292128764002
 31
0.0
  0
LINE
  5
2C1
330
63
100
AcDbEntity
  8
0
  6
Continuous
 62
     7
100
AcDbLine
 10
-69.74999999992497
 20
153.7110148248662
 30
0.0
 11
-69.74999999992495
 21
153.3329570907302
 31
0.0
  0
LINE
  5
2C2
330
63
100
AcDbEntity
  8
0
  6
Continuous
 62
     7
100
AcDbLine
 10
-69.74999999992497
 20
154.983807031002
 30
0.0
 11
-69.74999999992495
 21
154.5595429622905
 31
0.0
  0
LINE
  5
2C3
330
63
100
AcDbEntity
  8
0
  6
Continuous
 62
     7
100
AcDbLine
 10
-69.74999999992495
 20
153.3329570907302
 30
0.0
 11
-69.74999999992495
 21
151.3000128379555
 31
0.0
  0
LINE
  5
2C4
330
63
100
AcDbEntity
  8
0
  6
Continuous
 62
     7
100
AcDbLine
 10
-69.74999999992495
 20
155.8411740031909
 30
0.0
 11
-69.74999999992497
 21
154.983807031002
 31
0.0
  0
ENDBLK
  5
65
330
63
100
AcDbEntity
  8
0
100
AcDbBlockEnd
  0
BLOCK
  5
68
330
66
100
AcDbEntity
  8
0
100
AcDbBlockBegin
  2
SA_links1
 70
     0
 10
-64.99999999995998
 20
144.00000741898
 30
0.0
  3
SA_links1
  1

  0
INSERT
  5
67
330
66
100
AcDbEntity
  8
0
100
AcDbBlockReference
  2
E_NS_35_N_select__5
 10
-69.74999999992497
 20
127.6000128379563
 30
0.0
  0
ENDBLK
  5
69
330
66
100
AcDbEntity
  8
0
100
AcDbBlockEnd
  0
BLOCK
  5
6B
330
6A
100
AcDbEntity
  8
0
100
AcDbBlockBegin
  2
E_NS_35_N_select__6
 70
     0
 10
-153.3499985233359
 20
127.6000128379558
 30
0.0
  3
E_NS_35_N_select__6
  1

  0
LINE
  5
2C5
330
6A
100
AcDbEntity
  8
0
  6
Continuous
 62
     7
100
AcDbLine
 10
-139.049998523336
 20
139.8000128379559
 30
0.0
 11
-133.049998523336
 21
139.8000128379559
 31
0.0
  0
LINE
  5
2C6
330
6A
100
AcDbEntity
  8
0
  6
Continuous
 62
     7
100
AcDbLine
 10
-133.049998523336
 20
137.3000128379559
 30
0.0
 11
-139.049998523336
 21
137.3000128379559
 31
0.0
  0
LINE
  5
2C7
330
6A
100
AcDbEntity
  8
0
  6
Continuous
 62
     7
100
AcDbLine
 10
-139.049998523336
 20
136.5000128379559
 30
0.0
 11
-133.049998523336
 21
136.5000128379559
 31
0.0
  0
LINE
  5
2C8
330
6A
100
AcDbEntity
  8
0
  6
Continuous
 62
     7
100
AcDbLine
 10
-139.049998523336
 20
149.7000128379559
 30
0.0
 11
-133.049998523336
 21
149.7000128379559
 31
0.0
  0
LINE
  5
2C9
330
6A
100
AcDbEntity
  8
0
  6
Continuous
 62
     7
100
AcDbLine
 10
-133.049998523336
 20
150.500012837956
 30
0.0
 11
-139.049998523336
 21
150.500012837956
 31
0.0
  0
LINE
  5
2CA
330
6A
100
AcDbEntity
  8
0
  6
Continuous
 62
     7
100
AcDbLine
 10
-133.049998523336
 20
140.6000128379559
 30
0.0
 11
-139.049998523336
 21
140.6000128379559
 31
0.0
  0
LINE
  5
2CB
330
6A
100
AcDbEntity
  8
0
  6
Continuous
 62
     7
100
AcDbLine
 10
-133.049998523336
 20
149.7000128379559
 30
0.0
 11
-133.049998523336
 21
150.500012837956
 31
0.0
  0
LINE
  5
2CC
330
6A
100
AcDbEntity
  8
0
  6
Continuous
 62
     7
100
AcDbLine
 10
-133.049998523336
 20
147.2000128379559
 30
0.0
 11
-133.049998523336
 21
149.7000128379559
 31
0.0
  0
LINE
  5
2CD
330
6A
100
AcDbEntity
  8
0
  6
Continuous
 62
     7
100
AcDbLine
 10
-133.049998523336
 20
153.0000128379559
 30
0.0
 11
-133.049998523336
 21
153.8000128379559
 31
0.0
  0
LINE
  5
2CE
330
6A
100
AcDbEntity
  8
0
  6
Continuous
 62
     7
100
AcDbLine
 10
-133.049998523336
 20
157.1000128379559
 30
0.0
 11
-133.049998523336
 21
159.6000128379559
 31
0.0
  0
LINE
  5
2CF
330
6A
100
AcDbEntity
  8
0
  6
Continuous
 62
     7
100
AcDbLine
 10
-133.049998523336
 20
159.6000128379559
 30
0.0
 11
-133.049998523336
 21
160.4000128379558
 31
0.0
  0
LINE
  5
2D0
330
6A
100
AcDbEntity
  8
0
  6
Continuous
 62
     7
100
AcDbLine
 10
-133.049998523336
 20
146.4000128379559
 30
0.0
 11
-133.049998523336
 21
147.2000128379559
 31
0.0
  0
LINE
  5
2D1
330
6A
100
AcDbEntity
  8
0
  6
Continuous
 62
     7
100
AcDbLine
 10
-133.049998523336
 20
143.9000128379559
 30
0.0
 11
-133.049998523336
 21
146.4000128379559
 31
0.0
  0
LINE
  5
2D2
330
6A
100
AcDbEntity
  8
0
  6
Continuous
 62
     7
100
AcDbLine
 10
-133.049998523336
 20
150.500012837956
 30
0.0
 11
-133.049998523336
 21
153.0000128379559
 31
0.0
  0
LINE
  5
2D3
330
6A
100
AcDbEntity
  8
0
  6
Continuous
 62
     7
100
AcDbLine
 10
-139.049998523336
 20
146.4000128379559
 30
0.0
 11
-133.049998523336
 21
146.4000128379559
 31
0.0
  0
LINE
  5
2D4
330
6A
100
AcDbEntity
  8
0
  6
Continuous
 62
     7
100
AcDbLine
 10
-133.049998523336
 20
147.2000128379559
 30
0.0
 11
-139.049998523336
 21
147.2000128379559
 31
0.0
  0
LINE
  5
2D5
330
6A
100
AcDbEntity
  8
0
  6
Continuous
 62
     7
100
AcDbLine
 10
-139.049998523336
 20
143.1000128379559
 30
0.0
 11
-133.049998523336
 21
143.1000128379559
 31
0.0
  0
LINE
  5
2D6
330
6A
100
AcDbEntity
  8
0
  6
Continuous
 62
     7
100
AcDbLine
 10
-133.049998523336
 20
136.5000128379559
 30
0.0
 11
-133.049998523336
 21
137.3000128379559
 31
0.0
  0
LINE
  5
2D7
330
6A
100
AcDbEntity
  8
0
  6
Continuous
 62
     7
100
AcDbLine
 10
-133.049998523336
 20
139.8000128379559
 30
0.0
 11
-133.049998523336
 21
140.6000128379559
 31
0.0
  0
LINE
  5
2D8
330
6A
100
AcDbEntity
  8
0
  6
Continuous
 62
     7
100
AcDbLine
 10
-133.049998523336
 20
137.3000128379559
 30
0.0
 11
-133.049998523336
 21
139.8000128379559
 31
0.0
  0
LINE
  5
2D9
330
6A
100
AcDbEntity
  8
0
  6
Continuous
 62
     7
100
AcDbLine
 10
-133.049998523336
 20
140.6000128379559
 30
0.0
 11
-133.049998523336
 21
143.1000128379559
 31
0.0
  0
LINE
  5
2DA
330
6A
100
AcDbEntity
  8
0
  6
Continuous
 62
     7
100
AcDbLine
 10
-133.049998523336
 20
143.1000128379559
 30
0.0
 11
-133.049998523336
 21
143.9000128379559
 31
0.0
  0
LINE
  5
2DB
330
6A
100
AcDbEntity
  8
0
  6
Continuous
 62
     7
100
AcDbLine
 10
-133.049998523336
 20
132.9000128379561
 30
0.0
 11
-133.049998523336
 21
136.5000128379559
 31
0.0
  0
LINE
  5
2DC
330
6A
100
AcDbEntity
  8
0
  6
Continuous
 62
     7
100
AcDbLine
 10
-133.049998523336
 20
143.9000128379559
 30
0.0
 11
-139.049998523336
 21
143.9000128379559
 31
0.0
  0
LINE
  5
2DD
330
6A
100
AcDbEntity
  8
0
  6
Continuous
 62
     7
100
AcDbLine
 10
-145.7064063556443
 20
154.4534769451122
 30
0.0
 11
-146.2367364415345
 21
154.9838070310024
 31
0.0
  0
LINE
  5
2DE
330
6A
100
AcDbEntity
  8
0
  6
Continuous
 62
     7
100
AcDbLine
 10
-144.3187092975655
 20
155.8411740031908
 30
0.0
 11
-145.7064063556443
 21
154.4534769451122
 31
0.0
  0
LINE
  5
2DF
330
6A
100
AcDbEntity
  8
0
  6
Continuous
 62
     7
100
AcDbLine
 10
-144.3187092975655
 20
155.8411740031908
 30
0.0
 11
-145.0753135534353
 21
156.5977782590607
 31
0.0
  0
LINE
  5
2E0
330
6A
100
AcDbEntity
  8
0
  6
Continuous
 62
     7
100
AcDbLine
 10
-145.0753135534353
 20
156.5977782590607
 30
0.0
 11
-145.4485941392899
 21
156.2244976732062
 31
0.0
  0
LINE
  5
2E1
330
6A
100
AcDbEntity
  8
0
  6
Continuous
 62
     7
100
AcDbLine
 10
-145.4485941392899
 20
156.2244976732062
 30
0.0
 11
-146.2829427761095
 21
158.3670685851819
 31
0.0
  0
LINE
  5
2E2
330
6A
100
AcDbEntity
  8
0
  6
Continuous
 62
     7
100
AcDbLine
 10
-139.049998523336
 20
150.500012837956
 30
0.0
 11
-139.049998523336
 21
149.7000128379559
 31
0.0
  0
LINE
  5
2E3
330
6A
100
AcDbEntity
  8
0
  6
Continuous
 62
     7
100
AcDbLine
 10
-139.049998523336
 20
153.0000128379559
 30
0.0
 11
-139.049998523336
 21
150.500012837956
 31
0.0
  0
LINE
  5
2E4
330
6A
100
AcDbEntity
  8
0
  6
Continuous
 62
     7
100
AcDbLine
 10
-139.049998523336
 20
149.7000128379559
 30
0.0
 11
-139.049998523336
 21
147.2000128379559
 31
0.0
  0
LINE
  5
2E5
330
6A
100
AcDbEntity
  8
0
  6
Continuous
 62
     7
100
AcDbLine
 10
-139.049998523336
 20
147.2000128379559
 30
0.0
 11
-139.049998523336
 21
146.4000128379559
 31
0.0
  0
LINE
  5
2E6
330
6A
100
AcDbEntity
  8
0
  6
Continuous
 62
     7
100
AcDbLine
 10
-139.049998523336
 20
146.4000128379559
 30
0.0
 11
-139.049998523336
 21
143.9000128379559
 31
0.0
  0
LINE
  5
2E7
330
6A
100
AcDbEntity
  8
0
  6
Continuous
 62
     7
100
AcDbLine
 10
-139.049998523336
 20
137.3000128379559
 30
0.0
 11
-139.049998523336
 21
136.5000128379559
 31
0.0
  0
LINE
  5
2E8
330
6A
100
AcDbEntity
  8
0
  6
Continuous
 62
     7
100
AcDbLine
 10
-139.049998523336
 20
140.6000128379559
 30
0.0
 11
-139.049998523336
 21
139.8000128379559
 31
0.0
  0
LINE
  5
2E9
330
6A
100
AcDbEntity
  8
0
  6
Continuous
 62
     7
100
AcDbLine
 10
-139.049998523336
 20
143.1000128379559
 30
0.0
 11
-139.049998523336
 21
140.6000128379559
 31
0.0
  0
LINE
  5
2EA
330
6A
100
AcDbEntity
  8
0
  6
Continuous
 62
     7
100
AcDbLine
 10
-139.049998523336
 20
143.9000128379559
 30
0.0
 11
-139.049998523336
 21
143.1000128379559
 31
0.0
  0
LINE
  5
2EB
330
6A
100
AcDbEntity
  8
0
  6
Continuous
 62
     7
100
AcDbLine
 10
-139.049998523336
 20
136.5000128379559
 30
0.0
 11
-139.049998523336
 21
134.4000128379561
 31
0.0
  0
LINE
  5
2EC
330
6A
100
AcDbEntity
  8
0
  6
Continuous
 62
     7
100
AcDbLine
 10
-139.049998523336
 20
139.8000128379559
 30
0.0
 11
-139.049998523336
 21
137.3000128379559
 31
0.0
  0
LINE
  5
2ED
330
6A
100
AcDbEntity
  8
0
  6
Continuous
 62
     7
100
AcDbLine
 10
-146.537054030152
 20
132.7070625622903
 30
0.0
 11
-145.5795559399378
 21
133.4000128065735
 31
0.0
  0
LINE
  5
2EE
330
6A
100
AcDbEntity
  8
0
  6
Continuous
 62
     7
100
AcDbLine
 10
-144.2499985233361
 20
160.4000128379556
 30
0.0
 11
-146.2829427761095
 21
158.3670685851819
 31
0.0
  0
LINE
  5
2EF
330
6A
100
AcDbEntity
  8
0
  6
Continuous
 62
     7
100
AcDbLine
 10
-137.5761811207276
 20
134.4000128379561
 30
0.0
 11
-137.5499985233357
 21
132.9000128379561
 31
0.0
  0
LINE
  5
2F0
330
6A
100
AcDbEntity
  8
0
  6
Continuous
 62
     7
100
AcDbLine
 10
-145.049998523351
 20
133.4000128065737
 30
0.0
 11
-145.0499985233514
 21
132.2000128065734
 31
0.0
  0
LINE
  5
2F1
330
6A
100
AcDbEntity
  8
0
  6
Continuous
 62
     7
100
AcDbLine
 10
-145.0499985233514
 20
132.2000128065734
 30
0.0
 11
-145.923527085596
 21
129.8000128065607
 31
0.0
  0
LINE
  5
2F2
330
6A
100
AcDbEntity
  8
0
  6
Continuous
 62
     7
100
AcDbLine
 10
-112.1764699610805
 20
129.8000128065736
 30
0.0
 11
-113.0499985233203
 21
132.2000128065733
 31
0.0
  0
LINE
  5
2F3
330
6A
100
AcDbEntity
  8
0
  6
Continuous
 62
     7
100
AcDbLine
 10
-108.1290438255982
 20
129.8000128065751
 30
0.0
 11
-110.9582881557972
 21
133.8405924573353
 31
0.0
  0
LINE
  5
2F4
330
6A
100
AcDbEntity
  8
0
  6
Continuous
 62
     7
100
AcDbLine
 10
-119.049998523336
 20
160.4000128379561
 30
0.0
 11
-113.8499985233361
 21
160.4000128379562
 31
0.0
  0
LINE
  5
2F5
330
6A
100
AcDbEntity
  8
0
  6
Continuous
 62
     7
100
AcDbLine
 10
-119.049998523336
 20
160.4000128379561
 30
0.0
 11
-125.049998523336
 21
160.400012837956
 31
0.0
  0
LINE
  5
2F6
330
6A
100
AcDbEntity
  8
0
  6
Continuous
 62
     7
100
AcDbLine
 10
-133.049998523336
 20
160.4000128379558
 30
0.0
 11
-139.049998523336
 21
160.4000128379557
 31
0.0
  0
LINE
  5
2F7
330
6A
100
AcDbEntity
  8
0
  6
Continuous
 62
     7
100
AcDbLine
 10
-139.049998523336
 20
156.3000128379559
 30
0.0
 11
-133.049998523336
 21
156.3000128379559
 31
0.0
  0
LINE
  5
2F8
330
6A
100
AcDbEntity
  8
0
  6
Continuous
 62
     7
100
AcDbLine
 10
-133.049998523336
 20
156.3000128379559
 30
0.0
 11
-133.049998523336
 21
157.1000128379559
 31
0.0
  0
LINE
  5
2F9
330
6A
100
AcDbEntity
  8
0
  6
Continuous
 62
     7
100
AcDbLine
 10
-133.049998523336
 20
153.8000128379559
 30
0.0
 11
-133.049998523336
 21
156.3000128379559
 31
0.0
  0
LINE
  5
2FA
330
6A
100
AcDbEntity
  8
0
  6
Continuous
 62
     7
100
AcDbLine
 10
-133.049998523336
 20
157.1000128379559
 30
0.0
 11
-139.049998523336
 21
157.1000128379559
 31
0.0
  0
LINE
  5
2FB
330
6A
100
AcDbEntity
  8
0
  6
Continuous
 62
     7
100
AcDbLine
 10
-139.049998523336
 20
153.8000128379559
 30
0.0
 11
-139.049998523336
 21
153.0000128379559
 31
0.0
  0
LINE
  5
2FC
330
6A
100
AcDbEntity
  8
0
  6
Continuous
 62
     7
100
AcDbLine
 10
-139.049998523336
 20
157.1000128379559
 30
0.0
 11
-139.049998523336
 21
156.3000128379559
 31
0.0
  0
LINE
  5
2FD
330
6A
100
AcDbEntity
  8
0
  6
Continuous
 62
     7
100
AcDbLine
 10
-139.049998523336
 20
159.6000128379559
 30
0.0
 11
-139.049998523336
 21
157.1000128379559
 31
0.0
  0
LINE
  5
2FE
330
6A
100
AcDbEntity
  8
0
  6
Continuous
 62
     7
100
AcDbLine
 10
-139.049998523336
 20
160.4000128379557
 30
0.0
 11
-139.049998523336
 21
159.6000128379559
 31
0.0
  0
LINE
  5
2FF
330
6A
100
AcDbEntity
  8
0
  6
Continuous
 62
     7
100
AcDbLine
 10
-139.049998523336
 20
156.3000128379559
 30
0.0
 11
-139.049998523336
 21
153.8000128379559
 31
0.0
  0
LINE
  5
300
330
6A
100
AcDbEntity
  8
0
  6
Continuous
 62
     7
100
AcDbLine
 10
-133.049998523336
 20
153.8000128379559
 30
0.0
 11
-139.049998523336
 21
153.8000128379559
 31
0.0
  0
LINE
  5
301
330
6A
100
AcDbEntity
  8
0
  6
Continuous
 62
     7
100
AcDbLine
 10
-144.2499985233361
 20
160.4000128379556
 30
0.0
 11
-139.049998523336
 21
160.4000128379557
 31
0.0
  0
LINE
  5
302
330
6A
100
AcDbEntity
  8
0
  6
Continuous
 62
     7
100
AcDbLine
 10
-139.049998523336
 20
159.6000128379559
 30
0.0
 11
-133.049998523336
 21
159.6000128379559
 31
0.0
  0
LINE
  5
303
330
6A
100
AcDbEntity
  8
0
  6
Continuous
 62
     7
100
AcDbLine
 10
-113.8499985233361
 20
160.4000128379562
 30
0.0
 11
-111.8170542705623
 21
158.3670685851818
 31
0.0
  0
LINE
  5
304
330
6A
100
AcDbEntity
  8
0
  6
Continuous
 62
     7
100
AcDbLine
 10
-133.049998523336
 20
160.4000128379558
 30
0.0
 11
-125.049998523336
 21
160.400012837956
 31
0.0
  0
LINE
  5
305
330
6A
100
AcDbEntity
  8
0
  6
Continuous
 62
     7
100
AcDbLine
 10
-149.5477639444403
 20
152.1253278680559
 30
0.0
 11
-148.7911596885708
 21
151.3687236121862
 31
0.0
  0
LINE
  5
306
330
6A
100
AcDbEntity
  8
0
  6
Continuous
 62
     7
100
AcDbLine
 10
-149.174483358586
 20
152.4986084539104
 30
0.0
 11
-149.5477639444403
 21
152.1253278680559
 31
0.0
  0
LINE
  5
307
330
6A
100
AcDbEntity
  8
0
  6
Continuous
 62
     7
100
AcDbLine
 10
-147.0291898820717
 20
133.6296561554287
 30
0.0
 11
-146.537054030152
 21
132.7070625622903
 31
0.0
  0
LINE
  5
308
330
6A
100
AcDbEntity
  8
0
  6
Continuous
 62
     7
100
AcDbLine
 10
-146.7499985233355
 20
134.4000128379561
 30
0.0
 11
-147.1417088908817
 21
133.8405924573247
 31
0.0
  0
LINE
  5
309
330
6A
100
AcDbEntity
  8
0
  6
Continuous
 62
     7
100
AcDbLine
 10
-146.2367364415345
 20
154.9838070310024
 30
0.0
 11
-146.6610005102464
 21
154.5595429622904
 31
0.0
  0
LINE
  5
30A
330
6A
100
AcDbEntity
  8
0
  6
Continuous
 62
     7
100
AcDbLine
 10
-146.6610005102464
 20
154.5595429622904
 30
0.0
 11
-146.1306704243564
 21
154.0292128764001
 31
0.0
  0
LINE
  5
30B
330
6A
100
AcDbEntity
  8
0
  6
Continuous
 62
     7
100
AcDbLine
 10
-146.1306704243564
 20
154.0292128764001
 30
0.0
 11
-146.9791985617801
 21
153.1806847389765
 31
0.0
  0
LINE
  5
30C
330
6A
100
AcDbEntity
  8
0
  6
Continuous
 62
     7
100
AcDbLine
 10
-146.9791985617801
 20
153.1806847389765
 30
0.0
 11
-147.5095286476703
 21
153.7110148248664
 31
0.0
  0
LINE
  5
30D
330
6A
100
AcDbEntity
  8
0
  6
Continuous
 62
     7
100
AcDbLine
 10
-147.5095286476703
 20
153.7110148248664
 30
0.0
 11
-147.9337927163822
 21
153.2867507561545
 31
0.0
  0
LINE
  5
30E
330
6A
100
AcDbEntity
  8
0
  6
Continuous
 62
     7
100
AcDbLine
 10
-147.9337927163822
 20
153.2867507561545
 30
0.0
 11
-147.4034626304922
 21
152.7564206702645
 31
0.0
  0
LINE
  5
30F
330
6A
100
AcDbEntity
  8
0
  6
Continuous
 62
     7
100
AcDbLine
 10
-153.3499985233359
 20
127.6000128379563
 30
0.0
 11
-151.5114097831618
 21
127.6000128379558
 31
0.0
  0
LINE
  5
310
330
6A
100
AcDbEntity
  8
0
  6
Continuous
 62
     7
100
AcDbLine
 10
-145.923527085596
 20
129.8000128065607
 30
0.0
 11
-149.9709532210845
 21
129.8000128065592
 31
0.0
  0
LINE
  5
311
330
6A
100
AcDbEntity
  8
0
  6
Continuous
 62
     7
100
AcDbLine
 10
-149.9709532210845
 20
129.8000128065592
 30
0.0
 11
-151.5114097831618
 21
127.6000128379558
 31
0.0
  0
LINE
  5
312
330
6A
100
AcDbEntity
  8
0
  6
Continuous
 62
     7
100
AcDbLine
 10
-108.1290438255982
 20
129.8000128065751
 30
0.0
 11
-112.1764699610805
 21
129.8000128065736
 31
0.0
  0
LINE
  5
313
330
6A
100
AcDbEntity
  8
0
  6
Continuous
 62
     7
100
AcDbLine
 10
-106.5885872635098
 20
127.6000128379559
 30
0.0
 11
-108.1290438255982
 21
129.8000128065751
 31
0.0
  0
LINE
  5
314
330
6A
100
AcDbEntity
  8
0
  6
Continuous
 62
     7
100
AcDbLine
 10
-104.7499985233358
 20
127.6000128379563
 30
0.0
 11
-106.5885872635098
 21
127.6000128379559
 31
0.0
  0
LINE
  5
315
330
6A
100
AcDbEntity
  8
0
  6
Continuous
 62
     7
100
AcDbLine
 10
-113.0499985233208
 20
133.4000128065859
 30
0.0
 11
-113.0499985233203
 21
132.2000128065733
 31
0.0
  0
LINE
  5
316
330
6A
100
AcDbEntity
  8
0
  6
Continuous
 62
     7
100
AcDbLine
 10
-137.5499985233357
 20
132.9000128379561
 30
0.0
 11
-133.049998523336
 21
132.9000128379561
 31
0.0
  0
LINE
  5
317
330
6A
100
AcDbEntity
  8
0
  6
Continuous
 62
     7
100
AcDbLine
 10
-137.5761811207276
 20
134.4000128379561
 30
0.0
 11
-139.049998523336
 21
134.4000128379561
 31
0.0
  0
LINE
  5
318
330
6A
100
AcDbEntity
  8
0
  6
Continuous
 62
     7
100
AcDbLine
 10
-111.3499985233361
 20
134.4000128379561
 30
0.0
 11
-119.049998523336
 21
134.4000128379561
 31
0.0
  0
LINE
  5
319
330
6A
100
AcDbEntity
  8
0
  6
Continuous
 62
     7
100
AcDbLine
 10
-112.5204411067471
 20
133.4000128065861
 30
0.0
 11
-113.0499985233208
 21
133.4000128065859
 31
0.0
  0
LINE
  5
31A
330
6A
100
AcDbEntity
  8
0
  6
Continuous
 62
     7
100
AcDbLine
 10
-111.5629430165266
 20
132.7070625622994
 30
0.0
 11
-112.5204411067471
 21
133.4000128065861
 31
0.0
  0
LINE
  5
31B
330
6A
100
AcDbEntity
  8
0
  6
Continuous
 62
     7
100
AcDbLine
 10
-145.5795559399378
 20
133.4000128065735
 30
0.0
 11
-145.049998523351
 21
133.4000128065737
 31
0.0
  0
LINE
  5
31C
330
6A
100
AcDbEntity
  8
0
  6
Continuous
 62
     7
100
AcDbLine
 10
-139.049998523336
 20
134.4000128379561
 30
0.0
 11
-146.7499985233355
 21
134.4000128379561
 31
0.0
  0
LINE
  5
31D
330
6A
100
AcDbEntity
  8
0
  6
Continuous
 62
     7
100
AcDbLine
 10
-110.9582881557972
 20
133.8405924573353
 30
0.0
 11
-111.5629430165266
 21
132.7070625622994
 31
0.0
  0
LINE
  5
31E
330
6A
100
AcDbEntity
  8
0
  6
Continuous
 62
     7
100
AcDbLine
 10
-133.049998523336
 20
132.9000128379561
 30
0.0
 11
-125.049998523336
 21
132.9000128379561
 31
0.0
  0
LINE
  5
31F
330
6A
100
AcDbEntity
  8
0
  6
Continuous
 62
     7
100
AcDbLine
 10
-110.9582881557972
 20
133.8405924573353
 30
0.0
 11
-111.3499985233361
 21
134.4000128379561
 31
0.0
  0
LINE
  5
320
330
6A
100
AcDbEntity
  8
0
  6
Continuous
 62
     7
100
AcDbLine
 10
-125.049998523336
 20
132.9000128379561
 30
0.0
 11
-120.5499985233358
 21
132.9000128379561
 31
0.0
  0
LINE
  5
321
330
6A
100
AcDbEntity
  8
0
  6
Continuous
 62
     7
100
AcDbLine
 10
-125.049998523336
 20
136.5000128379559
 30
0.0
 11
-125.049998523336
 21
132.9000128379561
 31
0.0
  0
LINE
  5
322
330
6A
100
AcDbEntity
  8
0
  6
Continuous
 62
     7
100
AcDbLine
 10
-119.049998523336
 20
134.4000128379561
 30
0.0
 11
-119.049998523336
 21
136.5000128379559
 31
0.0
  0
LINE
  5
323
330
6A
100
AcDbEntity
  8
0
  6
Continuous
 62
     7
100
AcDbLine
 10
-119.049998523336
 20
134.4000128379561
 30
0.0
 11
-120.5238159259439
 21
134.4000128379561
 31
0.0
  0
LINE
  5
324
330
6A
100
AcDbEntity
  8
0
  6
Continuous
 62
     7
100
AcDbLine
 10
-119.049998523336
 20
159.6000128379559
 30
0.0
 11
-119.049998523336
 21
160.4000128379561
 31
0.0
  0
LINE
  5
325
330
6A
100
AcDbEntity
  8
0
  6
Continuous
 62
     7
100
AcDbLine
 10
-119.049998523336
 20
156.3000128379559
 30
0.0
 11
-119.049998523336
 21
157.1000128379559
 31
0.0
  0
LINE
  5
326
330
6A
100
AcDbEntity
  8
0
  6
Continuous
 62
     7
100
AcDbLine
 10
-119.049998523336
 20
153.8000128379559
 30
0.0
 11
-119.049998523336
 21
156.3000128379559
 31
0.0
  0
LINE
  5
327
330
6A
100
AcDbEntity
  8
0
  6
Continuous
 62
     7
100
AcDbLine
 10
-119.049998523336
 20
139.8000128379559
 30
0.0
 11
-119.049998523336
 21
140.6000128379559
 31
0.0
  0
LINE
  5
328
330
6A
100
AcDbEntity
  8
0
  6
Continuous
 62
     7
100
AcDbLine
 10
-119.049998523336
 20
136.5000128379559
 30
0.0
 11
-119.049998523336
 21
137.3000128379559
 31
0.0
  0
LINE
  5
329
330
6A
100
AcDbEntity
  8
0
  6
Continuous
 62
     7
100
AcDbLine
 10
-119.049998523336
 20
137.3000128379559
 30
0.0
 11
-119.049998523336
 21
139.8000128379559
 31
0.0
  0
LINE
  5
32A
330
6A
100
AcDbEntity
  8
0
  6
Continuous
 62
     7
100
AcDbLine
 10
-119.049998523336
 20
140.6000128379559
 30
0.0
 11
-119.049998523336
 21
143.1000128379559
 31
0.0
  0
LINE
  5
32B
330
6A
100
AcDbEntity
  8
0
  6
Continuous
 62
     7
100
AcDbLine
 10
-119.049998523336
 20
147.2000128379559
 30
0.0
 11
-119.049998523336
 21
149.7000128379559
 31
0.0
  0
LINE
  5
32C
330
6A
100
AcDbEntity
  8
0
  6
Continuous
 62
     7
100
AcDbLine
 10
-119.049998523336
 20
157.1000128379559
 30
0.0
 11
-119.049998523336
 21
159.6000128379559
 31
0.0
  0
LINE
  5
32D
330
6A
100
AcDbEntity
  8
0
  6
Continuous
 62
     7
100
AcDbLine
 10
-125.049998523336
 20
139.8000128379559
 30
0.0
 11
-119.049998523336
 21
139.8000128379559
 31
0.0
  0
LINE
  5
32E
330
6A
100
AcDbEntity
  8
0
  6
Continuous
 62
     7
100
AcDbLine
 10
-119.049998523336
 20
146.4000128379559
 30
0.0
 11
-119.049998523336
 21
147.2000128379559
 31
0.0
  0
LINE
  5
32F
330
6A
100
AcDbEntity
  8
0
  6
Continuous
 62
     7
100
AcDbLine
 10
-119.049998523336
 20
143.9000128379559
 30
0.0
 11
-119.049998523336
 21
146.4000128379559
 31
0.0
  0
LINE
  5
330
330
6A
100
AcDbEntity
  8
0
  6
Continuous
 62
     7
100
AcDbLine
 10
-119.049998523336
 20
143.1000128379559
 30
0.0
 11
-119.049998523336
 21
143.9000128379559
 31
0.0
  0
LINE
  5
331
330
6A
100
AcDbEntity
  8
0
  6
Continuous
 62
     7
100
AcDbLine
 10
-125.049998523336
 20
143.1000128379559
 30
0.0
 11
-119.049998523336
 21
143.1000128379559
 31
0.0
  0
LINE
  5
332
330
6A
100
AcDbEntity
  8
0
  6
Continuous
 62
     7
100
AcDbLine
 10
-119.049998523336
 20
143.9000128379559
 30
0.0
 11
-125.049998523336
 21
143.9000128379559
 31
0.0
  0
LINE
  5
333
330
6A
100
AcDbEntity
  8
0
  6
Continuous
 62
     7
100
AcDbLine
 10
-125.049998523336
 20
146.4000128379559
 30
0.0
 11
-119.049998523336
 21
146.4000128379559
 31
0.0
  0
LINE
  5
334
330
6A
100
AcDbEntity
  8
0
  6
Continuous
 62
     7
100
AcDbLine
 10
-119.049998523336
 20
147.2000128379559
 30
0.0
 11
-125.049998523336
 21
147.2000128379559
 31
0.0
  0
LINE
  5
335
330
6A
100
AcDbEntity
  8
0
  6
Continuous
 62
     7
100
AcDbLine
 10
-125.049998523336
 20
140.6000128379559
 30
0.0
 11
-125.049998523336
 21
139.8000128379559
 31
0.0
  0
LINE
  5
336
330
6A
100
AcDbEntity
  8
0
  6
Continuous
 62
     7
100
AcDbLine
 10
-125.049998523336
 20
137.3000128379559
 30
0.0
 11
-125.049998523336
 21
136.5000128379559
 31
0.0
  0
LINE
  5
337
330
6A
100
AcDbEntity
  8
0
  6
Continuous
 62
     7
100
AcDbLine
 10
-125.049998523336
 20
139.8000128379559
 30
0.0
 11
-125.049998523336
 21
137.3000128379559
 31
0.0
  0
LINE
  5
338
330
6A
100
AcDbEntity
  8
0
  6
Continuous
 62
     7
100
AcDbLine
 10
-119.049998523336
 20
137.3000128379559
 30
0.0
 11
-125.049998523336
 21
137.3000128379559
 31
0.0
  0
LINE
  5
339
330
6A
100
AcDbEntity
  8
0
  6
Continuous
 62
     7
100
AcDbLine
 10
-119.049998523336
 20
140.6000128379559
 30
0.0
 11
-125.049998523336
 21
140.6000128379559
 31
0.0
  0
LINE
  5
33A
330
6A
100
AcDbEntity
  8
0
  6
Continuous
 62
     7
100
AcDbLine
 10
-119.049998523336
 20
157.1000128379559
 30
0.0
 11
-125.049998523336
 21
157.1000128379559
 31
0.0
  0
LINE
  5
33B
330
6A
100
AcDbEntity
  8
0
  6
Continuous
 62
     7
100
AcDbLine
 10
-119.049998523336
 20
153.0000128379559
 30
0.0
 11
-119.049998523336
 21
153.8000128379559
 31
0.0
  0
LINE
  5
33C
330
6A
100
AcDbEntity
  8
0
  6
Continuous
 62
     7
100
AcDbLine
 10
-119.049998523336
 20
150.500012837956
 30
0.0
 11
-119.049998523336
 21
153.0000128379559
 31
0.0
  0
LINE
  5
33D
330
6A
100
AcDbEntity
  8
0
  6
Continuous
 62
     7
100
AcDbLine
 10
-119.049998523336
 20
149.7000128379559
 30
0.0
 11
-119.049998523336
 21
150.500012837956
 31
0.0
  0
LINE
  5
33E
330
6A
100
AcDbEntity
  8
0
  6
Continuous
 62
     7
100
AcDbLine
 10
-119.049998523336
 20
150.500012837956
 30
0.0
 11
-125.049998523336
 21
150.500012837956
 31
0.0
  0
LINE
  5
33F
330
6A
100
AcDbEntity
  8
0
  6
Continuous
 62
     7
100
AcDbLine
 10
-125.049998523336
 20
150.500012837956
 30
0.0
 11
-125.049998523336
 21
149.7000128379559
 31
0.0
  0
LINE
  5
340
330
6A
100
AcDbEntity
  8
0
  6
Continuous
 62
     7
100
AcDbLine
 10
-125.049998523336
 20
149.7000128379559
 30
0.0
 11
-119.049998523336
 21
149.7000128379559
 31
0.0
  0
LINE
  5
341
330
6A
100
AcDbEntity
  8
0
  6
Continuous
 62
     7
100
AcDbLine
 10
-125.049998523336
 20
153.0000128379559
 30
0.0
 11
-119.049998523336
 21
153.0000128379559
 31
0.0
  0
LINE
  5
342
330
6A
100
AcDbEntity
  8
0
  6
Continuous
 62
     7
100
AcDbLine
 10
-119.049998523336
 20
153.8000128379559
 30
0.0
 11
-125.049998523336
 21
153.8000128379559
 31
0.0
  0
LINE
  5
343
330
6A
100
AcDbEntity
  8
0
  6
Continuous
 62
     7
100
AcDbLine
 10
-125.049998523336
 20
159.6000128379559
 30
0.0
 11
-119.049998523336
 21
159.6000128379559
 31
0.0
  0
LINE
  5
344
330
6A
100
AcDbEntity
  8
0
  6
Continuous
 62
     7
100
AcDbLine
 10
-125.049998523336
 20
136.5000128379559
 30
0.0
 11
-119.049998523336
 21
136.5000128379559
 31
0.0
  0
LINE
  5
345
330
6A
100
AcDbEntity
  8
0
  6
Continuous
 62
     7
100
AcDbLine
 10
-125.049998523336
 20
160.400012837956
 30
0.0
 11
-125.049998523336
 21
159.6000128379559
 31
0.0
  0
LINE
  5
346
330
6A
100
AcDbEntity
  8
0
  6
Continuous
 62
     7
100
AcDbLine
 10
-125.049998523336
 20
157.1000128379559
 30
0.0
 11
-125.049998523336
 21
156.3000128379559
 31
0.0
  0
LINE
  5
347
330
6A
100
AcDbEntity
  8
0
  6
Continuous
 62
     7
100
AcDbLine
 10
-125.049998523336
 20
143.1000128379559
 30
0.0
 11
-125.049998523336
 21
140.6000128379559
 31
0.0
  0
LINE
  5
348
330
6A
100
AcDbEntity
  8
0
  6
Continuous
 62
     7
100
AcDbLine
 10
-125.049998523336
 20
143.9000128379559
 30
0.0
 11
-125.049998523336
 21
143.1000128379559
 31
0.0
  0
LINE
  5
349
330
6A
100
AcDbEntity
  8
0
  6
Continuous
 62
     7
100
AcDbLine
 10
-125.049998523336
 20
146.4000128379559
 30
0.0
 11
-125.049998523336
 21
143.9000128379559
 31
0.0
  0
LINE
  5
34A
330
6A
100
AcDbEntity
  8
0
  6
Continuous
 62
     7
100
AcDbLine
 10
-125.049998523336
 20
147.2000128379559
 30
0.0
 11
-125.049998523336
 21
146.4000128379559
 31
0.0
  0
LINE
  5
34B
330
6A
100
AcDbEntity
  8
0
  6
Continuous
 62
     7
100
AcDbLine
 10
-125.049998523336
 20
149.7000128379559
 30
0.0
 11
-125.049998523336
 21
147.2000128379559
 31
0.0
  0
LINE
  5
34C
330
6A
100
AcDbEntity
  8
0
  6
Continuous
 62
     7
100
AcDbLine
 10
-125.049998523336
 20
153.0000128379559
 30
0.0
 11
-125.049998523336
 21
150.500012837956
 31
0.0
  0
LINE
  5
34D
330
6A
100
AcDbEntity
  8
0
  6
Continuous
 62
     7
100
AcDbLine
 10
-125.049998523336
 20
153.8000128379559
 30
0.0
 11
-125.049998523336
 21
153.0000128379559
 31
0.0
  0
LINE
  5
34E
330
6A
100
AcDbEntity
  8
0
  6
Continuous
 62
     7
100
AcDbLine
 10
-125.049998523336
 20
156.3000128379559
 30
0.0
 11
-125.049998523336
 21
153.8000128379559
 31
0.0
  0
LINE
  5
34F
330
6A
100
AcDbEntity
  8
0
  6
Continuous
 62
     7
100
AcDbLine
 10
-125.049998523336
 20
159.6000128379559
 30
0.0
 11
-125.049998523336
 21
157.1000128379559
 31
0.0
  0
LINE
  5
350
330
6A
100
AcDbEntity
  8
0
  6
Continuous
 62
     7
100
AcDbLine
 10
-125.049998523336
 20
156.3000128379559
 30
0.0
 11
-119.049998523336
 21
156.3000128379559
 31
0.0
  0
LINE
  5
351
330
6A
100
AcDbEntity
  8
0
  6
Continuous
 62
     7
100
AcDbLine
 10
-120.5499985233358
 20
132.9000128379561
 30
0.0
 11
-120.5238159259439
 21
134.4000128379561
 31
0.0
  0
LINE
  5
352
330
6A
100
AcDbEntity
  8
0
  6
Continuous
 62
     7
100
AcDbLine
 10
-111.1207984848917
 20
153.1806847389765
 30
0.0
 11
-111.9693266223155
 21
154.0292128764002
 31
0.0
  0
LINE
  5
353
330
6A
100
AcDbEntity
  8
0
  6
Continuous
 62
     7
100
AcDbLine
 10
-111.9693266223155
 20
154.0292128764002
 30
0.0
 11
-111.4389965364259
 21
154.5595429622904
 31
0.0
  0
LINE
  5
354
330
6A
100
AcDbEntity
  8
0
  6
Continuous
 62
     7
100
AcDbLine
 10
-111.4389965364259
 20
154.5595429622904
 30
0.0
 11
-111.8632606051373
 21
154.9838070310018
 31
0.0
  0
LINE
  5
355
330
6A
100
AcDbEntity
  8
0
  6
Continuous
 62
     7
100
AcDbLine
 10
-111.8632606051373
 20
154.9838070310018
 30
0.0
 11
-112.3935906910275
 21
154.4534769451122
 31
0.0
  0
LINE
  5
356
330
6A
100
AcDbEntity
  8
0
  6
Continuous
 62
     7
100
AcDbLine
 10
-112.3935906910275
 20
154.4534769451122
 30
0.0
 11
-113.7812877491061
 21
155.8411740031907
 31
0.0
  0
LINE
  5
357
330
6A
100
AcDbEntity
  8
0
  6
Continuous
 62
     7
100
AcDbLine
 10
-113.0246834932362
 20
156.5977782590606
 30
0.0
 11
-113.7812877491061
 21
155.8411740031907
 31
0.0
  0
LINE
  5
358
330
6A
100
AcDbEntity
  8
0
  6
Continuous
 62
     7
100
AcDbLine
 10
-110.1662043302897
 20
153.2867507561545
 30
0.0
 11
-110.5904683990014
 21
153.7110148248661
 31
0.0
  0
LINE
  5
359
330
6A
100
AcDbEntity
  8
0
  6
Continuous
 62
     7
100
AcDbLine
 10
-110.6965344161797
 20
152.7564206702645
 30
0.0
 11
-110.1662043302897
 21
153.2867507561545
 31
0.0
  0
LINE
  5
35A
330
6A
100
AcDbEntity
  8
0
  6
Continuous
 62
     7
100
AcDbLine
 10
-109.3088373581011
 20
151.368723612186
 30
0.0
 11
-110.6965344161797
 21
152.7564206702645
 31
0.0
  0
LINE
  5
35B
330
6A
100
AcDbEntity
  8
0
  6
Continuous
 62
     7
100
AcDbLine
 10
-109.3088373581011
 20
151.368723612186
 30
0.0
 11
-108.5522331022313
 21
152.1253278680558
 31
0.0
  0
LINE
  5
35C
330
6A
100
AcDbEntity
  8
0
  6
Continuous
 62
     7
100
AcDbLine
 10
-108.5522331022313
 20
152.1253278680558
 30
0.0
 11
-108.9255136880856
 21
152.4986084539104
 31
0.0
  0
LINE
  5
35D
330
6A
100
AcDbEntity
  8
0
  6
Continuous
 62
     7
100
AcDbLine
 10
-108.9255136880856
 20
152.4986084539104
 30
0.0
 11
-106.78294277611
 21
153.33295709073
 31
0.0
  0
LINE
  5
35E
330
6A
100
AcDbEntity
  8
0
  6
Continuous
 62
     7
100
AcDbLine
 10
-104.7499985233358
 20
151.3000128379555
 30
0.0
 11
-104.7499985233358
 21
127.6000128379563
 31
0.0
  0
LINE
  5
35F
330
6A
100
AcDbEntity
  8
0
  6
Continuous
 62
     7
100
AcDbLine
 10
-110.5904683990014
 20
153.7110148248661
 30
0.0
 11
-111.1207984848917
 21
153.1806847389765
 31
0.0
  0
LINE
  5
360
330
6A
100
AcDbEntity
  8
0
  6
Continuous
 62
     7
100
AcDbLine
 10
-112.6514029073815
 20
156.2244976732058
 30
0.0
 11
-113.0246834932362
 21
156.5977782590606
 31
0.0
  0
LINE
  5
361
330
6A
100
AcDbEntity
  8
0
  6
Continuous
 62
     7
100
AcDbLine
 10
-111.8170542705623
 20
158.3670685851818
 30
0.0
 11
-112.6514029073815
 21
156.2244976732058
 31
0.0
  0
LINE
  5
362
330
6A
100
AcDbEntity
  8
0
  6
Continuous
 62
     7
100
AcDbLine
 10
-106.78294277611
 20
153.33295709073
 30
0.0
 11
-104.7499985233358
 21
151.3000128379555
 31
0.0
  0
LINE
  5
363
330
6A
100
AcDbEntity
  8
0
  6
Continuous
 62
     7
100
AcDbLine
 10
-139.049998523336
 20
153.0000128379559
 30
0.0
 11
-133.049998523336
 21
153.0000128379559
 31
0.0
  0
LINE
  5
364
330
6A
100
AcDbEntity
  8
0
  6
Continuous
 62
     7
100
AcDbLine
 10
-147.4034626304922
 20
152.7564206702645
 30
0.0
 11
-148.7911596885708
 21
151.3687236121862
 31
0.0
  0
LINE
  5
365
330
6A
100
AcDbEntity
  8
0
  6
Continuous
 62
     7
100
AcDbLine
 10
-151.3170542705615
 20
153.3329570907301
 30
0.0
 11
-149.174483358586
 21
152.4986084539104
 31
0.0
  0
LINE
  5
366
330
6A
100
AcDbEntity
  8
0
  6
Continuous
 62
     7
100
AcDbLine
 10
-151.3170542705615
 20
153.3329570907301
 30
0.0
 11
-153.3499985233358
 21
151.3000128379555
 31
0.0
  0
LINE
  5
367
330
6A
100
AcDbEntity
  8
0
  6
Continuous
 62
     7
100
AcDbLine
 10
-147.0416086953384
 20
133.6529373642851
 30
0.0
 11
-147.1417088908817
 21
133.8405924573247
 31
0.0
  0
LINE
  5
368
330
6A
100
AcDbEntity
  8
0
  6
Continuous
 62
     7
100
AcDbLine
 10
-153.3499985233358
 20
151.3000128379555
 30
0.0
 11
-153.3499985233359
 21
127.6000128379563
 31
0.0
  0
LINE
  5
369
330
6A
100
AcDbEntity
  8
0
  6
Continuous
 62
     7
100
AcDbLine
 10
-147.1417088908817
 20
133.8405924573247
 30
0.0
 11
-149.9709532210845
 21
129.8000128065592
 31
0.0
  0
ARC
  5
36A
330
6A
100
AcDbEntity
  8
0
  6
Continuous
 62
     7
100
AcDbCircle
 10
-148.7999985219721
 20
132.7000128040413
 30
0.0
 40
1.99999999998117
100
AcDbArc
 50
27.6986818184962
 51
28.45460170980493
  0
ENDBLK
  5
6C
330
6A
100
AcDbEntity
  8
0
100
AcDbBlockEnd
  0
BLOCK
  5
6F
330
6D
100
AcDbEntity
  8
0
100
AcDbBlockBegin
  2
Vordans1
 70
     0
 10
-129.0500002616703
 20
144.0000074189799
 30
0.0
  3
Vordans1
  1

  0
INSERT
  5
6E
330
6D
100
AcDbEntity
  8
0
100
AcDbBlockReference
  2
E_NS_35_N_select__6
 10
-153.3499985233359
 20
127.6000128379558
 30
0.0
  0
LINE
  5
36B
330
6D
100
AcDbEntity
  8
1
  6
DOT_CENTER
 62
     2
100
AcDbLine
 10
-129.0499985233357
 20
136.613511342369
 30
0.0
 11
-129.0499985233357
 21
129.46821838404
 31
0.0
  0
DIMENSION
  5
376
330
6D
100
AcDbEntity
  8
1
100
AcDbDimension
  2
*D18
 10
-171.647711521578
 20
127.6000128379562
 30
0.0
 11
-175.072711521578
 21
145.7277764207533
 31
0.0
 70
    32
  1
<>
 71
     5
 42
-1.0
 53
90.0
  3
ME10_DIM_11
100
AcDbAlignedDimension
 13
-119.049998523336
 23
160.4000128379561
 33
0.0
 14
-153.3499985233359
 24
127.6000128379563
 34
0.0
 50
90.0
100
AcDbRotatedDimension
  0
DIMENSION
  5
381
330
6D
100
AcDbEntity
  8
1
100
AcDbDimension
  2
*D19
 10
-159.1477115215783
 20
132.9000128379561
 30
0.0
 11
-162.5727115215783
 21
148.5706909595573
 31
0.0
 70
    32
  1
<>
 71
     5
 42
-1.0
 53
90.0
  3
ME10_DIM_12
100
AcDbAlignedDimension
 13
-119.049998523336
 23
160.4000128379561
 33
0.0
 14
-133.049998523336
 24
132.9000128379561
 34
0.0
 50
90.0
100
AcDbRotatedDimension
  0
DIMENSION
  5
38C
330
6D
100
AcDbEntity
  8
1
100
AcDbDimension
  2
*D20
 10
-129.0499985233357
 20
111.46821838404
 30
0.0
 11
-116.837940380897
 21
114.89321838404
 31
0.0
 70
    32
  1
<>
 71
     5
 42
-1.0
 53
0.00013888888889
  3
ME10_DIM_13
100
AcDbAlignedDimension
 13
-104.7499985233358
 23
127.6000128379563
 33
0.0
 14
-129.0499985233357
 24
129.46821838404
 34
0.0
100
AcDbRotatedDimension
  0
DIMENSION
  5
397
330
6D
100
AcDbEntity
  8
1
100
AcDbDimension
  2
*D21
 10
-129.0499985233358
 20
119.46821838404
 30
0.0
 11
-120.685405819997
 21
122.89321838404
 31
0.0
 70
    32
  1
<>
 71
     5
 42
-1.0
 53
0.00013888888889
  3
ME10_DIM_14
100
AcDbAlignedDimension
 13
-111.5629430165266
 23
132.7070625622994
 33
0.0
 14
-129.0499985233357
 24
129.46821838404
 34
0.0
100
AcDbRotatedDimension
  0
DIMENSION
  5
3A2
330
6D
100
AcDbEntity
  8
1
100
AcDbDimension
  2
*D22
 10
-104.7499985233358
 20
100.7004437157346
 30
0.0
 11
-130.5073520429901
 21
104.6254437157346
 31
0.0
 70
    32
  1
<>
 71
     5
 42
-1.0
 53
0.00013888888889
  3
ME10_DIM_15
100
AcDbAlignedDimension
 13
-153.3499985233359
 23
127.6000128379563
 33
0.0
 14
-104.7499985233358
 24
151.3000128379555
 34
0.0
100
AcDbRotatedDimension
  0
ENDBLK
  5
70
330
6D
100
AcDbEntity
  8
0
100
AcDbBlockEnd
  0
BLOCK
  5
72
330
71
100
AcDbEntity
  8
0
100
AcDbBlockBegin
  2
_rahmen
 70
     0
 10
57.77499913077524
 20
-1.46730497967121
 30
0.0
  3
_rahmen
  1

  0
LINE
  5
3A3
330
71
100
AcDbEntity
  8
1
  6
DOT_CENTER
 62
     2
100
AcDbLine
 10
-67.78315050941217
 20
24.65769502032882
 30
0.0
 11
-62.28315050941217
 21
24.65769502032882
 31
0.0
  0
LINE
  5
3A4
330
71
100
AcDbEntity
  8
1
  6
PHANTOM
 62
     2
100
AcDbLine
 10
-59.03315050941217
 20
27.40769502032882
 30
0.0
 11
-59.03315050941217
 21
21.90769502032882
 31
0.0
  0
LINE
  5
3A5
330
71
100
AcDbEntity
  8
1
  6
PHANTOM
 62
     2
100
AcDbLine
 10
-56.28315050941217
 20
24.65769502032882
 30
0.0
 11
-61.78315050941217
 21
24.65769502032882
 31
0.0
  0
LINE
  5
3A6
330
71
100
AcDbEntity
  8
1
  6
Continuous
 62
     7
100
AcDbLine
 10
-7.46980539597476
 20
12.03269502032882
 30
0.0
 11
-7.46980539597476
 21
20.5326950203289
 31
0.0
  0
LINE
  5
3A7
330
71
100
AcDbEntity
  8
1
  6
Continuous
 62
     6
100
AcDbLine
 10
-35.36980539597485
 20
20.5326950203289
 30
0.0
 11
57.77499913077693
 21
20.5326950203289
 31
0.0
  0
LINE
  5
3A8
330
71
100
AcDbEntity
  8
1
  6
Continuous
 62
     7
100
AcDbLine
 10
-71.76980539597477
 20
20.5326950203289
 30
0.0
 11
-71.76980539597477
 21
29.0326950203289
 31
0.0
  0
LINE
  5
3A9
330
71
100
AcDbEntity
  8
1
  6
Continuous
 62
     7
100
AcDbLine
 10
-35.36980539597485
 20
20.5326950203289
 30
0.0
 11
-35.36980539597485
 21
29.0326950203289
 31
0.0
  0
LINE
  5
3AA
330
71
100
AcDbEntity
  8
1
  6
Continuous
 62
     7
100
AcDbLine
 10
22.35659084909813
 20
29.0326950203289
 30
0.0
 11
22.35659084909813
 21
20.5326950203289
 31
0.0
  0
LINE
  5
3AB
330
71
100
AcDbEntity
  8
1
  6
Continuous
 62
     7
100
AcDbLine
 10
48.85659084909773
 20
29.0326950203289
 30
0.0
 11
48.85659084909773
 21
20.5326950203289
 31
0.0
  0
LINE
  5
3AC
330
71
100
AcDbEntity
  8
1
  6
Continuous
 62
     6
100
AcDbLine
 10
-140.7698053959747
 20
3.5326950203289
 30
0.0
 11
-185.7250008692247
 21
3.5326950203289
 31
0.0
  0
LINE
  5
3AD
330
71
100
AcDbEntity
  8
1
  6
Continuous
 62
     7
100
AcDbLine
 10
57.77499913077654
 20
12.0326950203289
 30
0.0
 11
-35.36980539597485
 21
12.0326950203289
 31
0.0
  0
LINE
  5
3AE
102
{ACAD_REACTORS
330
4C0
330
4C1
102
}
330
71
100
AcDbEntity
  8
0
  6
Continuous
 62
     2
100
AcDbLine
 10
-58.06237645420737
 20
12.83298413599221
 30
0.0
 11
-58.06237645420737
 21
13.7055011427955
 31
0.0
  0
LINE
  5
3AF
102
{ACAD_REACTORS
330
4C0
330
4C1
102
}
330
71
100
AcDbEntity
  8
0
  6
Continuous
 62
     2
100
AcDbLine
 10
-58.06237645420737
 20
11.8732154285093
 30
0.0
 11
-58.06237645420737
 21
11.00069842170609
 31
0.0
  0
LINE
  5
3B0
102
{ACAD_REACTORS
330
4C2
330
4C3
102
}
330
71
100
AcDbEntity
  8
0
  6
Continuous
 62
     2
100
AcDbLine
 10
-42.72933231791686
 20
13.0947392380327
 30
0.0
 11
-41.62569301834876
 21
13.0947392380327
 31
0.0
  0
LINE
  5
3B1
102
{ACAD_REACTORS
330
4C2
330
4C3
102
}
330
71
100
AcDbEntity
  8
0
  6
Continuous
 62
     2
100
AcDbLine
 10
-41.95967497495545
 20
11.87321542850881
 30
0.0
 11
-41.95967497495545
 21
11.00069842170549
 31
0.0
  0
LINE
  5
3B2
102
{ACAD_REACTORS
330
4CC
330
4CD
102
}
330
71
100
AcDbEntity
  8
0
  6
Continuous
 62
     2
100
AcDbLine
 10
-43.82043159033537
 20
14.1853854965195
 30
0.0
 11
-42.42247854339507
 21
15.7662444902945
 31
0.0
  0
LINE
  5
3B3
102
{ACAD_REACTORS
330
4CC
330
4CD
102
}
330
71
100
AcDbEntity
  8
0
  6
Continuous
 62
     2
100
AcDbLine
 10
-43.72500817416255
 20
17.2391950203307
 30
0.0
 11
-42.42247854339507
 21
15.7662444902945
 31
0.0
  0
LINE
  5
3B4
102
{ACAD_REACTORS
330
4CC
330
4CD
102
}
330
71
100
AcDbEntity
  8
0
  6
Continuous
 62
     2
100
AcDbLine
 10
-41.11994891262867
 20
17.2391950203307
 30
0.0
 11
-39.71722469488145
 21
17.2391950203307
 31
0.0
  0
LINE
  5
3B5
102
{ACAD_REACTORS
330
4CC
330
4CD
102
}
330
71
100
AcDbEntity
  8
0
  6
Continuous
 62
     2
100
AcDbLine
 10
-42.41770737258716
 20
14.1853854965195
 30
0.0
 11
-41.72111643452146
 21
14.97311728181322
 31
0.0
  0
LINE
  5
3B6
102
{ACAD_REACTORS
330
4CC
330
4CD
102
}
330
71
100
AcDbEntity
  8
0
  6
Continuous
 62
     2
100
AcDbLine
 10
-42.41770737258716
 20
14.1853854965195
 30
0.0
 11
-43.82043159033537
 21
14.1853854965195
 31
0.0
  0
LINE
  5
3B7
102
{ACAD_REACTORS
330
4CE
330
4CF
102
}
330
71
100
AcDbEntity
  8
0
  6
Continuous
 62
     2
100
AcDbLine
 10
-43.93971086055225
 20
14.1853854965195
 30
0.0
 11
-45.18021527080515
 21
14.1853854965195
 31
0.0
  0
LINE
  5
3B8
102
{ACAD_REACTORS
330
4D0
330
4D1
102
}
330
71
100
AcDbEntity
  8
0
  6
Continuous
 62
     2
100
AcDbLine
 10
-46.04819487896026
 20
12.04771882986969
 30
0.0
 11
-46.34836011615036
 21
12.8155337958564
 31
0.0
  0
LINE
  5
3B9
102
{ACAD_REACTORS
330
4D0
330
4D1
102
}
330
71
100
AcDbEntity
  8
0
  6
Continuous
 62
     2
100
AcDbLine
 10
-46.64852535334276
 20
12.04771882986969
 30
0.0
 11
-46.04819487896026
 21
12.04771882986969
 31
0.0
  0
LINE
  5
3BA
102
{ACAD_REACTORS
330
4D0
330
4D1
102
}
330
71
100
AcDbEntity
  8
0
  6
Continuous
 62
     2
100
AcDbLine
 10
-48.36656536821656
 20
10.82619502034521
 30
0.0
 11
-47.12606095796357
 21
10.82619502034521
 31
0.0
  0
LINE
  5
3BB
102
{ACAD_REACTORS
330
4D0
330
4D1
102
}
330
71
100
AcDbEntity
  8
0
  6
Continuous
 62
     2
100
AcDbLine
 10
-46.96861232127725
 20
13.88000454415629
 30
0.0
 11
-45.72810791102455
 21
13.88000454415629
 31
0.0
  0
LINE
  5
3BC
102
{ACAD_REACTORS
330
4D0
330
4D1
102
}
330
71
100
AcDbEntity
  8
0
  6
Continuous
 62
     2
100
AcDbLine
 10
-45.72810791102455
 20
13.88000454415629
 30
0.0
 11
-44.33015486408425
 21
10.82619502034521
 31
0.0
  0
LINE
  5
3BD
102
{ACAD_REACTORS
330
4D0
330
4D1
102
}
330
71
100
AcDbEntity
  8
0
  6
Continuous
 62
     2
100
AcDbLine
 10
-45.57065927433817
 20
10.82619502034521
 30
0.0
 11
-45.78213932781395
 21
11.36715556456309
 31
0.0
  0
LINE
  5
3BE
102
{ACAD_REACTORS
330
4D2
330
4D3
102
}
330
71
100
AcDbEntity
  8
0
  6
Continuous
 62
     2
100
AcDbLine
 10
-49.71297846992417
 20
10.82619502034521
 30
0.0
 11
-48.52018576775765
 21
10.82619502034521
 31
0.0
  0
LINE
  5
3BF
102
{ACAD_REACTORS
330
4D2
330
4D3
102
}
330
71
100
AcDbEntity
  8
0
  6
Continuous
 62
     2
100
AcDbLine
 10
-49.71297846992417
 20
13.0947392380327
 30
0.0
 11
-49.71297846992417
 21
10.82619502034521
 31
0.0
  0
LINE
  5
3C0
102
{ACAD_REACTORS
330
4D2
330
4D3
102
}
330
71
100
AcDbEntity
  8
0
  6
Continuous
 62
     2
100
AcDbLine
 10
-50.52407750739877
 20
13.88000454415629
 30
0.0
 11
-50.52407750739877
 21
13.0947392380327
 31
0.0
  0
LINE
  5
3C1
102
{ACAD_REACTORS
330
4D4
330
4D5
102
}
330
71
100
AcDbEntity
  8
0
  6
Continuous
 62
     2
100
AcDbLine
 10
-49.04486362582617
 20
14.1853854965195
 30
0.0
 11
-47.85207092365965
 21
14.1853854965195
 31
0.0
  0
LINE
  5
3C2
102
{ACAD_REACTORS
330
4D4
330
4D5
102
}
330
71
100
AcDbEntity
  8
0
  6
Continuous
 62
     2
100
AcDbLine
 10
-46.61156651340565
 20
15.93041951012552
 30
0.0
 11
-47.85207092365965
 21
17.2391950203307
 31
0.0
  0
LINE
  5
3C3
102
{ACAD_REACTORS
330
4D4
330
4D5
102
}
330
71
100
AcDbEntity
  8
0
  6
Continuous
 62
     2
100
AcDbLine
 10
-45.41877381123905
 20
17.2391950203307
 30
0.0
 11
-46.61156651340565
 21
17.2391950203307
 31
0.0
  0
LINE
  5
3C4
102
{ACAD_REACTORS
330
4D4
330
4D5
102
}
330
71
100
AcDbEntity
  8
0
  6
Continuous
 62
     2
100
AcDbLine
 10
-45.41877381123905
 20
14.1853854965195
 30
0.0
 11
-45.41877381123905
 21
17.2391950203307
 31
0.0
  0
LINE
  5
3C5
102
{ACAD_REACTORS
330
4D4
330
4D5
102
}
330
71
100
AcDbEntity
  8
0
  6
Continuous
 62
     2
100
AcDbLine
 10
-46.61156651340565
 20
14.1853854965195
 30
0.0
 11
-45.41877381123905
 21
14.1853854965195
 31
0.0
  0
LINE
  5
3C6
102
{ACAD_REACTORS
330
4D4
330
4D5
102
}
330
71
100
AcDbEntity
  8
0
  6
Continuous
 62
     2
100
AcDbLine
 10
-47.85207092365965
 20
15.4941610067242
 30
0.0
 11
-46.61156651340565
 21
14.1853854965195
 31
0.0
  0
LINE
  5
3C7
102
{ACAD_REACTORS
330
4D6
330
4D7
102
}
330
71
100
AcDbEntity
  8
0
  6
Continuous
 62
     2
100
AcDbLine
 10
-51.86000533382537
 20
12.5712290339512
 30
0.0
 11
-53.10050974407827
 21
13.88000454415629
 31
0.0
  0
LINE
  5
3C8
102
{ACAD_REACTORS
330
4D6
330
4D7
102
}
330
71
100
AcDbEntity
  8
0
  6
Continuous
 62
     2
100
AcDbLine
 10
-51.86000533382537
 20
13.88000454415629
 30
0.0
 11
-51.86000533382537
 21
12.5712290339512
 31
0.0
  0
LINE
  5
3C9
102
{ACAD_REACTORS
330
4D6
330
4D7
102
}
330
71
100
AcDbEntity
  8
0
  6
Continuous
 62
     2
100
AcDbLine
 10
-50.66721263165897
 20
13.88000454415629
 30
0.0
 11
-51.86000533382537
 21
13.88000454415629
 31
0.0
  0
LINE
  5
3CA
102
{ACAD_REACTORS
330
4D6
330
4D7
102
}
330
71
100
AcDbEntity
  8
0
  6
Continuous
 62
     2
100
AcDbLine
 10
-50.66721263165897
 20
10.82619502034521
 30
0.0
 11
-50.66721263165897
 21
13.88000454415629
 31
0.0
  0
LINE
  5
3CB
102
{ACAD_REACTORS
330
4D6
330
4D7
102
}
330
71
100
AcDbEntity
  8
0
  6
Continuous
 62
     2
100
AcDbLine
 10
-53.10050974407827
 20
12.13497053054979
 30
0.0
 11
-51.86000533382537
 21
10.82619502034521
 31
0.0
  0
LINE
  5
3CC
102
{ACAD_REACTORS
330
4D6
330
4D7
102
}
330
71
100
AcDbEntity
  8
0
  6
Continuous
 62
     2
100
AcDbLine
 10
-53.10050974407827
 20
10.82619502034521
 30
0.0
 11
-53.10050974407827
 21
12.13497053054979
 31
0.0
  0
LINE
  5
3CD
102
{ACAD_REACTORS
330
4C6
330
4C7
102
}
330
71
100
AcDbEntity
  8
0
  6
Continuous
 62
     2
100
AcDbLine
 10
-50.61934999268675
 20
16.54118141488772
 30
0.0
 11
-49.28342216625907
 21
16.54118141488772
 31
0.0
  0
LINE
  5
3CE
102
{ACAD_REACTORS
330
4C6
330
4C7
102
}
330
71
100
AcDbEntity
  8
0
  6
Continuous
 62
     2
100
AcDbLine
 10
-50.61934999268675
 20
14.883399101962
 30
0.0
 11
-50.61934999268675
 21
15.36328345570371
 31
0.0
  0
LINE
  5
3CF
102
{ACAD_REACTORS
330
4C6
330
4C7
102
}
330
71
100
AcDbEntity
  8
0
  6
Continuous
 62
     2
100
AcDbLine
 10
-49.28342216625907
 20
14.883399101962
 30
0.0
 11
-50.61934999268675
 21
14.883399101962
 31
0.0
  0
LINE
  5
3D0
102
{ACAD_REACTORS
330
4C6
330
4C7
102
}
330
71
100
AcDbEntity
  8
0
  6
Continuous
 62
     2
100
AcDbLine
 10
-49.28342216625907
 20
14.1853854965195
 30
0.0
 11
-49.28342216625907
 21
14.883399101962
 31
0.0
  0
LINE
  5
3D1
102
{ACAD_REACTORS
330
4C6
330
4C7
102
}
330
71
100
AcDbEntity
  8
0
  6
Continuous
 62
     2
100
AcDbLine
 10
-52.43374189004007
 20
14.1853854965195
 30
0.0
 11
-49.28342216625907
 21
14.1853854965195
 31
0.0
  0
LINE
  5
3D2
102
{ACAD_REACTORS
330
4C6
330
4C7
102
}
330
71
100
AcDbEntity
  8
0
  6
Continuous
 62
     2
100
AcDbLine
 10
-52.43374189004007
 20
17.2391950203307
 30
0.0
 11
-49.28342216625907
 21
17.2391950203307
 31
0.0
  0
LINE
  5
3D3
102
{ACAD_REACTORS
330
4C6
330
4C7
102
}
330
71
100
AcDbEntity
  8
0
  6
Continuous
 62
     2
100
AcDbLine
 10
-49.28342216625907
 20
16.54118141488772
 30
0.0
 11
-49.28342216625907
 21
17.2391950203307
 31
0.0
  0
LINE
  5
3D4
102
{ACAD_REACTORS
330
4D8
330
4D9
102
}
330
71
100
AcDbEntity
  8
0
  6
Continuous
 62
     2
100
AcDbLine
 10
-55.29509738518007
 20
16.1703616869961
 30
0.0
 11
-55.29509738518007
 21
17.2391950203307
 31
0.0
  0
LINE
  5
3D5
102
{ACAD_REACTORS
330
4D8
330
4D9
102
}
330
71
100
AcDbEntity
  8
0
  6
Continuous
 62
     2
100
AcDbLine
 10
-55.29509738518007
 20
17.2391950203307
 30
0.0
 11
-54.10230468301367
 21
17.2391950203307
 31
0.0
  0
LINE
  5
3D6
102
{ACAD_REACTORS
330
4D8
330
4D9
102
}
330
71
100
AcDbEntity
  8
0
  6
Continuous
 62
     2
100
AcDbLine
 10
-55.29509738518007
 20
15.31965760536332
 30
0.0
 11
-56.34475496308755
 21
15.31965760536332
 31
0.0
  0
LINE
  5
3D7
102
{ACAD_REACTORS
330
4D8
330
4D9
102
}
330
71
100
AcDbEntity
  8
0
  6
Continuous
 62
     2
100
AcDbLine
 10
-56.34475496308755
 20
15.31965760536332
 30
0.0
 11
-56.34475496308755
 21
14.1853854965195
 31
0.0
  0
LINE
  5
3D8
102
{ACAD_REACTORS
330
4D8
330
4D9
102
}
330
71
100
AcDbEntity
  8
0
  6
Continuous
 62
     2
100
AcDbLine
 10
-57.53754766525415
 20
17.2391950203307
 30
0.0
 11
-57.53754766525415
 21
14.1853854965195
 31
0.0
  0
LINE
  5
3D9
102
{ACAD_REACTORS
330
4CA
330
4CB
102
}
330
71
100
AcDbEntity
  8
0
  6
Continuous
 62
     2
100
AcDbLine
 10
-59.49372769680775
 20
15.87036152554839
 30
0.0
 11
-59.49372769680775
 21
16.5760891748906
 31
0.0
  0
LINE
  5
3DA
102
{ACAD_REACTORS
330
4CA
330
4CB
102
}
330
71
100
AcDbEntity
  8
0
  6
Continuous
 62
     2
100
AcDbLine
 10
-60.73423210706187
 20
14.1853854965195
 30
0.0
 11
-59.49372769680775
 21
14.1853854965195
 31
0.0
  0
LINE
  5
3DB
102
{ACAD_REACTORS
330
4CA
330
4CB
102
}
330
71
100
AcDbEntity
  8
0
  6
Continuous
 62
     2
100
AcDbLine
 10
-59.49372769680775
 20
14.1853854965195
 30
0.0
 11
-59.49372769680775
 21
15.12846373766331
 31
0.0
  0
LINE
  5
3DC
102
{ACAD_REACTORS
330
4C4
330
4C5
102
}
330
71
100
AcDbEntity
  8
0
  6
Continuous
 62
     2
100
AcDbLine
 10
-65.03917795627325
 20
11.5387505759021
 30
0.0
 11
-66.51501121728288
 21
11.5387505759021
 31
0.0
  0
LINE
  5
3DD
102
{ACAD_REACTORS
330
4C4
330
4C5
102
}
330
71
100
AcDbEntity
  8
0
  6
Continuous
 62
     2
100
AcDbLine
 10
-67.53315050941217
 20
16.81495040492871
 30
0.0
 11
-67.53315050941217
 21
11.2504396357285
 31
0.0
  0
LINE
  5
3DE
102
{ACAD_REACTORS
330
4C4
330
4C5
102
}
330
71
100
AcDbEntity
  8
0
  6
Continuous
 62
     2
100
AcDbLine
 10
-67.10890589402936
 20
17.23919502031251
 30
0.0
 11
-61.63559380331256
 21
17.23919502031251
 31
0.0
  0
LINE
  5
3DF
102
{ACAD_REACTORS
330
4C4
330
4C5
102
}
330
71
100
AcDbEntity
  8
0
  6
Continuous
 62
     2
100
AcDbLine
 10
-61.21134918792868
 20
16.81495040492871
 30
0.0
 11
-61.21134918792868
 21
11.2504396357285
 31
0.0
  0
LINE
  5
3E0
102
{ACAD_REACTORS
330
4C4
330
4C5
102
}
330
71
100
AcDbEntity
  8
0
  6
Continuous
 62
     2
100
AcDbLine
 10
-61.63559380331256
 20
10.82619502034521
 30
0.0
 11
-67.10890589402936
 21
10.82619502034521
 31
0.0
  0
LINE
  5
3E1
102
{ACAD_REACTORS
330
4C4
330
4C5
102
}
330
71
100
AcDbEntity
  8
0
  6
Continuous
 62
     2
100
AcDbLine
 10
-64.72346103319666
 20
11.85446749897881
 30
0.0
 11
-64.72346103319666
 21
13.38523843051041
 31
0.0
  0
LINE
  5
3E2
102
{ACAD_REACTORS
330
4C4
330
4C5
102
}
330
71
100
AcDbEntity
  8
0
  6
Continuous
 62
     2
100
AcDbLine
 10
-64.72346103319666
 20
15.6068979226354
 30
0.0
 11
-64.72346103319666
 21
16.21092254169591
 31
0.0
  0
LINE
  5
3E3
102
{ACAD_REACTORS
330
4C4
330
4C5
102
}
330
71
100
AcDbEntity
  8
0
  6
Continuous
 62
     2
100
AcDbLine
 10
-66.51501121728288
 20
16.5266394647721
 30
0.0
 11
-65.03917795627325
 21
16.5266394647721
 31
0.0
  0
LINE
  5
3E4
102
{ACAD_REACTORS
330
4C4
330
4C5
102
}
330
71
100
AcDbEntity
  8
0
  6
Continuous
 62
     2
100
AcDbLine
 10
-66.83072814035856
 20
16.21092254169591
 30
0.0
 11
-66.83072814035856
 21
11.85446749897881
 31
0.0
  0
LINE
  5
3E5
102
{ACAD_REACTORS
330
4CA
330
4CB
102
}
330
71
100
AcDbEntity
  8
0
  6
Continuous
 62
     2
100
AcDbLine
 10
-59.49372769680775
 20
15.12846373766331
 30
0.0
 11
-58.73496010902747
 21
15.12846373766331
 31
0.0
  0
LINE
  5
3E6
102
{ACAD_REACTORS
330
4CA
330
4CB
102
}
330
71
100
AcDbEntity
  8
0
  6
Continuous
 62
     2
100
AcDbLine
 10
-60.73423210706187
 20
17.2391950203307
 30
0.0
 11
-58.73496010902747
 21
17.2391950203307
 31
0.0
  0
LINE
  5
3E7
102
{ACAD_REACTORS
330
4CA
330
4CB
102
}
330
71
100
AcDbEntity
  8
0
  6
Continuous
 62
     2
100
AcDbLine
 10
-60.73423210706187
 20
17.2391950203307
 30
0.0
 11
-60.73423210706187
 21
14.1853854965195
 31
0.0
  0
LINE
  5
3E8
102
{ACAD_REACTORS
330
4CA
330
4CB
102
}
330
71
100
AcDbEntity
  8
0
  6
Continuous
 62
     2
100
AcDbLine
 10
-59.49372769680775
 20
15.87036152554839
 30
0.0
 11
-59.17643263526585
 21
15.87036152554839
 31
0.0
  0
LINE
  5
3E9
102
{ACAD_REACTORS
330
4CA
330
4CB
102
}
330
71
100
AcDbEntity
  8
0
  6
Continuous
 62
     2
100
AcDbLine
 10
-59.49372769680775
 20
16.5760891748906
 30
0.0
 11
-59.17643263526585
 21
16.5760891748906
 31
0.0
  0
LINE
  5
3EA
102
{ACAD_REACTORS
330
4D8
330
4D9
102
}
330
71
100
AcDbEntity
  8
0
  6
Continuous
 62
     2
100
AcDbLine
 10
-56.34475496308755
 20
16.1703616869961
 30
0.0
 11
-55.29509738518007
 21
16.1703616869961
 31
0.0
  0
LINE
  5
3EB
102
{ACAD_REACTORS
330
4D8
330
4D9
102
}
330
71
100
AcDbEntity
  8
0
  6
Continuous
 62
     2
100
AcDbLine
 10
-56.34475496308755
 20
17.2391950203307
 30
0.0
 11
-56.34475496308755
 21
16.1703616869961
 31
0.0
  0
LINE
  5
3EC
102
{ACAD_REACTORS
330
4D8
330
4D9
102
}
330
71
100
AcDbEntity
  8
0
  6
Continuous
 62
     2
100
AcDbLine
 10
-57.53754766525415
 20
17.2391950203307
 30
0.0
 11
-56.34475496308755
 21
17.2391950203307
 31
0.0
  0
LINE
  5
3ED
102
{ACAD_REACTORS
330
4D8
330
4D9
102
}
330
71
100
AcDbEntity
  8
0
  6
Continuous
 62
     2
100
AcDbLine
 10
-56.34475496308755
 20
14.1853854965195
 30
0.0
 11
-57.53754766525415
 21
14.1853854965195
 31
0.0
  0
LINE
  5
3EE
102
{ACAD_REACTORS
330
4D8
330
4D9
102
}
330
71
100
AcDbEntity
  8
0
  6
Continuous
 62
     2
100
AcDbLine
 10
-55.29509738518007
 20
14.1853854965195
 30
0.0
 11
-55.29509738518007
 21
15.31965760536332
 31
0.0
  0
LINE
  5
3EF
102
{ACAD_REACTORS
330
4D8
330
4D9
102
}
330
71
100
AcDbEntity
  8
0
  6
Continuous
 62
     2
100
AcDbLine
 10
-54.10230468301367
 20
14.1853854965195
 30
0.0
 11
-55.29509738518007
 21
14.1853854965195
 31
0.0
  0
LINE
  5
3F0
102
{ACAD_REACTORS
330
4D8
330
4D9
102
}
330
71
100
AcDbEntity
  8
0
  6
Continuous
 62
     2
100
AcDbLine
 10
-54.10230468301367
 20
17.2391950203307
 30
0.0
 11
-54.10230468301367
 21
14.1853854965195
 31
0.0
  0
LINE
  5
3F1
102
{ACAD_REACTORS
330
4C6
330
4C7
102
}
330
71
100
AcDbEntity
  8
0
  6
Continuous
 62
     2
100
AcDbLine
 10
-50.61934999268675
 20
15.36328345570371
 30
0.0
 11
-49.28342216625907
 21
15.36328345570371
 31
0.0
  0
LINE
  5
3F2
102
{ACAD_REACTORS
330
4C6
330
4C7
102
}
330
71
100
AcDbEntity
  8
0
  6
Continuous
 62
     2
100
AcDbLine
 10
-49.28342216625907
 20
15.36328345570371
 30
0.0
 11
-49.28342216625907
 21
16.06129706114601
 31
0.0
  0
LINE
  5
3F3
102
{ACAD_REACTORS
330
4C6
330
4C7
102
}
330
71
100
AcDbEntity
  8
0
  6
Continuous
 62
     2
100
AcDbLine
 10
-49.28342216625907
 20
16.06129706114601
 30
0.0
 11
-50.61934999268675
 21
16.06129706114601
 31
0.0
  0
LINE
  5
3F4
102
{ACAD_REACTORS
330
4C6
330
4C7
102
}
330
71
100
AcDbEntity
  8
0
  6
Continuous
 62
     2
100
AcDbLine
 10
-50.61934999268675
 20
16.06129706114601
 30
0.0
 11
-50.61934999268675
 21
16.54118141488772
 31
0.0
  0
LINE
  5
3F5
102
{ACAD_REACTORS
330
4D6
330
4D7
102
}
330
71
100
AcDbEntity
  8
0
  6
Continuous
 62
     2
100
AcDbLine
 10
-54.29330244624586
 20
10.82619502034521
 30
0.0
 11
-53.10050974407827
 21
10.82619502034521
 31
0.0
  0
LINE
  5
3F6
102
{ACAD_REACTORS
330
4D6
330
4D7
102
}
330
71
100
AcDbEntity
  8
0
  6
Continuous
 62
     2
100
AcDbLine
 10
-51.86000533382537
 20
10.82619502034521
 30
0.0
 11
-50.66721263165897
 21
10.82619502034521
 31
0.0
  0
LINE
  5
3F7
102
{ACAD_REACTORS
330
4D6
330
4D7
102
}
330
71
100
AcDbEntity
  8
0
  6
Continuous
 62
     2
100
AcDbLine
 10
-53.10050974407827
 20
13.88000454415629
 30
0.0
 11
-54.29330244624586
 21
13.88000454415629
 31
0.0
  0
LINE
  5
3F8
102
{ACAD_REACTORS
330
4D6
330
4D7
102
}
330
71
100
AcDbEntity
  8
0
  6
Continuous
 62
     2
100
AcDbLine
 10
-54.29330244624586
 20
13.88000454415629
 30
0.0
 11
-54.29330244624586
 21
10.82619502034521
 31
0.0
  0
LINE
  5
3F9
102
{ACAD_REACTORS
330
4D4
330
4D5
102
}
330
71
100
AcDbEntity
  8
0
  6
Continuous
 62
     2
100
AcDbLine
 10
-46.61156651340565
 20
17.2391950203307
 30
0.0
 11
-46.61156651340565
 21
15.93041951012552
 31
0.0
  0
LINE
  5
3FA
102
{ACAD_REACTORS
330
4D4
330
4D5
102
}
330
71
100
AcDbEntity
  8
0
  6
Continuous
 62
     2
100
AcDbLine
 10
-47.85207092365965
 20
17.2391950203307
 30
0.0
 11
-49.04486362582617
 21
17.2391950203307
 31
0.0
  0
LINE
  5
3FB
102
{ACAD_REACTORS
330
4D4
330
4D5
102
}
330
71
100
AcDbEntity
  8
0
  6
Continuous
 62
     2
100
AcDbLine
 10
-49.04486362582617
 20
17.2391950203307
 30
0.0
 11
-49.04486362582617
 21
14.1853854965195
 31
0.0
  0
LINE
  5
3FC
102
{ACAD_REACTORS
330
4D4
330
4D5
102
}
330
71
100
AcDbEntity
  8
0
  6
Continuous
 62
     2
100
AcDbLine
 10
-47.85207092365965
 20
14.1853854965195
 30
0.0
 11
-47.85207092365965
 21
15.4941610067242
 31
0.0
  0
LINE
  5
3FD
102
{ACAD_REACTORS
330
4D2
330
4D3
102
}
330
71
100
AcDbEntity
  8
0
  6
Continuous
 62
     2
100
AcDbLine
 10
-48.52018576775765
 20
10.82619502034521
 30
0.0
 11
-48.52018576775765
 21
13.0947392380327
 31
0.0
  0
LINE
  5
3FE
102
{ACAD_REACTORS
330
4D2
330
4D3
102
}
330
71
100
AcDbEntity
  8
0
  6
Continuous
 62
     2
100
AcDbLine
 10
-48.52018576775765
 20
13.0947392380327
 30
0.0
 11
-47.70908673028515
 21
13.0947392380327
 31
0.0
  0
LINE
  5
3FF
102
{ACAD_REACTORS
330
4D2
330
4D3
102
}
330
71
100
AcDbEntity
  8
0
  6
Continuous
 62
     2
100
AcDbLine
 10
-47.70908673028515
 20
13.0947392380327
 30
0.0
 11
-47.70908673028515
 21
13.88000454415629
 31
0.0
  0
LINE
  5
400
102
{ACAD_REACTORS
330
4D2
330
4D3
102
}
330
71
100
AcDbEntity
  8
0
  6
Continuous
 62
     2
100
AcDbLine
 10
-47.70908673028515
 20
13.88000454415629
 30
0.0
 11
-50.52407750739877
 21
13.88000454415629
 31
0.0
  0
LINE
  5
401
102
{ACAD_REACTORS
330
4D2
330
4D3
102
}
330
71
100
AcDbEntity
  8
0
  6
Continuous
 62
     2
100
AcDbLine
 10
-50.52407750739877
 20
13.0947392380327
 30
0.0
 11
-49.71297846992417
 21
13.0947392380327
 31
0.0
  0
LINE
  5
402
102
{ACAD_REACTORS
330
4D0
330
4D1
102
}
330
71
100
AcDbEntity
  8
0
  6
Continuous
 62
     2
100
AcDbLine
 10
-46.91458090448776
 20
11.36715556456309
 30
0.0
 11
-45.78213932781395
 21
11.36715556456309
 31
0.0
  0
LINE
  5
403
102
{ACAD_REACTORS
330
4D0
330
4D1
102
}
330
71
100
AcDbEntity
  8
0
  6
Continuous
 62
     2
100
AcDbLine
 10
-44.33015486408425
 20
10.82619502034521
 30
0.0
 11
-45.57065927433817
 21
10.82619502034521
 31
0.0
  0
LINE
  5
404
102
{ACAD_REACTORS
330
4D0
330
4D1
102
}
330
71
100
AcDbEntity
  8
0
  6
Continuous
 62
     2
100
AcDbLine
 10
-46.96861232127725
 20
13.88000454415629
 30
0.0
 11
-48.36656536821656
 21
10.82619502034521
 31
0.0
  0
LINE
  5
405
102
{ACAD_REACTORS
330
4D0
330
4D1
102
}
330
71
100
AcDbEntity
  8
0
  6
Continuous
 62
     2
100
AcDbLine
 10
-47.12606095796357
 20
10.82619502034521
 30
0.0
 11
-46.91458090448776
 21
11.36715556456309
 31
0.0
  0
LINE
  5
406
102
{ACAD_REACTORS
330
4D0
330
4D1
102
}
330
71
100
AcDbEntity
  8
0
  6
Continuous
 62
     2
100
AcDbLine
 10
-46.64852535334276
 20
12.04771882986969
 30
0.0
 11
-46.34836011615036
 21
12.8155337958564
 31
0.0
  0
LINE
  5
407
102
{ACAD_REACTORS
330
4CE
330
4CF
102
}
330
71
100
AcDbEntity
  8
0
  6
Continuous
 62
     2
100
AcDbLine
 10
-45.18021527080515
 20
14.1853854965195
 30
0.0
 11
-45.18021527080515
 21
17.2391950203307
 31
0.0
  0
LINE
  5
408
102
{ACAD_REACTORS
330
4CE
330
4CF
102
}
330
71
100
AcDbEntity
  8
0
  6
Continuous
 62
     2
100
AcDbLine
 10
-43.93971086055225
 20
17.2391950203307
 30
0.0
 11
-43.93971086055225
 21
14.1853854965195
 31
0.0
  0
LINE
  5
409
102
{ACAD_REACTORS
330
4CE
330
4CF
102
}
330
71
100
AcDbEntity
  8
0
  6
Continuous
 62
     2
100
AcDbLine
 10
-45.18021527080515
 20
17.2391950203307
 30
0.0
 11
-43.93971086055225
 21
17.2391950203307
 31
0.0
  0
LINE
  5
40A
102
{ACAD_REACTORS
330
4CC
330
4CD
102
}
330
71
100
AcDbEntity
  8
0
  6
Continuous
 62
     2
100
AcDbLine
 10
-41.72111643452146
 20
14.97311728181322
 30
0.0
 11
-41.02452549645597
 21
14.1853854965195
 31
0.0
  0
LINE
  5
40B
102
{ACAD_REACTORS
330
4CC
330
4CD
102
}
330
71
100
AcDbEntity
  8
0
  6
Continuous
 62
     2
100
AcDbLine
 10
-41.02452549645597
 20
14.1853854965195
 30
0.0
 11
-39.62180127870767
 21
14.1853854965195
 31
0.0
  0
LINE
  5
40C
102
{ACAD_REACTORS
330
4CC
330
4CD
102
}
330
71
100
AcDbEntity
  8
0
  6
Continuous
 62
     2
100
AcDbLine
 10
-41.01975432564797
 20
15.7662444902945
 30
0.0
 11
-39.62180127870767
 21
14.1853854965195
 31
0.0
  0
LINE
  5
40D
102
{ACAD_REACTORS
330
4CC
330
4CD
102
}
330
71
100
AcDbEntity
  8
0
  6
Continuous
 62
     2
100
AcDbLine
 10
-41.01975432564797
 20
15.7662444902945
 30
0.0
 11
-39.71722469488145
 21
17.2391950203307
 31
0.0
  0
LINE
  5
40E
102
{ACAD_REACTORS
330
4CC
330
4CD
102
}
330
71
100
AcDbEntity
  8
0
  6
Continuous
 62
     2
100
AcDbLine
 10
-41.72111643452146
 20
16.55937169877521
 30
0.0
 11
-41.11994891262867
 21
17.2391950203307
 31
0.0
  0
LINE
  5
40F
102
{ACAD_REACTORS
330
4CC
330
4CD
102
}
330
71
100
AcDbEntity
  8
0
  6
Continuous
 62
     2
100
AcDbLine
 10
-42.32228395641326
 20
17.2391950203307
 30
0.0
 11
-41.72111643452146
 21
16.55937169877521
 31
0.0
  0
LINE
  5
410
102
{ACAD_REACTORS
330
4CC
330
4CD
102
}
330
71
100
AcDbEntity
  8
0
  6
Continuous
 62
     2
100
AcDbLine
 10
-42.32228395641326
 20
17.2391950203307
 30
0.0
 11
-43.72500817416255
 21
17.2391950203307
 31
0.0
  0
LINE
  5
411
102
{ACAD_REACTORS
330
4C2
330
4C3
102
}
330
71
100
AcDbEntity
  8
0
  6
Continuous
 62
     2
100
AcDbLine
 10
-41.62569301834876
 20
10.82619502034521
 30
0.0
 11
-40.43290031618105
 21
10.82619502034521
 31
0.0
  0
LINE
  5
412
102
{ACAD_REACTORS
330
4C2
330
4C3
102
}
330
71
100
AcDbEntity
  8
0
  6
Continuous
 62
     2
100
AcDbLine
 10
-40.43290031618105
 20
10.82619502034521
 30
0.0
 11
-40.43290031618105
 21
13.0947392380327
 31
0.0
  0
LINE
  5
413
102
{ACAD_REACTORS
330
4C2
330
4C3
102
}
330
71
100
AcDbEntity
  8
0
  6
Continuous
 62
     2
100
AcDbLine
 10
-40.43290031618105
 20
13.0947392380327
 30
0.0
 11
-39.62180127870767
 21
13.0947392380327
 31
0.0
  0
LINE
  5
414
102
{ACAD_REACTORS
330
4C2
330
4C3
102
}
330
71
100
AcDbEntity
  8
0
  6
Continuous
 62
     2
100
AcDbLine
 10
-39.62180127870767
 20
13.0947392380327
 30
0.0
 11
-39.62180127870767
 21
13.88000454415629
 31
0.0
  0
LINE
  5
415
102
{ACAD_REACTORS
330
4C2
330
4C3
102
}
330
71
100
AcDbEntity
  8
0
  6
Continuous
 62
     2
100
AcDbLine
 10
-43.00674679733635
 20
13.88000454415581
 30
0.0
 11
-39.62180127870767
 21
13.88000454415629
 31
0.0
  0
LINE
  5
416
102
{ACAD_REACTORS
330
4C2
330
4C3
102
}
330
71
100
AcDbEntity
  8
0
  6
Continuous
 62
     2
100
AcDbLine
 10
-41.62569301834876
 20
13.0947392380327
 30
0.0
 11
-41.62569301834876
 21
10.82619502034521
 31
0.0
  0
LINE
  5
417
102
{ACAD_REACTORS
330
4C4
330
4C5
102
}
330
71
100
AcDbEntity
  8
0
  6
Continuous
 62
     2
100
AcDbLine
 10
-64.25517945382796
 20
12.80507516990971
 30
0.0
 11
-64.25517945382796
 21
13.38692657660479
 31
0.0
  0
LINE
  5
418
102
{ACAD_REACTORS
330
4C4
330
4C5
102
}
330
71
100
AcDbEntity
  8
0
  6
Continuous
 62
     2
100
AcDbLine
 10
-64.25517945382796
 20
15.60520977654102
 30
0.0
 11
-64.25517945382796
 21
16.2107450650478
 31
0.0
  0
LINE
  5
419
330
71
100
AcDbEntity
  8
1
  6
Continuous
 62
     6
100
AcDbLine
 10
-85.72500086922474
 20
3.5326950203289
 30
0.0
 11
-71.76980539597477
 21
3.53269502032879
 31
0.0
  0
LINE
  5
41A
330
71
100
AcDbEntity
  8
1
  6
Continuous
 62
     6
100
AcDbLine
 10
-135.725000869225
 20
3.5326950203289
 30
0.0
 11
-140.7698053959747
 21
3.5326950203289
 31
0.0
  0
LINE
  5
41B
330
71
100
AcDbEntity
  8
1
  6
Continuous
 62
     6
100
AcDbLine
 10
14.27499913077523
 20
3.5326950203289
 30
0.0
 11
57.77499913077524
 21
3.5326950203289
 31
0.0
  0
LINE
  5
41C
330
71
100
AcDbEntity
  8
1
  6
Continuous
 62
     6
100
AcDbLine
 10
-35.72500086922477
 20
3.5326950203289
 30
0.0
 11
-53.56980539597475
 21
3.5326950203289
 31
0.0
  0
LINE
  5
41D
330
71
100
AcDbEntity
  8
1
  6
Continuous
 62
     2
100
AcDbLine
 10
57.77499913077524
 20
3.5326950203289
 30
0.0
 11
62.77499913077423
 21
3.5326950203289
 31
0.0
  0
LINE
  5
41E
330
71
100
AcDbEntity
  8
1
  6
Continuous
 62
     2
100
AcDbLine
 10
57.77499913077524
 20
3.5326950203289
 30
0.0
 11
57.77499913077524
 21
-1.46730497967121
 31
0.0
  0
LINE
  5
41F
330
71
100
AcDbEntity
  8
1
  6
Continuous
 62
     6
100
AcDbLine
 10
-71.76980539597477
 20
20.5326950203289
 30
0.0
 11
-35.36980539597485
 21
20.5326950203289
 31
0.0
  0
LINE
  5
420
330
71
100
AcDbEntity
  8
1
  6
Continuous
 62
     2
100
AcDbLine
 10
62.77499913077423
 20
-1.46730497967121
 30
0.0
 11
62.77499913077423
 21
3.5326950203289
 31
0.0
  0
LINE
  5
421
330
71
100
AcDbEntity
  8
1
  6
Continuous
 62
     2
100
AcDbLine
 10
62.77499913077423
 20
-1.46730497967121
 30
0.0
 11
57.77499913077524
 21
-1.46730497967121
 31
0.0
  0
LINE
  5
422
330
71
100
AcDbEntity
  8
1
  6
Continuous
 62
     2
100
AcDbLine
 10
57.77499913077524
 20
-1.46730497967121
 30
0.0
 11
14.27499913077523
 21
-1.46730497967121
 31
0.0
  0
LINE
  5
423
330
71
100
AcDbEntity
  8
1
  6
Continuous
 62
     6
100
AcDbLine
 10
57.77499913077693
 20
20.5326950203289
 30
0.0
 11
57.77499913077614
 21
53.53269502032902
 31
0.0
  0
LINE
  5
424
330
71
100
AcDbEntity
  8
1
  6
Continuous
 62
     2
100
AcDbLine
 10
62.77499913077423
 20
208.5326950203289
 30
0.0
 11
-85.72500086922474
 21
208.5326950203289
 31
0.0
  0
LINE
  5
425
330
71
100
AcDbEntity
  8
1
  6
Continuous
 62
     6
100
AcDbLine
 10
57.77499913077423
 20
188.5326950203289
 30
0.0
 11
-229.2250008692238
 21
188.5326950203289
 31
0.0
  0
LINE
  5
426
330
71
100
AcDbEntity
  8
1
  6
Continuous
 62
     2
100
AcDbLine
 10
57.77499913077614
 20
53.53269502032902
 30
0.0
 11
62.77499913077423
 21
53.53269502032902
 31
0.0
  0
LINE
  5
427
330
71
100
AcDbEntity
  8
1
  6
Continuous
 62
     6
100
AcDbLine
 10
57.77499913077614
 20
53.53269502032902
 30
0.0
 11
57.77499913077564
 21
103.5326950203288
 31
0.0
  0
LINE
  5
428
330
71
100
AcDbEntity
  8
1
  6
Continuous
 62
     2
100
AcDbLine
 10
62.77499913077423
 20
53.53269502032902
 30
0.0
 11
62.77499913077423
 21
103.5326950203288
 31
0.0
  0
LINE
  5
429
330
71
100
AcDbEntity
  8
1
  6
Continuous
 62
     2
100
AcDbLine
 10
57.77499913077564
 20
103.5326950203288
 30
0.0
 11
62.77499913077423
 21
103.5326950203288
 31
0.0
  0
LINE
  5
42A
330
71
100
AcDbEntity
  8
1
  6
Continuous
 62
     6
100
AcDbLine
 10
57.77499913077564
 20
103.5326950203288
 30
0.0
 11
57.77499913077443
 21
153.5326950203289
 31
0.0
  0
LINE
  5
42B
330
71
100
AcDbEntity
  8
1
  6
Continuous
 62
     2
100
AcDbLine
 10
62.77499913077423
 20
103.5326950203288
 30
0.0
 11
62.77499913077423
 21
153.5326950203289
 31
0.0
  0
LINE
  5
42C
330
71
100
AcDbEntity
  8
1
  6
Continuous
 62
     2
100
AcDbLine
 10
57.77499913077443
 20
153.5326950203289
 30
0.0
 11
62.77499913077423
 21
153.5326950203289
 31
0.0
  0
LINE
  5
42D
330
71
100
AcDbEntity
  8
1
  6
Continuous
 62
     6
100
AcDbLine
 10
57.77499913077443
 20
153.5326950203289
 30
0.0
 11
57.77499913077423
 21
188.5326950203289
 31
0.0
  0
LINE
  5
42E
330
71
100
AcDbEntity
  8
1
  6
Continuous
 62
     2
100
AcDbLine
 10
62.77499913077423
 20
153.5326950203289
 30
0.0
 11
62.77499913077423
 21
208.5326950203289
 31
0.0
  0
LINE
  5
42F
330
71
100
AcDbEntity
  8
1
  6
Continuous
 62
     2
100
AcDbLine
 10
62.77499913077423
 20
3.5326950203289
 30
0.0
 11
62.77499913077423
 21
53.53269502032902
 31
0.0
  0
LINE
  5
430
330
71
100
AcDbEntity
  8
1
  6
Continuous
 62
     2
100
AcDbLine
 10
-85.72500086922474
 20
208.5326950203289
 30
0.0
 11
-234.2250008692238
 21
208.5326950203289
 31
0.0
  0
LINE
  5
431
330
71
100
AcDbEntity
  8
1
  6
Continuous
 62
     2
100
AcDbLine
 10
-85.72500086922474
 20
208.5326950203289
 30
0.0
 11
-85.72500086922474
 21
199.3240031756276
 31
0.0
  0
LINE
  5
432
330
71
100
AcDbEntity
  8
1
  6
Continuous
 62
     2
100
AcDbLine
 10
-234.2250008692238
 20
-1.46730497967121
 30
0.0
 11
-229.2250008692229
 21
-1.46730497967121
 31
0.0
  0
LINE
  5
433
330
71
100
AcDbEntity
  8
1
  6
Continuous
 62
     2
100
AcDbLine
 10
-234.2250008692238
 20
208.5326950203289
 30
0.0
 11
-234.2250008692238
 21
153.5326950203289
 31
0.0
  0
LINE
  5
434
330
71
100
AcDbEntity
  8
1
  6
Continuous
 62
     6
100
AcDbLine
 10
-229.2250008692238
 20
188.5326950203289
 30
0.0
 11
-229.2250008692238
 21
153.5326950203289
 31
0.0
  0
LINE
  5
435
330
71
100
AcDbEntity
  8
1
  6
Continuous
 62
     2
100
AcDbLine
 10
-234.2250008692238
 20
153.5326950203289
 30
0.0
 11
-229.2250008692238
 21
153.5326950203289
 31
0.0
  0
LINE
  5
436
330
71
100
AcDbEntity
  8
1
  6
Continuous
 62
     2
100
AcDbLine
 10
-234.2250008692238
 20
153.5326950203289
 30
0.0
 11
-234.2250008692238
 21
103.5326950203288
 31
0.0
  0
LINE
  5
437
330
71
100
AcDbEntity
  8
1
  6
Continuous
 62
     6
100
AcDbLine
 10
-229.2250008692238
 20
153.5326950203289
 30
0.0
 11
-229.2250008692233
 21
103.5326950203288
 31
0.0
  0
LINE
  5
438
330
71
100
AcDbEntity
  8
1
  6
Continuous
 62
     2
100
AcDbLine
 10
-234.2250008692238
 20
103.5326950203288
 30
0.0
 11
-229.2250008692233
 21
103.5326950203288
 31
0.0
  0
LINE
  5
439
330
71
100
AcDbEntity
  8
1
  6
Continuous
 62
     2
100
AcDbLine
 10
-234.2250008692238
 20
103.5326950203288
 30
0.0
 11
-234.2250008692238
 21
53.53269502032902
 31
0.0
  0
LINE
  5
43A
330
71
100
AcDbEntity
  8
1
  6
Continuous
 62
     6
100
AcDbLine
 10
-229.2250008692233
 20
103.5326950203288
 30
0.0
 11
-229.225000869223
 21
53.53269502032902
 31
0.0
  0
LINE
  5
43B
330
71
100
AcDbEntity
  8
1
  6
Continuous
 62
     2
100
AcDbLine
 10
-234.2250008692238
 20
53.53269502032902
 30
0.0
 11
-229.225000869223
 21
53.53269502032902
 31
0.0
  0
LINE
  5
43C
330
71
100
AcDbEntity
  8
1
  6
Continuous
 62
     2
100
AcDbLine
 10
-234.2250008692238
 20
53.53269502032902
 30
0.0
 11
-234.2250008692238
 21
3.5326950203289
 31
0.0
  0
LINE
  5
43D
330
71
100
AcDbEntity
  8
1
  6
Continuous
 62
     6
100
AcDbLine
 10
-229.225000869223
 20
53.53269502032902
 30
0.0
 11
-229.2250008692229
 21
3.5326950203289
 31
0.0
  0
LINE
  5
43E
330
71
100
AcDbEntity
  8
1
  6
Continuous
 62
     2
100
AcDbLine
 10
-185.7250008692247
 20
-1.46730497967121
 30
0.0
 11
-185.7250008692247
 21
3.5326950203289
 31
0.0
  0
LINE
  5
43F
330
71
100
AcDbEntity
  8
1
  6
Continuous
 62
     2
100
AcDbLine
 10
-185.7250008692247
 20
-1.46730497967121
 30
0.0
 11
-135.725000869225
 21
-1.46730497967121
 31
0.0
  0
LINE
  5
440
330
71
100
AcDbEntity
  8
1
  6
Continuous
 62
     2
100
AcDbLine
 10
-135.725000869225
 20
-1.46730497967121
 30
0.0
 11
-135.725000869225
 21
3.5326950203289
 31
0.0
  0
LINE
  5
441
330
71
100
AcDbEntity
  8
1
  6
Continuous
 62
     2
100
AcDbLine
 10
-135.725000869225
 20
-1.46730497967121
 30
0.0
 11
-85.72500086922474
 21
-1.46730497967121
 31
0.0
  0
LINE
  5
442
330
71
100
AcDbEntity
  8
1
  6
Continuous
 62
     2
100
AcDbLine
 10
-85.72500086922474
 20
-1.46730497967121
 30
0.0
 11
-85.72500086922474
 21
3.5326950203289
 31
0.0
  0
LINE
  5
443
330
71
100
AcDbEntity
  8
1
  6
Continuous
 62
     2
100
AcDbLine
 10
-85.72500086922474
 20
-1.46730497967121
 30
0.0
 11
-35.72500086922477
 21
-1.46730497967121
 31
0.0
  0
LINE
  5
444
330
71
100
AcDbEntity
  8
1
  6
Continuous
 62
     2
100
AcDbLine
 10
-35.72500086922477
 20
-1.46730497967121
 30
0.0
 11
-35.72500086922477
 21
3.5326950203289
 31
0.0
  0
LINE
  5
445
330
71
100
AcDbEntity
  8
1
  6
Continuous
 62
     2
100
AcDbLine
 10
14.27499913077523
 20
-1.46730497967121
 30
0.0
 11
14.27499913077523
 21
3.5326950203289
 31
0.0
  0
LINE
  5
446
330
71
100
AcDbEntity
  8
1
  6
Continuous
 62
     2
100
AcDbLine
 10
14.27499913077523
 20
-1.46730497967121
 30
0.0
 11
-35.72500086922477
 21
-1.46730497967121
 31
0.0
  0
LINE
  5
447
330
71
100
AcDbEntity
  8
1
  6
Continuous
 62
     2
100
AcDbLine
 10
-229.2250008692229
 20
3.5326950203289
 30
0.0
 11
-229.2250008692229
 21
-1.46730497967121
 31
0.0
  0
LINE
  5
448
330
71
100
AcDbEntity
  8
1
  6
Continuous
 62
     2
100
AcDbLine
 10
-229.2250008692229
 20
-1.46730497967121
 30
0.0
 11
-185.7250008692247
 21
-1.46730497967121
 31
0.0
  0
LINE
  5
449
330
71
100
AcDbEntity
  8
1
  6
Continuous
 62
     2
100
AcDbLine
 10
-229.2250008692229
 20
3.5326950203289
 30
0.0
 11
-234.2250008692238
 21
3.5326950203289
 31
0.0
  0
LINE
  5
44A
330
71
100
AcDbEntity
  8
1
  6
Continuous
 62
     2
100
AcDbLine
 10
-234.2250008692238
 20
3.5326950203289
 30
0.0
 11
-234.2250008692238
 21
-1.46730497967121
 31
0.0
  0
LINE
  5
44B
330
71
100
AcDbEntity
  8
1
  6
Continuous
 62
     6
100
AcDbLine
 10
57.77499913077524
 20
3.5326950203289
 30
0.0
 11
57.77499913077654
 21
12.0326950203289
 31
0.0
  0
LINE
  5
44C
330
71
100
AcDbEntity
  8
1
  6
Continuous
 62
     6
100
AcDbLine
 10
-35.36980539597485
 20
3.53269502032879
 30
0.0
 11
14.27499913077523
 21
3.5326950203289
 31
0.0
  0
LINE
  5
44D
330
71
100
AcDbEntity
  8
1
  6
Continuous
 62
     6
100
AcDbLine
 10
-188.025000869225
 20
3.53269502032879
 30
0.0
 11
-185.7250008692247
 21
3.5326950203289
 31
0.0
  0
LINE
  5
44E
330
71
100
AcDbEntity
  8
1
  6
Continuous
 62
     6
100
AcDbLine
 10
-85.72500086922474
 20
3.5326950203289
 30
0.0
 11
-135.725000869225
 21
3.5326950203289
 31
0.0
  0
LINE
  5
44F
330
71
100
AcDbEntity
  8
1
  6
Continuous
 62
     7
100
AcDbLine
 10
-71.76980539597477
 20
20.5326950203289
 30
0.0
 11
-71.76980539597477
 21
7.78269502032879
 31
0.0
  0
LINE
  5
450
330
71
100
AcDbEntity
  8
1
  6
Continuous
 62
     7
100
AcDbLine
 10
-35.36980539597485
 20
20.5326950203289
 30
0.0
 11
-35.36980539597485
 21
7.7826950203289
 31
0.0
  0
LINE
  5
451
330
71
100
AcDbEntity
  8
1
  6
Continuous
 62
     6
100
AcDbLine
 10
-188.025000869225
 20
3.53269502032879
 30
0.0
 11
-194.225000869223
 21
3.5326950203289
 31
0.0
  0
LINE
  5
452
330
71
100
AcDbEntity
  8
1
  6
Continuous
 62
     6
100
AcDbLine
 10
-35.36980539597485
 20
3.53269502032879
 30
0.0
 11
-35.72500086922477
 21
3.5326950203289
 31
0.0
  0
LINE
  5
453
330
71
100
AcDbEntity
  8
1
  6
Continuous
 62
     6
100
AcDbLine
 10
57.77499913077693
 20
20.5326950203289
 30
0.0
 11
57.77499913077654
 21
12.0326950203289
 31
0.0
  0
LINE
  5
454
330
71
100
AcDbEntity
  8
1
  6
Continuous
 62
     6
100
AcDbLine
 10
-194.225000869223
 20
3.5326950203289
 30
0.0
 11
-229.2250008692229
 21
3.5326950203289
 31
0.0
  0
LINE
  5
455
330
71
100
AcDbEntity
  8
1
  6
Continuous
 62
     2
100
AcDbLine
 10
-67.53315050941217
 20
25.90769502032882
 30
0.0
 11
-62.53315050941217
 21
27.15769502032882
 31
0.0
  0
LINE
  5
456
330
71
100
AcDbEntity
  8
1
  6
Continuous
 62
     2
100
AcDbLine
 10
-67.53315050941217
 20
23.40769502032882
 30
0.0
 11
-67.53315050941217
 21
25.90769502032882
 31
0.0
  0
LINE
  5
457
330
71
100
AcDbEntity
  8
1
  6
Continuous
 62
     2
100
AcDbLine
 10
-62.53315050941217
 20
22.15769502032882
 30
0.0
 11
-67.53315050941217
 21
23.40769502032882
 31
0.0
  0
LINE
  5
458
330
71
100
AcDbEntity
  8
1
  6
Continuous
 62
     2
100
AcDbLine
 10
-62.53315050941217
 20
27.15769502032882
 30
0.0
 11
-62.53315050941217
 21
22.15769502032882
 31
0.0
  0
LINE
  5
459
330
71
100
AcDbEntity
  8
1
  6
Continuous
 62
     7
100
AcDbLine
 10
-71.76980539597477
 20
7.78269502032879
 30
0.0
 11
-53.56980539597475
 21
7.7826950203289
 31
0.0
  0
LINE
  5
45A
330
71
100
AcDbEntity
  8
1
  6
Continuous
 62
     7
100
AcDbLine
 10
-71.76980539597477
 20
7.78269502032879
 30
0.0
 11
-71.76980539597477
 21
3.53269502032879
 31
0.0
  0
LINE
  5
45B
330
71
100
AcDbEntity
  8
1
  6
Continuous
 62
     7
100
AcDbLine
 10
-35.36980539597485
 20
7.7826950203289
 30
0.0
 11
-35.36980539597485
 21
3.53269502032879
 31
0.0
  0
LINE
  5
45C
330
71
100
AcDbEntity
  8
1
  6
Continuous
 62
     7
100
AcDbLine
 10
-53.56980539597475
 20
7.7826950203289
 30
0.0
 11
-53.56980539597475
 21
3.5326950203289
 31
0.0
  0
LINE
  5
45D
330
71
100
AcDbEntity
  8
1
  6
Continuous
 62
     6
100
AcDbLine
 10
-53.56980539597475
 20
3.5326950203289
 30
0.0
 11
-71.76980539597477
 21
3.53269502032879
 31
0.0
  0
LINE
  5
45E
330
71
100
AcDbEntity
  8
1
  6
Continuous
 62
     7
100
AcDbLine
 10
-53.56980539597475
 20
7.7826950203289
 30
0.0
 11
-35.36980539597485
 21
7.7826950203289
 31
0.0
  0
LINE
  5
45F
330
71
100
AcDbEntity
  8
1
  6
Continuous
 62
     6
100
AcDbLine
 10
-71.76980539597477
 20
29.0326950203289
 30
0.0
 11
57.77499913077693
 21
29.0326950203289
 31
0.0
  0
ARC
  5
460
102
{ACAD_REACTORS
330
4C8
330
4C9
102
}
330
71
100
AcDbEntity
  8
0
  6
Continuous
 62
     2
100
AcDbCircle
 10
-56.37815739701478
 20
12.3530997822505
 30
0.0
 40
0.7717997786796947
100
AcDbArc
 50
321.8795802028417
 51
38.12041979715308
  0
ARC
  5
461
102
{ACAD_REACTORS
330
4C8
330
4C9
102
}
330
71
100
AcDbEntity
  8
0
  6
Continuous
 62
     2
100
AcDbCircle
 10
-56.17841736066836
 20
12.1963686041305
 30
0.0
 40
0.5179085730137287
100
AcDbArc
 50
218.1204197971935
 51
321.8795802028007
  0
ARC
  5
462
102
{ACAD_REACTORS
330
4C8
330
4C9
102
}
330
71
100
AcDbEntity
  8
0
  6
Continuous
 62
     2
100
AcDbCircle
 10
-55.97867732432226
 20
12.3530997822505
 30
0.0
 40
0.7717997786794555
100
AcDbArc
 50
141.8795802028362
 51
218.120419797169
  0
ARC
  5
463
102
{ACAD_REACTORS
330
4C8
330
4C9
102
}
330
71
100
AcDbEntity
  8
0
  6
Continuous
 62
     2
100
AcDbCircle
 10
-56.17841736066836
 20
12.50983096037101
 30
0.0
 40
0.517908573013291
100
AcDbArc
 50
38.12041979714706
 51
141.8795802028588
  0
ARC
  5
464
102
{ACAD_REACTORS
330
4C0
330
4C1
102
}
330
71
100
AcDbEntity
  8
0
  6
Continuous
 62
     2
100
AcDbCircle
 10
-59.24043149623225
 20
10.94263341684231
 30
0.0
 40
2.227384008973482
100
AcDbArc
 50
58.0690910500408
 51
71.55192388186705
  0
ARC
  5
465
102
{ACAD_REACTORS
330
4C0
330
4C1
102
}
330
71
100
AcDbEntity
  8
0
  6
Continuous
 62
     2
100
AcDbCircle
 10
-58.97870379527348
 20
12.5581712115895
 30
0.0
 40
0.5115800601948669
100
AcDbArc
 50
113.3722778881988
 51
151.4785267423041
  0
ARC
  5
466
102
{ACAD_REACTORS
330
4C0
330
4C1
102
}
330
71
100
AcDbEntity
  8
0
  6
Continuous
 62
     2
100
AcDbCircle
 10
-58.60134653719317
 20
12.3530997822505
 30
0.0
 40
0.9410597353332483
100
AcDbArc
 50
151.4785267422667
 51
208.521473257706
  0
ARC
  5
467
102
{ACAD_REACTORS
330
4C0
330
4C1
102
}
330
71
100
AcDbEntity
  8
0
  6
Continuous
 62
     2
100
AcDbCircle
 10
-59.39830437132517
 20
15.6657807275069
 30
0.0
 40
4.852596863498136
100
AcDbArc
 50
275.1581447696248
 51
285.9799912583529
  0
ARC
  5
468
102
{ACAD_REACTORS
330
4C0
330
4C1
102
}
330
71
100
AcDbEntity
  8
0
  6
Continuous
 62
     2
100
AcDbCircle
 10
-59.10944827658926
 20
12.46589014428531
 30
0.0
 40
1.639695123939387
100
AcDbArc
 50
195.0618917770895
 51
275.1581447696393
  0
ARC
  5
469
102
{ACAD_REACTORS
330
4C0
330
4C1
102
}
330
71
100
AcDbEntity
  8
0
  6
Continuous
 62
     2
100
AcDbCircle
 10
-59.52857612005207
 20
12.3530997822505
 30
0.0
 40
1.205656168390937
100
AcDbArc
 50
164.9381082228765
 51
195.061891777095
  0
ARC
  5
46A
102
{ACAD_REACTORS
330
4C0
330
4C1
102
}
330
71
100
AcDbEntity
  8
0
  6
Continuous
 62
     2
100
AcDbCircle
 10
-59.10944827658926
 20
12.2403094202156
 30
0.0
 40
1.639695123940504
100
AcDbArc
 50
84.8418552303626
 51
164.9381082228866
  0
ARC
  5
46B
102
{ACAD_REACTORS
330
4C4
330
4C5
102
}
330
71
100
AcDbEntity
  8
0
  6
Continuous
 62
     2
100
AcDbCircle
 10
-63.93946253075117
 20
13.38692657660479
 30
0.0
 40
0.3157169230765344
100
AcDbArc
 50
115.3740086783517
 51
180.0
  0
ARC
  5
46C
102
{ACAD_REACTORS
330
4C4
330
4C5
102
}
330
71
100
AcDbEntity
  8
0
  6
Continuous
 62
     2
100
AcDbCircle
 10
-63.93946253075117
 20
15.60520977654102
 30
0.0
 40
0.315716923076792
100
AcDbArc
 50
180.0
 51
244.6259913216483
  0
ARC
  5
46D
102
{ACAD_REACTORS
330
4C4
330
4C5
102
}
330
71
100
AcDbEntity
  8
0
  6
Continuous
 62
     2
100
AcDbCircle
 10
-63.93384639544115
 20
14.5079101174787
 30
0.0
 40
2.018561131933266
100
AcDbArc
 50
269.8110329575858
 51
90.18896704241416
  0
ARC
  5
46E
102
{ACAD_REACTORS
330
4C4
330
4C5
102
}
330
71
100
AcDbEntity
  8
0
  6
Continuous
 62
     2
100
AcDbCircle
 10
-63.93946253075117
 20
12.80507516990971
 30
0.0
 40
0.315716923076792
100
AcDbArc
 50
180.0
 51
269.8110329574542
  0
ARC
  5
46F
102
{ACAD_REACTORS
330
4C2
330
4C3
102
}
330
71
100
AcDbEntity
  8
0
  6
Continuous
 62
     2
100
AcDbCircle
 10
-42.87600231602056
 20
12.5581712115895
 30
0.0
 40
0.5115800601944109
100
AcDbArc
 50
109.3371432194854
 51
151.4785267424226
  0
ARC
  5
470
102
{ACAD_REACTORS
330
4C2
330
4C3
102
}
330
71
100
AcDbEntity
  8
0
  6
Continuous
 62
     2
100
AcDbCircle
 10
-42.87600231602056
 20
12.14802835291201
 30
0.0
 40
0.5115800601960215
100
AcDbArc
 50
208.5214732576866
 51
246.6277221118459
  0
ARC
  5
471
102
{ACAD_REACTORS
330
4C2
330
4C3
102
}
330
71
100
AcDbEntity
  8
0
  6
Continuous
 62
     2
100
AcDbCircle
 10
-43.42587464079796
 20
12.3530997822505
 30
0.0
 40
1.205656168393002
100
AcDbArc
 50
164.9381082229029
 51
195.0618917770962
  0
ARC
  5
472
102
{ACAD_REACTORS
330
4C2
330
4C3
102
}
330
71
100
AcDbEntity
  8
0
  6
Continuous
 62
     2
100
AcDbCircle
 10
-43.00674679733635
 20
12.2403094202156
 30
0.0
 40
1.639695123940209
100
AcDbArc
 50
90.0
 51
164.9381082228951
  0
ARC
  5
473
102
{ACAD_REACTORS
330
4C6
330
4C7
102
}
330
71
100
AcDbEntity
  8
0
  6
Continuous
 62
     2
100
AcDbCircle
 10
-52.43374189004007
 20
15.71229025842482
 30
0.0
 40
1.526904761905881
100
AcDbArc
 50
90.0
 51
270.0
  0
ARC
  5
474
102
{ACAD_REACTORS
330
4CA
330
4CB
102
}
330
71
100
AcDbEntity
  8
0
  6
Continuous
 62
     2
100
AcDbCircle
 10
-59.17643263526585
 20
16.22322535021951
 30
0.0
 40
0.3528638246711218
100
AcDbArc
 50
270.0
 51
90.0
  0
ARC
  5
475
102
{ACAD_REACTORS
330
4C4
330
4C5
102
}
330
71
100
AcDbEntity
  8
0
  6
Continuous
 62
     2
100
AcDbCircle
 10
-66.51501121728288
 20
16.21092254169591
 30
0.0
 40
0.315716923076188
100
AcDbArc
 50
90.0
 51
180.0
  0
ARC
  5
476
102
{ACAD_REACTORS
330
4C4
330
4C5
102
}
330
71
100
AcDbEntity
  8
0
  6
Continuous
 62
     2
100
AcDbCircle
 10
-64.51659350869826
 20
14.4960681765732
 30
0.0
 40
0.9118975235576194
100
AcDbArc
 50
115.1944106485281
 51
244.8055893514877
  0
ARC
  5
477
102
{ACAD_REACTORS
330
4C4
330
4C5
102
}
330
71
100
AcDbEntity
  8
0
  6
Continuous
 62
     2
100
AcDbCircle
 10
-65.03917795627325
 20
13.38523843051041
 30
0.0
 40
0.315716923076593
100
AcDbArc
 50
0.0
 51
64.80558935146027
  0
ARC
  5
478
102
{ACAD_REACTORS
330
4C4
330
4C5
102
}
330
71
100
AcDbEntity
  8
0
  6
Continuous
 62
     2
100
AcDbCircle
 10
-67.10890589402936
 20
11.2504396357285
 30
0.0
 40
0.4242446153828041
100
AcDbArc
 50
180.0
 51
270.0
  0
ARC
  5
479
102
{ACAD_REACTORS
330
4C6
330
4C7
102
}
330
71
100
AcDbEntity
  8
0
  6
Continuous
 62
     2
100
AcDbCircle
 10
-52.21746987987487
 20
15.8690214365453
 30
0.0
 40
0.5179085730135343
100
AcDbArc
 50
38.12041979714316
 51
141.8795802028486
  0
ARC
  5
47A
102
{ACAD_REACTORS
330
4C6
330
4C7
102
}
330
71
100
AcDbEntity
  8
0
  6
Continuous
 62
     2
100
AcDbCircle
 10
-52.01772984352857
 20
15.71229025842482
 30
0.0
 40
0.7717997786796735
100
AcDbArc
 50
141.8795802028403
 51
218.1204197971566
  0
ARC
  5
47B
102
{ACAD_REACTORS
330
4C8
330
4C9
102
}
330
71
100
AcDbEntity
  8
0
  6
Continuous
 62
     2
100
AcDbCircle
 10
-56.17841736066836
 20
12.8916747925538
 30
0.0
 40
2.065479772208505
100
AcDbArc
 50
242.4518518243401
 51
297.5481481756871
  0
ARC
  5
47C
102
{ACAD_REACTORS
330
4C8
330
4C9
102
}
330
71
100
AcDbEntity
  8
0
  6
Continuous
 62
     2
100
AcDbCircle
 10
-56.17841736066836
 20
11.8145247719477
 30
0.0
 40
2.065479772208576
100
AcDbArc
 50
62.45185182430648
 51
117.5481481756663
  0
ARC
  5
47D
102
{ACAD_REACTORS
330
4C8
330
4C9
102
}
330
71
100
AcDbEntity
  8
0
  6
Continuous
 62
     2
100
AcDbCircle
 10
-56.45935725250166
 20
12.3530997822505
 30
0.0
 40
1.458034083651492
100
AcDbArc
 50
117.5481481756624
 51
242.4518518243375
  0
ARC
  5
47E
102
{ACAD_REACTORS
330
4C8
330
4C9
102
}
330
71
100
AcDbEntity
  8
0
  6
Continuous
 62
     2
100
AcDbCircle
 10
-55.89747746883506
 20
12.3530997822505
 30
0.0
 40
1.458034083652003
100
AcDbArc
 50
297.548148175701
 51
62.45185182429898
  0
ARC
  5
47F
102
{ACAD_REACTORS
330
4C6
330
4C7
102
}
330
71
100
AcDbEntity
  8
0
  6
Continuous
 62
     2
100
AcDbCircle
 10
-52.21746987987487
 20
15.55555908030439
 30
0.0
 40
0.5179085730134372
100
AcDbArc
 50
218.1204197971511
 51
321.8795802028571
  0
ARC
  5
480
102
{ACAD_REACTORS
330
4C6
330
4C7
102
}
330
71
100
AcDbEntity
  8
0
  6
Continuous
 62
     2
100
AcDbCircle
 10
-52.41720991622105
 20
15.71229025842482
 30
0.0
 40
0.7717997786796417
100
AcDbArc
 50
321.8795802028433
 51
38.12041979715967
  0
ARC
  5
481
102
{ACAD_REACTORS
330
4C4
330
4C5
102
}
330
71
100
AcDbEntity
  8
0
  6
Continuous
 62
     2
100
AcDbCircle
 10
-61.63559380331256
 20
11.2504396357285
 30
0.0
 40
0.4242446153832891
100
AcDbArc
 50
270.0
 51
0.0
  0
ARC
  5
482
102
{ACAD_REACTORS
330
4C4
330
4C5
102
}
330
71
100
AcDbEntity
  8
0
  6
Continuous
 62
     2
100
AcDbCircle
 10
-61.63559380331256
 20
16.81495040492871
 30
0.0
 40
0.424244615383877
100
AcDbArc
 50
0.0
 51
90.0
  0
ARC
  5
483
102
{ACAD_REACTORS
330
4C4
330
4C5
102
}
330
71
100
AcDbEntity
  8
0
  6
Continuous
 62
     2
100
AcDbCircle
 10
-67.10890589402936
 20
16.81495040492871
 30
0.0
 40
0.4242446153838024
100
AcDbArc
 50
90.0
 51
180.0
  0
ARC
  5
484
102
{ACAD_REACTORS
330
4C4
330
4C5
102
}
330
71
100
AcDbEntity
  8
0
  6
Continuous
 62
     2
100
AcDbCircle
 10
-65.03917795627325
 20
11.85446749897881
 30
0.0
 40
0.3157169230767103
100
AcDbArc
 50
270.0
 51
0.0
  0
ARC
  5
485
102
{ACAD_REACTORS
330
4C4
330
4C5
102
}
330
71
100
AcDbEntity
  8
0
  6
Continuous
 62
     2
100
AcDbCircle
 10
-65.03917795627325
 20
15.6068979226354
 30
0.0
 40
0.3157169230761203
100
AcDbArc
 50
295.1944106485397
 51
0.0
  0
ARC
  5
486
102
{ACAD_REACTORS
330
4C4
330
4C5
102
}
330
71
100
AcDbEntity
  8
0
  6
Continuous
 62
     2
100
AcDbCircle
 10
-65.03917795627325
 20
16.21092254169591
 30
0.0
 40
0.315716923076593
100
AcDbArc
 50
0.0
 51
90.0
  0
ARC
  5
487
102
{ACAD_REACTORS
330
4C4
330
4C5
102
}
330
71
100
AcDbEntity
  8
0
  6
Continuous
 62
     2
100
AcDbCircle
 10
-66.51501121728288
 20
11.85446749897881
 30
0.0
 40
0.3157169230756836
100
AcDbArc
 50
180.0
 51
270.0
  0
ARC
  5
488
102
{ACAD_REACTORS
330
4CA
330
4CB
102
}
330
71
100
AcDbEntity
  8
0
  6
Continuous
 62
     2
100
AcDbCircle
 10
-58.73496010902747
 20
16.18382937899702
 30
0.0
 40
1.055365641333712
100
AcDbArc
 50
270.0
 51
90.0
  0
ARC
  5
489
102
{ACAD_REACTORS
330
4C2
330
4C3
102
}
330
71
100
AcDbEntity
  8
0
  6
Continuous
 62
     2
100
AcDbCircle
 10
-43.00674679733635
 20
12.46589014428531
 30
0.0
 40
1.639695123940449
100
AcDbArc
 50
195.0618917771013
 51
275.1581447696762
  0
ARC
  5
48A
102
{ACAD_REACTORS
330
4C2
330
4C3
102
}
330
71
100
AcDbEntity
  8
0
  6
Continuous
 62
     2
100
AcDbCircle
 10
-43.29560289207217
 20
15.6657807275069
 30
0.0
 40
4.852596863498825
100
AcDbArc
 50
275.1581447696364
 51
285.9799912583387
  0
ARC
  5
48B
102
{ACAD_REACTORS
330
4C2
330
4C3
102
}
330
71
100
AcDbEntity
  8
0
  6
Continuous
 62
     2
100
AcDbCircle
 10
-43.13773001697936
 20
13.76356614765859
 30
0.0
 40
2.227384008972746
100
AcDbArc
 50
288.4480761181335
 51
301.9309089499397
  0
ARC
  5
48C
102
{ACAD_REACTORS
330
4C2
330
4C3
102
}
330
71
100
AcDbEntity
  8
0
  6
Continuous
 62
     2
100
AcDbCircle
 10
-42.71956228331746
 20
12.51002037162201
 30
0.0
 40
0.9059297849852838
100
AcDbArc
 50
246.6277221118188
 51
288.4480761180816
  0
ARC
  5
48D
102
{ACAD_REACTORS
330
4C2
330
4C3
102
}
330
71
100
AcDbEntity
  8
0
  6
Continuous
 62
     2
100
AcDbCircle
 10
-42.49864505793917
 20
12.3530997822505
 30
0.0
 40
0.9410597353348915
100
AcDbArc
 50
151.4785267423625
 51
208.5214732576695
  0
ARC
  5
48E
102
{ACAD_REACTORS
330
4C2
330
4C3
102
}
330
71
100
AcDbEntity
  8
0
  6
Continuous
 62
     2
100
AcDbCircle
 10
-42.72933231791686
 20
12.14021623120661
 30
0.0
 40
0.9545230068260899
100
AcDbArc
 50
90.0
 51
109.337143219432
  0
ARC
  5
48F
102
{ACAD_REACTORS
330
4C4
330
4C5
102
}
330
71
100
AcDbEntity
  8
0
  6
Continuous
 62
     2
100
AcDbCircle
 10
-63.93946253075117
 20
16.2107450650478
 30
0.0
 40
0.3157169230760746
100
AcDbArc
 50
90.18896704254594
 51
180.0
  0
ARC
  5
490
102
{ACAD_REACTORS
330
4C4
330
4C5
102
}
330
71
100
AcDbEntity
  8
0
  6
Continuous
 62
     2
100
AcDbCircle
 10
-64.46550522883905
 20
14.4960681765732
 30
0.0
 40
0.9118481501444573
100
AcDbArc
 50
295.3740086781765
 51
64.62599132180762
  0
ARC
  5
491
102
{ACAD_REACTORS
330
4C0
330
4C1
102
}
330
71
100
AcDbEntity
  8
0
  6
Continuous
 62
     2
100
AcDbCircle
 10
-59.24043149623225
 20
13.76356614765919
 30
0.0
 40
2.227384008972741
100
AcDbArc
 50
288.4480761181329
 51
301.9309089499593
  0
ARC
  5
492
102
{ACAD_REACTORS
330
4C0
330
4C1
102
}
330
71
100
AcDbEntity
  8
0
  6
Continuous
 62
     2
100
AcDbCircle
 10
-58.82226376257145
 20
12.51002037162201
 30
0.0
 40
0.9059297849849257
100
AcDbArc
 50
246.6277221118712
 51
288.4480761181587
  0
ARC
  5
493
102
{ACAD_REACTORS
330
4C0
330
4C1
102
}
330
71
100
AcDbEntity
  8
0
  6
Continuous
 62
     2
100
AcDbCircle
 10
-58.97870379527348
 20
12.14802835291201
 30
0.0
 40
0.5115800601947981
100
AcDbArc
 50
208.5214732576961
 51
246.6277221118283
  0
ARC
  5
494
102
{ACAD_REACTORS
330
4C0
330
4C1
102
}
330
71
100
AcDbEntity
  8
0
  6
Continuous
 62
     2
100
AcDbCircle
 10
-58.82226376257145
 20
12.1961791928789
 30
0.0
 40
0.9059297849853251
100
AcDbArc
 50
71.55192388185306
 51
113.372277888129
  0
ARC
  5
495
102
{ACAD_REACTORS
330
4C0
330
4C1
102
}
330
71
100
AcDbEntity
  8
0
  6
Continuous
 62
     2
100
AcDbCircle
 10
-59.39830437132517
 20
9.0404188369946
 30
0.0
 40
4.85259686349807
100
AcDbArc
 50
74.02000874164739
 51
84.84185523037515
  0
CIRCLE
  5
496
102
{ACAD_REACTORS
330
4C4
330
4C5
102
}
330
71
100
AcDbEntity
  8
0
  6
Continuous
 62
     2
100
AcDbCircle
 10
-64.48932024351186
 20
14.4960681765732
 30
0.0
 40
0.4709789327785074
  0
CIRCLE
  5
497
330
71
100
AcDbEntity
  8
1
  6
Continuous
 62
     2
100
AcDbCircle
 10
-59.03315050941217
 20
24.65769502032882
 30
0.0
 40
1.249999999999915
  0
CIRCLE
  5
498
330
71
100
AcDbEntity
  8
1
  6
Continuous
 62
     2
100
AcDbCircle
 10
-59.03315050941217
 20
24.65769502032882
 30
0.0
 40
2.5
  0
TEXT
  5
499
330
71
100
AcDbEntity
  8
1
 62
     7
100
AcDbText
 10
-16.39625767396097
 20
21.8326950203288
 30
0.0
 40
2.5
  1
/
 41
0.9
  7
CONVERTER_11
100
AcDbText
  0
TEXT
  5
49B
330
71
100
AcDbEntity
  8
1
 62
     7
100
AcDbText
 10
-14.23989317691897
 20
21.8326950203288
 30
0.0
 40
2.5
  1
03
 41
0.81
  7
CONVERTER_12
100
AcDbText
  0
TEXT
  5
49C
330
71
100
AcDbEntity
  8
1
 62
     3
100
AcDbText
 10
23.35659084909813
 20
21.8326950203288
 30
0.0
 40
2.5
  1
11.10.2018
 41
0.81
  7
CONVERTER_12
100
AcDbText
  0
MTEXT
  5
49D
330
71
100
AcDbEntity
  8
1
 62
     2
100
AcDbMText
 10
23.35659084909813
 20
28.03269502032882
 30
0.0
 40
1.8
 41
0.0
 71
     1
 72
     1
  1
date
  7
CONVERTER_11
 73
     1
 44
1.32052821128451
  0
MTEXT
  5
49E
330
71
100
AcDbEntity
  8
1
 62
     2
100
AcDbMText
 10
-6.46980539597476
 20
19.53269502032882
 30
0.0
 40
1.8
 41
0.0
 71
     1
 72
     1
  1
document-type
  7
CONVERTER_11
 73
     1
 44
1.20048019207683
  0
TEXT
  5
49F
330
71
100
AcDbEntity
  8
1
 62
     3
100
AcDbText
 10
-6.46980539597476
 20
13.3326950203288
 30
0.0
 40
2.5
  1
 
 41
0.81
  7
CONVERTER_12
100
AcDbText
  0
MTEXT
  5
4A1
330
71
100
AcDbEntity
  8
1
 62
     2
100
AcDbMText
 10
-34.26980539597477
 20
28.0326950203289
 30
0.0
 40
1.8
 41
0.0
 71
     1
 72
     1
  1
document-No. / RI
  7
CONVERTER_13
 73
     1
 44
1.32052821128451
  0
TEXT
  5
4A2
330
71
100
AcDbEntity
  8
1
 62
     7
100
AcDbText
 10
-34.26980539597477
 20
21.8326950203288
 30
0.0
 40
2.5
  1
00421985
 41
0.81
  7
CONVERTER_12
100
AcDbText
  0
MTEXT
  5
4A4
330
71
100
AcDbEntity
  8
1
 62
     3
100
AcDbMText
 10
53.31579498993754
 20
21.832695020329
 30
0.0
 40
2.5
 41
0.0
 71
     8
 72
     1
  1
1:1
  7
CONVERTER_14
 73
     1
 44
1.32052821128451
  0
MTEXT
  5
4A5
330
71
100
AcDbEntity
  8
1
 62
     2
100
AcDbMText
 10
49.95659084909795
 20
28.0326950203289
 30
0.0
 40
1.8
 41
0.0
 71
     1
 72
     1
  1
scale
  7
CONVERTER_11
 73
     1
 44
1.20048019207683
  0
MTEXT
  5
4A6
330
71
100
AcDbEntity
  8
1
 62
     2
100
AcDbMText
 10
-34.26980539597477
 20
19.5326950203289
 30
0.0
 40
1.8
 41
0.0
 71
     1
 72
     1
  1
ident.-No.
  7
CONVERTER_11
 73
     1
 44
1.20048019207683
  0
TEXT
  5
4A7
330
71
100
AcDbEntity
  8
1
 62
     7
100
AcDbText
 10
-33.86980539597505
 20
13.3326950203288
 30
0.0
 40
2.5
  1
0800886
 41
0.81
  7
CONVERTER_12
100
AcDbText
  0
MTEXT
  5
4A8
330
71
100
AcDbEntity
  8
1
 62
     2
100
AcDbMText
 10
-106.2078201210223
 20
16.28269502032882
 30
0.0
 40
2.0
 41
0.0
 71
     5
 72
     1
  1
General Information\P- Simplified representation\P- Document excluded from change process\P- Linear dimensions [mm]
  7
CONVERTER_11
 73
     1
 44
1.20048019207683
  0
MTEXT
  5
4A9
330
71
100
AcDbEntity
  8
1
 62
     7
100
AcDbMText
 10
60.27499913077423
 20
78.5326950203308
 30
0.0
 40
3.5
 41
0.0
 71
     5
 72
     1
  1
C
  7
CONVERTER_11
 73
     1
 44
1.20048019207683
  0
MTEXT
  5
4AA
330
71
100
AcDbEntity
  8
1
 62
     7
100
AcDbMText
 10
60.27499913077423
 20
181.0326950203289
 30
0.0
 40
3.5
 41
0.0
 71
     5
 72
     1
  1
A
  7
CONVERTER_11
 73
     1
 44
1.20048019207683
  0
MTEXT
  5
4AB
330
71
100
AcDbEntity
  8
1
 62
     7
100
AcDbMText
 10
60.27499913077423
 20
128.5326950203308
 30
0.0
 40
3.5
 41
0.0
 71
     5
 72
     1
  1
B
  7
CONVERTER_11
 73
     1
 44
1.20048019207683
  0
MTEXT
  5
4AC
330
71
100
AcDbEntity
  8
1
 62
     7
100
AcDbMText
 10
60.27499913077423
 20
26.0326950203289
 30
0.0
 40
3.5
 41
0.0
 71
     5
 72
     1
  1
D
  7
CONVERTER_11
 73
     1
 44
1.20048019207683
  0
MTEXT
  5
4AD
330
71
100
AcDbEntity
  8
1
 62
     7
100
AcDbMText
 10
-209.9750008692244
 20
1.03269502032879
 30
0.0
 40
3.5
 41
0.0
 71
     5
 72
     1
  1
1
  7
CONVERTER_11
 73
     1
 44
1.20048019207683
  0
MTEXT
  5
4AE
330
71
100
AcDbEntity
  8
1
 62
     7
100
AcDbMText
 10
-160.7250008692247
 20
1.03269502032879
 30
0.0
 40
3.5
 41
0.0
 71
     5
 72
     1
  1
2
  7
CONVERTER_11
 73
     1
 44
1.20048019207683
  0
MTEXT
  5
4AF
330
71
100
AcDbEntity
  8
1
 62
     7
100
AcDbMText
 10
-110.7250008692247
 20
1.03269502032879
 30
0.0
 40
3.5
 41
0.0
 71
     5
 72
     1
  1
3
  7
CONVERTER_11
 73
     1
 44
1.20048019207683
  0
MTEXT
  5
4B0
330
71
100
AcDbEntity
  8
1
 62
     7
100
AcDbMText
 10
-60.72500086922486
 20
1.03269502032879
 30
0.0
 40
3.5
 41
0.0
 71
     5
 72
     1
  1
4
  7
CONVERTER_11
 73
     1
 44
1.20048019207683
  0
MTEXT
  5
4B1
330
71
100
AcDbEntity
  8
1
 62
     7
100
AcDbMText
 10
-10.72500086922477
 20
1.03269502032879
 30
0.0
 40
3.5
 41
0.0
 71
     5
 72
     1
  1
5
  7
CONVERTER_11
 73
     1
 44
1.20048019207683
  0
MTEXT
  5
4B2
330
71
100
AcDbEntity
  8
1
 62
     7
100
AcDbMText
 10
38.52499913077443
 20
1.03269502032879
 30
0.0
 40
3.5
 41
0.0
 71
     5
 72
     1
  1
6
  7
CONVERTER_11
 73
     1
 44
1.20048019207683
  0
MTEXT
  5
4B3
330
71
100
AcDbEntity
  8
1
 62
     7
100
AcDbMText
 10
-231.7250008692238
 20
181.0326950203289
 30
0.0
 40
3.5
 41
0.0
 71
     5
 72
     1
  1
A
  7
CONVERTER_11
 73
     1
 44
1.20048019207683
  0
MTEXT
  5
4B4
330
71
100
AcDbEntity
  8
1
 62
     7
100
AcDbMText
 10
-231.7250008692238
 20
128.5326950203289
 30
0.0
 40
3.5
 41
0.0
 71
     5
 72
     1
  1
B
  7
CONVERTER_11
 73
     1
 44
1.20048019207683
  0
MTEXT
  5
4B5
330
71
100
AcDbEntity
  8
1
 62
     7
100
AcDbMText
 10
-231.7250008692238
 20
78.5326950203289
 30
0.0
 40
3.5
 41
0.0
 71
     5
 72
     1
  1
C
  7
CONVERTER_11
 73
     1
 44
1.20048019207683
  0
MTEXT
  5
4B6
330
71
100
AcDbEntity
  8
1
 62
     7
100
AcDbMText
 10
-231.7250008692238
 20
26.0326950203289
 30
0.0
 40
3.5
 41
0.0
 71
     5
 72
     1
  1
D
  7
CONVERTER_11
 73
     1
 44
1.20048019207683
  0
MTEXT
  5
4B7
330
71
100
AcDbEntity
  8
1
 62
     3
100
AcDbMText
 10
-45.56980539597487
 20
24.6576950203289
 30
0.0
 40
2.5
 41
0.0
 71
     5
 72
     1
  1
DIN A4
  7
CONVERTER_11
 73
     1
 44
1.20048019207683
  0
MTEXT
  5
4B8
330
71
100
AcDbEntity
  8
1
 62
     2
100
AcDbMText
 10
-34.36980539597485
 20
11.0326950203289
 30
0.0
 40
1.8
 41
0.0
 71
     1
 72
     1
  1
description
  7
CONVERTER_11
 73
     1
 44
1.20048019207683
  0
MTEXT
  5
4B9
330
71
100
AcDbEntity
  8
1
 62
     7
100
AcDbMText
 10
11.20259686740073
 20
6.78269502032913
 30
0.0
 40
3.0
 41
0.0
 71
     5
 72
     1
  1
E/NS 35 N
  7
CONVERTER_12
 73
     1
 44
1.20048019207683
  0
TEXT
  5
4BA
330
71
100
AcDbEntity
  8
1
 62
     2
100
AcDbText
 10
-47.33449658616127
 20
4.78269502032879
 30
0.0
 40
1.8
  1
1
 41
0.9
  7
CONVERTER_11
100
AcDbText
  0
TEXT
  5
4BB
330
71
100
AcDbEntity
  8
1
 62
     2
100
AcDbText
 10
-62.12354042563277
 20
4.73344636652689
 30
0.0
 40
1.8
  1
1
 41
0.9
  7
CONVERTER_11
100
AcDbText
  0
TEXT
  5
4BC
330
71
100
AcDbEntity
  8
1
 62
     2
100
AcDbText
 10
-70.76980539597477
 20
4.77367780533723
 30
0.0
 40
1.8
  1
page
 41
0.9
  7
CONVERTER_11
100
AcDbText
  0
TEXT
  5
4BD
330
71
100
AcDbEntity
  8
1
 62
     2
100
AcDbText
 10
-52.56980539597495
 20
4.77367780533729
 30
0.0
 40
1.8
  1
of
 41
0.9
  7
CONVERTER_11
100
AcDbText
  0
MTEXT
  5
4BE
330
71
100
AcDbEntity
  8
1
 62
     3
100
AcDbMText
 10
-46.36682324436487
 20
190.3240031756277
 30
0.0
 40
1.8
 41
0.0
 71
     7
 72
     1
  3
Transfer or duplication of this document as well as the utilisation or\Pcommunication of its content are not permitted unless express consent\Pis granted. Violations give rise to claims for damages. All rights reserved\Pin case of patent, utility mo
  1
del or design patent registrations.
  7
CONVERTER_11
 73
     1
 44
0.99639855942377
  0
MTEXT
  5
4BF
330
71
100
AcDbEntity
  8
1
 62
     3
100
AcDbMText
 10
-229.219933083153
 20
190.3240031756277
 30
0.0
 40
1.8
 41
0.0
 71
     7
 72
     1
  3
Weitergabe sowie Vervielf\U+00e4ltigung dieses Dokuments, Verwertung und \PMitteilung seines Inhalts sind verboten, soweit nicht ausdr\U+00fccklich gestattet. \PZuwiderhandlungen verpflichten zu Schadenersatz. Alle Rechte f\U+00fcr den Fall\Pder Pat
  1
ent-, Gebrauchsmuster- oder Designeintragung vorbehalten.
  7
CONVERTER_11
 73
     1
 44
0.99639855942377
  0
HATCH
  5
4C0
330
71
100
AcDbEntity
  8
1
  6
Continuous
 62
     2
100
AcDbHatch
 10
0.0
 20
0.0
 30
0.0
210
0.0
220
0.0
230
1.0
  2
_USER
 70
     0
 71
     1
 91
        1
 92
        1
 93
       14
 72
     2
 10
-59.52857612005207
 20
12.3530997822505
 40
1.205656168390937
 50
164.9381082228765
 51
195.061891777095
 73
     1
 72
     2
 10
-59.10944827658926
 20
12.46589014428531
 40
1.639695123939387
 50
195.0618917770895
 51
275.1581447696393
 73
     1
 72
     2
 10
-59.39830437132517
 20
15.6657807275069
 40
4.852596863498136
 50
275.1581447696248
 51
285.9799912583529
 73
     1
 72
     1
 10
-58.06237645420737
 20
11.00069842170609
 11
-58.06237645420737
 21
11.8732154285093
 72
     2
 10
-59.24043149623225
 20
13.76356614765919
 40
2.227384008972741
 50
58.0690910500407
 51
71.55192388186708
 73
     0
 72
     2
 10
-58.82226376257145
 20
12.51002037162201
 40
0.9059297849849257
 50
71.55192388184128
 51
113.3722778881288
 73
     0
 72
     2
 10
-58.97870379527348
 20
12.14802835291201
 40
0.5115800601947981
 50
113.3722778881717
 51
151.4785267423039
 73
     0
 72
     2
 10
-58.60134653719317
 20
12.3530997822505
 40
0.9410597353332483
 50
151.478526742294
 51
208.5214732577333
 73
     0
 72
     2
 10
-58.97870379527348
 20
12.5581712115895
 40
0.5115800601948669
 50
208.5214732576959
 51
246.6277221118012
 73
     0
 72
     2
 10
-58.82226376257145
 20
12.1961791928789
 40
0.9059297849853251
 50
246.6277221118709
 51
288.4480761181469
 73
     0
 72
     2
 10
-59.24043149623225
 20
10.94263341684231
 40
2.227384008973482
 50
288.448076118133
 51
301.9309089499592
 73
     0
 72
     1
 10
-58.06237645420737
 20
12.83298413599221
 11
-58.06237645420737
 21
13.7055011427955
 72
     2
 10
-59.39830437132517
 20
9.040418836994604
 40
4.85259686349807
 50
74.02000874164739
 51
84.84185523037515
 73
     1
 72
     2
 10
-59.10944827658926
 20
12.2403094202156
 40
1.639695123940504
 50
84.8418552303626
 51
164.9381082228866
 73
     1
 97
       14
330
495
330
3AE
330
464
330
494
330
465
330
466
330
493
330
492
330
491
330
3AF
330
467
330
468
330
469
330
46A
 75
     1
 76
     0
 52
45.0
 41
0.1
 77
     0
 78
     1
 53
45.0
 43
0.0
 44
0.0
 45
-0.0707106781186548
 46
0.0707106781186548
 79
     0
 98
        1
 10
0.0
 20
0.0
  0
HATCH
  5
4C1
330
71
100
AcDbEntity
  8
1
  6
Continuous
 62
     2
100
AcDbHatch
 10
0.0
 20
0.0
 30
0.0
210
0.0
220
0.0
230
1.0
  2
_USER
 70
     0
 71
     1
 91
        1
 92
        1
 93
       14
 72
     2
 10
-59.52857612005207
 20
12.3530997822505
 40
1.205656168390937
 50
164.9381082228765
 51
195.061891777095
 73
     1
 72
     2
 10
-59.10944827658926
 20
12.46589014428531
 40
1.639695123939387
 50
195.0618917770895
 51
275.1581447696393
 73
     1
 72
     2
 10
-59.39830437132517
 20
15.6657807275069
 40
4.852596863498136
 50
275.1581447696248
 51
285.9799912583529
 73
     1
 72
     1
 10
-58.06237645420737
 20
11.00069842170609
 11
-58.06237645420737
 21
11.8732154285093
 72
     2
 10
-59.24043149623225
 20
13.76356614765919
 40
2.227384008972741
 50
58.0690910500407
 51
71.55192388186708
 73
     0
 72
     2
 10
-58.82226376257145
 20
12.51002037162201
 40
0.9059297849849257
 50
71.55192388184128
 51
113.3722778881288
 73
     0
 72
     2
 10
-58.97870379527348
 20
12.14802835291201
 40
0.5115800601947981
 50
113.3722778881717
 51
151.4785267423039
 73
     0
 72
     2
 10
-58.60134653719317
 20
12.3530997822505
 40
0.9410597353332483
 50
151.478526742294
 51
208.5214732577333
 73
     0
 72
     2
 10
-58.97870379527348
 20
12.5581712115895
 40
0.5115800601948669
 50
208.5214732576959
 51
246.6277221118012
 73
     0
 72
     2
 10
-58.82226376257145
 20
12.1961791928789
 40
0.9059297849853251
 50
246.6277221118709
 51
288.4480761181469
 73
     0
 72
     2
 10
-59.24043149623225
 20
10.94263341684231
 40
2.227384008973482
 50
288.448076118133
 51
301.9309089499592
 73
     0
 72
     1
 10
-58.06237645420737
 20
12.83298413599221
 11
-58.06237645420737
 21
13.7055011427955
 72
     2
 10
-59.39830437132517
 20
9.040418836994604
 40
4.85259686349807
 50
74.02000874164739
 51
84.84185523037515
 73
     1
 72
     2
 10
-59.10944827658926
 20
12.2403094202156
 40
1.639695123940504
 50
84.8418552303626
 51
164.9381082228866
 73
     1
 97
       14
330
495
330
3AE
330
464
330
494
330
465
330
466
330
493
330
492
330
491
330
3AF
330
467
330
468
330
469
330
46A
 75
     1
 76
     0
 52
45.0
 41
0.1
 77
     0
 78
     1
 53
45.0
 43
0.0
 44
0.0
 45
-0.0707106781186548
 46
0.0707106781186548
 79
     0
 98
        1
 10
0.0
 20
0.0
  0
HATCH
  5
4C2
330
71
100
AcDbEntity
  8
1
  6
Continuous
 62
     2
100
AcDbHatch
 10
0.0
 20
0.0
 30
0.0
210
0.0
220
0.0
230
1.0
  2
_USER
 70
     0
 71
     1
 91
        1
 92
        1
 93
       18
 72
     2
 10
-43.00674679733635
 20
12.2403094202156
 40
1.639695123940209
 50
90.0
 51
164.9381082228951
 73
     1
 72
     2
 10
-43.42587464079796
 20
12.3530997822505
 40
1.205656168393002
 50
164.9381082229029
 51
195.0618917770962
 73
     1
 72
     2
 10
-43.00674679733635
 20
12.46589014428531
 40
1.639695123940449
 50
195.0618917771013
 51
275.1581447696762
 73
     1
 72
     2
 10
-43.29560289207217
 20
15.6657807275069
 40
4.852596863498825
 50
275.1581447696364
 51
285.9799912583387
 73
     1
 72
     1
 10
-41.95967497495545
 20
11.00069842170549
 11
-41.95967497495545
 21
11.87321542850881
 72
     2
 10
-43.13773001697936
 20
13.76356614765859
 40
2.227384008972746
 50
58.06909105006029
 51
71.55192388186651
 73
     0
 72
     2
 10
-42.71956228331746
 20
12.51002037162201
 40
0.9059297849852838
 50
71.55192388191841
 51
113.3722778881812
 73
     0
 72
     2
 10
-42.87600231602056
 20
12.14802835291201
 40
0.5115800601960215
 50
113.3722778881541
 51
151.4785267423134
 73
     0
 72
     2
 10
-42.49864505793917
 20
12.3530997822505
 40
0.9410597353348915
 50
151.4785267423305
 51
208.5214732576375
 73
     0
 72
     2
 10
-42.87600231602056
 20
12.5581712115895
 40
0.5115800601944109
 50
208.5214732575774
 51
250.6628567805146
 73
     0
 72
     2
 10
-42.72933231791686
 20
12.14021623120661
 40
0.9545230068260899
 50
250.6628567805679
 51
270.0
 73
     0
 72
     1
 10
-42.72933231791686
 20
13.0947392380327
 11
-41.62569301834876
 21
13.0947392380327
 72
     1
 10
-41.62569301834876
 20
13.0947392380327
 11
-41.62569301834876
 21
10.82619502034521
 72
     1
 10
-41.62569301834876
 20
10.82619502034521
 11
-40.43290031618105
 21
10.82619502034521
 72
     1
 10
-40.43290031618105
 20
10.82619502034521
 11
-40.43290031618105
 21
13.0947392380327
 72
     1
 10
-40.43290031618105
 20
13.0947392380327
 11
-39.62180127870767
 21
13.0947392380327
 72
     1
 10
-39.62180127870767
 20
13.0947392380327
 11
-39.62180127870767
 21
13.88000454415629
 72
     1
 10
-39.62180127870767
 20
13.88000454415629
 11
-43.00674679733635
 21
13.88000454415581
 97
       18
330
414
330
413
330
412
330
411
330
416
330
3B0
330
48E
330
46F
330
48D
330
470
330
48C
330
48B
330
3B1
330
48A
330
489
330
471
330
472
330
415
 75
     1
 76
     0
 52
45.0
 41
0.1
 77
     0
 78
     1
 53
45.0
 43
0.0
 44
0.0
 45
-0.0707106781186548
 46
0.0707106781186548
 79
     0
 98
        1
 10
0.0
 20
0.0
  0
HATCH
  5
4C3
330
71
100
AcDbEntity
  8
1
  6
Continuous
 62
     2
100
AcDbHatch
 10
0.0
 20
0.0
 30
0.0
210
0.0
220
0.0
230
1.0
  2
_USER
 70
     0
 71
     1
 91
        1
 92
        1
 93
       18
 72
     2
 10
-43.00674679733635
 20
12.2403094202156
 40
1.639695123940209
 50
90.0
 51
164.9381082228951
 73
     1
 72
     2
 10
-43.42587464079796
 20
12.3530997822505
 40
1.205656168393002
 50
164.9381082229029
 51
195.0618917770962
 73
     1
 72
     2
 10
-43.00674679733635
 20
12.46589014428531
 40
1.639695123940449
 50
195.0618917771013
 51
275.1581447696762
 73
     1
 72
     2
 10
-43.29560289207217
 20
15.6657807275069
 40
4.852596863498825
 50
275.1581447696364
 51
285.9799912583387
 73
     1
 72
     1
 10
-41.95967497495545
 20
11.00069842170549
 11
-41.95967497495545
 21
11.87321542850881
 72
     2
 10
-43.13773001697936
 20
13.76356614765859
 40
2.227384008972746
 50
58.06909105006029
 51
71.55192388186651
 73
     0
 72
     2
 10
-42.71956228331746
 20
12.51002037162201
 40
0.9059297849852838
 50
71.55192388191841
 51
113.3722778881812
 73
     0
 72
     2
 10
-42.87600231602056
 20
12.14802835291201
 40
0.5115800601960215
 50
113.3722778881541
 51
151.4785267423134
 73
     0
 72
     2
 10
-42.49864505793917
 20
12.3530997822505
 40
0.9410597353348915
 50
151.4785267423305
 51
208.5214732576375
 73
     0
 72
     2
 10
-42.87600231602056
 20
12.5581712115895
 40
0.5115800601944109
 50
208.5214732575774
 51
250.6628567805146
 73
     0
 72
     2
 10
-42.72933231791686
 20
12.14021623120661
 40
0.9545230068260899
 50
250.6628567805679
 51
270.0
 73
     0
 72
     1
 10
-42.72933231791686
 20
13.0947392380327
 11
-41.62569301834876
 21
13.0947392380327
 72
     1
 10
-41.62569301834876
 20
13.0947392380327
 11
-41.62569301834876
 21
10.82619502034521
 72
     1
 10
-41.62569301834876
 20
10.82619502034521
 11
-40.43290031618105
 21
10.82619502034521
 72
     1
 10
-40.43290031618105
 20
10.82619502034521
 11
-40.43290031618105
 21
13.0947392380327
 72
     1
 10
-40.43290031618105
 20
13.0947392380327
 11
-39.62180127870767
 21
13.0947392380327
 72
     1
 10
-39.62180127870767
 20
13.0947392380327
 11
-39.62180127870767
 21
13.88000454415629
 72
     1
 10
-39.62180127870767
 20
13.88000454415629
 11
-43.00674679733635
 21
13.88000454415581
 97
       18
330
414
330
413
330
412
330
411
330
416
330
3B0
330
48E
330
46F
330
48D
330
470
330
48C
330
48B
330
3B1
330
48A
330
489
330
471
330
472
330
415
 75
     1
 76
     0
 52
45.0
 41
0.1
 77
     0
 78
     1
 53
45.0
 43
0.0
 44
0.0
 45
-0.0707106781186548
 46
0.0707106781186548
 79
     0
 98
        1
 10
0.0
 20
0.0
  0
HATCH
  5
4C4
330
71
100
AcDbEntity
  8
1
  6
Continuous
 62
     2
100
AcDbHatch
 10
0.0
 20
0.0
 30
0.0
210
0.0
220
0.0
230
1.0
  2
_USER
 70
     0
 71
     1
 91
        4
 92
        1
 93
        8
 72
     2
 10
-67.10890589402936
 20
16.81495040492871
 40
0.4242446153838024
 50
90.0
 51
180.0
 73
     1
 72
     1
 10
-67.53315050941217
 20
16.81495040492871
 11
-67.53315050941217
 21
11.2504396357285
 72
     2
 10
-67.10890589402936
 20
11.2504396357285
 40
0.4242446153828041
 50
180.0
 51
270.0
 73
     1
 72
     1
 10
-67.10890589402936
 20
10.82619502034521
 11
-61.63559380331256
 21
10.82619502034521
 72
     2
 10
-61.63559380331256
 20
11.2504396357285
 40
0.4242446153832891
 50
270.0
 51
360.0
 73
     1
 72
     1
 10
-61.21134918792868
 20
11.2504396357285
 11
-61.21134918792868
 21
16.81495040492871
 72
     2
 10
-61.63559380331256
 20
16.81495040492871
 40
0.424244615383877
 50
0.0
 51
90.0
 73
     1
 72
     1
 10
-61.63559380331256
 20
17.23919502031251
 11
-67.10890589402936
 21
17.23919502031251
 97
        8
330
482
330
3DF
330
481
330
3E0
330
478
330
3DD
330
483
330
3DE
 92
       16
 93
        1
 72
     2
 10
-64.48932024351186
 20
14.4960681765732
 40
0.4709789327785074
 50
0.0
 51
360.0
 73
     1
 97
        1
330
496
 92
       16
 93
        8
 72
     2
 10
-64.46550522883905
 20
14.4960681765732
 40
0.9118481501444573
 50
295.3740086781765
 51
424.6259913218076
 73
     1
 72
     2
 10
-63.93946253075117
 20
15.60520977654102
 40
0.315716923076792
 50
115.3740086783517
 51
180.0
 73
     0
 72
     1
 10
-64.25517945382796
 20
15.60520977654102
 11
-64.25517945382796
 21
16.2107450650478
 72
     2
 10
-63.93946253075117
 20
16.2107450650478
 40
0.3157169230760746
 50
180.0
 51
269.8110329574541
 73
     0
 72
     2
 10
-63.93384639544115
 20
14.5079101174787
 40
2.018561131933266
 50
269.8110329575858
 51
450.1889670424142
 73
     0
 72
     2
 10
-63.93946253075117
 20
12.80507516990971
 40
0.315716923076792
 50
90.18896704254585
 51
180.0
 73
     0
 72
     1
 10
-64.25517945382796
 20
12.80507516990971
 11
-64.25517945382796
 21
13.38692657660479
 72
     2
 10
-63.93946253075117
 20
13.38692657660479
 40
0.3157169230765344
 50
180.0
 51
244.6259913216483
 73
     0
 97
        8
330
490
330
46C
330
418
330
48F
330
46D
330
46E
330
417
330
46B
 92
       16
 93
       12
 72
     1
 10
-66.51501121728288
 20
11.5387505759021
 11
-65.03917795627325
 21
11.5387505759021
 72
     2
 10
-65.03917795627325
 20
11.85446749897881
 40
0.3157169230767103
 50
270.0
 51
360.0
 73
     1
 72
     1
 10
-64.72346103319666
 20
11.85446749897881
 11
-64.72346103319666
 21
13.38523843051041
 72
     2
 10
-65.03917795627325
 20
13.38523843051041
 40
0.315716923076593
 50
0.0
 51
64.80558935146027
 73
     1
 72
     2
 10
-64.51659350869826
 20
14.4960681765732
 40
0.9118975235576194
 50
115.1944106485123
 51
244.8055893514719
 73
     0
 72
     2
 10
-65.03917795627325
 20
15.6068979226354
 40
0.3157169230761203
 50
295.1944106485397
 51
360.0
 73
     1
 72
     1
 10
-64.72346103319666
 20
15.6068979226354
 11
-64.72346103319666
 21
16.21092254169591
 72
     2
 10
-65.03917795627325
 20
16.21092254169591
 40
0.315716923076593
 50
0.0
 51
90.0
 73
     1
 72
     1
 10
-65.03917795627325
 20
16.5266394647721
 11
-66.51501121728288
 21
16.5266394647721
 72
     2
 10
-66.51501121728288
 20
16.21092254169591
 40
0.315716923076188
 50
90.0
 51
180.0
 73
     1
 72
     1
 10
-66.83072814035856
 20
16.21092254169591
 11
-66.83072814035856
 21
11.85446749897881
 72
     2
 10
-66.51501121728288
 20
11.85446749897881
 40
0.3157169230756836
 50
180.0
 51
270.0
 73
     1
 97
       12
330
3E4
330
475
330
3E3
330
486
330
3E2
330
485
330
476
330
477
330
3E1
330
484
330
3DC
330
487
 75
     1
 76
     0
 52
45.0
 41
0.1
 77
     0
 78
     1
 53
45.0
 43
0.0
 44
0.0
 45
-0.0707106781186548
 46
0.0707106781186548
 79
     0
 98
        1
 10
0.0
 20
0.0
  0
HATCH
  5
4C5
330
71
100
AcDbEntity
  8
1
  6
Continuous
 62
     2
100
AcDbHatch
 10
0.0
 20
0.0
 30
0.0
210
0.0
220
0.0
230
1.0
  2
_USER
 70
     0
 71
     1
 91
        4
 92
        1
 93
        8
 72
     2
 10
-67.10890589402936
 20
16.81495040492871
 40
0.4242446153838024
 50
90.0
 51
180.0
 73
     1
 72
     1
 10
-67.53315050941217
 20
16.81495040492871
 11
-67.53315050941217
 21
11.2504396357285
 72
     2
 10
-67.10890589402936
 20
11.2504396357285
 40
0.4242446153828041
 50
180.0
 51
270.0
 73
     1
 72
     1
 10
-67.10890589402936
 20
10.82619502034521
 11
-61.63559380331256
 21
10.82619502034521
 72
     2
 10
-61.63559380331256
 20
11.2504396357285
 40
0.4242446153832891
 50
270.0
 51
360.0
 73
     1
 72
     1
 10
-61.21134918792868
 20
11.2504396357285
 11
-61.21134918792868
 21
16.81495040492871
 72
     2
 10
-61.63559380331256
 20
16.81495040492871
 40
0.424244615383877
 50
0.0
 51
90.0
 73
     1
 72
     1
 10
-61.63559380331256
 20
17.23919502031251
 11
-67.10890589402936
 21
17.23919502031251
 97
        8
330
482
330
3DF
330
481
330
3E0
330
478
330
3DD
330
483
330
3DE
 92
       16
 93
        1
 72
     2
 10
-64.48932024351186
 20
14.4960681765732
 40
0.4709789327785074
 50
0.0
 51
360.0
 73
     1
 97
        1
330
496
 92
       16
 93
        8
 72
     2
 10
-64.46550522883905
 20
14.4960681765732
 40
0.9118481501444573
 50
295.3740086781765
 51
424.6259913218076
 73
     1
 72
     2
 10
-63.93946253075117
 20
15.60520977654102
 40
0.315716923076792
 50
115.3740086783517
 51
180.0
 73
     0
 72
     1
 10
-64.25517945382796
 20
15.60520977654102
 11
-64.25517945382796
 21
16.2107450650478
 72
     2
 10
-63.93946253075117
 20
16.2107450650478
 40
0.3157169230760746
 50
180.0
 51
269.8110329574541
 73
     0
 72
     2
 10
-63.93384639544115
 20
14.5079101174787
 40
2.018561131933266
 50
269.8110329575858
 51
450.1889670424142
 73
     0
 72
     2
 10
-63.93946253075117
 20
12.80507516990971
 40
0.315716923076792
 50
90.18896704254585
 51
180.0
 73
     0
 72
     1
 10
-64.25517945382796
 20
12.80507516990971
 11
-64.25517945382796
 21
13.38692657660479
 72
     2
 10
-63.93946253075117
 20
13.38692657660479
 40
0.3157169230765344
 50
180.0
 51
244.6259913216483
 73
     0
 97
        8
330
490
330
46C
330
418
330
48F
330
46D
330
46E
330
417
330
46B
 92
       16
 93
       12
 72
     1
 10
-66.51501121728288
 20
11.5387505759021
 11
-65.03917795627325
 21
11.5387505759021
 72
     2
 10
-65.03917795627325
 20
11.85446749897881
 40
0.3157169230767103
 50
270.0
 51
360.0
 73
     1
 72
     1
 10
-64.72346103319666
 20
11.85446749897881
 11
-64.72346103319666
 21
13.38523843051041
 72
     2
 10
-65.03917795627325
 20
13.38523843051041
 40
0.315716923076593
 50
0.0
 51
64.80558935146027
 73
     1
 72
     2
 10
-64.51659350869826
 20
14.4960681765732
 40
0.9118975235576194
 50
115.1944106485123
 51
244.8055893514719
 73
     0
 72
     2
 10
-65.03917795627325
 20
15.6068979226354
 40
0.3157169230761203
 50
295.1944106485397
 51
360.0
 73
     1
 72
     1
 10
-64.72346103319666
 20
15.6068979226354
 11
-64.72346103319666
 21
16.21092254169591
 72
     2
 10
-65.03917795627325
 20
16.21092254169591
 40
0.315716923076593
 50
0.0
 51
90.0
 73
     1
 72
     1
 10
-65.03917795627325
 20
16.5266394647721
 11
-66.51501121728288
 21
16.5266394647721
 72
     2
 10
-66.51501121728288
 20
16.21092254169591
 40
0.315716923076188
 50
90.0
 51
180.0
 73
     1
 72
     1
 10
-66.83072814035856
 20
16.21092254169591
 11
-66.83072814035856
 21
11.85446749897881
 72
     2
 10
-66.51501121728288
 20
11.85446749897881
 40
0.3157169230756836
 50
180.0
 51
270.0
 73
     1
 97
       12
330
3E4
330
475
330
3E3
330
486
330
3E2
330
485
330
476
330
477
330
3E1
330
484
330
3DC
330
487
 75
     1
 76
     0
 52
45.0
 41
0.1
 77
     0
 78
     1
 53
45.0
 43
0.0
 44
0.0
 45
-0.0707106781186548
 46
0.0707106781186548
 79
     0
 98
        1
 10
0.0
 20
0.0
  0
HATCH
  5
4C6
330
71
100
AcDbEntity
  8
1
  6
Continuous
 62
     2
100
AcDbHatch
 10
0.0
 20
0.0
 30
0.0
210
0.0
220
0.0
230
1.0
  2
_USER
 70
     0
 71
     1
 91
        2
 92
        1
 93
       12
 72
     2
 10
-52.43374189004007
 20
15.71229025842482
 40
1.526904761905881
 50
90.0
 51
270.0
 73
     1
 72
     1
 10
-52.43374189004007
 20
14.1853854965195
 11
-49.28342216625907
 21
14.1853854965195
 72
     1
 10
-49.28342216625907
 20
14.1853854965195
 11
-49.28342216625907
 21
14.883399101962
 72
     1
 10
-49.28342216625907
 20
14.883399101962
 11
-50.61934999268675
 21
14.883399101962
 72
     1
 10
-50.61934999268675
 20
14.883399101962
 11
-50.61934999268675
 21
15.36328345570371
 72
     1
 10
-50.61934999268675
 20
15.36328345570371
 11
-49.28342216625907
 21
15.36328345570371
 72
     1
 10
-49.28342216625907
 20
15.36328345570371
 11
-49.28342216625907
 21
16.06129706114601
 72
     1
 10
-49.28342216625907
 20
16.06129706114601
 11
-50.61934999268675
 21
16.06129706114601
 72
     1
 10
-50.61934999268675
 20
16.06129706114601
 11
-50.61934999268675
 21
16.54118141488772
 72
     1
 10
-50.61934999268675
 20
16.54118141488772
 11
-49.28342216625907
 21
16.54118141488772
 72
     1
 10
-49.28342216625907
 20
16.54118141488772
 11
-49.28342216625907
 21
17.2391950203307
 72
     1
 10
-49.28342216625907
 20
17.2391950203307
 11
-52.43374189004007
 21
17.2391950203307
 97
       12
330
3D3
330
3CD
330
3F4
330
3F3
330
3F2
330
3F1
330
3CE
330
3CF
330
3D0
330
3D1
330
473
330
3D2
 92
       16
 93
        4
 72
     2
 10
-52.01772984352857
 20
15.71229025842482
 40
0.7717997786796735
 50
141.8795802028403
 51
218.1204197971566
 73
     1
 72
     2
 10
-52.21746987987487
 20
15.55555908030439
 40
0.5179085730134372
 50
218.1204197971511
 51
321.8795802028571
 73
     1
 72
     2
 10
-52.41720991622105
 20
15.71229025842482
 40
0.7717997786796417
 50
321.8795802028433
 51
398.1204197971597
 73
     1
 72
     2
 10
-52.21746987987487
 20
15.8690214365453
 40
0.5179085730135343
 50
38.12041979714316
 51
141.8795802028486
 73
     1
 97
        4
330
480
330
47F
330
47A
330
479
 75
     1
 76
     0
 52
45.0
 41
0.1
 77
     0
 78
     1
 53
45.0
 43
0.0
 44
0.0
 45
-0.0707106781186548
 46
0.0707106781186548
 79
     0
 98
        1
 10
0.0
 20
0.0
  0
HATCH
  5
4C7
330
71
100
AcDbEntity
  8
1
  6
Continuous
 62
     2
100
AcDbHatch
 10
0.0
 20
0.0
 30
0.0
210
0.0
220
0.0
230
1.0
  2
_USER
 70
     0
 71
     1
 91
        2
 92
        1
 93
       12
 72
     2
 10
-52.43374189004007
 20
15.71229025842482
 40
1.526904761905881
 50
90.0
 51
270.0
 73
     1
 72
     1
 10
-52.43374189004007
 20
14.1853854965195
 11
-49.28342216625907
 21
14.1853854965195
 72
     1
 10
-49.28342216625907
 20
14.1853854965195
 11
-49.28342216625907
 21
14.883399101962
 72
     1
 10
-49.28342216625907
 20
14.883399101962
 11
-50.61934999268675
 21
14.883399101962
 72
     1
 10
-50.61934999268675
 20
14.883399101962
 11
-50.61934999268675
 21
15.36328345570371
 72
     1
 10
-50.61934999268675
 20
15.36328345570371
 11
-49.28342216625907
 21
15.36328345570371
 72
     1
 10
-49.28342216625907
 20
15.36328345570371
 11
-49.28342216625907
 21
16.06129706114601
 72
     1
 10
-49.28342216625907
 20
16.06129706114601
 11
-50.61934999268675
 21
16.06129706114601
 72
     1
 10
-50.61934999268675
 20
16.06129706114601
 11
-50.61934999268675
 21
16.54118141488772
 72
     1
 10
-50.61934999268675
 20
16.54118141488772
 11
-49.28342216625907
 21
16.54118141488772
 72
     1
 10
-49.28342216625907
 20
16.54118141488772
 11
-49.28342216625907
 21
17.2391950203307
 72
     1
 10
-49.28342216625907
 20
17.2391950203307
 11
-52.43374189004007
 21
17.2391950203307
 97
       12
330
3D3
330
3CD
330
3F4
330
3F3
330
3F2
330
3F1
330
3CE
330
3CF
330
3D0
330
3D1
330
473
330
3D2
 92
       16
 93
        4
 72
     2
 10
-52.01772984352857
 20
15.71229025842482
 40
0.7717997786796735
 50
141.8795802028403
 51
218.1204197971566
 73
     1
 72
     2
 10
-52.21746987987487
 20
15.55555908030439
 40
0.5179085730134372
 50
218.1204197971511
 51
321.8795802028571
 73
     1
 72
     2
 10
-52.41720991622105
 20
15.71229025842482
 40
0.7717997786796417
 50
321.8795802028433
 51
398.1204197971597
 73
     1
 72
     2
 10
-52.21746987987487
 20
15.8690214365453
 40
0.5179085730135343
 50
38.12041979714316
 51
141.8795802028486
 73
     1
 97
        4
330
480
330
47F
330
47A
330
479
 75
     1
 76
     0
 52
45.0
 41
0.1
 77
     0
 78
     1
 53
45.0
 43
0.0
 44
0.0
 45
-0.0707106781186548
 46
0.0707106781186548
 79
     0
 98
        1
 10
0.0
 20
0.0
  0
HATCH
  5
4C8
330
71
100
AcDbEntity
  8
1
  6
Continuous
 62
     2
100
AcDbHatch
 10
0.0
 20
0.0
 30
0.0
210
0.0
220
0.0
230
1.0
  2
_USER
 70
     0
 71
     1
 91
        2
 92
        1
 93
        4
 72
     2
 10
-56.45935725250166
 20
12.3530997822505
 40
1.458034083651492
 50
117.5481481756624
 51
242.4518518243375
 73
     1
 72
     2
 10
-56.17841736066836
 20
12.8916747925538
 40
2.065479772208505
 50
242.4518518243401
 51
297.5481481756871
 73
     1
 72
     2
 10
-55.89747746883506
 20
12.3530997822505
 40
1.458034083652003
 50
297.548148175701
 51
422.451851824299
 73
     1
 72
     2
 10
-56.17841736066836
 20
11.8145247719477
 40
2.065479772208576
 50
62.45185182430648
 51
117.5481481756663
 73
     1
 97
        4
330
47E
330
47B
330
47D
330
47C
 92
       16
 93
        4
 72
     2
 10
-56.17841736066836
 20
12.50983096037101
 40
0.517908573013291
 50
38.12041979714706
 51
141.8795802028588
 73
     1
 72
     2
 10
-55.97867732432226
 20
12.3530997822505
 40
0.7717997786794555
 50
141.8795802028362
 51
218.120419797169
 73
     1
 72
     2
 10
-56.17841736066836
 20
12.1963686041305
 40
0.5179085730137287
 50
218.1204197971935
 51
321.8795802028007
 73
     1
 72
     2
 10
-56.37815739701478
 20
12.3530997822505
 40
0.7717997786796947
 50
321.8795802028417
 51
398.120419797153
 73
     1
 97
        4
330
461
330
462
330
463
330
460
 75
     1
 76
     0
 52
45.0
 41
0.1
 77
     0
 78
     1
 53
45.0
 43
0.0
 44
0.0
 45
-0.0707106781186548
 46
0.0707106781186548
 79
     0
 98
        1
 10
0.0
 20
0.0
  0
HATCH
  5
4C9
330
71
100
AcDbEntity
  8
1
  6
Continuous
 62
     2
100
AcDbHatch
 10
0.0
 20
0.0
 30
0.0
210
0.0
220
0.0
230
1.0
  2
_USER
 70
     0
 71
     1
 91
        2
 92
        1
 93
        4
 72
     2
 10
-56.45935725250166
 20
12.3530997822505
 40
1.458034083651492
 50
117.5481481756624
 51
242.4518518243375
 73
     1
 72
     2
 10
-56.17841736066836
 20
12.8916747925538
 40
2.065479772208505
 50
242.4518518243401
 51
297.5481481756871
 73
     1
 72
     2
 10
-55.89747746883506
 20
12.3530997822505
 40
1.458034083652003
 50
297.548148175701
 51
422.451851824299
 73
     1
 72
     2
 10
-56.17841736066836
 20
11.8145247719477
 40
2.065479772208576
 50
62.45185182430648
 51
117.5481481756663
 73
     1
 97
        4
330
47E
330
47B
330
47D
330
47C
 92
       16
 93
        4
 72
     2
 10
-56.17841736066836
 20
12.50983096037101
 40
0.517908573013291
 50
38.12041979714706
 51
141.8795802028588
 73
     1
 72
     2
 10
-55.97867732432226
 20
12.3530997822505
 40
0.7717997786794555
 50
141.8795802028362
 51
218.120419797169
 73
     1
 72
     2
 10
-56.17841736066836
 20
12.1963686041305
 40
0.5179085730137287
 50
218.1204197971935
 51
321.8795802028007
 73
     1
 72
     2
 10
-56.37815739701478
 20
12.3530997822505
 40
0.7717997786796947
 50
321.8795802028417
 51
398.120419797153
 73
     1
 97
        4
330
461
330
462
330
463
330
460
 75
     1
 76
     0
 52
45.0
 41
0.1
 77
     0
 78
     1
 53
45.0
 43
0.0
 44
0.0
 45
-0.0707106781186548
 46
0.0707106781186548
 79
     0
 98
        1
 10
0.0
 20
0.0
  0
HATCH
  5
4CA
330
71
100
AcDbEntity
  8
1
  6
Continuous
 62
     2
100
AcDbHatch
 10
0.0
 20
0.0
 30
0.0
210
0.0
220
0.0
230
1.0
  2
_USER
 70
     0
 71
     1
 91
        2
 92
        1
 93
        6
 72
     1
 10
-60.73423210706187
 20
17.2391950203307
 11
-60.73423210706187
 21
14.1853854965195
 72
     1
 10
-60.73423210706187
 20
14.1853854965195
 11
-59.49372769680775
 21
14.1853854965195
 72
     1
 10
-59.49372769680775
 20
14.1853854965195
 11
-59.49372769680775
 21
15.12846373766331
 72
     1
 10
-59.49372769680775
 20
15.12846373766331
 11
-58.73496010902747
 21
15.12846373766331
 72
     2
 10
-58.73496010902747
 20
16.18382937899702
 40
1.055365641333712
 50
270.0
 51
450.0
 73
     1
 72
     1
 10
-58.73496010902747
 20
17.2391950203307
 11
-60.73423210706187
 21
17.2391950203307
 97
        6
330
488
330
3E5
330
3DB
330
3DA
330
3E7
330
3E6
 92
       16
 93
        4
 72
     1
 10
-59.17643263526585
 20
16.5760891748906
 11
-59.49372769680775
 21
16.5760891748906
 72
     1
 10
-59.49372769680775
 20
16.5760891748906
 11
-59.49372769680775
 21
15.87036152554839
 72
     1
 10
-59.49372769680775
 20
15.87036152554839
 11
-59.17643263526585
 21
15.87036152554839
 72
     2
 10
-59.17643263526585
 20
16.22322535021951
 40
0.3528638246711218
 50
270.0
 51
450.0
 73
     1
 97
        4
330
3E8
330
3D9
330
3E9
330
474
 75
     1
 76
     0
 52
45.0
 41
0.1
 77
     0
 78
     1
 53
45.0
 43
0.0
 44
0.0
 45
-0.0707106781186548
 46
0.0707106781186548
 79
     0
 98
        1
 10
0.0
 20
0.0
  0
HATCH
  5
4CB
330
71
100
AcDbEntity
  8
1
  6
Continuous
 62
     2
100
AcDbHatch
 10
0.0
 20
0.0
 30
0.0
210
0.0
220
0.0
230
1.0
  2
_USER
 70
     0
 71
     1
 91
        2
 92
        1
 93
        6
 72
     1
 10
-60.73423210706187
 20
17.2391950203307
 11
-60.73423210706187
 21
14.1853854965195
 72
     1
 10
-60.73423210706187
 20
14.1853854965195
 11
-59.49372769680775
 21
14.1853854965195
 72
     1
 10
-59.49372769680775
 20
14.1853854965195
 11
-59.49372769680775
 21
15.12846373766331
 72
     1
 10
-59.49372769680775
 20
15.12846373766331
 11
-58.73496010902747
 21
15.12846373766331
 72
     2
 10
-58.73496010902747
 20
16.18382937899702
 40
1.055365641333712
 50
270.0
 51
450.0
 73
     1
 72
     1
 10
-58.73496010902747
 20
17.2391950203307
 11
-60.73423210706187
 21
17.2391950203307
 97
        6
330
488
330
3E5
330
3DB
330
3DA
330
3E7
330
3E6
 92
       16
 93
        4
 72
     1
 10
-59.17643263526585
 20
16.5760891748906
 11
-59.49372769680775
 21
16.5760891748906
 72
     1
 10
-59.49372769680775
 20
16.5760891748906
 11
-59.49372769680775
 21
15.87036152554839
 72
     1
 10
-59.49372769680775
 20
15.87036152554839
 11
-59.17643263526585
 21
15.87036152554839
 72
     2
 10
-59.17643263526585
 20
16.22322535021951
 40
0.3528638246711218
 50
270.0
 51
450.0
 73
     1
 97
        4
330
3E8
330
3D9
330
3E9
330
474
 75
     1
 76
     0
 52
45.0
 41
0.1
 77
     0
 78
     1
 53
45.0
 43
0.0
 44
0.0
 45
-0.0707106781186548
 46
0.0707106781186548
 79
     0
 98
        1
 10
0.0
 20
0.0
  0
HATCH
  5
4CC
330
71
100
AcDbEntity
  8
1
  6
Continuous
 62
     2
100
AcDbHatch
 10
0.0
 20
0.0
 30
0.0
210
0.0
220
0.0
230
1.0
  2
_USER
 70
     0
 71
     1
 91
        1
 92
        1
 93
       12
 72
     1
 10
-41.11994891262867
 20
17.2391950203307
 11
-39.71722469488145
 21
17.2391950203307
 72
     1
 10
-39.71722469488145
 20
17.2391950203307
 11
-41.01975432564797
 21
15.7662444902945
 72
     1
 10
-41.01975432564797
 20
15.7662444902945
 11
-39.62180127870767
 21
14.1853854965195
 72
     1
 10
-39.62180127870767
 20
14.1853854965195
 11
-41.02452549645597
 21
14.1853854965195
 72
     1
 10
-41.02452549645597
 20
14.1853854965195
 11
-41.72111643452146
 21
14.97311728181322
 72
     1
 10
-41.72111643452146
 20
14.97311728181322
 11
-42.41770737258716
 21
14.1853854965195
 72
     1
 10
-42.41770737258716
 20
14.1853854965195
 11
-43.82043159033537
 21
14.1853854965195
 72
     1
 10
-43.82043159033537
 20
14.1853854965195
 11
-42.42247854339507
 21
15.7662444902945
 72
     1
 10
-42.42247854339507
 20
15.7662444902945
 11
-43.72500817416255
 21
17.2391950203307
 72
     1
 10
-43.72500817416255
 20
17.2391950203307
 11
-42.32228395641326
 21
17.2391950203307
 72
     1
 10
-42.32228395641326
 20
17.2391950203307
 11
-41.72111643452146
 21
16.55937169877521
 72
     1
 10
-41.72111643452146
 20
16.55937169877521
 11
-41.11994891262867
 21
17.2391950203307
 97
       12
330
3B4
330
40D
330
40C
330
40B
330
40A
330
3B5
330
3B6
330
3B2
330
3B3
330
410
330
40F
330
40E
 75
     1
 76
     0
 52
45.0
 41
0.1
 77
     0
 78
     1
 53
45.0
 43
0.0
 44
0.0
 45
-0.0707106781186548
 46
0.0707106781186548
 79
     0
 98
        1
 10
0.0
 20
0.0
  0
HATCH
  5
4CD
330
71
100
AcDbEntity
  8
1
  6
Continuous
 62
     2
100
AcDbHatch
 10
0.0
 20
0.0
 30
0.0
210
0.0
220
0.0
230
1.0
  2
_USER
 70
     0
 71
     1
 91
        1
 92
        1
 93
       12
 72
     1
 10
-41.11994891262867
 20
17.2391950203307
 11
-39.71722469488145
 21
17.2391950203307
 72
     1
 10
-39.71722469488145
 20
17.2391950203307
 11
-41.01975432564797
 21
15.7662444902945
 72
     1
 10
-41.01975432564797
 20
15.7662444902945
 11
-39.62180127870767
 21
14.1853854965195
 72
     1
 10
-39.62180127870767
 20
14.1853854965195
 11
-41.02452549645597
 21
14.1853854965195
 72
     1
 10
-41.02452549645597
 20
14.1853854965195
 11
-41.72111643452146
 21
14.97311728181322
 72
     1
 10
-41.72111643452146
 20
14.97311728181322
 11
-42.41770737258716
 21
14.1853854965195
 72
     1
 10
-42.41770737258716
 20
14.1853854965195
 11
-43.82043159033537
 21
14.1853854965195
 72
     1
 10
-43.82043159033537
 20
14.1853854965195
 11
-42.42247854339507
 21
15.7662444902945
 72
     1
 10
-42.42247854339507
 20
15.7662444902945
 11
-43.72500817416255
 21
17.2391950203307
 72
     1
 10
-43.72500817416255
 20
17.2391950203307
 11
-42.32228395641326
 21
17.2391950203307
 72
     1
 10
-42.32228395641326
 20
17.2391950203307
 11
-41.72111643452146
 21
16.55937169877521
 72
     1
 10
-41.72111643452146
 20
16.55937169877521
 11
-41.11994891262867
 21
17.2391950203307
 97
       12
330
3B4
330
40D
330
40C
330
40B
330
40A
330
3B5
330
3B6
330
3B2
330
3B3
330
410
330
40F
330
40E
 75
     1
 76
     0
 52
45.0
 41
0.1
 77
     0
 78
     1
 53
45.0
 43
0.0
 44
0.0
 45
-0.0707106781186548
 46
0.0707106781186548
 79
     0
 98
        1
 10
0.0
 20
0.0
  0
HATCH
  5
4CE
330
71
100
AcDbEntity
  8
1
  6
Continuous
 62
     2
100
AcDbHatch
 10
0.0
 20
0.0
 30
0.0
210
0.0
220
0.0
230
1.0
  2
_USER
 70
     0
 71
     1
 91
        1
 92
        1
 93
        4
 72
     1
 10
-43.93971086055225
 20
17.2391950203307
 11
-43.93971086055225
 21
14.1853854965195
 72
     1
 10
-43.93971086055225
 20
14.1853854965195
 11
-45.18021527080515
 21
14.1853854965195
 72
     1
 10
-45.18021527080515
 20
14.1853854965195
 11
-45.18021527080515
 21
17.2391950203307
 72
     1
 10
-45.18021527080515
 20
17.2391950203307
 11
-43.93971086055225
 21
17.2391950203307
 97
        4
330
408
330
3B7
330
407
330
409
 75
     1
 76
     0
 52
45.0
 41
0.1
 77
     0
 78
     1
 53
45.0
 43
0.0
 44
0.0
 45
-0.0707106781186548
 46
0.0707106781186548
 79
     0
 98
        1
 10
0.0
 20
0.0
  0
HATCH
  5
4CF
330
71
100
AcDbEntity
  8
1
  6
Continuous
 62
     2
100
AcDbHatch
 10
0.0
 20
0.0
 30
0.0
210
0.0
220
0.0
230
1.0
  2
_USER
 70
     0
 71
     1
 91
        1
 92
        1
 93
        4
 72
     1
 10
-43.93971086055225
 20
17.2391950203307
 11
-43.93971086055225
 21
14.1853854965195
 72
     1
 10
-43.93971086055225
 20
14.1853854965195
 11
-45.18021527080515
 21
14.1853854965195
 72
     1
 10
-45.18021527080515
 20
14.1853854965195
 11
-45.18021527080515
 21
17.2391950203307
 72
     1
 10
-45.18021527080515
 20
17.2391950203307
 11
-43.93971086055225
 21
17.2391950203307
 97
        4
330
408
330
3B7
330
407
330
409
 75
     1
 76
     0
 52
45.0
 41
0.1
 77
     0
 78
     1
 53
45.0
 43
0.0
 44
0.0
 45
-0.0707106781186548
 46
0.0707106781186548
 79
     0
 98
        1
 10
0.0
 20
0.0
  0
HATCH
  5
4D0
330
71
100
AcDbEntity
  8
1
  6
Continuous
 62
     2
100
AcDbHatch
 10
0.0
 20
0.0
 30
0.0
210
0.0
220
0.0
230
1.0
  2
_USER
 70
     0
 71
     1
 91
        2
 92
        1
 93
        8
 72
     1
 10
-44.33015486408425
 20
10.82619502034521
 11
-45.57065927433817
 21
10.82619502034521
 72
     1
 10
-45.57065927433817
 20
10.82619502034521
 11
-45.78213932781395
 21
11.36715556456309
 72
     1
 10
-45.78213932781395
 20
11.36715556456309
 11
-46.91458090448776
 21
11.36715556456309
 72
     1
 10
-46.91458090448776
 20
11.36715556456309
 11
-47.12606095796357
 21
10.82619502034521
 72
     1
 10
-47.12606095796357
 20
10.82619502034521
 11
-48.36656536821656
 21
10.82619502034521
 72
     1
 10
-48.36656536821656
 20
10.82619502034521
 11
-46.96861232127725
 21
13.88000454415629
 72
     1
 10
-46.96861232127725
 20
13.88000454415629
 11
-45.72810791102455
 21
13.88000454415629
 72
     1
 10
-45.72810791102455
 20
13.88000454415629
 11
-44.33015486408425
 21
10.82619502034521
 97
        8
330
403
330
3BD
330
402
330
405
330
3BA
330
404
330
3BB
330
3BC
 92
       16
 93
        3
 72
     1
 10
-46.64852535334276
 20
12.04771882986969
 11
-46.04819487896026
 21
12.04771882986969
 72
     1
 10
-46.04819487896026
 20
12.04771882986969
 11
-46.34836011615036
 21
12.8155337958564
 72
     1
 10
-46.34836011615036
 20
12.8155337958564
 11
-46.64852535334276
 21
12.04771882986969
 97
        3
330
3B9
330
3B8
330
406
 75
     1
 76
     0
 52
45.0
 41
0.1
 77
     0
 78
     1
 53
45.0
 43
0.0
 44
0.0
 45
-0.0707106781186548
 46
0.0707106781186548
 79
     0
 98
        1
 10
0.0
 20
0.0
  0
HATCH
  5
4D1
330
71
100
AcDbEntity
  8
1
  6
Continuous
 62
     2
100
AcDbHatch
 10
0.0
 20
0.0
 30
0.0
210
0.0
220
0.0
230
1.0
  2
_USER
 70
     0
 71
     1
 91
        2
 92
        1
 93
        8
 72
     1
 10
-44.33015486408425
 20
10.82619502034521
 11
-45.57065927433817
 21
10.82619502034521
 72
     1
 10
-45.57065927433817
 20
10.82619502034521
 11
-45.78213932781395
 21
11.36715556456309
 72
     1
 10
-45.78213932781395
 20
11.36715556456309
 11
-46.91458090448776
 21
11.36715556456309
 72
     1
 10
-46.91458090448776
 20
11.36715556456309
 11
-47.12606095796357
 21
10.82619502034521
 72
     1
 10
-47.12606095796357
 20
10.82619502034521
 11
-48.36656536821656
 21
10.82619502034521
 72
     1
 10
-48.36656536821656
 20
10.82619502034521
 11
-46.96861232127725
 21
13.88000454415629
 72
     1
 10
-46.96861232127725
 20
13.88000454415629
 11
-45.72810791102455
 21
13.88000454415629
 72
     1
 10
-45.72810791102455
 20
13.88000454415629
 11
-44.33015486408425
 21
10.82619502034521
 97
        8
330
403
330
3BD
330
402
330
405
330
3BA
330
404
330
3BB
330
3BC
 92
       16
 93
        3
 72
     1
 10
-46.64852535334276
 20
12.04771882986969
 11
-46.04819487896026
 21
12.04771882986969
 72
     1
 10
-46.04819487896026
 20
12.04771882986969
 11
-46.34836011615036
 21
12.8155337958564
 72
     1
 10
-46.34836011615036
 20
12.8155337958564
 11
-46.64852535334276
 21
12.04771882986969
 97
        3
330
3B9
330
3B8
330
406
 75
     1
 76
     0
 52
45.0
 41
0.1
 77
     0
 78
     1
 53
45.0
 43
0.0
 44
0.0
 45
-0.0707106781186548
 46
0.0707106781186548
 79
     0
 98
        1
 10
0.0
 20
0.0
  0
HATCH
  5
4D2
330
71
100
AcDbEntity
  8
1
  6
Continuous
 62
     2
100
AcDbHatch
 10
0.0
 20
0.0
 30
0.0
210
0.0
220
0.0
230
1.0
  2
_USER
 70
     0
 71
     1
 91
        1
 92
        1
 93
        8
 72
     1
 10
-50.52407750739877
 20
13.88000454415629
 11
-50.52407750739877
 21
13.0947392380327
 72
     1
 10
-50.52407750739877
 20
13.0947392380327
 11
-49.71297846992417
 21
13.0947392380327
 72
     1
 10
-49.71297846992417
 20
13.0947392380327
 11
-49.71297846992417
 21
10.82619502034521
 72
     1
 10
-49.71297846992417
 20
10.82619502034521
 11
-48.52018576775765
 21
10.82619502034521
 72
     1
 10
-48.52018576775765
 20
10.82619502034521
 11
-48.52018576775765
 21
13.0947392380327
 72
     1
 10
-48.52018576775765
 20
13.0947392380327
 11
-47.70908673028515
 21
13.0947392380327
 72
     1
 10
-47.70908673028515
 20
13.0947392380327
 11
-47.70908673028515
 21
13.88000454415629
 72
     1
 10
-47.70908673028515
 20
13.88000454415629
 11
-50.52407750739877
 21
13.88000454415629
 97
        8
330
3FF
330
3FE
330
3FD
330
3BE
330
3BF
330
401
330
3C0
330
400
 75
     1
 76
     0
 52
45.0
 41
0.1
 77
     0
 78
     1
 53
45.0
 43
0.0
 44
0.0
 45
-0.0707106781186548
 46
0.0707106781186548
 79
     0
 98
        1
 10
0.0
 20
0.0
  0
HATCH
  5
4D3
330
71
100
AcDbEntity
  8
1
  6
Continuous
 62
     2
100
AcDbHatch
 10
0.0
 20
0.0
 30
0.0
210
0.0
220
0.0
230
1.0
  2
_USER
 70
     0
 71
     1
 91
        1
 92
        1
 93
        8
 72
     1
 10
-50.52407750739877
 20
13.88000454415629
 11
-50.52407750739877
 21
13.0947392380327
 72
     1
 10
-50.52407750739877
 20
13.0947392380327
 11
-49.71297846992417
 21
13.0947392380327
 72
     1
 10
-49.71297846992417
 20
13.0947392380327
 11
-49.71297846992417
 21
10.82619502034521
 72
     1
 10
-49.71297846992417
 20
10.82619502034521
 11
-48.52018576775765
 21
10.82619502034521
 72
     1
 10
-48.52018576775765
 20
10.82619502034521
 11
-48.52018576775765
 21
13.0947392380327
 72
     1
 10
-48.52018576775765
 20
13.0947392380327
 11
-47.70908673028515
 21
13.0947392380327
 72
     1
 10
-47.70908673028515
 20
13.0947392380327
 11
-47.70908673028515
 21
13.88000454415629
 72
     1
 10
-47.70908673028515
 20
13.88000454415629
 11
-50.52407750739877
 21
13.88000454415629
 97
        8
330
3FF
330
3FE
330
3FD
330
3BE
330
3BF
330
401
330
3C0
330
400
 75
     1
 76
     0
 52
45.0
 41
0.1
 77
     0
 78
     1
 53
45.0
 43
0.0
 44
0.0
 45
-0.0707106781186548
 46
0.0707106781186548
 79
     0
 98
        1
 10
0.0
 20
0.0
  0
HATCH
  5
4D4
330
71
100
AcDbEntity
  8
1
  6
Continuous
 62
     2
100
AcDbHatch
 10
0.0
 20
0.0
 30
0.0
210
0.0
220
0.0
230
1.0
  2
_USER
 70
     0
 71
     1
 91
        1
 92
        1
 93
       10
 72
     1
 10
-47.85207092365965
 20
17.2391950203307
 11
-49.04486362582617
 21
17.2391950203307
 72
     1
 10
-49.04486362582617
 20
17.2391950203307
 11
-49.04486362582617
 21
14.1853854965195
 72
     1
 10
-49.04486362582617
 20
14.1853854965195
 11
-47.85207092365965
 21
14.1853854965195
 72
     1
 10
-47.85207092365965
 20
14.1853854965195
 11
-47.85207092365965
 21
15.4941610067242
 72
     1
 10
-47.85207092365965
 20
15.4941610067242
 11
-46.61156651340565
 21
14.1853854965195
 72
     1
 10
-46.61156651340565
 20
14.1853854965195
 11
-45.41877381123905
 21
14.1853854965195
 72
     1
 10
-45.41877381123905
 20
14.1853854965195
 11
-45.41877381123905
 21
17.2391950203307
 72
     1
 10
-45.41877381123905
 20
17.2391950203307
 11
-46.61156651340565
 21
17.2391950203307
 72
     1
 10
-46.61156651340565
 20
17.2391950203307
 11
-46.61156651340565
 21
15.93041951012552
 72
     1
 10
-46.61156651340565
 20
15.93041951012552
 11
-47.85207092365965
 21
17.2391950203307
 97
       10
330
3F9
330
3C3
330
3C4
330
3C5
330
3C6
330
3FC
330
3C1
330
3FB
330
3FA
330
3C2
 75
     1
 76
     0
 52
45.0
 41
0.1
 77
     0
 78
     1
 53
45.0
 43
0.0
 44
0.0
 45
-0.0707106781186548
 46
0.0707106781186548
 79
     0
 98
        1
 10
0.0
 20
0.0
  0
HATCH
  5
4D5
330
71
100
AcDbEntity
  8
1
  6
Continuous
 62
     2
100
AcDbHatch
 10
0.0
 20
0.0
 30
0.0
210
0.0
220
0.0
230
1.0
  2
_USER
 70
     0
 71
     1
 91
        1
 92
        1
 93
       10
 72
     1
 10
-47.85207092365965
 20
17.2391950203307
 11
-49.04486362582617
 21
17.2391950203307
 72
     1
 10
-49.04486362582617
 20
17.2391950203307
 11
-49.04486362582617
 21
14.1853854965195
 72
     1
 10
-49.04486362582617
 20
14.1853854965195
 11
-47.85207092365965
 21
14.1853854965195
 72
     1
 10
-47.85207092365965
 20
14.1853854965195
 11
-47.85207092365965
 21
15.4941610067242
 72
     1
 10
-47.85207092365965
 20
15.4941610067242
 11
-46.61156651340565
 21
14.1853854965195
 72
     1
 10
-46.61156651340565
 20
14.1853854965195
 11
-45.41877381123905
 21
14.1853854965195
 72
     1
 10
-45.41877381123905
 20
14.1853854965195
 11
-45.41877381123905
 21
17.2391950203307
 72
     1
 10
-45.41877381123905
 20
17.2391950203307
 11
-46.61156651340565
 21
17.2391950203307
 72
     1
 10
-46.61156651340565
 20
17.2391950203307
 11
-46.61156651340565
 21
15.93041951012552
 72
     1
 10
-46.61156651340565
 20
15.93041951012552
 11
-47.85207092365965
 21
17.2391950203307
 97
       10
330
3F9
330
3C3
330
3C4
330
3C5
330
3C6
330
3FC
330
3C1
330
3FB
330
3FA
330
3C2
 75
     1
 76
     0
 52
45.0
 41
0.1
 77
     0
 78
     1
 53
45.0
 43
0.0
 44
0.0
 45
-0.0707106781186548
 46
0.0707106781186548
 79
     0
 98
        1
 10
0.0
 20
0.0
  0
HATCH
  5
4D6
330
71
100
AcDbEntity
  8
1
  6
Continuous
 62
     2
100
AcDbHatch
 10
0.0
 20
0.0
 30
0.0
210
0.0
220
0.0
230
1.0
  2
_USER
 70
     0
 71
     1
 91
        1
 92
        1
 93
       10
 72
     1
 10
-53.10050974407827
 20
13.88000454415629
 11
-54.29330244624586
 21
13.88000454415629
 72
     1
 10
-54.29330244624586
 20
13.88000454415629
 11
-54.29330244624586
 21
10.82619502034521
 72
     1
 10
-54.29330244624586
 20
10.82619502034521
 11
-53.10050974407827
 21
10.82619502034521
 72
     1
 10
-53.10050974407827
 20
10.82619502034521
 11
-53.10050974407827
 21
12.13497053054979
 72
     1
 10
-53.10050974407827
 20
12.13497053054979
 11
-51.86000533382537
 21
10.82619502034521
 72
     1
 10
-51.86000533382537
 20
10.82619502034521
 11
-50.66721263165897
 21
10.82619502034521
 72
     1
 10
-50.66721263165897
 20
10.82619502034521
 11
-50.66721263165897
 21
13.88000454415629
 72
     1
 10
-50.66721263165897
 20
13.88000454415629
 11
-51.86000533382537
 21
13.88000454415629
 72
     1
 10
-51.86000533382537
 20
13.88000454415629
 11
-51.86000533382537
 21
12.5712290339512
 72
     1
 10
-51.86000533382537
 20
12.5712290339512
 11
-53.10050974407827
 21
13.88000454415629
 97
       10
330
3C8
330
3C9
330
3CA
330
3F6
330
3CB
330
3CC
330
3F5
330
3F8
330
3F7
330
3C7
 75
     1
 76
     0
 52
45.0
 41
0.1
 77
     0
 78
     1
 53
45.0
 43
0.0
 44
0.0
 45
-0.0707106781186548
 46
0.0707106781186548
 79
     0
 98
        1
 10
0.0
 20
0.0
  0
HATCH
  5
4D7
330
71
100
AcDbEntity
  8
1
  6
Continuous
 62
     2
100
AcDbHatch
 10
0.0
 20
0.0
 30
0.0
210
0.0
220
0.0
230
1.0
  2
_USER
 70
     0
 71
     1
 91
        1
 92
        1
 93
       10
 72
     1
 10
-53.10050974407827
 20
13.88000454415629
 11
-54.29330244624586
 21
13.88000454415629
 72
     1
 10
-54.29330244624586
 20
13.88000454415629
 11
-54.29330244624586
 21
10.82619502034521
 72
     1
 10
-54.29330244624586
 20
10.82619502034521
 11
-53.10050974407827
 21
10.82619502034521
 72
     1
 10
-53.10050974407827
 20
10.82619502034521
 11
-53.10050974407827
 21
12.13497053054979
 72
     1
 10
-53.10050974407827
 20
12.13497053054979
 11
-51.86000533382537
 21
10.82619502034521
 72
     1
 10
-51.86000533382537
 20
10.82619502034521
 11
-50.66721263165897
 21
10.82619502034521
 72
     1
 10
-50.66721263165897
 20
10.82619502034521
 11
-50.66721263165897
 21
13.88000454415629
 72
     1
 10
-50.66721263165897
 20
13.88000454415629
 11
-51.86000533382537
 21
13.88000454415629
 72
     1
 10
-51.86000533382537
 20
13.88000454415629
 11
-51.86000533382537
 21
12.5712290339512
 72
     1
 10
-51.86000533382537
 20
12.5712290339512
 11
-53.10050974407827
 21
13.88000454415629
 97
       10
330
3C8
330
3C9
330
3CA
330
3F6
330
3CB
330
3CC
330
3F5
330
3F8
330
3F7
330
3C7
 75
     1
 76
     0
 52
45.0
 41
0.1
 77
     0
 78
     1
 53
45.0
 43
0.0
 44
0.0
 45
-0.0707106781186548
 46
0.0707106781186548
 79
     0
 98
        1
 10
0.0
 20
0.0
  0
HATCH
  5
4D8
330
71
100
AcDbEntity
  8
1
  6
Continuous
 62
     2
100
AcDbHatch
 10
0.0
 20
0.0
 30
0.0
210
0.0
220
0.0
230
1.0
  2
_USER
 70
     0
 71
     1
 91
        1
 92
        1
 93
       12
 72
     1
 10
-54.10230468301367
 20
17.2391950203307
 11
-54.10230468301367
 21
14.1853854965195
 72
     1
 10
-54.10230468301367
 20
14.1853854965195
 11
-55.29509738518007
 21
14.1853854965195
 72
     1
 10
-55.29509738518007
 20
14.1853854965195
 11
-55.29509738518007
 21
15.31965760536332
 72
     1
 10
-55.29509738518007
 20
15.31965760536332
 11
-56.34475496308755
 21
15.31965760536332
 72
     1
 10
-56.34475496308755
 20
15.31965760536332
 11
-56.34475496308755
 21
14.1853854965195
 72
     1
 10
-56.34475496308755
 20
14.1853854965195
 11
-57.53754766525415
 21
14.1853854965195
 72
     1
 10
-57.53754766525415
 20
14.1853854965195
 11
-57.53754766525415
 21
17.2391950203307
 72
     1
 10
-57.53754766525415
 20
17.2391950203307
 11
-56.34475496308755
 21
17.2391950203307
 72
     1
 10
-56.34475496308755
 20
17.2391950203307
 11
-56.34475496308755
 21
16.1703616869961
 72
     1
 10
-56.34475496308755
 20
16.1703616869961
 11
-55.29509738518007
 21
16.1703616869961
 72
     1
 10
-55.29509738518007
 20
16.1703616869961
 11
-55.29509738518007
 21
17.2391950203307
 72
     1
 10
-55.29509738518007
 20
17.2391950203307
 11
-54.10230468301367
 21
17.2391950203307
 97
       12
330
3F0
330
3EF
330
3EE
330
3D6
330
3D7
330
3ED
330
3D8
330
3EC
330
3EB
330
3EA
330
3D4
330
3D5
 75
     1
 76
     0
 52
45.0
 41
0.1
 77
     0
 78
     1
 53
45.0
 43
0.0
 44
0.0
 45
-0.0707106781186548
 46
0.0707106781186548
 79
     0
 98
        1
 10
0.0
 20
0.0
  0
HATCH
  5
4D9
330
71
100
AcDbEntity
  8
1
  6
Continuous
 62
     2
100
AcDbHatch
 10
0.0
 20
0.0
 30
0.0
210
0.0
220
0.0
230
1.0
  2
_USER
 70
     0
 71
     1
 91
        1
 92
        1
 93
       12
 72
     1
 10
-54.10230468301367
 20
17.2391950203307
 11
-54.10230468301367
 21
14.1853854965195
 72
     1
 10
-54.10230468301367
 20
14.1853854965195
 11
-55.29509738518007
 21
14.1853854965195
 72
     1
 10
-55.29509738518007
 20
14.1853854965195
 11
-55.29509738518007
 21
15.31965760536332
 72
     1
 10
-55.29509738518007
 20
15.31965760536332
 11
-56.34475496308755
 21
15.31965760536332
 72
     1
 10
-56.34475496308755
 20
15.31965760536332
 11
-56.34475496308755
 21
14.1853854965195
 72
     1
 10
-56.34475496308755
 20
14.1853854965195
 11
-57.53754766525415
 21
14.1853854965195
 72
     1
 10
-57.53754766525415
 20
14.1853854965195
 11
-57.53754766525415
 21
17.2391950203307
 72
     1
 10
-57.53754766525415
 20
17.2391950203307
 11
-56.34475496308755
 21
17.2391950203307
 72
     1
 10
-56.34475496308755
 20
17.2391950203307
 11
-56.34475496308755
 21
16.1703616869961
 72
     1
 10
-56.34475496308755
 20
16.1703616869961
 11
-55.29509738518007
 21
16.1703616869961
 72
     1
 10
-55.29509738518007
 20
16.1703616869961
 11
-55.29509738518007
 21
17.2391950203307
 72
     1
 10
-55.29509738518007
 20
17.2391950203307
 11
-54.10230468301367
 21
17.2391950203307
 97
       12
330
3F0
330
3EF
330
3EE
330
3D6
330
3D7
330
3ED
330
3D8
330
3EC
330
3EB
330
3EA
330
3D4
330
3D5
 75
     1
 76
     0
 52
45.0
 41
0.1
 77
     0
 78
     1
 53
45.0
 43
0.0
 44
0.0
 45
-0.0707106781186548
 46
0.0707106781186548
 79
     0
 98
        1
 10
0.0
 20
0.0
  0
ENDBLK
  5
73
330
71
100
AcDbEntity
  8
0
100
AcDbBlockEnd
  0
BLOCK
  5
75
330
74
100
AcDbEntity
  8
0
100
AcDbBlockBegin
  2
_punkt
 70
     0
 10
57.77499913077524
 20
3.5326950203289
 30
0.0
  3
_punkt
  1

  0
LINE
  5
4DA
330
74
100
AcDbEntity
  8
1
  6
Continuous
 62
     2
100
AcDbLine
 10
57.77499913077524
 20
3.5326950203289
 30
0.0
 11
57.77499913077524
 21
-1.46730497967121
 31
0.0
  0
LINE
  5
4DB
330
74
100
AcDbEntity
  8
1
  6
Continuous
 62
     2
100
AcDbLine
 10
57.77499913077524
 20
3.5326950203289
 30
0.0
 11
62.77499913077423
 21
3.5326950203289
 31
0.0
  0
ENDBLK
  5
76
330
74
100
AcDbEntity
  8
0
100
AcDbBlockEnd
  0
BLOCK
  5
7A
330
77
100
AcDbEntity
  8
0
100
AcDbBlockBegin
  2
A4I_CS
 70
     0
 10
57.77499913077524
 20
-1.46730497967121
 30
0.0
  3
A4I_CS
  1

  0
INSERT
  5
78
330
77
100
AcDbEntity
  8
1
100
AcDbBlockReference
  2
_rahmen
 10
57.77499913077524
 20
-1.46730497967121
 30
0.0
  0
INSERT
  5
79
330
77
100
AcDbEntity
  8
1
100
AcDbBlockReference
  2
_punkt
 10
57.77499913077524
 20
3.5326950203289
 30
0.0
  0
ENDBLK
  5
7B
330
77
100
AcDbEntity
  8
0
100
AcDbBlockEnd
  0
BLOCK
  5
84
330
7C
100
AcDbEntity
  8
0
100
AcDbBlockBegin
  2
1
 70
     0
 10
0.0
 20
0.0
 30
0.0
  3
1
  1

  0
INSERT
  5
7D
330
7C
100
AcDbEntity
  8
0
100
AcDbBlockReference
  2
AllgSicht1
 10
-11.99999999998119
 20
79.00000214116005
 30
0.0
  0
INSERT
  5
7E
330
7C
100
AcDbEntity
  8
0
100
AcDbBlockReference
  2
Drfsicht1
 10
-129.0500002616703
 20
70.48336701650658
 30
0.0
  0
INSERT
  5
7F
330
7C
100
AcDbEntity
  8
0
100
AcDbBlockReference
  2
Rckans1
 10
-2.00000000004502
 20
144.0000074724298
 30
0.0
  0
INSERT
  5
80
330
7C
100
AcDbEntity
  8
0
100
AcDbBlockReference
  2
SA_Rechts1
 10
-196.0000000000359
 20
144.0000074724297
 30
0.0
  0
INSERT
  5
81
330
7C
100
AcDbEntity
  8
0
100
AcDbBlockReference
  2
SA_links1
 10
-64.99999999995998
 20
144.00000741898
 30
0.0
  0
INSERT
  5
82
330
7C
100
AcDbEntity
  8
0
100
AcDbBlockReference
  2
Vordans1
 10
-129.0500002616703
 20
144.0000074189799
 30
0.0
  0
INSERT
  5
83
330
7C
100
AcDbEntity
  8
0
100
AcDbBlockReference
  2
A4I_CS
 10
57.77499913077524
 20
-1.46730497967121
 30
0.0
  0
ENDBLK
  5
85
330
7C
100
AcDbEntity
  8
0
100
AcDbBlockEnd
  0
BLOCK
  5
1DB
330
1D2
100
AcDbEntity
  8
0
100
AcDbBlockBegin
  2
*D17
 70
     1
 10
0.0
 20
0.0
 30
0.0
  3
*D17
  1

  0
LINE
  5
1D3
330
1D2
100
AcDbEntity
  8
1
  6
Continuous
 62
     2
100
AcDbLine
 10
-163.3499985233358
 20
58.73336701647155
 30
0.0
 11
-163.3499985233358
 21
65.73336701647155
 31
0.0
  0
LINE
  5
1D4
330
1D2
100
AcDbEntity
  8
1
  6
Continuous
 62
     2
100
AcDbLine
 10
-163.3499985233358
 20
65.73336701647155
 30
0.0
 11
-163.3499985233358
 21
75.23336701647155
 31
0.0
  0
LINE
  5
1D5
330
1D2
100
AcDbEntity
  8
1
  6
Continuous
 62
     2
100
AcDbLine
 10
-163.3499985233358
 20
75.23336701647155
 30
0.0
 11
-163.3499985233358
 21
82.23336701647155
 31
0.0
  0
LINE
  5
1D6
330
1D2
100
AcDbEntity
  8
1
  6
Continuous
 62
     2
100
AcDbLine
 10
-153.3499985233358
 20
65.73336701647155
 30
0.0
 11
-164.8499985233358
 21
65.73336701647155
 31
0.0
  0
LINE
  5
1D7
330
1D2
100
AcDbEntity
  8
1
  6
Continuous
 62
     2
100
AcDbLine
 10
-153.3499985233358
 20
75.23336701647155
 30
0.0
 11
-164.8499985233358
 21
75.23336701647155
 31
0.0
  0
SOLID
  5
1D8
330
1D2
100
AcDbEntity
  8
1
 62
     2
100
AcDbTrace
 10
-162.8892147817799
 20
62.23336701647155
 30
0.0
 11
-163.8107822648917
 21
62.23336701647155
 31
0.0
 12
-163.3499985233358
 22
65.73336701647155
 32
0.0
 13
-163.3499985233358
 23
65.73336701647155
 33
0.0
  0
SOLID
  5
1D9
330
1D2
100
AcDbEntity
  8
1
 62
     2
100
AcDbTrace
 10
-163.8107822648917
 20
78.73336701647155
 30
0.0
 11
-162.8892147817799
 21
78.73336701647155
 31
0.0
 12
-163.3499985233358
 22
75.23336701647155
 32
0.0
 13
-163.3499985233358
 23
75.23336701647155
 33
0.0
  0
MTEXT
  5
1DA
330
1D2
100
AcDbEntity
  8
1
 62
     3
100
AcDbMText
 10
-165.1999985233358
 20
67.30748474431226
 30
0.0
 40
3.5
 41
0.0
 71
     7
 72
     1
  1
9,5
  7
CONVERTER_11
 11
0.0
 21
1.0
 31
0.0
 73
     1
 44
0.60024009603842
  0
ENDBLK
  5
1DC
330
1D2
100
AcDbEntity
  8
0
100
AcDbBlockEnd
  0
BLOCK
  5
373
330
36C
100
AcDbEntity
  8
0
100
AcDbBlockBegin
  2
*D18
 70
     1
 10
0.0
 20
0.0
 30
0.0
  3
*D18
  1

  0
LINE
  5
36D
330
36C
100
AcDbEntity
  8
1
  6
Continuous
 62
     2
100
AcDbLine
 10
-171.647711521578
 20
127.6000128379562
 30
0.0
 11
-171.647711521578
 21
160.4000128379561
 31
0.0
  0
LINE
  5
36E
330
36C
100
AcDbEntity
  8
1
  6
Continuous
 62
     2
100
AcDbLine
 10
-153.3499985233359
 20
127.6000128379562
 30
0.0
 11
-173.147711521578
 21
127.6000128379562
 31
0.0
  0
LINE
  5
36F
330
36C
100
AcDbEntity
  8
1
  6
Continuous
 62
     2
100
AcDbLine
 10
-119.049998523336
 20
160.4000128379561
 30
0.0
 11
-173.147711521578
 21
160.4000128379561
 31
0.0
  0
SOLID
  5
370
330
36C
100
AcDbEntity
  8
1
 62
     2
100
AcDbTrace
 10
-172.1084952631338
 20
131.1000128379562
 30
0.0
 11
-171.1869277800221
 21
131.1000128379562
 31
0.0
 12
-171.647711521578
 22
127.6000128379562
 32
0.0
 13
-171.647711521578
 23
127.6000128379562
 33
0.0
  0
SOLID
  5
371
330
36C
100
AcDbEntity
  8
1
 62
     2
100
AcDbTrace
 10
-171.1869277800221
 20
156.9000128379561
 30
0.0
 11
-172.1084952631338
 21
156.9000128379561
 31
0.0
 12
-171.647711521578
 22
160.4000128379561
 32
0.0
 13
-171.647711521578
 23
160.4000128379561
 33
0.0
  0
MTEXT
  5
372
330
36C
100
AcDbEntity
  8
1
 62
     3
100
AcDbMText
 10
-173.497711521578
 20
140.9152764207533
 30
0.0
 40
3.5
 41
0.0
 71
     7
 72
     1
  1
32,8
  7
CONVERTER_11
 11
0.0
 21
1.0
 31
0.0
 73
     1
 44
0.60024009603842
  0
ENDBLK
  5
374
330
36C
100
AcDbEntity
  8
0
100
AcDbBlockEnd
  0
BLOCK
  5
37E
330
377
100
AcDbEntity
  8
0
100
AcDbBlockBegin
  2
*D19
 70
     1
 10
0.0
 20
0.0
 30
0.0
  3
*D19
  1

  0
LINE
  5
378
330
377
100
AcDbEntity
  8
1
  6
Continuous
 62
     2
100
AcDbLine
 10
-159.1477115215783
 20
132.9000128379561
 30
0.0
 11
-159.1477115215783
 21
160.4000128379561
 31
0.0
  0
LINE
  5
379
330
377
100
AcDbEntity
  8
1
  6
Continuous
 62
     2
100
AcDbLine
 10
-133.0499985233359
 20
132.9000128379561
 30
0.0
 11
-160.6477115215783
 21
132.9000128379561
 31
0.0
  0
LINE
  5
37A
330
377
100
AcDbEntity
  8
1
  6
Continuous
 62
     2
100
AcDbLine
 10
-119.049998523336
 20
160.4000128379561
 30
0.0
 11
-160.6477115215783
 21
160.4000128379561
 31
0.0
  0
SOLID
  5
37B
330
377
100
AcDbEntity
  8
1
 62
     2
100
AcDbTrace
 10
-159.6084952631342
 20
136.4000128379561
 30
0.0
 11
-158.6869277800224
 21
136.4000128379561
 31
0.0
 12
-159.1477115215783
 22
132.9000128379561
 32
0.0
 13
-159.1477115215783
 23
132.9000128379561
 33
0.0
  0
SOLID
  5
37C
330
377
100
AcDbEntity
  8
1
 62
     2
100
AcDbTrace
 10
-158.6869277800224
 20
156.9000128379561
 30
0.0
 11
-159.6084952631342
 21
156.9000128379561
 31
0.0
 12
-159.1477115215783
 22
160.4000128379561
 32
0.0
 13
-159.1477115215783
 23
160.4000128379561
 33
0.0
  0
MTEXT
  5
37D
330
377
100
AcDbEntity
  8
1
 62
     3
100
AcDbMText
 10
-160.9977115215783
 20
143.7581909595573
 30
0.0
 40
3.5
 41
0.0
 71
     7
 72
     1
  1
27,5
  7
CONVERTER_11
 11
0.0
 21
1.0
 31
0.0
 73
     1
 44
0.60024009603842
  0
ENDBLK
  5
37F
330
377
100
AcDbEntity
  8
0
100
AcDbBlockEnd
  0
BLOCK
  5
389
330
382
100
AcDbEntity
  8
0
100
AcDbBlockBegin
  2
*D20
 70
     1
 10
0.0
 20
0.0
 30
0.0
  3
*D20
  1

  0
LINE
  5
383
330
382
100
AcDbEntity
  8
1
  6
Continuous
 62
     2
100
AcDbLine
 10
-129.0499985233357
 20
111.46821838404
 30
0.0
 11
-104.7499985233357
 21
111.46821838404
 31
0.0
  0
LINE
  5
384
330
382
100
AcDbEntity
  8
1
  6
Continuous
 62
     2
100
AcDbLine
 10
-129.0499985233357
 20
129.46821838404
 30
0.0
 11
-129.0499985233357
 21
109.96821838404
 31
0.0
  0
LINE
  5
385
330
382
100
AcDbEntity
  8
1
  6
Continuous
 62
     2
100
AcDbLine
 10
-104.7499985233357
 20
127.6000128379562
 30
0.0
 11
-104.7499985233357
 21
109.96821838404
 31
0.0
  0
SOLID
  5
386
330
382
100
AcDbEntity
  8
1
 62
     2
100
AcDbTrace
 10
-125.5499985233357
 20
111.9290021255959
 30
0.0
 11
-125.5499985233357
 21
111.0074346424841
 31
0.0
 12
-129.0499985233357
 22
111.46821838404
 32
0.0
 13
-129.0499985233357
 23
111.46821838404
 33
0.0
  0
SOLID
  5
387
330
382
100
AcDbEntity
  8
1
 62
     2
100
AcDbTrace
 10
-108.2499985233357
 20
111.0074346424841
 30
0.0
 11
-108.2499985233357
 21
111.9290021255959
 31
0.0
 12
-104.7499985233357
 22
111.46821838404
 32
0.0
 13
-104.7499985233357
 23
111.46821838404
 33
0.0
  0
MTEXT
  5
388
330
382
100
AcDbEntity
  8
1
 62
     3
100
AcDbMText
 10
-121.650440380897
 20
113.31821838404
 30
0.0
 40
3.5
 41
0.0
 71
     7
 72
     1
  1
24,3
  7
CONVERTER_11
 11
0.9999999999970619
 21
2.424068405545306E-6
 31
0.0
 73
     1
 44
0.60024009603842
  0
ENDBLK
  5
38A
330
382
100
AcDbEntity
  8
0
100
AcDbBlockEnd
  0
BLOCK
  5
394
330
38D
100
AcDbEntity
  8
0
100
AcDbBlockBegin
  2
*D21
 70
     1
 10
0.0
 20
0.0
 30
0.0
  3
*D21
  1

  0
LINE
  5
38E
330
38D
100
AcDbEntity
  8
1
  6
Continuous
 62
     2
100
AcDbLine
 10
-129.0499985233358
 20
119.46821838404
 30
0.0
 11
-111.5629430165265
 21
119.46821838404
 31
0.0
  0
LINE
  5
38F
330
38D
100
AcDbEntity
  8
1
  6
Continuous
 62
     2
100
AcDbLine
 10
-129.0499985233358
 20
129.46821838404
 30
0.0
 11
-129.0499985233358
 21
117.96821838404
 31
0.0
  0
LINE
  5
390
330
38D
100
AcDbEntity
  8
1
  6
Continuous
 62
     2
100
AcDbLine
 10
-111.5629430165265
 20
132.7070625622994
 30
0.0
 11
-111.5629430165265
 21
117.96821838404
 31
0.0
  0
SOLID
  5
391
330
38D
100
AcDbEntity
  8
1
 62
     2
100
AcDbTrace
 10
-125.5499985233358
 20
119.9290021255959
 30
0.0
 11
-125.5499985233358
 21
119.0074346424841
 31
0.0
 12
-129.0499985233358
 22
119.46821838404
 32
0.0
 13
-129.0499985233358
 23
119.46821838404
 33
0.0
  0
SOLID
  5
392
330
38D
100
AcDbEntity
  8
1
 62
     2
100
AcDbTrace
 10
-115.0629430165265
 20
119.0074346424841
 30
0.0
 11
-115.0629430165265
 21
119.9290021255959
 31
0.0
 12
-111.5629430165265
 22
119.46821838404
 32
0.0
 13
-111.5629430165265
 23
119.46821838404
 33
0.0
  0
MTEXT
  5
393
330
38D
100
AcDbEntity
  8
1
 62
     3
100
AcDbMText
 10
-124.972905819997
 20
121.31821838404
 30
0.0
 40
3.5
 41
0.0
 71
     7
 72
     1
  1
17,5
  7
CONVERTER_11
 11
0.9999999999970619
 21
2.424068405545306E-6
 31
0.0
 73
     1
 44
0.60024009603842
  0
ENDBLK
  5
395
330
38D
100
AcDbEntity
  8
0
100
AcDbBlockEnd
  0
BLOCK
  5
39F
330
398
100
AcDbEntity
  8
0
100
AcDbBlockBegin
  2
*D22
 70
     1
 10
0.0
 20
0.0
 30
0.0
  3
*D22
  1

  0
LINE
  5
399
330
398
100
AcDbEntity
  8
1
  6
Continuous
 62
     2
100
AcDbLine
 10
-104.7499985233358
 20
100.7004437157346
 30
0.0
 11
-153.349998523336
 21
100.7004437157346
 31
0.0
  0
LINE
  5
39A
330
398
100
AcDbEntity
  8
1
  6
Continuous
 62
     2
100
AcDbLine
 10
-104.7499985233358
 20
151.3000128379555
 30
0.0
 11
-104.7499985233358
 21
98.70044371573461
 31
0.0
  0
LINE
  5
39B
330
398
100
AcDbEntity
  8
1
  6
Continuous
 62
     2
100
AcDbLine
 10
-153.349998523336
 20
127.6000128379563
 30
0.0
 11
-153.349998523336
 21
98.70044371573461
 31
0.0
  0
SOLID
  5
39C
330
398
100
AcDbEntity
  8
1
 62
     2
100
AcDbTrace
 10
-108.2499985233358
 20
100.2396599741787
 30
0.0
 11
-108.2499985233358
 21
101.1612274572905
 31
0.0
 12
-104.7499985233358
 22
100.7004437157346
 32
0.0
 13
-104.7499985233358
 23
100.7004437157346
 33
0.0
  0
SOLID
  5
39D
330
398
100
AcDbEntity
  8
1
 62
     2
100
AcDbTrace
 10
-149.849998523336
 20
101.1612274572905
 30
0.0
 11
-149.849998523336
 21
100.2396599741787
 31
0.0
 12
-153.349998523336
 22
100.7004437157346
 32
0.0
 13
-153.349998523336
 23
100.7004437157346
 33
0.0
  0
MTEXT
  5
39E
330
398
100
AcDbEntity
  8
1
 62
     3
100
AcDbMText
 10
-135.3198520429901
 20
103.0504437157346
 30
0.0
 40
3.5
 41
0.0
 71
     7
 72
     1
  1
48,6
  7
CONVERTER_11
 11
0.9999999999970619
 21
2.424068405545306E-6
 31
0.0
 73
     1
 44
0.60024009603842
  0
ENDBLK
  5
3A0
330
398
100
AcDbEntity
  8
0
100
AcDbBlockEnd
  0
ENDSEC
  0
SECTION
  2
ENTITIES
  0
INSERT
  5
86
330
1F
100
AcDbEntity
  8
1
100
AcDbBlockReference
  2
1
 10
0.0
 20
0.0
 30
0.0
  0
ENDSEC
  0
SECTION
  2
OBJECTS
  0
DICTIONARY
  5
C
330
0
100
AcDbDictionary
281
     1
  3
ACAD_GROUP
350
D
  3
ACAD_LAYOUT
350
1A
  3
ACAD_MATERIAL
350
3B
  3
ACAD_MLEADERSTYLE
350
503
  3
ACAD_MLINESTYLE
350
17
  3
ACAD_PLOTSETTINGS
350
19
  3
ACAD_PLOTSTYLENAME
350
E
  3
ACAD_TABLESTYLE
350
502
  3
ACAD_VISUALSTYLE
350
2A
  0
DICTIONARY
  5
D
102
{ACAD_REACTORS
330
C
102
}
330
C
100
AcDbDictionary
281
     1
  0
DICTIONARY
  5
1A
102
{ACAD_REACTORS
330
C
102
}
330
C
100
AcDbDictionary
281
     1
  3
Layout1
350
1E
  3
Layout2
350
26
  3
Model
350
22
  0
DICTIONARY
  5
3B
102
{ACAD_REACTORS
330
C
102
}
330
C
100
AcDbDictionary
281
     1
  3
ByBlock
350
3D
  3
ByLayer
350
3C
  3
Global
350
3E
  0
DICTIONARY
  5
503
102
{ACAD_REACTORS
330
C
102
}
330
C
100
AcDbDictionary
281
     1
  0
DICTIONARY
  5
17
102
{ACAD_REACTORS
330
C
102
}
330
C
100
AcDbDictionary
281
     1
  3
Standard
350
18
  0
DICTIONARY
  5
19
102
{ACAD_REACTORS
330
C
102
}
330
C
100
AcDbDictionary
281
     1
  0
ACDBDICTIONARYWDFLT
  5
E
102
{ACAD_REACTORS
330
C
102
}
330
C
100
AcDbDictionary
281
     1
  3
Normal
350
F
100
AcDbDictionaryWithDefault
340
F
  0
DICTIONARY
  5
502
102
{ACAD_REACTORS
330
C
102
}
330
C
100
AcDbDictionary
281
     1
  0
DICTIONARY
  5
2A
102
{ACAD_REACTORS
330
C
102
}
330
C
100
AcDbDictionary
281
     1
  3
2dWireframe
350
2F
  3
3D Hidden
350
31
  3
3dWireframe
350
30
  3
Basic
350
32
  3
Brighten
350
36
  3
ColorChange
350
3A
  3
Conceptual
350
34
  3
Dim
350
35
  3
Facepattern
350
39
  3
Flat
350
2B
  3
FlatWithEdges
350
2C
  3
Gouraud
350
2D
  3
GouraudWithEdges
350
2E
  3
Linepattern
350
38
  3
Realistic
350
33
  3
Thicken
350
37
  0
LAYOUT
  5
1E
102
{ACAD_REACTORS
330
1A
102
}
330
1A
100
AcDbPlotSettings
  1

  2
none_device
  4

  6

 40
0.0
 41
0.0
 42
0.0
 43
0.0
 44
0.0
 45
0.0
 46
0.0
 47
0.0
 48
0.0
 49
0.0
140
0.0
141
0.0
142
1.0
143
1.0
 70
   688
 72
     0
 73
     0
 74
     5
  7

 75
    16
 76
     0
 77
     2
 78
   300
147
1.0
148
0.0
149
0.0
100
AcDbLayout
  1
Layout1
 70
     1
 71
     1
 10
0.0
 20
0.0
 11
12.0
 21
9.0
 12
0.0
 22
0.0
 32
0.0
 14
1.00000000000000E+20
 24
1.00000000000000E+20
 34
1.00000000000000E+20
 15
-1.00000000000000E+20
 25
-1.00000000000000E+20
 35
-1.00000000000000E+20
146
0.0
 13
0.0
 23
0.0
 33
0.0
 16
1.0
 26
0.0
 36
0.0
 17
0.0
 27
1.0
 37
0.0
 76
     0
330
1B
  0
LAYOUT
  5
26
102
{ACAD_REACTORS
330
1A
102
}
330
1A
100
AcDbPlotSettings
  1

  2
none_device
  4

  6

 40
0.0
 41
0.0
 42
0.0
 43
0.0
 44
0.0
 45
0.0
 46
0.0
 47
0.0
 48
0.0
 49
0.0
140
0.0
141
0.0
142
1.0
143
1.0
 70
   688
 72
     0
 73
     0
 74
     5
  7

 75
    16
 76
     0
 77
     2
 78
   300
147
1.0
148
0.0
149
0.0
100
AcDbLayout
  1
Layout2
 70
     1
 71
     2
 10
0.0
 20
0.0
 11
0.0
 21
0.0
 12
0.0
 22
0.0
 32
0.0
 14
0.0
 24
0.0
 34
0.0
 15
0.0
 25
0.0
 35
0.0
146
0.0
 13
0.0
 23
0.0
 33
0.0
 16
1.0
 26
0.0
 36
0.0
 17
0.0
 27
1.0
 37
0.0
 76
     0
330
23
  0
LAYOUT
  5
22
102
{ACAD_REACTORS
330
1A
102
}
330
1A
100
AcDbPlotSettings
  1

  2
none_device
  4

  6

 40
0.0
 41
0.0
 42
0.0
 43
0.0
 44
0.0
 45
0.0
 46
0.0
 47
0.0
 48
0.0
 49
0.0
140
0.0
141
0.0
142
1.0
143
1.0
 70
  1712
 72
     0
 73
     0
 74
     0
  7

 75
     0
 76
     0
 77
     2
 78
   300
147
1.0
148
0.0
149
0.0
100
AcDbLayout
  1
Model
 70
     1
 71
     0
 10
0.0
 20
0.0
 11
12.0
 21
9.0
 12
0.0
 22
0.0
 32
0.0
 14
-234.2250008692238
 24
-1.46730497967121
 34
0.0
 15
62.77499913077423
 25
208.5326950203289
 35
0.0
146
0.0
 13
0.0
 23
0.0
 33
0.0
 16
1.0
 26
0.0
 36
0.0
 17
0.0
 27
1.0
 37
0.0
 76
     0
330
1F
331
29
  0
MATERIAL
  5
3D
102
{ACAD_REACTORS
330
3B
102
}
102
{ACAD_XDICTIONARY
360
4FE
102
}
330
3B
100
AcDbMaterial
  1
ByBlock
  0
MATERIAL
  5
3C
102
{ACAD_REACTORS
330
3B
102
}
102
{ACAD_XDICTIONARY
360
4FC
102
}
330
3B
100
AcDbMaterial
  1
ByLayer
  0
MATERIAL
  5
3E
102
{ACAD_REACTORS
330
3B
102
}
102
{ACAD_XDICTIONARY
360
500
102
}
330
3B
100
AcDbMaterial
  1
Global
  0
MLINESTYLE
  5
18
102
{ACAD_REACTORS
330
17
102
}
330
17
100
AcDbMlineStyle
  2
Standard
 70
     0
  3

 62
   256
 51
90.0
 52
90.0
 71
     2
 49
0.5
 62
   256
  6
BYLAYER
 49
-0.5
 62
   256
  6
BYLAYER
  0
ACDBPLACEHOLDER
  5
F
102
{ACAD_REACTORS
330
E
102
}
330
E
  0
VISUALSTYLE
  5
2F
102
{ACAD_REACTORS
330
2A
102
}
102
{ACAD_XDICTIONARY
360
4E4
102
}
330
2A
100
AcDbVisualStyle
  2
2dWireframe
 70
     4
 71
     0
 72
     2
 73
     0
 90
        0
 40
-0.6
 41
-30.0
 62
     5
 63
     7
421
 16777215
 74
     1
 91
        4
 64
     7
 65
   257
 75
     1
175
     1
 42
1.0
 92
        0
 66
   257
 43
1.0
 76
     1
 77
     6
 78
     2
 67
     7
 79
     5
170
     0
171
     0
290
     0
174
     0
 93
        1
 44
0.0
173
     0
291
     0
 45
0.0
1001
ACAD
1000
AcDbSavedByObjectVersion
1070
     0
  0
VISUALSTYLE
  5
31
102
{ACAD_REACTORS
330
2A
102
}
102
{ACAD_XDICTIONARY
360
4E8
102
}
330
2A
100
AcDbVisualStyle
  2
3D Hidden
 70
     6
 71
     1
 72
     2
 73
     2
 90
        0
 40
-0.6
 41
-30.0
 62
     5
 63
     7
421
 16777215
 74
     2
 91
        2
 64
     7
 65
   257
 75
     2
175
     1
 42
40.0
 92
        0
 66
   257
 43
1.0
 76
     1
 77
     6
 78
     2
 67
     7
 79
     3
170
     0
171
     0
290
     0
174
     0
 93
        1
 44
0.0
173
     0
291
     0
 45
0.0
1001
ACAD
1000
AcDbSavedByObjectVersion
1070
     0
  0
VISUALSTYLE
  5
30
102
{ACAD_REACTORS
330
2A
102
}
102
{ACAD_XDICTIONARY
360
4E6
102
}
330
2A
100
AcDbVisualStyle
  2
3dWireframe
 70
     5
 71
     0
 72
     2
 73
     0
 90
        0
 40
-0.6
 41
-30.0
 62
     5
 63
     7
421
 16777215
 74
     1
 91
        4
 64
     7
 65
   257
 75
     1
175
     1
 42
1.0
 92
        0
 66
   257
 43
1.0
 76
     1
 77
     6
 78
     2
 67
     7
 79
     5
170
     0
171
     0
290
     0
174
     0
 93
        1
 44
0.0
173
     0
291
     0
 45
0.0
1001
ACAD
1000
AcDbSavedByObjectVersion
1070
     0
  0
VISUALSTYLE
  5
32
102
{ACAD_REACTORS
330
2A
102
}
102
{ACAD_XDICTIONARY
360
4EA
102
}
330
2A
100
AcDbVisualStyle
  2
Basic
 70
     7
 71
     1
 72
     0
 73
     1
 90
        0
 40
-0.6
 41
-30.0
 62
     5
 63
     7
421
 16777215
 74
     0
 91
        4
 64
     7
 65
   257
 75
     1
175
     1
 42
1.0
 92
        8
 66
     7
 43
1.0
 76
     1
 77
     6
 78
     2
 67
     7
 79
     5
170
     0
171
     0
290
     0
174
     0
 93
        1
 44
0.0
173
     0
291
     1
 45
0.0
1001
ACAD
1000
AcDbSavedByObjectVersion
1070
     0
  0
VISUALSTYLE
  5
36
102
{ACAD_REACTORS
330
2A
102
}
102
{ACAD_XDICTIONARY
360
4F2
102
}
330
2A
100
AcDbVisualStyle
  2
Brighten
 70
    12
 71
     2
 72
     2
 73
     0
 90
        0
 40
-0.6
 41
-30.0
 62
     5
 63
     7
421
 16777215
 74
     1
 91
        4
 64
     7
 65
   257
 75
     1
175
     1
 42
1.0
 92
        8
 66
     7
 43
1.0
 76
     1
 77
     6
 78
     2
 67
     7
 79
     5
170
     0
171
     0
290
     0
174
     0
 93
        1
 44
50.0
173
     0
291
     1
 45
0.0
1001
ACAD
1000
AcDbSavedByObjectVersion
1070
     0
  0
VISUALSTYLE
  5
3A
102
{ACAD_REACTORS
330
2A
102
}
102
{ACAD_XDICTIONARY
360
4FA
102
}
330
2A
100
AcDbVisualStyle
  2
ColorChange
 70
    16
 71
     2
 72
     2
 73
     3
 90
        0
 40
-0.6
 41
-30.0
 62
     5
 63
     8
421
  8421504
 74
     1
 91
        4
 64
     7
 65
   257
 75
     1
175
     1
 42
1.0
 92
        8
 66
     8
424
  8421504
 43
1.0
 76
     1
 77
     6
 78
     2
 67
     7
 79
     5
170
     0
171
     0
290
     0
174
     0
 93
        1
 44
0.0
173
     0
291
     1
 45
0.0
1001
ACAD
1000
AcDbSavedByObjectVersion
1070
     0
  0
VISUALSTYLE
  5
34
102
{ACAD_REACTORS
330
2A
102
}
102
{ACAD_XDICTIONARY
360
4EE
102
}
330
2A
100
AcDbVisualStyle
  2
Conceptual
 70
     9
 71
     3
 72
     2
 73
     0
 90
        0
 40
-0.6
 41
-30.0
 62
     5
 63
     7
421
 16777215
 74
     2
 91
        2
 64
     7
 65
   257
 75
     1
175
     1
 42
40.0
 92
        8
 66
     7
 43
1.0
 76
     1
 77
     6
 78
     2
 67
     7
 79
     3
170
     0
171
     0
290
     0
174
     0
 93
        1
 44
0.0
173
     0
291
     0
 45
0.0
1001
ACAD
1000
AcDbSavedByObjectVersion
1070
     0
  0
VISUALSTYLE
  5
35
102
{ACAD_REACTORS
330
2A
102
}
102
{ACAD_XDICTIONARY
360
4F0
102
}
330
2A
100
AcDbVisualStyle
  2
Dim
 70
    11
 71
     2
 72
     2
 73
     0
 90
        0
 40
-0.6
 41
-30.0
 62
     5
 63
     7
421
 16777215
 74
     1
 91
        4
 64
     7
 65
   257
 75
     1
175
     1
 42
1.0
 92
        8
 66
     7
 43
1.0
 76
     1
 77
     6
 78
     2
 67
     7
 79
     5
170
     0
171
     0
290
     0
174
     0
 93
        1
 44
-50.0
173
     0
291
     1
 45
0.0
1001
ACAD
1000
AcDbSavedByObjectVersion
1070
     0
  0
VISUALSTYLE
  5
39
102
{ACAD_REACTORS
330
2A
102
}
102
{ACAD_XDICTIONARY
360
4F8
102
}
330
2A
100
AcDbVisualStyle
  2
Facepattern
 70
    15
 71
     2
 72
     2
 73
     0
 90
        0
 40
-0.6
 41
-30.0
 62
     5
 63
     7
421
 16777215
 74
     1
 91
        4
 64
     7
 65
   257
 75
     1
175
     1
 42
1.0
 92
        8
 66
     7
 43
1.0
 76
     1
 77
     6
 78
     2
 67
     7
 79
     5
170
     0
171
     0
290
     0
174
     0
 93
        1
 44
0.0
173
     0
291
     1
 45
0.0
1001
ACAD
1000
AcDbSavedByObjectVersion
1070
     0
  0
VISUALSTYLE
  5
2B
102
{ACAD_REACTORS
330
2A
102
}
102
{ACAD_XDICTIONARY
360
4DC
102
}
330
2A
100
AcDbVisualStyle
  2
Flat
 70
     0
 71
     2
 72
     1
 73
     1
 90
        2
 40
-0.6
 41
30.0
 62
     5
 63
     7
421
 16777215
 74
     0
 91
        4
 64
     7
 65
   257
 75
     1
175
     1
 42
1.0
 92
        8
 66
     7
 43
1.0
 76
     1
 77
     6
 78
     2
 67
     7
 79
     5
170
     0
171
     0
290
     0
174
     0
 93
       13
 44
0.0
173
     0
291
     1
 45
0.0
1001
ACAD
1000
AcDbSavedByObjectVersion
1070
     0
  0
VISUALSTYLE
  5
2C
102
{ACAD_REACTORS
330
2A
102
}
102
{ACAD_XDICTIONARY
360
4DE
102
}
330
2A
100
AcDbVisualStyle
  2
FlatWithEdges
 70
     1
 71
     2
 72
     1
 73
     1
 90
        2
 40
-0.6
 41
30.0
 62
     5
 63
     7
421
 16777215
 74
     1
 91
        4
 64
     7
 65
   257
 75
     1
175
     1
 42
1.0
 92
        0
 66
   257
 43
1.0
 76
     1
 77
     6
 78
     2
 67
     7
 79
     5
170
     0
171
     0
290
     0
174
     0
 93
       13
 44
0.0
173
     0
291
     1
 45
0.0
1001
ACAD
1000
AcDbSavedByObjectVersion
1070
     0
  0
VISUALSTYLE
  5
2D
102
{ACAD_REACTORS
330
2A
102
}
102
{ACAD_XDICTIONARY
360
4E0
102
}
330
2A
100
AcDbVisualStyle
  2
Gouraud
 70
     2
 71
     2
 72
     2
 73
     1
 90
        2
 40
-0.6
 41
30.0
 62
     5
 63
     7
421
 16777215
 74
     0
 91
        4
 64
     7
 65
   257
 75
     1
175
     1
 42
1.0
 92
        0
 66
     7
 43
1.0
 76
     1
 77
     6
 78
     2
 67
     7
 79
     5
170
     0
171
     0
290
     0
174
     0
 93
       13
 44
0.0
173
     0
291
     1
 45
0.0
1001
ACAD
1000
AcDbSavedByObjectVersion
1070
     0
  0
VISUALSTYLE
  5
2E
102
{ACAD_REACTORS
330
2A
102
}
102
{ACAD_XDICTIONARY
360
4E2
102
}
330
2A
100
AcDbVisualStyle
  2
GouraudWithEdges
 70
     3
 71
     2
 72
     2
 73
     1
 90
        2
 40
-0.6
 41
30.0
 62
     5
 63
     7
421
 16777215
 74
     1
 91
        4
 64
     7
 65
   257
 75
     1
175
     1
 42
1.0
 92
        0
 66
   257
 43
1.0
 76
     1
 77
     6
 78
     2
 67
     7
 79
     5
170
     0
171
     0
290
     0
174
     0
 93
       13
 44
0.0
173
     0
291
     1
 45
0.0
1001
ACAD
1000
AcDbSavedByObjectVersion
1070
     0
  0
VISUALSTYLE
  5
38
102
{ACAD_REACTORS
330
2A
102
}
102
{ACAD_XDICTIONARY
360
4F6
102
}
330
2A
100
AcDbVisualStyle
  2
Linepattern
 70
    14
 71
     2
 72
     2
 73
     0
 90
        0
 40
-0.6
 41
-30.0
 62
     5
 63
     7
421
 16777215
 74
     1
 91
        4
 64
     7
 65
   257
 75
     7
175
     7
 42
1.0
 92
        8
 66
     7
 43
1.0
 76
     1
 77
     6
 78
     2
 67
     7
 79
     5
170
     0
171
     0
290
     0
174
     0
 93
        1
 44
0.0
173
     0
291
     1
 45
0.0
1001
ACAD
1000
AcDbSavedByObjectVersion
1070
     0
  0
VISUALSTYLE
  5
33
102
{ACAD_REACTORS
330
2A
102
}
102
{ACAD_XDICTIONARY
360
4EC
102
}
330
2A
100
AcDbVisualStyle
  2
Realistic
 70
     8
 71
     2
 72
     2
 73
     0
 90
        0
 40
-0.6
 41
-30.0
 62
     5
 63
     7
421
 16777215
 74
     1
 91
        0
 64
     7
 65
   257
 75
     1
175
     1
 42
1.0
 92
        8
 66
     8
424
  7895160
 43
1.0
 76
     1
 77
     6
 78
     2
 67
     7
 79
     5
170
     0
171
     0
290
     0
174
     0
 93
       13
 44
0.0
173
     0
291
     0
 45
0.0
1001
ACAD
1000
AcDbSavedByObjectVersion
1070
     0
  0
VISUALSTYLE
  5
37
102
{ACAD_REACTORS
330
2A
102
}
102
{ACAD_XDICTIONARY
360
4F4
102
}
330
2A
100
AcDbVisualStyle
  2
Thicken
 70
    13
 71
     2
 72
     2
 73
     0
 90
        0
 40
-0.6
 41
-30.0
 62
     5
 63
     7
421
 16777215
 74
     1
 91
        4
 64
     7
 65
   257
 75
     1
175
     1
 42
1.0
 92
       12
 66
     7
 43
1.0
 76
     1
 77
     6
 78
     2
 67
     7
 79
     5
170
     0
171
     0
290
     0
174
     0
 93
        1
 44
0.0
173
     0
291
     1
 45
0.0
1001
ACAD
1000
AcDbSavedByObjectVersion
1070
     0
  0
DICTIONARY
  5
4FE
330
3D
100
AcDbDictionary
280
     1
281
     1
  3
ACAD_XREC_ROUNDTRIP
360
4FF
  0
DICTIONARY
  5
4FC
330
3C
100
AcDbDictionary
280
     1
281
     1
  3
ACAD_XREC_ROUNDTRIP
360
4FD
  0
DICTIONARY
  5
500
330
3E
100
AcDbDictionary
280
     1
281
     1
  3
ACAD_XREC_ROUNDTRIP
360
501
  0
DICTIONARY
  5
4E4
330
2F
100
AcDbDictionary
280
     1
281
     1
  3
ACAD_XREC_ROUNDTRIP
360
4E5
  0
DICTIONARY
  5
4E8
330
31
100
AcDbDictionary
280
     1
281
     1
  3
ACAD_XREC_ROUNDTRIP
360
4E9
  0
DICTIONARY
  5
4E6
330
30
100
AcDbDictionary
280
     1
281
     1
  3
ACAD_XREC_ROUNDTRIP
360
4E7
  0
DICTIONARY
  5
4EA
330
32
100
AcDbDictionary
280
     1
281
     1
  3
ACAD_XREC_ROUNDTRIP
360
4EB
  0
DICTIONARY
  5
4F2
330
36
100
AcDbDictionary
280
     1
281
     1
  3
ACAD_XREC_ROUNDTRIP
360
4F3
  0
DICTIONARY
  5
4FA
330
3A
100
AcDbDictionary
280
     1
281
     1
  3
ACAD_XREC_ROUNDTRIP
360
4FB
  0
DICTIONARY
  5
4EE
330
34
100
AcDbDictionary
280
     1
281
     1
  3
ACAD_XREC_ROUNDTRIP
360
4EF
  0
DICTIONARY
  5
4F0
330
35
100
AcDbDictionary
280
     1
281
     1
  3
ACAD_XREC_ROUNDTRIP
360
4F1
  0
DICTIONARY
  5
4F8
330
39
100
AcDbDictionary
280
     1
281
     1
  3
ACAD_XREC_ROUNDTRIP
360
4F9
  0
DICTIONARY
  5
4DC
330
2B
100
AcDbDictionary
280
     1
281
     1
  3
ACAD_XREC_ROUNDTRIP
360
4DD
  0
DICTIONARY
  5
4DE
330
2C
100
AcDbDictionary
280
     1
281
     1
  3
ACAD_XREC_ROUNDTRIP
360
4DF
  0
DICTIONARY
  5
4E0
330
2D
100
AcDbDictionary
280
     1
281
     1
  3
ACAD_XREC_ROUNDTRIP
360
4E1
  0
DICTIONARY
  5
4E2
330
2E
100
AcDbDictionary
280
     1
281
     1
  3
ACAD_XREC_ROUNDTRIP
360
4E3
  0
DICTIONARY
  5
4F6
330
38
100
AcDbDictionary
280
     1
281
     1
  3
ACAD_XREC_ROUNDTRIP
360
4F7
  0
DICTIONARY
  5
4EC
330
33
100
AcDbDictionary
280
     1
281
     1
  3
ACAD_XREC_ROUNDTRIP
360
4ED
  0
DICTIONARY
  5
4F4
330
37
100
AcDbDictionary
280
     1
281
     1
  3
ACAD_XREC_ROUNDTRIP
360
4F5
  0
XRECORD
  5
4FF
102
{ACAD_REACTORS
330
4FE
102
}
330
4FE
100
AcDbXrecord
280
     1
102
MATERIAL
148
0.0
149
0.0
149
0.0
 93
        0
 94
      127
282
     0
 72
     1
 77
     1
171
     1
175
     1
179
     1
273
     0
  0
XRECORD
  5
4FD
102
{ACAD_REACTORS
330
4FC
102
}
330
4FC
100
AcDbXrecord
280
     1
102
MATERIAL
148
0.0
149
0.0
149
0.0
 93
        0
 94
      127
282
     0
 72
     1
 77
     1
171
     1
175
     1
179
     1
273
     0
  0
XRECORD
  5
501
102
{ACAD_REACTORS
330
500
102
}
330
500
100
AcDbXrecord
280
     1
102
MATERIAL
148
0.0
149
0.0
149
0.0
 93
        0
 94
      127
282
     0
 72
     1
 77
     1
171
     1
175
     1
179
     1
273
     0
  0
XRECORD
  5
4E5
102
{ACAD_REACTORS
330
4E4
102
}
330
4E4
100
AcDbXrecord
280
     1
102
RTVSPropertyOp0
 70
     1
102
RTVSPropertyOp1
 70
     1
102
RTVSPropertyOp2
 70
     1
102
RTVSPropertyOp3
 70
     1
102
RTVSPropertyOp4
 70
     1
102
RTVSPropertyOp5
 70
     1
102
RTVSPropertyOp6
 70
     1
102
RTVSPropertyOp7
 70
     1
102
RTVSPropertyOp8
 70
     1
102
RTVSPropertyOp9
 70
     1
102
RTVSPropertyOp10
 70
     1
102
RTVSPropertyOp11
 70
     1
102
RTVSPropertyOp12
 70
     1
102
RTVSPropertyOp13
 70
     1
102
RTVSPropertyOp14
 70
     1
102
RTVSPropertyOp15
 70
     1
102
RTVSPropertyOp16
 70
     1
102
RTVSPropertyOp17
 70
     1
102
RTVSPropertyOp18
 70
     1
102
RTVSPropertyOp19
 70
     1
102
RTVSPropertyOp20
 70
     1
102
RTVSPropertyOp21
 70
     1
102
RTVSPropertyOp22
 70
     1
102
RTVSPropertyOp23
 70
     1
102
RTVSPropertyOp24
 70
     1
102
RTVSPropertyOp25
 70
     1
102
RTVSPropertyOp26
 70
     1
102
RTVSPropertyOp27
 70
     1
102
RTVSPropertyOp28
 70
     1
102
RTVSPropertyOp29
 70
     1
102
RTVSPropertyOp30
 70
     1
102
RTVSPropertyOp31
 70
     1
102
RTVSPropertyOp32
 70
     1
  0
XRECORD
  5
4E9
102
{ACAD_REACTORS
330
4E8
102
}
330
4E8
100
AcDbXrecord
280
     1
102
RTVSPropertyOp0
 70
     1
102
RTVSPropertyOp1
 70
     1
102
RTVSPropertyOp2
 70
     1
102
RTVSPropertyOp3
 70
     1
102
RTVSPropertyOp4
 70
     1
102
RTVSPropertyOp5
 70
     1
102
RTVSPropertyOp6
 70
     1
102
RTVSPropertyOp7
 70
     1
102
RTVSPropertyOp8
 70
     1
102
RTVSPropertyOp9
 70
     1
102
RTVSPropertyOp10
 70
     1
102
RTVSPropertyOp11
 70
     1
102
RTVSPropertyOp12
 70
     1
102
RTVSPropertyOp13
 70
     1
102
RTVSPropertyOp14
 70
     1
102
RTVSPropertyOp15
 70
     1
102
RTVSPropertyOp16
 70
     1
102
RTVSPropertyOp17
 70
     1
102
RTVSPropertyOp18
 70
     1
102
RTVSPropertyOp19
 70
     1
102
RTVSPropertyOp20
 70
     1
102
RTVSPropertyOp21
 70
     1
102
RTVSPropertyOp22
 70
     1
102
RTVSPropertyOp23
 70
     1
102
RTVSPropertyOp24
 70
     1
102
RTVSPropertyOp25
 70
     1
102
RTVSPropertyOp26
 70
     1
102
RTVSPropertyOp27
 70
     1
102
RTVSPropertyOp28
 70
     1
102
RTVSPropertyOp29
 70
     1
102
RTVSPropertyOp30
 70
     1
102
RTVSPropertyOp31
 70
     1
102
RTVSPropertyOp32
 70
     1
  0
XRECORD
  5
4E7
102
{ACAD_REACTORS
330
4E6
102
}
330
4E6
100
AcDbXrecord
280
     1
102
RTVSPropertyOp0
 70
     1
102
RTVSPropertyOp1
 70
     1
102
RTVSPropertyOp2
 70
     1
102
RTVSPropertyOp3
 70
     1
102
RTVSPropertyOp4
 70
     1
102
RTVSPropertyOp5
 70
     1
102
RTVSPropertyOp6
 70
     1
102
RTVSPropertyOp7
 70
     1
102
RTVSPropertyOp8
 70
     1
102
RTVSPropertyOp9
 70
     1
102
RTVSPropertyOp10
 70
     1
102
RTVSPropertyOp11
 70
     1
102
RTVSPropertyOp12
 70
     1
102
RTVSPropertyOp13
 70
     1
102
RTVSPropertyOp14
 70
     1
102
RTVSPropertyOp15
 70
     1
102
RTVSPropertyOp16
 70
     1
102
RTVSPropertyOp17
 70
     1
102
RTVSPropertyOp18
 70
     1
102
RTVSPropertyOp19
 70
     1
102
RTVSPropertyOp20
 70
     1
102
RTVSPropertyOp21
 70
     1
102
RTVSPropertyOp22
 70
     1
102
RTVSPropertyOp23
 70
     1
102
RTVSPropertyOp24
 70
     1
102
RTVSPropertyOp25
 70
     1
102
RTVSPropertyOp26
 70
     1
102
RTVSPropertyOp27
 70
     1
102
RTVSPropertyOp28
 70
     1
102
RTVSPropertyOp29
 70
     1
102
RTVSPropertyOp30
 70
     1
102
RTVSPropertyOp31
 70
     1
102
RTVSPropertyOp32
 70
     1
  0
XRECORD
  5
4EB
102
{ACAD_REACTORS
330
4EA
102
}
330
4EA
100
AcDbXrecord
280
     1
102
RTVSPropertyOp0
 70
     1
102
RTVSPropertyOp1
 70
     1
102
RTVSPropertyOp2
 70
     1
102
RTVSPropertyOp3
 70
     1
102
RTVSPropertyOp4
 70
     1
102
RTVSPropertyOp5
 70
     1
102
RTVSPropertyOp6
 70
     1
102
RTVSPropertyOp7
 70
     1
102
RTVSPropertyOp8
 70
     1
102
RTVSPropertyOp9
 70
     1
102
RTVSPropertyOp10
 70
     1
102
RTVSPropertyOp11
 70
     1
102
RTVSPropertyOp12
 70
     1
102
RTVSPropertyOp13
 70
     1
102
RTVSPropertyOp14
 70
     1
102
RTVSPropertyOp15
 70
     1
102
RTVSPropertyOp16
 70
     1
102
RTVSPropertyOp17
 70
     1
102
RTVSPropertyOp18
 70
     1
102
RTVSPropertyOp19
 70
     1
102
RTVSPropertyOp20
 70
     1
102
RTVSPropertyOp21
 70
     1
102
RTVSPropertyOp22
 70
     1
102
RTVSPropertyOp23
 70
     1
102
RTVSPropertyOp24
 70
     1
102
RTVSPropertyOp25
 70
     1
102
RTVSPropertyOp26
 70
     1
102
RTVSPropertyOp27
 70
     1
102
RTVSPropertyOp28
 70
     1
102
RTVSPropertyOp29
 70
     1
102
RTVSPropertyOp30
 70
     1
102
RTVSPropertyOp31
 70
     1
102
RTVSPropertyOp32
 70
     1
  0
XRECORD
  5
4F3
102
{ACAD_REACTORS
330
4F2
102
}
330
4F2
100
AcDbXrecord
280
     1
102
RTVSPropertyOp0
 70
     1
102
RTVSPropertyOp1
 70
     1
102
RTVSPropertyOp2
 70
     1
102
RTVSPropertyOp3
 70
     1
102
RTVSPropertyOp4
 70
     1
102
RTVSPropertyOp5
 70
     1
102
RTVSPropertyOp6
 70
     1
102
RTVSPropertyOp7
 70
     1
102
RTVSPropertyOp8
 70
     1
102
RTVSPropertyOp9
 70
     1
102
RTVSPropertyOp10
 70
     1
102
RTVSPropertyOp11
 70
     1
102
RTVSPropertyOp12
 70
     1
102
RTVSPropertyOp13
 70
     1
102
RTVSPropertyOp14
 70
     1
102
RTVSPropertyOp15
 70
     1
102
RTVSPropertyOp16
 70
     1
102
RTVSPropertyOp17
 70
     1
102
RTVSPropertyOp18
 70
     1
102
RTVSPropertyOp19
 70
     1
102
RTVSPropertyOp20
 70
     1
102
RTVSPropertyOp21
 70
     1
102
RTVSPropertyOp22
 70
     1
102
RTVSPropertyOp23
 70
     1
102
RTVSPropertyOp24
 70
     1
102
RTVSPropertyOp25
 70
     1
102
RTVSPropertyOp26
 70
     1
102
RTVSPropertyOp27
 70
     1
102
RTVSPropertyOp28
 70
     1
102
RTVSPropertyOp29
 70
     1
102
RTVSPropertyOp30
 70
     1
102
RTVSPropertyOp31
 70
     1
102
RTVSPropertyOp32
 70
     1
  0
XRECORD
  5
4FB
102
{ACAD_REACTORS
330
4FA
102
}
330
4FA
100
AcDbXrecord
280
     1
102
RTVSPropertyOp0
 70
     1
102
RTVSPropertyOp1
 70
     1
102
RTVSPropertyOp2
 70
     1
102
RTVSPropertyOp3
 70
     1
102
RTVSPropertyOp4
 70
     1
102
RTVSPropertyOp5
 70
     1
102
RTVSPropertyOp6
 70
     1
102
RTVSPropertyOp7
 70
     1
102
RTVSPropertyOp8
 70
     1
102
RTVSPropertyOp9
 70
     1
102
RTVSPropertyOp10
 70
     1
102
RTVSPropertyOp11
 70
     1
102
RTVSPropertyOp12
 70
     1
102
RTVSPropertyOp13
 70
     1
102
RTVSPropertyOp14
 70
     1
102
RTVSPropertyOp15
 70
     1
102
RTVSPropertyOp16
 70
     1
102
RTVSPropertyOp17
 70
     1
102
RTVSPropertyOp18
 70
     1
102
RTVSPropertyOp19
 70
     1
102
RTVSPropertyOp20
 70
     1
102
RTVSPropertyOp21
 70
     1
102
RTVSPropertyOp22
 70
     1
102
RTVSPropertyOp23
 70
     1
102
RTVSPropertyOp24
 70
     1
102
RTVSPropertyOp25
 70
     1
102
RTVSPropertyOp26
 70
     1
102
RTVSPropertyOp27
 70
     1
102
RTVSPropertyOp28
 70
     1
102
RTVSPropertyOp29
 70
     1
102
RTVSPropertyOp30
 70
     1
102
RTVSPropertyOp31
 70
     1
102
RTVSPropertyOp32
 70
     1
  0
XRECORD
  5
4EF
102
{ACAD_REACTORS
330
4EE
102
}
330
4EE
100
AcDbXrecord
280
     1
102
RTVSPropertyOp0
 70
     1
102
RTVSPropertyOp1
 70
     1
102
RTVSPropertyOp2
 70
     1
102
RTVSPropertyOp3
 70
     1
102
RTVSPropertyOp4
 70
     1
102
RTVSPropertyOp5
 70
     1
102
RTVSPropertyOp6
 70
     1
102
RTVSPropertyOp7
 70
     1
102
RTVSPropertyOp8
 70
     1
102
RTVSPropertyOp9
 70
     1
102
RTVSPropertyOp10
 70
     1
102
RTVSPropertyOp11
 70
     1
102
RTVSPropertyOp12
 70
     1
102
RTVSPropertyOp13
 70
     1
102
RTVSPropertyOp14
 70
     1
102
RTVSPropertyOp15
 70
     1
102
RTVSPropertyOp16
 70
     1
102
RTVSPropertyOp17
 70
     1
102
RTVSPropertyOp18
 70
     1
102
RTVSPropertyOp19
 70
     1
102
RTVSPropertyOp20
 70
     1
102
RTVSPropertyOp21
 70
     1
102
RTVSPropertyOp22
 70
     1
102
RTVSPropertyOp23
 70
     1
102
RTVSPropertyOp24
 70
     1
102
RTVSPropertyOp25
 70
     1
102
RTVSPropertyOp26
 70
     1
102
RTVSPropertyOp27
 70
     1
102
RTVSPropertyOp28
 70
     1
102
RTVSPropertyOp29
 70
     1
102
RTVSPropertyOp30
 70
     1
102
RTVSPropertyOp31
 70
     1
102
RTVSPropertyOp32
 70
     1
  0
XRECORD
  5
4F1
102
{ACAD_REACTORS
330
4F0
102
}
330
4F0
100
AcDbXrecord
280
     1
102
RTVSPropertyOp0
 70
     1
102
RTVSPropertyOp1
 70
     1
102
RTVSPropertyOp2
 70
     1
102
RTVSPropertyOp3
 70
     1
102
RTVSPropertyOp4
 70
     1
102
RTVSPropertyOp5
 70
     1
102
RTVSPropertyOp6
 70
     1
102
RTVSPropertyOp7
 70
     1
102
RTVSPropertyOp8
 70
     1
102
RTVSPropertyOp9
 70
     1
102
RTVSPropertyOp10
 70
     1
102
RTVSPropertyOp11
 70
     1
102
RTVSPropertyOp12
 70
     1
102
RTVSPropertyOp13
 70
     1
102
RTVSPropertyOp14
 70
     1
102
RTVSPropertyOp15
 70
     1
102
RTVSPropertyOp16
 70
     1
102
RTVSPropertyOp17
 70
     1
102
RTVSPropertyOp18
 70
     1
102
RTVSPropertyOp19
 70
     1
102
RTVSPropertyOp20
 70
     1
102
RTVSPropertyOp21
 70
     1
102
RTVSPropertyOp22
 70
     1
102
RTVSPropertyOp23
 70
     1
102
RTVSPropertyOp24
 70
     1
102
RTVSPropertyOp25
 70
     1
102
RTVSPropertyOp26
 70
     1
102
RTVSPropertyOp27
 70
     1
102
RTVSPropertyOp28
 70
     1
102
RTVSPropertyOp29
 70
     1
102
RTVSPropertyOp30
 70
     1
102
RTVSPropertyOp31
 70
     1
102
RTVSPropertyOp32
 70
     1
  0
XRECORD
  5
4F9
102
{ACAD_REACTORS
330
4F8
102
}
330
4F8
100
AcDbXrecord
280
     1
102
RTVSPropertyOp0
 70
     1
102
RTVSPropertyOp1
 70
     1
102
RTVSPropertyOp2
 70
     1
102
RTVSPropertyOp3
 70
     1
102
RTVSPropertyOp4
 70
     1
102
RTVSPropertyOp5
 70
     1
102
RTVSPropertyOp6
 70
     1
102
RTVSPropertyOp7
 70
     1
102
RTVSPropertyOp8
 70
     1
102
RTVSPropertyOp9
 70
     1
102
RTVSPropertyOp10
 70
     1
102
RTVSPropertyOp11
 70
     1
102
RTVSPropertyOp12
 70
     1
102
RTVSPropertyOp13
 70
     1
102
RTVSPropertyOp14
 70
     1
102
RTVSPropertyOp15
 70
     1
102
RTVSPropertyOp16
 70
     1
102
RTVSPropertyOp17
 70
     1
102
RTVSPropertyOp18
 70
     1
102
RTVSPropertyOp19
 70
     1
102
RTVSPropertyOp20
 70
     1
102
RTVSPropertyOp21
 70
     1
102
RTVSPropertyOp22
 70
     1
102
RTVSPropertyOp23
 70
     1
102
RTVSPropertyOp24
 70
     1
102
RTVSPropertyOp25
 70
     1
102
RTVSPropertyOp26
 70
     1
102
RTVSPropertyOp27
 70
     1
102
RTVSPropertyOp28
 70
     1
102
RTVSPropertyOp29
 70
     1
102
RTVSPropertyOp30
 70
     1
102
RTVSPropertyOp31
 70
     1
102
RTVSPropertyOp32
 70
     1
  0
XRECORD
  5
4DD
102
{ACAD_REACTORS
330
4DC
102
}
330
4DC
100
AcDbXrecord
280
     1
102
RTVSPropertyOp0
 70
     1
102
RTVSPropertyOp1
 70
     1
102
RTVSPropertyOp2
 70
     1
102
RTVSPropertyOp3
 70
     1
102
RTVSPropertyOp4
 70
     1
102
RTVSPropertyOp5
 70
     1
102
RTVSPropertyOp6
 70
     1
102
RTVSPropertyOp7
 70
     1
102
RTVSPropertyOp8
 70
     1
102
RTVSPropertyOp9
 70
     1
102
RTVSPropertyOp10
 70
     1
102
RTVSPropertyOp11
 70
     1
102
RTVSPropertyOp12
 70
     1
102
RTVSPropertyOp13
 70
     1
102
RTVSPropertyOp14
 70
     1
102
RTVSPropertyOp15
 70
     1
102
RTVSPropertyOp16
 70
     1
102
RTVSPropertyOp17
 70
     1
102
RTVSPropertyOp18
 70
     1
102
RTVSPropertyOp19
 70
     1
102
RTVSPropertyOp20
 70
     1
102
RTVSPropertyOp21
 70
     1
102
RTVSPropertyOp22
 70
     1
102
RTVSPropertyOp23
 70
     1
102
RTVSPropertyOp24
 70
     1
102
RTVSPropertyOp25
 70
     1
102
RTVSPropertyOp26
 70
     1
102
RTVSPropertyOp27
 70
     1
102
RTVSPropertyOp28
 70
     1
102
RTVSPropertyOp29
 70
     1
102
RTVSPropertyOp30
 70
     1
102
RTVSPropertyOp31
 70
     1
102
RTVSPropertyOp32
 70
     1
  0
XRECORD
  5
4DF
102
{ACAD_REACTORS
330
4DE
102
}
330
4DE
100
AcDbXrecord
280
     1
102
RTVSPropertyOp0
 70
     1
102
RTVSPropertyOp1
 70
     1
102
RTVSPropertyOp2
 70
     1
102
RTVSPropertyOp3
 70
     1
102
RTVSPropertyOp4
 70
     1
102
RTVSPropertyOp5
 70
     1
102
RTVSPropertyOp6
 70
     1
102
RTVSPropertyOp7
 70
     1
102
RTVSPropertyOp8
 70
     1
102
RTVSPropertyOp9
 70
     1
102
RTVSPropertyOp10
 70
     1
102
RTVSPropertyOp11
 70
     1
102
RTVSPropertyOp12
 70
     1
102
RTVSPropertyOp13
 70
     1
102
RTVSPropertyOp14
 70
     1
102
RTVSPropertyOp15
 70
     1
102
RTVSPropertyOp16
 70
     1
102
RTVSPropertyOp17
 70
     1
102
RTVSPropertyOp18
 70
     1
102
RTVSPropertyOp19
 70
     1
102
RTVSPropertyOp20
 70
     1
102
RTVSPropertyOp21
 70
     1
102
RTVSPropertyOp22
 70
     1
102
RTVSPropertyOp23
 70
     1
102
RTVSPropertyOp24
 70
     1
102
RTVSPropertyOp25
 70
     1
102
RTVSPropertyOp26
 70
     1
102
RTVSPropertyOp27
 70
     1
102
RTVSPropertyOp28
 70
     1
102
RTVSPropertyOp29
 70
     1
102
RTVSPropertyOp30
 70
     1
102
RTVSPropertyOp31
 70
     1
102
RTVSPropertyOp32
 70
     1
  0
XRECORD
  5
4E1
102
{ACAD_REACTORS
330
4E0
102
}
330
4E0
100
AcDbXrecord
280
     1
102
RTVSPropertyOp0
 70
     1
102
RTVSPropertyOp1
 70
     1
102
RTVSPropertyOp2
 70
     1
102
RTVSPropertyOp3
 70
     1
102
RTVSPropertyOp4
 70
     1
102
RTVSPropertyOp5
 70
     1
102
RTVSPropertyOp6
 70
     1
102
RTVSPropertyOp7
 70
     1
102
RTVSPropertyOp8
 70
     1
102
RTVSPropertyOp9
 70
     1
102
RTVSPropertyOp10
 70
     1
102
RTVSPropertyOp11
 70
     1
102
RTVSPropertyOp12
 70
     1
102
RTVSPropertyOp13
 70
     1
102
RTVSPropertyOp14
 70
     1
102
RTVSPropertyOp15
 70
     1
102
RTVSPropertyOp16
 70
     1
102
RTVSPropertyOp17
 70
     1
102
RTVSPropertyOp18
 70
     1
102
RTVSPropertyOp19
 70
     1
102
RTVSPropertyOp20
 70
     1
102
RTVSPropertyOp21
 70
     1
102
RTVSPropertyOp22
 70
     1
102
RTVSPropertyOp23
 70
     1
102
RTVSPropertyOp24
 70
     1
102
RTVSPropertyOp25
 70
     1
102
RTVSPropertyOp26
 70
     1
102
RTVSPropertyOp27
 70
     1
102
RTVSPropertyOp28
 70
     1
102
RTVSPropertyOp29
 70
     1
102
RTVSPropertyOp30
 70
     1
102
RTVSPropertyOp31
 70
     1
102
RTVSPropertyOp32
 70
     1
  0
XRECORD
  5
4E3
102
{ACAD_REACTORS
330
4E2
102
}
330
4E2
100
AcDbXrecord
280
     1
102
RTVSPropertyOp0
 70
     1
102
RTVSPropertyOp1
 70
     1
102
RTVSPropertyOp2
 70
     1
102
RTVSPropertyOp3
 70
     1
102
RTVSPropertyOp4
 70
     1
102
RTVSPropertyOp5
 70
     1
102
RTVSPropertyOp6
 70
     1
102
RTVSPropertyOp7
 70
     1
102
RTVSPropertyOp8
 70
     1
102
RTVSPropertyOp9
 70
     1
102
RTVSPropertyOp10
 70
     1
102
RTVSPropertyOp11
 70
     1
102
RTVSPropertyOp12
 70
     1
102
RTVSPropertyOp13
 70
     1
102
RTVSPropertyOp14
 70
     1
102
RTVSPropertyOp15
 70
     1
102
RTVSPropertyOp16
 70
     1
102
RTVSPropertyOp17
 70
     1
102
RTVSPropertyOp18
 70
     1
102
RTVSPropertyOp19
 70
     1
102
RTVSPropertyOp20
 70
     1
102
RTVSPropertyOp21
 70
     1
102
RTVSPropertyOp22
 70
     1
102
RTVSPropertyOp23
 70
     1
102
RTVSPropertyOp24
 70
     1
102
RTVSPropertyOp25
 70
     1
102
RTVSPropertyOp26
 70
     1
102
RTVSPropertyOp27
 70
     1
102
RTVSPropertyOp28
 70
     1
102
RTVSPropertyOp29
 70
     1
102
RTVSPropertyOp30
 70
     1
102
RTVSPropertyOp31
 70
     1
102
RTVSPropertyOp32
 70
     1
  0
XRECORD
  5
4F7
102
{ACAD_REACTORS
330
4F6
102
}
330
4F6
100
AcDbXrecord
280
     1
102
RTVSPropertyOp0
 70
     1
102
RTVSPropertyOp1
 70
     1
102
RTVSPropertyOp2
 70
     1
102
RTVSPropertyOp3
 70
     1
102
RTVSPropertyOp4
 70
     1
102
RTVSPropertyOp5
 70
     1
102
RTVSPropertyOp6
 70
     1
102
RTVSPropertyOp7
 70
     1
102
RTVSPropertyOp8
 70
     1
102
RTVSPropertyOp9
 70
     1
102
RTVSPropertyOp10
 70
     1
102
RTVSPropertyOp11
 70
     1
102
RTVSPropertyOp12
 70
     1
102
RTVSPropertyOp13
 70
     1
102
RTVSPropertyOp14
 70
     1
102
RTVSPropertyOp15
 70
     1
102
RTVSPropertyOp16
 70
     1
102
RTVSPropertyOp17
 70
     1
102
RTVSPropertyOp18
 70
     1
102
RTVSPropertyOp19
 70
     1
102
RTVSPropertyOp20
 70
     1
102
RTVSPropertyOp21
 70
     1
102
RTVSPropertyOp22
 70
     1
102
RTVSPropertyOp23
 70
     1
102
RTVSPropertyOp24
 70
     1
102
RTVSPropertyOp25
 70
     1
102
RTVSPropertyOp26
 70
     1
102
RTVSPropertyOp27
 70
     1
102
RTVSPropertyOp28
 70
     1
102
RTVSPropertyOp29
 70
     1
102
RTVSPropertyOp30
 70
     1
102
RTVSPropertyOp31
 70
     1
102
RTVSPropertyOp32
 70
     1
  0
XRECORD
  5
4ED
102
{ACAD_REACTORS
330
4EC
102
}
330
4EC
100
AcDbXrecord
280
     1
102
RTVSPropertyOp0
 70
     1
102
RTVSPropertyOp1
 70
     1
102
RTVSPropertyOp2
 70
     1
102
RTVSPropertyOp3
 70
     1
102
RTVSPropertyOp4
 70
     1
102
RTVSPropertyOp5
 70
     1
102
RTVSPropertyOp6
 70
     1
102
RTVSPropertyOp7
 70
     1
102
RTVSPropertyOp8
 70
     1
102
RTVSPropertyOp9
 70
     1
102
RTVSPropertyOp10
 70
     1
102
RTVSPropertyOp11
 70
     1
102
RTVSPropertyOp12
 70
     1
102
RTVSPropertyOp13
 70
     1
102
RTVSPropertyOp14
 70
     1
102
RTVSPropertyOp15
 70
     1
102
RTVSPropertyOp16
 70
     1
102
RTVSPropertyOp17
 70
     1
102
RTVSPropertyOp18
 70
     1
102
RTVSPropertyOp19
 70
     1
102
RTVSPropertyOp20
 70
     1
102
RTVSPropertyOp21
 70
     1
102
RTVSPropertyOp22
 70
     1
102
RTVSPropertyOp23
 70
     1
102
RTVSPropertyOp24
 70
     1
102
RTVSPropertyOp25
 70
     1
102
RTVSPropertyOp26
 70
     1
102
RTVSPropertyOp27
 70
     1
102
RTVSPropertyOp28
 70
     1
102
RTVSPropertyOp29
 70
     1
102
RTVSPropertyOp30
 70
     1
102
RTVSPropertyOp31
 70
     1
102
RTVSPropertyOp32
 70
     1
  0
XRECORD
  5
4F5
102
{ACAD_REACTORS
330
4F4
102
}
330
4F4
100
AcDbXrecord
280
     1
102
RTVSPropertyOp0
 70
     1
102
RTVSPropertyOp1
 70
     1
102
RTVSPropertyOp2
 70
     1
102
RTVSPropertyOp3
 70
     1
102
RTVSPropertyOp4
 70
     1
102
RTVSPropertyOp5
 70
     1
102
RTVSPropertyOp6
 70
     1
102
RTVSPropertyOp7
 70
     1
102
RTVSPropertyOp8
 70
     1
102
RTVSPropertyOp9
 70
     1
102
RTVSPropertyOp10
 70
     1
102
RTVSPropertyOp11
 70
     1
102
RTVSPropertyOp12
 70
     1
102
RTVSPropertyOp13
 70
     1
102
RTVSPropertyOp14
 70
     1
102
RTVSPropertyOp15
 70
     1
102
RTVSPropertyOp16
 70
     1
102
RTVSPropertyOp17
 70
     1
102
RTVSPropertyOp18
 70
     1
102
RTVSPropertyOp19
 70
     1
102
RTVSPropertyOp20
 70
     1
102
RTVSPropertyOp21
 70
     1
102
RTVSPropertyOp22
 70
     1
102
RTVSPropertyOp23
 70
     1
102
RTVSPropertyOp24
 70
     1
102
RTVSPropertyOp25
 70
     1
102
RTVSPropertyOp26
 70
     1
102
RTVSPropertyOp27
 70
     1
102
RTVSPropertyOp28
 70
     1
102
RTVSPropertyOp29
 70
     1
102
RTVSPropertyOp30
 70
     1
102
RTVSPropertyOp31
 70
     1
102
RTVSPropertyOp32
 70
     1
  0
ENDSEC
  0
EOF
