  0
SECTION
  2
HEADER
  9
$ACADVER
  1
AC1018
  9
$ACADMAINTVER
 70
     0
  9
$DWGCODEPAGE
  3
ANSI_1252
  9
$INSBASE
 10
0.0
 20
0.0
 30
0.0
  9
$EXTMIN
 10
-422.9128435987041
 20
-294.966637213339
 30
0.0
  9
$EXTMAX
 10
-125.912843598706
 20
-84.96663721333894
 30
0.0
  9
$LIMMIN
 10
0.0
 20
0.0
  9
$LIMMAX
 10
12.0
 20
9.0
  9
$ORTHOMODE
 70
     0
  9
$REGENMODE
 70
     1
  9
$FILLMODE
 70
     1
  9
$QTEXTMODE
 70
     0
  9
$MIRRTEXT
 70
     1
  9
$LTSCALE
 40
1.0
  9
$ATTMODE
 70
     1
  9
$TEXTSIZE
 40
0.2
  9
$TRACEWID
 40
0.05
  9
$TEXTSTYLE
  7
Standard
  9
$CLAYER
  8
0
  9
$CELTYPE
  6
ByLayer
  9
$CECOLOR
 62
   256
  9
$CELTSCALE
 40
1.0
  9
$DISPSILH
 70
     0
  9
$DIMSCALE
 40
1.0
  9
$DIMASZ
 40
0.18
  9
$DIMEXO
 40
0.0625
  9
$DIMDLI
 40
0.38
  9
$DIMRND
 40
0.0
  9
$DIMDLE
 40
0.0
  9
$DIMEXE
 40
0.18
  9
$DIMTP
 40
0.0
  9
$DIMTM
 40
0.0
  9
$DIMTXT
 40
0.18
  9
$DIMCEN
 40
0.09
  9
$DIMTSZ
 40
0.0
  9
$DIMTOL
 70
     0
  9
$DIMLIM
 70
     0
  9
$DIMTIH
 70
     1
  9
$DIMTOH
 70
     1
  9
$DIMSE1
 70
     0
  9
$DIMSE2
 70
     0
  9
$DIMTAD
 70
     0
  9
$DIMZIN
 70
     0
  9
$DIMBLK
  1

  9
$DIMASO
 70
     1
  9
$DIMSHO
 70
     1
  9
$DIMPOST
  1

  9
$DIMAPOST
  1

  9
$DIMALT
 70
     0
  9
$DIMALTD
 70
     2
  9
$DIMALTF
 40
25.4
  9
$DIMLFAC
 40
1.0
  9
$DIMTOFL
 70
     0
  9
$DIMTVP
 40
0.0
  9
$DIMTIX
 70
     0
  9
$DIMSOXD
 70
     0
  9
$DIMSAH
 70
     0
  9
$DIMBLK1
  1

  9
$DIMBLK2
  1

  9
$DIMSTYLE
  2
Standard
  9
$DIMCLRD
 70
     0
  9
$DIMCLRE
 70
     0
  9
$DIMCLRT
 70
     0
  9
$DIMTFAC
 40
1.0
  9
$DIMGAP
 40
0.09
  9
$DIMJUST
 70
     0
  9
$DIMSD1
 70
     0
  9
$DIMSD2
 70
     0
  9
$DIMTOLJ
 70
     1
  9
$DIMTZIN
 70
     0
  9
$DIMALTZ
 70
     0
  9
$DIMALTTZ
 70
     0
  9
$DIMUPT
 70
     0
  9
$DIMDEC
 70
     4
  9
$DIMTDEC
 70
     4
  9
$DIMALTU
 70
     2
  9
$DIMALTTD
 70
     2
  9
$DIMTXSTY
  7
Standard
  9
$DIMAUNIT
 70
     0
  9
$DIMADEC
 70
     0
  9
$DIMALTRND
 40
0.0
  9
$DIMAZIN
 70
     0
  9
$DIMDSEP
 70
    46
  9
$DIMATFIT
 70
     3
  9
$DIMFRAC
 70
     0
  9
$DIMLDRBLK
  1

  9
$DIMLUNIT
 70
     2
  9
$DIMLWD
 70
    -2
  9
$DIMLWE
 70
    -2
  9
$DIMTMOVE
 70
     0
  9
$LUNITS
 70
     2
  9
$LUPREC
 70
     4
  9
$SKETCHINC
 40
0.1
  9
$FILLETRAD
 40
0.5
  9
$AUNITS
 70
     0
  9
$AUPREC
 70
     0
  9
$MENU
  1
.
  9
$ELEVATION
 40
0.0
  9
$PELEVATION
 40
0.0
  9
$THICKNESS
 40
0.0
  9
$LIMCHECK
 70
     0
  9
$CHAMFERA
 40
0.5
  9
$CHAMFERB
 40
0.5
  9
$CHAMFERC
 40
1.0
  9
$CHAMFERD
 40
0.0
  9
$SKPOLY
 70
     0
  9
$TDCREATE
 40
2458207.418211748
  9
$TDUCREATE
 40
2458207.334878414
  9
$TDUPDATE
 40
2458207.418212118
  9
$TDUUPDATE
 40
2458207.334878785
  9
$TDINDWG
 40
0.0000000116
  9
$TDUSRTIMER
 40
0.0000000116
  9
$USRTIMER
 70
     1
  9
$ANGBASE
 50
0.0
  9
$ANGDIR
 70
     0
  9
$PDMODE
 70
     0
  9
$PDSIZE
 40
0.0
  9
$PLINEWID
 40
0.0
  9
$SPLFRAME
 70
     0
  9
$SPLINETYPE
 70
     6
  9
$SPLINESEGS
 70
     8
  9
$HANDSEED
  5
265
  9
$SURFTAB1
 70
     6
  9
$SURFTAB2
 70
     6
  9
$SURFTYPE
 70
     6
  9
$SURFU
 70
     6
  9
$SURFV
 70
     6
  9
$UCSBASE
  2

  9
$UCSNAME
  2

  9
$UCSORG
 10
0.0
 20
0.0
 30
0.0
  9
$UCSXDIR
 10
1.0
 20
0.0
 30
0.0
  9
$UCSYDIR
 10
0.0
 20
1.0
 30
0.0
  9
$UCSORTHOREF
  2

  9
$UCSORTHOVIEW
 70
     0
  9
$UCSORGTOP
 10
0.0
 20
0.0
 30
0.0
  9
$UCSORGBOTTOM
 10
0.0
 20
0.0
 30
0.0
  9
$UCSORGLEFT
 10
0.0
 20
0.0
 30
0.0
  9
$UCSORGRIGHT
 10
0.0
 20
0.0
 30
0.0
  9
$UCSORGFRONT
 10
0.0
 20
0.0
 30
0.0
  9
$UCSORGBACK
 10
0.0
 20
0.0
 30
0.0
  9
$PUCSBASE
  2

  9
$PUCSNAME
  2

  9
$PUCSORG
 10
0.0
 20
0.0
 30
0.0
  9
$PUCSXDIR
 10
1.0
 20
0.0
 30
0.0
  9
$PUCSYDIR
 10
0.0
 20
1.0
 30
0.0
  9
$PUCSORTHOREF
  2

  9
$PUCSORTHOVIEW
 70
     0
  9
$PUCSORGTOP
 10
0.0
 20
0.0
 30
0.0
  9
$PUCSORGBOTTOM
 10
0.0
 20
0.0
 30
0.0
  9
$PUCSORGLEFT
 10
0.0
 20
0.0
 30
0.0
  9
$PUCSORGRIGHT
 10
0.0
 20
0.0
 30
0.0
  9
$PUCSORGFRONT
 10
0.0
 20
0.0
 30
0.0
  9
$PUCSORGBACK
 10
0.0
 20
0.0
 30
0.0
  9
$USERI1
 70
     0
  9
$USERI2
 70
     0
  9
$USERI3
 70
     0
  9
$USERI4
 70
     0
  9
$USERI5
 70
     0
  9
$USERR1
 40
18.1
  9
$USERR2
 40
0.0
  9
$USERR3
 40
0.0
  9
$USERR4
 40
0.0
  9
$USERR5
 40
0.0
  9
$WORLDVIEW
 70
     1
  9
$SHADEDGE
 70
     3
  9
$SHADEDIF
 70
    70
  9
$TILEMODE
 70
     1
  9
$MAXACTVP
 70
    64
  9
$PINSBASE
 10
0.0
 20
0.0
 30
0.0
  9
$PLIMCHECK
 70
     0
  9
$PEXTMIN
 10
1.00000000000000E+20
 20
1.00000000000000E+20
 30
1.00000000000000E+20
  9
$PEXTMAX
 10
-1.00000000000000E+20
 20
-1.00000000000000E+20
 30
-1.00000000000000E+20
  9
$PLIMMIN
 10
0.0
 20
0.0
  9
$PLIMMAX
 10
12.0
 20
9.0
  9
$UNITMODE
 70
     0
  9
$VISRETAIN
 70
     1
  9
$PLINEGEN
 70
     0
  9
$PSLTSCALE
 70
     1
  9
$TREEDEPTH
 70
  3020
  9
$CMLSTYLE
  2
Standard
  9
$CMLJUST
 70
     0
  9
$CMLSCALE
 40
1.0
  9
$PROXYGRAPHICS
 70
     1
  9
$MEASUREMENT
 70
     1
  9
$CELWEIGHT
370
    -1
  9
$ENDCAPS
280
     0
  9
$JOINSTYLE
280
     0
  9
$LWDISPLAY
290
     0
  9
$INSUNITS
 70
     4
  9
$HYPERLINKBASE
  1

  9
$STYLESHEET
  1

  9
$XEDIT
290
     1
  9
$CEPSNTYPE
380
     0
  9
$PSTYLEMODE
290
     1
  9
$FINGERPRINTGUID
  2
{32508702-A096-46A3-883D-7E389FB543A6}
  9
$VERSIONGUID
  2
{FAEB1C32-E019-11D5-929B-00C0DF256EC4}
  9
$EXTNAMES
290
     1
  9
$PSVPSCALE
 40
0.0
  9
$OLESTARTUP
290
     0
  9
$SORTENTS
280
   127
  9
$INDEXCTL
280
     0
  9
$HIDETEXT
280
     1
  9
$XCLIPFRAME
290
     0
  9
$HALOGAP
280
     0
  9
$OBSCOLOR
 70
   257
  9
$OBSLTYPE
280
     0
  9
$INTERSECTIONDISPLAY
280
     0
  9
$INTERSECTIONCOLOR
 70
   257
  9
$DIMASSOC
280
     2
  9
$PROJECTNAME
  1

  0
ENDSEC
  0
SECTION
  2
CLASSES
  0
CLASS
  1
ACDBDICTIONARYWDFLT
  2
AcDbDictionaryWithDefault
  3
ObjectDBX Classes
 90
        0
 91
        4
280
     0
281
     0
  0
CLASS
  1
VISUALSTYLE
  2
AcDbVisualStyle
  3
ObjectDBX Classes
 90
     4095
 91
        4
280
     0
281
     0
  0
CLASS
  1
MATERIAL
  2
AcDbMaterial
  3
ObjectDBX Classes
 90
     1153
 91
        4
280
     0
281
     0
  0
ENDSEC
  0
SECTION
  2
TABLES
  0
TABLE
  2
VPORT
  5
8
330
0
100
AcDbSymbolTable
 70
     1
  0
VPORT
  5
29
330
8
100
AcDbSymbolTableRecord
100
AcDbViewportTableRecord
  2
*Active
 70
     0
 10
0.0
 20
0.0
 11
1.0
 21
1.0
 12
-274.4128435987051
 22
-189.966637213339
 13
0.0
 23
0.0
 14
0.5
 24
0.5
 15
0.5
 25
0.5
 16
0.0
 26
0.0
 36
1.0
 17
0.0
 27
0.0
 37
0.0
 40
231.0000000000001
 41
1.60267857142857
 42
50.0
 43
0.0
 44
0.0
 50
0.0
 51
0.0
 71
     0
 72
   100
 73
     1
 74
     3
 75
     0
 76
     0
 77
     0
 78
     0
281
     0
 65
     1
110
0.0
120
0.0
130
0.0
111
1.0
121
0.0
131
0.0
112
0.0
122
1.0
132
0.0
 79
     0
146
0.0
  0
ENDTAB
  0
TABLE
  2
LTYPE
  5
5
330
0
100
AcDbSymbolTable
 70
     8
  0
LTYPE
  5
14
330
5
100
AcDbSymbolTableRecord
100
AcDbLinetypeTableRecord
  2
ByBlock
 70
     0
  3

 72
    65
 73
     0
 40
0.0
  0
LTYPE
  5
15
330
5
100
AcDbSymbolTableRecord
100
AcDbLinetypeTableRecord
  2
ByLayer
 70
     0
  3

 72
    65
 73
     0
 40
0.0
  0
LTYPE
  5
16
330
5
100
AcDbSymbolTableRecord
100
AcDbLinetypeTableRecord
  2
Continuous
 70
     0
  3
Solid line
 72
    65
 73
     0
 40
0.0
  0
LTYPE
  5
3F
330
5
100
AcDbSymbolTableRecord
100
AcDbLinetypeTableRecord
  2
DASHED
 70
     0
  3
Dashed
 72
    65
 73
     2
 40
15.0
 49
7.0
 74
     0
 49
-8.0
 74
     0
  0
LTYPE
  5
40
330
5
100
AcDbSymbolTableRecord
100
AcDbLinetypeTableRecord
  2
DOTTED
 70
     0
  3
Dotted
 72
    65
 73
     2
 40
1.0
 49
0.0
 74
     0
 49
-1.0
 74
     0
  0
LTYPE
  5
41
330
5
100
AcDbSymbolTableRecord
100
AcDbLinetypeTableRecord
  2
DOT_CENTER
 70
     0
  3
Dot_Center
 72
    65
 73
     4
 40
14.0
 49
12.0
 74
     0
 49
-1.0
 74
     0
 49
0.0
 74
     0
 49
-1.0
 74
     0
  0
LTYPE
  5
42
330
5
100
AcDbSymbolTableRecord
100
AcDbLinetypeTableRecord
  2
LONG_DASHED
 70
     0
  3
Long_Dashed
 72
    65
 73
     2
 40
15.0
 49
10.0
 74
     0
 49
-5.0
 74
     0
  0
LTYPE
  5
43
330
5
100
AcDbSymbolTableRecord
100
AcDbLinetypeTableRecord
  2
DASH_CENTER
 70
     0
  3
Dash_Center
 72
    65
 73
     4
 40
14.0
 49
11.0
 74
     0
 49
-1.0
 74
     0
 49
1.0
 74
     0
 49
-1.0
 74
     0
  0
LTYPE
  5
44
330
5
100
AcDbSymbolTableRecord
100
AcDbLinetypeTableRecord
  2
PHANTOM
 70
     0
  3
Phantom
 72
    65
 73
     6
 40
13.0
 49
10.0
 74
     0
 49
-1.0
 74
     0
 49
0.0
 74
     0
 49
-1.0
 74
     0
 49
0.0
 74
     0
 49
-1.0
 74
     0
  0
LTYPE
  5
45
330
5
100
AcDbSymbolTableRecord
100
AcDbLinetypeTableRecord
  2
CENTER_DASH_DASH
 70
     0
  3
Center_Dash_Dash
 72
    65
 73
     6
 40
14.0
 49
9.0
 74
     0
 49
-1.0
 74
     0
 49
1.0
 74
     0
 49
-1.0
 74
     0
 49
1.0
 74
     0
 49
-1.0
 74
     0
  0
ENDTAB
  0
TABLE
  2
LAYER
  5
2
330
0
100
AcDbSymbolTable
 70
     2
  0
LAYER
  5
10
330
2
100
AcDbSymbolTableRecord
100
AcDbLayerTableRecord
  2
0
 70
     0
 62
     7
  6
Continuous
370
    -3
390
F
  0
LAYER
  5
46
330
2
100
AcDbSymbolTableRecord
100
AcDbLayerTableRecord
  2
1
 70
     0
 62
     7
  6
Continuous
370
    -3
390
F
  0
ENDTAB
  0
TABLE
  2
STYLE
  5
3
330
0
100
AcDbSymbolTable
 70
     5
  0
STYLE
  5
11
330
3
100
AcDbSymbolTableRecord
100
AcDbTextStyleTableRecord
  2
Standard
 70
     0
 40
0.0
 41
1.0
 50
0.0
 71
     0
 42
0.2
  3
txt
  4

  0
STYLE
  5
A4
330
3
100
AcDbSymbolTableRecord
100
AcDbTextStyleTableRecord
  2
CONVERTER_11
 70
     0
 40
0.0
 41
0.9
 50
0.0
 71
     0
 42
0.2
  3
txt.shx
  4

  0
STYLE
  5
1FB
330
3
100
AcDbSymbolTableRecord
100
AcDbTextStyleTableRecord
  2
CONVERTER_12
 70
     0
 40
0.0
 41
0.81
 50
0.0
 71
     0
 42
0.2
  3
txt.shx
  4

  0
STYLE
  5
201
330
3
100
AcDbSymbolTableRecord
100
AcDbTextStyleTableRecord
  2
CONVERTER_13
 70
     0
 40
0.0
 41
0.855
 50
0.0
 71
     0
 42
0.2
  3
txt.shx
  4

  0
STYLE
  5
204
330
3
100
AcDbSymbolTableRecord
100
AcDbTextStyleTableRecord
  2
CONVERTER_14
 70
     0
 40
0.0
 41
0.72
 50
0.0
 71
     0
 42
0.2
  3
txt.shx
  4

  0
ENDTAB
  0
TABLE
  2
VIEW
  5
6
330
0
100
AcDbSymbolTable
 70
     0
  0
ENDTAB
  0
TABLE
  2
UCS
  5
7
330
0
100
AcDbSymbolTable
 70
     0
  0
ENDTAB
  0
TABLE
  2
APPID
  5
9
330
0
100
AcDbSymbolTable
 70
     1
  0
APPID
  5
12
330
9
100
AcDbSymbolTableRecord
100
AcDbRegAppTableRecord
  2
ACAD
 70
     0
  0
ENDTAB
  0
TABLE
  2
DIMSTYLE
  5
A
330
0
100
AcDbSymbolTable
 70
     4
100
AcDbDimStyleTable
  0
DIMSTYLE
105
27
330
A
100
AcDbSymbolTableRecord
100
AcDbDimStyleTableRecord
  2
Standard
 70
     0
178
     0
340
11
  0
DIMSTYLE
105
B4
102
{ACAD_REACTORS
330
B5
102
}
330
A
100
AcDbSymbolTableRecord
100
AcDbDimStyleTableRecord
  2
ME10_DIM_10
 70
     0
 41
0.7
 42
0.0
 44
0.3
 73
     0
 74
     0
 77
     1
 78
     8
140
0.7
147
0.3
172
     1
173
     1
174
     1
175
     1
176
     2
177
     2
178
     3
340
A4
  0
DIMSTYLE
105
D0
102
{ACAD_REACTORS
330
D1
102
}
330
A
100
AcDbSymbolTableRecord
100
AcDbDimStyleTableRecord
  2
ME10_DIM_11
 70
     0
 41
0.7
 42
0.0
 44
0.3
 73
     0
 74
     0
 77
     1
 78
     8
140
0.7
147
0.3
172
     1
173
     1
174
     1
175
     1
176
     2
177
     2
178
     3
340
A4
  0
DIMSTYLE
105
DB
102
{ACAD_REACTORS
330
DC
102
}
330
A
100
AcDbSymbolTableRecord
100
AcDbDimStyleTableRecord
  2
ME10_DIM_12
 70
     0
 41
0.7
 42
0.0
 44
0.3
 73
     0
 74
     0
 77
     1
 78
     8
140
0.7
147
0.3
172
     1
173
     1
174
     1
175
     1
176
     2
177
     2
178
     3
340
A4
  0
ENDTAB
  0
TABLE
  2
BLOCK_RECORD
  5
1
330
0
100
AcDbSymbolTable
 70
    20
  0
BLOCK_RECORD
  5
1F
330
1
100
AcDbSymbolTableRecord
100
AcDbBlockTableRecord
  2
*Model_Space
340
22
  0
BLOCK_RECORD
  5
1B
330
1
100
AcDbSymbolTableRecord
100
AcDbBlockTableRecord
  2
*Paper_Space
340
1E
  0
BLOCK_RECORD
  5
23
330
1
100
AcDbSymbolTableRecord
100
AcDbBlockTableRecord
  2
*Paper_Space0
340
26
  0
BLOCK_RECORD
  5
47
330
1
100
AcDbSymbolTableRecord
100
AcDbBlockTableRecord
  2
ZB_5_VT_100_UNBEDRUCKT-select__1
340
0
102
{BLKREFS
331
4B
102
}
  0
BLOCK_RECORD
  5
4A
330
1
100
AcDbSymbolTableRecord
100
AcDbBlockTableRecord
  2
Allg1
340
0
102
{BLKREFS
331
7D
102
}
  0
BLOCK_RECORD
  5
4E
330
1
100
AcDbSymbolTableRecord
100
AcDbBlockTableRecord
  2
ZB_5_VT_100_UNBEDRUCKT-select__2
340
0
102
{BLKREFS
331
52
102
}
  0
BLOCK_RECORD
  5
51
330
1
100
AcDbSymbolTableRecord
100
AcDbBlockTableRecord
  2
Drfsicht1
340
0
102
{BLKREFS
331
7E
102
}
  0
BLOCK_RECORD
  5
55
330
1
100
AcDbSymbolTableRecord
100
AcDbBlockTableRecord
  2
ZB_5_VT_100_UNBEDRUCKT-select__3
340
0
102
{BLKREFS
331
59
102
}
  0
BLOCK_RECORD
  5
58
330
1
100
AcDbSymbolTableRecord
100
AcDbBlockTableRecord
  2
Vordans1
340
0
102
{BLKREFS
331
7F
102
}
  0
BLOCK_RECORD
  5
5C
330
1
100
AcDbSymbolTableRecord
100
AcDbBlockTableRecord
  2
ZB_5_VT_100_UNBEDRUCKT-select__4
340
0
102
{BLKREFS
331
60
102
}
  0
BLOCK_RECORD
  5
5F
330
1
100
AcDbSymbolTableRecord
100
AcDbBlockTableRecord
  2
SA_Rechts1
340
0
102
{BLKREFS
331
80
102
}
  0
BLOCK_RECORD
  5
63
330
1
100
AcDbSymbolTableRecord
100
AcDbBlockTableRecord
  2
ZB_5_VT_100_UNBEDRUCKT-select__5
340
0
102
{BLKREFS
331
67
102
}
  0
BLOCK_RECORD
  5
66
330
1
100
AcDbSymbolTableRecord
100
AcDbBlockTableRecord
  2
Rckans1
340
0
102
{BLKREFS
331
81
102
}
  0
BLOCK_RECORD
  5
6A
330
1
100
AcDbSymbolTableRecord
100
AcDbBlockTableRecord
  2
ZB_5_VT_100_UNBEDRUCKT-select__6
340
0
102
{BLKREFS
331
6E
102
}
  0
BLOCK_RECORD
  5
6D
330
1
100
AcDbSymbolTableRecord
100
AcDbBlockTableRecord
  2
SA_Links1
340
0
102
{BLKREFS
331
82
102
}
  0
BLOCK_RECORD
  5
71
330
1
100
AcDbSymbolTableRecord
100
AcDbBlockTableRecord
  2
_rahmen
340
0
102
{BLKREFS
331
78
102
}
  0
BLOCK_RECORD
  5
74
330
1
100
AcDbSymbolTableRecord
100
AcDbBlockTableRecord
  2
_punkt
340
0
102
{BLKREFS
331
79
102
}
  0
BLOCK_RECORD
  5
77
330
1
100
AcDbSymbolTableRecord
100
AcDbBlockTableRecord
  2
A4I_CS
340
0
102
{BLKREFS
331
83
102
}
  0
BLOCK_RECORD
  5
7C
330
1
100
AcDbSymbolTableRecord
100
AcDbBlockTableRecord
  2
1
340
0
102
{BLKREFS
331
86
102
}
  0
BLOCK_RECORD
  5
AB
330
1
100
AcDbSymbolTableRecord
100
AcDbBlockTableRecord
  2
*D17
340
0
  0
BLOCK_RECORD
  5
C7
330
1
100
AcDbSymbolTableRecord
100
AcDbBlockTableRecord
  2
*D18
340
0
  0
BLOCK_RECORD
  5
D2
330
1
100
AcDbSymbolTableRecord
100
AcDbBlockTableRecord
  2
*D19
340
0
  0
ENDTAB
  0
ENDSEC
  0
SECTION
  2
BLOCKS
  0
BLOCK
  5
20
330
1F
100
AcDbEntity
  8
0
100
AcDbBlockBegin
  2
*Model_Space
 70
     0
 10
0.0
 20
0.0
 30
0.0
  3
*Model_Space
  1

  0
ENDBLK
  5
21
330
1F
100
AcDbEntity
  8
0
100
AcDbBlockEnd
  0
BLOCK
  5
1C
330
1B
100
AcDbEntity
 67
     1
  8
0
100
AcDbBlockBegin
  2
*Paper_Space
 70
     0
 10
0.0
 20
0.0
 30
0.0
  3
*Paper_Space
  1

  0
ENDBLK
  5
1D
330
1B
100
AcDbEntity
 67
     1
  8
0
100
AcDbBlockEnd
  0
BLOCK
  5
24
330
23
100
AcDbEntity
  8
0
100
AcDbBlockBegin
  2
*Paper_Space0
 70
     0
 10
0.0
 20
0.0
 30
0.0
  3
*Paper_Space0
  1

  0
ENDBLK
  5
25
330
23
100
AcDbEntity
  8
0
100
AcDbBlockEnd
  0
BLOCK
  5
48
330
47
100
AcDbEntity
  8
0
100
AcDbBlockBegin
  2
ZB_5_VT_100_UNBEDRUCKT-select__1
 70
     0
 10
-46.83413314213976
 20
-46.69924638693129
 30
0.0
  3
ZB_5_VT_100_UNBEDRUCKT-select__1
  1

  0
LINE
  5
87
330
47
100
AcDbEntity
  8
0
  6
Continuous
 62
     7
100
AcDbLine
 10
-45.03969773822186
 20
-44.46598391314577
 30
0.0
 11
-44.45122650904699
 21
-43.95635287928406
 31
0.0
  0
LINE
  5
88
330
47
100
AcDbEntity
  8
0
  6
Continuous
 62
     7
100
AcDbLine
 10
-42.39375931771087
 20
-43.08840276697686
 30
0.0
 11
-44.06285185002956
 21
-44.53387930123175
 31
0.0
  0
LINE
  5
89
330
47
100
AcDbEntity
  8
0
  6
Continuous
 62
     7
100
AcDbLine
 10
-44.06285185002956
 20
-44.53387930123175
 30
0.0
 11
-44.06285185002957
 21
-45.4644610880472
 31
0.0
  0
LINE
  5
8A
330
47
100
AcDbEntity
  8
0
  6
Continuous
 62
     7
100
AcDbLine
 10
-44.06285185002957
 20
-45.4644610880472
 30
0.0
 11
-44.71237090286789
 21
-45.27696108804722
 31
0.0
  0
LINE
  5
8B
330
47
100
AcDbEntity
  8
0
  6
Continuous
 62
     7
100
AcDbLine
 10
-44.06285185002957
 20
-45.4644610880472
 30
0.0
 11
-41.58785185002955
 21
-43.32104821368073
 31
0.0
  0
LINE
  5
8C
330
47
100
AcDbEntity
  8
0
  6
Continuous
 62
     7
100
AcDbLine
 10
-37.74086640240316
 20
-44.43157725555857
 30
0.0
 11
-40.51548520825783
 21
-43.63061379832917
 31
0.0
  0
LINE
  5
8D
330
47
100
AcDbEntity
  8
0
  6
Continuous
 62
     7
100
AcDbLine
 10
-37.74086640240314
 20
-43.56555185177413
 30
0.0
 11
-37.74086640240316
 21
-44.43157725555857
 31
0.0
  0
LINE
  5
8E
330
47
100
AcDbEntity
  8
0
  6
Continuous
 62
     7
100
AcDbLine
 10
-40.51214769451335
 20
-45.55887930123176
 30
0.0
 11
-41.21362827157874
 21
-43.42907725555861
 31
0.0
  0
LINE
  5
8F
330
47
100
AcDbEntity
  8
0
  6
Continuous
 62
     7
100
AcDbLine
 10
-40.51548520825783
 20
-43.63061379832917
 30
0.0
 11
-39.977603557721
 21
-45.79328850445639
 31
0.0
  0
LINE
  5
90
330
47
100
AcDbEntity
  8
0
  6
Continuous
 62
     7
100
AcDbLine
 10
-39.977603557721
 20
-45.79328850445639
 30
0.0
 11
-38.23914273472698
 21
-44.28773726825957
 31
0.0
  0
LINE
  5
91
330
47
100
AcDbEntity
  8
0
  6
Continuous
 62
     7
100
AcDbLine
 10
-40.51214769451336
 20
-46.48946108804722
 30
0.0
 11
-40.51214769451335
 21
-45.55887930123176
 31
0.0
  0
LINE
  5
92
330
47
100
AcDbEntity
  8
0
  6
Continuous
 62
     7
100
AcDbLine
 10
-39.86262864167503
 20
-46.67696108804721
 30
0.0
 11
-40.51214769451336
 21
-46.48946108804722
 31
0.0
  0
LINE
  5
93
330
47
100
AcDbEntity
  8
0
  6
Continuous
 62
     7
100
AcDbLine
 10
-39.53530180632104
 20
-46.62191285916422
 30
0.0
 11
-36.96030180632104
 21
-44.39189744441929
 31
0.0
  0
LINE
  5
94
330
47
100
AcDbEntity
  8
0
  6
Continuous
 62
     7
100
AcDbLine
 10
-41.21362827157874
 20
-43.42907725555861
 30
0.0
 11
-43.36137127296415
 21
-42.80907725555856
 31
0.0
  0
LINE
  5
95
330
47
100
AcDbEntity
  8
0
  6
Continuous
 62
     7
100
AcDbLine
 10
-35.16586640240315
 20
-41.33553643702921
 30
0.0
 11
-37.74086640240314
 21
-43.56555185177413
 31
0.0
  0
LINE
  5
96
330
47
100
AcDbEntity
  8
0
  6
Continuous
 62
     7
100
AcDbLine
 10
-44.59739598682192
 20
-44.45966930318558
 30
0.0
 11
-44.05951433628511
 21
-42.60754071278793
 31
0.0
  0
LINE
  5
97
330
47
100
AcDbEntity
  8
0
  6
Continuous
 62
     7
100
AcDbLine
 10
-46.83413314213976
 20
-41.80657725555857
 30
0.0
 11
-46.83413314213975
 21
-40.94055185177414
 31
0.0
  0
LINE
  5
98
330
47
100
AcDbEntity
  8
0
  6
Continuous
 62
     7
100
AcDbLine
 10
-35.16586640240315
 20
-41.33553643702921
 30
0.0
 11
-35.16586640240315
 21
-42.20156184081363
 31
0.0
  0
LINE
  5
99
330
47
100
AcDbEntity
  8
0
  6
Continuous
 62
     7
100
AcDbLine
 10
-46.83413314213975
 20
-40.94055185177414
 30
0.0
 11
-37.74086640240314
 21
-43.56555185177413
 31
0.0
  0
LINE
  5
9A
330
47
100
AcDbEntity
  8
0
  6
Continuous
 62
     7
100
AcDbLine
 10
-44.05951433628511
 20
-42.60754071278793
 30
0.0
 11
-46.83413314213976
 21
-41.80657725555857
 31
0.0
  0
LINE
  5
9B
330
47
100
AcDbEntity
  8
0
  6
Continuous
 62
     7
100
AcDbLine
 10
-44.25913314213975
 20
-38.71053643702921
 30
0.0
 11
-46.83413314213975
 21
-40.94055185177414
 31
0.0
  0
LINE
  5
9C
330
47
100
AcDbEntity
  8
0
  6
Continuous
 62
     7
100
AcDbLine
 10
-43.36137127296415
 20
-42.80907725555856
 30
0.0
 11
-44.06285185002956
 21
-44.53387930123175
 31
0.0
  0
LINE
  5
9D
330
47
100
AcDbEntity
  8
0
  6
Continuous
 62
     7
100
AcDbLine
 10
-35.16586640240315
 20
-42.20156184081363
 30
0.0
 11
-37.74086640240316
 21
-44.43157725555857
 31
0.0
  0
LINE
  5
9E
330
47
100
AcDbEntity
  8
0
  6
Continuous
 62
     7
100
AcDbLine
 10
-44.25913314213975
 20
-38.71053643702921
 30
0.0
 11
-35.16586640240315
 21
-41.33553643702921
 31
0.0
  0
SPLINE
  5
9F
330
47
100
AcDbEntity
  8
0
  6
Continuous
 62
     7
100
AcDbSpline
210
0.0
220
0.0
230
1.0
 70
     8
 71
     3
 72
    11
 73
     7
 74
     5
 42
0.000000001
 43
0.0000000001
 44
0.00000001
 40
0.0
 40
0.0
 40
0.0
 40
0.0
 40
0.0805526799810293
 40
0.1638036380530535
 40
0.2517511792397318
 40
0.3453217744506444
 40
0.3453217744506444
 40
0.3453217744506444
 40
0.3453217744506444
 10
-39.53530180632104
 20
-46.62191285916422
 30
0.0
 10
-39.55715812814397
 20
-46.63783779197708
 30
0.0
 10
-39.60160290214797
 20
-46.67022108354604
 30
0.0
 10
-39.68384013766464
 20
-46.6931856980093
 30
0.0
 10
-39.77287241327117
 20
-46.69765918708387
 30
0.0
 10
-39.83209833441865
 20
-46.68400148836371
 30
0.0
 10
-39.86262864167503
 20
-46.67696108804721
 30
0.0
 11
-39.53530180632104
 21
-46.62191285916422
 31
0.0
 11
-39.60306260356685
 21
-46.66546982103573
 31
0.0
 11
-39.68269471388173
 21
-46.68974840213269
 31
0.0
 11
-39.77055620053299
 21
-46.69363807632789
 31
0.0
 11
-39.86262864167503
 21
-46.67696108804721
 31
0.0
  0
SPLINE
  5
A0
330
47
100
AcDbEntity
  8
0
  6
Continuous
 62
     7
100
AcDbSpline
210
0.0
220
0.0
230
1.0
 70
     8
 71
     3
 72
    15
 73
    11
 74
     9
 42
0.000000001
 43
0.0000000001
 44
0.00000001
 40
0.0
 40
0.0
 40
0.0
 40
0.0
 40
0.1389706670299683
 40
0.2895566500224754
 40
0.447284228457237
 40
0.6055599122271285
 40
0.7576373573517651
 40
0.8985795208214853
 40
1.027216084441286
 40
1.147557711086326
 40
1.147557711086326
 40
1.147557711086326
 40
1.147557711086326
 10
-39.977603557721
 20
-45.79328850445639
 30
0.0
 10
-39.93125272882071
 20
-45.7987498046978
 30
0.0
 10
-39.83467702215096
 20
-45.81012888123911
 30
0.0
 10
-39.70063597557168
 20
-45.88211014461084
 30
0.0
 10
-39.58264494942806
 20
-45.98487387014473
 30
0.0
 10
-39.49187299697737
 20
-46.11371369778013
 30
0.0
 10
-39.43653851367814
 20
-46.25562978286968
 30
0.0
 10
-39.42353310420656
 20
-46.39686258626282
 30
0.0
 10
-39.45221376091261
 20
-46.52868441266476
 30
0.0
 10
-39.50822784105661
 20
-46.59153468442518
 30
0.0
 10
-39.53530180632104
 20
-46.62191285916422
 30
0.0
 11
-39.977603557721
 21
-45.79328850445639
 31
0.0
 11
-39.84080893346109
 21
-45.8177849730568
 31
0.0
 11
-39.70621807136365
 21
-45.88532339233819
 31
0.0
 11
-39.58742499366097
 21
-45.98908366235266
 31
0.0
 11
-39.49642712662394
 21
-46.11858493812939
 31
0.0
 11
-39.44241635431008
 21
-46.26074817606729
 31
0.0
 11
-39.43084647671502
 21
-46.40121465706495
 31
0.0
 11
-39.46288747231073
 21
-46.52579692617427
 31
0.0
 11
-39.53530180632104
 21
-46.62191285916422
 31
0.0
  0
SPLINE
  5
A1
330
47
100
AcDbEntity
  8
0
  6
Continuous
 62
     7
100
AcDbSpline
210
0.0
220
0.0
230
1.0
 70
     8
 71
     3
 72
    11
 73
     7
 74
     5
 42
0.000000001
 43
0.0000000001
 44
0.00000001
 40
0.0
 40
0.0
 40
0.0
 40
0.0
 40
0.1059992492369017
 40
0.2178546114542955
 40
0.3389724803964275
 40
0.4695236568401803
 40
0.4695236568401803
 40
0.4695236568401803
 40
0.4695236568401803
 10
-45.03969773822186
 20
-44.46598391314577
 30
0.0
 10
-45.01021528713264
 20
-44.44575634474683
 30
0.0
 10
-44.94962156851399
 20
-44.40418371345842
 30
0.0
 10
-44.83451938225404
 20
-44.3879226204583
 30
0.0
 10
-44.71279575880364
 20
-44.40383039516983
 30
0.0
 10
-44.63681194246951
 20
-44.44059695570368
 30
0.0
 10
-44.59739598682192
 20
-44.45966930318558
 30
0.0
 11
-45.03969773822186
 21
-44.46598391314577
 31
0.0
 11
-44.9480824560112
 21
-44.41266898581026
 31
0.0
 11
-44.83791800542252
 21
-44.39329331222913
 31
0.0
 11
-44.7178735081041
 21
-44.4093823614395
 31
0.0
 11
-44.59739598682192
 21
-44.45966930318558
 31
0.0
  0
SPLINE
  5
A2
330
47
100
AcDbEntity
  8
0
  6
Continuous
 62
     7
100
AcDbSpline
210
0.0
220
0.0
230
1.0
 70
     8
 71
     3
 72
    15
 73
    11
 74
     9
 42
0.000000001
 43
0.0000000001
 44
0.00000001
 40
0.0
 40
0.0
 40
0.0
 40
0.0
 40
0.132896210975657
 40
0.2727053220925418
 40
0.4150031796286308
 40
0.5548058914523958
 40
0.6876905845374891
 40
0.8109308977216
 40
0.9245895382847317
 40
1.032150054400758
 40
1.032150054400758
 40
1.032150054400758
 40
1.032150054400758
 10
-44.71237090286789
 20
-45.27696108804722
 30
0.0
 10
-44.75403298870028
 20
-45.26129978777051
 30
0.0
 10
-44.83952430310772
 20
-45.2291625153762
 30
0.0
 10
-44.950357850244
 20
-45.14331660257457
 30
0.0
 10
-45.04328916024714
 20
-45.03676085238885
 30
0.0
 10
-45.11013571109932
 20
-44.91434318414488
 30
0.0
 10
-45.14617330206525
 20
-44.7858531521727
 30
0.0
 10
-45.14719029472884
 20
-44.66154618969087
 30
0.0
 10
-45.11467707250881
 20
-44.54766373375725
 30
0.0
 10
-45.06422728716575
 20
-44.49270552491565
 30
0.0
 10
-45.03969773822186
 20
-44.46598391314577
 30
0.0
 11
-44.71237090286789
 21
-45.27696108804722
 31
0.0
 11
-44.83435039624631
 21
-45.22421257513911
 31
0.0
 11
-44.94645029513057
 21
-45.14066498376491
 31
0.0
 11
-45.03959078838989
 21
-45.03308464745164
 31
0.0
 11
-45.10622846802168
 21
-44.91018542831634
 31
0.0
 11
-45.14096540977121
 21
-44.78192129885043
 31
0.0
 11
-45.14098881227447
 21
-44.65868098489031
 31
0.0
 11
-45.1062960412436
 21
-44.55044651905592
 31
0.0
 11
-45.03969773822186
 21
-44.46598391314577
 31
0.0
  0
SPLINE
  5
A3
330
47
100
AcDbEntity
  8
0
  6
Continuous
 62
     7
100
AcDbSpline
210
0.0
220
0.0
230
1.0
 70
     8
 71
     3
 72
    13
 73
     9
 74
     7
 42
0.000000001
 43
0.0000000001
 44
0.00000001
 40
0.0
 40
0.0
 40
0.0
 40
0.0
 40
0.1266252209026257
 40
0.2492646276373858
 40
0.3652100363522827
 40
0.4731482407518901
 40
0.5737475715961732
 40
0.6698880320896753
 40
0.6698880320896753
 40
0.6698880320896753
 40
0.6698880320896753
 10
-36.99192436932655
 20
-43.78297442895227
 30
0.0
 10
-36.96695417531963
 20
-43.81717212475066
 30
0.0
 10
-36.91779979215821
 20
-43.88449107459533
 30
0.0
 10
-36.87175277358278
 20
-43.99845649899449
 30
0.0
 10
-36.85061169487789
 20
-44.11303936669869
 30
0.0
 10
-36.85833960606698
 20
-44.22181903790205
 30
0.0
 10
-36.8927262196141
 20
-44.32015932578035
 30
0.0
 10
-36.93811953545665
 20
-44.36834879315289
 30
0.0
 10
-36.96030180632104
 20
-44.39189744441929
 30
0.0
 11
-36.99192436932655
 21
-43.78297442895227
 31
0.0
 11
-36.92158819547407
 21
-43.88826815453527
 31
0.0
 11
-36.87501106928751
 21
-44.00171856445478
 31
0.0
 11
-36.85521659843288
 21
-44.11596180113074
 31
0.0
 11
-36.8634892399789
 21
-44.22358252421894
 31
0.0
 11
-36.89929240898789
 21
-44.31759507332443
 31
0.0
 11
-36.96030180632104
 21
-44.39189744441929
 31
0.0
  0
ENDBLK
  5
49
330
47
100
AcDbEntity
  8
0
100
AcDbBlockEnd
  0
BLOCK
  5
4C
330
4A
100
AcDbEntity
  8
0
100
AcDbBlockBegin
  2
Allg1
 70
     0
 10
-41.00000000000001
 20
-43.0
 30
0.0
  3
Allg1
  1

  0
INSERT
  5
4B
330
4A
100
AcDbEntity
  8
0
100
AcDbBlockReference
  2
ZB_5_VT_100_UNBEDRUCKT-select__1
 10
-46.83413314213976
 20
-46.69924638693129
 30
0.0
  0
MTEXT
  5
A5
330
4A
100
AcDbEntity
  8
1
 62
     6
100
AcDbMText
 10
-40.99895463308602
 20
-49.57918200362488
 30
0.0
 40
1.0
 41
0.0
 71
     2
 72
     1
  1
 
  7
CONVERTER_11
 73
     1
 44
1.32052821128451
  0
ENDBLK
  5
4D
330
4A
100
AcDbEntity
  8
0
100
AcDbBlockEnd
  0
BLOCK
  5
4F
330
4E
100
AcDbEntity
  8
0
100
AcDbBlockBegin
  2
ZB_5_VT_100_UNBEDRUCKT-select__2
 70
     0
 10
-67.850000235431
 20
-43.77500004767869
 30
0.0
  3
ZB_5_VT_100_UNBEDRUCKT-select__2
  1

  0
LINE
  5
A6
330
4E
100
AcDbEntity
  8
0
  6
Continuous
 62
     7
100
AcDbLine
 10
-57.350000235431
 20
-43.77500004767869
 30
0.0
 11
-67.85000023543098
 21
-43.77500004767869
 31
0.0
  0
LINE
  5
A7
330
4E
100
AcDbEntity
  8
0
  6
Continuous
 62
     7
100
AcDbLine
 10
-57.350000235431
 20
-38.6250000476787
 30
0.0
 11
-67.850000235431
 21
-38.6250000476787
 31
0.0
  0
LINE
  5
A8
330
4E
100
AcDbEntity
  8
0
  6
Continuous
 62
     7
100
AcDbLine
 10
-67.85000023543098
 20
-43.77500004767869
 30
0.0
 11
-67.850000235431
 21
-38.6250000476787
 31
0.0
  0
LINE
  5
A9
330
4E
100
AcDbEntity
  8
0
  6
Continuous
 62
     7
100
AcDbLine
 10
-57.350000235431
 20
-43.77500004767869
 30
0.0
 11
-57.350000235431
 21
-38.6250000476787
 31
0.0
  0
ENDBLK
  5
50
330
4E
100
AcDbEntity
  8
0
100
AcDbBlockEnd
  0
BLOCK
  5
53
330
51
100
AcDbEntity
  8
0
100
AcDbBlockBegin
  2
Drfsicht1
 70
     0
 10
-62.6
 20
-41.19999999999997
 30
0.0
  3
Drfsicht1
  1

  0
INSERT
  5
52
330
51
100
AcDbEntity
  8
0
100
AcDbBlockReference
  2
ZB_5_VT_100_UNBEDRUCKT-select__2
 10
-67.850000235431
 20
-43.77500004767869
 30
0.0
  0
MTEXT
  5
AA
330
51
100
AcDbEntity
  8
1
 62
     6
100
AcDbMText
 10
-62.60120708574098
 20
-44.7750000476787
 30
0.0
 40
1.0
 41
0.0
 71
     2
 72
     1
  1
 
  7
CONVERTER_11
 73
     1
 44
1.32052821128451
  0
DIMENSION
  5
B5
330
51
100
AcDbEntity
  8
1
100
AcDbDimension
  2
*D17
 10
-70.33140880371182
 20
-38.6250000476787
 30
0.0
 11
-71.01640880371183
 21
-41.27573712653242
 31
0.0
 70
    32
  1
<>
 71
     5
 42
-1.0
 53
90.0
  3
ME10_DIM_10
100
AcDbAlignedDimension
 13
-67.85000023543098
 23
-43.7750000476787
 33
0.0
 14
-67.85000023543101
 24
-38.6250000476787
 34
0.0
 50
90.0
100
AcDbRotatedDimension
  0
ENDBLK
  5
54
330
51
100
AcDbEntity
  8
0
100
AcDbBlockEnd
  0
BLOCK
  5
56
330
55
100
AcDbEntity
  8
0
100
AcDbBlockBegin
  2
ZB_5_VT_100_UNBEDRUCKT-select__3
 70
     0
 10
-67.85000023543103
 20
-29.62091152697846
 30
0.0
  3
ZB_5_VT_100_UNBEDRUCKT-select__3
  1

  0
LINE
  5
B6
330
55
100
AcDbEntity
  8
0
  6
Continuous
 62
     7
100
AcDbLine
 10
-67.85000023543103
 20
-25.32091152697847
 30
0.0
 11
-67.85000023543103
 21
-26.32091152697845
 31
0.0
  0
LINE
  5
B7
330
55
100
AcDbEntity
  8
0
  6
Continuous
 62
     7
100
AcDbLine
 10
-67.85000023543103
 20
-26.32091152697845
 30
0.0
 11
-64.64614640651342
 21
-26.32091152697845
 31
0.0
  0
LINE
  5
B8
330
55
100
AcDbEntity
  8
0
  6
Continuous
 62
     7
100
AcDbLine
 10
-60.550000235431
 20
-28.54636823673675
 30
0.0
 11
-60.550000235431
 21
-29.62091152697845
 31
0.0
  0
LINE
  5
B9
330
55
100
AcDbEntity
  8
0
  6
Continuous
 62
     7
100
AcDbLine
 10
-60.55385406434859
 20
-26.32091152697844
 30
0.0
 11
-57.35000023543101
 21
-26.32091152697845
 31
0.0
  0
LINE
  5
BA
330
55
100
AcDbEntity
  8
0
  6
Continuous
 62
     7
100
AcDbLine
 10
-61.36000023543102
 20
-26.32091152697845
 30
0.0
 11
-60.550000235431
 21
-28.54636823673675
 31
0.0
  0
LINE
  5
BB
330
55
100
AcDbEntity
  8
0
  6
Continuous
 62
     7
100
AcDbLine
 10
-59.93276183288939
 20
-28.63885929097047
 30
0.0
 11
-60.55385406434859
 21
-26.32091152697844
 31
0.0
  0
LINE
  5
BC
330
55
100
AcDbEntity
  8
0
  6
Continuous
 62
     7
100
AcDbLine
 10
-63.84000023543102
 20
-26.32091152697847
 30
0.0
 11
-61.36000023543102
 21
-26.32091152697845
 31
0.0
  0
LINE
  5
BD
330
55
100
AcDbEntity
  8
0
  6
Continuous
 62
     7
100
AcDbLine
 10
-64.64614640651342
 20
-26.32091152697845
 30
0.0
 11
-65.26723863797262
 21
-28.63885929097048
 31
0.0
  0
LINE
  5
BE
330
55
100
AcDbEntity
  8
0
  6
Continuous
 62
     7
100
AcDbLine
 10
-64.65000023543104
 20
-28.5463682367367
 30
0.0
 11
-63.84000023543102
 21
-26.32091152697847
 31
0.0
  0
LINE
  5
BF
330
55
100
AcDbEntity
  8
0
  6
Continuous
 62
     7
100
AcDbLine
 10
-65.40000023543101
 20
-29.62091152697846
 30
0.0
 11
-64.65000023543101
 21
-29.62091152697846
 31
0.0
  0
LINE
  5
C0
330
55
100
AcDbEntity
  8
0
  6
Continuous
 62
     7
100
AcDbLine
 10
-64.65000023543101
 20
-29.62091152697846
 30
0.0
 11
-64.65000023543104
 21
-28.5463682367367
 31
0.0
  0
LINE
  5
C1
330
55
100
AcDbEntity
  8
0
  6
Continuous
 62
     7
100
AcDbLine
 10
-60.550000235431
 20
-29.62091152697845
 30
0.0
 11
-59.80000023543102
 21
-29.62091152697845
 31
0.0
  0
LINE
  5
C2
330
55
100
AcDbEntity
  8
0
  6
Continuous
 62
     7
100
AcDbLine
 10
-57.35000023543101
 20
-26.32091152697845
 30
0.0
 11
-57.35000023543103
 21
-25.32091152697847
 31
0.0
  0
LINE
  5
C3
330
55
100
AcDbEntity
  8
0
  6
Continuous
 62
     7
100
AcDbLine
 10
-57.35000023543103
 20
-25.32091152697847
 30
0.0
 11
-67.85000023543103
 21
-25.32091152697847
 31
0.0
  0
ARC
  5
C4
330
55
100
AcDbEntity
  8
0
  6
Continuous
 62
     7
100
AcDbCircle
 10
-59.80000023543102
 20
-29.12091152697846
 30
0.0
 40
0.4999999999999893
100
AcDbArc
 50
270.0
 51
105.3980434348753
  0
ARC
  5
C5
330
55
100
AcDbEntity
  8
0
  6
Continuous
 62
     7
100
AcDbCircle
 10
-65.40000023543102
 20
-29.12091152697846
 30
0.0
 40
0.4999999999999995
100
AcDbArc
 50
74.6019565651212
 51
270.0000000000016
  0
ENDBLK
  5
57
330
55
100
AcDbEntity
  8
0
100
AcDbBlockEnd
  0
BLOCK
  5
5A
330
58
100
AcDbEntity
  8
0
100
AcDbBlockBegin
  2
Vordans1
 70
     0
 10
-62.60000000000004
 20
-27.47091299999997
 30
0.0
  3
Vordans1
  1

  0
INSERT
  5
59
330
58
100
AcDbEntity
  8
0
100
AcDbBlockReference
  2
ZB_5_VT_100_UNBEDRUCKT-select__3
 10
-67.85000023543103
 20
-29.62091152697846
 30
0.0
  0
MTEXT
  5
C6
330
58
100
AcDbEntity
  8
1
 62
     6
100
AcDbMText
 10
-62.60120708574101
 20
-33.62500036668931
 30
0.0
 40
1.0
 41
0.0
 71
     2
 72
     1
  1
 
  7
CONVERTER_11
 73
     1
 44
1.32052821128451
  0
DIMENSION
  5
D1
330
58
100
AcDbEntity
  8
1
100
AcDbDimension
  2
*D18
 10
-70.33140880371182
 20
-25.32091152697847
 30
0.0
 11
-71.01640880371183
 21
-27.4804519306292
 31
0.0
 70
    32
  1
<>
 71
     5
 42
-1.0
 53
90.0
  3
ME10_DIM_11
100
AcDbAlignedDimension
 13
-64.65000023543101
 23
-29.62091152697846
 33
0.0
 14
-67.85000023543103
 24
-25.32091152697847
 34
0.0
 50
90.0
100
AcDbRotatedDimension
  0
DIMENSION
  5
DC
330
58
100
AcDbEntity
  8
1
100
AcDbDimension
  2
*D19
 10
-57.35000023543101
 20
-32.05304646185561
 30
0.0
 11
-62.9687565924152
 21
-31.36804646185561
 31
0.0
 70
    33
  1
<>
 71
     5
 42
-1.0
 53
0.00013888888889
  3
ME10_DIM_12
100
AcDbAlignedDimension
 13
-67.85000023543103
 23
-26.32091152697845
 33
0.0
 14
-57.35000023543102
 24
-26.32091152697845
 34
0.0
  0
ENDBLK
  5
5B
330
58
100
AcDbEntity
  8
0
100
AcDbBlockEnd
  0
BLOCK
  5
5D
330
5C
100
AcDbEntity
  8
0
100
AcDbBlockBegin
  2
ZB_5_VT_100_UNBEDRUCKT-select__4
 70
     0
 10
-78.02825104767872
 20
-29.62091152697849
 30
0.0
  3
ZB_5_VT_100_UNBEDRUCKT-select__4
  1

  0
LINE
  5
DD
330
5C
100
AcDbEntity
  8
0
  6
Continuous
 62
     7
100
AcDbLine
 10
-78.02825104767872
 20
-26.3209115269785
 30
0.0
 11
-78.02825104767872
 21
-25.32091152697849
 31
0.0
  0
LINE
  5
DE
330
5C
100
AcDbEntity
  8
0
  6
Continuous
 62
     7
100
AcDbLine
 10
-78.02825104767872
 20
-25.32091152697849
 30
0.0
 11
-72.87825104767872
 21
-25.32091152697849
 31
0.0
  0
LINE
  5
DF
330
5C
100
AcDbEntity
  8
0
  6
Continuous
 62
     7
100
AcDbLine
 10
-72.87825104767872
 20
-26.32091152697853
 30
0.0
 11
-72.87825104767872
 21
-25.32091152697849
 31
0.0
  0
LINE
  5
E0
330
5C
100
AcDbEntity
  8
0
  6
Continuous
 62
     7
100
AcDbLine
 10
-78.02825104767872
 20
-26.3209115269785
 30
0.0
 11
-72.87825104767872
 21
-26.32091152697853
 31
0.0
  0
LINE
  5
E1
330
5C
100
AcDbEntity
  8
0
  6
Continuous
 62
     7
100
AcDbLine
 10
-78.02825104767872
 20
-28.62091152697848
 30
0.0
 11
-78.02825104767872
 21
-26.3209115269785
 31
0.0
  0
LINE
  5
E2
330
5C
100
AcDbEntity
  8
0
  6
Continuous
 62
     7
100
AcDbLine
 10
-72.87825104767872
 20
-28.62091152697848
 30
0.0
 11
-72.87825104767872
 21
-26.32091152697853
 31
0.0
  0
LINE
  5
E3
330
5C
100
AcDbEntity
  8
0
  6
Continuous
 62
     7
100
AcDbLine
 10
-78.02825104767872
 20
-29.62091152697849
 30
0.0
 11
-78.02825104767872
 21
-28.62091152697848
 31
0.0
  0
LINE
  5
E4
330
5C
100
AcDbEntity
  8
0
  6
Continuous
 62
     7
100
AcDbLine
 10
-72.87825104767872
 20
-29.62091152697849
 30
0.0
 11
-72.87825104767872
 21
-28.62091152697848
 31
0.0
  0
LINE
  5
E5
330
5C
100
AcDbEntity
  8
0
  6
Continuous
 62
     7
100
AcDbLine
 10
-72.87825104767872
 20
-28.62091152697848
 30
0.0
 11
-78.02825104767872
 21
-28.62091152697848
 31
0.0
  0
LINE
  5
E6
330
5C
100
AcDbEntity
  8
0
  6
Continuous
 62
     7
100
AcDbLine
 10
-72.87825104767872
 20
-29.62091152697849
 30
0.0
 11
-78.02825104767872
 21
-29.62091152697849
 31
0.0
  0
ENDBLK
  5
5E
330
5C
100
AcDbEntity
  8
0
100
AcDbBlockEnd
  0
BLOCK
  5
61
330
5F
100
AcDbEntity
  8
0
100
AcDbBlockBegin
  2
SA_Rechts1
 70
     0
 10
-75.453251
 20
-27.470913
 30
0.0
  3
SA_Rechts1
  1

  0
INSERT
  5
60
330
5F
100
AcDbEntity
  8
0
100
AcDbBlockReference
  2
ZB_5_VT_100_UNBEDRUCKT-select__4
 10
-78.02825104767872
 20
-29.62091152697849
 30
0.0
  0
MTEXT
  5
E7
330
5F
100
AcDbEntity
  8
1
 62
     6
100
AcDbMText
 10
-75.45325116148459
 20
-33.62500036668931
 30
0.0
 40
1.0
 41
0.0
 71
     2
 72
     1
  1
 
  7
CONVERTER_11
 73
     1
 44
1.32052821128451
  0
ENDBLK
  5
62
330
5F
100
AcDbEntity
  8
0
100
AcDbBlockEnd
  0
BLOCK
  5
64
330
63
100
AcDbEntity
  8
0
100
AcDbBlockBegin
  2
ZB_5_VT_100_UNBEDRUCKT-select__5
 70
     0
 10
-42.14832576456902
 20
-29.62091152697849
 30
0.0
  3
ZB_5_VT_100_UNBEDRUCKT-select__5
  1

  0
LINE
  5
E8
330
63
100
AcDbEntity
  8
0
  6
Continuous
 62
     7
100
AcDbLine
 10
-34.09832576456903
 20
-29.62091152697848
 30
0.0
 11
-34.84832576456903
 21
-29.62091152697849
 31
0.0
  0
LINE
  5
E9
330
63
100
AcDbEntity
  8
0
  6
Continuous
 62
     7
100
AcDbLine
 10
-31.64832576456901
 20
-25.32091152697849
 30
0.0
 11
-31.64832576456902
 21
-26.32091152697849
 31
0.0
  0
LINE
  5
EA
330
63
100
AcDbEntity
  8
0
  6
Continuous
 62
     7
100
AcDbLine
 10
-34.84832576456901
 20
-28.54636823673674
 30
0.0
 11
-35.658325764569
 21
-26.32091152697853
 31
0.0
  0
LINE
  5
EB
330
63
100
AcDbEntity
  8
0
  6
Continuous
 62
     7
100
AcDbLine
 10
-34.85217959348661
 20
-26.32091152697847
 30
0.0
 11
-34.23108736202742
 21
-28.63885929097051
 31
0.0
  0
LINE
  5
EC
330
63
100
AcDbEntity
  8
0
  6
Continuous
 62
     7
100
AcDbLine
 10
-34.84832576456903
 20
-29.62091152697849
 30
0.0
 11
-34.84832576456901
 21
-28.54636823673674
 31
0.0
  0
LINE
  5
ED
330
63
100
AcDbEntity
  8
0
  6
Continuous
 62
     7
100
AcDbLine
 10
-31.64832576456902
 20
-26.32091152697849
 30
0.0
 11
-34.85217959348661
 21
-26.32091152697847
 31
0.0
  0
LINE
  5
EE
330
63
100
AcDbEntity
  8
0
  6
Continuous
 62
     7
100
AcDbLine
 10
-35.658325764569
 20
-26.32091152697853
 30
0.0
 11
-38.13832576456902
 21
-26.32091152697848
 31
0.0
  0
LINE
  5
EF
330
63
100
AcDbEntity
  8
0
  6
Continuous
 62
     7
100
AcDbLine
 10
-39.56556416711064
 20
-28.63885929097049
 30
0.0
 11
-38.94447193565145
 21
-26.32091152697845
 31
0.0
  0
LINE
  5
F0
330
63
100
AcDbEntity
  8
0
  6
Continuous
 62
     7
100
AcDbLine
 10
-38.13832576456902
 20
-26.32091152697848
 30
0.0
 11
-38.94832576456903
 21
-28.54636823673674
 31
0.0
  0
LINE
  5
F1
330
63
100
AcDbEntity
  8
0
  6
Continuous
 62
     7
100
AcDbLine
 10
-38.94832576456903
 20
-29.62091152697848
 30
0.0
 11
-39.69832576456902
 21
-29.62091152697848
 31
0.0
  0
LINE
  5
F2
330
63
100
AcDbEntity
  8
0
  6
Continuous
 62
     7
100
AcDbLine
 10
-38.94832576456903
 20
-28.54636823673674
 30
0.0
 11
-38.94832576456903
 21
-29.62091152697848
 31
0.0
  0
LINE
  5
F3
330
63
100
AcDbEntity
  8
0
  6
Continuous
 62
     7
100
AcDbLine
 10
-38.94447193565145
 20
-26.32091152697845
 30
0.0
 11
-42.14832576456902
 21
-26.32091152697848
 31
0.0
  0
LINE
  5
F4
330
63
100
AcDbEntity
  8
0
  6
Continuous
 62
     7
100
AcDbLine
 10
-42.14832576456902
 20
-26.32091152697848
 30
0.0
 11
-42.14832576456901
 21
-25.32091152697849
 31
0.0
  0
LINE
  5
F5
330
63
100
AcDbEntity
  8
0
  6
Continuous
 62
     7
100
AcDbLine
 10
-42.14832576456901
 20
-25.32091152697849
 30
0.0
 11
-31.64832576456901
 21
-25.32091152697849
 31
0.0
  0
ARC
  5
F6
330
63
100
AcDbEntity
  8
0
  6
Continuous
 62
     7
100
AcDbCircle
 10
-34.09832576456902
 20
-29.12091152697849
 30
0.0
 40
0.4999999999999929
100
AcDbArc
 50
269.9999999999984
 51
105.3980434348789
  0
ARC
  5
F7
330
63
100
AcDbEntity
  8
0
  6
Continuous
 62
     7
100
AcDbCircle
 10
-39.69832576456901
 20
-29.12091152697848
 30
0.0
 40
0.5000000000000041
100
AcDbArc
 50
74.60195656512388
 51
269.9999999999992
  0
ENDBLK
  5
65
330
63
100
AcDbEntity
  8
0
100
AcDbBlockEnd
  0
BLOCK
  5
68
330
66
100
AcDbEntity
  8
0
100
AcDbBlockBegin
  2
Rckans1
 70
     0
 10
-36.898326
 20
-27.470913
 30
0.0
  3
Rckans1
  1

  0
INSERT
  5
67
330
66
100
AcDbEntity
  8
0
100
AcDbBlockReference
  2
ZB_5_VT_100_UNBEDRUCKT-select__5
 10
-42.14832576456902
 20
-29.62091152697849
 30
0.0
  0
MTEXT
  5
F8
330
66
100
AcDbEntity
  8
1
 62
     6
100
AcDbMText
 10
-36.89711859127991
 20
-33.62500036668931
 30
0.0
 40
1.0
 41
0.0
 71
     2
 72
     1
  1
 
  7
CONVERTER_11
 73
     1
 44
1.32052821128451
  0
ENDBLK
  5
69
330
66
100
AcDbEntity
  8
0
100
AcDbBlockEnd
  0
BLOCK
  5
6B
330
6A
100
AcDbEntity
  8
0
100
AcDbBlockBegin
  2
ZB_5_VT_100_UNBEDRUCKT-select__6
 70
     0
 10
-52.32416295232132
 20
-29.62091152697845
 30
0.0
  3
ZB_5_VT_100_UNBEDRUCKT-select__6
  1

  0
LINE
  5
F9
330
6A
100
AcDbEntity
  8
0
  6
Continuous
 62
     7
100
AcDbLine
 10
-52.32416295232132
 20
-28.62091152697846
 30
0.0
 11
-47.17416295232133
 21
-28.62091152697846
 31
0.0
  0
LINE
  5
FA
330
6A
100
AcDbEntity
  8
0
  6
Continuous
 62
     7
100
AcDbLine
 10
-47.17416295232133
 20
-28.62091152697846
 30
0.0
 11
-47.17416295232133
 21
-29.62091152697845
 31
0.0
  0
LINE
  5
FB
330
6A
100
AcDbEntity
  8
0
  6
Continuous
 62
     7
100
AcDbLine
 10
-52.32416295232132
 20
-29.62091152697845
 30
0.0
 11
-47.17416295232133
 21
-29.62091152697845
 31
0.0
  0
LINE
  5
FC
330
6A
100
AcDbEntity
  8
0
  6
Continuous
 62
     7
100
AcDbLine
 10
-52.32416295232132
 20
-28.62091152697846
 30
0.0
 11
-52.32416295232132
 21
-29.62091152697845
 31
0.0
  0
LINE
  5
FD
330
6A
100
AcDbEntity
  8
0
  6
Continuous
 62
     7
100
AcDbLine
 10
-47.17416295232133
 20
-26.32091152697846
 30
0.0
 11
-47.17416295232133
 21
-28.62091152697846
 31
0.0
  0
LINE
  5
FE
330
6A
100
AcDbEntity
  8
0
  6
Continuous
 62
     7
100
AcDbLine
 10
-47.17416295232133
 20
-25.32091152697847
 30
0.0
 11
-47.17416295232133
 21
-26.32091152697846
 31
0.0
  0
LINE
  5
FF
330
6A
100
AcDbEntity
  8
0
  6
Continuous
 62
     7
100
AcDbLine
 10
-47.17416295232133
 20
-26.32091152697846
 30
0.0
 11
-52.32416295232132
 21
-26.32091152697846
 31
0.0
  0
LINE
  5
100
330
6A
100
AcDbEntity
  8
0
  6
Continuous
 62
     7
100
AcDbLine
 10
-52.32416295232132
 20
-26.32091152697846
 30
0.0
 11
-52.32416295232132
 21
-28.62091152697846
 31
0.0
  0
LINE
  5
101
330
6A
100
AcDbEntity
  8
0
  6
Continuous
 62
     7
100
AcDbLine
 10
-52.32416295232132
 20
-25.32091152697847
 30
0.0
 11
-52.32416295232132
 21
-26.32091152697846
 31
0.0
  0
LINE
  5
102
330
6A
100
AcDbEntity
  8
0
  6
Continuous
 62
     7
100
AcDbLine
 10
-47.17416295232133
 20
-25.32091152697847
 30
0.0
 11
-52.32416295232132
 21
-25.32091152697847
 31
0.0
  0
ENDBLK
  5
6C
330
6A
100
AcDbEntity
  8
0
100
AcDbBlockEnd
  0
BLOCK
  5
6F
330
6D
100
AcDbEntity
  8
0
100
AcDbBlockBegin
  2
SA_Links1
 70
     0
 10
-49.74916300000003
 20
-27.47091299999997
 30
0.0
  3
SA_Links1
  1

  0
INSERT
  5
6E
330
6D
100
AcDbEntity
  8
0
100
AcDbBlockReference
  2
ZB_5_VT_100_UNBEDRUCKT-select__6
 10
-52.32416295232132
 20
-29.62091152697845
 30
0.0
  0
MTEXT
  5
103
330
6D
100
AcDbEntity
  8
1
 62
     6
100
AcDbMText
 10
-49.74916283851547
 20
-33.62500036668931
 30
0.0
 40
1.0
 41
0.0
 71
     2
 72
     1
  1
 
  7
CONVERTER_11
 73
     1
 44
1.32052821128451
  0
ENDBLK
  5
70
330
6D
100
AcDbEntity
  8
0
100
AcDbBlockEnd
  0
BLOCK
  5
72
330
71
100
AcDbEntity
  8
0
100
AcDbBlockBegin
  2
_rahmen
 70
     0
 10
-130.912843598705
 20
-294.966637213339
 30
0.0
  3
_rahmen
  1

  0
LINE
  5
104
330
71
100
AcDbEntity
  8
1
  6
DOT_CENTER
 62
     2
100
AcDbLine
 10
-256.4709932388924
 20
-268.841637213339
 30
0.0
 11
-250.9709932388924
 21
-268.841637213339
 31
0.0
  0
LINE
  5
105
330
71
100
AcDbEntity
  8
1
  6
PHANTOM
 62
     2
100
AcDbLine
 10
-247.7209932388924
 20
-266.091637213339
 30
0.0
 11
-247.7209932388924
 21
-271.591637213339
 31
0.0
  0
LINE
  5
106
330
71
100
AcDbEntity
  8
1
  6
PHANTOM
 62
     2
100
AcDbLine
 10
-244.9709932388924
 20
-268.841637213339
 30
0.0
 11
-250.4709932388924
 21
-268.841637213339
 31
0.0
  0
LINE
  5
107
330
71
100
AcDbEntity
  8
1
  6
Continuous
 62
     7
100
AcDbLine
 10
-196.157648125455
 20
-281.466637213339
 30
0.0
 11
-196.157648125455
 21
-272.9666372133389
 31
0.0
  0
LINE
  5
108
330
71
100
AcDbEntity
  8
1
  6
Continuous
 62
     6
100
AcDbLine
 10
-224.0576481254551
 20
-272.9666372133389
 30
0.0
 11
-130.9128435987033
 21
-272.9666372133389
 31
0.0
  0
LINE
  5
109
330
71
100
AcDbEntity
  8
1
  6
Continuous
 62
     7
100
AcDbLine
 10
-260.457648125455
 20
-272.9666372133389
 30
0.0
 11
-260.457648125455
 21
-264.4666372133389
 31
0.0
  0
LINE
  5
10A
330
71
100
AcDbEntity
  8
1
  6
Continuous
 62
     7
100
AcDbLine
 10
-224.0576481254551
 20
-272.9666372133389
 30
0.0
 11
-224.0576481254551
 21
-264.4666372133389
 31
0.0
  0
LINE
  5
10B
330
71
100
AcDbEntity
  8
1
  6
Continuous
 62
     7
100
AcDbLine
 10
-166.3312518803821
 20
-264.4666372133389
 30
0.0
 11
-166.3312518803821
 21
-272.9666372133389
 31
0.0
  0
LINE
  5
10C
330
71
100
AcDbEntity
  8
1
  6
Continuous
 62
     7
100
AcDbLine
 10
-139.8312518803825
 20
-264.4666372133389
 30
0.0
 11
-139.8312518803825
 21
-272.9666372133389
 31
0.0
  0
LINE
  5
10D
330
71
100
AcDbEntity
  8
1
  6
Continuous
 62
     6
100
AcDbLine
 10
-329.457648125455
 20
-289.9666372133389
 30
0.0
 11
-374.412843598705
 21
-289.9666372133389
 31
0.0
  0
LINE
  5
10E
330
71
100
AcDbEntity
  8
1
  6
Continuous
 62
     7
100
AcDbLine
 10
-130.9128435987037
 20
-281.4666372133389
 30
0.0
 11
-224.0576481254551
 21
-281.4666372133389
 31
0.0
  0
LINE
  5
10F
102
{ACAD_REACTORS
330
221
330
222
102
}
330
71
100
AcDbEntity
  8
0
  6
Continuous
 62
     2
100
AcDbLine
 10
-246.7502191836876
 20
-280.6663480976756
 30
0.0
 11
-246.7502191836876
 21
-279.7938310908724
 31
0.0
  0
LINE
  5
110
102
{ACAD_REACTORS
330
221
330
222
102
}
330
71
100
AcDbEntity
  8
0
  6
Continuous
 62
     2
100
AcDbLine
 10
-246.7502191836876
 20
-281.6261168051585
 30
0.0
 11
-246.7502191836876
 21
-282.4986338119618
 31
0.0
  0
LINE
  5
111
102
{ACAD_REACTORS
330
223
330
224
102
}
330
71
100
AcDbEntity
  8
0
  6
Continuous
 62
     2
100
AcDbLine
 10
-231.4171750473971
 20
-280.4045929956351
 30
0.0
 11
-230.313535747829
 21
-280.4045929956351
 31
0.0
  0
LINE
  5
112
102
{ACAD_REACTORS
330
223
330
224
102
}
330
71
100
AcDbEntity
  8
0
  6
Continuous
 62
     2
100
AcDbLine
 10
-230.6475177044357
 20
-281.626116805159
 30
0.0
 11
-230.6475177044357
 21
-282.4986338119624
 31
0.0
  0
LINE
  5
113
102
{ACAD_REACTORS
330
22D
330
22E
102
}
330
71
100
AcDbEntity
  8
0
  6
Continuous
 62
     2
100
AcDbLine
 10
-232.5082743198156
 20
-279.3139467371483
 30
0.0
 11
-231.1103212728753
 21
-277.7330877433734
 31
0.0
  0
LINE
  5
114
102
{ACAD_REACTORS
330
22D
330
22E
102
}
330
71
100
AcDbEntity
  8
0
  6
Continuous
 62
     2
100
AcDbLine
 10
-232.4128509036428
 20
-276.2601372133372
 30
0.0
 11
-231.1103212728753
 21
-277.7330877433734
 31
0.0
  0
LINE
  5
115
102
{ACAD_REACTORS
330
22D
330
22E
102
}
330
71
100
AcDbEntity
  8
0
  6
Continuous
 62
     2
100
AcDbLine
 10
-229.8077916421089
 20
-276.2601372133372
 30
0.0
 11
-228.4050674243617
 21
-276.2601372133372
 31
0.0
  0
LINE
  5
116
102
{ACAD_REACTORS
330
22D
330
22E
102
}
330
71
100
AcDbEntity
  8
0
  6
Continuous
 62
     2
100
AcDbLine
 10
-231.1055501020674
 20
-279.3139467371483
 30
0.0
 11
-230.4089591640017
 21
-278.5262149518546
 31
0.0
  0
LINE
  5
117
102
{ACAD_REACTORS
330
22D
330
22E
102
}
330
71
100
AcDbEntity
  8
0
  6
Continuous
 62
     2
100
AcDbLine
 10
-231.1055501020674
 20
-279.3139467371483
 30
0.0
 11
-232.5082743198156
 21
-279.3139467371483
 31
0.0
  0
LINE
  5
118
102
{ACAD_REACTORS
330
22F
330
230
102
}
330
71
100
AcDbEntity
  8
0
  6
Continuous
 62
     2
100
AcDbLine
 10
-232.6275535900325
 20
-279.3139467371483
 30
0.0
 11
-233.8680580002854
 21
-279.3139467371483
 31
0.0
  0
LINE
  5
119
102
{ACAD_REACTORS
330
231
330
232
102
}
330
71
100
AcDbEntity
  8
0
  6
Continuous
 62
     2
100
AcDbLine
 10
-234.7360376084405
 20
-281.4516134037982
 30
0.0
 11
-235.0362028456306
 21
-280.6837984378115
 31
0.0
  0
LINE
  5
11A
102
{ACAD_REACTORS
330
231
330
232
102
}
330
71
100
AcDbEntity
  8
0
  6
Continuous
 62
     2
100
AcDbLine
 10
-235.336368082823
 20
-281.4516134037982
 30
0.0
 11
-234.7360376084405
 21
-281.4516134037982
 31
0.0
  0
LINE
  5
11B
102
{ACAD_REACTORS
330
231
330
232
102
}
330
71
100
AcDbEntity
  8
0
  6
Continuous
 62
     2
100
AcDbLine
 10
-237.0544080976968
 20
-282.6731372133227
 30
0.0
 11
-235.8139036874438
 21
-282.6731372133227
 31
0.0
  0
LINE
  5
11C
102
{ACAD_REACTORS
330
231
330
232
102
}
330
71
100
AcDbEntity
  8
0
  6
Continuous
 62
     2
100
AcDbLine
 10
-235.6564550507575
 20
-279.6193276895116
 30
0.0
 11
-234.4159506405048
 21
-279.6193276895116
 31
0.0
  0
LINE
  5
11D
102
{ACAD_REACTORS
330
231
330
232
102
}
330
71
100
AcDbEntity
  8
0
  6
Continuous
 62
     2
100
AcDbLine
 10
-234.4159506405048
 20
-279.6193276895116
 30
0.0
 11
-233.0179975935645
 21
-282.6731372133227
 31
0.0
  0
LINE
  5
11E
102
{ACAD_REACTORS
330
231
330
232
102
}
330
71
100
AcDbEntity
  8
0
  6
Continuous
 62
     2
100
AcDbLine
 10
-234.2585020038184
 20
-282.6731372133227
 30
0.0
 11
-234.4699820572942
 21
-282.1321766691048
 31
0.0
  0
LINE
  5
11F
102
{ACAD_REACTORS
330
233
330
234
102
}
330
71
100
AcDbEntity
  8
0
  6
Continuous
 62
     2
100
AcDbLine
 10
-238.4008211994044
 20
-282.6731372133227
 30
0.0
 11
-237.2080284972379
 21
-282.6731372133227
 31
0.0
  0
LINE
  5
120
102
{ACAD_REACTORS
330
233
330
234
102
}
330
71
100
AcDbEntity
  8
0
  6
Continuous
 62
     2
100
AcDbLine
 10
-238.4008211994044
 20
-280.4045929956351
 30
0.0
 11
-238.4008211994044
 21
-282.6731372133227
 31
0.0
  0
LINE
  5
121
102
{ACAD_REACTORS
330
233
330
234
102
}
330
71
100
AcDbEntity
  8
0
  6
Continuous
 62
     2
100
AcDbLine
 10
-239.211920236879
 20
-279.6193276895116
 30
0.0
 11
-239.211920236879
 21
-280.4045929956351
 31
0.0
  0
LINE
  5
122
102
{ACAD_REACTORS
330
235
330
236
102
}
330
71
100
AcDbEntity
  8
0
  6
Continuous
 62
     2
100
AcDbLine
 10
-237.7327063553064
 20
-279.3139467371483
 30
0.0
 11
-236.5399136531399
 21
-279.3139467371483
 31
0.0
  0
LINE
  5
123
102
{ACAD_REACTORS
330
235
330
236
102
}
330
71
100
AcDbEntity
  8
0
  6
Continuous
 62
     2
100
AcDbLine
 10
-235.2994092428859
 20
-277.5689127235423
 30
0.0
 11
-236.5399136531399
 21
-276.2601372133372
 31
0.0
  0
LINE
  5
124
102
{ACAD_REACTORS
330
235
330
236
102
}
330
71
100
AcDbEntity
  8
0
  6
Continuous
 62
     2
100
AcDbLine
 10
-234.1066165407193
 20
-276.2601372133372
 30
0.0
 11
-235.2994092428859
 21
-276.2601372133372
 31
0.0
  0
LINE
  5
125
102
{ACAD_REACTORS
330
235
330
236
102
}
330
71
100
AcDbEntity
  8
0
  6
Continuous
 62
     2
100
AcDbLine
 10
-234.1066165407193
 20
-279.3139467371483
 30
0.0
 11
-234.1066165407193
 21
-276.2601372133372
 31
0.0
  0
LINE
  5
126
102
{ACAD_REACTORS
330
235
330
236
102
}
330
71
100
AcDbEntity
  8
0
  6
Continuous
 62
     2
100
AcDbLine
 10
-235.2994092428859
 20
-279.3139467371483
 30
0.0
 11
-234.1066165407193
 21
-279.3139467371483
 31
0.0
  0
LINE
  5
127
102
{ACAD_REACTORS
330
235
330
236
102
}
330
71
100
AcDbEntity
  8
0
  6
Continuous
 62
     2
100
AcDbLine
 10
-236.5399136531399
 20
-278.0051712269436
 30
0.0
 11
-235.2994092428859
 21
-279.3139467371483
 31
0.0
  0
LINE
  5
128
102
{ACAD_REACTORS
330
237
330
238
102
}
330
71
100
AcDbEntity
  8
0
  6
Continuous
 62
     2
100
AcDbLine
 10
-240.5478480633056
 20
-280.9281031997167
 30
0.0
 11
-241.7883524735585
 21
-279.6193276895116
 31
0.0
  0
LINE
  5
129
102
{ACAD_REACTORS
330
237
330
238
102
}
330
71
100
AcDbEntity
  8
0
  6
Continuous
 62
     2
100
AcDbLine
 10
-240.5478480633056
 20
-279.6193276895116
 30
0.0
 11
-240.5478480633056
 21
-280.9281031997167
 31
0.0
  0
LINE
  5
12A
102
{ACAD_REACTORS
330
237
330
238
102
}
330
71
100
AcDbEntity
  8
0
  6
Continuous
 62
     2
100
AcDbLine
 10
-239.3550553611392
 20
-279.6193276895116
 30
0.0
 11
-240.5478480633056
 21
-279.6193276895116
 31
0.0
  0
LINE
  5
12B
102
{ACAD_REACTORS
330
237
330
238
102
}
330
71
100
AcDbEntity
  8
0
  6
Continuous
 62
     2
100
AcDbLine
 10
-239.3550553611392
 20
-282.6731372133227
 30
0.0
 11
-239.3550553611392
 21
-279.6193276895116
 31
0.0
  0
LINE
  5
12C
102
{ACAD_REACTORS
330
237
330
238
102
}
330
71
100
AcDbEntity
  8
0
  6
Continuous
 62
     2
100
AcDbLine
 10
-241.7883524735585
 20
-281.3643617031181
 30
0.0
 11
-240.5478480633056
 21
-282.6731372133227
 31
0.0
  0
LINE
  5
12D
102
{ACAD_REACTORS
330
237
330
238
102
}
330
71
100
AcDbEntity
  8
0
  6
Continuous
 62
     2
100
AcDbLine
 10
-241.7883524735585
 20
-282.6731372133227
 30
0.0
 11
-241.7883524735585
 21
-281.3643617031181
 31
0.0
  0
LINE
  5
12E
102
{ACAD_REACTORS
330
227
330
228
102
}
330
71
100
AcDbEntity
  8
0
  6
Continuous
 62
     2
100
AcDbLine
 10
-239.307192722167
 20
-276.9581508187802
 30
0.0
 11
-237.9712648957393
 21
-276.9581508187802
 31
0.0
  0
LINE
  5
12F
102
{ACAD_REACTORS
330
227
330
228
102
}
330
71
100
AcDbEntity
  8
0
  6
Continuous
 62
     2
100
AcDbLine
 10
-239.307192722167
 20
-278.6159331317058
 30
0.0
 11
-239.307192722167
 21
-278.1360487779641
 31
0.0
  0
LINE
  5
130
102
{ACAD_REACTORS
330
227
330
228
102
}
330
71
100
AcDbEntity
  8
0
  6
Continuous
 62
     2
100
AcDbLine
 10
-237.9712648957393
 20
-278.6159331317058
 30
0.0
 11
-239.307192722167
 21
-278.6159331317058
 31
0.0
  0
LINE
  5
131
102
{ACAD_REACTORS
330
227
330
228
102
}
330
71
100
AcDbEntity
  8
0
  6
Continuous
 62
     2
100
AcDbLine
 10
-237.9712648957393
 20
-279.3139467371483
 30
0.0
 11
-237.9712648957393
 21
-278.6159331317058
 31
0.0
  0
LINE
  5
132
102
{ACAD_REACTORS
330
227
330
228
102
}
330
71
100
AcDbEntity
  8
0
  6
Continuous
 62
     2
100
AcDbLine
 10
-241.1215846195203
 20
-279.3139467371483
 30
0.0
 11
-237.9712648957393
 21
-279.3139467371483
 31
0.0
  0
LINE
  5
133
102
{ACAD_REACTORS
330
227
330
228
102
}
330
71
100
AcDbEntity
  8
0
  6
Continuous
 62
     2
100
AcDbLine
 10
-241.1215846195203
 20
-276.2601372133372
 30
0.0
 11
-237.9712648957393
 21
-276.2601372133372
 31
0.0
  0
LINE
  5
134
102
{ACAD_REACTORS
330
227
330
228
102
}
330
71
100
AcDbEntity
  8
0
  6
Continuous
 62
     2
100
AcDbLine
 10
-237.9712648957393
 20
-276.9581508187802
 30
0.0
 11
-237.9712648957393
 21
-276.2601372133372
 31
0.0
  0
LINE
  5
135
102
{ACAD_REACTORS
330
239
330
23A
102
}
330
71
100
AcDbEntity
  8
0
  6
Continuous
 62
     2
100
AcDbLine
 10
-243.9829401146603
 20
-277.3289705466717
 30
0.0
 11
-243.9829401146603
 21
-276.2601372133372
 31
0.0
  0
LINE
  5
136
102
{ACAD_REACTORS
330
239
330
23A
102
}
330
71
100
AcDbEntity
  8
0
  6
Continuous
 62
     2
100
AcDbLine
 10
-243.9829401146603
 20
-276.2601372133372
 30
0.0
 11
-242.7901474124939
 21
-276.2601372133372
 31
0.0
  0
LINE
  5
137
102
{ACAD_REACTORS
330
239
330
23A
102
}
330
71
100
AcDbEntity
  8
0
  6
Continuous
 62
     2
100
AcDbLine
 10
-243.9829401146603
 20
-278.1796746283045
 30
0.0
 11
-245.0325976925678
 21
-278.1796746283045
 31
0.0
  0
LINE
  5
138
102
{ACAD_REACTORS
330
239
330
23A
102
}
330
71
100
AcDbEntity
  8
0
  6
Continuous
 62
     2
100
AcDbLine
 10
-245.0325976925678
 20
-278.1796746283045
 30
0.0
 11
-245.0325976925678
 21
-279.3139467371483
 31
0.0
  0
LINE
  5
139
102
{ACAD_REACTORS
330
239
330
23A
102
}
330
71
100
AcDbEntity
  8
0
  6
Continuous
 62
     2
100
AcDbLine
 10
-246.2253903947344
 20
-276.2601372133372
 30
0.0
 11
-246.2253903947344
 21
-279.3139467371483
 31
0.0
  0
LINE
  5
13A
102
{ACAD_REACTORS
330
22B
330
22C
102
}
330
71
100
AcDbEntity
  8
0
  6
Continuous
 62
     2
100
AcDbLine
 10
-248.181570426288
 20
-277.6289707081195
 30
0.0
 11
-248.181570426288
 21
-276.9232430587773
 31
0.0
  0
LINE
  5
13B
102
{ACAD_REACTORS
330
22B
330
22C
102
}
330
71
100
AcDbEntity
  8
0
  6
Continuous
 62
     2
100
AcDbLine
 10
-249.4220748365421
 20
-279.3139467371483
 30
0.0
 11
-248.181570426288
 21
-279.3139467371483
 31
0.0
  0
LINE
  5
13C
102
{ACAD_REACTORS
330
22B
330
22C
102
}
330
71
100
AcDbEntity
  8
0
  6
Continuous
 62
     2
100
AcDbLine
 10
-248.181570426288
 20
-279.3139467371483
 30
0.0
 11
-248.181570426288
 21
-278.3708684960045
 31
0.0
  0
LINE
  5
13D
102
{ACAD_REACTORS
330
225
330
226
102
}
330
71
100
AcDbEntity
  8
0
  6
Continuous
 62
     2
100
AcDbLine
 10
-253.7270206857535
 20
-281.9605816577657
 30
0.0
 11
-255.2028539467631
 21
-281.9605816577657
 31
0.0
  0
LINE
  5
13E
102
{ACAD_REACTORS
330
225
330
226
102
}
330
71
100
AcDbEntity
  8
0
  6
Continuous
 62
     2
100
AcDbLine
 10
-256.2209932388924
 20
-276.6843818287391
 30
0.0
 11
-256.2209932388924
 21
-282.2488925979394
 31
0.0
  0
LINE
  5
13F
102
{ACAD_REACTORS
330
225
330
226
102
}
330
71
100
AcDbEntity
  8
0
  6
Continuous
 62
     2
100
AcDbLine
 10
-255.7967486235096
 20
-276.2601372133553
 30
0.0
 11
-250.3234365327928
 21
-276.2601372133553
 31
0.0
  0
LINE
  5
140
102
{ACAD_REACTORS
330
225
330
226
102
}
330
71
100
AcDbEntity
  8
0
  6
Continuous
 62
     2
100
AcDbLine
 10
-249.8991919174089
 20
-276.6843818287391
 30
0.0
 11
-249.8991919174089
 21
-282.2488925979394
 31
0.0
  0
LINE
  5
141
102
{ACAD_REACTORS
330
225
330
226
102
}
330
71
100
AcDbEntity
  8
0
  6
Continuous
 62
     2
100
AcDbLine
 10
-250.3234365327928
 20
-282.6731372133227
 30
0.0
 11
-255.7967486235096
 21
-282.6731372133227
 31
0.0
  0
LINE
  5
142
102
{ACAD_REACTORS
330
225
330
226
102
}
330
71
100
AcDbEntity
  8
0
  6
Continuous
 62
     2
100
AcDbLine
 10
-253.4113037626769
 20
-281.644864734689
 30
0.0
 11
-253.4113037626769
 21
-280.1140938031574
 31
0.0
  0
LINE
  5
143
102
{ACAD_REACTORS
330
225
330
226
102
}
330
71
100
AcDbEntity
  8
0
  6
Continuous
 62
     2
100
AcDbLine
 10
-253.4113037626769
 20
-277.8924343110325
 30
0.0
 11
-253.4113037626769
 21
-277.2884096919719
 31
0.0
  0
LINE
  5
144
102
{ACAD_REACTORS
330
225
330
226
102
}
330
71
100
AcDbEntity
  8
0
  6
Continuous
 62
     2
100
AcDbLine
 10
-255.2028539467631
 20
-276.9726927688957
 30
0.0
 11
-253.7270206857535
 21
-276.9726927688957
 31
0.0
  0
LINE
  5
145
102
{ACAD_REACTORS
330
225
330
226
102
}
330
71
100
AcDbEntity
  8
0
  6
Continuous
 62
     2
100
AcDbLine
 10
-255.5185708698388
 20
-277.2884096919719
 30
0.0
 11
-255.5185708698388
 21
-281.644864734689
 31
0.0
  0
LINE
  5
146
102
{ACAD_REACTORS
330
22B
330
22C
102
}
330
71
100
AcDbEntity
  8
0
  6
Continuous
 62
     2
100
AcDbLine
 10
-248.181570426288
 20
-278.3708684960045
 30
0.0
 11
-247.4228028385077
 21
-278.3708684960045
 31
0.0
  0
LINE
  5
147
102
{ACAD_REACTORS
330
22B
330
22C
102
}
330
71
100
AcDbEntity
  8
0
  6
Continuous
 62
     2
100
AcDbLine
 10
-249.4220748365421
 20
-276.2601372133372
 30
0.0
 11
-247.4228028385077
 21
-276.2601372133372
 31
0.0
  0
LINE
  5
148
102
{ACAD_REACTORS
330
22B
330
22C
102
}
330
71
100
AcDbEntity
  8
0
  6
Continuous
 62
     2
100
AcDbLine
 10
-249.4220748365421
 20
-276.2601372133372
 30
0.0
 11
-249.4220748365421
 21
-279.3139467371483
 31
0.0
  0
LINE
  5
149
102
{ACAD_REACTORS
330
22B
330
22C
102
}
330
71
100
AcDbEntity
  8
0
  6
Continuous
 62
     2
100
AcDbLine
 10
-248.181570426288
 20
-277.6289707081195
 30
0.0
 11
-247.8642753647461
 21
-277.6289707081195
 31
0.0
  0
LINE
  5
14A
102
{ACAD_REACTORS
330
22B
330
22C
102
}
330
71
100
AcDbEntity
  8
0
  6
Continuous
 62
     2
100
AcDbLine
 10
-248.181570426288
 20
-276.9232430587773
 30
0.0
 11
-247.8642753647461
 21
-276.9232430587773
 31
0.0
  0
LINE
  5
14B
102
{ACAD_REACTORS
330
239
330
23A
102
}
330
71
100
AcDbEntity
  8
0
  6
Continuous
 62
     2
100
AcDbLine
 10
-245.0325976925678
 20
-277.3289705466717
 30
0.0
 11
-243.9829401146603
 21
-277.3289705466717
 31
0.0
  0
LINE
  5
14C
102
{ACAD_REACTORS
330
239
330
23A
102
}
330
71
100
AcDbEntity
  8
0
  6
Continuous
 62
     2
100
AcDbLine
 10
-245.0325976925678
 20
-276.2601372133372
 30
0.0
 11
-245.0325976925678
 21
-277.3289705466717
 31
0.0
  0
LINE
  5
14D
102
{ACAD_REACTORS
330
239
330
23A
102
}
330
71
100
AcDbEntity
  8
0
  6
Continuous
 62
     2
100
AcDbLine
 10
-246.2253903947344
 20
-276.2601372133372
 30
0.0
 11
-245.0325976925678
 21
-276.2601372133372
 31
0.0
  0
LINE
  5
14E
102
{ACAD_REACTORS
330
239
330
23A
102
}
330
71
100
AcDbEntity
  8
0
  6
Continuous
 62
     2
100
AcDbLine
 10
-245.0325976925678
 20
-279.3139467371483
 30
0.0
 11
-246.2253903947344
 21
-279.3139467371483
 31
0.0
  0
LINE
  5
14F
102
{ACAD_REACTORS
330
239
330
23A
102
}
330
71
100
AcDbEntity
  8
0
  6
Continuous
 62
     2
100
AcDbLine
 10
-243.9829401146603
 20
-279.3139467371483
 30
0.0
 11
-243.9829401146603
 21
-278.1796746283045
 31
0.0
  0
LINE
  5
150
102
{ACAD_REACTORS
330
239
330
23A
102
}
330
71
100
AcDbEntity
  8
0
  6
Continuous
 62
     2
100
AcDbLine
 10
-242.7901474124939
 20
-279.3139467371483
 30
0.0
 11
-243.9829401146603
 21
-279.3139467371483
 31
0.0
  0
LINE
  5
151
102
{ACAD_REACTORS
330
239
330
23A
102
}
330
71
100
AcDbEntity
  8
0
  6
Continuous
 62
     2
100
AcDbLine
 10
-242.7901474124939
 20
-276.2601372133372
 30
0.0
 11
-242.7901474124939
 21
-279.3139467371483
 31
0.0
  0
LINE
  5
152
102
{ACAD_REACTORS
330
227
330
228
102
}
330
71
100
AcDbEntity
  8
0
  6
Continuous
 62
     2
100
AcDbLine
 10
-239.307192722167
 20
-278.1360487779641
 30
0.0
 11
-237.9712648957393
 21
-278.1360487779641
 31
0.0
  0
LINE
  5
153
102
{ACAD_REACTORS
330
227
330
228
102
}
330
71
100
AcDbEntity
  8
0
  6
Continuous
 62
     2
100
AcDbLine
 10
-237.9712648957393
 20
-278.1360487779641
 30
0.0
 11
-237.9712648957393
 21
-277.4380351725218
 31
0.0
  0
LINE
  5
154
102
{ACAD_REACTORS
330
227
330
228
102
}
330
71
100
AcDbEntity
  8
0
  6
Continuous
 62
     2
100
AcDbLine
 10
-237.9712648957393
 20
-277.4380351725218
 30
0.0
 11
-239.307192722167
 21
-277.4380351725218
 31
0.0
  0
LINE
  5
155
102
{ACAD_REACTORS
330
227
330
228
102
}
330
71
100
AcDbEntity
  8
0
  6
Continuous
 62
     2
100
AcDbLine
 10
-239.307192722167
 20
-277.4380351725218
 30
0.0
 11
-239.307192722167
 21
-276.9581508187802
 31
0.0
  0
LINE
  5
156
102
{ACAD_REACTORS
330
237
330
238
102
}
330
71
100
AcDbEntity
  8
0
  6
Continuous
 62
     2
100
AcDbLine
 10
-242.9811451757261
 20
-282.6731372133227
 30
0.0
 11
-241.7883524735585
 21
-282.6731372133227
 31
0.0
  0
LINE
  5
157
102
{ACAD_REACTORS
330
237
330
238
102
}
330
71
100
AcDbEntity
  8
0
  6
Continuous
 62
     2
100
AcDbLine
 10
-240.5478480633056
 20
-282.6731372133227
 30
0.0
 11
-239.3550553611392
 21
-282.6731372133227
 31
0.0
  0
LINE
  5
158
102
{ACAD_REACTORS
330
237
330
238
102
}
330
71
100
AcDbEntity
  8
0
  6
Continuous
 62
     2
100
AcDbLine
 10
-241.7883524735585
 20
-279.6193276895116
 30
0.0
 11
-242.9811451757261
 21
-279.6193276895116
 31
0.0
  0
LINE
  5
159
102
{ACAD_REACTORS
330
237
330
238
102
}
330
71
100
AcDbEntity
  8
0
  6
Continuous
 62
     2
100
AcDbLine
 10
-242.9811451757261
 20
-279.6193276895116
 30
0.0
 11
-242.9811451757261
 21
-282.6731372133227
 31
0.0
  0
LINE
  5
15A
102
{ACAD_REACTORS
330
235
330
236
102
}
330
71
100
AcDbEntity
  8
0
  6
Continuous
 62
     2
100
AcDbLine
 10
-235.2994092428859
 20
-276.2601372133372
 30
0.0
 11
-235.2994092428859
 21
-277.5689127235423
 31
0.0
  0
LINE
  5
15B
102
{ACAD_REACTORS
330
235
330
236
102
}
330
71
100
AcDbEntity
  8
0
  6
Continuous
 62
     2
100
AcDbLine
 10
-236.5399136531399
 20
-276.2601372133372
 30
0.0
 11
-237.7327063553064
 21
-276.2601372133372
 31
0.0
  0
LINE
  5
15C
102
{ACAD_REACTORS
330
235
330
236
102
}
330
71
100
AcDbEntity
  8
0
  6
Continuous
 62
     2
100
AcDbLine
 10
-237.7327063553064
 20
-276.2601372133372
 30
0.0
 11
-237.7327063553064
 21
-279.3139467371483
 31
0.0
  0
LINE
  5
15D
102
{ACAD_REACTORS
330
235
330
236
102
}
330
71
100
AcDbEntity
  8
0
  6
Continuous
 62
     2
100
AcDbLine
 10
-236.5399136531399
 20
-279.3139467371483
 30
0.0
 11
-236.5399136531399
 21
-278.0051712269436
 31
0.0
  0
LINE
  5
15E
102
{ACAD_REACTORS
330
233
330
234
102
}
330
71
100
AcDbEntity
  8
0
  6
Continuous
 62
     2
100
AcDbLine
 10
-237.2080284972379
 20
-282.6731372133227
 30
0.0
 11
-237.2080284972379
 21
-280.4045929956351
 31
0.0
  0
LINE
  5
15F
102
{ACAD_REACTORS
330
233
330
234
102
}
330
71
100
AcDbEntity
  8
0
  6
Continuous
 62
     2
100
AcDbLine
 10
-237.2080284972379
 20
-280.4045929956351
 30
0.0
 11
-236.3969294597654
 21
-280.4045929956351
 31
0.0
  0
LINE
  5
160
102
{ACAD_REACTORS
330
233
330
234
102
}
330
71
100
AcDbEntity
  8
0
  6
Continuous
 62
     2
100
AcDbLine
 10
-236.3969294597654
 20
-280.4045929956351
 30
0.0
 11
-236.3969294597654
 21
-279.6193276895116
 31
0.0
  0
LINE
  5
161
102
{ACAD_REACTORS
330
233
330
234
102
}
330
71
100
AcDbEntity
  8
0
  6
Continuous
 62
     2
100
AcDbLine
 10
-236.3969294597654
 20
-279.6193276895116
 30
0.0
 11
-239.211920236879
 21
-279.6193276895116
 31
0.0
  0
LINE
  5
162
102
{ACAD_REACTORS
330
233
330
234
102
}
330
71
100
AcDbEntity
  8
0
  6
Continuous
 62
     2
100
AcDbLine
 10
-239.211920236879
 20
-280.4045929956351
 30
0.0
 11
-238.4008211994044
 21
-280.4045929956351
 31
0.0
  0
LINE
  5
163
102
{ACAD_REACTORS
330
231
330
232
102
}
330
71
100
AcDbEntity
  8
0
  6
Continuous
 62
     2
100
AcDbLine
 10
-235.602423633968
 20
-282.1321766691048
 30
0.0
 11
-234.4699820572942
 21
-282.1321766691048
 31
0.0
  0
LINE
  5
164
102
{ACAD_REACTORS
330
231
330
232
102
}
330
71
100
AcDbEntity
  8
0
  6
Continuous
 62
     2
100
AcDbLine
 10
-233.0179975935645
 20
-282.6731372133227
 30
0.0
 11
-234.2585020038184
 21
-282.6731372133227
 31
0.0
  0
LINE
  5
165
102
{ACAD_REACTORS
330
231
330
232
102
}
330
71
100
AcDbEntity
  8
0
  6
Continuous
 62
     2
100
AcDbLine
 10
-235.6564550507575
 20
-279.6193276895116
 30
0.0
 11
-237.0544080976968
 21
-282.6731372133227
 31
0.0
  0
LINE
  5
166
102
{ACAD_REACTORS
330
231
330
232
102
}
330
71
100
AcDbEntity
  8
0
  6
Continuous
 62
     2
100
AcDbLine
 10
-235.8139036874438
 20
-282.6731372133227
 30
0.0
 11
-235.602423633968
 21
-282.1321766691048
 31
0.0
  0
LINE
  5
167
102
{ACAD_REACTORS
330
231
330
232
102
}
330
71
100
AcDbEntity
  8
0
  6
Continuous
 62
     2
100
AcDbLine
 10
-235.336368082823
 20
-281.4516134037982
 30
0.0
 11
-235.0362028456306
 21
-280.6837984378115
 31
0.0
  0
LINE
  5
168
102
{ACAD_REACTORS
330
22F
330
230
102
}
330
71
100
AcDbEntity
  8
0
  6
Continuous
 62
     2
100
AcDbLine
 10
-233.8680580002854
 20
-279.3139467371483
 30
0.0
 11
-233.8680580002854
 21
-276.2601372133372
 31
0.0
  0
LINE
  5
169
102
{ACAD_REACTORS
330
22F
330
230
102
}
330
71
100
AcDbEntity
  8
0
  6
Continuous
 62
     2
100
AcDbLine
 10
-232.6275535900325
 20
-276.2601372133372
 30
0.0
 11
-232.6275535900325
 21
-279.3139467371483
 31
0.0
  0
LINE
  5
16A
102
{ACAD_REACTORS
330
22F
330
230
102
}
330
71
100
AcDbEntity
  8
0
  6
Continuous
 62
     2
100
AcDbLine
 10
-233.8680580002854
 20
-276.2601372133372
 30
0.0
 11
-232.6275535900325
 21
-276.2601372133372
 31
0.0
  0
LINE
  5
16B
102
{ACAD_REACTORS
330
22D
330
22E
102
}
330
71
100
AcDbEntity
  8
0
  6
Continuous
 62
     2
100
AcDbLine
 10
-230.4089591640017
 20
-278.5262149518546
 30
0.0
 11
-229.7123682259362
 21
-279.3139467371483
 31
0.0
  0
LINE
  5
16C
102
{ACAD_REACTORS
330
22D
330
22E
102
}
330
71
100
AcDbEntity
  8
0
  6
Continuous
 62
     2
100
AcDbLine
 10
-229.7123682259362
 20
-279.3139467371483
 30
0.0
 11
-228.3096440081879
 21
-279.3139467371483
 31
0.0
  0
LINE
  5
16D
102
{ACAD_REACTORS
330
22D
330
22E
102
}
330
71
100
AcDbEntity
  8
0
  6
Continuous
 62
     2
100
AcDbLine
 10
-229.7075970551282
 20
-277.7330877433734
 30
0.0
 11
-228.3096440081879
 21
-279.3139467371483
 31
0.0
  0
LINE
  5
16E
102
{ACAD_REACTORS
330
22D
330
22E
102
}
330
71
100
AcDbEntity
  8
0
  6
Continuous
 62
     2
100
AcDbLine
 10
-229.7075970551282
 20
-277.7330877433734
 30
0.0
 11
-228.4050674243617
 21
-276.2601372133372
 31
0.0
  0
LINE
  5
16F
102
{ACAD_REACTORS
330
22D
330
22E
102
}
330
71
100
AcDbEntity
  8
0
  6
Continuous
 62
     2
100
AcDbLine
 10
-230.4089591640017
 20
-276.9399605348926
 30
0.0
 11
-229.8077916421089
 21
-276.2601372133372
 31
0.0
  0
LINE
  5
170
102
{ACAD_REACTORS
330
22D
330
22E
102
}
330
71
100
AcDbEntity
  8
0
  6
Continuous
 62
     2
100
AcDbLine
 10
-231.0101266858935
 20
-276.2601372133372
 30
0.0
 11
-230.4089591640017
 21
-276.9399605348926
 31
0.0
  0
LINE
  5
171
102
{ACAD_REACTORS
330
22D
330
22E
102
}
330
71
100
AcDbEntity
  8
0
  6
Continuous
 62
     2
100
AcDbLine
 10
-231.0101266858935
 20
-276.2601372133372
 30
0.0
 11
-232.4128509036428
 21
-276.2601372133372
 31
0.0
  0
LINE
  5
172
102
{ACAD_REACTORS
330
223
330
224
102
}
330
71
100
AcDbEntity
  8
0
  6
Continuous
 62
     2
100
AcDbLine
 10
-230.313535747829
 20
-282.6731372133227
 30
0.0
 11
-229.1207430456613
 21
-282.6731372133227
 31
0.0
  0
LINE
  5
173
102
{ACAD_REACTORS
330
223
330
224
102
}
330
71
100
AcDbEntity
  8
0
  6
Continuous
 62
     2
100
AcDbLine
 10
-229.1207430456613
 20
-282.6731372133227
 30
0.0
 11
-229.1207430456613
 21
-280.4045929956351
 31
0.0
  0
LINE
  5
174
102
{ACAD_REACTORS
330
223
330
224
102
}
330
71
100
AcDbEntity
  8
0
  6
Continuous
 62
     2
100
AcDbLine
 10
-229.1207430456613
 20
-280.4045929956351
 30
0.0
 11
-228.3096440081879
 21
-280.4045929956351
 31
0.0
  0
LINE
  5
175
102
{ACAD_REACTORS
330
223
330
224
102
}
330
71
100
AcDbEntity
  8
0
  6
Continuous
 62
     2
100
AcDbLine
 10
-228.3096440081879
 20
-280.4045929956351
 30
0.0
 11
-228.3096440081879
 21
-279.6193276895116
 31
0.0
  0
LINE
  5
176
102
{ACAD_REACTORS
330
223
330
224
102
}
330
71
100
AcDbEntity
  8
0
  6
Continuous
 62
     2
100
AcDbLine
 10
-231.6945895268166
 20
-279.619327689512
 30
0.0
 11
-228.3096440081879
 21
-279.6193276895116
 31
0.0
  0
LINE
  5
177
102
{ACAD_REACTORS
330
223
330
224
102
}
330
71
100
AcDbEntity
  8
0
  6
Continuous
 62
     2
100
AcDbLine
 10
-230.313535747829
 20
-280.4045929956351
 30
0.0
 11
-230.313535747829
 21
-282.6731372133227
 31
0.0
  0
LINE
  5
178
102
{ACAD_REACTORS
330
225
330
226
102
}
330
71
100
AcDbEntity
  8
0
  6
Continuous
 62
     2
100
AcDbLine
 10
-252.9430221833082
 20
-280.6942570637581
 30
0.0
 11
-252.9430221833082
 21
-280.1124056570631
 31
0.0
  0
LINE
  5
179
102
{ACAD_REACTORS
330
225
330
226
102
}
330
71
100
AcDbEntity
  8
0
  6
Continuous
 62
     2
100
AcDbLine
 10
-252.9430221833082
 20
-277.8941224571269
 30
0.0
 11
-252.9430221833082
 21
-277.28858716862
 31
0.0
  0
LINE
  5
17A
330
71
100
AcDbEntity
  8
1
  6
Continuous
 62
     6
100
AcDbLine
 10
-274.412843598705
 20
-289.9666372133389
 30
0.0
 11
-260.457648125455
 21
-289.966637213339
 31
0.0
  0
LINE
  5
17B
330
71
100
AcDbEntity
  8
1
  6
Continuous
 62
     6
100
AcDbLine
 10
-324.4128435987052
 20
-289.9666372133389
 30
0.0
 11
-329.457648125455
 21
-289.9666372133389
 31
0.0
  0
LINE
  5
17C
330
71
100
AcDbEntity
  8
1
  6
Continuous
 62
     6
100
AcDbLine
 10
-174.412843598705
 20
-289.9666372133389
 30
0.0
 11
-130.912843598705
 21
-289.9666372133389
 31
0.0
  0
LINE
  5
17D
330
71
100
AcDbEntity
  8
1
  6
Continuous
 62
     6
100
AcDbLine
 10
-224.412843598705
 20
-289.9666372133389
 30
0.0
 11
-242.257648125455
 21
-289.9666372133389
 31
0.0
  0
LINE
  5
17E
330
71
100
AcDbEntity
  8
1
  6
Continuous
 62
     2
100
AcDbLine
 10
-130.912843598705
 20
-289.9666372133389
 30
0.0
 11
-125.912843598706
 21
-289.9666372133389
 31
0.0
  0
LINE
  5
17F
330
71
100
AcDbEntity
  8
1
  6
Continuous
 62
     2
100
AcDbLine
 10
-130.912843598705
 20
-289.9666372133389
 30
0.0
 11
-130.912843598705
 21
-294.966637213339
 31
0.0
  0
LINE
  5
180
330
71
100
AcDbEntity
  8
1
  6
Continuous
 62
     6
100
AcDbLine
 10
-260.457648125455
 20
-272.9666372133389
 30
0.0
 11
-224.0576481254551
 21
-272.9666372133389
 31
0.0
  0
LINE
  5
181
330
71
100
AcDbEntity
  8
1
  6
Continuous
 62
     2
100
AcDbLine
 10
-125.912843598706
 20
-294.966637213339
 30
0.0
 11
-125.912843598706
 21
-289.9666372133389
 31
0.0
  0
LINE
  5
182
330
71
100
AcDbEntity
  8
1
  6
Continuous
 62
     2
100
AcDbLine
 10
-125.912843598706
 20
-294.966637213339
 30
0.0
 11
-130.912843598705
 21
-294.966637213339
 31
0.0
  0
LINE
  5
183
330
71
100
AcDbEntity
  8
1
  6
Continuous
 62
     2
100
AcDbLine
 10
-130.912843598705
 20
-294.966637213339
 30
0.0
 11
-174.412843598705
 21
-294.966637213339
 31
0.0
  0
LINE
  5
184
330
71
100
AcDbEntity
  8
1
  6
Continuous
 62
     6
100
AcDbLine
 10
-130.9128435987033
 20
-272.9666372133389
 30
0.0
 11
-130.9128435987041
 21
-239.9666372133388
 31
0.0
  0
LINE
  5
185
330
71
100
AcDbEntity
  8
1
  6
Continuous
 62
     2
100
AcDbLine
 10
-125.912843598706
 20
-84.96663721333894
 30
0.0
 11
-274.412843598705
 21
-84.96663721333894
 31
0.0
  0
LINE
  5
186
330
71
100
AcDbEntity
  8
1
  6
Continuous
 62
     6
100
AcDbLine
 10
-130.912843598706
 20
-104.9666372133389
 30
0.0
 11
-417.9128435987041
 21
-104.9666372133389
 31
0.0
  0
LINE
  5
187
330
71
100
AcDbEntity
  8
1
  6
Continuous
 62
     2
100
AcDbLine
 10
-130.9128435987041
 20
-239.9666372133388
 30
0.0
 11
-125.912843598706
 21
-239.9666372133388
 31
0.0
  0
LINE
  5
188
330
71
100
AcDbEntity
  8
1
  6
Continuous
 62
     6
100
AcDbLine
 10
-130.9128435987041
 20
-239.9666372133388
 30
0.0
 11
-130.9128435987046
 21
-189.966637213339
 31
0.0
  0
LINE
  5
189
330
71
100
AcDbEntity
  8
1
  6
Continuous
 62
     2
100
AcDbLine
 10
-125.912843598706
 20
-239.9666372133388
 30
0.0
 11
-125.912843598706
 21
-189.966637213339
 31
0.0
  0
LINE
  5
18A
330
71
100
AcDbEntity
  8
1
  6
Continuous
 62
     2
100
AcDbLine
 10
-130.9128435987046
 20
-189.966637213339
 30
0.0
 11
-125.912843598706
 21
-189.966637213339
 31
0.0
  0
LINE
  5
18B
330
71
100
AcDbEntity
  8
1
  6
Continuous
 62
     6
100
AcDbLine
 10
-130.9128435987046
 20
-189.966637213339
 30
0.0
 11
-130.9128435987058
 21
-139.9666372133389
 31
0.0
  0
LINE
  5
18C
330
71
100
AcDbEntity
  8
1
  6
Continuous
 62
     2
100
AcDbLine
 10
-125.912843598706
 20
-189.966637213339
 30
0.0
 11
-125.912843598706
 21
-139.9666372133389
 31
0.0
  0
LINE
  5
18D
330
71
100
AcDbEntity
  8
1
  6
Continuous
 62
     2
100
AcDbLine
 10
-130.9128435987058
 20
-139.9666372133389
 30
0.0
 11
-125.912843598706
 21
-139.9666372133389
 31
0.0
  0
LINE
  5
18E
330
71
100
AcDbEntity
  8
1
  6
Continuous
 62
     6
100
AcDbLine
 10
-130.9128435987058
 20
-139.9666372133389
 30
0.0
 11
-130.912843598706
 21
-104.9666372133389
 31
0.0
  0
LINE
  5
18F
330
71
100
AcDbEntity
  8
1
  6
Continuous
 62
     2
100
AcDbLine
 10
-125.912843598706
 20
-139.9666372133389
 30
0.0
 11
-125.912843598706
 21
-84.96663721333894
 31
0.0
  0
LINE
  5
190
330
71
100
AcDbEntity
  8
1
  6
Continuous
 62
     2
100
AcDbLine
 10
-125.912843598706
 20
-289.9666372133389
 30
0.0
 11
-125.912843598706
 21
-239.9666372133388
 31
0.0
  0
LINE
  5
191
330
71
100
AcDbEntity
  8
1
  6
Continuous
 62
     2
100
AcDbLine
 10
-274.412843598705
 20
-84.96663721333894
 30
0.0
 11
-422.9128435987041
 21
-84.96663721333894
 31
0.0
  0
LINE
  5
192
330
71
100
AcDbEntity
  8
1
  6
Continuous
 62
     2
100
AcDbLine
 10
-274.412843598705
 20
-84.96663721333894
 30
0.0
 11
-274.412843598705
 21
-94.17532905804026
 31
0.0
  0
LINE
  5
193
330
71
100
AcDbEntity
  8
1
  6
Continuous
 62
     2
100
AcDbLine
 10
-422.9128435987041
 20
-294.966637213339
 30
0.0
 11
-417.9128435987031
 21
-294.966637213339
 31
0.0
  0
LINE
  5
194
330
71
100
AcDbEntity
  8
1
  6
Continuous
 62
     2
100
AcDbLine
 10
-422.9128435987041
 20
-84.96663721333894
 30
0.0
 11
-422.9128435987041
 21
-139.9666372133389
 31
0.0
  0
LINE
  5
195
330
71
100
AcDbEntity
  8
1
  6
Continuous
 62
     6
100
AcDbLine
 10
-417.9128435987041
 20
-104.9666372133389
 30
0.0
 11
-417.912843598704
 21
-139.9666372133389
 31
0.0
  0
LINE
  5
196
330
71
100
AcDbEntity
  8
1
  6
Continuous
 62
     2
100
AcDbLine
 10
-422.9128435987041
 20
-139.9666372133389
 30
0.0
 11
-417.912843598704
 21
-139.9666372133389
 31
0.0
  0
LINE
  5
197
330
71
100
AcDbEntity
  8
1
  6
Continuous
 62
     2
100
AcDbLine
 10
-422.9128435987041
 20
-139.9666372133389
 30
0.0
 11
-422.9128435987041
 21
-189.966637213339
 31
0.0
  0
LINE
  5
198
330
71
100
AcDbEntity
  8
1
  6
Continuous
 62
     6
100
AcDbLine
 10
-417.912843598704
 20
-139.9666372133389
 30
0.0
 11
-417.9128435987035
 21
-189.966637213339
 31
0.0
  0
LINE
  5
199
330
71
100
AcDbEntity
  8
1
  6
Continuous
 62
     2
100
AcDbLine
 10
-422.9128435987041
 20
-189.966637213339
 30
0.0
 11
-417.9128435987035
 21
-189.966637213339
 31
0.0
  0
LINE
  5
19A
330
71
100
AcDbEntity
  8
1
  6
Continuous
 62
     2
100
AcDbLine
 10
-422.9128435987041
 20
-189.966637213339
 30
0.0
 11
-422.9128435987041
 21
-239.9666372133388
 31
0.0
  0
LINE
  5
19B
330
71
100
AcDbEntity
  8
1
  6
Continuous
 62
     6
100
AcDbLine
 10
-417.9128435987035
 20
-189.966637213339
 30
0.0
 11
-417.9128435987033
 21
-239.9666372133388
 31
0.0
  0
LINE
  5
19C
330
71
100
AcDbEntity
  8
1
  6
Continuous
 62
     2
100
AcDbLine
 10
-422.9128435987041
 20
-239.9666372133388
 30
0.0
 11
-417.9128435987033
 21
-239.9666372133388
 31
0.0
  0
LINE
  5
19D
330
71
100
AcDbEntity
  8
1
  6
Continuous
 62
     2
100
AcDbLine
 10
-422.9128435987041
 20
-239.9666372133388
 30
0.0
 11
-422.9128435987041
 21
-289.9666372133389
 31
0.0
  0
LINE
  5
19E
330
71
100
AcDbEntity
  8
1
  6
Continuous
 62
     6
100
AcDbLine
 10
-417.9128435987033
 20
-239.9666372133388
 30
0.0
 11
-417.9128435987031
 21
-289.9666372133389
 31
0.0
  0
LINE
  5
19F
330
71
100
AcDbEntity
  8
1
  6
Continuous
 62
     2
100
AcDbLine
 10
-374.412843598705
 20
-294.966637213339
 30
0.0
 11
-374.412843598705
 21
-289.9666372133389
 31
0.0
  0
LINE
  5
1A0
330
71
100
AcDbEntity
  8
1
  6
Continuous
 62
     2
100
AcDbLine
 10
-374.412843598705
 20
-294.966637213339
 30
0.0
 11
-324.4128435987052
 21
-294.966637213339
 31
0.0
  0
LINE
  5
1A1
330
71
100
AcDbEntity
  8
1
  6
Continuous
 62
     2
100
AcDbLine
 10
-324.4128435987052
 20
-294.966637213339
 30
0.0
 11
-324.4128435987052
 21
-289.9666372133389
 31
0.0
  0
LINE
  5
1A2
330
71
100
AcDbEntity
  8
1
  6
Continuous
 62
     2
100
AcDbLine
 10
-324.4128435987052
 20
-294.966637213339
 30
0.0
 11
-274.412843598705
 21
-294.966637213339
 31
0.0
  0
LINE
  5
1A3
330
71
100
AcDbEntity
  8
1
  6
Continuous
 62
     2
100
AcDbLine
 10
-274.412843598705
 20
-294.966637213339
 30
0.0
 11
-274.412843598705
 21
-289.9666372133389
 31
0.0
  0
LINE
  5
1A4
330
71
100
AcDbEntity
  8
1
  6
Continuous
 62
     2
100
AcDbLine
 10
-274.412843598705
 20
-294.966637213339
 30
0.0
 11
-224.412843598705
 21
-294.966637213339
 31
0.0
  0
LINE
  5
1A5
330
71
100
AcDbEntity
  8
1
  6
Continuous
 62
     2
100
AcDbLine
 10
-224.412843598705
 20
-294.966637213339
 30
0.0
 11
-224.412843598705
 21
-289.9666372133389
 31
0.0
  0
LINE
  5
1A6
330
71
100
AcDbEntity
  8
1
  6
Continuous
 62
     2
100
AcDbLine
 10
-174.412843598705
 20
-294.966637213339
 30
0.0
 11
-174.412843598705
 21
-289.9666372133389
 31
0.0
  0
LINE
  5
1A7
330
71
100
AcDbEntity
  8
1
  6
Continuous
 62
     2
100
AcDbLine
 10
-174.412843598705
 20
-294.966637213339
 30
0.0
 11
-224.412843598705
 21
-294.966637213339
 31
0.0
  0
LINE
  5
1A8
330
71
100
AcDbEntity
  8
1
  6
Continuous
 62
     2
100
AcDbLine
 10
-417.9128435987031
 20
-289.9666372133389
 30
0.0
 11
-417.9128435987031
 21
-294.966637213339
 31
0.0
  0
LINE
  5
1A9
330
71
100
AcDbEntity
  8
1
  6
Continuous
 62
     2
100
AcDbLine
 10
-417.9128435987031
 20
-294.966637213339
 30
0.0
 11
-374.412843598705
 21
-294.966637213339
 31
0.0
  0
LINE
  5
1AA
330
71
100
AcDbEntity
  8
1
  6
Continuous
 62
     2
100
AcDbLine
 10
-417.9128435987031
 20
-289.9666372133389
 30
0.0
 11
-422.9128435987041
 21
-289.9666372133389
 31
0.0
  0
LINE
  5
1AB
330
71
100
AcDbEntity
  8
1
  6
Continuous
 62
     2
100
AcDbLine
 10
-422.9128435987041
 20
-289.9666372133389
 30
0.0
 11
-422.9128435987041
 21
-294.966637213339
 31
0.0
  0
LINE
  5
1AC
330
71
100
AcDbEntity
  8
1
  6
Continuous
 62
     6
100
AcDbLine
 10
-130.912843598705
 20
-289.9666372133389
 30
0.0
 11
-130.9128435987037
 21
-281.4666372133389
 31
0.0
  0
LINE
  5
1AD
330
71
100
AcDbEntity
  8
1
  6
Continuous
 62
     6
100
AcDbLine
 10
-224.0576481254551
 20
-289.966637213339
 30
0.0
 11
-174.412843598705
 21
-289.9666372133389
 31
0.0
  0
LINE
  5
1AE
330
71
100
AcDbEntity
  8
1
  6
Continuous
 62
     6
100
AcDbLine
 10
-376.7128435987052
 20
-289.966637213339
 30
0.0
 11
-374.412843598705
 21
-289.9666372133389
 31
0.0
  0
LINE
  5
1AF
330
71
100
AcDbEntity
  8
1
  6
Continuous
 62
     6
100
AcDbLine
 10
-274.412843598705
 20
-289.9666372133389
 30
0.0
 11
-324.4128435987052
 21
-289.9666372133389
 31
0.0
  0
LINE
  5
1B0
330
71
100
AcDbEntity
  8
1
  6
Continuous
 62
     7
100
AcDbLine
 10
-260.457648125455
 20
-272.9666372133389
 30
0.0
 11
-260.457648125455
 21
-285.716637213339
 31
0.0
  0
LINE
  5
1B1
330
71
100
AcDbEntity
  8
1
  6
Continuous
 62
     7
100
AcDbLine
 10
-224.0576481254551
 20
-272.9666372133389
 30
0.0
 11
-224.0576481254551
 21
-285.7166372133389
 31
0.0
  0
LINE
  5
1B2
330
71
100
AcDbEntity
  8
1
  6
Continuous
 62
     6
100
AcDbLine
 10
-376.7128435987052
 20
-289.966637213339
 30
0.0
 11
-382.9128435987032
 21
-289.9666372133389
 31
0.0
  0
LINE
  5
1B3
330
71
100
AcDbEntity
  8
1
  6
Continuous
 62
     6
100
AcDbLine
 10
-224.0576481254551
 20
-289.966637213339
 30
0.0
 11
-224.412843598705
 21
-289.9666372133389
 31
0.0
  0
LINE
  5
1B4
330
71
100
AcDbEntity
  8
1
  6
Continuous
 62
     6
100
AcDbLine
 10
-130.9128435987033
 20
-272.9666372133389
 30
0.0
 11
-130.9128435987037
 21
-281.4666372133389
 31
0.0
  0
LINE
  5
1B5
330
71
100
AcDbEntity
  8
1
  6
Continuous
 62
     6
100
AcDbLine
 10
-382.9128435987032
 20
-289.9666372133389
 30
0.0
 11
-417.9128435987031
 21
-289.9666372133389
 31
0.0
  0
LINE
  5
1B6
330
71
100
AcDbEntity
  8
1
  6
Continuous
 62
     2
100
AcDbLine
 10
-256.2209932388924
 20
-267.591637213339
 30
0.0
 11
-251.2209932388924
 21
-266.341637213339
 31
0.0
  0
LINE
  5
1B7
330
71
100
AcDbEntity
  8
1
  6
Continuous
 62
     2
100
AcDbLine
 10
-256.2209932388924
 20
-270.091637213339
 30
0.0
 11
-256.2209932388924
 21
-267.591637213339
 31
0.0
  0
LINE
  5
1B8
330
71
100
AcDbEntity
  8
1
  6
Continuous
 62
     2
100
AcDbLine
 10
-251.2209932388924
 20
-271.341637213339
 30
0.0
 11
-256.2209932388924
 21
-270.091637213339
 31
0.0
  0
LINE
  5
1B9
330
71
100
AcDbEntity
  8
1
  6
Continuous
 62
     2
100
AcDbLine
 10
-251.2209932388924
 20
-266.341637213339
 30
0.0
 11
-251.2209932388924
 21
-271.341637213339
 31
0.0
  0
LINE
  5
1BA
330
71
100
AcDbEntity
  8
1
  6
Continuous
 62
     7
100
AcDbLine
 10
-260.457648125455
 20
-285.716637213339
 30
0.0
 11
-242.257648125455
 21
-285.7166372133389
 31
0.0
  0
LINE
  5
1BB
330
71
100
AcDbEntity
  8
1
  6
Continuous
 62
     7
100
AcDbLine
 10
-260.457648125455
 20
-285.716637213339
 30
0.0
 11
-260.457648125455
 21
-289.966637213339
 31
0.0
  0
LINE
  5
1BC
330
71
100
AcDbEntity
  8
1
  6
Continuous
 62
     7
100
AcDbLine
 10
-224.0576481254551
 20
-285.7166372133389
 30
0.0
 11
-224.0576481254551
 21
-289.966637213339
 31
0.0
  0
LINE
  5
1BD
330
71
100
AcDbEntity
  8
1
  6
Continuous
 62
     7
100
AcDbLine
 10
-242.257648125455
 20
-285.7166372133389
 30
0.0
 11
-242.257648125455
 21
-289.9666372133389
 31
0.0
  0
LINE
  5
1BE
330
71
100
AcDbEntity
  8
1
  6
Continuous
 62
     6
100
AcDbLine
 10
-242.257648125455
 20
-289.9666372133389
 30
0.0
 11
-260.457648125455
 21
-289.966637213339
 31
0.0
  0
LINE
  5
1BF
330
71
100
AcDbEntity
  8
1
  6
Continuous
 62
     7
100
AcDbLine
 10
-242.257648125455
 20
-285.7166372133389
 30
0.0
 11
-224.0576481254551
 21
-285.7166372133389
 31
0.0
  0
LINE
  5
1C0
330
71
100
AcDbEntity
  8
1
  6
Continuous
 62
     6
100
AcDbLine
 10
-260.457648125455
 20
-264.4666372133389
 30
0.0
 11
-130.9128435987033
 21
-264.4666372133389
 31
0.0
  0
ARC
  5
1C1
102
{ACAD_REACTORS
330
229
330
22A
102
}
330
71
100
AcDbEntity
  8
0
  6
Continuous
 62
     2
100
AcDbCircle
 10
-245.066000126495
 20
-281.1462324514174
 30
0.0
 40
0.7717997786796373
100
AcDbArc
 50
321.8795802028437
 51
38.12041979715625
  0
ARC
  5
1C2
102
{ACAD_REACTORS
330
229
330
22A
102
}
330
71
100
AcDbEntity
  8
0
  6
Continuous
 62
     2
100
AcDbCircle
 10
-244.8662600901486
 20
-281.3029636295373
 30
0.0
 40
0.5179085730137754
100
AcDbArc
 50
218.1204197971937
 51
321.8795802027966
  0
ARC
  5
1C3
102
{ACAD_REACTORS
330
229
330
22A
102
}
330
71
100
AcDbEntity
  8
0
  6
Continuous
 62
     2
100
AcDbCircle
 10
-244.6665200538025
 20
-281.1462324514174
 30
0.0
 40
0.7717997786795031
100
AcDbArc
 50
141.879580202836
 51
218.120419797164
  0
ARC
  5
1C4
102
{ACAD_REACTORS
330
229
330
22A
102
}
330
71
100
AcDbEntity
  8
0
  6
Continuous
 62
     2
100
AcDbCircle
 10
-244.8662600901486
 20
-280.9895012732968
 30
0.0
 40
0.5179085730132423
100
AcDbArc
 50
38.12041979714403
 51
141.8795802028657
  0
ARC
  5
1C5
102
{ACAD_REACTORS
330
221
330
222
102
}
330
71
100
AcDbEntity
  8
0
  6
Continuous
 62
     2
100
AcDbCircle
 10
-247.9282742257125
 20
-282.5566988168255
 30
0.0
 40
2.227384008973468
100
AcDbArc
 50
58.06909105003972
 51
71.5519238818663
  0
ARC
  5
1C6
102
{ACAD_REACTORS
330
221
330
222
102
}
330
71
100
AcDbEntity
  8
0
  6
Continuous
 62
     2
100
AcDbCircle
 10
-247.6665465247537
 20
-280.9411610220784
 30
0.0
 40
0.5115800601949674
100
AcDbArc
 50
113.3722778881983
 51
151.4785267423044
  0
ARC
  5
1C7
102
{ACAD_REACTORS
330
221
330
222
102
}
330
71
100
AcDbEntity
  8
0
  6
Continuous
 62
     2
100
AcDbCircle
 10
-247.2891892666734
 20
-281.1462324514174
 30
0.0
 40
0.9410597353332545
100
AcDbArc
 50
151.4785267422669
 51
208.5214732576997
  0
ARC
  5
1C8
102
{ACAD_REACTORS
330
221
330
222
102
}
330
71
100
AcDbEntity
  8
0
  6
Continuous
 62
     2
100
AcDbCircle
 10
-248.0861471008054
 20
-277.8335515061609
 30
0.0
 40
4.85259686349811
100
AcDbArc
 50
275.158144769625
 51
285.9799912583527
  0
ARC
  5
1C9
102
{ACAD_REACTORS
330
221
330
222
102
}
330
71
100
AcDbEntity
  8
0
  6
Continuous
 62
     2
100
AcDbCircle
 10
-247.7972910060695
 20
-281.0334420893826
 30
0.0
 40
1.63969512393935
100
AcDbArc
 50
195.0618917770848
 51
275.158144769641
  0
ARC
  5
1CA
102
{ACAD_REACTORS
330
221
330
222
102
}
330
71
100
AcDbEntity
  8
0
  6
Continuous
 62
     2
100
AcDbCircle
 10
-248.2164188495323
 20
-281.1462324514174
 30
0.0
 40
1.205656168390986
100
AcDbArc
 50
164.9381082228742
 51
195.0618917770893
  0
ARC
  5
1CB
102
{ACAD_REACTORS
330
221
330
222
102
}
330
71
100
AcDbEntity
  8
0
  6
Continuous
 62
     2
100
AcDbCircle
 10
-247.7972910060695
 20
-281.2590228134523
 30
0.0
 40
1.639695123940509
100
AcDbArc
 50
84.84185523036136
 51
164.9381082228846
  0
ARC
  5
1CC
102
{ACAD_REACTORS
330
225
330
226
102
}
330
71
100
AcDbEntity
  8
0
  6
Continuous
 62
     2
100
AcDbCircle
 10
-252.6273052602314
 20
-280.1124056570631
 30
0.0
 40
0.3157169230766477
100
AcDbArc
 50
115.3740086783477
 51
180.0
  0
ARC
  5
1CD
102
{ACAD_REACTORS
330
225
330
226
102
}
330
71
100
AcDbEntity
  8
0
  6
Continuous
 62
     2
100
AcDbCircle
 10
-252.6273052602314
 20
-277.8941224571269
 30
0.0
 40
0.315716923076792
100
AcDbArc
 50
180.0
 51
244.6259913216346
  0
ARC
  5
1CE
102
{ACAD_REACTORS
330
225
330
226
102
}
330
71
100
AcDbEntity
  8
0
  6
Continuous
 62
     2
100
AcDbCircle
 10
-252.6216891249214
 20
-278.9914221161891
 30
0.0
 40
2.01856113193338
100
AcDbArc
 50
269.8110329575858
 51
90.18896704241416
  0
ARC
  5
1CF
102
{ACAD_REACTORS
330
225
330
226
102
}
330
71
100
AcDbEntity
  8
0
  6
Continuous
 62
     2
100
AcDbCircle
 10
-252.6273052602314
 20
-280.6942570637581
 30
0.0
 40
0.315716923076792
100
AcDbArc
 50
180.0
 51
269.8110329574491
  0
ARC
  5
1D0
102
{ACAD_REACTORS
330
223
330
224
102
}
330
71
100
AcDbEntity
  8
0
  6
Continuous
 62
     2
100
AcDbCircle
 10
-231.5638450455008
 20
-280.9411610220784
 30
0.0
 40
0.5115800601944048
100
AcDbArc
 50
109.3371432194823
 51
151.4785267424182
  0
ARC
  5
1D1
102
{ACAD_REACTORS
330
223
330
224
102
}
330
71
100
AcDbEntity
  8
0
  6
Continuous
 62
     2
100
AcDbCircle
 10
-231.5638450455008
 20
-281.3513038807558
 30
0.0
 40
0.511580060196051
100
AcDbArc
 50
208.5214732576993
 51
246.6277221118478
  0
ARC
  5
1D2
102
{ACAD_REACTORS
330
223
330
224
102
}
330
71
100
AcDbEntity
  8
0
  6
Continuous
 62
     2
100
AcDbCircle
 10
-232.1137173702782
 20
-281.1462324514174
 30
0.0
 40
1.20565616839299
100
AcDbArc
 50
164.9381082228998
 51
195.0618917770975
  0
ARC
  5
1D3
102
{ACAD_REACTORS
330
223
330
224
102
}
330
71
100
AcDbEntity
  8
0
  6
Continuous
 62
     2
100
AcDbCircle
 10
-231.6945895268166
 20
-281.2590228134523
 30
0.0
 40
1.639695123940328
100
AcDbArc
 50
90.0
 51
164.9381082228928
  0
ARC
  5
1D4
102
{ACAD_REACTORS
330
227
330
228
102
}
330
71
100
AcDbEntity
  8
0
  6
Continuous
 62
     2
100
AcDbCircle
 10
-241.1215846195203
 20
-277.787041975243
 30
0.0
 40
1.526904761905826
100
AcDbArc
 50
90.0
 51
270.0
  0
ARC
  5
1D5
102
{ACAD_REACTORS
330
22B
330
22C
102
}
330
71
100
AcDbEntity
  8
0
  6
Continuous
 62
     2
100
AcDbCircle
 10
-247.8642753647461
 20
-277.2761068834483
 30
0.0
 40
0.3528638246712035
100
AcDbArc
 50
270.0
 51
90.0
  0
ARC
  5
1D6
102
{ACAD_REACTORS
330
225
330
226
102
}
330
71
100
AcDbEntity
  8
0
  6
Continuous
 62
     2
100
AcDbCircle
 10
-255.2028539467631
 20
-277.2884096919719
 30
0.0
 40
0.3157169230761951
100
AcDbArc
 50
90.0
 51
180.0
  0
ARC
  5
1D7
102
{ACAD_REACTORS
330
225
330
226
102
}
330
71
100
AcDbEntity
  8
0
  6
Continuous
 62
     2
100
AcDbCircle
 10
-253.2044362381785
 20
-279.0032640570946
 30
0.0
 40
0.911897523557601
100
AcDbArc
 50
115.1944106485306
 51
244.8055893514877
  0
ARC
  5
1D8
102
{ACAD_REACTORS
330
225
330
226
102
}
330
71
100
AcDbEntity
  8
0
  6
Continuous
 62
     2
100
AcDbCircle
 10
-253.7270206857535
 20
-280.1140938031574
 30
0.0
 40
0.315716923076593
100
AcDbArc
 50
0.0
 51
64.8055893514559
  0
ARC
  5
1D9
102
{ACAD_REACTORS
330
225
330
226
102
}
330
71
100
AcDbEntity
  8
0
  6
Continuous
 62
     2
100
AcDbCircle
 10
-255.7967486235096
 20
-282.2488925979394
 30
0.0
 40
0.4242446153828041
100
AcDbArc
 50
180.0
 51
270.0
  0
ARC
  5
1DA
102
{ACAD_REACTORS
330
227
330
228
102
}
330
71
100
AcDbEntity
  8
0
  6
Continuous
 62
     2
100
AcDbCircle
 10
-240.9053126093551
 20
-277.6303107971226
 30
0.0
 40
0.5179085730135266
100
AcDbArc
 50
38.12041979714334
 51
141.8795802028508
  0
ARC
  5
1DB
102
{ACAD_REACTORS
330
227
330
228
102
}
330
71
100
AcDbEntity
  8
0
  6
Continuous
 62
     2
100
AcDbCircle
 10
-240.7055725730088
 20
-277.787041975243
 30
0.0
 40
0.7717997786796597
100
AcDbArc
 50
141.8795802028451
 51
218.1204197971583
  0
ARC
  5
1DC
102
{ACAD_REACTORS
330
229
330
22A
102
}
330
71
100
AcDbEntity
  8
0
  6
Continuous
 62
     2
100
AcDbCircle
 10
-244.8662600901486
 20
-280.607657441114
 30
0.0
 40
2.065479772208597
100
AcDbArc
 50
242.4518518243406
 51
297.548148175686
  0
ARC
  5
1DD
102
{ACAD_REACTORS
330
229
330
22A
102
}
330
71
100
AcDbEntity
  8
0
  6
Continuous
 62
     2
100
AcDbCircle
 10
-244.8662600901486
 20
-281.6848074617201
 30
0.0
 40
2.065479772208543
100
AcDbArc
 50
62.451851824306
 51
117.5481481756674
  0
ARC
  5
1DE
102
{ACAD_REACTORS
330
229
330
22A
102
}
330
71
100
AcDbEntity
  8
0
  6
Continuous
 62
     2
100
AcDbCircle
 10
-245.1471999819819
 20
-281.1462324514174
 30
0.0
 40
1.458034083651566
100
AcDbArc
 50
117.5481481756609
 51
242.451851824337
  0
ARC
  5
1DF
102
{ACAD_REACTORS
330
229
330
22A
102
}
330
71
100
AcDbEntity
  8
0
  6
Continuous
 62
     2
100
AcDbCircle
 10
-244.5853201983153
 20
-281.1462324514174
 30
0.0
 40
1.458034083651977
100
AcDbArc
 50
297.5481481757016
 51
62.4518518243005
  0
ARC
  5
1E0
102
{ACAD_REACTORS
330
227
330
228
102
}
330
71
100
AcDbEntity
  8
0
  6
Continuous
 62
     2
100
AcDbCircle
 10
-240.9053126093551
 20
-277.9437731533635
 30
0.0
 40
0.5179085730134595
100
AcDbArc
 50
218.1204197971492
 51
321.8795802028566
  0
ARC
  5
1E1
102
{ACAD_REACTORS
330
227
330
228
102
}
330
71
100
AcDbEntity
  8
0
  6
Continuous
 62
     2
100
AcDbCircle
 10
-241.1050526457013
 20
-277.787041975243
 30
0.0
 40
0.7717997786796947
100
AcDbArc
 50
321.8795802028417
 51
38.12041979715494
  0
ARC
  5
1E2
102
{ACAD_REACTORS
330
225
330
226
102
}
330
71
100
AcDbEntity
  8
0
  6
Continuous
 62
     2
100
AcDbCircle
 10
-250.3234365327928
 20
-282.2488925979394
 30
0.0
 40
0.4242446153833157
100
AcDbArc
 50
270.0
 51
0.0
  0
ARC
  5
1E3
102
{ACAD_REACTORS
330
225
330
226
102
}
330
71
100
AcDbEntity
  8
0
  6
Continuous
 62
     2
100
AcDbCircle
 10
-250.3234365327928
 20
-276.6843818287391
 30
0.0
 40
0.4242446153839126
100
AcDbArc
 50
0.0
 51
90.0
  0
ARC
  5
1E4
102
{ACAD_REACTORS
330
225
330
226
102
}
330
71
100
AcDbEntity
  8
0
  6
Continuous
 62
     2
100
AcDbCircle
 10
-255.7967486235096
 20
-276.6843818287391
 30
0.0
 40
0.4242446153838273
100
AcDbArc
 50
90.0
 51
180.0
  0
ARC
  5
1E5
102
{ACAD_REACTORS
330
225
330
226
102
}
330
71
100
AcDbEntity
  8
0
  6
Continuous
 62
     2
100
AcDbCircle
 10
-253.7270206857535
 20
-281.644864734689
 30
0.0
 40
0.3157169230767067
100
AcDbArc
 50
270.0
 51
0.0
  0
ARC
  5
1E6
102
{ACAD_REACTORS
330
225
330
226
102
}
330
71
100
AcDbEntity
  8
0
  6
Continuous
 62
     2
100
AcDbCircle
 10
-253.7270206857535
 20
-277.8924343110325
 30
0.0
 40
0.3157169230760688
100
AcDbArc
 50
295.1944106485441
 51
0.0
  0
ARC
  5
1E7
102
{ACAD_REACTORS
330
225
330
226
102
}
330
71
100
AcDbEntity
  8
0
  6
Continuous
 62
     2
100
AcDbCircle
 10
-253.7270206857535
 20
-277.2884096919719
 30
0.0
 40
0.315716923076593
100
AcDbArc
 50
0.0
 51
90.0
  0
ARC
  5
1E8
102
{ACAD_REACTORS
330
225
330
226
102
}
330
71
100
AcDbEntity
  8
0
  6
Continuous
 62
     2
100
AcDbCircle
 10
-255.2028539467631
 20
-281.644864734689
 30
0.0
 40
0.315716923075712
100
AcDbArc
 50
180.0
 51
270.0
  0
ARC
  5
1E9
102
{ACAD_REACTORS
330
22B
330
22C
102
}
330
71
100
AcDbEntity
  8
0
  6
Continuous
 62
     2
100
AcDbCircle
 10
-247.4228028385077
 20
-277.3155028546709
 30
0.0
 40
1.055365641333594
100
AcDbArc
 50
270.0
 51
90.0
  0
ARC
  5
1EA
102
{ACAD_REACTORS
330
223
330
224
102
}
330
71
100
AcDbEntity
  8
0
  6
Continuous
 62
     2
100
AcDbCircle
 10
-231.6945895268166
 20
-281.0334420893826
 30
0.0
 40
1.639695123940421
100
AcDbArc
 50
195.0618917771015
 51
275.1581447696766
  0
ARC
  5
1EB
102
{ACAD_REACTORS
330
223
330
224
102
}
330
71
100
AcDbEntity
  8
0
  6
Continuous
 62
     2
100
AcDbCircle
 10
-231.9834456215524
 20
-277.8335515061609
 30
0.0
 40
4.852596863498822
100
AcDbArc
 50
275.158144769636
 51
285.9799912583381
  0
ARC
  5
1EC
102
{ACAD_REACTORS
330
223
330
224
102
}
330
71
100
AcDbEntity
  8
0
  6
Continuous
 62
     2
100
AcDbCircle
 10
-231.8255727464596
 20
-279.7357660860092
 30
0.0
 40
2.227384008972719
100
AcDbArc
 50
288.4480761181337
 51
301.9309089499401
  0
ARC
  5
1ED
102
{ACAD_REACTORS
330
223
330
224
102
}
330
71
100
AcDbEntity
  8
0
  6
Continuous
 62
     2
100
AcDbCircle
 10
-231.4074050127977
 20
-280.9893118620458
 30
0.0
 40
0.9059297849852688
100
AcDbArc
 50
246.6277221118199
 51
288.4480761180817
  0
ARC
  5
1EE
102
{ACAD_REACTORS
330
223
330
224
102
}
330
71
100
AcDbEntity
  8
0
  6
Continuous
 62
     2
100
AcDbCircle
 10
-231.1864877874194
 20
-281.1462324514174
 30
0.0
 40
0.941059735334906
100
AcDbArc
 50
151.4785267423609
 51
208.5214732576695
  0
ARC
  5
1EF
102
{ACAD_REACTORS
330
223
330
224
102
}
330
71
100
AcDbEntity
  8
0
  6
Continuous
 62
     2
100
AcDbCircle
 10
-231.4171750473971
 20
-281.3591160024612
 30
0.0
 40
0.9545230068260935
100
AcDbArc
 50
90.0
 51
109.3371432194327
  0
ARC
  5
1F0
102
{ACAD_REACTORS
330
225
330
226
102
}
330
71
100
AcDbEntity
  8
0
  6
Continuous
 62
     2
100
AcDbCircle
 10
-252.6273052602314
 20
-277.28858716862
 30
0.0
 40
0.3157169230760711
100
AcDbArc
 50
90.18896704255108
 51
180.0
  0
ARC
  5
1F1
102
{ACAD_REACTORS
330
225
330
226
102
}
330
71
100
AcDbEntity
  8
0
  6
Continuous
 62
     2
100
AcDbCircle
 10
-253.1533479583193
 20
-279.0032640570946
 30
0.0
 40
0.9118481501444333
100
AcDbArc
 50
295.3740086781772
 51
64.62599132180748
  0
ARC
  5
1F2
102
{ACAD_REACTORS
330
221
330
222
102
}
330
71
100
AcDbEntity
  8
0
  6
Continuous
 62
     2
100
AcDbCircle
 10
-247.9282742257125
 20
-279.7357660860087
 30
0.0
 40
2.227384008972665
100
AcDbArc
 50
288.4480761181342
 51
301.9309089499611
  0
ARC
  5
1F3
102
{ACAD_REACTORS
330
221
330
222
102
}
330
71
100
AcDbEntity
  8
0
  6
Continuous
 62
     2
100
AcDbCircle
 10
-247.5101064920517
 20
-280.9893118620458
 30
0.0
 40
0.9059297849849192
100
AcDbArc
 50
246.627722111871
 51
288.4480761181596
  0
ARC
  5
1F4
102
{ACAD_REACTORS
330
221
330
222
102
}
330
71
100
AcDbEntity
  8
0
  6
Continuous
 62
     2
100
AcDbCircle
 10
-247.6665465247537
 20
-281.3513038807558
 30
0.0
 40
0.5115800601948034
100
AcDbArc
 50
208.5214732576956
 51
246.6277221118245
  0
ARC
  5
1F5
102
{ACAD_REACTORS
330
221
330
222
102
}
330
71
100
AcDbEntity
  8
0
  6
Continuous
 62
     2
100
AcDbCircle
 10
-247.5101064920517
 20
-281.303153040789
 30
0.0
 40
0.9059297849854396
100
AcDbArc
 50
71.55192388185405
 51
113.3722778881261
  0
ARC
  5
1F6
102
{ACAD_REACTORS
330
221
330
222
102
}
330
71
100
AcDbEntity
  8
0
  6
Continuous
 62
     2
100
AcDbCircle
 10
-248.0861471008054
 20
-284.4589133966732
 30
0.0
 40
4.852596863497986
100
AcDbArc
 50
74.0200087416471
 51
84.84185523037496
  0
CIRCLE
  5
1F7
102
{ACAD_REACTORS
330
225
330
226
102
}
330
71
100
AcDbEntity
  8
0
  6
Continuous
 62
     2
100
AcDbCircle
 10
-253.1771629729921
 20
-279.0032640570946
 30
0.0
 40
0.4709789327785074
  0
CIRCLE
  5
1F8
330
71
100
AcDbEntity
  8
1
  6
Continuous
 62
     2
100
AcDbCircle
 10
-247.7209932388924
 20
-268.841637213339
 30
0.0
 40
1.249999999999886
  0
CIRCLE
  5
1F9
330
71
100
AcDbEntity
  8
1
  6
Continuous
 62
     2
100
AcDbCircle
 10
-247.7209932388924
 20
-268.841637213339
 30
0.0
 40
2.5
  0
TEXT
  5
1FA
330
71
100
AcDbEntity
  8
1
 62
     7
100
AcDbText
 10
-205.0841004034412
 20
-271.6666372133391
 30
0.0
 40
2.5
  1
/
 41
0.9
  7
CONVERTER_11
100
AcDbText
  0
TEXT
  5
1FC
330
71
100
AcDbEntity
  8
1
 62
     7
100
AcDbText
 10
-202.9277359063992
 20
-271.6666372133391
 30
0.0
 40
2.5
  1
00
 41
0.81
  7
CONVERTER_12
100
AcDbText
  0
TEXT
  5
1FD
330
71
100
AcDbEntity
  8
1
 62
     3
100
AcDbText
 10
-165.3312518803821
 20
-271.6666372133391
 30
0.0
 40
2.5
  1
29.03.2018
 41
0.81
  7
CONVERTER_12
100
AcDbText
  0
MTEXT
  5
1FE
330
71
100
AcDbEntity
  8
1
 62
     2
100
AcDbMText
 10
-165.3312518803821
 20
-265.466637213339
 30
0.0
 40
1.8
 41
0.0
 71
     1
 72
     1
  1
date
  7
CONVERTER_11
 73
     1
 44
1.32052821128451
  0
MTEXT
  5
1FF
330
71
100
AcDbEntity
  8
1
 62
     2
100
AcDbMText
 10
-195.157648125455
 20
-273.966637213339
 30
0.0
 40
1.8
 41
0.0
 71
     1
 72
     1
  1
document-type
  7
CONVERTER_11
 73
     1
 44
1.20048019207683
  0
TEXT
  5
200
330
71
100
AcDbEntity
  8
1
 62
     3
100
AcDbText
 10
-195.157648125455
 20
-280.1666372133391
 30
0.0
 40
2.5
  1
TECDOC 2D_Productdrawing
 41
0.81
  7
CONVERTER_12
100
AcDbText
  0
MTEXT
  5
202
330
71
100
AcDbEntity
  8
1
 62
     2
100
AcDbMText
 10
-222.957648125455
 20
-265.4666372133389
 30
0.0
 40
1.8
 41
0.0
 71
     1
 72
     1
  1
document-No. / RI
  7
CONVERTER_13
 73
     1
 44
1.32052821128451
  0
TEXT
  5
203
330
71
100
AcDbEntity
  8
1
 62
     7
100
AcDbText
 10
-222.957648125455
 20
-271.6666372133391
 30
0.0
 40
2.5
  1
01098195
 41
0.81
  7
CONVERTER_12
100
AcDbText
  0
MTEXT
  5
205
330
71
100
AcDbEntity
  8
1
 62
     3
100
AcDbMText
 10
-135.3720477395427
 20
-271.6666372133388
 30
0.0
 40
2.5
 41
0.0
 71
     8
 72
     1
  1
5:1
  7
CONVERTER_14
 73
     1
 44
1.32052821128451
  0
MTEXT
  5
206
330
71
100
AcDbEntity
  8
1
 62
     2
100
AcDbMText
 10
-138.7312518803823
 20
-265.4666372133389
 30
0.0
 40
1.8
 41
0.0
 71
     1
 72
     1
  1
scale
  7
CONVERTER_11
 73
     1
 44
1.20048019207683
  0
MTEXT
  5
207
330
71
100
AcDbEntity
  8
1
 62
     2
100
AcDbMText
 10
-222.957648125455
 20
-273.9666372133389
 30
0.0
 40
1.8
 41
0.0
 71
     1
 72
     1
  1
ident.-No.
  7
CONVERTER_11
 73
     1
 44
1.20048019207683
  0
TEXT
  5
208
330
71
100
AcDbEntity
  8
1
 62
     7
100
AcDbText
 10
-222.5576481254553
 20
-280.1666372133391
 30
0.0
 40
2.5
  1
0800190
 41
0.81
  7
CONVERTER_12
100
AcDbText
  0
MTEXT
  5
209
330
71
100
AcDbEntity
  8
1
 62
     2
100
AcDbMText
 10
-294.8956628505025
 20
-277.216637213339
 30
0.0
 40
2.0
 41
0.0
 71
     5
 72
     1
  1
General Information\P- Simplified representation\P- Document excluded from change process\P- Linear dimensions [mm]
  7
CONVERTER_11
 73
     1
 44
1.20048019207683
  0
MTEXT
  5
20A
330
71
100
AcDbEntity
  8
1
 62
     7
100
AcDbMText
 10
-128.412843598706
 20
-214.966637213337
 30
0.0
 40
3.5
 41
0.0
 71
     5
 72
     1
  1
C
  7
CONVERTER_11
 73
     1
 44
1.20048019207683
  0
MTEXT
  5
20B
330
71
100
AcDbEntity
  8
1
 62
     7
100
AcDbMText
 10
-128.412843598706
 20
-112.4666372133389
 30
0.0
 40
3.5
 41
0.0
 71
     5
 72
     1
  1
A
  7
CONVERTER_11
 73
     1
 44
1.20048019207683
  0
MTEXT
  5
20C
330
71
100
AcDbEntity
  8
1
 62
     7
100
AcDbMText
 10
-128.412843598706
 20
-164.966637213337
 30
0.0
 40
3.5
 41
0.0
 71
     5
 72
     1
  1
B
  7
CONVERTER_11
 73
     1
 44
1.20048019207683
  0
MTEXT
  5
20D
330
71
100
AcDbEntity
  8
1
 62
     7
100
AcDbMText
 10
-128.412843598706
 20
-267.4666372133389
 30
0.0
 40
3.5
 41
0.0
 71
     5
 72
     1
  1
D
  7
CONVERTER_11
 73
     1
 44
1.20048019207683
  0
MTEXT
  5
20E
330
71
100
AcDbEntity
  8
1
 62
     7
100
AcDbMText
 10
-398.6628435987046
 20
-292.466637213339
 30
0.0
 40
3.5
 41
0.0
 71
     5
 72
     1
  1
1
  7
CONVERTER_11
 73
     1
 44
1.20048019207683
  0
MTEXT
  5
20F
330
71
100
AcDbEntity
  8
1
 62
     7
100
AcDbMText
 10
-349.412843598705
 20
-292.466637213339
 30
0.0
 40
3.5
 41
0.0
 71
     5
 72
     1
  1
2
  7
CONVERTER_11
 73
     1
 44
1.20048019207683
  0
MTEXT
  5
210
330
71
100
AcDbEntity
  8
1
 62
     7
100
AcDbMText
 10
-299.412843598705
 20
-292.466637213339
 30
0.0
 40
3.5
 41
0.0
 71
     5
 72
     1
  1
3
  7
CONVERTER_11
 73
     1
 44
1.20048019207683
  0
MTEXT
  5
211
330
71
100
AcDbEntity
  8
1
 62
     7
100
AcDbMText
 10
-249.4128435987051
 20
-292.466637213339
 30
0.0
 40
3.5
 41
0.0
 71
     5
 72
     1
  1
4
  7
CONVERTER_11
 73
     1
 44
1.20048019207683
  0
MTEXT
  5
212
330
71
100
AcDbEntity
  8
1
 62
     7
100
AcDbMText
 10
-199.412843598705
 20
-292.466637213339
 30
0.0
 40
3.5
 41
0.0
 71
     5
 72
     1
  1
5
  7
CONVERTER_11
 73
     1
 44
1.20048019207683
  0
MTEXT
  5
213
330
71
100
AcDbEntity
  8
1
 62
     7
100
AcDbMText
 10
-150.1628435987058
 20
-292.466637213339
 30
0.0
 40
3.5
 41
0.0
 71
     5
 72
     1
  1
6
  7
CONVERTER_11
 73
     1
 44
1.20048019207683
  0
MTEXT
  5
214
330
71
100
AcDbEntity
  8
1
 62
     7
100
AcDbMText
 10
-420.4128435987041
 20
-112.4666372133389
 30
0.0
 40
3.5
 41
0.0
 71
     5
 72
     1
  1
A
  7
CONVERTER_11
 73
     1
 44
1.20048019207683
  0
MTEXT
  5
215
330
71
100
AcDbEntity
  8
1
 62
     7
100
AcDbMText
 10
-420.4128435987041
 20
-164.9666372133389
 30
0.0
 40
3.5
 41
0.0
 71
     5
 72
     1
  1
B
  7
CONVERTER_11
 73
     1
 44
1.20048019207683
  0
MTEXT
  5
216
330
71
100
AcDbEntity
  8
1
 62
     7
100
AcDbMText
 10
-420.4128435987041
 20
-214.9666372133389
 30
0.0
 40
3.5
 41
0.0
 71
     5
 72
     1
  1
C
  7
CONVERTER_11
 73
     1
 44
1.20048019207683
  0
MTEXT
  5
217
330
71
100
AcDbEntity
  8
1
 62
     7
100
AcDbMText
 10
-420.4128435987041
 20
-267.4666372133389
 30
0.0
 40
3.5
 41
0.0
 71
     5
 72
     1
  1
D
  7
CONVERTER_11
 73
     1
 44
1.20048019207683
  0
MTEXT
  5
218
330
71
100
AcDbEntity
  8
1
 62
     3
100
AcDbMText
 10
-234.2576481254551
 20
-268.8416372133389
 30
0.0
 40
2.5
 41
0.0
 71
     5
 72
     1
  1
DIN A4
  7
CONVERTER_11
 73
     1
 44
1.20048019207683
  0
MTEXT
  5
219
330
71
100
AcDbEntity
  8
1
 62
     2
100
AcDbMText
 10
-223.0576481254551
 20
-282.4666372133389
 30
0.0
 40
1.8
 41
0.0
 71
     1
 72
     1
  1
description
  7
CONVERTER_11
 73
     1
 44
1.20048019207683
  0
MTEXT
  5
21A
330
71
100
AcDbEntity
  8
1
 62
     7
100
AcDbMText
 10
-177.4852458620795
 20
-286.7166372133387
 30
0.0
 40
3.0
 41
0.0
 71
     5
 72
     1
  1
ZB 5 /VT-100:UNBEDRUCKT
  7
CONVERTER_12
 73
     1
 44
1.20048019207683
  0
TEXT
  5
21B
330
71
100
AcDbEntity
  8
1
 62
     2
100
AcDbText
 10
-236.0223393156415
 20
-288.716637213339
 30
0.0
 40
1.8
  1
1
 41
0.9
  7
CONVERTER_11
100
AcDbText
  0
TEXT
  5
21C
330
71
100
AcDbEntity
  8
1
 62
     2
100
AcDbText
 10
-250.811383155113
 20
-288.7658858671409
 30
0.0
 40
1.8
  1
1
 41
0.9
  7
CONVERTER_11
100
AcDbText
  0
TEXT
  5
21D
330
71
100
AcDbEntity
  8
1
 62
     2
100
AcDbText
 10
-259.457648125455
 20
-288.7256544283306
 30
0.0
 40
1.8
  1
page
 41
0.9
  7
CONVERTER_11
100
AcDbText
  0
TEXT
  5
21E
330
71
100
AcDbEntity
  8
1
 62
     2
100
AcDbText
 10
-241.2576481254552
 20
-288.7256544283306
 30
0.0
 40
1.8
  1
of
 41
0.9
  7
CONVERTER_11
100
AcDbText
  0
MTEXT
  5
21F
330
71
100
AcDbEntity
  8
1
 62
     3
100
AcDbMText
 10
-235.0546659738451
 20
-103.1753290580402
 30
0.0
 40
1.8
 41
0.0
 71
     7
 72
     1
  3
Transfer or duplication of this document as well as the utilisation or\Pcommunication of its content are not permitted unless express consent\Pis granted. Violations give rise to claims for damages. All rights reserved\Pin case of patent, utility mo
  1
del or design patent registrations.
  7
CONVERTER_11
 73
     1
 44
0.99639855942377
  0
MTEXT
  5
220
330
71
100
AcDbEntity
  8
1
 62
     3
100
AcDbMText
 10
-417.9077758126332
 20
-103.1753290580402
 30
0.0
 40
1.8
 41
0.0
 71
     7
 72
     1
  3
Weitergabe sowie Vervielf\U+00e4ltigung dieses Dokuments, Verwertung und \PMitteilung seines Inhalts sind verboten, soweit nicht ausdr\U+00fccklich gestattet. \PZuwiderhandlungen verpflichten zu Schadenersatz. Alle Rechte f\U+00fcr den Fall\Pder Pat
  1
ent-, Gebrauchsmuster- oder Designeintragung vorbehalten.
  7
CONVERTER_11
 73
     1
 44
0.99639855942377
  0
HATCH
  5
221
330
71
100
AcDbEntity
  8
1
  6
Continuous
 62
     2
100
AcDbHatch
 10
0.0
 20
0.0
 30
0.0
210
0.0
220
0.0
230
1.0
  2
_USER
 70
     0
 71
     1
 91
        1
 92
        1
 93
       14
 72
     2
 10
-248.2164188495323
 20
-281.1462324514174
 40
1.205656168390986
 50
164.9381082228742
 51
195.0618917770893
 73
     1
 72
     2
 10
-247.7972910060695
 20
-281.0334420893826
 40
1.63969512393935
 50
195.0618917770848
 51
275.158144769641
 73
     1
 72
     2
 10
-248.0861471008054
 20
-277.8335515061609
 40
4.85259686349811
 50
275.158144769625
 51
285.9799912583527
 73
     1
 72
     1
 10
-246.7502191836876
 20
-282.4986338119618
 11
-246.7502191836876
 21
-281.6261168051585
 72
     2
 10
-247.9282742257125
 20
-279.7357660860087
 40
2.227384008972665
 50
58.06909105003893
 51
71.5519238818658
 73
     0
 72
     2
 10
-247.5101064920517
 20
-280.9893118620458
 40
0.9059297849849192
 50
71.55192388184041
 51
113.372277888129
 73
     0
 72
     2
 10
-247.6665465247537
 20
-281.3513038807558
 40
0.5115800601948034
 50
113.3722778881755
 51
151.4785267423044
 73
     0
 72
     2
 10
-247.2891892666734
 20
-281.1462324514174
 40
0.9410597353332545
 50
151.4785267423003
 51
208.5214732577331
 73
     0
 72
     2
 10
-247.6665465247537
 20
-280.9411610220784
 40
0.5115800601949674
 50
208.5214732576956
 51
246.6277221118017
 73
     0
 72
     2
 10
-247.5101064920517
 20
-281.303153040789
 40
0.9059297849854396
 50
246.6277221118739
 51
288.4480761181459
 73
     0
 72
     2
 10
-247.9282742257125
 20
-282.5566988168255
 40
2.227384008973468
 50
288.4480761181337
 51
301.9309089499603
 73
     0
 72
     1
 10
-246.7502191836876
 20
-280.6663480976756
 11
-246.7502191836876
 21
-279.7938310908724
 72
     2
 10
-248.0861471008054
 20
-284.4589133966732
 40
4.852596863497986
 50
74.0200087416471
 51
84.84185523037496
 73
     1
 72
     2
 10
-247.7972910060695
 20
-281.2590228134523
 40
1.639695123940509
 50
84.84185523036136
 51
164.9381082228846
 73
     1
 97
       14
330
1F6
330
10F
330
1C5
330
1F5
330
1C6
330
1C7
330
1F4
330
1F3
330
1F2
330
110
330
1C8
330
1C9
330
1CA
330
1CB
 75
     1
 76
     0
 52
45.0
 41
0.1
 77
     0
 78
     1
 53
45.0
 43
0.0
 44
0.0
 45
-0.0707106781186548
 46
0.0707106781186548
 79
     0
 98
        1
 10
0.0
 20
0.0
  0
HATCH
  5
222
330
71
100
AcDbEntity
  8
1
  6
Continuous
 62
     2
100
AcDbHatch
 10
0.0
 20
0.0
 30
0.0
210
0.0
220
0.0
230
1.0
  2
_USER
 70
     0
 71
     1
 91
        1
 92
        1
 93
       14
 72
     2
 10
-248.2164188495323
 20
-281.1462324514174
 40
1.205656168390986
 50
164.9381082228742
 51
195.0618917770893
 73
     1
 72
     2
 10
-247.7972910060695
 20
-281.0334420893826
 40
1.63969512393935
 50
195.0618917770848
 51
275.158144769641
 73
     1
 72
     2
 10
-248.0861471008054
 20
-277.8335515061609
 40
4.85259686349811
 50
275.158144769625
 51
285.9799912583527
 73
     1
 72
     1
 10
-246.7502191836876
 20
-282.4986338119618
 11
-246.7502191836876
 21
-281.6261168051585
 72
     2
 10
-247.9282742257125
 20
-279.7357660860087
 40
2.227384008972665
 50
58.06909105003893
 51
71.5519238818658
 73
     0
 72
     2
 10
-247.5101064920517
 20
-280.9893118620458
 40
0.9059297849849192
 50
71.55192388184041
 51
113.372277888129
 73
     0
 72
     2
 10
-247.6665465247537
 20
-281.3513038807558
 40
0.5115800601948034
 50
113.3722778881755
 51
151.4785267423044
 73
     0
 72
     2
 10
-247.2891892666734
 20
-281.1462324514174
 40
0.9410597353332545
 50
151.4785267423003
 51
208.5214732577331
 73
     0
 72
     2
 10
-247.6665465247537
 20
-280.9411610220784
 40
0.5115800601949674
 50
208.5214732576956
 51
246.6277221118017
 73
     0
 72
     2
 10
-247.5101064920517
 20
-281.303153040789
 40
0.9059297849854396
 50
246.6277221118739
 51
288.4480761181459
 73
     0
 72
     2
 10
-247.9282742257125
 20
-282.5566988168255
 40
2.227384008973468
 50
288.4480761181337
 51
301.9309089499603
 73
     0
 72
     1
 10
-246.7502191836876
 20
-280.6663480976756
 11
-246.7502191836876
 21
-279.7938310908724
 72
     2
 10
-248.0861471008054
 20
-284.4589133966732
 40
4.852596863497986
 50
74.0200087416471
 51
84.84185523037496
 73
     1
 72
     2
 10
-247.7972910060695
 20
-281.2590228134523
 40
1.639695123940509
 50
84.84185523036136
 51
164.9381082228846
 73
     1
 97
       14
330
1F6
330
10F
330
1C5
330
1F5
330
1C6
330
1C7
330
1F4
330
1F3
330
1F2
330
110
330
1C8
330
1C9
330
1CA
330
1CB
 75
     1
 76
     0
 52
45.0
 41
0.1
 77
     0
 78
     1
 53
45.0
 43
0.0
 44
0.0
 45
-0.0707106781186548
 46
0.0707106781186548
 79
     0
 98
        1
 10
0.0
 20
0.0
  0
HATCH
  5
223
330
71
100
AcDbEntity
  8
1
  6
Continuous
 62
     2
100
AcDbHatch
 10
0.0
 20
0.0
 30
0.0
210
0.0
220
0.0
230
1.0
  2
_USER
 70
     0
 71
     1
 91
        1
 92
        1
 93
       18
 72
     2
 10
-231.6945895268166
 20
-281.2590228134523
 40
1.639695123940328
 50
90.0
 51
164.9381082228928
 73
     1
 72
     2
 10
-232.1137173702782
 20
-281.1462324514174
 40
1.20565616839299
 50
164.9381082228998
 51
195.0618917770975
 73
     1
 72
     2
 10
-231.6945895268166
 20
-281.0334420893826
 40
1.639695123940421
 50
195.0618917771015
 51
275.1581447696766
 73
     1
 72
     2
 10
-231.9834456215524
 20
-277.8335515061609
 40
4.852596863498822
 50
275.158144769636
 51
285.9799912583381
 73
     1
 72
     1
 10
-230.6475177044357
 20
-282.4986338119624
 11
-230.6475177044357
 21
-281.626116805159
 72
     2
 10
-231.8255727464596
 20
-279.7357660860092
 40
2.227384008972719
 50
58.06909105005989
 51
71.55192388186632
 73
     0
 72
     2
 10
-231.4074050127977
 20
-280.9893118620458
 40
0.9059297849852688
 50
71.55192388191827
 51
113.3722778881801
 73
     0
 72
     2
 10
-231.5638450455008
 20
-281.3513038807558
 40
0.511580060196051
 50
113.3722778881522
 51
151.4785267423007
 73
     0
 72
     2
 10
-231.1864877874194
 20
-281.1462324514174
 40
0.941059735334906
 50
151.4785267423305
 51
208.5214732576391
 73
     0
 72
     2
 10
-231.5638450455008
 20
-280.9411610220784
 40
0.5115800601944048
 50
208.5214732575818
 51
250.6628567805177
 73
     0
 72
     2
 10
-231.4171750473971
 20
-281.3591160024612
 40
0.9545230068260935
 50
250.6628567805674
 51
270.0
 73
     0
 72
     1
 10
-231.4171750473971
 20
-280.4045929956351
 11
-230.313535747829
 21
-280.4045929956351
 72
     1
 10
-230.313535747829
 20
-280.4045929956351
 11
-230.313535747829
 21
-282.6731372133227
 72
     1
 10
-230.313535747829
 20
-282.6731372133227
 11
-229.1207430456613
 21
-282.6731372133227
 72
     1
 10
-229.1207430456613
 20
-282.6731372133227
 11
-229.1207430456613
 21
-280.4045929956351
 72
     1
 10
-229.1207430456613
 20
-280.4045929956351
 11
-228.3096440081879
 21
-280.4045929956351
 72
     1
 10
-228.3096440081879
 20
-280.4045929956351
 11
-228.3096440081879
 21
-279.6193276895116
 72
     1
 10
-228.3096440081879
 20
-279.6193276895116
 11
-231.6945895268166
 21
-279.619327689512
 97
       18
330
175
330
174
330
173
330
172
330
177
330
111
330
1EF
330
1D0
330
1EE
330
1D1
330
1ED
330
1EC
330
112
330
1EB
330
1EA
330
1D2
330
1D3
330
176
 75
     1
 76
     0
 52
45.0
 41
0.1
 77
     0
 78
     1
 53
45.0
 43
0.0
 44
0.0
 45
-0.0707106781186548
 46
0.0707106781186548
 79
     0
 98
        1
 10
0.0
 20
0.0
  0
HATCH
  5
224
330
71
100
AcDbEntity
  8
1
  6
Continuous
 62
     2
100
AcDbHatch
 10
0.0
 20
0.0
 30
0.0
210
0.0
220
0.0
230
1.0
  2
_USER
 70
     0
 71
     1
 91
        1
 92
        1
 93
       18
 72
     2
 10
-231.6945895268166
 20
-281.2590228134523
 40
1.639695123940328
 50
90.0
 51
164.9381082228928
 73
     1
 72
     2
 10
-232.1137173702782
 20
-281.1462324514174
 40
1.20565616839299
 50
164.9381082228998
 51
195.0618917770975
 73
     1
 72
     2
 10
-231.6945895268166
 20
-281.0334420893826
 40
1.639695123940421
 50
195.0618917771015
 51
275.1581447696766
 73
     1
 72
     2
 10
-231.9834456215524
 20
-277.8335515061609
 40
4.852596863498822
 50
275.158144769636
 51
285.9799912583381
 73
     1
 72
     1
 10
-230.6475177044357
 20
-282.4986338119624
 11
-230.6475177044357
 21
-281.626116805159
 72
     2
 10
-231.8255727464596
 20
-279.7357660860092
 40
2.227384008972719
 50
58.06909105005989
 51
71.55192388186632
 73
     0
 72
     2
 10
-231.4074050127977
 20
-280.9893118620458
 40
0.9059297849852688
 50
71.55192388191827
 51
113.3722778881801
 73
     0
 72
     2
 10
-231.5638450455008
 20
-281.3513038807558
 40
0.511580060196051
 50
113.3722778881522
 51
151.4785267423007
 73
     0
 72
     2
 10
-231.1864877874194
 20
-281.1462324514174
 40
0.941059735334906
 50
151.4785267423305
 51
208.5214732576391
 73
     0
 72
     2
 10
-231.5638450455008
 20
-280.9411610220784
 40
0.5115800601944048
 50
208.5214732575818
 51
250.6628567805177
 73
     0
 72
     2
 10
-231.4171750473971
 20
-281.3591160024612
 40
0.9545230068260935
 50
250.6628567805674
 51
270.0
 73
     0
 72
     1
 10
-231.4171750473971
 20
-280.4045929956351
 11
-230.313535747829
 21
-280.4045929956351
 72
     1
 10
-230.313535747829
 20
-280.4045929956351
 11
-230.313535747829
 21
-282.6731372133227
 72
     1
 10
-230.313535747829
 20
-282.6731372133227
 11
-229.1207430456613
 21
-282.6731372133227
 72
     1
 10
-229.1207430456613
 20
-282.6731372133227
 11
-229.1207430456613
 21
-280.4045929956351
 72
     1
 10
-229.1207430456613
 20
-280.4045929956351
 11
-228.3096440081879
 21
-280.4045929956351
 72
     1
 10
-228.3096440081879
 20
-280.4045929956351
 11
-228.3096440081879
 21
-279.6193276895116
 72
     1
 10
-228.3096440081879
 20
-279.6193276895116
 11
-231.6945895268166
 21
-279.619327689512
 97
       18
330
175
330
174
330
173
330
172
330
177
330
111
330
1EF
330
1D0
330
1EE
330
1D1
330
1ED
330
1EC
330
112
330
1EB
330
1EA
330
1D2
330
1D3
330
176
 75
     1
 76
     0
 52
45.0
 41
0.1
 77
     0
 78
     1
 53
45.0
 43
0.0
 44
0.0
 45
-0.0707106781186548
 46
0.0707106781186548
 79
     0
 98
        1
 10
0.0
 20
0.0
  0
HATCH
  5
225
330
71
100
AcDbEntity
  8
1
  6
Continuous
 62
     2
100
AcDbHatch
 10
0.0
 20
0.0
 30
0.0
210
0.0
220
0.0
230
1.0
  2
_USER
 70
     0
 71
     1
 91
        4
 92
        1
 93
        8
 72
     2
 10
-255.7967486235096
 20
-276.6843818287391
 40
0.4242446153838273
 50
90.0
 51
180.0
 73
     1
 72
     1
 10
-256.2209932388924
 20
-276.6843818287391
 11
-256.2209932388924
 21
-282.2488925979394
 72
     2
 10
-255.7967486235096
 20
-282.2488925979394
 40
0.4242446153828041
 50
180.0
 51
270.0
 73
     1
 72
     1
 10
-255.7967486235096
 20
-282.6731372133227
 11
-250.3234365327928
 21
-282.6731372133227
 72
     2
 10
-250.3234365327928
 20
-282.2488925979394
 40
0.4242446153833157
 50
270.0
 51
360.0
 73
     1
 72
     1
 10
-249.8991919174089
 20
-282.2488925979394
 11
-249.8991919174089
 21
-276.6843818287391
 72
     2
 10
-250.3234365327928
 20
-276.6843818287391
 40
0.4242446153839126
 50
0.0
 51
90.0
 73
     1
 72
     1
 10
-250.3234365327928
 20
-276.2601372133553
 11
-255.7967486235096
 21
-276.2601372133553
 97
        8
330
1E3
330
140
330
1E2
330
141
330
1D9
330
13E
330
1E4
330
13F
 92
       16
 93
        1
 72
     2
 10
-253.1771629729921
 20
-279.0032640570946
 40
0.4709789327785074
 50
0.0
 51
360.0
 73
     1
 97
        1
330
1F7
 92
       16
 93
        8
 72
     2
 10
-253.1533479583193
 20
-279.0032640570946
 40
0.9118481501444333
 50
295.3740086781772
 51
424.6259913218075
 73
     1
 72
     2
 10
-252.6273052602314
 20
-277.8941224571269
 40
0.315716923076792
 50
115.3740086783654
 51
180.0
 73
     0
 72
     1
 10
-252.9430221833082
 20
-277.8941224571269
 11
-252.9430221833082
 21
-277.28858716862
 72
     2
 10
-252.6273052602314
 20
-277.28858716862
 40
0.3157169230760711
 50
180.0
 51
269.8110329574489
 73
     0
 72
     2
 10
-252.6216891249214
 20
-278.9914221161891
 40
2.01856113193338
 50
269.8110329575858
 51
450.1889670424142
 73
     0
 72
     2
 10
-252.6273052602314
 20
-280.6942570637581
 40
0.315716923076792
 50
90.18896704255093
 51
180.0
 73
     0
 72
     1
 10
-252.9430221833082
 20
-280.6942570637581
 11
-252.9430221833082
 21
-280.1124056570631
 72
     2
 10
-252.6273052602314
 20
-280.1124056570631
 40
0.3157169230766477
 50
180.0
 51
244.6259913216524
 73
     0
 97
        8
330
1F1
330
1CD
330
179
330
1F0
330
1CE
330
1CF
330
178
330
1CC
 92
       16
 93
       12
 72
     1
 10
-255.2028539467631
 20
-281.9605816577657
 11
-253.7270206857535
 21
-281.9605816577657
 72
     2
 10
-253.7270206857535
 20
-281.644864734689
 40
0.3157169230767067
 50
270.0
 51
360.0
 73
     1
 72
     1
 10
-253.4113037626769
 20
-281.644864734689
 11
-253.4113037626769
 21
-280.1140938031574
 72
     2
 10
-253.7270206857535
 20
-280.1140938031574
 40
0.315716923076593
 50
0.0
 51
64.8055893514559
 73
     1
 72
     2
 10
-253.2044362381785
 20
-279.0032640570946
 40
0.911897523557601
 50
115.1944106485123
 51
244.8055893514694
 73
     0
 72
     2
 10
-253.7270206857535
 20
-277.8924343110325
 40
0.3157169230760688
 50
295.1944106485441
 51
360.0
 73
     1
 72
     1
 10
-253.4113037626769
 20
-277.8924343110325
 11
-253.4113037626769
 21
-277.2884096919719
 72
     2
 10
-253.7270206857535
 20
-277.2884096919719
 40
0.315716923076593
 50
0.0
 51
90.0
 73
     1
 72
     1
 10
-253.7270206857535
 20
-276.9726927688957
 11
-255.2028539467631
 21
-276.9726927688957
 72
     2
 10
-255.2028539467631
 20
-277.2884096919719
 40
0.3157169230761951
 50
90.0
 51
180.0
 73
     1
 72
     1
 10
-255.5185708698388
 20
-277.2884096919719
 11
-255.5185708698388
 21
-281.644864734689
 72
     2
 10
-255.2028539467631
 20
-281.644864734689
 40
0.315716923075712
 50
180.0
 51
270.0
 73
     1
 97
       12
330
145
330
1D6
330
144
330
1E7
330
143
330
1E6
330
1D7
330
1D8
330
142
330
1E5
330
13D
330
1E8
 75
     1
 76
     0
 52
45.0
 41
0.1
 77
     0
 78
     1
 53
45.0
 43
0.0
 44
0.0
 45
-0.0707106781186548
 46
0.0707106781186548
 79
     0
 98
        1
 10
0.0
 20
0.0
  0
HATCH
  5
226
330
71
100
AcDbEntity
  8
1
  6
Continuous
 62
     2
100
AcDbHatch
 10
0.0
 20
0.0
 30
0.0
210
0.0
220
0.0
230
1.0
  2
_USER
 70
     0
 71
     1
 91
        4
 92
        1
 93
        8
 72
     2
 10
-255.7967486235096
 20
-276.6843818287391
 40
0.4242446153838273
 50
90.0
 51
180.0
 73
     1
 72
     1
 10
-256.2209932388924
 20
-276.6843818287391
 11
-256.2209932388924
 21
-282.2488925979394
 72
     2
 10
-255.7967486235096
 20
-282.2488925979394
 40
0.4242446153828041
 50
180.0
 51
270.0
 73
     1
 72
     1
 10
-255.7967486235096
 20
-282.6731372133227
 11
-250.3234365327928
 21
-282.6731372133227
 72
     2
 10
-250.3234365327928
 20
-282.2488925979394
 40
0.4242446153833157
 50
270.0
 51
360.0
 73
     1
 72
     1
 10
-249.8991919174089
 20
-282.2488925979394
 11
-249.8991919174089
 21
-276.6843818287391
 72
     2
 10
-250.3234365327928
 20
-276.6843818287391
 40
0.4242446153839126
 50
0.0
 51
90.0
 73
     1
 72
     1
 10
-250.3234365327928
 20
-276.2601372133553
 11
-255.7967486235096
 21
-276.2601372133553
 97
        8
330
1E3
330
140
330
1E2
330
141
330
1D9
330
13E
330
1E4
330
13F
 92
       16
 93
        1
 72
     2
 10
-253.1771629729921
 20
-279.0032640570946
 40
0.4709789327785074
 50
0.0
 51
360.0
 73
     1
 97
        1
330
1F7
 92
       16
 93
        8
 72
     2
 10
-253.1533479583193
 20
-279.0032640570946
 40
0.9118481501444333
 50
295.3740086781772
 51
424.6259913218075
 73
     1
 72
     2
 10
-252.6273052602314
 20
-277.8941224571269
 40
0.315716923076792
 50
115.3740086783654
 51
180.0
 73
     0
 72
     1
 10
-252.9430221833082
 20
-277.8941224571269
 11
-252.9430221833082
 21
-277.28858716862
 72
     2
 10
-252.6273052602314
 20
-277.28858716862
 40
0.3157169230760711
 50
180.0
 51
269.8110329574489
 73
     0
 72
     2
 10
-252.6216891249214
 20
-278.9914221161891
 40
2.01856113193338
 50
269.8110329575858
 51
450.1889670424142
 73
     0
 72
     2
 10
-252.6273052602314
 20
-280.6942570637581
 40
0.315716923076792
 50
90.18896704255093
 51
180.0
 73
     0
 72
     1
 10
-252.9430221833082
 20
-280.6942570637581
 11
-252.9430221833082
 21
-280.1124056570631
 72
     2
 10
-252.6273052602314
 20
-280.1124056570631
 40
0.3157169230766477
 50
180.0
 51
244.6259913216524
 73
     0
 97
        8
330
1F1
330
1CD
330
179
330
1F0
330
1CE
330
1CF
330
178
330
1CC
 92
       16
 93
       12
 72
     1
 10
-255.2028539467631
 20
-281.9605816577657
 11
-253.7270206857535
 21
-281.9605816577657
 72
     2
 10
-253.7270206857535
 20
-281.644864734689
 40
0.3157169230767067
 50
270.0
 51
360.0
 73
     1
 72
     1
 10
-253.4113037626769
 20
-281.644864734689
 11
-253.4113037626769
 21
-280.1140938031574
 72
     2
 10
-253.7270206857535
 20
-280.1140938031574
 40
0.315716923076593
 50
0.0
 51
64.8055893514559
 73
     1
 72
     2
 10
-253.2044362381785
 20
-279.0032640570946
 40
0.911897523557601
 50
115.1944106485123
 51
244.8055893514694
 73
     0
 72
     2
 10
-253.7270206857535
 20
-277.8924343110325
 40
0.3157169230760688
 50
295.1944106485441
 51
360.0
 73
     1
 72
     1
 10
-253.4113037626769
 20
-277.8924343110325
 11
-253.4113037626769
 21
-277.2884096919719
 72
     2
 10
-253.7270206857535
 20
-277.2884096919719
 40
0.315716923076593
 50
0.0
 51
90.0
 73
     1
 72
     1
 10
-253.7270206857535
 20
-276.9726927688957
 11
-255.2028539467631
 21
-276.9726927688957
 72
     2
 10
-255.2028539467631
 20
-277.2884096919719
 40
0.3157169230761951
 50
90.0
 51
180.0
 73
     1
 72
     1
 10
-255.5185708698388
 20
-277.2884096919719
 11
-255.5185708698388
 21
-281.644864734689
 72
     2
 10
-255.2028539467631
 20
-281.644864734689
 40
0.315716923075712
 50
180.0
 51
270.0
 73
     1
 97
       12
330
145
330
1D6
330
144
330
1E7
330
143
330
1E6
330
1D7
330
1D8
330
142
330
1E5
330
13D
330
1E8
 75
     1
 76
     0
 52
45.0
 41
0.1
 77
     0
 78
     1
 53
45.0
 43
0.0
 44
0.0
 45
-0.0707106781186548
 46
0.0707106781186548
 79
     0
 98
        1
 10
0.0
 20
0.0
  0
HATCH
  5
227
330
71
100
AcDbEntity
  8
1
  6
Continuous
 62
     2
100
AcDbHatch
 10
0.0
 20
0.0
 30
0.0
210
0.0
220
0.0
230
1.0
  2
_USER
 70
     0
 71
     1
 91
        2
 92
        1
 93
       12
 72
     2
 10
-241.1215846195203
 20
-277.787041975243
 40
1.526904761905826
 50
90.0
 51
270.0
 73
     1
 72
     1
 10
-241.1215846195203
 20
-279.3139467371483
 11
-237.9712648957393
 21
-279.3139467371483
 72
     1
 10
-237.9712648957393
 20
-279.3139467371483
 11
-237.9712648957393
 21
-278.6159331317058
 72
     1
 10
-237.9712648957393
 20
-278.6159331317058
 11
-239.307192722167
 21
-278.6159331317058
 72
     1
 10
-239.307192722167
 20
-278.6159331317058
 11
-239.307192722167
 21
-278.1360487779641
 72
     1
 10
-239.307192722167
 20
-278.1360487779641
 11
-237.9712648957393
 21
-278.1360487779641
 72
     1
 10
-237.9712648957393
 20
-278.1360487779641
 11
-237.9712648957393
 21
-277.4380351725218
 72
     1
 10
-237.9712648957393
 20
-277.4380351725218
 11
-239.307192722167
 21
-277.4380351725218
 72
     1
 10
-239.307192722167
 20
-277.4380351725218
 11
-239.307192722167
 21
-276.9581508187802
 72
     1
 10
-239.307192722167
 20
-276.9581508187802
 11
-237.9712648957393
 21
-276.9581508187802
 72
     1
 10
-237.9712648957393
 20
-276.9581508187802
 11
-237.9712648957393
 21
-276.2601372133372
 72
     1
 10
-237.9712648957393
 20
-276.2601372133372
 11
-241.1215846195203
 21
-276.2601372133372
 97
       12
330
134
330
12E
330
155
330
154
330
153
330
152
330
12F
330
130
330
131
330
132
330
1D4
330
133
 92
       16
 93
        4
 72
     2
 10
-240.7055725730088
 20
-277.787041975243
 40
0.7717997786796597
 50
141.8795802028451
 51
218.1204197971583
 73
     1
 72
     2
 10
-240.9053126093551
 20
-277.9437731533635
 40
0.5179085730134595
 50
218.1204197971492
 51
321.8795802028566
 73
     1
 72
     2
 10
-241.1050526457013
 20
-277.787041975243
 40
0.7717997786796947
 50
321.8795802028417
 51
398.120419797155
 73
     1
 72
     2
 10
-240.9053126093551
 20
-277.6303107971226
 40
0.5179085730135266
 50
38.12041979714334
 51
141.8795802028508
 73
     1
 97
        4
330
1E1
330
1E0
330
1DB
330
1DA
 75
     1
 76
     0
 52
45.0
 41
0.1
 77
     0
 78
     1
 53
45.0
 43
0.0
 44
0.0
 45
-0.0707106781186548
 46
0.0707106781186548
 79
     0
 98
        1
 10
0.0
 20
0.0
  0
HATCH
  5
228
330
71
100
AcDbEntity
  8
1
  6
Continuous
 62
     2
100
AcDbHatch
 10
0.0
 20
0.0
 30
0.0
210
0.0
220
0.0
230
1.0
  2
_USER
 70
     0
 71
     1
 91
        2
 92
        1
 93
       12
 72
     2
 10
-241.1215846195203
 20
-277.787041975243
 40
1.526904761905826
 50
90.0
 51
270.0
 73
     1
 72
     1
 10
-241.1215846195203
 20
-279.3139467371483
 11
-237.9712648957393
 21
-279.3139467371483
 72
     1
 10
-237.9712648957393
 20
-279.3139467371483
 11
-237.9712648957393
 21
-278.6159331317058
 72
     1
 10
-237.9712648957393
 20
-278.6159331317058
 11
-239.307192722167
 21
-278.6159331317058
 72
     1
 10
-239.307192722167
 20
-278.6159331317058
 11
-239.307192722167
 21
-278.1360487779641
 72
     1
 10
-239.307192722167
 20
-278.1360487779641
 11
-237.9712648957393
 21
-278.1360487779641
 72
     1
 10
-237.9712648957393
 20
-278.1360487779641
 11
-237.9712648957393
 21
-277.4380351725218
 72
     1
 10
-237.9712648957393
 20
-277.4380351725218
 11
-239.307192722167
 21
-277.4380351725218
 72
     1
 10
-239.307192722167
 20
-277.4380351725218
 11
-239.307192722167
 21
-276.9581508187802
 72
     1
 10
-239.307192722167
 20
-276.9581508187802
 11
-237.9712648957393
 21
-276.9581508187802
 72
     1
 10
-237.9712648957393
 20
-276.9581508187802
 11
-237.9712648957393
 21
-276.2601372133372
 72
     1
 10
-237.9712648957393
 20
-276.2601372133372
 11
-241.1215846195203
 21
-276.2601372133372
 97
       12
330
134
330
12E
330
155
330
154
330
153
330
152
330
12F
330
130
330
131
330
132
330
1D4
330
133
 92
       16
 93
        4
 72
     2
 10
-240.7055725730088
 20
-277.787041975243
 40
0.7717997786796597
 50
141.8795802028451
 51
218.1204197971583
 73
     1
 72
     2
 10
-240.9053126093551
 20
-277.9437731533635
 40
0.5179085730134595
 50
218.1204197971492
 51
321.8795802028566
 73
     1
 72
     2
 10
-241.1050526457013
 20
-277.787041975243
 40
0.7717997786796947
 50
321.8795802028417
 51
398.120419797155
 73
     1
 72
     2
 10
-240.9053126093551
 20
-277.6303107971226
 40
0.5179085730135266
 50
38.12041979714334
 51
141.8795802028508
 73
     1
 97
        4
330
1E1
330
1E0
330
1DB
330
1DA
 75
     1
 76
     0
 52
45.0
 41
0.1
 77
     0
 78
     1
 53
45.0
 43
0.0
 44
0.0
 45
-0.0707106781186548
 46
0.0707106781186548
 79
     0
 98
        1
 10
0.0
 20
0.0
  0
HATCH
  5
229
330
71
100
AcDbEntity
  8
1
  6
Continuous
 62
     2
100
AcDbHatch
 10
0.0
 20
0.0
 30
0.0
210
0.0
220
0.0
230
1.0
  2
_USER
 70
     0
 71
     1
 91
        2
 92
        1
 93
        4
 72
     2
 10
-245.1471999819819
 20
-281.1462324514174
 40
1.458034083651566
 50
117.5481481756609
 51
242.451851824337
 73
     1
 72
     2
 10
-244.8662600901486
 20
-280.607657441114
 40
2.065479772208597
 50
242.4518518243406
 51
297.548148175686
 73
     1
 72
     2
 10
-244.5853201983153
 20
-281.1462324514174
 40
1.458034083651977
 50
297.5481481757016
 51
422.4518518243005
 73
     1
 72
     2
 10
-244.8662600901486
 20
-281.6848074617201
 40
2.065479772208543
 50
62.451851824306
 51
117.5481481756674
 73
     1
 97
        4
330
1DF
330
1DC
330
1DE
330
1DD
 92
       16
 93
        4
 72
     2
 10
-244.8662600901486
 20
-280.9895012732968
 40
0.5179085730132423
 50
38.12041979714403
 51
141.8795802028657
 73
     1
 72
     2
 10
-244.6665200538025
 20
-281.1462324514174
 40
0.7717997786795031
 50
141.879580202836
 51
218.120419797164
 73
     1
 72
     2
 10
-244.8662600901486
 20
-281.3029636295373
 40
0.5179085730137754
 50
218.1204197971937
 51
321.8795802027966
 73
     1
 72
     2
 10
-245.066000126495
 20
-281.1462324514174
 40
0.7717997786796373
 50
321.8795802028437
 51
398.1204197971563
 73
     1
 97
        4
330
1C2
330
1C3
330
1C4
330
1C1
 75
     1
 76
     0
 52
45.0
 41
0.1
 77
     0
 78
     1
 53
45.0
 43
0.0
 44
0.0
 45
-0.0707106781186548
 46
0.0707106781186548
 79
     0
 98
        1
 10
0.0
 20
0.0
  0
HATCH
  5
22A
330
71
100
AcDbEntity
  8
1
  6
Continuous
 62
     2
100
AcDbHatch
 10
0.0
 20
0.0
 30
0.0
210
0.0
220
0.0
230
1.0
  2
_USER
 70
     0
 71
     1
 91
        2
 92
        1
 93
        4
 72
     2
 10
-245.1471999819819
 20
-281.1462324514174
 40
1.458034083651566
 50
117.5481481756609
 51
242.451851824337
 73
     1
 72
     2
 10
-244.8662600901486
 20
-280.607657441114
 40
2.065479772208597
 50
242.4518518243406
 51
297.548148175686
 73
     1
 72
     2
 10
-244.5853201983153
 20
-281.1462324514174
 40
1.458034083651977
 50
297.5481481757016
 51
422.4518518243005
 73
     1
 72
     2
 10
-244.8662600901486
 20
-281.6848074617201
 40
2.065479772208543
 50
62.451851824306
 51
117.5481481756674
 73
     1
 97
        4
330
1DF
330
1DC
330
1DE
330
1DD
 92
       16
 93
        4
 72
     2
 10
-244.8662600901486
 20
-280.9895012732968
 40
0.5179085730132423
 50
38.12041979714403
 51
141.8795802028657
 73
     1
 72
     2
 10
-244.6665200538025
 20
-281.1462324514174
 40
0.7717997786795031
 50
141.879580202836
 51
218.120419797164
 73
     1
 72
     2
 10
-244.8662600901486
 20
-281.3029636295373
 40
0.5179085730137754
 50
218.1204197971937
 51
321.8795802027966
 73
     1
 72
     2
 10
-245.066000126495
 20
-281.1462324514174
 40
0.7717997786796373
 50
321.8795802028437
 51
398.1204197971563
 73
     1
 97
        4
330
1C2
330
1C3
330
1C4
330
1C1
 75
     1
 76
     0
 52
45.0
 41
0.1
 77
     0
 78
     1
 53
45.0
 43
0.0
 44
0.0
 45
-0.0707106781186548
 46
0.0707106781186548
 79
     0
 98
        1
 10
0.0
 20
0.0
  0
HATCH
  5
22B
330
71
100
AcDbEntity
  8
1
  6
Continuous
 62
     2
100
AcDbHatch
 10
0.0
 20
0.0
 30
0.0
210
0.0
220
0.0
230
1.0
  2
_USER
 70
     0
 71
     1
 91
        2
 92
        1
 93
        6
 72
     1
 10
-249.4220748365421
 20
-276.2601372133372
 11
-249.4220748365421
 21
-279.3139467371483
 72
     1
 10
-249.4220748365421
 20
-279.3139467371483
 11
-248.181570426288
 21
-279.3139467371483
 72
     1
 10
-248.181570426288
 20
-279.3139467371483
 11
-248.181570426288
 21
-278.3708684960045
 72
     1
 10
-248.181570426288
 20
-278.3708684960045
 11
-247.4228028385077
 21
-278.3708684960045
 72
     2
 10
-247.4228028385077
 20
-277.3155028546709
 40
1.055365641333594
 50
270.0
 51
450.0
 73
     1
 72
     1
 10
-247.4228028385077
 20
-276.2601372133372
 11
-249.4220748365421
 21
-276.2601372133372
 97
        6
330
1E9
330
146
330
13C
330
13B
330
148
330
147
 92
       16
 93
        4
 72
     1
 10
-247.8642753647461
 20
-276.9232430587773
 11
-248.181570426288
 21
-276.9232430587773
 72
     1
 10
-248.181570426288
 20
-276.9232430587773
 11
-248.181570426288
 21
-277.6289707081195
 72
     1
 10
-248.181570426288
 20
-277.6289707081195
 11
-247.8642753647461
 21
-277.6289707081195
 72
     2
 10
-247.8642753647461
 20
-277.2761068834483
 40
0.3528638246712035
 50
270.0
 51
450.0
 73
     1
 97
        4
330
149
330
13A
330
14A
330
1D5
 75
     1
 76
     0
 52
45.0
 41
0.1
 77
     0
 78
     1
 53
45.0
 43
0.0
 44
0.0
 45
-0.0707106781186548
 46
0.0707106781186548
 79
     0
 98
        1
 10
0.0
 20
0.0
  0
HATCH
  5
22C
330
71
100
AcDbEntity
  8
1
  6
Continuous
 62
     2
100
AcDbHatch
 10
0.0
 20
0.0
 30
0.0
210
0.0
220
0.0
230
1.0
  2
_USER
 70
     0
 71
     1
 91
        2
 92
        1
 93
        6
 72
     1
 10
-249.4220748365421
 20
-276.2601372133372
 11
-249.4220748365421
 21
-279.3139467371483
 72
     1
 10
-249.4220748365421
 20
-279.3139467371483
 11
-248.181570426288
 21
-279.3139467371483
 72
     1
 10
-248.181570426288
 20
-279.3139467371483
 11
-248.181570426288
 21
-278.3708684960045
 72
     1
 10
-248.181570426288
 20
-278.3708684960045
 11
-247.4228028385077
 21
-278.3708684960045
 72
     2
 10
-247.4228028385077
 20
-277.3155028546709
 40
1.055365641333594
 50
270.0
 51
450.0
 73
     1
 72
     1
 10
-247.4228028385077
 20
-276.2601372133372
 11
-249.4220748365421
 21
-276.2601372133372
 97
        6
330
1E9
330
146
330
13C
330
13B
330
148
330
147
 92
       16
 93
        4
 72
     1
 10
-247.8642753647461
 20
-276.9232430587773
 11
-248.181570426288
 21
-276.9232430587773
 72
     1
 10
-248.181570426288
 20
-276.9232430587773
 11
-248.181570426288
 21
-277.6289707081195
 72
     1
 10
-248.181570426288
 20
-277.6289707081195
 11
-247.8642753647461
 21
-277.6289707081195
 72
     2
 10
-247.8642753647461
 20
-277.2761068834483
 40
0.3528638246712035
 50
270.0
 51
450.0
 73
     1
 97
        4
330
149
330
13A
330
14A
330
1D5
 75
     1
 76
     0
 52
45.0
 41
0.1
 77
     0
 78
     1
 53
45.0
 43
0.0
 44
0.0
 45
-0.0707106781186548
 46
0.0707106781186548
 79
     0
 98
        1
 10
0.0
 20
0.0
  0
HATCH
  5
22D
330
71
100
AcDbEntity
  8
1
  6
Continuous
 62
     2
100
AcDbHatch
 10
0.0
 20
0.0
 30
0.0
210
0.0
220
0.0
230
1.0
  2
_USER
 70
     0
 71
     1
 91
        1
 92
        1
 93
       12
 72
     1
 10
-229.8077916421089
 20
-276.2601372133372
 11
-228.4050674243617
 21
-276.2601372133372
 72
     1
 10
-228.4050674243617
 20
-276.2601372133372
 11
-229.7075970551282
 21
-277.7330877433734
 72
     1
 10
-229.7075970551282
 20
-277.7330877433734
 11
-228.3096440081879
 21
-279.3139467371483
 72
     1
 10
-228.3096440081879
 20
-279.3139467371483
 11
-229.7123682259362
 21
-279.3139467371483
 72
     1
 10
-229.7123682259362
 20
-279.3139467371483
 11
-230.4089591640017
 21
-278.5262149518546
 72
     1
 10
-230.4089591640017
 20
-278.5262149518546
 11
-231.1055501020674
 21
-279.3139467371483
 72
     1
 10
-231.1055501020674
 20
-279.3139467371483
 11
-232.5082743198156
 21
-279.3139467371483
 72
     1
 10
-232.5082743198156
 20
-279.3139467371483
 11
-231.1103212728753
 21
-277.7330877433734
 72
     1
 10
-231.1103212728753
 20
-277.7330877433734
 11
-232.4128509036428
 21
-276.2601372133372
 72
     1
 10
-232.4128509036428
 20
-276.2601372133372
 11
-231.0101266858935
 21
-276.2601372133372
 72
     1
 10
-231.0101266858935
 20
-276.2601372133372
 11
-230.4089591640017
 21
-276.9399605348926
 72
     1
 10
-230.4089591640017
 20
-276.9399605348926
 11
-229.8077916421089
 21
-276.2601372133372
 97
       12
330
115
330
16E
330
16D
330
16C
330
16B
330
116
330
117
330
113
330
114
330
171
330
170
330
16F
 75
     1
 76
     0
 52
45.0
 41
0.1
 77
     0
 78
     1
 53
45.0
 43
0.0
 44
0.0
 45
-0.0707106781186548
 46
0.0707106781186548
 79
     0
 98
        1
 10
0.0
 20
0.0
  0
HATCH
  5
22E
330
71
100
AcDbEntity
  8
1
  6
Continuous
 62
     2
100
AcDbHatch
 10
0.0
 20
0.0
 30
0.0
210
0.0
220
0.0
230
1.0
  2
_USER
 70
     0
 71
     1
 91
        1
 92
        1
 93
       12
 72
     1
 10
-229.8077916421089
 20
-276.2601372133372
 11
-228.4050674243617
 21
-276.2601372133372
 72
     1
 10
-228.4050674243617
 20
-276.2601372133372
 11
-229.7075970551282
 21
-277.7330877433734
 72
     1
 10
-229.7075970551282
 20
-277.7330877433734
 11
-228.3096440081879
 21
-279.3139467371483
 72
     1
 10
-228.3096440081879
 20
-279.3139467371483
 11
-229.7123682259362
 21
-279.3139467371483
 72
     1
 10
-229.7123682259362
 20
-279.3139467371483
 11
-230.4089591640017
 21
-278.5262149518546
 72
     1
 10
-230.4089591640017
 20
-278.5262149518546
 11
-231.1055501020674
 21
-279.3139467371483
 72
     1
 10
-231.1055501020674
 20
-279.3139467371483
 11
-232.5082743198156
 21
-279.3139467371483
 72
     1
 10
-232.5082743198156
 20
-279.3139467371483
 11
-231.1103212728753
 21
-277.7330877433734
 72
     1
 10
-231.1103212728753
 20
-277.7330877433734
 11
-232.4128509036428
 21
-276.2601372133372
 72
     1
 10
-232.4128509036428
 20
-276.2601372133372
 11
-231.0101266858935
 21
-276.2601372133372
 72
     1
 10
-231.0101266858935
 20
-276.2601372133372
 11
-230.4089591640017
 21
-276.9399605348926
 72
     1
 10
-230.4089591640017
 20
-276.9399605348926
 11
-229.8077916421089
 21
-276.2601372133372
 97
       12
330
115
330
16E
330
16D
330
16C
330
16B
330
116
330
117
330
113
330
114
330
171
330
170
330
16F
 75
     1
 76
     0
 52
45.0
 41
0.1
 77
     0
 78
     1
 53
45.0
 43
0.0
 44
0.0
 45
-0.0707106781186548
 46
0.0707106781186548
 79
     0
 98
        1
 10
0.0
 20
0.0
  0
HATCH
  5
22F
330
71
100
AcDbEntity
  8
1
  6
Continuous
 62
     2
100
AcDbHatch
 10
0.0
 20
0.0
 30
0.0
210
0.0
220
0.0
230
1.0
  2
_USER
 70
     0
 71
     1
 91
        1
 92
        1
 93
        4
 72
     1
 10
-232.6275535900325
 20
-276.2601372133372
 11
-232.6275535900325
 21
-279.3139467371483
 72
     1
 10
-232.6275535900325
 20
-279.3139467371483
 11
-233.8680580002854
 21
-279.3139467371483
 72
     1
 10
-233.8680580002854
 20
-279.3139467371483
 11
-233.8680580002854
 21
-276.2601372133372
 72
     1
 10
-233.8680580002854
 20
-276.2601372133372
 11
-232.6275535900325
 21
-276.2601372133372
 97
        4
330
169
330
118
330
168
330
16A
 75
     1
 76
     0
 52
45.0
 41
0.1
 77
     0
 78
     1
 53
45.0
 43
0.0
 44
0.0
 45
-0.0707106781186548
 46
0.0707106781186548
 79
     0
 98
        1
 10
0.0
 20
0.0
  0
HATCH
  5
230
330
71
100
AcDbEntity
  8
1
  6
Continuous
 62
     2
100
AcDbHatch
 10
0.0
 20
0.0
 30
0.0
210
0.0
220
0.0
230
1.0
  2
_USER
 70
     0
 71
     1
 91
        1
 92
        1
 93
        4
 72
     1
 10
-232.6275535900325
 20
-276.2601372133372
 11
-232.6275535900325
 21
-279.3139467371483
 72
     1
 10
-232.6275535900325
 20
-279.3139467371483
 11
-233.8680580002854
 21
-279.3139467371483
 72
     1
 10
-233.8680580002854
 20
-279.3139467371483
 11
-233.8680580002854
 21
-276.2601372133372
 72
     1
 10
-233.8680580002854
 20
-276.2601372133372
 11
-232.6275535900325
 21
-276.2601372133372
 97
        4
330
169
330
118
330
168
330
16A
 75
     1
 76
     0
 52
45.0
 41
0.1
 77
     0
 78
     1
 53
45.0
 43
0.0
 44
0.0
 45
-0.0707106781186548
 46
0.0707106781186548
 79
     0
 98
        1
 10
0.0
 20
0.0
  0
HATCH
  5
231
330
71
100
AcDbEntity
  8
1
  6
Continuous
 62
     2
100
AcDbHatch
 10
0.0
 20
0.0
 30
0.0
210
0.0
220
0.0
230
1.0
  2
_USER
 70
     0
 71
     1
 91
        2
 92
        1
 93
        8
 72
     1
 10
-233.0179975935645
 20
-282.6731372133227
 11
-234.2585020038184
 21
-282.6731372133227
 72
     1
 10
-234.2585020038184
 20
-282.6731372133227
 11
-234.4699820572942
 21
-282.1321766691048
 72
     1
 10
-234.4699820572942
 20
-282.1321766691048
 11
-235.602423633968
 21
-282.1321766691048
 72
     1
 10
-235.602423633968
 20
-282.1321766691048
 11
-235.8139036874438
 21
-282.6731372133227
 72
     1
 10
-235.8139036874438
 20
-282.6731372133227
 11
-237.0544080976968
 21
-282.6731372133227
 72
     1
 10
-237.0544080976968
 20
-282.6731372133227
 11
-235.6564550507575
 21
-279.6193276895116
 72
     1
 10
-235.6564550507575
 20
-279.6193276895116
 11
-234.4159506405048
 21
-279.6193276895116
 72
     1
 10
-234.4159506405048
 20
-279.6193276895116
 11
-233.0179975935645
 21
-282.6731372133227
 97
        8
330
164
330
11E
330
163
330
166
330
11B
330
165
330
11C
330
11D
 92
       16
 93
        3
 72
     1
 10
-235.336368082823
 20
-281.4516134037982
 11
-234.7360376084405
 21
-281.4516134037982
 72
     1
 10
-234.7360376084405
 20
-281.4516134037982
 11
-235.0362028456306
 21
-280.6837984378115
 72
     1
 10
-235.0362028456306
 20
-280.6837984378115
 11
-235.336368082823
 21
-281.4516134037982
 97
        3
330
11A
330
119
330
167
 75
     1
 76
     0
 52
45.0
 41
0.1
 77
     0
 78
     1
 53
45.0
 43
0.0
 44
0.0
 45
-0.0707106781186548
 46
0.0707106781186548
 79
     0
 98
        1
 10
0.0
 20
0.0
  0
HATCH
  5
232
330
71
100
AcDbEntity
  8
1
  6
Continuous
 62
     2
100
AcDbHatch
 10
0.0
 20
0.0
 30
0.0
210
0.0
220
0.0
230
1.0
  2
_USER
 70
     0
 71
     1
 91
        2
 92
        1
 93
        8
 72
     1
 10
-233.0179975935645
 20
-282.6731372133227
 11
-234.2585020038184
 21
-282.6731372133227
 72
     1
 10
-234.2585020038184
 20
-282.6731372133227
 11
-234.4699820572942
 21
-282.1321766691048
 72
     1
 10
-234.4699820572942
 20
-282.1321766691048
 11
-235.602423633968
 21
-282.1321766691048
 72
     1
 10
-235.602423633968
 20
-282.1321766691048
 11
-235.8139036874438
 21
-282.6731372133227
 72
     1
 10
-235.8139036874438
 20
-282.6731372133227
 11
-237.0544080976968
 21
-282.6731372133227
 72
     1
 10
-237.0544080976968
 20
-282.6731372133227
 11
-235.6564550507575
 21
-279.6193276895116
 72
     1
 10
-235.6564550507575
 20
-279.6193276895116
 11
-234.4159506405048
 21
-279.6193276895116
 72
     1
 10
-234.4159506405048
 20
-279.6193276895116
 11
-233.0179975935645
 21
-282.6731372133227
 97
        8
330
164
330
11E
330
163
330
166
330
11B
330
165
330
11C
330
11D
 92
       16
 93
        3
 72
     1
 10
-235.336368082823
 20
-281.4516134037982
 11
-234.7360376084405
 21
-281.4516134037982
 72
     1
 10
-234.7360376084405
 20
-281.4516134037982
 11
-235.0362028456306
 21
-280.6837984378115
 72
     1
 10
-235.0362028456306
 20
-280.6837984378115
 11
-235.336368082823
 21
-281.4516134037982
 97
        3
330
11A
330
119
330
167
 75
     1
 76
     0
 52
45.0
 41
0.1
 77
     0
 78
     1
 53
45.0
 43
0.0
 44
0.0
 45
-0.0707106781186548
 46
0.0707106781186548
 79
     0
 98
        1
 10
0.0
 20
0.0
  0
HATCH
  5
233
330
71
100
AcDbEntity
  8
1
  6
Continuous
 62
     2
100
AcDbHatch
 10
0.0
 20
0.0
 30
0.0
210
0.0
220
0.0
230
1.0
  2
_USER
 70
     0
 71
     1
 91
        1
 92
        1
 93
        8
 72
     1
 10
-239.211920236879
 20
-279.6193276895116
 11
-239.211920236879
 21
-280.4045929956351
 72
     1
 10
-239.211920236879
 20
-280.4045929956351
 11
-238.4008211994044
 21
-280.4045929956351
 72
     1
 10
-238.4008211994044
 20
-280.4045929956351
 11
-238.4008211994044
 21
-282.6731372133227
 72
     1
 10
-238.4008211994044
 20
-282.6731372133227
 11
-237.2080284972379
 21
-282.6731372133227
 72
     1
 10
-237.2080284972379
 20
-282.6731372133227
 11
-237.2080284972379
 21
-280.4045929956351
 72
     1
 10
-237.2080284972379
 20
-280.4045929956351
 11
-236.3969294597654
 21
-280.4045929956351
 72
     1
 10
-236.3969294597654
 20
-280.4045929956351
 11
-236.3969294597654
 21
-279.6193276895116
 72
     1
 10
-236.3969294597654
 20
-279.6193276895116
 11
-239.211920236879
 21
-279.6193276895116
 97
        8
330
160
330
15F
330
15E
330
11F
330
120
330
162
330
121
330
161
 75
     1
 76
     0
 52
45.0
 41
0.1
 77
     0
 78
     1
 53
45.0
 43
0.0
 44
0.0
 45
-0.0707106781186548
 46
0.0707106781186548
 79
     0
 98
        1
 10
0.0
 20
0.0
  0
HATCH
  5
234
330
71
100
AcDbEntity
  8
1
  6
Continuous
 62
     2
100
AcDbHatch
 10
0.0
 20
0.0
 30
0.0
210
0.0
220
0.0
230
1.0
  2
_USER
 70
     0
 71
     1
 91
        1
 92
        1
 93
        8
 72
     1
 10
-239.211920236879
 20
-279.6193276895116
 11
-239.211920236879
 21
-280.4045929956351
 72
     1
 10
-239.211920236879
 20
-280.4045929956351
 11
-238.4008211994044
 21
-280.4045929956351
 72
     1
 10
-238.4008211994044
 20
-280.4045929956351
 11
-238.4008211994044
 21
-282.6731372133227
 72
     1
 10
-238.4008211994044
 20
-282.6731372133227
 11
-237.2080284972379
 21
-282.6731372133227
 72
     1
 10
-237.2080284972379
 20
-282.6731372133227
 11
-237.2080284972379
 21
-280.4045929956351
 72
     1
 10
-237.2080284972379
 20
-280.4045929956351
 11
-236.3969294597654
 21
-280.4045929956351
 72
     1
 10
-236.3969294597654
 20
-280.4045929956351
 11
-236.3969294597654
 21
-279.6193276895116
 72
     1
 10
-236.3969294597654
 20
-279.6193276895116
 11
-239.211920236879
 21
-279.6193276895116
 97
        8
330
160
330
15F
330
15E
330
11F
330
120
330
162
330
121
330
161
 75
     1
 76
     0
 52
45.0
 41
0.1
 77
     0
 78
     1
 53
45.0
 43
0.0
 44
0.0
 45
-0.0707106781186548
 46
0.0707106781186548
 79
     0
 98
        1
 10
0.0
 20
0.0
  0
HATCH
  5
235
330
71
100
AcDbEntity
  8
1
  6
Continuous
 62
     2
100
AcDbHatch
 10
0.0
 20
0.0
 30
0.0
210
0.0
220
0.0
230
1.0
  2
_USER
 70
     0
 71
     1
 91
        1
 92
        1
 93
       10
 72
     1
 10
-236.5399136531399
 20
-276.2601372133372
 11
-237.7327063553064
 21
-276.2601372133372
 72
     1
 10
-237.7327063553064
 20
-276.2601372133372
 11
-237.7327063553064
 21
-279.3139467371483
 72
     1
 10
-237.7327063553064
 20
-279.3139467371483
 11
-236.5399136531399
 21
-279.3139467371483
 72
     1
 10
-236.5399136531399
 20
-279.3139467371483
 11
-236.5399136531399
 21
-278.0051712269436
 72
     1
 10
-236.5399136531399
 20
-278.0051712269436
 11
-235.2994092428859
 21
-279.3139467371483
 72
     1
 10
-235.2994092428859
 20
-279.3139467371483
 11
-234.1066165407193
 21
-279.3139467371483
 72
     1
 10
-234.1066165407193
 20
-279.3139467371483
 11
-234.1066165407193
 21
-276.2601372133372
 72
     1
 10
-234.1066165407193
 20
-276.2601372133372
 11
-235.2994092428859
 21
-276.2601372133372
 72
     1
 10
-235.2994092428859
 20
-276.2601372133372
 11
-235.2994092428859
 21
-277.5689127235423
 72
     1
 10
-235.2994092428859
 20
-277.5689127235423
 11
-236.5399136531399
 21
-276.2601372133372
 97
       10
330
15A
330
124
330
125
330
126
330
127
330
15D
330
122
330
15C
330
15B
330
123
 75
     1
 76
     0
 52
45.0
 41
0.1
 77
     0
 78
     1
 53
45.0
 43
0.0
 44
0.0
 45
-0.0707106781186548
 46
0.0707106781186548
 79
     0
 98
        1
 10
0.0
 20
0.0
  0
HATCH
  5
236
330
71
100
AcDbEntity
  8
1
  6
Continuous
 62
     2
100
AcDbHatch
 10
0.0
 20
0.0
 30
0.0
210
0.0
220
0.0
230
1.0
  2
_USER
 70
     0
 71
     1
 91
        1
 92
        1
 93
       10
 72
     1
 10
-236.5399136531399
 20
-276.2601372133372
 11
-237.7327063553064
 21
-276.2601372133372
 72
     1
 10
-237.7327063553064
 20
-276.2601372133372
 11
-237.7327063553064
 21
-279.3139467371483
 72
     1
 10
-237.7327063553064
 20
-279.3139467371483
 11
-236.5399136531399
 21
-279.3139467371483
 72
     1
 10
-236.5399136531399
 20
-279.3139467371483
 11
-236.5399136531399
 21
-278.0051712269436
 72
     1
 10
-236.5399136531399
 20
-278.0051712269436
 11
-235.2994092428859
 21
-279.3139467371483
 72
     1
 10
-235.2994092428859
 20
-279.3139467371483
 11
-234.1066165407193
 21
-279.3139467371483
 72
     1
 10
-234.1066165407193
 20
-279.3139467371483
 11
-234.1066165407193
 21
-276.2601372133372
 72
     1
 10
-234.1066165407193
 20
-276.2601372133372
 11
-235.2994092428859
 21
-276.2601372133372
 72
     1
 10
-235.2994092428859
 20
-276.2601372133372
 11
-235.2994092428859
 21
-277.5689127235423
 72
     1
 10
-235.2994092428859
 20
-277.5689127235423
 11
-236.5399136531399
 21
-276.2601372133372
 97
       10
330
15A
330
124
330
125
330
126
330
127
330
15D
330
122
330
15C
330
15B
330
123
 75
     1
 76
     0
 52
45.0
 41
0.1
 77
     0
 78
     1
 53
45.0
 43
0.0
 44
0.0
 45
-0.0707106781186548
 46
0.0707106781186548
 79
     0
 98
        1
 10
0.0
 20
0.0
  0
HATCH
  5
237
330
71
100
AcDbEntity
  8
1
  6
Continuous
 62
     2
100
AcDbHatch
 10
0.0
 20
0.0
 30
0.0
210
0.0
220
0.0
230
1.0
  2
_USER
 70
     0
 71
     1
 91
        1
 92
        1
 93
       10
 72
     1
 10
-241.7883524735585
 20
-279.6193276895116
 11
-242.9811451757261
 21
-279.6193276895116
 72
     1
 10
-242.9811451757261
 20
-279.6193276895116
 11
-242.9811451757261
 21
-282.6731372133227
 72
     1
 10
-242.9811451757261
 20
-282.6731372133227
 11
-241.7883524735585
 21
-282.6731372133227
 72
     1
 10
-241.7883524735585
 20
-282.6731372133227
 11
-241.7883524735585
 21
-281.3643617031181
 72
     1
 10
-241.7883524735585
 20
-281.3643617031181
 11
-240.5478480633056
 21
-282.6731372133227
 72
     1
 10
-240.5478480633056
 20
-282.6731372133227
 11
-239.3550553611392
 21
-282.6731372133227
 72
     1
 10
-239.3550553611392
 20
-282.6731372133227
 11
-239.3550553611392
 21
-279.6193276895116
 72
     1
 10
-239.3550553611392
 20
-279.6193276895116
 11
-240.5478480633056
 21
-279.6193276895116
 72
     1
 10
-240.5478480633056
 20
-279.6193276895116
 11
-240.5478480633056
 21
-280.9281031997167
 72
     1
 10
-240.5478480633056
 20
-280.9281031997167
 11
-241.7883524735585
 21
-279.6193276895116
 97
       10
330
129
330
12A
330
12B
330
157
330
12C
330
12D
330
156
330
159
330
158
330
128
 75
     1
 76
     0
 52
45.0
 41
0.1
 77
     0
 78
     1
 53
45.0
 43
0.0
 44
0.0
 45
-0.0707106781186548
 46
0.0707106781186548
 79
     0
 98
        1
 10
0.0
 20
0.0
  0
HATCH
  5
238
330
71
100
AcDbEntity
  8
1
  6
Continuous
 62
     2
100
AcDbHatch
 10
0.0
 20
0.0
 30
0.0
210
0.0
220
0.0
230
1.0
  2
_USER
 70
     0
 71
     1
 91
        1
 92
        1
 93
       10
 72
     1
 10
-241.7883524735585
 20
-279.6193276895116
 11
-242.9811451757261
 21
-279.6193276895116
 72
     1
 10
-242.9811451757261
 20
-279.6193276895116
 11
-242.9811451757261
 21
-282.6731372133227
 72
     1
 10
-242.9811451757261
 20
-282.6731372133227
 11
-241.7883524735585
 21
-282.6731372133227
 72
     1
 10
-241.7883524735585
 20
-282.6731372133227
 11
-241.7883524735585
 21
-281.3643617031181
 72
     1
 10
-241.7883524735585
 20
-281.3643617031181
 11
-240.5478480633056
 21
-282.6731372133227
 72
     1
 10
-240.5478480633056
 20
-282.6731372133227
 11
-239.3550553611392
 21
-282.6731372133227
 72
     1
 10
-239.3550553611392
 20
-282.6731372133227
 11
-239.3550553611392
 21
-279.6193276895116
 72
     1
 10
-239.3550553611392
 20
-279.6193276895116
 11
-240.5478480633056
 21
-279.6193276895116
 72
     1
 10
-240.5478480633056
 20
-279.6193276895116
 11
-240.5478480633056
 21
-280.9281031997167
 72
     1
 10
-240.5478480633056
 20
-280.9281031997167
 11
-241.7883524735585
 21
-279.6193276895116
 97
       10
330
129
330
12A
330
12B
330
157
330
12C
330
12D
330
156
330
159
330
158
330
128
 75
     1
 76
     0
 52
45.0
 41
0.1
 77
     0
 78
     1
 53
45.0
 43
0.0
 44
0.0
 45
-0.0707106781186548
 46
0.0707106781186548
 79
     0
 98
        1
 10
0.0
 20
0.0
  0
HATCH
  5
239
330
71
100
AcDbEntity
  8
1
  6
Continuous
 62
     2
100
AcDbHatch
 10
0.0
 20
0.0
 30
0.0
210
0.0
220
0.0
230
1.0
  2
_USER
 70
     0
 71
     1
 91
        1
 92
        1
 93
       12
 72
     1
 10
-242.7901474124939
 20
-276.2601372133372
 11
-242.7901474124939
 21
-279.3139467371483
 72
     1
 10
-242.7901474124939
 20
-279.3139467371483
 11
-243.9829401146603
 21
-279.3139467371483
 72
     1
 10
-243.9829401146603
 20
-279.3139467371483
 11
-243.9829401146603
 21
-278.1796746283045
 72
     1
 10
-243.9829401146603
 20
-278.1796746283045
 11
-245.0325976925678
 21
-278.1796746283045
 72
     1
 10
-245.0325976925678
 20
-278.1796746283045
 11
-245.0325976925678
 21
-279.3139467371483
 72
     1
 10
-245.0325976925678
 20
-279.3139467371483
 11
-246.2253903947344
 21
-279.3139467371483
 72
     1
 10
-246.2253903947344
 20
-279.3139467371483
 11
-246.2253903947344
 21
-276.2601372133372
 72
     1
 10
-246.2253903947344
 20
-276.2601372133372
 11
-245.0325976925678
 21
-276.2601372133372
 72
     1
 10
-245.0325976925678
 20
-276.2601372133372
 11
-245.0325976925678
 21
-277.3289705466717
 72
     1
 10
-245.0325976925678
 20
-277.3289705466717
 11
-243.9829401146603
 21
-277.3289705466717
 72
     1
 10
-243.9829401146603
 20
-277.3289705466717
 11
-243.9829401146603
 21
-276.2601372133372
 72
     1
 10
-243.9829401146603
 20
-276.2601372133372
 11
-242.7901474124939
 21
-276.2601372133372
 97
       12
330
151
330
150
330
14F
330
137
330
138
330
14E
330
139
330
14D
330
14C
330
14B
330
135
330
136
 75
     1
 76
     0
 52
45.0
 41
0.1
 77
     0
 78
     1
 53
45.0
 43
0.0
 44
0.0
 45
-0.0707106781186548
 46
0.0707106781186548
 79
     0
 98
        1
 10
0.0
 20
0.0
  0
HATCH
  5
23A
330
71
100
AcDbEntity
  8
1
  6
Continuous
 62
     2
100
AcDbHatch
 10
0.0
 20
0.0
 30
0.0
210
0.0
220
0.0
230
1.0
  2
_USER
 70
     0
 71
     1
 91
        1
 92
        1
 93
       12
 72
     1
 10
-242.7901474124939
 20
-276.2601372133372
 11
-242.7901474124939
 21
-279.3139467371483
 72
     1
 10
-242.7901474124939
 20
-279.3139467371483
 11
-243.9829401146603
 21
-279.3139467371483
 72
     1
 10
-243.9829401146603
 20
-279.3139467371483
 11
-243.9829401146603
 21
-278.1796746283045
 72
     1
 10
-243.9829401146603
 20
-278.1796746283045
 11
-245.0325976925678
 21
-278.1796746283045
 72
     1
 10
-245.0325976925678
 20
-278.1796746283045
 11
-245.0325976925678
 21
-279.3139467371483
 72
     1
 10
-245.0325976925678
 20
-279.3139467371483
 11
-246.2253903947344
 21
-279.3139467371483
 72
     1
 10
-246.2253903947344
 20
-279.3139467371483
 11
-246.2253903947344
 21
-276.2601372133372
 72
     1
 10
-246.2253903947344
 20
-276.2601372133372
 11
-245.0325976925678
 21
-276.2601372133372
 72
     1
 10
-245.0325976925678
 20
-276.2601372133372
 11
-245.0325976925678
 21
-277.3289705466717
 72
     1
 10
-245.0325976925678
 20
-277.3289705466717
 11
-243.9829401146603
 21
-277.3289705466717
 72
     1
 10
-243.9829401146603
 20
-277.3289705466717
 11
-243.9829401146603
 21
-276.2601372133372
 72
     1
 10
-243.9829401146603
 20
-276.2601372133372
 11
-242.7901474124939
 21
-276.2601372133372
 97
       12
330
151
330
150
330
14F
330
137
330
138
330
14E
330
139
330
14D
330
14C
330
14B
330
135
330
136
 75
     1
 76
     0
 52
45.0
 41
0.1
 77
     0
 78
     1
 53
45.0
 43
0.0
 44
0.0
 45
-0.0707106781186548
 46
0.0707106781186548
 79
     0
 98
        1
 10
0.0
 20
0.0
  0
ENDBLK
  5
73
330
71
100
AcDbEntity
  8
0
100
AcDbBlockEnd
  0
BLOCK
  5
75
330
74
100
AcDbEntity
  8
0
100
AcDbBlockBegin
  2
_punkt
 70
     0
 10
-130.912843598705
 20
-289.9666372133389
 30
0.0
  3
_punkt
  1

  0
LINE
  5
23B
330
74
100
AcDbEntity
  8
1
  6
Continuous
 62
     2
100
AcDbLine
 10
-130.912843598705
 20
-289.9666372133389
 30
0.0
 11
-130.912843598705
 21
-294.966637213339
 31
0.0
  0
LINE
  5
23C
330
74
100
AcDbEntity
  8
1
  6
Continuous
 62
     2
100
AcDbLine
 10
-130.912843598705
 20
-289.9666372133389
 30
0.0
 11
-125.912843598706
 21
-289.9666372133389
 31
0.0
  0
ENDBLK
  5
76
330
74
100
AcDbEntity
  8
0
100
AcDbBlockEnd
  0
BLOCK
  5
7A
330
77
100
AcDbEntity
  8
0
100
AcDbBlockBegin
  2
A4I_CS
 70
     0
 10
-130.912843598705
 20
-294.966637213339
 30
0.0
  3
A4I_CS
  1

  0
INSERT
  5
78
330
77
100
AcDbEntity
  8
1
100
AcDbBlockReference
  2
_rahmen
 10
-130.912843598705
 20
-294.966637213339
 30
0.0
  0
INSERT
  5
79
330
77
100
AcDbEntity
  8
1
100
AcDbBlockReference
  2
_punkt
 10
-130.912843598705
 20
-289.9666372133389
 30
0.0
  0
ENDBLK
  5
7B
330
77
100
AcDbEntity
  8
0
100
AcDbBlockEnd
  0
BLOCK
  5
84
330
7C
100
AcDbEntity
  8
0
100
AcDbBlockBegin
  2
1
 70
     0
 10
0.0
 20
0.0
 30
0.0
  3
1
  1

  0
INSERT
  5
7D
330
7C
100
AcDbEntity
  8
0
100
AcDbBlockReference
  2
Allg1
 10
-205.0
 20
-215.0
 30
0.0
 41
5.0
 42
5.0
 43
5.0
  0
INSERT
  5
7E
330
7C
100
AcDbEntity
  8
0
100
AcDbBlockReference
  2
Drfsicht1
 10
-313.0
 20
-205.9999999999998
 30
0.0
 41
5.0
 42
5.0
 43
5.0
  0
INSERT
  5
7F
330
7C
100
AcDbEntity
  8
0
100
AcDbBlockReference
  2
Vordans1
 10
-313.0000000000002
 20
-137.3545649999999
 30
0.0
 41
5.0
 42
5.0
 43
5.0
  0
INSERT
  5
80
330
7C
100
AcDbEntity
  8
0
100
AcDbBlockReference
  2
SA_Rechts1
 10
-377.266255
 20
-137.354565
 30
0.0
 41
5.0
 42
5.0
 43
5.0
  0
INSERT
  5
81
330
7C
100
AcDbEntity
  8
0
100
AcDbBlockReference
  2
Rckans1
 10
-184.49163
 20
-137.354565
 30
0.0
 41
5.0
 42
5.0
 43
5.0
  0
INSERT
  5
82
330
7C
100
AcDbEntity
  8
0
100
AcDbBlockReference
  2
SA_Links1
 10
-248.7458150000002
 20
-137.3545649999999
 30
0.0
 41
5.0
 42
5.0
 43
5.0
  0
INSERT
  5
83
330
7C
100
AcDbEntity
  8
0
100
AcDbBlockReference
  2
A4I_CS
 10
-130.912843598705
 20
-294.966637213339
 30
0.0
  0
ENDBLK
  5
85
330
7C
100
AcDbEntity
  8
0
100
AcDbBlockEnd
  0
BLOCK
  5
B2
330
AB
100
AcDbEntity
  8
0
100
AcDbBlockBegin
  2
*D17
 70
     1
 10
0.0
 20
0.0
 30
0.0
  3
*D17
  1

  0
LINE
  5
AC
330
AB
100
AcDbEntity
  8
1
  6
Continuous
 62
     2
100
AcDbLine
 10
-70.33140880371182
 20
-38.6250000476787
 30
0.0
 11
-70.33140880371182
 21
-43.77500004767869
 31
0.0
  0
LINE
  5
AD
330
AB
100
AcDbEntity
  8
1
  6
Continuous
 62
     2
100
AcDbLine
 10
-67.850000235431
 20
-38.6250000476787
 30
0.0
 11
-70.63140880371182
 21
-38.6250000476787
 31
0.0
  0
LINE
  5
AE
330
AB
100
AcDbEntity
  8
1
  6
Continuous
 62
     2
100
AcDbLine
 10
-67.85000023543098
 20
-43.77500004767869
 30
0.0
 11
-70.63140880371182
 21
-43.77500004767869
 31
0.0
  0
SOLID
  5
AF
330
AB
100
AcDbEntity
  8
1
 62
     2
100
AcDbTrace
 10
-70.23925205540064
 20
-39.3250000476787
 30
0.0
 11
-70.423565552023
 21
-39.3250000476787
 31
0.0
 12
-70.33140880371182
 22
-38.6250000476787
 32
0.0
 13
-70.33140880371182
 23
-38.6250000476787
 33
0.0
  0
SOLID
  5
B0
330
AB
100
AcDbEntity
  8
1
 62
     2
100
AcDbTrace
 10
-70.423565552023
 20
-43.07500004767869
 30
0.0
 11
-70.23925205540064
 21
-43.07500004767869
 31
0.0
 12
-70.33140880371182
 22
-43.77500004767869
 32
0.0
 13
-70.33140880371182
 23
-43.77500004767869
 33
0.0
  0
MTEXT
  5
B1
330
AB
100
AcDbEntity
  8
1
 62
     3
100
AcDbMText
 10
-70.70140880371183
 20
-42.13323712653242
 30
0.0
 40
0.7
 41
0.0
 71
     7
 72
     1
  1
5,15
  7
CONVERTER_11
 11
0.0
 21
1.0
 31
0.0
 73
     1
 44
0.60024009603842
  0
ENDBLK
  5
B3
330
AB
100
AcDbEntity
  8
0
100
AcDbBlockEnd
  0
BLOCK
  5
CE
330
C7
100
AcDbEntity
  8
0
100
AcDbBlockBegin
  2
*D18
 70
     1
 10
0.0
 20
0.0
 30
0.0
  3
*D18
  1

  0
LINE
  5
C8
330
C7
100
AcDbEntity
  8
1
  6
Continuous
 62
     2
100
AcDbLine
 10
-70.33140880371182
 20
-25.32091152697847
 30
0.0
 11
-70.33140880371182
 21
-29.62091152697845
 31
0.0
  0
LINE
  5
C9
330
C7
100
AcDbEntity
  8
1
  6
Continuous
 62
     2
100
AcDbLine
 10
-67.85000023543103
 20
-25.32091152697847
 30
0.0
 11
-70.63140880371182
 21
-25.32091152697847
 31
0.0
  0
LINE
  5
CA
330
C7
100
AcDbEntity
  8
1
  6
Continuous
 62
     2
100
AcDbLine
 10
-64.65000023543101
 20
-29.62091152697845
 30
0.0
 11
-70.63140880371182
 21
-29.62091152697845
 31
0.0
  0
SOLID
  5
CB
330
C7
100
AcDbEntity
  8
1
 62
     2
100
AcDbTrace
 10
-70.23925205540064
 20
-26.02091152697847
 30
0.0
 11
-70.423565552023
 21
-26.02091152697847
 31
0.0
 12
-70.33140880371182
 22
-25.32091152697847
 32
0.0
 13
-70.33140880371182
 23
-25.32091152697847
 33
0.0
  0
SOLID
  5
CC
330
C7
100
AcDbEntity
  8
1
 62
     2
100
AcDbTrace
 10
-70.423565552023
 20
-28.92091152697845
 30
0.0
 11
-70.23925205540064
 21
-28.92091152697845
 31
0.0
 12
-70.33140880371182
 22
-29.62091152697845
 32
0.0
 13
-70.33140880371182
 23
-29.62091152697845
 33
0.0
  0
MTEXT
  5
CD
330
C7
100
AcDbEntity
  8
1
 62
     3
100
AcDbMText
 10
-70.70140880371183
 20
-28.1279519306292
 30
0.0
 40
0.7
 41
0.0
 71
     7
 72
     1
  1
4,3
  7
CONVERTER_11
 11
0.0
 21
1.0
 31
0.0
 73
     1
 44
0.60024009603842
  0
ENDBLK
  5
CF
330
C7
100
AcDbEntity
  8
0
100
AcDbBlockEnd
  0
BLOCK
  5
D9
330
D2
100
AcDbEntity
  8
0
100
AcDbBlockBegin
  2
*D19
 70
     1
 10
0.0
 20
0.0
 30
0.0
  3
*D19
  1

  0
LINE
  5
D3
330
D2
100
AcDbEntity
  8
1
  6
Continuous
 62
     2
100
AcDbLine
 10
-57.35000023543101
 20
-32.05304646185561
 30
0.0
 11
-67.85000023543103
 21
-32.05304646185561
 31
0.0
  0
LINE
  5
D4
330
D2
100
AcDbEntity
  8
1
  6
Continuous
 62
     2
100
AcDbLine
 10
-57.35000023543101
 20
-26.32091152697845
 30
0.0
 11
-57.35000023543101
 21
-32.35304646185561
 31
0.0
  0
LINE
  5
D5
330
D2
100
AcDbEntity
  8
1
  6
Continuous
 62
     2
100
AcDbLine
 10
-67.85000023543103
 20
-26.32091152697845
 30
0.0
 11
-67.85000023543103
 21
-32.35304646185561
 31
0.0
  0
SOLID
  5
D6
330
D2
100
AcDbEntity
  8
1
 62
     2
100
AcDbTrace
 10
-58.05000023543101
 20
-32.14520321016678
 30
0.0
 11
-58.05000023543101
 21
-31.96088971354443
 31
0.0
 12
-57.35000023543101
 22
-32.05304646185561
 32
0.0
 13
-57.35000023543101
 23
-32.05304646185561
 33
0.0
  0
SOLID
  5
D7
330
D2
100
AcDbEntity
  8
1
 62
     2
100
AcDbTrace
 10
-67.15000023543102
 20
-31.96088971354443
 30
0.0
 11
-67.15000023543102
 21
-32.14520321016678
 31
0.0
 12
-67.85000023543103
 22
-32.05304646185561
 32
0.0
 13
-67.85000023543103
 23
-32.05304646185561
 33
0.0
  0
MTEXT
  5
D8
330
D2
100
AcDbEntity
  8
1
 62
     3
100
AcDbMText
 10
-63.8262565924152
 20
-31.68304646185561
 30
0.0
 40
0.7
 41
0.0
 71
     7
 72
     1
  1
10,5
  7
CONVERTER_11
 11
0.9999999999970619
 21
2.424068405545306E-6
 31
0.0
 73
     1
 44
0.60024009603842
  0
ENDBLK
  5
DA
330
D2
100
AcDbEntity
  8
0
100
AcDbBlockEnd
  0
ENDSEC
  0
SECTION
  2
ENTITIES
  0
INSERT
  5
86
330
1F
100
AcDbEntity
  8
1
100
AcDbBlockReference
  2
1
 10
0.0
 20
0.0
 30
0.0
  0
ENDSEC
  0
SECTION
  2
OBJECTS
  0
DICTIONARY
  5
C
330
0
100
AcDbDictionary
281
     1
  3
ACAD_GROUP
350
D
  3
ACAD_LAYOUT
350
1A
  3
ACAD_MATERIAL
350
3B
  3
ACAD_MLEADERSTYLE
350
264
  3
ACAD_MLINESTYLE
350
17
  3
ACAD_PLOTSETTINGS
350
19
  3
ACAD_PLOTSTYLENAME
350
E
  3
ACAD_TABLESTYLE
350
263
  3
ACAD_VISUALSTYLE
350
2A
  0
DICTIONARY
  5
D
102
{ACAD_REACTORS
330
C
102
}
330
C
100
AcDbDictionary
281
     1
  0
DICTIONARY
  5
1A
102
{ACAD_REACTORS
330
C
102
}
330
C
100
AcDbDictionary
281
     1
  3
Layout1
350
1E
  3
Layout2
350
26
  3
Model
350
22
  0
DICTIONARY
  5
3B
102
{ACAD_REACTORS
330
C
102
}
330
C
100
AcDbDictionary
281
     1
  3
ByBlock
350
3D
  3
ByLayer
350
3C
  3
Global
350
3E
  0
DICTIONARY
  5
264
102
{ACAD_REACTORS
330
C
102
}
330
C
100
AcDbDictionary
281
     1
  0
DICTIONARY
  5
17
102
{ACAD_REACTORS
330
C
102
}
330
C
100
AcDbDictionary
281
     1
  3
Standard
350
18
  0
DICTIONARY
  5
19
102
{ACAD_REACTORS
330
C
102
}
330
C
100
AcDbDictionary
281
     1
  0
ACDBDICTIONARYWDFLT
  5
E
102
{ACAD_REACTORS
330
C
102
}
330
C
100
AcDbDictionary
281
     1
  3
Normal
350
F
100
AcDbDictionaryWithDefault
340
F
  0
DICTIONARY
  5
263
102
{ACAD_REACTORS
330
C
102
}
330
C
100
AcDbDictionary
281
     1
  0
DICTIONARY
  5
2A
102
{ACAD_REACTORS
330
C
102
}
330
C
100
AcDbDictionary
281
     1
  3
2dWireframe
350
2F
  3
3D Hidden
350
31
  3
3dWireframe
350
30
  3
Basic
350
32
  3
Brighten
350
36
  3
ColorChange
350
3A
  3
Conceptual
350
34
  3
Dim
350
35
  3
Facepattern
350
39
  3
Flat
350
2B
  3
FlatWithEdges
350
2C
  3
Gouraud
350
2D
  3
GouraudWithEdges
350
2E
  3
Linepattern
350
38
  3
Realistic
350
33
  3
Thicken
350
37
  0
LAYOUT
  5
1E
102
{ACAD_REACTORS
330
1A
102
}
330
1A
100
AcDbPlotSettings
  1

  2
none_device
  4

  6

 40
0.0
 41
0.0
 42
0.0
 43
0.0
 44
0.0
 45
0.0
 46
0.0
 47
0.0
 48
0.0
 49
0.0
140
0.0
141
0.0
142
1.0
143
1.0
 70
   688
 72
     0
 73
     0
 74
     5
  7

 75
    16
 76
     0
 77
     2
 78
   300
147
1.0
148
0.0
149
0.0
100
AcDbLayout
  1
Layout1
 70
     1
 71
     1
 10
0.0
 20
0.0
 11
12.0
 21
9.0
 12
0.0
 22
0.0
 32
0.0
 14
1.00000000000000E+20
 24
1.00000000000000E+20
 34
1.00000000000000E+20
 15
-1.00000000000000E+20
 25
-1.00000000000000E+20
 35
-1.00000000000000E+20
146
0.0
 13
0.0
 23
0.0
 33
0.0
 16
1.0
 26
0.0
 36
0.0
 17
0.0
 27
1.0
 37
0.0
 76
     0
330
1B
  0
LAYOUT
  5
26
102
{ACAD_REACTORS
330
1A
102
}
330
1A
100
AcDbPlotSettings
  1

  2
none_device
  4

  6

 40
0.0
 41
0.0
 42
0.0
 43
0.0
 44
0.0
 45
0.0
 46
0.0
 47
0.0
 48
0.0
 49
0.0
140
0.0
141
0.0
142
1.0
143
1.0
 70
   688
 72
     0
 73
     0
 74
     5
  7

 75
    16
 76
     0
 77
     2
 78
   300
147
1.0
148
0.0
149
0.0
100
AcDbLayout
  1
Layout2
 70
     1
 71
     2
 10
0.0
 20
0.0
 11
0.0
 21
0.0
 12
0.0
 22
0.0
 32
0.0
 14
0.0
 24
0.0
 34
0.0
 15
0.0
 25
0.0
 35
0.0
146
0.0
 13
0.0
 23
0.0
 33
0.0
 16
1.0
 26
0.0
 36
0.0
 17
0.0
 27
1.0
 37
0.0
 76
     0
330
23
  0
LAYOUT
  5
22
102
{ACAD_REACTORS
330
1A
102
}
330
1A
100
AcDbPlotSettings
  1

  2
none_device
  4

  6

 40
0.0
 41
0.0
 42
0.0
 43
0.0
 44
0.0
 45
0.0
 46
0.0
 47
0.0
 48
0.0
 49
0.0
140
0.0
141
0.0
142
1.0
143
1.0
 70
  1712
 72
     0
 73
     0
 74
     0
  7

 75
     0
 76
     0
 77
     2
 78
   300
147
1.0
148
0.0
149
0.0
100
AcDbLayout
  1
Model
 70
     1
 71
     0
 10
0.0
 20
0.0
 11
12.0
 21
9.0
 12
0.0
 22
0.0
 32
0.0
 14
-422.9128435987041
 24
-294.966637213339
 34
0.0
 15
-125.912843598706
 25
-84.96663721333894
 35
0.0
146
0.0
 13
0.0
 23
0.0
 33
0.0
 16
1.0
 26
0.0
 36
0.0
 17
0.0
 27
1.0
 37
0.0
 76
     0
330
1F
331
29
  0
MATERIAL
  5
3D
102
{ACAD_REACTORS
330
3B
102
}
102
{ACAD_XDICTIONARY
360
25F
102
}
330
3B
100
AcDbMaterial
  1
ByBlock
  0
MATERIAL
  5
3C
102
{ACAD_REACTORS
330
3B
102
}
102
{ACAD_XDICTIONARY
360
25D
102
}
330
3B
100
AcDbMaterial
  1
ByLayer
  0
MATERIAL
  5
3E
102
{ACAD_REACTORS
330
3B
102
}
102
{ACAD_XDICTIONARY
360
261
102
}
330
3B
100
AcDbMaterial
  1
Global
  0
MLINESTYLE
  5
18
102
{ACAD_REACTORS
330
17
102
}
330
17
100
AcDbMlineStyle
  2
Standard
 70
     0
  3

 62
   256
 51
90.0
 52
90.0
 71
     2
 49
0.5
 62
   256
  6
BYLAYER
 49
-0.5
 62
   256
  6
BYLAYER
  0
ACDBPLACEHOLDER
  5
F
102
{ACAD_REACTORS
330
E
102
}
330
E
  0
VISUALSTYLE
  5
2F
102
{ACAD_REACTORS
330
2A
102
}
102
{ACAD_XDICTIONARY
360
245
102
}
330
2A
100
AcDbVisualStyle
  2
2dWireframe
 70
     4
 71
     0
 72
     2
 73
     0
 90
        0
 40
-0.6
 41
-30.0
 62
     5
 63
     7
421
 16777215
 74
     1
 91
        4
 64
     7
 65
   257
 75
     1
175
     1
 42
1.0
 92
        0
 66
   257
 43
1.0
 76
     1
 77
     6
 78
     2
 67
     7
 79
     5
170
     0
171
     0
290
     0
174
     0
 93
        1
 44
0.0
173
     0
291
     0
 45
0.0
1001
ACAD
1000
AcDbSavedByObjectVersion
1070
     0
  0
VISUALSTYLE
  5
31
102
{ACAD_REACTORS
330
2A
102
}
102
{ACAD_XDICTIONARY
360
249
102
}
330
2A
100
AcDbVisualStyle
  2
3D Hidden
 70
     6
 71
     1
 72
     2
 73
     2
 90
        0
 40
-0.6
 41
-30.0
 62
     5
 63
     7
421
 16777215
 74
     2
 91
        2
 64
     7
 65
   257
 75
     2
175
     1
 42
40.0
 92
        0
 66
   257
 43
1.0
 76
     1
 77
     6
 78
     2
 67
     7
 79
     3
170
     0
171
     0
290
     0
174
     0
 93
        1
 44
0.0
173
     0
291
     0
 45
0.0
1001
ACAD
1000
AcDbSavedByObjectVersion
1070
     0
  0
VISUALSTYLE
  5
30
102
{ACAD_REACTORS
330
2A
102
}
102
{ACAD_XDICTIONARY
360
247
102
}
330
2A
100
AcDbVisualStyle
  2
3dWireframe
 70
     5
 71
     0
 72
     2
 73
     0
 90
        0
 40
-0.6
 41
-30.0
 62
     5
 63
     7
421
 16777215
 74
     1
 91
        4
 64
     7
 65
   257
 75
     1
175
     1
 42
1.0
 92
        0
 66
   257
 43
1.0
 76
     1
 77
     6
 78
     2
 67
     7
 79
     5
170
     0
171
     0
290
     0
174
     0
 93
        1
 44
0.0
173
     0
291
     0
 45
0.0
1001
ACAD
1000
AcDbSavedByObjectVersion
1070
     0
  0
VISUALSTYLE
  5
32
102
{ACAD_REACTORS
330
2A
102
}
102
{ACAD_XDICTIONARY
360
24B
102
}
330
2A
100
AcDbVisualStyle
  2
Basic
 70
     7
 71
     1
 72
     0
 73
     1
 90
        0
 40
-0.6
 41
-30.0
 62
     5
 63
     7
421
 16777215
 74
     0
 91
        4
 64
     7
 65
   257
 75
     1
175
     1
 42
1.0
 92
        8
 66
     7
 43
1.0
 76
     1
 77
     6
 78
     2
 67
     7
 79
     5
170
     0
171
     0
290
     0
174
     0
 93
        1
 44
0.0
173
     0
291
     1
 45
0.0
1001
ACAD
1000
AcDbSavedByObjectVersion
1070
     0
  0
VISUALSTYLE
  5
36
102
{ACAD_REACTORS
330
2A
102
}
102
{ACAD_XDICTIONARY
360
253
102
}
330
2A
100
AcDbVisualStyle
  2
Brighten
 70
    12
 71
     2
 72
     2
 73
     0
 90
        0
 40
-0.6
 41
-30.0
 62
     5
 63
     7
421
 16777215
 74
     1
 91
        4
 64
     7
 65
   257
 75
     1
175
     1
 42
1.0
 92
        8
 66
     7
 43
1.0
 76
     1
 77
     6
 78
     2
 67
     7
 79
     5
170
     0
171
     0
290
     0
174
     0
 93
        1
 44
50.0
173
     0
291
     1
 45
0.0
1001
ACAD
1000
AcDbSavedByObjectVersion
1070
     0
  0
VISUALSTYLE
  5
3A
102
{ACAD_REACTORS
330
2A
102
}
102
{ACAD_XDICTIONARY
360
25B
102
}
330
2A
100
AcDbVisualStyle
  2
ColorChange
 70
    16
 71
     2
 72
     2
 73
     3
 90
        0
 40
-0.6
 41
-30.0
 62
     5
 63
     8
421
  8421504
 74
     1
 91
        4
 64
     7
 65
   257
 75
     1
175
     1
 42
1.0
 92
        8
 66
     8
424
  8421504
 43
1.0
 76
     1
 77
     6
 78
     2
 67
     7
 79
     5
170
     0
171
     0
290
     0
174
     0
 93
        1
 44
0.0
173
     0
291
     1
 45
0.0
1001
ACAD
1000
AcDbSavedByObjectVersion
1070
     0
  0
VISUALSTYLE
  5
34
102
{ACAD_REACTORS
330
2A
102
}
102
{ACAD_XDICTIONARY
360
24F
102
}
330
2A
100
AcDbVisualStyle
  2
Conceptual
 70
     9
 71
     3
 72
     2
 73
     0
 90
        0
 40
-0.6
 41
-30.0
 62
     5
 63
     7
421
 16777215
 74
     2
 91
        2
 64
     7
 65
   257
 75
     1
175
     1
 42
40.0
 92
        8
 66
     7
 43
1.0
 76
     1
 77
     6
 78
     2
 67
     7
 79
     3
170
     0
171
     0
290
     0
174
     0
 93
        1
 44
0.0
173
     0
291
     0
 45
0.0
1001
ACAD
1000
AcDbSavedByObjectVersion
1070
     0
  0
VISUALSTYLE
  5
35
102
{ACAD_REACTORS
330
2A
102
}
102
{ACAD_XDICTIONARY
360
251
102
}
330
2A
100
AcDbVisualStyle
  2
Dim
 70
    11
 71
     2
 72
     2
 73
     0
 90
        0
 40
-0.6
 41
-30.0
 62
     5
 63
     7
421
 16777215
 74
     1
 91
        4
 64
     7
 65
   257
 75
     1
175
     1
 42
1.0
 92
        8
 66
     7
 43
1.0
 76
     1
 77
     6
 78
     2
 67
     7
 79
     5
170
     0
171
     0
290
     0
174
     0
 93
        1
 44
-50.0
173
     0
291
     1
 45
0.0
1001
ACAD
1000
AcDbSavedByObjectVersion
1070
     0
  0
VISUALSTYLE
  5
39
102
{ACAD_REACTORS
330
2A
102
}
102
{ACAD_XDICTIONARY
360
259
102
}
330
2A
100
AcDbVisualStyle
  2
Facepattern
 70
    15
 71
     2
 72
     2
 73
     0
 90
        0
 40
-0.6
 41
-30.0
 62
     5
 63
     7
421
 16777215
 74
     1
 91
        4
 64
     7
 65
   257
 75
     1
175
     1
 42
1.0
 92
        8
 66
     7
 43
1.0
 76
     1
 77
     6
 78
     2
 67
     7
 79
     5
170
     0
171
     0
290
     0
174
     0
 93
        1
 44
0.0
173
     0
291
     1
 45
0.0
1001
ACAD
1000
AcDbSavedByObjectVersion
1070
     0
  0
VISUALSTYLE
  5
2B
102
{ACAD_REACTORS
330
2A
102
}
102
{ACAD_XDICTIONARY
360
23D
102
}
330
2A
100
AcDbVisualStyle
  2
Flat
 70
     0
 71
     2
 72
     1
 73
     1
 90
        2
 40
-0.6
 41
30.0
 62
     5
 63
     7
421
 16777215
 74
     0
 91
        4
 64
     7
 65
   257
 75
     1
175
     1
 42
1.0
 92
        8
 66
     7
 43
1.0
 76
     1
 77
     6
 78
     2
 67
     7
 79
     5
170
     0
171
     0
290
     0
174
     0
 93
       13
 44
0.0
173
     0
291
     1
 45
0.0
1001
ACAD
1000
AcDbSavedByObjectVersion
1070
     0
  0
VISUALSTYLE
  5
2C
102
{ACAD_REACTORS
330
2A
102
}
102
{ACAD_XDICTIONARY
360
23F
102
}
330
2A
100
AcDbVisualStyle
  2
FlatWithEdges
 70
     1
 71
     2
 72
     1
 73
     1
 90
        2
 40
-0.6
 41
30.0
 62
     5
 63
     7
421
 16777215
 74
     1
 91
        4
 64
     7
 65
   257
 75
     1
175
     1
 42
1.0
 92
        0
 66
   257
 43
1.0
 76
     1
 77
     6
 78
     2
 67
     7
 79
     5
170
     0
171
     0
290
     0
174
     0
 93
       13
 44
0.0
173
     0
291
     1
 45
0.0
1001
ACAD
1000
AcDbSavedByObjectVersion
1070
     0
  0
VISUALSTYLE
  5
2D
102
{ACAD_REACTORS
330
2A
102
}
102
{ACAD_XDICTIONARY
360
241
102
}
330
2A
100
AcDbVisualStyle
  2
Gouraud
 70
     2
 71
     2
 72
     2
 73
     1
 90
        2
 40
-0.6
 41
30.0
 62
     5
 63
     7
421
 16777215
 74
     0
 91
        4
 64
     7
 65
   257
 75
     1
175
     1
 42
1.0
 92
        0
 66
     7
 43
1.0
 76
     1
 77
     6
 78
     2
 67
     7
 79
     5
170
     0
171
     0
290
     0
174
     0
 93
       13
 44
0.0
173
     0
291
     1
 45
0.0
1001
ACAD
1000
AcDbSavedByObjectVersion
1070
     0
  0
VISUALSTYLE
  5
2E
102
{ACAD_REACTORS
330
2A
102
}
102
{ACAD_XDICTIONARY
360
243
102
}
330
2A
100
AcDbVisualStyle
  2
GouraudWithEdges
 70
     3
 71
     2
 72
     2
 73
     1
 90
        2
 40
-0.6
 41
30.0
 62
     5
 63
     7
421
 16777215
 74
     1
 91
        4
 64
     7
 65
   257
 75
     1
175
     1
 42
1.0
 92
        0
 66
   257
 43
1.0
 76
     1
 77
     6
 78
     2
 67
     7
 79
     5
170
     0
171
     0
290
     0
174
     0
 93
       13
 44
0.0
173
     0
291
     1
 45
0.0
1001
ACAD
1000
AcDbSavedByObjectVersion
1070
     0
  0
VISUALSTYLE
  5
38
102
{ACAD_REACTORS
330
2A
102
}
102
{ACAD_XDICTIONARY
360
257
102
}
330
2A
100
AcDbVisualStyle
  2
Linepattern
 70
    14
 71
     2
 72
     2
 73
     0
 90
        0
 40
-0.6
 41
-30.0
 62
     5
 63
     7
421
 16777215
 74
     1
 91
        4
 64
     7
 65
   257
 75
     7
175
     7
 42
1.0
 92
        8
 66
     7
 43
1.0
 76
     1
 77
     6
 78
     2
 67
     7
 79
     5
170
     0
171
     0
290
     0
174
     0
 93
        1
 44
0.0
173
     0
291
     1
 45
0.0
1001
ACAD
1000
AcDbSavedByObjectVersion
1070
     0
  0
VISUALSTYLE
  5
33
102
{ACAD_REACTORS
330
2A
102
}
102
{ACAD_XDICTIONARY
360
24D
102
}
330
2A
100
AcDbVisualStyle
  2
Realistic
 70
     8
 71
     2
 72
     2
 73
     0
 90
        0
 40
-0.6
 41
-30.0
 62
     5
 63
     7
421
 16777215
 74
     1
 91
        0
 64
     7
 65
   257
 75
     1
175
     1
 42
1.0
 92
        8
 66
     8
424
  7895160
 43
1.0
 76
     1
 77
     6
 78
     2
 67
     7
 79
     5
170
     0
171
     0
290
     0
174
     0
 93
       13
 44
0.0
173
     0
291
     0
 45
0.0
1001
ACAD
1000
AcDbSavedByObjectVersion
1070
     0
  0
VISUALSTYLE
  5
37
102
{ACAD_REACTORS
330
2A
102
}
102
{ACAD_XDICTIONARY
360
255
102
}
330
2A
100
AcDbVisualStyle
  2
Thicken
 70
    13
 71
     2
 72
     2
 73
     0
 90
        0
 40
-0.6
 41
-30.0
 62
     5
 63
     7
421
 16777215
 74
     1
 91
        4
 64
     7
 65
   257
 75
     1
175
     1
 42
1.0
 92
       12
 66
     7
 43
1.0
 76
     1
 77
     6
 78
     2
 67
     7
 79
     5
170
     0
171
     0
290
     0
174
     0
 93
        1
 44
0.0
173
     0
291
     1
 45
0.0
1001
ACAD
1000
AcDbSavedByObjectVersion
1070
     0
  0
DICTIONARY
  5
25F
330
3D
100
AcDbDictionary
280
     1
281
     1
  3
ACAD_XREC_ROUNDTRIP
360
260
  0
DICTIONARY
  5
25D
330
3C
100
AcDbDictionary
280
     1
281
     1
  3
ACAD_XREC_ROUNDTRIP
360
25E
  0
DICTIONARY
  5
261
330
3E
100
AcDbDictionary
280
     1
281
     1
  3
ACAD_XREC_ROUNDTRIP
360
262
  0
DICTIONARY
  5
245
330
2F
100
AcDbDictionary
280
     1
281
     1
  3
ACAD_XREC_ROUNDTRIP
360
246
  0
DICTIONARY
  5
249
330
31
100
AcDbDictionary
280
     1
281
     1
  3
ACAD_XREC_ROUNDTRIP
360
24A
  0
DICTIONARY
  5
247
330
30
100
AcDbDictionary
280
     1
281
     1
  3
ACAD_XREC_ROUNDTRIP
360
248
  0
DICTIONARY
  5
24B
330
32
100
AcDbDictionary
280
     1
281
     1
  3
ACAD_XREC_ROUNDTRIP
360
24C
  0
DICTIONARY
  5
253
330
36
100
AcDbDictionary
280
     1
281
     1
  3
ACAD_XREC_ROUNDTRIP
360
254
  0
DICTIONARY
  5
25B
330
3A
100
AcDbDictionary
280
     1
281
     1
  3
ACAD_XREC_ROUNDTRIP
360
25C
  0
DICTIONARY
  5
24F
330
34
100
AcDbDictionary
280
     1
281
     1
  3
ACAD_XREC_ROUNDTRIP
360
250
  0
DICTIONARY
  5
251
330
35
100
AcDbDictionary
280
     1
281
     1
  3
ACAD_XREC_ROUNDTRIP
360
252
  0
DICTIONARY
  5
259
330
39
100
AcDbDictionary
280
     1
281
     1
  3
ACAD_XREC_ROUNDTRIP
360
25A
  0
DICTIONARY
  5
23D
330
2B
100
AcDbDictionary
280
     1
281
     1
  3
ACAD_XREC_ROUNDTRIP
360
23E
  0
DICTIONARY
  5
23F
330
2C
100
AcDbDictionary
280
     1
281
     1
  3
ACAD_XREC_ROUNDTRIP
360
240
  0
DICTIONARY
  5
241
330
2D
100
AcDbDictionary
280
     1
281
     1
  3
ACAD_XREC_ROUNDTRIP
360
242
  0
DICTIONARY
  5
243
330
2E
100
AcDbDictionary
280
     1
281
     1
  3
ACAD_XREC_ROUNDTRIP
360
244
  0
DICTIONARY
  5
257
330
38
100
AcDbDictionary
280
     1
281
     1
  3
ACAD_XREC_ROUNDTRIP
360
258
  0
DICTIONARY
  5
24D
330
33
100
AcDbDictionary
280
     1
281
     1
  3
ACAD_XREC_ROUNDTRIP
360
24E
  0
DICTIONARY
  5
255
330
37
100
AcDbDictionary
280
     1
281
     1
  3
ACAD_XREC_ROUNDTRIP
360
256
  0
XRECORD
  5
260
102
{ACAD_REACTORS
330
25F
102
}
330
25F
100
AcDbXrecord
280
     1
102
MATERIAL
148
0.0
149
0.0
149
0.0
 93
        0
 94
      127
282
     0
 72
     1
 77
     1
171
     1
175
     1
179
     1
273
     0
  0
XRECORD
  5
25E
102
{ACAD_REACTORS
330
25D
102
}
330
25D
100
AcDbXrecord
280
     1
102
MATERIAL
148
0.0
149
0.0
149
0.0
 93
        0
 94
      127
282
     0
 72
     1
 77
     1
171
     1
175
     1
179
     1
273
     0
  0
XRECORD
  5
262
102
{ACAD_REACTORS
330
261
102
}
330
261
100
AcDbXrecord
280
     1
102
MATERIAL
148
0.0
149
0.0
149
0.0
 93
        0
 94
      127
282
     0
 72
     1
 77
     1
171
     1
175
     1
179
     1
273
     0
  0
XRECORD
  5
246
102
{ACAD_REACTORS
330
245
102
}
330
245
100
AcDbXrecord
280
     1
102
RTVSPropertyOp0
 70
     1
102
RTVSPropertyOp1
 70
     1
102
RTVSPropertyOp2
 70
     1
102
RTVSPropertyOp3
 70
     1
102
RTVSPropertyOp4
 70
     1
102
RTVSPropertyOp5
 70
     1
102
RTVSPropertyOp6
 70
     1
102
RTVSPropertyOp7
 70
     1
102
RTVSPropertyOp8
 70
     1
102
RTVSPropertyOp9
 70
     1
102
RTVSPropertyOp10
 70
     1
102
RTVSPropertyOp11
 70
     1
102
RTVSPropertyOp12
 70
     1
102
RTVSPropertyOp13
 70
     1
102
RTVSPropertyOp14
 70
     1
102
RTVSPropertyOp15
 70
     1
102
RTVSPropertyOp16
 70
     1
102
RTVSPropertyOp17
 70
     1
102
RTVSPropertyOp18
 70
     1
102
RTVSPropertyOp19
 70
     1
102
RTVSPropertyOp20
 70
     1
102
RTVSPropertyOp21
 70
     1
102
RTVSPropertyOp22
 70
     1
102
RTVSPropertyOp23
 70
     1
102
RTVSPropertyOp24
 70
     1
102
RTVSPropertyOp25
 70
     1
102
RTVSPropertyOp26
 70
     1
102
RTVSPropertyOp27
 70
     1
102
RTVSPropertyOp28
 70
     1
102
RTVSPropertyOp29
 70
     1
102
RTVSPropertyOp30
 70
     1
102
RTVSPropertyOp31
 70
     1
102
RTVSPropertyOp32
 70
     1
  0
XRECORD
  5
24A
102
{ACAD_REACTORS
330
249
102
}
330
249
100
AcDbXrecord
280
     1
102
RTVSPropertyOp0
 70
     1
102
RTVSPropertyOp1
 70
     1
102
RTVSPropertyOp2
 70
     1
102
RTVSPropertyOp3
 70
     1
102
RTVSPropertyOp4
 70
     1
102
RTVSPropertyOp5
 70
     1
102
RTVSPropertyOp6
 70
     1
102
RTVSPropertyOp7
 70
     1
102
RTVSPropertyOp8
 70
     1
102
RTVSPropertyOp9
 70
     1
102
RTVSPropertyOp10
 70
     1
102
RTVSPropertyOp11
 70
     1
102
RTVSPropertyOp12
 70
     1
102
RTVSPropertyOp13
 70
     1
102
RTVSPropertyOp14
 70
     1
102
RTVSPropertyOp15
 70
     1
102
RTVSPropertyOp16
 70
     1
102
RTVSPropertyOp17
 70
     1
102
RTVSPropertyOp18
 70
     1
102
RTVSPropertyOp19
 70
     1
102
RTVSPropertyOp20
 70
     1
102
RTVSPropertyOp21
 70
     1
102
RTVSPropertyOp22
 70
     1
102
RTVSPropertyOp23
 70
     1
102
RTVSPropertyOp24
 70
     1
102
RTVSPropertyOp25
 70
     1
102
RTVSPropertyOp26
 70
     1
102
RTVSPropertyOp27
 70
     1
102
RTVSPropertyOp28
 70
     1
102
RTVSPropertyOp29
 70
     1
102
RTVSPropertyOp30
 70
     1
102
RTVSPropertyOp31
 70
     1
102
RTVSPropertyOp32
 70
     1
  0
XRECORD
  5
248
102
{ACAD_REACTORS
330
247
102
}
330
247
100
AcDbXrecord
280
     1
102
RTVSPropertyOp0
 70
     1
102
RTVSPropertyOp1
 70
     1
102
RTVSPropertyOp2
 70
     1
102
RTVSPropertyOp3
 70
     1
102
RTVSPropertyOp4
 70
     1
102
RTVSPropertyOp5
 70
     1
102
RTVSPropertyOp6
 70
     1
102
RTVSPropertyOp7
 70
     1
102
RTVSPropertyOp8
 70
     1
102
RTVSPropertyOp9
 70
     1
102
RTVSPropertyOp10
 70
     1
102
RTVSPropertyOp11
 70
     1
102
RTVSPropertyOp12
 70
     1
102
RTVSPropertyOp13
 70
     1
102
RTVSPropertyOp14
 70
     1
102
RTVSPropertyOp15
 70
     1
102
RTVSPropertyOp16
 70
     1
102
RTVSPropertyOp17
 70
     1
102
RTVSPropertyOp18
 70
     1
102
RTVSPropertyOp19
 70
     1
102
RTVSPropertyOp20
 70
     1
102
RTVSPropertyOp21
 70
     1
102
RTVSPropertyOp22
 70
     1
102
RTVSPropertyOp23
 70
     1
102
RTVSPropertyOp24
 70
     1
102
RTVSPropertyOp25
 70
     1
102
RTVSPropertyOp26
 70
     1
102
RTVSPropertyOp27
 70
     1
102
RTVSPropertyOp28
 70
     1
102
RTVSPropertyOp29
 70
     1
102
RTVSPropertyOp30
 70
     1
102
RTVSPropertyOp31
 70
     1
102
RTVSPropertyOp32
 70
     1
  0
XRECORD
  5
24C
102
{ACAD_REACTORS
330
24B
102
}
330
24B
100
AcDbXrecord
280
     1
102
RTVSPropertyOp0
 70
     1
102
RTVSPropertyOp1
 70
     1
102
RTVSPropertyOp2
 70
     1
102
RTVSPropertyOp3
 70
     1
102
RTVSPropertyOp4
 70
     1
102
RTVSPropertyOp5
 70
     1
102
RTVSPropertyOp6
 70
     1
102
RTVSPropertyOp7
 70
     1
102
RTVSPropertyOp8
 70
     1
102
RTVSPropertyOp9
 70
     1
102
RTVSPropertyOp10
 70
     1
102
RTVSPropertyOp11
 70
     1
102
RTVSPropertyOp12
 70
     1
102
RTVSPropertyOp13
 70
     1
102
RTVSPropertyOp14
 70
     1
102
RTVSPropertyOp15
 70
     1
102
RTVSPropertyOp16
 70
     1
102
RTVSPropertyOp17
 70
     1
102
RTVSPropertyOp18
 70
     1
102
RTVSPropertyOp19
 70
     1
102
RTVSPropertyOp20
 70
     1
102
RTVSPropertyOp21
 70
     1
102
RTVSPropertyOp22
 70
     1
102
RTVSPropertyOp23
 70
     1
102
RTVSPropertyOp24
 70
     1
102
RTVSPropertyOp25
 70
     1
102
RTVSPropertyOp26
 70
     1
102
RTVSPropertyOp27
 70
     1
102
RTVSPropertyOp28
 70
     1
102
RTVSPropertyOp29
 70
     1
102
RTVSPropertyOp30
 70
     1
102
RTVSPropertyOp31
 70
     1
102
RTVSPropertyOp32
 70
     1
  0
XRECORD
  5
254
102
{ACAD_REACTORS
330
253
102
}
330
253
100
AcDbXrecord
280
     1
102
RTVSPropertyOp0
 70
     1
102
RTVSPropertyOp1
 70
     1
102
RTVSPropertyOp2
 70
     1
102
RTVSPropertyOp3
 70
     1
102
RTVSPropertyOp4
 70
     1
102
RTVSPropertyOp5
 70
     1
102
RTVSPropertyOp6
 70
     1
102
RTVSPropertyOp7
 70
     1
102
RTVSPropertyOp8
 70
     1
102
RTVSPropertyOp9
 70
     1
102
RTVSPropertyOp10
 70
     1
102
RTVSPropertyOp11
 70
     1
102
RTVSPropertyOp12
 70
     1
102
RTVSPropertyOp13
 70
     1
102
RTVSPropertyOp14
 70
     1
102
RTVSPropertyOp15
 70
     1
102
RTVSPropertyOp16
 70
     1
102
RTVSPropertyOp17
 70
     1
102
RTVSPropertyOp18
 70
     1
102
RTVSPropertyOp19
 70
     1
102
RTVSPropertyOp20
 70
     1
102
RTVSPropertyOp21
 70
     1
102
RTVSPropertyOp22
 70
     1
102
RTVSPropertyOp23
 70
     1
102
RTVSPropertyOp24
 70
     1
102
RTVSPropertyOp25
 70
     1
102
RTVSPropertyOp26
 70
     1
102
RTVSPropertyOp27
 70
     1
102
RTVSPropertyOp28
 70
     1
102
RTVSPropertyOp29
 70
     1
102
RTVSPropertyOp30
 70
     1
102
RTVSPropertyOp31
 70
     1
102
RTVSPropertyOp32
 70
     1
  0
XRECORD
  5
25C
102
{ACAD_REACTORS
330
25B
102
}
330
25B
100
AcDbXrecord
280
     1
102
RTVSPropertyOp0
 70
     1
102
RTVSPropertyOp1
 70
     1
102
RTVSPropertyOp2
 70
     1
102
RTVSPropertyOp3
 70
     1
102
RTVSPropertyOp4
 70
     1
102
RTVSPropertyOp5
 70
     1
102
RTVSPropertyOp6
 70
     1
102
RTVSPropertyOp7
 70
     1
102
RTVSPropertyOp8
 70
     1
102
RTVSPropertyOp9
 70
     1
102
RTVSPropertyOp10
 70
     1
102
RTVSPropertyOp11
 70
     1
102
RTVSPropertyOp12
 70
     1
102
RTVSPropertyOp13
 70
     1
102
RTVSPropertyOp14
 70
     1
102
RTVSPropertyOp15
 70
     1
102
RTVSPropertyOp16
 70
     1
102
RTVSPropertyOp17
 70
     1
102
RTVSPropertyOp18
 70
     1
102
RTVSPropertyOp19
 70
     1
102
RTVSPropertyOp20
 70
     1
102
RTVSPropertyOp21
 70
     1
102
RTVSPropertyOp22
 70
     1
102
RTVSPropertyOp23
 70
     1
102
RTVSPropertyOp24
 70
     1
102
RTVSPropertyOp25
 70
     1
102
RTVSPropertyOp26
 70
     1
102
RTVSPropertyOp27
 70
     1
102
RTVSPropertyOp28
 70
     1
102
RTVSPropertyOp29
 70
     1
102
RTVSPropertyOp30
 70
     1
102
RTVSPropertyOp31
 70
     1
102
RTVSPropertyOp32
 70
     1
  0
XRECORD
  5
250
102
{ACAD_REACTORS
330
24F
102
}
330
24F
100
AcDbXrecord
280
     1
102
RTVSPropertyOp0
 70
     1
102
RTVSPropertyOp1
 70
     1
102
RTVSPropertyOp2
 70
     1
102
RTVSPropertyOp3
 70
     1
102
RTVSPropertyOp4
 70
     1
102
RTVSPropertyOp5
 70
     1
102
RTVSPropertyOp6
 70
     1
102
RTVSPropertyOp7
 70
     1
102
RTVSPropertyOp8
 70
     1
102
RTVSPropertyOp9
 70
     1
102
RTVSPropertyOp10
 70
     1
102
RTVSPropertyOp11
 70
     1
102
RTVSPropertyOp12
 70
     1
102
RTVSPropertyOp13
 70
     1
102
RTVSPropertyOp14
 70
     1
102
RTVSPropertyOp15
 70
     1
102
RTVSPropertyOp16
 70
     1
102
RTVSPropertyOp17
 70
     1
102
RTVSPropertyOp18
 70
     1
102
RTVSPropertyOp19
 70
     1
102
RTVSPropertyOp20
 70
     1
102
RTVSPropertyOp21
 70
     1
102
RTVSPropertyOp22
 70
     1
102
RTVSPropertyOp23
 70
     1
102
RTVSPropertyOp24
 70
     1
102
RTVSPropertyOp25
 70
     1
102
RTVSPropertyOp26
 70
     1
102
RTVSPropertyOp27
 70
     1
102
RTVSPropertyOp28
 70
     1
102
RTVSPropertyOp29
 70
     1
102
RTVSPropertyOp30
 70
     1
102
RTVSPropertyOp31
 70
     1
102
RTVSPropertyOp32
 70
     1
  0
XRECORD
  5
252
102
{ACAD_REACTORS
330
251
102
}
330
251
100
AcDbXrecord
280
     1
102
RTVSPropertyOp0
 70
     1
102
RTVSPropertyOp1
 70
     1
102
RTVSPropertyOp2
 70
     1
102
RTVSPropertyOp3
 70
     1
102
RTVSPropertyOp4
 70
     1
102
RTVSPropertyOp5
 70
     1
102
RTVSPropertyOp6
 70
     1
102
RTVSPropertyOp7
 70
     1
102
RTVSPropertyOp8
 70
     1
102
RTVSPropertyOp9
 70
     1
102
RTVSPropertyOp10
 70
     1
102
RTVSPropertyOp11
 70
     1
102
RTVSPropertyOp12
 70
     1
102
RTVSPropertyOp13
 70
     1
102
RTVSPropertyOp14
 70
     1
102
RTVSPropertyOp15
 70
     1
102
RTVSPropertyOp16
 70
     1
102
RTVSPropertyOp17
 70
     1
102
RTVSPropertyOp18
 70
     1
102
RTVSPropertyOp19
 70
     1
102
RTVSPropertyOp20
 70
     1
102
RTVSPropertyOp21
 70
     1
102
RTVSPropertyOp22
 70
     1
102
RTVSPropertyOp23
 70
     1
102
RTVSPropertyOp24
 70
     1
102
RTVSPropertyOp25
 70
     1
102
RTVSPropertyOp26
 70
     1
102
RTVSPropertyOp27
 70
     1
102
RTVSPropertyOp28
 70
     1
102
RTVSPropertyOp29
 70
     1
102
RTVSPropertyOp30
 70
     1
102
RTVSPropertyOp31
 70
     1
102
RTVSPropertyOp32
 70
     1
  0
XRECORD
  5
25A
102
{ACAD_REACTORS
330
259
102
}
330
259
100
AcDbXrecord
280
     1
102
RTVSPropertyOp0
 70
     1
102
RTVSPropertyOp1
 70
     1
102
RTVSPropertyOp2
 70
     1
102
RTVSPropertyOp3
 70
     1
102
RTVSPropertyOp4
 70
     1
102
RTVSPropertyOp5
 70
     1
102
RTVSPropertyOp6
 70
     1
102
RTVSPropertyOp7
 70
     1
102
RTVSPropertyOp8
 70
     1
102
RTVSPropertyOp9
 70
     1
102
RTVSPropertyOp10
 70
     1
102
RTVSPropertyOp11
 70
     1
102
RTVSPropertyOp12
 70
     1
102
RTVSPropertyOp13
 70
     1
102
RTVSPropertyOp14
 70
     1
102
RTVSPropertyOp15
 70
     1
102
RTVSPropertyOp16
 70
     1
102
RTVSPropertyOp17
 70
     1
102
RTVSPropertyOp18
 70
     1
102
RTVSPropertyOp19
 70
     1
102
RTVSPropertyOp20
 70
     1
102
RTVSPropertyOp21
 70
     1
102
RTVSPropertyOp22
 70
     1
102
RTVSPropertyOp23
 70
     1
102
RTVSPropertyOp24
 70
     1
102
RTVSPropertyOp25
 70
     1
102
RTVSPropertyOp26
 70
     1
102
RTVSPropertyOp27
 70
     1
102
RTVSPropertyOp28
 70
     1
102
RTVSPropertyOp29
 70
     1
102
RTVSPropertyOp30
 70
     1
102
RTVSPropertyOp31
 70
     1
102
RTVSPropertyOp32
 70
     1
  0
XRECORD
  5
23E
102
{ACAD_REACTORS
330
23D
102
}
330
23D
100
AcDbXrecord
280
     1
102
RTVSPropertyOp0
 70
     1
102
RTVSPropertyOp1
 70
     1
102
RTVSPropertyOp2
 70
     1
102
RTVSPropertyOp3
 70
     1
102
RTVSPropertyOp4
 70
     1
102
RTVSPropertyOp5
 70
     1
102
RTVSPropertyOp6
 70
     1
102
RTVSPropertyOp7
 70
     1
102
RTVSPropertyOp8
 70
     1
102
RTVSPropertyOp9
 70
     1
102
RTVSPropertyOp10
 70
     1
102
RTVSPropertyOp11
 70
     1
102
RTVSPropertyOp12
 70
     1
102
RTVSPropertyOp13
 70
     1
102
RTVSPropertyOp14
 70
     1
102
RTVSPropertyOp15
 70
     1
102
RTVSPropertyOp16
 70
     1
102
RTVSPropertyOp17
 70
     1
102
RTVSPropertyOp18
 70
     1
102
RTVSPropertyOp19
 70
     1
102
RTVSPropertyOp20
 70
     1
102
RTVSPropertyOp21
 70
     1
102
RTVSPropertyOp22
 70
     1
102
RTVSPropertyOp23
 70
     1
102
RTVSPropertyOp24
 70
     1
102
RTVSPropertyOp25
 70
     1
102
RTVSPropertyOp26
 70
     1
102
RTVSPropertyOp27
 70
     1
102
RTVSPropertyOp28
 70
     1
102
RTVSPropertyOp29
 70
     1
102
RTVSPropertyOp30
 70
     1
102
RTVSPropertyOp31
 70
     1
102
RTVSPropertyOp32
 70
     1
  0
XRECORD
  5
240
102
{ACAD_REACTORS
330
23F
102
}
330
23F
100
AcDbXrecord
280
     1
102
RTVSPropertyOp0
 70
     1
102
RTVSPropertyOp1
 70
     1
102
RTVSPropertyOp2
 70
     1
102
RTVSPropertyOp3
 70
     1
102
RTVSPropertyOp4
 70
     1
102
RTVSPropertyOp5
 70
     1
102
RTVSPropertyOp6
 70
     1
102
RTVSPropertyOp7
 70
     1
102
RTVSPropertyOp8
 70
     1
102
RTVSPropertyOp9
 70
     1
102
RTVSPropertyOp10
 70
     1
102
RTVSPropertyOp11
 70
     1
102
RTVSPropertyOp12
 70
     1
102
RTVSPropertyOp13
 70
     1
102
RTVSPropertyOp14
 70
     1
102
RTVSPropertyOp15
 70
     1
102
RTVSPropertyOp16
 70
     1
102
RTVSPropertyOp17
 70
     1
102
RTVSPropertyOp18
 70
     1
102
RTVSPropertyOp19
 70
     1
102
RTVSPropertyOp20
 70
     1
102
RTVSPropertyOp21
 70
     1
102
RTVSPropertyOp22
 70
     1
102
RTVSPropertyOp23
 70
     1
102
RTVSPropertyOp24
 70
     1
102
RTVSPropertyOp25
 70
     1
102
RTVSPropertyOp26
 70
     1
102
RTVSPropertyOp27
 70
     1
102
RTVSPropertyOp28
 70
     1
102
RTVSPropertyOp29
 70
     1
102
RTVSPropertyOp30
 70
     1
102
RTVSPropertyOp31
 70
     1
102
RTVSPropertyOp32
 70
     1
  0
XRECORD
  5
242
102
{ACAD_REACTORS
330
241
102
}
330
241
100
AcDbXrecord
280
     1
102
RTVSPropertyOp0
 70
     1
102
RTVSPropertyOp1
 70
     1
102
RTVSPropertyOp2
 70
     1
102
RTVSPropertyOp3
 70
     1
102
RTVSPropertyOp4
 70
     1
102
RTVSPropertyOp5
 70
     1
102
RTVSPropertyOp6
 70
     1
102
RTVSPropertyOp7
 70
     1
102
RTVSPropertyOp8
 70
     1
102
RTVSPropertyOp9
 70
     1
102
RTVSPropertyOp10
 70
     1
102
RTVSPropertyOp11
 70
     1
102
RTVSPropertyOp12
 70
     1
102
RTVSPropertyOp13
 70
     1
102
RTVSPropertyOp14
 70
     1
102
RTVSPropertyOp15
 70
     1
102
RTVSPropertyOp16
 70
     1
102
RTVSPropertyOp17
 70
     1
102
RTVSPropertyOp18
 70
     1
102
RTVSPropertyOp19
 70
     1
102
RTVSPropertyOp20
 70
     1
102
RTVSPropertyOp21
 70
     1
102
RTVSPropertyOp22
 70
     1
102
RTVSPropertyOp23
 70
     1
102
RTVSPropertyOp24
 70
     1
102
RTVSPropertyOp25
 70
     1
102
RTVSPropertyOp26
 70
     1
102
RTVSPropertyOp27
 70
     1
102
RTVSPropertyOp28
 70
     1
102
RTVSPropertyOp29
 70
     1
102
RTVSPropertyOp30
 70
     1
102
RTVSPropertyOp31
 70
     1
102
RTVSPropertyOp32
 70
     1
  0
XRECORD
  5
244
102
{ACAD_REACTORS
330
243
102
}
330
243
100
AcDbXrecord
280
     1
102
RTVSPropertyOp0
 70
     1
102
RTVSPropertyOp1
 70
     1
102
RTVSPropertyOp2
 70
     1
102
RTVSPropertyOp3
 70
     1
102
RTVSPropertyOp4
 70
     1
102
RTVSPropertyOp5
 70
     1
102
RTVSPropertyOp6
 70
     1
102
RTVSPropertyOp7
 70
     1
102
RTVSPropertyOp8
 70
     1
102
RTVSPropertyOp9
 70
     1
102
RTVSPropertyOp10
 70
     1
102
RTVSPropertyOp11
 70
     1
102
RTVSPropertyOp12
 70
     1
102
RTVSPropertyOp13
 70
     1
102
RTVSPropertyOp14
 70
     1
102
RTVSPropertyOp15
 70
     1
102
RTVSPropertyOp16
 70
     1
102
RTVSPropertyOp17
 70
     1
102
RTVSPropertyOp18
 70
     1
102
RTVSPropertyOp19
 70
     1
102
RTVSPropertyOp20
 70
     1
102
RTVSPropertyOp21
 70
     1
102
RTVSPropertyOp22
 70
     1
102
RTVSPropertyOp23
 70
     1
102
RTVSPropertyOp24
 70
     1
102
RTVSPropertyOp25
 70
     1
102
RTVSPropertyOp26
 70
     1
102
RTVSPropertyOp27
 70
     1
102
RTVSPropertyOp28
 70
     1
102
RTVSPropertyOp29
 70
     1
102
RTVSPropertyOp30
 70
     1
102
RTVSPropertyOp31
 70
     1
102
RTVSPropertyOp32
 70
     1
  0
XRECORD
  5
258
102
{ACAD_REACTORS
330
257
102
}
330
257
100
AcDbXrecord
280
     1
102
RTVSPropertyOp0
 70
     1
102
RTVSPropertyOp1
 70
     1
102
RTVSPropertyOp2
 70
     1
102
RTVSPropertyOp3
 70
     1
102
RTVSPropertyOp4
 70
     1
102
RTVSPropertyOp5
 70
     1
102
RTVSPropertyOp6
 70
     1
102
RTVSPropertyOp7
 70
     1
102
RTVSPropertyOp8
 70
     1
102
RTVSPropertyOp9
 70
     1
102
RTVSPropertyOp10
 70
     1
102
RTVSPropertyOp11
 70
     1
102
RTVSPropertyOp12
 70
     1
102
RTVSPropertyOp13
 70
     1
102
RTVSPropertyOp14
 70
     1
102
RTVSPropertyOp15
 70
     1
102
RTVSPropertyOp16
 70
     1
102
RTVSPropertyOp17
 70
     1
102
RTVSPropertyOp18
 70
     1
102
RTVSPropertyOp19
 70
     1
102
RTVSPropertyOp20
 70
     1
102
RTVSPropertyOp21
 70
     1
102
RTVSPropertyOp22
 70
     1
102
RTVSPropertyOp23
 70
     1
102
RTVSPropertyOp24
 70
     1
102
RTVSPropertyOp25
 70
     1
102
RTVSPropertyOp26
 70
     1
102
RTVSPropertyOp27
 70
     1
102
RTVSPropertyOp28
 70
     1
102
RTVSPropertyOp29
 70
     1
102
RTVSPropertyOp30
 70
     1
102
RTVSPropertyOp31
 70
     1
102
RTVSPropertyOp32
 70
     1
  0
XRECORD
  5
24E
102
{ACAD_REACTORS
330
24D
102
}
330
24D
100
AcDbXrecord
280
     1
102
RTVSPropertyOp0
 70
     1
102
RTVSPropertyOp1
 70
     1
102
RTVSPropertyOp2
 70
     1
102
RTVSPropertyOp3
 70
     1
102
RTVSPropertyOp4
 70
     1
102
RTVSPropertyOp5
 70
     1
102
RTVSPropertyOp6
 70
     1
102
RTVSPropertyOp7
 70
     1
102
RTVSPropertyOp8
 70
     1
102
RTVSPropertyOp9
 70
     1
102
RTVSPropertyOp10
 70
     1
102
RTVSPropertyOp11
 70
     1
102
RTVSPropertyOp12
 70
     1
102
RTVSPropertyOp13
 70
     1
102
RTVSPropertyOp14
 70
     1
102
RTVSPropertyOp15
 70
     1
102
RTVSPropertyOp16
 70
     1
102
RTVSPropertyOp17
 70
     1
102
RTVSPropertyOp18
 70
     1
102
RTVSPropertyOp19
 70
     1
102
RTVSPropertyOp20
 70
     1
102
RTVSPropertyOp21
 70
     1
102
RTVSPropertyOp22
 70
     1
102
RTVSPropertyOp23
 70
     1
102
RTVSPropertyOp24
 70
     1
102
RTVSPropertyOp25
 70
     1
102
RTVSPropertyOp26
 70
     1
102
RTVSPropertyOp27
 70
     1
102
RTVSPropertyOp28
 70
     1
102
RTVSPropertyOp29
 70
     1
102
RTVSPropertyOp30
 70
     1
102
RTVSPropertyOp31
 70
     1
102
RTVSPropertyOp32
 70
     1
  0
XRECORD
  5
256
102
{ACAD_REACTORS
330
255
102
}
330
255
100
AcDbXrecord
280
     1
102
RTVSPropertyOp0
 70
     1
102
RTVSPropertyOp1
 70
     1
102
RTVSPropertyOp2
 70
     1
102
RTVSPropertyOp3
 70
     1
102
RTVSPropertyOp4
 70
     1
102
RTVSPropertyOp5
 70
     1
102
RTVSPropertyOp6
 70
     1
102
RTVSPropertyOp7
 70
     1
102
RTVSPropertyOp8
 70
     1
102
RTVSPropertyOp9
 70
     1
102
RTVSPropertyOp10
 70
     1
102
RTVSPropertyOp11
 70
     1
102
RTVSPropertyOp12
 70
     1
102
RTVSPropertyOp13
 70
     1
102
RTVSPropertyOp14
 70
     1
102
RTVSPropertyOp15
 70
     1
102
RTVSPropertyOp16
 70
     1
102
RTVSPropertyOp17
 70
     1
102
RTVSPropertyOp18
 70
     1
102
RTVSPropertyOp19
 70
     1
102
RTVSPropertyOp20
 70
     1
102
RTVSPropertyOp21
 70
     1
102
RTVSPropertyOp22
 70
     1
102
RTVSPropertyOp23
 70
     1
102
RTVSPropertyOp24
 70
     1
102
RTVSPropertyOp25
 70
     1
102
RTVSPropertyOp26
 70
     1
102
RTVSPropertyOp27
 70
     1
102
RTVSPropertyOp28
 70
     1
102
RTVSPropertyOp29
 70
     1
102
RTVSPropertyOp30
 70
     1
102
RTVSPropertyOp31
 70
     1
102
RTVSPropertyOp32
 70
     1
  0
ENDSEC
  0
EOF
