  0
SECTION
  2
HEADER
  9
$ACADVER
  1
AC1018
  9
$ACADMAINTVER
 70
     0
  9
$DWGCODEPAGE
  3
ANSI_1252
  9
$INSBASE
 10
0.0
 20
0.0
 30
0.0
  9
$EXTMIN
 10
-415.499999999989
 20
-267.0000000000051
 30
0.0
  9
$EXTMAX
 10
-118.4999999999909
 20
-57.000000000005
 30
0.0
  9
$LIMMIN
 10
0.0
 20
0.0
  9
$LIMMAX
 10
12.0
 20
9.0
  9
$ORTHOMODE
 70
     0
  9
$REGENMODE
 70
     1
  9
$FILLMODE
 70
     1
  9
$QTEXTMODE
 70
     0
  9
$MIRRTEXT
 70
     1
  9
$LTSCALE
 40
1.0
  9
$ATTMODE
 70
     1
  9
$TEXTSIZE
 40
0.2
  9
$TRACEWID
 40
0.05
  9
$TEXTSTYLE
  7
Standard
  9
$CLAYER
  8
0
  9
$CELTYPE
  6
ByLayer
  9
$CECOLOR
 62
   256
  9
$CELTSCALE
 40
1.0
  9
$DISPSILH
 70
     0
  9
$DIMSCALE
 40
1.0
  9
$DIMASZ
 40
0.18
  9
$DIMEXO
 40
0.0625
  9
$DIMDLI
 40
0.38
  9
$DIMRND
 40
0.0
  9
$DIMDLE
 40
0.0
  9
$DIMEXE
 40
0.18
  9
$DIMTP
 40
0.0
  9
$DIMTM
 40
0.0
  9
$DIMTXT
 40
0.18
  9
$DIMCEN
 40
0.09
  9
$DIMTSZ
 40
0.0
  9
$DIMTOL
 70
     0
  9
$DIMLIM
 70
     0
  9
$DIMTIH
 70
     1
  9
$DIMTOH
 70
     1
  9
$DIMSE1
 70
     0
  9
$DIMSE2
 70
     0
  9
$DIMTAD
 70
     0
  9
$DIMZIN
 70
     0
  9
$DIMBLK
  1

  9
$DIMASO
 70
     1
  9
$DIMSHO
 70
     1
  9
$DIMPOST
  1

  9
$DIMAPOST
  1

  9
$DIMALT
 70
     0
  9
$DIMALTD
 70
     2
  9
$DIMALTF
 40
25.4
  9
$DIMLFAC
 40
1.0
  9
$DIMTOFL
 70
     0
  9
$DIMTVP
 40
0.0
  9
$DIMTIX
 70
     0
  9
$DIMSOXD
 70
     0
  9
$DIMSAH
 70
     0
  9
$DIMBLK1
  1

  9
$DIMBLK2
  1

  9
$DIMSTYLE
  2
Standard
  9
$DIMCLRD
 70
     0
  9
$DIMCLRE
 70
     0
  9
$DIMCLRT
 70
     0
  9
$DIMTFAC
 40
1.0
  9
$DIMGAP
 40
0.09
  9
$DIMJUST
 70
     0
  9
$DIMSD1
 70
     0
  9
$DIMSD2
 70
     0
  9
$DIMTOLJ
 70
     1
  9
$DIMTZIN
 70
     0
  9
$DIMALTZ
 70
     0
  9
$DIMALTTZ
 70
     0
  9
$DIMUPT
 70
     0
  9
$DIMDEC
 70
     4
  9
$DIMTDEC
 70
     4
  9
$DIMALTU
 70
     2
  9
$DIMALTTD
 70
     2
  9
$DIMTXSTY
  7
Standard
  9
$DIMAUNIT
 70
     0
  9
$DIMADEC
 70
     0
  9
$DIMALTRND
 40
0.0
  9
$DIMAZIN
 70
     0
  9
$DIMDSEP
 70
    46
  9
$DIMATFIT
 70
     3
  9
$DIMFRAC
 70
     0
  9
$DIMLDRBLK
  1

  9
$DIMLUNIT
 70
     2
  9
$DIMLWD
 70
    -2
  9
$DIMLWE
 70
    -2
  9
$DIMTMOVE
 70
     0
  9
$LUNITS
 70
     2
  9
$LUPREC
 70
     4
  9
$SKETCHINC
 40
0.1
  9
$FILLETRAD
 40
0.5
  9
$AUNITS
 70
     0
  9
$AUPREC
 70
     0
  9
$MENU
  1
.
  9
$ELEVATION
 40
0.0
  9
$PELEVATION
 40
0.0
  9
$THICKNESS
 40
0.0
  9
$LIMCHECK
 70
     0
  9
$CHAMFERA
 40
0.5
  9
$CHAMFERB
 40
0.5
  9
$CHAMFERC
 40
1.0
  9
$CHAMFERD
 40
0.0
  9
$SKPOLY
 70
     0
  9
$TDCREATE
 40
2458102.625864132
  9
$TDUCREATE
 40
2458102.584197465
  9
$TDUPDATE
 40
2458102.625864699
  9
$TDUUPDATE
 40
2458102.584198033
  9
$TDINDWG
 40
0.0000000116
  9
$TDUSRTIMER
 40
0.0000000116
  9
$USRTIMER
 70
     1
  9
$ANGBASE
 50
0.0
  9
$ANGDIR
 70
     0
  9
$PDMODE
 70
     0
  9
$PDSIZE
 40
0.0
  9
$PLINEWID
 40
0.0
  9
$SPLFRAME
 70
     0
  9
$SPLINETYPE
 70
     6
  9
$SPLINESEGS
 70
     8
  9
$HANDSEED
  5
49C
  9
$SURFTAB1
 70
     6
  9
$SURFTAB2
 70
     6
  9
$SURFTYPE
 70
     6
  9
$SURFU
 70
     6
  9
$SURFV
 70
     6
  9
$UCSBASE
  2

  9
$UCSNAME
  2

  9
$UCSORG
 10
0.0
 20
0.0
 30
0.0
  9
$UCSXDIR
 10
1.0
 20
0.0
 30
0.0
  9
$UCSYDIR
 10
0.0
 20
1.0
 30
0.0
  9
$UCSORTHOREF
  2

  9
$UCSORTHOVIEW
 70
     0
  9
$UCSORGTOP
 10
0.0
 20
0.0
 30
0.0
  9
$UCSORGBOTTOM
 10
0.0
 20
0.0
 30
0.0
  9
$UCSORGLEFT
 10
0.0
 20
0.0
 30
0.0
  9
$UCSORGRIGHT
 10
0.0
 20
0.0
 30
0.0
  9
$UCSORGFRONT
 10
0.0
 20
0.0
 30
0.0
  9
$UCSORGBACK
 10
0.0
 20
0.0
 30
0.0
  9
$PUCSBASE
  2

  9
$PUCSNAME
  2

  9
$PUCSORG
 10
0.0
 20
0.0
 30
0.0
  9
$PUCSXDIR
 10
1.0
 20
0.0
 30
0.0
  9
$PUCSYDIR
 10
0.0
 20
1.0
 30
0.0
  9
$PUCSORTHOREF
  2

  9
$PUCSORTHOVIEW
 70
     0
  9
$PUCSORGTOP
 10
0.0
 20
0.0
 30
0.0
  9
$PUCSORGBOTTOM
 10
0.0
 20
0.0
 30
0.0
  9
$PUCSORGLEFT
 10
0.0
 20
0.0
 30
0.0
  9
$PUCSORGRIGHT
 10
0.0
 20
0.0
 30
0.0
  9
$PUCSORGFRONT
 10
0.0
 20
0.0
 30
0.0
  9
$PUCSORGBACK
 10
0.0
 20
0.0
 30
0.0
  9
$USERI1
 70
     0
  9
$USERI2
 70
     0
  9
$USERI3
 70
     0
  9
$USERI4
 70
     0
  9
$USERI5
 70
     0
  9
$USERR1
 40
18.1
  9
$USERR2
 40
0.0
  9
$USERR3
 40
0.0
  9
$USERR4
 40
0.0
  9
$USERR5
 40
0.0
  9
$WORLDVIEW
 70
     1
  9
$SHADEDGE
 70
     3
  9
$SHADEDIF
 70
    70
  9
$TILEMODE
 70
     1
  9
$MAXACTVP
 70
    64
  9
$PINSBASE
 10
0.0
 20
0.0
 30
0.0
  9
$PLIMCHECK
 70
     0
  9
$PEXTMIN
 10
1.00000000000000E+20
 20
1.00000000000000E+20
 30
1.00000000000000E+20
  9
$PEXTMAX
 10
-1.00000000000000E+20
 20
-1.00000000000000E+20
 30
-1.00000000000000E+20
  9
$PLIMMIN
 10
0.0
 20
0.0
  9
$PLIMMAX
 10
12.0
 20
9.0
  9
$UNITMODE
 70
     0
  9
$VISRETAIN
 70
     1
  9
$PLINEGEN
 70
     0
  9
$PSLTSCALE
 70
     1
  9
$TREEDEPTH
 70
  3020
  9
$CMLSTYLE
  2
Standard
  9
$CMLJUST
 70
     0
  9
$CMLSCALE
 40
1.0
  9
$PROXYGRAPHICS
 70
     1
  9
$MEASUREMENT
 70
     1
  9
$CELWEIGHT
370
    -1
  9
$ENDCAPS
280
     0
  9
$JOINSTYLE
280
     0
  9
$LWDISPLAY
290
     0
  9
$INSUNITS
 70
     4
  9
$HYPERLINKBASE
  1

  9
$STYLESHEET
  1

  9
$XEDIT
290
     1
  9
$CEPSNTYPE
380
     0
  9
$PSTYLEMODE
290
     1
  9
$FINGERPRINTGUID
  2
{C9D144A6-41B6-4784-A859-5768C82FA46F}
  9
$VERSIONGUID
  2
{FAEB1C32-E019-11D5-929B-00C0DF256EC4}
  9
$EXTNAMES
290
     1
  9
$PSVPSCALE
 40
0.0
  9
$OLESTARTUP
290
     0
  9
$SORTENTS
280
   127
  9
$INDEXCTL
280
     0
  9
$HIDETEXT
280
     1
  9
$XCLIPFRAME
290
     0
  9
$HALOGAP
280
     0
  9
$OBSCOLOR
 70
   257
  9
$OBSLTYPE
280
     0
  9
$INTERSECTIONDISPLAY
280
     0
  9
$INTERSECTIONCOLOR
 70
   257
  9
$DIMASSOC
280
     2
  9
$PROJECTNAME
  1

  0
ENDSEC
  0
SECTION
  2
CLASSES
  0
CLASS
  1
ACDBDICTIONARYWDFLT
  2
AcDbDictionaryWithDefault
  3
ObjectDBX Classes
 90
        0
 91
        4
280
     0
281
     0
  0
CLASS
  1
VISUALSTYLE
  2
AcDbVisualStyle
  3
ObjectDBX Classes
 90
     4095
 91
        4
280
     0
281
     0
  0
CLASS
  1
MATERIAL
  2
AcDbMaterial
  3
ObjectDBX Classes
 90
     1153
 91
        4
280
     0
281
     0
  0
ENDSEC
  0
SECTION
  2
TABLES
  0
TABLE
  2
VPORT
  5
8
330
0
100
AcDbSymbolTable
 70
     1
  0
VPORT
  5
29
330
8
100
AcDbSymbolTableRecord
100
AcDbViewportTableRecord
  2
*Active
 70
     0
 10
0.0
 20
0.0
 11
1.0
 21
1.0
 12
-266.9999999999899
 22
-162.0000000000051
 13
0.0
 23
0.0
 14
0.5
 24
0.5
 15
0.5
 25
0.5
 16
0.0
 26
0.0
 36
1.0
 17
0.0
 27
0.0
 37
0.0
 40
231.0000000000001
 41
1.60267857142857
 42
50.0
 43
0.0
 44
0.0
 50
0.0
 51
0.0
 71
     0
 72
   100
 73
     1
 74
     3
 75
     0
 76
     0
 77
     0
 78
     0
281
     0
 65
     1
110
0.0
120
0.0
130
0.0
111
1.0
121
0.0
131
0.0
112
0.0
122
1.0
132
0.0
 79
     0
146
0.0
  0
ENDTAB
  0
TABLE
  2
LTYPE
  5
5
330
0
100
AcDbSymbolTable
 70
     8
  0
LTYPE
  5
14
330
5
100
AcDbSymbolTableRecord
100
AcDbLinetypeTableRecord
  2
ByBlock
 70
     0
  3

 72
    65
 73
     0
 40
0.0
  0
LTYPE
  5
15
330
5
100
AcDbSymbolTableRecord
100
AcDbLinetypeTableRecord
  2
ByLayer
 70
     0
  3

 72
    65
 73
     0
 40
0.0
  0
LTYPE
  5
16
330
5
100
AcDbSymbolTableRecord
100
AcDbLinetypeTableRecord
  2
Continuous
 70
     0
  3
Solid line
 72
    65
 73
     0
 40
0.0
  0
LTYPE
  5
3F
330
5
100
AcDbSymbolTableRecord
100
AcDbLinetypeTableRecord
  2
DASHED
 70
     0
  3
Dashed
 72
    65
 73
     2
 40
15.0
 49
7.0
 74
     0
 49
-8.0
 74
     0
  0
LTYPE
  5
40
330
5
100
AcDbSymbolTableRecord
100
AcDbLinetypeTableRecord
  2
DOTTED
 70
     0
  3
Dotted
 72
    65
 73
     2
 40
1.0
 49
0.0
 74
     0
 49
-1.0
 74
     0
  0
LTYPE
  5
41
330
5
100
AcDbSymbolTableRecord
100
AcDbLinetypeTableRecord
  2
DOT_CENTER
 70
     0
  3
Dot_Center
 72
    65
 73
     4
 40
14.0
 49
12.0
 74
     0
 49
-1.0
 74
     0
 49
0.0
 74
     0
 49
-1.0
 74
     0
  0
LTYPE
  5
42
330
5
100
AcDbSymbolTableRecord
100
AcDbLinetypeTableRecord
  2
LONG_DASHED
 70
     0
  3
Long_Dashed
 72
    65
 73
     2
 40
15.0
 49
10.0
 74
     0
 49
-5.0
 74
     0
  0
LTYPE
  5
43
330
5
100
AcDbSymbolTableRecord
100
AcDbLinetypeTableRecord
  2
DASH_CENTER
 70
     0
  3
Dash_Center
 72
    65
 73
     4
 40
14.0
 49
11.0
 74
     0
 49
-1.0
 74
     0
 49
1.0
 74
     0
 49
-1.0
 74
     0
  0
LTYPE
  5
44
330
5
100
AcDbSymbolTableRecord
100
AcDbLinetypeTableRecord
  2
PHANTOM
 70
     0
  3
Phantom
 72
    65
 73
     6
 40
13.0
 49
10.0
 74
     0
 49
-1.0
 74
     0
 49
0.0
 74
     0
 49
-1.0
 74
     0
 49
0.0
 74
     0
 49
-1.0
 74
     0
  0
LTYPE
  5
45
330
5
100
AcDbSymbolTableRecord
100
AcDbLinetypeTableRecord
  2
CENTER_DASH_DASH
 70
     0
  3
Center_Dash_Dash
 72
    65
 73
     6
 40
14.0
 49
9.0
 74
     0
 49
-1.0
 74
     0
 49
1.0
 74
     0
 49
-1.0
 74
     0
 49
1.0
 74
     0
 49
-1.0
 74
     0
  0
ENDTAB
  0
TABLE
  2
LAYER
  5
2
330
0
100
AcDbSymbolTable
 70
     2
  0
LAYER
  5
10
330
2
100
AcDbSymbolTableRecord
100
AcDbLayerTableRecord
  2
0
 70
     0
 62
     7
  6
Continuous
370
    -3
390
F
  0
LAYER
  5
46
330
2
100
AcDbSymbolTableRecord
100
AcDbLayerTableRecord
  2
1
 70
     0
 62
     7
  6
Continuous
370
    -3
390
F
  0
ENDTAB
  0
TABLE
  2
STYLE
  5
3
330
0
100
AcDbSymbolTable
 70
     5
  0
STYLE
  5
11
330
3
100
AcDbSymbolTableRecord
100
AcDbTextStyleTableRecord
  2
Standard
 70
     0
 40
0.0
 41
1.0
 50
0.0
 71
     0
 42
0.2
  3
txt
  4

  0
STYLE
  5
163
330
3
100
AcDbSymbolTableRecord
100
AcDbTextStyleTableRecord
  2
CONVERTER_11
 70
     0
 40
0.0
 41
0.9
 50
0.0
 71
     0
 42
0.2
  3
txt.shx
  4

  0
STYLE
  5
432
330
3
100
AcDbSymbolTableRecord
100
AcDbTextStyleTableRecord
  2
CONVERTER_12
 70
     0
 40
0.0
 41
0.81
 50
0.0
 71
     0
 42
0.2
  3
txt.shx
  4

  0
STYLE
  5
438
330
3
100
AcDbSymbolTableRecord
100
AcDbTextStyleTableRecord
  2
CONVERTER_13
 70
     0
 40
0.0
 41
0.855
 50
0.0
 71
     0
 42
0.2
  3
txt.shx
  4

  0
STYLE
  5
43B
330
3
100
AcDbSymbolTableRecord
100
AcDbTextStyleTableRecord
  2
CONVERTER_14
 70
     0
 40
0.0
 41
0.72
 50
0.0
 71
     0
 42
0.2
  3
txt.shx
  4

  0
ENDTAB
  0
TABLE
  2
VIEW
  5
6
330
0
100
AcDbSymbolTable
 70
     0
  0
ENDTAB
  0
TABLE
  2
UCS
  5
7
330
0
100
AcDbSymbolTable
 70
     0
  0
ENDTAB
  0
TABLE
  2
APPID
  5
9
330
0
100
AcDbSymbolTable
 70
     1
  0
APPID
  5
12
330
9
100
AcDbSymbolTableRecord
100
AcDbRegAppTableRecord
  2
ACAD
 70
     0
  0
ENDTAB
  0
TABLE
  2
DIMSTYLE
  5
A
330
0
100
AcDbSymbolTable
 70
     7
100
AcDbDimStyleTable
  0
DIMSTYLE
105
27
330
A
100
AcDbSymbolTableRecord
100
AcDbDimStyleTableRecord
  2
Standard
 70
     0
178
     0
340
11
  0
DIMSTYLE
105
1AF
102
{ACAD_REACTORS
330
1B0
102
}
330
A
100
AcDbSymbolTableRecord
100
AcDbDimStyleTableRecord
  2
ME10_DIM_10
 70
     0
 41
3.5
 42
0.0
 44
1.5
 73
     0
 74
     0
 77
     1
 78
     8
140
3.5
147
1.5
172
     1
173
     1
174
     1
175
     1
176
     2
177
     2
178
     3
340
163
  0
DIMSTYLE
105
30D
102
{ACAD_REACTORS
330
30E
102
}
330
A
100
AcDbSymbolTableRecord
100
AcDbDimStyleTableRecord
  2
ME10_DIM_11
 70
     0
 41
3.5
 42
0.0
 44
1.5
 73
     0
 74
     0
 77
     1
 78
     8
140
3.5
147
1.5
172
     1
173
     1
174
     1
175
     1
176
     2
177
     2
178
     3
340
163
  0
DIMSTYLE
105
318
102
{ACAD_REACTORS
330
319
102
}
330
A
100
AcDbSymbolTableRecord
100
AcDbDimStyleTableRecord
  2
ME10_DIM_12
 70
     0
 41
3.5
 42
0.0
 44
1.5
 73
     0
 74
     0
 77
     1
 78
     8
140
3.5
147
1.5
172
     1
173
     1
174
     1
175
     1
176
     2
177
     2
178
     3
340
163
  0
DIMSTYLE
105
323
102
{ACAD_REACTORS
330
324
102
}
330
A
100
AcDbSymbolTableRecord
100
AcDbDimStyleTableRecord
  2
ME10_DIM_13
 70
     0
 41
3.5
 42
0.0
 44
1.5
 73
     0
 74
     0
 77
     1
 78
     8
140
3.5
147
1.5
172
     1
173
     1
174
     1
175
     1
176
     2
177
     2
178
     3
340
163
  0
DIMSTYLE
105
32E
102
{ACAD_REACTORS
330
32F
102
}
330
A
100
AcDbSymbolTableRecord
100
AcDbDimStyleTableRecord
  2
ME10_DIM_14
 70
     0
 41
3.5
 42
0.0
 44
1.5
 73
     0
 74
     0
 77
     1
 78
     8
140
3.5
147
1.5
172
     1
173
     1
174
     1
175
     1
176
     2
177
     2
178
     3
340
163
  0
DIMSTYLE
105
339
102
{ACAD_REACTORS
330
33A
102
}
330
A
100
AcDbSymbolTableRecord
100
AcDbDimStyleTableRecord
  2
ME10_DIM_15
 70
     0
 41
3.5
 42
0.0
 44
1.5
 73
     0
 74
     0
 77
     1
 78
     8
140
3.5
147
1.5
172
     1
173
     1
174
     1
175
     1
176
     2
177
     2
178
     3
340
163
  0
ENDTAB
  0
TABLE
  2
BLOCK_RECORD
  5
1
330
0
100
AcDbSymbolTable
 70
    23
  0
BLOCK_RECORD
  5
1F
330
1
100
AcDbSymbolTableRecord
100
AcDbBlockTableRecord
  2
*Model_Space
340
22
  0
BLOCK_RECORD
  5
1B
330
1
100
AcDbSymbolTableRecord
100
AcDbBlockTableRecord
  2
*Paper_Space
340
1E
  0
BLOCK_RECORD
  5
23
330
1
100
AcDbSymbolTableRecord
100
AcDbBlockTableRecord
  2
*Paper_Space0
340
26
  0
BLOCK_RECORD
  5
47
330
1
100
AcDbSymbolTableRecord
100
AcDbBlockTableRecord
  2
OTTA_6-P_P_YE-select__1
340
0
102
{BLKREFS
331
4B
102
}
  0
BLOCK_RECORD
  5
4A
330
1
100
AcDbSymbolTableRecord
100
AcDbBlockTableRecord
  2
Allg1
340
0
102
{BLKREFS
331
7D
102
}
  0
BLOCK_RECORD
  5
4E
330
1
100
AcDbSymbolTableRecord
100
AcDbBlockTableRecord
  2
OTTA_6-P_P_YE-select__2
340
0
102
{BLKREFS
331
52
102
}
  0
BLOCK_RECORD
  5
51
330
1
100
AcDbSymbolTableRecord
100
AcDbBlockTableRecord
  2
Drfsicht1
340
0
102
{BLKREFS
331
7E
102
}
  0
BLOCK_RECORD
  5
55
330
1
100
AcDbSymbolTableRecord
100
AcDbBlockTableRecord
  2
OTTA_6-P_P_YE-select__3
340
0
102
{BLKREFS
331
59
102
}
  0
BLOCK_RECORD
  5
58
330
1
100
AcDbSymbolTableRecord
100
AcDbBlockTableRecord
  2
Rckans1
340
0
102
{BLKREFS
331
7F
102
}
  0
BLOCK_RECORD
  5
5C
330
1
100
AcDbSymbolTableRecord
100
AcDbBlockTableRecord
  2
OTTA_6-P_P_YE-select__4
340
0
102
{BLKREFS
331
60
102
}
  0
BLOCK_RECORD
  5
5F
330
1
100
AcDbSymbolTableRecord
100
AcDbBlockTableRecord
  2
SA_Links1
340
0
102
{BLKREFS
331
80
102
}
  0
BLOCK_RECORD
  5
63
330
1
100
AcDbSymbolTableRecord
100
AcDbBlockTableRecord
  2
OTTA_6-P_P_YE-select__5
340
0
102
{BLKREFS
331
67
102
}
  0
BLOCK_RECORD
  5
66
330
1
100
AcDbSymbolTableRecord
100
AcDbBlockTableRecord
  2
SA_Rechts1
340
0
102
{BLKREFS
331
81
102
}
  0
BLOCK_RECORD
  5
6A
330
1
100
AcDbSymbolTableRecord
100
AcDbBlockTableRecord
  2
OTTA_6-P_P_YE-select__6
340
0
102
{BLKREFS
331
6E
102
}
  0
BLOCK_RECORD
  5
6D
330
1
100
AcDbSymbolTableRecord
100
AcDbBlockTableRecord
  2
Vordans1
340
0
102
{BLKREFS
331
82
102
}
  0
BLOCK_RECORD
  5
71
330
1
100
AcDbSymbolTableRecord
100
AcDbBlockTableRecord
  2
_rahmen
340
0
102
{BLKREFS
331
78
102
}
  0
BLOCK_RECORD
  5
74
330
1
100
AcDbSymbolTableRecord
100
AcDbBlockTableRecord
  2
_punkt
340
0
102
{BLKREFS
331
79
102
}
  0
BLOCK_RECORD
  5
77
330
1
100
AcDbSymbolTableRecord
100
AcDbBlockTableRecord
  2
A4I_CS
340
0
102
{BLKREFS
331
83
102
}
  0
BLOCK_RECORD
  5
7C
330
1
100
AcDbSymbolTableRecord
100
AcDbBlockTableRecord
  2
1
340
0
102
{BLKREFS
331
86
102
}
  0
BLOCK_RECORD
  5
1A6
330
1
100
AcDbSymbolTableRecord
100
AcDbBlockTableRecord
  2
*D17
340
0
  0
BLOCK_RECORD
  5
304
330
1
100
AcDbSymbolTableRecord
100
AcDbBlockTableRecord
  2
*D18
340
0
  0
BLOCK_RECORD
  5
30F
330
1
100
AcDbSymbolTableRecord
100
AcDbBlockTableRecord
  2
*D19
340
0
  0
BLOCK_RECORD
  5
31A
330
1
100
AcDbSymbolTableRecord
100
AcDbBlockTableRecord
  2
*D20
340
0
  0
BLOCK_RECORD
  5
325
330
1
100
AcDbSymbolTableRecord
100
AcDbBlockTableRecord
  2
*D21
340
0
  0
BLOCK_RECORD
  5
330
330
1
100
AcDbSymbolTableRecord
100
AcDbBlockTableRecord
  2
*D22
340
0
  0
ENDTAB
  0
ENDSEC
  0
SECTION
  2
BLOCKS
  0
BLOCK
  5
20
330
1F
100
AcDbEntity
  8
0
100
AcDbBlockBegin
  2
*Model_Space
 70
     0
 10
0.0
 20
0.0
 30
0.0
  3
*Model_Space
  1

  0
ENDBLK
  5
21
330
1F
100
AcDbEntity
  8
0
100
AcDbBlockEnd
  0
BLOCK
  5
1C
330
1B
100
AcDbEntity
 67
     1
  8
0
100
AcDbBlockBegin
  2
*Paper_Space
 70
     0
 10
0.0
 20
0.0
 30
0.0
  3
*Paper_Space
  1

  0
ENDBLK
  5
1D
330
1B
100
AcDbEntity
 67
     1
  8
0
100
AcDbBlockEnd
  0
BLOCK
  5
24
330
23
100
AcDbEntity
  8
0
100
AcDbBlockBegin
  2
*Paper_Space0
 70
     0
 10
0.0
 20
0.0
 30
0.0
  3
*Paper_Space0
  1

  0
ENDBLK
  5
25
330
23
100
AcDbEntity
  8
0
100
AcDbBlockEnd
  0
BLOCK
  5
48
330
47
100
AcDbEntity
  8
0
100
AcDbBlockBegin
  2
OTTA_6-P_P_YE-select__1
 70
     0
 10
-185.5860519341303
 20
-219.631515966598
 30
0.0
  3
OTTA_6-P_P_YE-select__1
  1

  0
LINE
  5
87
330
47
100
AcDbEntity
  8
0
  6
Continuous
 62
     7
100
AcDbLine
 10
-156.877309798676
 20
-175.2128741841594
 30
0.0
 11
-176.6226890049616
 21
-169.5128741841593
 31
0.0
  0
LINE
  5
88
330
47
100
AcDbEntity
  8
0
  6
Continuous
 62
     7
100
AcDbLine
 10
-161.6687816191696
 20
-193.6039421312158
 30
0.0
 11
-166.1437816191695
 21
-197.4794058131511
 31
0.0
  0
LINE
  5
89
330
47
100
AcDbEntity
  8
0
  6
Continuous
 62
     7
100
AcDbLine
 10
-177.8257832412584
 20
-205.3964246358513
 30
0.0
 11
-177.7268713947864
 21
-205.5238898729164
 31
0.0
  0
LINE
  5
8A
330
47
100
AcDbEntity
  8
0
  6
Continuous
 62
     7
100
AcDbLine
 10
-178.0949321913951
 20
-194.029405813151
 30
0.0
 11
-178.0949321913951
 21
-196.4542769437475
 31
0.0
  0
LINE
  5
8B
330
47
100
AcDbEntity
  8
0
  6
Continuous
 62
     7
100
AcDbLine
 10
-156.877309798676
 20
-175.2128741841594
 30
0.0
 11
-156.877309798676
 21
-177.118130072485
 31
0.0
  0
LINE
  5
8C
330
47
100
AcDbEntity
  8
0
  6
Continuous
 62
     7
100
AcDbLine
 10
-173.6199321913952
 20
-190.1539421312157
 30
0.0
 11
-172.7210873898239
 21
-190.4134162752891
 31
0.0
  0
LINE
  5
8D
330
47
100
AcDbEntity
  8
0
  6
Continuous
 62
     7
100
AcDbLine
 10
-172.7210873898238
 20
-190.2979462214512
 30
0.0
 11
-172.7210873898238
 21
-193.3434688914265
 31
0.0
  0
LINE
  5
8E
330
47
100
AcDbEntity
  8
0
  6
Continuous
 62
     7
100
AcDbLine
 10
-168.7210873898238
 20
-191.4526467598305
 30
0.0
 11
-168.7210873898239
 21
-193.3434688914265
 31
0.0
  0
LINE
  5
8F
330
47
100
AcDbEntity
  8
0
  6
Continuous
 62
     7
100
AcDbLine
 10
-168.7210873898239
 20
-191.5681168136684
 30
0.0
 11
-167.3562171844679
 21
-191.962120903904
 31
0.0
  0
LINE
  5
90
330
47
100
AcDbEntity
  8
0
  6
Continuous
 62
     7
100
AcDbLine
 10
-159.9039114138138
 20
-193.9979462214514
 30
0.0
 11
-159.9039114138138
 21
-197.0434688914266
 31
0.0
  0
LINE
  5
91
330
47
100
AcDbEntity
  8
0
  6
Continuous
 62
     7
100
AcDbLine
 10
-161.6687816191696
 20
-193.6039421312158
 30
0.0
 11
-159.9039114138138
 21
-194.1134162752892
 31
0.0
  0
LINE
  5
92
330
47
100
AcDbEntity
  8
0
  6
Continuous
 62
     7
100
AcDbLine
 10
-173.6199321913952
 20
-190.1539421312157
 30
0.0
 11
-178.0949321913951
 21
-194.029405813151
 31
0.0
  0
LINE
  5
93
330
47
100
AcDbEntity
  8
0
  6
Continuous
 62
     7
100
AcDbLine
 10
-185.5860519341303
 20
-197.1496607762364
 30
0.0
 11
-181.1110519341303
 21
-193.274197094301
 31
0.0
  0
LINE
  5
94
330
47
100
AcDbEntity
  8
0
  6
Continuous
 62
     7
100
AcDbLine
 10
-180.0860519341303
 20
-169.2424903516707
 30
0.0
 11
-185.5860519341303
 21
-174.0056300724851
 31
0.0
  0
LINE
  5
95
330
47
100
AcDbEntity
  8
0
  6
Continuous
 62
     7
100
AcDbLine
 10
-182.186642975266
 20
-175.1443052337424
 30
0.0
 11
-176.686642975266
 21
-170.381165512928
 31
0.0
  0
LINE
  5
96
330
47
100
AcDbEntity
  8
0
  6
Continuous
 62
     7
100
AcDbLine
 10
-183.0096263578715
 20
-206.4050146293709
 30
0.0
 11
-185.4803660675919
 21
-208.5447379841278
 31
0.0
  0
LINE
  5
97
330
47
100
AcDbEntity
  8
0
  6
Continuous
 62
     7
100
AcDbLine
 10
-185.5860519341302
 20
-208.797702457137
 30
0.0
 11
-185.5860519341302
 21
-210.962765966598
 31
0.0
  0
LINE
  5
98
330
47
100
AcDbEntity
  8
0
  6
Continuous
 62
     7
100
AcDbLine
 10
-185.5860519341303
 20
-200.5704611211847
 30
0.0
 11
-185.5860519341303
 21
-197.1496607762364
 31
0.0
  0
LINE
  5
99
330
47
100
AcDbEntity
  8
0
  6
Continuous
 62
     7
100
AcDbLine
 10
-185.153039232238
 20
-208.4896897552447
 30
0.0
 11
-184.9365328812919
 21
-208.5521897552447
 31
0.0
  0
LINE
  5
9A
330
47
100
AcDbEntity
  8
0
  6
Continuous
 62
     7
100
AcDbLine
 10
-183.0096263578715
 20
-207.9778902849031
 30
0.0
 11
-184.6092060459379
 21
-209.3631669301462
 31
0.0
  0
LINE
  5
9B
330
47
100
AcDbEntity
  8
0
  6
Continuous
 62
     7
100
AcDbLine
 10
-184.6767252601566
 20
-210.3159392926244
 30
0.0
 11
-183.0096263578715
 21
-208.8721892926243
 31
0.0
  0
LINE
  5
9C
330
47
100
AcDbEntity
  8
0
  6
Continuous
 62
     2
100
AcDbLine
 10
-185.153039232238
 20
-208.4896897552447
 30
0.0
 11
-183.0096263578715
 21
-206.6334397552448
 31
0.0
  0
LINE
  5
9D
330
47
100
AcDbEntity
  8
0
  6
Continuous
 62
     2
100
AcDbLine
 10
-184.9365328812919
 20
-208.5521897552447
 30
0.0
 11
-183.0096263578715
 21
-206.8834397552447
 31
0.0
  0
LINE
  5
9E
330
47
100
AcDbEntity
  8
0
  6
Continuous
 62
     7
100
AcDbLine
 10
-176.6226890049615
 20
-171.418130072485
 30
0.0
 11
-176.6226890049616
 21
-169.5128741841593
 31
0.0
  0
LINE
  5
9F
330
47
100
AcDbEntity
  8
0
  6
Continuous
 62
     7
100
AcDbLine
 10
-177.3887057761329
 20
-174.8142600670048
 30
0.0
 11
-177.8455341766291
 21
-173.8911350670046
 31
0.0
  0
LINE
  5
A0
330
47
100
AcDbEntity
  8
0
  6
Continuous
 62
     7
100
AcDbLine
 10
-181.1110519341303
 20
-186.0573308537829
 30
0.0
 11
-181.1110519341303
 21
-193.274197094301
 31
0.0
  0
LINE
  5
A1
330
47
100
AcDbEntity
  8
0
  6
Continuous
 62
     7
100
AcDbLine
 10
-182.186642975266
 20
-175.1443052337424
 30
0.0
 11
-183.7796319660599
 21
-173.4841615450675
 31
0.0
  0
LINE
  5
A2
330
47
100
AcDbEntity
  8
0
  6
Continuous
 62
     7
100
AcDbLine
 10
-182.186642975266
 20
-175.1443052337424
 30
0.0
 11
-182.5705341766295
 21
-175.2551250779653
 31
0.0
  0
LINE
  5
A3
330
47
100
AcDbEntity
  8
0
  6
Continuous
 62
     7
100
AcDbLine
 10
-185.5860519341303
 20
-174.0056300724851
 30
0.0
 11
-185.5860519341303
 21
-184.7655096264678
 31
0.0
  0
LINE
  5
A4
330
47
100
AcDbEntity
  8
0
  6
Continuous
 62
     7
100
AcDbLine
 10
-182.1137057761331
 20
-176.1782500779654
 30
0.0
 11
-178.3570934258781
 21
-172.9249283504742
 31
0.0
  0
LINE
  5
A5
330
47
100
AcDbEntity
  8
0
  6
Continuous
 62
     7
100
AcDbLine
 10
-177.8455341766291
 20
-173.8911350670046
 30
0.0
 11
-178.2294253779927
 21
-174.0019549112281
 31
0.0
  0
LINE
  5
A6
330
47
100
AcDbEntity
  8
0
  6
Continuous
 62
     7
100
AcDbLine
 10
-177.3887057761329
 20
-174.8142600670048
 30
0.0
 11
-182.1137057761331
 21
-176.1782500779654
 31
0.0
  0
LINE
  5
A7
330
47
100
AcDbEntity
  8
0
  6
Continuous
 62
     7
100
AcDbLine
 10
-182.5705341766295
 20
-175.2551250779653
 30
0.0
 11
-182.1137057761331
 21
-176.1782500779654
 31
0.0
  0
LINE
  5
A8
330
47
100
AcDbEntity
  8
0
  6
Continuous
 62
     7
100
AcDbLine
 10
-178.2294253779927
 20
-174.0019549112281
 30
0.0
 11
-178.4724102432215
 21
-171.9520985999027
 31
0.0
  0
LINE
  5
A9
330
47
100
AcDbEntity
  8
0
  6
Continuous
 62
     7
100
AcDbLine
 10
-179.3073677566931
 20
-196.1042769437476
 30
0.0
 11
-178.0949321913951
 21
-195.0542769437478
 31
0.0
  0
LINE
  5
AA
330
47
100
AcDbEntity
  8
0
  6
Continuous
 62
     7
100
AcDbLine
 10
-176.6226890049614
 20
-170.35019301765
 30
0.0
 11
-178.4724102432215
 21
-171.9520985999027
 31
0.0
  0
LINE
  5
AB
330
47
100
AcDbEntity
  8
0
  6
Continuous
 62
     7
100
AcDbLine
 10
-176.9937559363564
 20
-170.6471331390639
 30
0.0
 11
-176.9852989323568
 21
-170.6642224264388
 31
0.0
  0
LINE
  5
AC
330
47
100
AcDbEntity
  8
0
  6
Continuous
 62
     7
100
AcDbLine
 10
-185.5860519341303
 20
-184.7655096264678
 30
0.0
 11
-176.7525928155289
 21
-187.3155096264744
 31
0.0
  0
LINE
  5
AD
330
47
100
AcDbEntity
  8
0
  6
Continuous
 62
     7
100
AcDbLine
 10
-178.0949321913951
 20
-194.1448758669892
 30
0.0
 11
-181.1110519341303
 21
-193.274197094301
 31
0.0
  0
LINE
  5
AE
330
47
100
AcDbEntity
  8
0
  6
Continuous
 62
     7
100
AcDbLine
 10
-181.6456363469112
 20
-207.6835364072974
 30
0.0
 11
-178.3855794899865
 21
-204.8602443514191
 31
0.0
  0
LINE
  5
AF
330
47
100
AcDbEntity
  8
0
  6
Continuous
 62
     2
100
AcDbLine
 10
-181.5353426393602
 20
-205.2130178440769
 30
0.0
 11
-180.3518606649498
 21
-204.1880923893163
 31
0.0
  0
LINE
  5
B0
330
47
100
AcDbEntity
  8
0
  6
Continuous
 62
     7
100
AcDbLine
 10
-180.6228293257171
 20
-201.5269061036112
 30
0.0
 11
-182.2909624654116
 21
-202.9715517794814
 31
0.0
  0
LINE
  5
B1
330
47
100
AcDbEntity
  8
0
  6
Continuous
 62
     2
100
AcDbLine
 10
-181.753889522384
 20
-201.8089918442879
 30
0.0
 11
-181.226831055746
 21
-201.3525458228997
 31
0.0
  0
LINE
  5
B2
330
47
100
AcDbEntity
  8
0
  6
Continuous
 62
     7
100
AcDbLine
 10
-180.757960308032
 20
-208.1129914880542
 30
0.0
 11
-177.7435318931818
 21
-205.5024199029043
 31
0.0
  0
LINE
  5
B3
330
47
100
AcDbEntity
  8
0
  6
Continuous
 62
     7
100
AcDbLine
 10
-180.757960308032
 20
-208.2861965688137
 30
0.0
 11
-177.6079603080297
 21
-205.5582165468908
 31
0.0
  0
LINE
  5
B4
330
47
100
AcDbEntity
  8
0
  6
Continuous
 62
     2
100
AcDbLine
 10
-180.0651399850044
 20
-202.597223823077
 30
0.0
 11
-179.2776399850046
 21
-201.9152288175969
 31
0.0
  0
LINE
  5
B5
330
47
100
AcDbEntity
  8
0
  6
Continuous
 62
     2
100
AcDbLine
 10
-179.0475601355577
 20
-202.890973823077
 30
0.0
 11
-178.5975601355576
 21
-202.5012623913739
 31
0.0
  0
LINE
  5
B6
330
47
100
AcDbEntity
  8
0
  6
Continuous
 62
     2
100
AcDbLine
 10
-180.8867238212622
 20
-206.0839622348376
 30
0.0
 11
-179.0867238212621
 21
-204.5251165080256
 31
0.0
  0
LINE
  5
B7
330
47
100
AcDbEntity
  8
0
  6
Continuous
 62
     7
100
AcDbLine
 10
-180.8445628484104
 20
-206.0961330593502
 30
0.0
 11
-179.0445717180955
 21
-204.5372950139109
 31
0.0
  0
LINE
  5
B8
330
47
100
AcDbEntity
  8
0
  6
Continuous
 62
     7
100
AcDbLine
 10
-180.8445628484106
 20
-206.7019941243111
 30
0.0
 11
-178.5770140750863
 21
-204.738239282292
 31
0.0
  0
LINE
  5
B9
330
47
100
AcDbEntity
  8
0
  6
Continuous
 62
     7
100
AcDbLine
 10
-178.2796319660599
 20
-168.721021824253
 30
0.0
 11
-183.7796319660599
 21
-173.4841615450675
 31
0.0
  0
LINE
  5
BA
330
47
100
AcDbEntity
  8
0
  6
Continuous
 62
     7
100
AcDbLine
 10
-178.2796319660599
 20
-168.721021824253
 30
0.0
 11
-176.686642975266
 21
-170.381165512928
 31
0.0
  0
LINE
  5
BB
330
47
100
AcDbEntity
  8
0
  6
Continuous
 62
     7
100
AcDbLine
 10
-180.0860519341303
 20
-169.2424903516707
 30
0.0
 11
-178.2796319660599
 21
-168.721021824253
 31
0.0
  0
LINE
  5
BC
330
47
100
AcDbEntity
  8
0
  6
Continuous
 62
     7
100
AcDbLine
 10
-168.6184215271082
 20
-169.5398713214683
 30
0.0
 11
-169.3892095583996
 21
-169.6431373367294
 31
0.0
  0
LINE
  5
BD
330
47
100
AcDbEntity
  8
0
  6
Continuous
 62
     7
100
AcDbLine
 10
-169.3892095584008
 20
-169.8000181750317
 30
0.0
 11
-169.3892095583996
 21
-169.6431373367294
 31
0.0
  0
LINE
  5
BE
330
47
100
AcDbEntity
  8
0
  6
Continuous
 62
     7
100
AcDbLine
 10
-171.4698378524439
 20
-208.0526840725591
 30
0.0
 11
-172.1879030430746
 21
-208.6745467692187
 31
0.0
  0
LINE
  5
BF
330
47
100
AcDbEntity
  8
0
  6
Continuous
 62
     2
100
AcDbLine
 10
-171.7296454735792
 20
-208.5974792487825
 30
0.0
 11
-171.4698378524439
 21
-208.3724792487825
 31
0.0
  0
LINE
  5
C0
330
47
100
AcDbEntity
  8
0
  6
Continuous
 62
     7
100
AcDbLine
 10
-155.9039114138138
 20
-195.2681168136685
 30
0.0
 11
-150.9300666122429
 21
-196.7039421312157
 31
0.0
  0
LINE
  5
C1
330
47
100
AcDbEntity
  8
0
  6
Continuous
 62
     7
100
AcDbLine
 10
-156.7474059881141
 20
-193.0905096264793
 30
0.0
 11
-147.9139468695071
 21
-195.640509626475
 31
0.0
  0
LINE
  5
C2
330
47
100
AcDbEntity
  8
0
  6
Continuous
 62
     7
100
AcDbLine
 10
-158.6093606062449
 20
-194.3716508500662
 30
0.0
 11
-156.7474059881141
 21
-193.0905096264793
 31
0.0
  0
LINE
  5
C3
330
47
100
AcDbEntity
  8
0
  6
Continuous
 62
     7
100
AcDbLine
 10
-166.1437816191695
 20
-192.1966508500661
 30
0.0
 11
-158.6093606062449
 21
-194.3716508500662
 31
0.0
  0
LINE
  5
C4
330
47
100
AcDbEntity
  8
0
  6
Continuous
 62
     7
100
AcDbLine
 10
-166.1437816191695
 20
-197.4794058131511
 30
0.0
 11
-166.1437816191695
 21
-192.1966508500661
 31
0.0
  0
LINE
  5
C5
330
47
100
AcDbEntity
  8
0
  6
Continuous
 62
     7
100
AcDbLine
 10
-179.3073677566931
 20
-196.1042769437476
 30
0.0
 11
-178.0949321913951
 21
-196.4542769437475
 31
0.0
  0
LINE
  5
C6
330
47
100
AcDbEntity
  8
0
  6
Continuous
 62
     7
100
AcDbLine
 10
-155.9039114138138
 20
-193.3340055362449
 30
0.0
 11
-155.9039114138138
 21
-197.0434688914266
 31
0.0
  0
LINE
  5
C7
330
47
100
AcDbEntity
  8
0
  6
Continuous
 62
     7
100
AcDbLine
 10
-147.9139468695071
 20
-195.640509626475
 30
0.0
 11
-147.9139468695072
 21
-184.880630072485
 31
0.0
  0
LINE
  5
C8
330
47
100
AcDbEntity
  8
0
  6
Continuous
 62
     7
100
AcDbLine
 10
-151.3133558283719
 20
-184.0566555562562
 30
0.0
 11
-149.7203668375774
 21
-183.3162244902325
 31
0.0
  0
LINE
  5
C9
330
47
100
AcDbEntity
  8
0
  6
Continuous
 62
     7
100
AcDbLine
 10
-150.9294646270083
 20
-184.3891150889263
 30
0.0
 11
-151.3133558283719
 21
-184.0566555562562
 31
0.0
  0
LINE
  5
CA
330
47
100
AcDbEntity
  8
0
  6
Continuous
 62
     7
100
AcDbLine
 10
-151.3862930275047
 20
-185.048490088926
 30
0.0
 11
-150.9294646270083
 21
-184.3891150889263
 31
0.0
  0
LINE
  5
CB
330
47
100
AcDbEntity
  8
0
  6
Continuous
 62
     7
100
AcDbLine
 10
-149.7203668375774
 20
-183.3162244902325
 30
0.0
 11
-147.9139468695072
 21
-184.880630072485
 31
0.0
  0
LINE
  5
CC
330
47
100
AcDbEntity
  8
0
  6
Continuous
 62
     7
100
AcDbLine
 10
-154.1926310469444
 20
-203.3542769437476
 30
0.0
 11
-149.7176310469444
 21
-199.4788132618122
 31
0.0
  0
LINE
  5
CD
330
47
100
AcDbEntity
  8
0
  6
Continuous
 62
     7
100
AcDbLine
 10
-181.0870217957686
 20
-201.3929052798412
 30
0.0
 11
-181.8595753889223
 21
-202.0619563172972
 31
0.0
  0
LINE
  5
CE
330
47
100
AcDbEntity
  8
0
  6
Continuous
 62
     7
100
AcDbLine
 10
-181.753889522384
 20
-201.2003971491036
 30
0.0
 11
-179.0475601355577
 21
-201.9816471491032
 31
0.0
  0
LINE
  5
CF
330
47
100
AcDbEntity
  8
0
  6
Continuous
 62
     7
100
AcDbLine
 10
-181.753889522384
 20
-201.8089918442879
 30
0.0
 11
-181.753889522384
 21
-201.2003971491036
 31
0.0
  0
LINE
  5
D0
330
47
100
AcDbEntity
  8
0
  6
Continuous
 62
     7
100
AcDbLine
 10
-155.4050666122429
 20
-200.579405813151
 30
0.0
 11
-155.4050666122429
 21
-203.0042769437475
 31
0.0
  0
LINE
  5
D1
330
47
100
AcDbEntity
  8
0
  6
Continuous
 62
     7
100
AcDbLine
 10
-143.438946869507
 20
-204.1491970943011
 30
0.0
 11
-149.7176310469444
 21
-202.336697094301
 31
0.0
  0
LINE
  5
D2
330
47
100
AcDbEntity
  8
0
  6
Continuous
 62
     7
100
AcDbLine
 10
-143.438946869507
 20
-204.1491970943011
 30
0.0
 11
-147.913946869507
 21
-208.0246607762364
 31
0.0
  0
LINE
  5
D3
330
47
100
AcDbEntity
  8
0
  6
Continuous
 62
     7
100
AcDbLine
 10
-149.7176310469444
 20
-199.4788132618122
 30
0.0
 11
-149.7176310469444
 21
-202.336697094301
 31
0.0
  0
LINE
  5
D4
330
47
100
AcDbEntity
  8
0
  6
Continuous
 62
     7
100
AcDbLine
 10
-155.4050666122429
 20
-203.0042769437475
 30
0.0
 11
-150.9300666122429
 21
-199.1288132618121
 31
0.0
  0
LINE
  5
D5
330
47
100
AcDbEntity
  8
0
  6
Continuous
 62
     7
100
AcDbLine
 10
-150.9300666122429
 20
-199.1288132618121
 30
0.0
 11
-149.7176310469444
 21
-199.4788132618122
 31
0.0
  0
LINE
  5
D6
330
47
100
AcDbEntity
  8
0
  6
Continuous
 62
     7
100
AcDbLine
 10
-156.877309798676
 20
-211.5204541060147
 30
0.0
 11
-155.8164286790401
 21
-216.6120295937309
 31
0.0
  0
LINE
  5
D7
330
47
100
AcDbEntity
  8
0
  6
Continuous
 62
     7
100
AcDbLine
 10
-158.111395999069
 20
-218.894015966598
 30
0.0
 11
-158.111395999069
 21
-217.4650740503536
 31
0.0
  0
LINE
  5
D8
330
47
100
AcDbEntity
  8
0
  6
Continuous
 62
     7
100
AcDbLine
 10
-158.111395999069
 20
-217.4650740503536
 30
0.0
 11
-158.665652257491
 21
-217.3050740503536
 31
0.0
  0
LINE
  5
D9
330
47
100
AcDbEntity
  8
0
  6
Continuous
 62
     7
100
AcDbLine
 10
-171.4698378524438
 20
-208.4126716276471
 30
0.0
 11
-171.4698378524439
 21
-206.3775119287537
 31
0.0
  0
LINE
  5
DA
330
47
100
AcDbEntity
  8
0
  6
Continuous
 62
     7
100
AcDbLine
 10
-171.9028505543361
 20
-205.8194992268614
 30
0.0
 11
-172.0003804284269
 21
-205.7913447773312
 31
0.0
  0
LINE
  5
DB
330
47
100
AcDbEntity
  8
0
  6
Continuous
 62
     7
100
AcDbLine
 10
-172.4186385802958
 20
-205.9915448169164
 30
0.0
 11
-172.7039240528367
 21
-206.9738898729165
 31
0.0
  0
LINE
  5
DC
330
47
100
AcDbEntity
  8
0
  6
Continuous
 62
     7
100
AcDbLine
 10
-177.7268713947864
 20
-205.5238898729164
 30
0.0
 11
-172.7039240528367
 21
-206.9738898729165
 31
0.0
  0
LINE
  5
DD
330
47
100
AcDbEntity
  8
0
  6
Continuous
 62
     7
100
AcDbLine
 10
-180.0651399850044
 20
-204.2426720902675
 30
0.0
 11
-179.0505281126499
 21
-204.5355653090809
 31
0.0
  0
LINE
  5
DE
330
47
100
AcDbEntity
  8
0
  6
Continuous
 62
     7
100
AcDbLine
 10
-179.0475601355577
 20
-202.890973823077
 30
0.0
 11
-180.0651399850044
 21
-202.597223823077
 31
0.0
  0
LINE
  5
DF
330
47
100
AcDbEntity
  8
0
  6
Continuous
 62
     7
100
AcDbLine
 10
-156.552550272257
 20
-216.8325422956231
 30
0.0
 11
-156.552550272257
 21
-218.1315804012997
 31
0.0
  0
LINE
  5
E0
330
47
100
AcDbEntity
  8
0
  6
Continuous
 62
     7
100
AcDbLine
 10
-155.8164286790401
 20
-217.0450422956231
 30
0.0
 11
-156.552550272257
 21
-216.8325422956231
 31
0.0
  0
LINE
  5
E1
330
47
100
AcDbEntity
  8
0
  6
Continuous
 62
     7
100
AcDbLine
 10
-155.8164286790401
 20
-216.6120295937309
 30
0.0
 11
-155.8164286790401
 21
-217.0450422956231
 31
0.0
  0
LINE
  5
E2
330
47
100
AcDbEntity
  8
0
  6
Continuous
 62
     7
100
AcDbLine
 10
-156.552550272257
 20
-218.1315804012997
 30
0.0
 11
-155.5566210579049
 21
-218.5273335767728
 31
0.0
  0
LINE
  5
E3
330
47
100
AcDbEntity
  8
0
  6
Continuous
 62
     7
100
AcDbLine
 10
-155.5782716929995
 20
-212.1184521423062
 30
0.0
 11
-155.5782716929995
 21
-210.9650119287536
 31
0.0
  0
LINE
  5
E4
330
47
100
AcDbEntity
  8
0
  6
Continuous
 62
     7
100
AcDbLine
 10
-156.0112843948917
 20
-210.4069992268614
 30
0.0
 11
-156.4442970967839
 21
-210.2819992268614
 31
0.0
  0
LINE
  5
E5
330
47
100
AcDbEntity
  8
0
  6
Continuous
 62
     7
100
AcDbLine
 10
-155.7638050518871
 20
-210.5561307080608
 30
0.0
 11
-156.877309798676
 21
-211.5204541060147
 31
0.0
  0
LINE
  5
E6
330
47
100
AcDbEntity
  8
0
  6
Continuous
 62
     7
100
AcDbLine
 10
-156.877309798676
 20
-210.5900119287536
 30
0.0
 11
-156.877309798676
 21
-211.5204541060147
 31
0.0
  0
LINE
  5
E7
330
47
100
AcDbEntity
  8
0
  6
Continuous
 62
     2
100
AcDbLine
 10
-156.877309798676
 20
-210.5900119287536
 30
0.0
 11
-156.5061560541971
 21
-210.268583357325
 31
0.0
  0
LINE
  5
E8
330
47
100
AcDbEntity
  8
0
  6
Continuous
 62
     7
100
AcDbLine
 10
-155.5566210579049
 20
-219.631515966598
 30
0.0
 11
-158.111395999069
 21
-218.894015966598
 31
0.0
  0
LINE
  5
E9
330
47
100
AcDbEntity
  8
0
  6
Continuous
 62
     7
100
AcDbLine
 10
-155.5566210579049
 20
-218.5273335767728
 30
0.0
 11
-155.5566210579049
 21
-219.631515966598
 31
0.0
  0
LINE
  5
EA
330
47
100
AcDbEntity
  8
0
  6
Continuous
 62
     7
100
AcDbLine
 10
-147.9139468695068
 20
-218.8066770533526
 30
0.0
 11
-147.913946869507
 21
-208.0246607762364
 31
0.0
  0
LINE
  5
EB
330
47
100
AcDbEntity
  8
0
  6
Continuous
 62
     7
100
AcDbLine
 10
-154.1926310469444
 20
-206.2121607762364
 30
0.0
 11
-147.913946869507
 21
-208.0246607762364
 31
0.0
  0
LINE
  5
EC
330
47
100
AcDbEntity
  8
0
  6
Continuous
 62
     7
100
AcDbLine
 10
-154.1926310469444
 20
-206.2121607762364
 30
0.0
 11
-149.7176310469444
 21
-202.336697094301
 31
0.0
  0
LINE
  5
ED
330
47
100
AcDbEntity
  8
0
  6
Continuous
 62
     7
100
AcDbLine
 10
-147.9139468695068
 20
-218.8066770533526
 30
0.0
 11
-151.4646510250233
 21
-217.7816770533525
 31
0.0
  0
LINE
  5
EE
330
47
100
AcDbEntity
  8
0
  6
Continuous
 62
     7
100
AcDbLine
 10
-155.5566210579049
 20
-218.5273335767728
 30
0.0
 11
-151.7878710579051
 21
-215.2635003362604
 31
0.0
  0
LINE
  5
EF
330
47
100
AcDbEntity
  8
0
  6
Continuous
 62
     7
100
AcDbLine
 10
-152.2507978962858
 20
-216.7685891282169
 30
0.0
 11
-155.5566210579049
 21
-219.631515966598
 31
0.0
  0
LINE
  5
F0
330
47
100
AcDbEntity
  8
0
  6
Continuous
 62
     7
100
AcDbLine
 10
-152.2873751586187
 20
-216.3317414880546
 30
0.0
 11
-151.5945548355909
 21
-215.7317414880545
 31
0.0
  0
LINE
  5
F1
330
47
100
AcDbEntity
  8
0
  6
Continuous
 62
     7
100
AcDbLine
 10
-156.552550272257
 20
-218.1315804012997
 30
0.0
 11
-152.8775502722572
 21
-214.9489370423922
 31
0.0
  0
LINE
  5
F2
330
47
100
AcDbEntity
  8
0
  6
Continuous
 62
     7
100
AcDbLine
 10
-155.8164286790401
 20
-216.6120295937309
 30
0.0
 11
-153.6414286790405
 21
-214.7284243404999
 31
0.0
  0
LINE
  5
F3
330
47
100
AcDbEntity
  8
0
  6
Continuous
 62
     7
100
AcDbLine
 10
-155.8164286790401
 20
-217.0450422956231
 30
0.0
 11
-153.2664286790404
 21
-214.836677515973
 31
0.0
  0
LINE
  5
F4
330
47
100
AcDbEntity
  8
0
  6
Continuous
 62
     7
100
AcDbLine
 10
-151.377309798676
 20
-170.449734463345
 30
0.0
 11
-156.877309798676
 21
-175.2128741841594
 31
0.0
  0
LINE
  5
F5
330
47
100
AcDbEntity
  8
0
  6
Continuous
 62
     7
100
AcDbLine
 10
-156.877309798676
 20
-177.118130072485
 30
0.0
 11
-151.377309798676
 21
-172.3549903516706
 31
0.0
  0
LINE
  5
F6
330
47
100
AcDbEntity
  8
0
  6
Continuous
 62
     7
100
AcDbLine
 10
-149.5275885604162
 20
-173.9568959339235
 30
0.0
 11
-155.0275885604162
 21
-178.7200356547379
 31
0.0
  0
LINE
  5
F7
330
47
100
AcDbEntity
  8
0
  6
Continuous
 62
     7
100
AcDbLine
 10
-151.3133558283719
 20
-184.0566555562562
 30
0.0
 11
-145.8133558283719
 21
-179.2935158354418
 31
0.0
  0
LINE
  5
F8
330
47
100
AcDbEntity
  8
0
  6
Continuous
 62
     7
100
AcDbLine
 10
-144.2203668375774
 20
-178.5530847694181
 30
0.0
 11
-149.7203668375774
 21
-183.3162244902325
 31
0.0
  0
LINE
  5
F9
330
47
100
AcDbEntity
  8
0
  6
Continuous
 62
     7
100
AcDbLine
 10
-144.2203668375774
 20
-178.5530847694181
 30
0.0
 11
-142.4139468695072
 21
-180.1174903516706
 31
0.0
  0
LINE
  5
FA
330
47
100
AcDbEntity
  8
0
  6
Continuous
 62
     7
100
AcDbLine
 10
-142.4139468695072
 20
-180.1174903516706
 30
0.0
 11
-147.9139468695072
 21
-184.880630072485
 31
0.0
  0
LINE
  5
FB
330
47
100
AcDbEntity
  8
0
  6
Continuous
 62
     7
100
AcDbLine
 10
-142.4139468695068
 20
-214.0435373325382
 30
0.0
 11
-147.9139468695068
 21
-218.8066770533526
 31
0.0
  0
LINE
  5
FC
330
47
100
AcDbEntity
  8
0
  6
Continuous
 62
     7
100
AcDbLine
 10
-142.4139468695068
 20
-214.0435373325382
 30
0.0
 11
-142.4139468695072
 21
-180.1174903516706
 31
0.0
  0
LINE
  5
FD
330
47
100
AcDbEntity
  8
0
  6
Continuous
 62
     7
100
AcDbLine
 10
-143.4389468695071
 20
-191.7650459445397
 30
0.0
 11
-147.9139468695071
 21
-195.640509626475
 31
0.0
  0
LINE
  5
FE
330
47
100
AcDbEntity
  8
0
  6
Continuous
 62
     7
100
AcDbLine
 10
-145.8133558283719
 20
-179.2935158354418
 30
0.0
 11
-144.2203668375774
 21
-178.5530847694181
 31
0.0
  0
LINE
  5
FF
330
47
100
AcDbEntity
  8
0
  6
Continuous
 62
     7
100
AcDbLine
 10
-150.3796779596403
 20
-176.3939648679
 30
0.0
 11
-146.4224603623667
 21
-179.8210158354417
 31
0.0
  0
LINE
  5
100
330
47
100
AcDbEntity
  8
0
  6
Continuous
 62
     7
100
AcDbLine
 10
-149.5275885604162
 20
-173.9568959339235
 30
0.0
 11
-149.7705734256448
 21
-175.8664648678996
 31
0.0
  0
LINE
  5
101
330
47
100
AcDbEntity
  8
0
  6
Continuous
 62
     7
100
AcDbLine
 10
-151.377309798676
 20
-172.3549903516706
 30
0.0
 11
-149.5275885604162
 21
-173.9568959339235
 31
0.0
  0
LINE
  5
102
330
47
100
AcDbEntity
  8
0
  6
Continuous
 62
     7
100
AcDbLine
 10
-155.8012457524077
 20
-173.2398712633581
 30
0.0
 11
-156.5720337836938
 21
-173.3431372786175
 31
0.0
  0
LINE
  5
103
330
47
100
AcDbEntity
  8
0
  6
Continuous
 62
     7
100
AcDbLine
 10
-149.7705734256448
 20
-175.8664648678996
 30
0.0
 11
-155.2705734256448
 21
-180.629604588714
 31
0.0
  0
LINE
  5
104
330
47
100
AcDbEntity
  8
0
  6
Continuous
 62
     7
100
AcDbLine
 10
-156.1112930275046
 20
-180.9565200560446
 30
0.0
 11
-155.5021884935094
 21
-180.4290200560445
 31
0.0
  0
LINE
  5
105
330
47
100
AcDbEntity
  8
0
  6
Continuous
 62
     7
100
AcDbLine
 10
-156.5720337836938
 20
-173.5000181169206
 30
0.0
 11
-156.5720337836938
 21
-173.3431372786175
 31
0.0
  0
LINE
  5
106
330
47
100
AcDbEntity
  8
0
  6
Continuous
 62
     7
100
AcDbLine
 10
-151.377309798676
 20
-170.449734463345
 30
0.0
 11
-151.377309798676
 21
-172.3549903516706
 31
0.0
  0
LINE
  5
107
330
47
100
AcDbEntity
  8
0
  6
Continuous
 62
     7
100
AcDbLine
 10
-183.7796319660599
 20
-173.4841615450675
 30
0.0
 11
-185.5860519341303
 21
-174.0056300724851
 31
0.0
  0
LINE
  5
108
330
47
100
AcDbEntity
  8
0
  6
Continuous
 62
     7
100
AcDbLine
 10
-178.4724102432215
 20
-171.9520985999027
 30
0.0
 11
-176.6226890049615
 21
-171.418130072485
 31
0.0
  0
LINE
  5
109
330
47
100
AcDbEntity
  8
0
  6
Continuous
 62
     7
100
AcDbLine
 10
-185.5860519341302
 20
-210.962765966598
 30
0.0
 11
-182.3121152948574
 21
-211.907870066595
 31
0.0
  0
LINE
  5
10A
330
47
100
AcDbEntity
  8
0
  6
Continuous
 62
     7
100
AcDbLine
 10
-184.6767252601566
 20
-210.3159392926244
 30
0.0
 11
-183.0096263578715
 21
-210.7971892926244
 31
0.0
  0
LINE
  5
10B
330
47
100
AcDbEntity
  8
0
  6
Continuous
 62
     7
100
AcDbLine
 10
-183.0096263578715
 20
-210.7971892926244
 30
0.0
 11
-183.0096263578716
 21
-204.6917101959442
 31
0.0
  0
LINE
  5
10C
330
47
100
AcDbEntity
  8
0
  6
Continuous
 62
     7
100
AcDbLine
 10
-184.0054268837683
 20
-201.0267482703416
 30
0.0
 11
-182.7238379746232
 21
-202.6783000303294
 31
0.0
  0
LINE
  5
10D
330
47
100
AcDbEntity
  8
0
  6
Continuous
 62
     7
100
AcDbLine
 10
-184.6767252601566
 20
-209.4066126186507
 30
0.0
 11
-184.6767252601566
 21
-210.3159392926244
 31
0.0
  0
LINE
  5
10E
330
47
100
AcDbEntity
  8
0
  6
Continuous
 62
     7
100
AcDbLine
 10
-176.8121152948574
 20
-207.1447303457806
 30
0.0
 11
-182.3121152948574
 21
-211.907870066595
 31
0.0
  0
LINE
  5
10F
330
47
100
AcDbEntity
  8
0
  6
Continuous
 62
     7
100
AcDbLine
 10
-181.8807160064284
 20
-202.0785664097842
 30
0.0
 11
-182.7238379746232
 21
-202.6783000303294
 31
0.0
  0
LINE
  5
110
330
47
100
AcDbEntity
  8
0
  6
Continuous
 62
     7
100
AcDbLine
 10
-180.757960308032
 20
-208.1129914880542
 30
0.0
 11
-180.757960308032
 21
-208.2861965688137
 31
0.0
  0
LINE
  5
111
330
47
100
AcDbEntity
  8
0
  6
Continuous
 62
     7
100
AcDbLine
 10
-180.757960308032
 20
-208.1129914880542
 30
0.0
 11
-181.6456363469112
 21
-207.6835364072974
 31
0.0
  0
LINE
  5
112
330
47
100
AcDbEntity
  8
0
  6
Continuous
 62
     7
100
AcDbLine
 10
-181.6456363469112
 20
-207.6835364072974
 30
0.0
 11
-181.7322388872895
 21
-206.6193059227563
 31
0.0
  0
LINE
  5
113
330
47
100
AcDbEntity
  8
0
  6
Continuous
 62
     7
100
AcDbLine
 10
-181.7322388872895
 20
-206.6193059227563
 30
0.0
 11
-180.8445628484106
 21
-206.7019941243111
 31
0.0
  0
LINE
  5
114
330
47
100
AcDbEntity
  8
0
  6
Continuous
 62
     7
100
AcDbLine
 10
-180.8445628484106
 20
-206.7019941243111
 30
0.0
 11
-180.8445628484104
 21
-206.0961330593502
 31
0.0
  0
LINE
  5
115
330
47
100
AcDbEntity
  8
0
  6
Continuous
 62
     7
100
AcDbLine
 10
-180.8445628484104
 20
-206.0961330593502
 30
0.0
 11
-180.8867238212622
 21
-206.0839622348376
 31
0.0
  0
LINE
  5
116
330
47
100
AcDbEntity
  8
0
  6
Continuous
 62
     7
100
AcDbLine
 10
-155.1236083560125
 20
-214.3005559227563
 30
0.0
 11
-155.5782716929995
 21
-212.1184521423062
 31
0.0
  0
LINE
  5
117
330
47
100
AcDbEntity
  8
0
  6
Continuous
 62
     7
100
AcDbLine
 10
-172.7039240528367
 20
-206.9738898729165
 30
0.0
 11
-171.6059523079871
 21
-206.0230184492393
 31
0.0
  0
LINE
  5
118
330
47
100
AcDbEntity
  8
0
  6
Continuous
 62
     2
100
AcDbLine
 10
-172.4186385802958
 20
-205.9915448169164
 30
0.0
 11
-172.1710540408807
 21
-205.7771303161985
 31
0.0
  0
LINE
  5
119
330
47
100
AcDbEntity
  8
0
  6
Continuous
 62
     2
100
AcDbLine
 10
-170.7795437188062
 20
-211.2583262372994
 30
0.0
 11
-169.757819762517
 21
-210.3734873354979
 31
0.0
  0
LINE
  5
11A
330
47
100
AcDbEntity
  8
0
  6
Continuous
 62
     7
100
AcDbLine
 10
-169.5815078585035
 20
-210.3946229977265
 30
0.0
 11
-170.861566222647
 21
-211.5031860594015
 31
0.0
  0
LINE
  5
11B
330
47
100
AcDbEntity
  8
0
  6
Continuous
 62
     7
100
AcDbLine
 10
-154.1926310469444
 20
-206.2121607762364
 30
0.0
 11
-154.1926310469444
 21
-203.3542769437476
 31
0.0
  0
LINE
  5
11C
330
47
100
AcDbEntity
  8
0
  6
Continuous
 62
     7
100
AcDbLine
 10
-155.4050666122429
 20
-203.0042769437475
 30
0.0
 11
-154.1926310469444
 21
-203.3542769437476
 31
0.0
  0
LINE
  5
11D
330
47
100
AcDbEntity
  8
0
  6
Continuous
 62
     7
100
AcDbLine
 10
-151.5945548355909
 20
-215.3193059227563
 30
0.0
 11
-155.1236083560125
 21
-214.3005559227563
 31
0.0
  0
LINE
  5
11E
330
47
100
AcDbEntity
  8
0
  6
Continuous
 62
     7
100
AcDbLine
 10
-151.5945548355909
 20
-216.3585364072975
 30
0.0
 11
-151.5945548355909
 21
-215.3193059227563
 31
0.0
  0
LINE
  5
11F
330
47
100
AcDbEntity
  8
0
  6
Continuous
 62
     7
100
AcDbLine
 10
-152.2873751586187
 20
-216.3317414880546
 30
0.0
 11
-151.5945548355909
 21
-216.3585364072975
 31
0.0
  0
LINE
  5
120
330
47
100
AcDbEntity
  8
0
  6
Continuous
 62
     7
100
AcDbLine
 10
-152.2873751586185
 20
-216.721452919757
 30
0.0
 11
-152.2873751586187
 21
-216.3317414880546
 31
0.0
  0
LINE
  5
121
330
47
100
AcDbEntity
  8
0
  6
Continuous
 62
     7
100
AcDbLine
 10
-151.4646510250233
 20
-217.7816770533525
 30
0.0
 11
-152.2873751586185
 21
-216.721452919757
 31
0.0
  0
LINE
  5
122
330
47
100
AcDbEntity
  8
0
  6
Continuous
 62
     7
100
AcDbLine
 10
-167.3562171844679
 20
-197.1294058131511
 30
0.0
 11
-178.0949321913951
 21
-194.029405813151
 31
0.0
  0
LINE
  5
123
330
47
100
AcDbEntity
  8
0
  6
Continuous
 62
     7
100
AcDbLine
 10
-185.5860519341303
 20
-200.5704611211847
 30
0.0
 11
-184.0054268837683
 21
-201.0267482703416
 31
0.0
  0
LINE
  5
124
330
47
100
AcDbEntity
  8
0
  6
Continuous
 62
     7
100
AcDbLine
 10
-150.9300666122429
 20
-196.7039421312157
 30
0.0
 11
-155.4050666122429
 21
-200.579405813151
 31
0.0
  0
LINE
  5
125
330
47
100
AcDbEntity
  8
0
  6
Continuous
 62
     7
100
AcDbLine
 10
-150.9300666122429
 20
-196.7039421312157
 30
0.0
 11
-150.9300666122429
 21
-199.1288132618121
 31
0.0
  0
LINE
  5
126
330
47
100
AcDbEntity
  8
0
  6
Continuous
 62
     7
100
AcDbLine
 10
-155.4050666122429
 20
-200.579405813151
 30
0.0
 11
-166.1437816191695
 21
-197.4794058131511
 31
0.0
  0
LINE
  5
127
330
47
100
AcDbEntity
  8
0
  6
Continuous
 62
     7
100
AcDbLine
 10
-185.5860519341303
 20
-197.1496607762364
 30
0.0
 11
-179.3073677566931
 21
-198.9621607762364
 31
0.0
  0
LINE
  5
128
330
47
100
AcDbEntity
  8
0
  6
Continuous
 62
     7
100
AcDbLine
 10
-143.438946869507
 20
-204.1491970943011
 30
0.0
 11
-143.4389468695071
 21
-191.7650459445397
 31
0.0
  0
LINE
  5
129
330
47
100
AcDbEntity
  8
0
  6
Continuous
 62
     7
100
AcDbLine
 10
-151.377309798676
 20
-170.449734463345
 30
0.0
 11
-171.1226890049616
 21
-164.7497344633449
 31
0.0
  0
LINE
  5
12A
330
47
100
AcDbEntity
  8
0
  6
Continuous
 62
     7
100
AcDbLine
 10
-174.8906381973927
 20
-189.671650850066
 30
0.0
 11
-167.3562171844679
 21
-191.8466508500661
 31
0.0
  0
LINE
  5
12B
330
47
100
AcDbEntity
  8
0
  6
Continuous
 62
     7
100
AcDbLine
 10
-176.7525928155289
 20
-187.3155096264744
 30
0.0
 11
-174.8906381973927
 21
-189.671650850066
 31
0.0
  0
LINE
  5
12C
330
47
100
AcDbEntity
  8
0
  6
Continuous
 62
     7
100
AcDbLine
 10
-155.6544646270083
 20
-180.2971450560447
 30
0.0
 11
-156.1112930275046
 21
-180.9565200560446
 31
0.0
  0
LINE
  5
12D
330
47
100
AcDbEntity
  8
0
  6
Continuous
 62
     7
100
AcDbLine
 10
-151.3862930275047
 20
-185.048490088926
 30
0.0
 11
-156.1112930275046
 21
-180.9565200560446
 31
0.0
  0
LINE
  5
12E
330
47
100
AcDbEntity
  8
0
  6
Continuous
 62
     7
100
AcDbLine
 10
-179.3073677566931
 20
-198.9621607762364
 30
0.0
 11
-179.3073677566931
 21
-196.1042769437476
 31
0.0
  0
LINE
  5
12F
330
47
100
AcDbEntity
  8
0
  6
Continuous
 62
     7
100
AcDbLine
 10
-167.3562171844679
 20
-191.8466508500661
 30
0.0
 11
-167.3562171844679
 21
-197.1294058131511
 31
0.0
  0
LINE
  5
130
330
47
100
AcDbEntity
  8
0
  6
Continuous
 62
     7
100
AcDbLine
 10
-161.6687816191696
 20
-193.6039421312158
 30
0.0
 11
-161.6687816191696
 21
-193.4884720773779
 31
0.0
  0
LINE
  5
131
330
47
100
AcDbEntity
  8
0
  6
Continuous
 62
     7
100
AcDbLine
 10
-155.2705734256448
 20
-180.629604588714
 30
0.0
 11
-155.6544646270083
 21
-180.2971450560447
 31
0.0
  0
LINE
  5
132
330
47
100
AcDbEntity
  8
0
  6
Continuous
 62
     7
100
AcDbLine
 10
-155.0275885604162
 20
-178.7200356547379
 30
0.0
 11
-155.2705734256448
 21
-180.629604588714
 31
0.0
  0
LINE
  5
133
330
47
100
AcDbEntity
  8
0
  6
Continuous
 62
     7
100
AcDbLine
 10
-156.877309798676
 20
-177.118130072485
 30
0.0
 11
-155.0275885604162
 21
-178.7200356547379
 31
0.0
  0
LINE
  5
134
330
47
100
AcDbEntity
  8
0
  6
Continuous
 62
     7
100
AcDbLine
 10
-171.1226890049616
 20
-164.7497344633449
 30
0.0
 11
-176.6226890049616
 21
-169.5128741841593
 31
0.0
  0
SPLINE
  5
135
330
47
100
AcDbEntity
  8
0
  6
Continuous
 62
     7
100
AcDbSpline
210
0.0
220
0.0
230
1.0
 70
     8
 71
     3
 72
    19
 73
    15
 74
    13
 42
0.000000001
 43
0.0000000001
 44
0.00000001
 40
0.0
 40
0.0
 40
0.0
 40
0.0
 40
0.2676406686770415
 40
0.5808314346120026
 40
0.9601912858928225
 40
1.403844025770168
 40
1.896442433304704
 40
2.415200681653694
 40
2.933958930002739
 40
3.426557337537368
 40
3.870210077414761
 40
4.249569928695605
 40
4.56276069463057
 40
4.830401363307661
 40
4.830401363307661
 40
4.830401363307661
 40
4.830401363307661
 10
-168.7210873898239
 20
-193.3434688914265
 30
0.0
 10
-168.736326936239
 20
-193.4330831541519
 30
0.0
 10
-168.7693996846276
 20
-193.6275632346365
 30
0.0
 10
-168.9987106456127
 20
-193.8710210964608
 30
0.0
 10
-169.3192184408087
 20
-194.0726691270442
 30
0.0
 10
-169.7339113877801
 20
-194.2257801495779
 30
0.0
 10
-170.2105673259877
 20
-194.3218236586918
 30
0.0
 10
-170.7210873898238
 20
-194.3545714616765
 30
0.0
 10
-171.2316074536597
 20
-194.3218236586918
 30
0.0
 10
-171.7082633918675
 20
-194.225780149578
 30
0.0
 10
-172.1229563388389
 20
-194.0726691270442
 30
0.0
 10
-172.443464134035
 20
-193.871021096461
 30
0.0
 10
-172.6727750950201
 20
-193.6275632346363
 30
0.0
 10
-172.7058478434086
 20
-193.4330831541519
 30
0.0
 10
-172.7210873898238
 20
-193.3434688914265
 30
0.0
 11
-168.7210873898239
 21
-193.3434688914265
 31
0.0
 11
-168.7892362522885
 21
-193.6022878675263
 31
0.0
 11
-168.9890365822549
 21
-193.8434688914265
 31
0.0
 11
-169.3068742044882
 21
-194.0505754840943
 31
0.0
 11
-169.7210873898238
 21
-194.2094942952109
 31
0.0
 11
-170.203449437624
 21
-194.3093944601942
 31
0.0
 11
-170.7210873898237
 21
-194.3434688914265
 31
0.0
 11
-171.2387253420235
 21
-194.3093944601942
 31
0.0
 11
-171.7210873898238
 21
-194.209494295211
 31
0.0
 11
-172.1353005751594
 21
-194.0505754840944
 31
0.0
 11
-172.4531381973927
 21
-193.8434688914265
 31
0.0
 11
-172.6529385273591
 21
-193.6022878675264
 31
0.0
 11
-172.7210873898238
 21
-193.3434688914265
 31
0.0
  0
SPLINE
  5
136
330
47
100
AcDbEntity
  8
0
  6
Continuous
 62
     7
100
AcDbSpline
210
0.0
220
0.0
230
1.0
 70
     8
 71
     3
 72
     9
 73
     5
 74
     3
 42
0.000000001
 43
0.0000000001
 44
0.00000001
 40
0.0
 40
0.0
 40
0.0
 40
0.0
 40
0.4148430409972235
 40
0.9002887316768348
 40
0.9002887316768348
 40
0.9002887316768348
 40
0.9002887316768348
 10
-161.0014115144652
 20
-172.0997721698698
 30
0.0
 10
-160.9784136145185
 20
-171.9597739863971
 30
0.0
 10
-160.9285037554216
 20
-171.6559511622514
 30
0.0
 10
-160.7060433812943
 20
-171.4407896455729
 30
0.0
 10
-160.586090266197
 20
-171.3247721698698
 30
0.0
 11
-161.0014115144652
 21
-172.0997721698698
 31
0.0
 11
-160.895780777645
 21
-171.698602756915
 31
0.0
 11
-160.586090266197
 21
-171.3247721698698
 31
0.0
  0
SPLINE
  5
137
330
47
100
AcDbEntity
  8
0
  6
Continuous
 62
     7
100
AcDbSpline
210
0.0
220
0.0
230
1.0
 70
     8
 71
     3
 72
    15
 73
    11
 74
     9
 42
0.000000001
 43
0.0000000001
 44
0.00000001
 40
0.0
 40
0.0
 40
0.0
 40
0.0
 40
0.1075605161160505
 40
0.2212191566791686
 40
0.3444594698632298
 40
0.4773441629483935
 40
0.6171468747721888
 40
0.759444732308258
 40
0.8992538434251655
 40
1.03215005440082
 40
1.03215005440082
 40
1.03215005440082
 40
1.03215005440082
 10
-184.6092060459379
 20
-209.3631669301462
 30
0.0
 10
-184.584676496994
 20
-209.3364453183763
 30
0.0
 10
-184.534226711651
 20
-209.2814871095347
 30
0.0
 10
-184.5017134894309
 20
-209.1676046536011
 30
0.0
 10
-184.5027304820944
 20
-209.0432976911192
 30
0.0
 10
-184.5387680730605
 20
-208.9148076591471
 30
0.0
 10
-184.6056146239125
 20
-208.792389990903
 30
0.0
 10
-184.6985459339158
 20
-208.6858342407173
 30
0.0
 10
-184.809379481052
 20
-208.5999883279157
 30
0.0
 10
-184.8948707954596
 20
-208.5678510555214
 30
0.0
 10
-184.9365328812919
 20
-208.5521897552447
 30
0.0
 11
-184.6092060459379
 21
-209.3631669301462
 31
0.0
 11
-184.5426077429162
 21
-209.278704324236
 31
0.0
 11
-184.5079149718853
 21
-209.1704698584016
 31
0.0
 11
-184.5079383743885
 21
-209.0472295444416
 31
0.0
 11
-184.5426753161381
 21
-208.9189654149756
 31
0.0
 11
-184.6093129957699
 21
-208.7960661958402
 31
0.0
 11
-184.7024534890292
 21
-208.688485859527
 31
0.0
 11
-184.8145533879135
 21
-208.6049382681528
 31
0.0
 11
-184.9365328812919
 21
-208.5521897552447
 31
0.0
  0
SPLINE
  5
138
330
47
100
AcDbEntity
  8
0
  6
Continuous
 62
     7
100
AcDbSpline
210
0.0
220
0.0
230
1.0
 70
     8
 71
     3
 72
    11
 73
     7
 74
     5
 42
0.000000001
 43
0.0000000001
 44
0.00000001
 40
0.0
 40
0.0
 40
0.0
 40
0.0
 40
0.093570595210844
 40
0.1815181363975287
 40
0.2647690944695591
 40
0.345321774450556
 40
0.345321774450556
 40
0.345321774450556
 40
0.345321774450556
 10
-185.153039232238
 20
-208.4896897552447
 30
0.0
 10
-185.1835695394943
 20
-208.4826493549282
 30
0.0
 10
-185.2427954606419
 20
-208.4689916562083
 30
0.0
 10
-185.3318277362482
 20
-208.4734651452825
 30
0.0
 10
-185.4140649717651
 20
-208.496429759746
 30
0.0
 10
-185.458509745769
 20
-208.528813051315
 30
0.0
 10
-185.4803660675919
 20
-208.5447379841278
 30
0.0
 11
-185.153039232238
 21
-208.4896897552447
 31
0.0
 11
-185.24511167338
 21
-208.4730127669641
 31
0.0
 11
-185.3329731600313
 21
-208.4769024411593
 31
0.0
 11
-185.4126052703461
 21
-208.5011810222563
 31
0.0
 11
-185.4803660675919
 21
-208.5447379841278
 31
0.0
  0
SPLINE
  5
139
330
47
100
AcDbEntity
  8
0
  6
Continuous
 62
     7
100
AcDbSpline
210
0.0
220
0.0
230
1.0
 70
     8
 71
     3
 72
     9
 73
     5
 74
     3
 42
0.000000001
 43
0.0000000001
 44
0.00000001
 40
0.0
 40
0.0
 40
0.0
 40
0.0
 40
0.134735159755077
 40
0.2806984683897961
 40
0.2806984683897961
 40
0.2806984683897961
 40
0.2806984683897961
 10
-185.4803660675919
 20
-208.5447379841278
 30
0.0
 10
-185.510758551293
 20
-208.5794394504179
 30
0.0
 10
-185.5740762583666
 20
-208.6517342378418
 30
0.0
 10
-185.5819549967474
 20
-208.7477659354484
 30
0.0
 10
-185.5860519341302
 20
-208.797702457137
 30
0.0
 11
-185.4803660675919
 21
-208.5447379841278
 31
0.0
 11
-185.5587703934091
 21
-208.6543113638618
 31
0.0
 11
-185.5860519341302
 21
-208.797702457137
 31
0.0
  0
SPLINE
  5
13A
330
47
100
AcDbEntity
  8
0
  6
Continuous
 62
     7
100
AcDbSpline
210
0.0
220
0.0
230
1.0
 70
     8
 71
     3
 72
    17
 73
    13
 74
    11
 42
0.000000001
 43
0.0000000001
 44
0.00000001
 40
0.0
 40
0.0
 40
0.0
 40
0.0
 40
0.4148430342068136
 40
0.9002887269431757
 40
1.48829649398389
 40
2.175958237832436
 40
2.939485765404631
 40
3.743561045095372
 40
4.547636324563034
 40
5.311163851226111
 40
5.998825595681872
 40
6.586833368396245
 40
6.586833368396245
 40
6.586833368396245
 40
6.586833368396245
 10
-173.8185872891722
 20
-168.3997722279809
 30
0.0
 10
-173.7949659742915
 20
-168.5386743662168
 30
0.0
 10
-173.7437031922427
 20
-168.8401185674688
 30
0.0
 10
-173.3882715329865
 20
-169.2174776076099
 30
0.0
 10
-172.8914826738827
 20
-169.5300352004498
 30
0.0
 10
-172.2487169558104
 20
-169.7673425996749
 30
0.0
 10
-171.5098641318544
 20
-169.9162735531011
 30
0.0
 10
-170.7187025090113
 20
-169.9667786335865
 30
0.0
 10
-169.9268612386433
 20
-169.9169605028765
 30
0.0
 10
-169.1898820949479
 20
-169.7648622238083
 30
0.0
 10
-168.541259862533
 20
-169.537822542345
 30
0.0
 10
-168.1939826663733
 20
-169.2893180317378
 30
0.0
 10
-168.0339085374405
 20
-169.1747722279809
 30
0.0
 11
-173.8185872891722
 21
-168.3997722279809
 31
0.0
 11
-173.712956552352
 21
-168.8009416409357
 31
0.0
 11
-173.4032660409039
 21
-169.1747722279808
 31
0.0
 11
-172.9106177264424
 21
-169.4957874466159
 31
0.0
 11
-172.2685872891722
 21
-169.7421116038468
 31
0.0
 11
-171.5209261150818
 21
-169.8969568595707
 31
0.0
 11
-170.7185872891722
 21
-169.9497722279808
 31
0.0
 11
-169.9162484632626
 21
-169.8969568595707
 31
0.0
 11
-169.1685872891723
 21
-169.7421116038468
 31
0.0
 11
-168.5265568519021
 21
-169.4957874466159
 31
0.0
 11
-168.0339085374405
 21
-169.1747722279809
 31
0.0
  0
SPLINE
  5
13B
330
47
100
AcDbEntity
  8
0
  6
Continuous
 62
     7
100
AcDbSpline
210
0.0
220
0.0
230
1.0
 70
     8
 71
     3
 72
    15
 73
    11
 74
     9
 42
0.000000001
 43
0.0000000001
 44
0.00000001
 40
0.0
 40
0.0
 40
0.0
 40
0.0
 40
0.5720075578343872
 40
1.228054722747812
 40
1.946703607309349
 40
2.698499135691045
 40
3.450294664072655
 40
4.16894354863422
 40
4.824990713547671
 40
5.396998271382133
 40
5.396998271382133
 40
5.396998271382133
 40
5.396998271382133
 10
-168.1475952627358
 20
-169.2657976317653
 30
0.0
 10
-168.3095760228185
 20
-169.1640467535475
 30
0.0
 10
-168.6573358384876
 20
-168.9455957310509
 30
0.0
 10
-169.2800069047916
 20
-168.7442843367895
 30
0.0
 10
-169.97697360357
 20
-168.6106470811338
 30
0.0
 10
-170.7185872891722
 20
-168.5670861229458
 30
0.0
 10
-171.4602009747746
 20
-168.6106470811339
 30
0.0
 10
-172.1571676735529
 20
-168.7442843367895
 30
0.0
 10
-172.7798387398569
 20
-168.945595731051
 30
0.0
 10
-173.127598555526
 20
-169.1640467535475
 30
0.0
 10
-173.2895793156088
 20
-169.2657976317653
 30
0.0
 11
-168.1475952627358
 21
-169.2657976317653
 31
0.0
 11
-168.6433102038642
 21
-168.9803867997271
 31
0.0
 11
-169.2624549983867
 21
-168.7634591629146
 31
0.0
 11
-169.9682061888617
 21
-168.6279177189022
 31
0.0
 11
-170.7185872891723
 21
-168.5818230355497
 31
0.0
 11
-171.4689683894828
 21
-168.6279177189022
 31
0.0
 11
-172.1747195799578
 21
-168.7634591629146
 31
0.0
 11
-172.7938643744803
 21
-168.9803867997271
 31
0.0
 11
-173.2895793156088
 21
-169.2657976317653
 31
0.0
  0
SPLINE
  5
13C
330
47
100
AcDbEntity
  8
0
  6
Continuous
 62
     7
100
AcDbSpline
210
0.0
220
0.0
230
1.0
 70
     8
 71
     3
 72
    15
 73
    11
 74
     9
 42
0.000000001
 43
0.0000000001
 44
0.00000001
 40
0.0
 40
0.0
 40
0.0
 40
0.0
 40
0.3276172629174334
 40
0.7019331644990654
 40
1.10852805680733
 40
1.528663349504162
 40
1.94198589953656
 40
2.328942985498243
 40
2.673332960507384
 40
2.965558370966249
 40
2.965558370966249
 40
2.965558370966249
 40
2.965558370966249
 10
-169.3892095583996
 20
-169.6431373367294
 30
0.0
 10
-169.4842317055673
 20
-169.5886215400126
 30
0.0
 10
-169.6878204863971
 20
-169.4718192697509
 30
0.0
 10
-170.0462628755039
 20
-169.3702062169618
 30
0.0
 10
-170.4424727078102
 20
-169.3092219735401
 30
0.0
 10
-170.8569635866119
 20
-169.3011643036548
 30
0.0
 10
-171.2630348643617
 20
-169.3433231518635
 30
0.0
 10
-171.6333949469037
 20
-169.4364603973965
 30
0.0
 10
-171.953673948925
 20
-169.5657657217931
 30
0.0
 10
-172.118651063309
 20
-169.7008516563246
 30
0.0
 10
-172.1943804639741
 20
-169.7628601291457
 30
0.0
 11
-169.3892095583996
 21
-169.6431373367294
 31
0.0
 11
-169.6793694148784
 21
-169.4910178866065
 31
0.0
 11
-170.0369984174388
 21
-169.3805014316527
 31
0.0
 11
-170.4388788245152
 21
-169.3187637018139
 31
0.0
 11
-170.858918745327
 21
-169.3098122262513
 31
0.0
 11
-171.2698478013783
 21
-169.3542288943709
 31
0.0
 11
-171.6449873690585
 21
-169.4491293099327
 31
0.0
 11
-171.959981434987
 21
-169.5883528614285
 31
0.0
 11
-172.1943804639741
 21
-169.7628601291457
 31
0.0
  0
SPLINE
  5
13D
330
47
100
AcDbEntity
  8
0
  6
Continuous
 62
     7
100
AcDbSpline
210
0.0
220
0.0
230
1.0
 70
     8
 71
     3
 72
     9
 73
     5
 74
     3
 42
0.000000001
 43
0.0000000001
 44
0.00000001
 40
0.0
 40
0.0
 40
0.0
 40
0.0
 40
0.4854456906796294
 40
0.9002887316768746
 40
0.9002887316768746
 40
0.9002887316768746
 40
0.9002887316768746
 10
-168.0339085374405
 20
-169.1747722279809
 30
0.0
 10
-167.9139554223432
 20
-169.0587547522777
 30
0.0
 10
-167.6914950482159
 20
-168.8435932355993
 30
0.0
 10
-167.641585189119
 20
-168.5397704114535
 30
0.0
 10
-167.6185872891722
 20
-168.3997722279809
 30
0.0
 11
-168.0339085374405
 21
-169.1747722279809
 31
0.0
 11
-167.7242180259925
 21
-168.8009416409357
 31
0.0
 11
-167.6185872891722
 21
-168.3997722279809
 31
0.0
  0
SPLINE
  5
13E
330
47
100
AcDbEntity
  8
0
  6
Continuous
 62
     7
100
AcDbSpline
210
0.0
220
0.0
230
1.0
 70
     8
 71
     3
 72
    19
 73
    15
 74
    13
 42
0.000000001
 43
0.0000000001
 44
0.00000001
 40
0.0
 40
0.0
 40
0.0
 40
0.0
 40
0.4148430388278007
 40
0.9002887280266236
 40
1.488296496112463
 40
2.175958241578499
 40
2.939485771591277
 40
3.743561054513163
 40
4.547636337435049
 40
5.311163867447911
 40
5.998825612913867
 40
6.586833380999683
 40
7.072279070198542
 40
7.487122109026336
 40
7.487122109026336
 40
7.487122109026336
 40
7.487122109026336
 10
-167.6185872891722
 20
-168.3997722279809
 30
0.0
 10
-167.6422085862511
 20
-168.2608701199601
 30
0.0
 10
-167.6934713364609
 20
-167.9594259896431
 30
0.0
 10
-168.048903344577
 20
-167.5820663157654
 30
0.0
 10
-168.5456904212809
 20
-167.2695118649
 30
0.0
 10
-169.1884644899425
 20
-167.0321897825296
 30
0.0
 10
-169.9272811919985
 20
-166.8833223438542
 30
0.0
 10
-170.7185872891722
 20
-166.8325632497837
 30
0.0
 10
-171.5098933863459
 20
-166.8833223438542
 30
0.0
 10
-172.2487100884019
 20
-167.0321897825296
 30
0.0
 10
-172.8914841570636
 20
-167.2695118649
 30
0.0
 10
-173.3882712337672
 20
-167.5820663157654
 30
0.0
 10
-173.7437032418836
 20
-167.9594259896431
 30
0.0
 10
-173.7949659920934
 20
-168.2608701199601
 30
0.0
 10
-173.8185872891722
 20
-168.3997722279809
 30
0.0
 11
-167.6185872891722
 21
-168.3997722279809
 31
0.0
 11
-167.7242180259925
 21
-167.9986028150261
 31
0.0
 11
-168.0339085374405
 21
-167.6247722279809
 31
0.0
 11
-168.526556851902
 21
-167.3037570093458
 31
0.0
 11
-169.1685872891723
 21
-167.0574328521151
 31
0.0
 11
-169.9162484632626
 21
-166.902587596391
 31
0.0
 11
-170.7185872891722
 21
-166.8497722279809
 31
0.0
 11
-171.5209261150818
 21
-166.902587596391
 31
0.0
 11
-172.2685872891722
 21
-167.0574328521151
 31
0.0
 11
-172.9106177264424
 21
-167.3037570093458
 31
0.0
 11
-173.4032660409039
 21
-167.6247722279809
 31
0.0
 11
-173.712956552352
 21
-167.9986028150261
 31
0.0
 11
-173.8185872891722
 21
-168.3997722279809
 31
0.0
  0
SPLINE
  5
13F
330
47
100
AcDbEntity
  8
0
  6
Continuous
 62
     7
100
AcDbSpline
210
0.0
220
0.0
230
1.0
 70
     8
 71
     3
 72
     9
 73
     5
 74
     3
 42
0.000000001
 43
0.0000000001
 44
0.00000001
 40
0.0
 40
0.0
 40
0.0
 40
0.0
 40
0.1347351597551497
 40
0.2806984683899086
 40
0.2806984683899086
 40
0.2806984683899086
 40
0.2806984683899086
 10
-181.8595753889223
 20
-202.0619563172972
 30
0.0
 10
-181.8291829052211
 20
-202.027254851007
 30
0.0
 10
-181.7658651981474
 20
-201.9549600635833
 30
0.0
 10
-181.7579864597667
 20
-201.8589283659764
 30
0.0
 10
-181.753889522384
 20
-201.8089918442879
 30
0.0
 11
-181.8595753889223
 21
-202.0619563172972
 31
0.0
 11
-181.781171063105
 21
-201.9523829375632
 31
0.0
 11
-181.753889522384
 21
-201.8089918442879
 31
0.0
  0
SPLINE
  5
140
330
47
100
AcDbEntity
  8
0
  6
Continuous
 62
     7
100
AcDbSpline
210
0.0
220
0.0
230
1.0
 70
     8
 71
     3
 72
     9
 73
     5
 74
     3
 42
0.000000001
 43
0.0000000001
 44
0.00000001
 40
0.0
 40
0.0
 40
0.0
 40
0.0
 40
0.0134531932712577
 40
0.026892986103035
 40
0.026892986103035
 40
0.026892986103035
 40
0.026892986103035
 10
-181.8807160064284
 20
-202.0785664097842
 30
0.0
 10
-181.8770916594463
 20
-202.0759228789575
 30
0.0
 10
-181.869846587779
 20
-202.0706384346042
 30
0.0
 10
-181.8629979801723
 20
-202.0648494000524
 30
0.0
 10
-181.8595753889223
 20
-202.0619563172972
 30
0.0
 11
-181.8807160064284
 21
-202.0785664097842
 31
0.0
 11
-181.8699421862883
 21
-202.0705095359983
 31
0.0
 11
-181.8595753889223
 21
-202.0619563172972
 31
0.0
  0
SPLINE
  5
141
330
47
100
AcDbEntity
  8
0
  6
Continuous
 62
     7
100
AcDbSpline
210
0.0
220
0.0
230
1.0
 70
     8
 71
     3
 72
    11
 73
     7
 74
     5
 42
0.000000001
 43
0.0000000001
 44
0.00000001
 40
0.0
 40
0.0
 40
0.0
 40
0.0
 40
0.4826695327547637
 40
0.9661074661587408
 40
1.438159115350721
 40
1.888547215089158
 40
1.888547215089158
 40
1.888547215089158
 40
1.888547215089158
 10
-160.0960187132994
 20
-216.1368677671872
 30
0.0
 10
-160.0086154006442
 20
-216.2725615632299
 30
0.0
 10
-159.8336696188351
 20
-216.5441651685081
 30
0.0
 10
-159.4854170911954
 20
-216.8783209207024
 30
0.0
 10
-159.0976193869597
 20
-217.1487480908939
 30
0.0
 10
-158.8073691212819
 20
-217.2537876886632
 30
0.0
 10
-158.665652257491
 20
-217.3050740503536
 30
0.0
 11
-160.0960187132994
 21
-216.1368677671872
 31
0.0
 11
-159.819082553106
 21
-216.5321856665544
 31
0.0
 11
-159.47441965553
 21
-216.8711837849788
 31
0.0
 11
-159.0822672880757
 21
-217.1339560860481
 31
0.0
 11
-158.665652257491
 21
-217.3050740503536
 31
0.0
  0
SPLINE
  5
142
330
47
100
AcDbEntity
  8
0
  6
Continuous
 62
     7
100
AcDbSpline
210
0.0
220
0.0
230
1.0
 70
     8
 71
     3
 72
    11
 73
     7
 74
     5
 42
0.000000001
 43
0.0000000001
 44
0.00000001
 40
0.0
 40
0.0
 40
0.0
 40
0.0
 40
1.50171658912363
 40
3.011982928025943
 40
4.507380582629422
 40
5.965940896288461
 40
5.965940896288461
 40
5.965940896288461
 40
5.965940896288461
 10
-160.0960187132994
 20
-216.1368677671872
 30
0.0
 10
-160.3625770085426
 20
-215.7120265270035
 30
0.0
 10
-160.8972112124592
 20
-214.8599252989089
 30
0.0
 10
-161.9182270577239
 20
-213.7489725458242
 30
0.0
 10
-163.0549259130423
 20
-212.7776683670779
 30
0.0
 10
-163.9134805202675
 20
-212.2913657750001
 30
0.0
 10
-164.3374045240064
 20
-212.0512467041641
 30
0.0
 11
-160.0960187132994
 21
-216.1368677671872
 31
0.0
 11
-160.9323950626353
 21
-214.8896198695948
 31
0.0
 11
-161.9429217272061
 21
-213.767238348447
 31
0.0
 11
-163.0915746536924
 21
-212.8097360745854
 31
0.0
 11
-164.3374045240064
 21
-212.0512467041641
 31
0.0
  0
SPLINE
  5
143
330
47
100
AcDbEntity
  8
0
  6
Continuous
 62
     7
100
AcDbSpline
210
0.0
220
0.0
230
1.0
 70
     8
 71
     3
 72
     9
 73
     5
 74
     3
 42
0.000000001
 43
0.0000000001
 44
0.00000001
 40
0.0
 40
0.0
 40
0.0
 40
0.0
 40
3.01738286390112
 40
5.879923767077797
 40
5.879923767077797
 40
5.879923767077797
 40
5.879923767077797
 10
-164.3374045240064
 20
-212.0512467041641
 30
0.0
 10
-165.2563229025698
 20
-211.6290194821952
 30
0.0
 10
-167.0470038593978
 20
-210.8062323408375
 30
0.0
 10
-168.993391899573
 20
-210.5020666913557
 30
0.0
 10
-169.9409578226791
 20
-210.3539888263577
 30
0.0
 11
-164.3374045240064
 21
-212.0512467041641
 31
0.0
 11
-167.1351636251098
 21
-210.9211390256153
 31
0.0
 11
-169.9409578226791
 21
-210.3539888263577
 31
0.0
  0
SPLINE
  5
144
330
47
100
AcDbEntity
  8
0
  6
Continuous
 62
     7
100
AcDbSpline
210
0.0
220
0.0
230
1.0
 70
     8
 71
     3
 72
    11
 73
     7
 74
     5
 42
0.000000001
 43
0.0000000001
 44
0.00000001
 40
0.0
 40
0.0
 40
0.0
 40
0.0
 40
0.167601495698677
 40
0.3276192723756604
 40
0.4818199683816377
 40
0.6328501322470077
 40
0.6328501322470077
 40
0.6328501322470077
 40
0.6328501322470077
 10
-169.9409578226791
 20
-210.3539888263577
 30
0.0
 10
-169.9969337935078
 20
-210.3510989220905
 30
0.0
 10
-170.1063529054677
 20
-210.3454498921301
 30
0.0
 10
-170.2653786888568
 20
-210.3752869981599
 30
0.0
 10
-170.4117399779089
 20
-210.4314562661177
 30
0.0
 10
-170.4931794462913
 20
-210.4931970391253
 30
0.0
 10
-170.5334762072837
 20
-210.5237467709934
 30
0.0
 11
-169.9409578226791
 21
-210.3539888263577
 31
0.0
 11
-170.1085487548237
 21
-210.3521070710234
 31
0.0
 11
-170.2660383846725
 21
-210.3804391368303
 31
0.0
 11
-170.4090156954827
 21
-210.4381915733825
 31
0.0
 11
-170.5334762072837
 21
-210.5237467709934
 31
0.0
  0
SPLINE
  5
145
330
47
100
AcDbEntity
  8
0
  6
Continuous
 62
     7
100
AcDbSpline
210
0.0
220
0.0
230
1.0
 70
     8
 71
     3
 72
    11
 73
     7
 74
     5
 42
0.000000001
 43
0.0000000001
 44
0.00000001
 40
0.0
 40
0.0
 40
0.0
 40
0.0
 40
0.1882257032866769
 40
0.3824491697458418
 40
0.5871851159402097
 40
0.804650680853645
 40
0.804650680853645
 40
0.804650680853645
 40
0.804650680853645
 10
-170.5334762072837
 20
-210.5237467709934
 30
0.0
 10
-170.5776910579586
 20
-210.5688600852069
 30
0.0
 10
-170.6675296428037
 20
-210.660524247238
 30
0.0
 10
-170.7499185476787
 20
-210.8416464709358
 30
0.0
 10
-170.793054380439
 20
-211.0445953096557
 30
0.0
 10
-170.7841369000831
 20
-211.1856648190865
 30
0.0
 10
-170.7795437188062
 20
-211.2583262372994
 30
0.0
 11
-170.5334762072837
 21
-210.5237467709934
 31
0.0
 11
-170.6573580729279
 21
-210.6654584482231
 31
0.0
 11
-170.7417932329932
 21
-210.8403683099895
 31
0.0
 11
-170.7831191762426
 21
-211.0408900669014
 31
0.0
 11
-170.7795437188062
 21
-211.2583262372994
 31
0.0
  0
SPLINE
  5
146
330
47
100
AcDbEntity
  8
0
  6
Continuous
 62
     7
100
AcDbSpline
210
0.0
220
0.0
230
1.0
 70
     8
 71
     3
 72
    11
 73
     7
 74
     5
 42
0.000000001
 43
0.0000000001
 44
0.00000001
 40
0.0
 40
0.0
 40
0.0
 40
0.0
 40
0.0627418998187906
 40
0.1274830534602637
 40
0.1957283673664537
 40
0.2682168887435679
 40
0.2682168887435679
 40
0.2682168887435679
 40
0.2682168887435679
 10
-170.861566222647
 20
-211.5031860594015
 30
0.0
 10
-170.8468279393886
 20
-211.488148288303
 30
0.0
 10
-170.8168817526692
 20
-211.4575935620025
 30
0.0
 10
-170.7894187809154
 20
-211.3972194915901
 30
0.0
 10
-170.7750401746975
 20
-211.3295698791492
 30
0.0
 10
-170.7780126583861
 20
-211.2825467099499
 30
0.0
 10
-170.7795437188062
 20
-211.2583262372994
 30
0.0
 11
-170.861566222647
 21
-211.5031860594015
 31
0.0
 11
-170.8202722674322
 21
-211.4559488336583
 31
0.0
 11
-170.7921272140771
 21
-211.3976455464028
 31
0.0
 11
-170.7783518996607
 21
-211.3308049607654
 31
0.0
 11
-170.7795437188062
 21
-211.2583262372994
 31
0.0
  0
SPLINE
  5
147
330
47
100
AcDbEntity
  8
0
  6
Continuous
 62
     7
100
AcDbSpline
210
0.0
220
0.0
230
1.0
 70
     8
 71
     3
 72
    13
 73
     9
 74
     7
 42
0.000000001
 43
0.0000000001
 44
0.00000001
 40
0.0
 40
0.0
 40
0.0
 40
0.0
 40
0.1045567286507334
 40
0.206141800753593
 40
0.3022745471528644
 40
0.391659036175749
 40
0.4747389888149444
 40
0.5539452715654386
 40
0.5539452715654386
 40
0.5539452715654386
 40
0.5539452715654386
 10
-171.3521342877631
 20
-211.3949719202931
 30
0.0
 10
-171.3279315016554
 20
-211.4202120079372
 30
0.0
 10
-171.2802137986423
 20
-211.4699748124898
 30
0.0
 10
-171.1936772729902
 20
-211.5235414456567
 30
0.0
 10
-171.1029630248593
 20
-211.5566345490737
 30
0.0
 10
-171.0130585243645
 20
-211.5649747441684
 30
0.0
 10
-170.9282562213517
 20
-211.5496949337403
 30
0.0
 10
-170.8834396387431
 20
-211.5184403457015
 30
0.0
 10
-170.861566222647
 20
-211.5031860594015
 30
0.0
 11
-171.3521342877631
 21
-211.3949719202931
 31
0.0
 11
-171.2766195347387
 21
-211.4672881086365
 31
0.0
 11
-171.1905672515012
 21
-211.5212745097508
 31
0.0
 11
-171.0998966020113
 21
-211.5532172488348
 31
0.0
 11
-171.0108445736846
 21
-211.5609194361967
 31
0.0
 11
-170.9295368627896
 21
-211.5438508839479
 31
0.0
 11
-170.861566222647
 21
-211.5031860594015
 31
0.0
  0
SPLINE
  5
148
330
47
100
AcDbEntity
  8
0
  6
Continuous
 62
     7
100
AcDbSpline
210
0.0
220
0.0
230
1.0
 70
     8
 71
     3
 72
    11
 73
     7
 74
     5
 42
0.000000001
 43
0.0000000001
 44
0.00000001
 40
0.0
 40
0.0
 40
0.0
 40
0.0
 40
0.608542371195933
 40
1.247260111612493
 40
1.908517438562513
 40
2.581951841252724
 40
2.581951841252724
 40
2.581951841252724
 40
2.581951841252724
 10
-172.3353248147132
 20
-209.0543972448984
 30
0.0
 10
-172.3150469890686
 20
-209.2568432802552
 30
0.0
 10
-172.2734858203813
 20
-209.6717739001433
 30
0.0
 10
-172.0649483348217
 20
-210.2775348102968
 30
0.0
 10
-171.7663033912722
 20
-210.8671643616382
 30
0.0
 10
-171.4910278196484
 20
-211.2179692129136
 30
0.0
 10
-171.3521342877631
 20
-211.3949719202931
 30
0.0
 11
-172.3353248147132
 21
-209.0543972448984
 31
0.0
 11
-172.2519425824194
 21
-209.6572000503196
 31
0.0
 11
-172.0542093960635
 21
-210.264540104453
 31
0.0
 11
-171.7501563550655
 21
-210.8517479065219
 31
0.0
 11
-171.3521342877631
 21
-211.3949719202931
 31
0.0
  0
SPLINE
  5
149
330
47
100
AcDbEntity
  8
0
  6
Continuous
 62
     7
100
AcDbSpline
210
0.0
220
0.0
230
1.0
 70
     8
 71
     3
 72
    11
 73
     7
 74
     5
 42
0.000000001
 43
0.0000000001
 44
0.00000001
 40
0.0
 40
0.0
 40
0.0
 40
0.0
 40
0.0994033217203071
 40
0.2014330550266789
 40
0.3081733529234793
 40
0.4208342685142001
 40
0.4208342685142001
 40
0.4208342685142001
 40
0.4208342685142001
 10
-172.1879030430746
 20
-208.6745467692187
 30
0.0
 10
-172.2114166142602
 20
-208.6981555318011
 30
0.0
 10
-172.2590650156309
 20
-208.7459968519724
 30
0.0
 10
-172.3058949407537
 20
-208.8390092218376
 30
0.0
 10
-172.3342898728442
 20
-208.9432869289669
 30
0.0
 10
-172.334973688092
 20
-209.0167001125108
 30
0.0
 10
-172.3353248147132
 20
-209.0543972448984
 30
0.0
 11
-172.1879030430746
 21
-208.6745467692187
 31
0.0
 11
-172.2542944360632
 21
-208.7485278724997
 31
0.0
 11
-172.3020067723048
 21
-208.8387143457655
 31
0.0
 11
-172.3293412665867
 21
-208.9418953375341
 31
0.0
 11
-172.3353248147132
 21
-209.0543972448984
 31
0.0
  0
SPLINE
  5
14A
330
47
100
AcDbEntity
  8
0
  6
Continuous
 62
     7
100
AcDbSpline
210
0.0
220
0.0
230
1.0
 70
     8
 71
     3
 72
    11
 73
     7
 74
     5
 42
0.000000001
 43
0.0000000001
 44
0.00000001
 40
0.0
 40
0.0
 40
0.0
 40
0.0
 40
0.1309988334402715
 40
0.2541253920137946
 40
0.3706767344518273
 40
0.4834504872165575
 40
0.4834504872165575
 40
0.4834504872165575
 40
0.4834504872165575
 10
-171.7296454735792
 20
-208.5974792487825
 30
0.0
 10
-171.7723879037854
 20
-208.5876226883285
 30
0.0
 10
-171.8553041928098
 20
-208.5685019042848
 30
0.0
 10
-171.9799493793916
 20
-208.5747647917182
 30
0.0
 10
-172.095081511298
 20
-208.6069152495409
 30
0.0
 10
-172.1573041923078
 20
-208.6522518631242
 30
0.0
 10
-172.1879030430746
 20
-208.6745467692187
 30
0.0
 11
-171.7296454735792
 21
-208.5974792487825
 31
0.0
 11
-171.8585468911781
 21
-208.5741314651896
 31
0.0
 11
-171.9815529724898
 21
-208.5795770090628
 31
0.0
 11
-172.0930379269306
 21
-208.6135670225986
 31
0.0
 11
-172.1879030430746
 21
-208.6745467692187
 31
0.0
  0
SPLINE
  5
14B
330
47
100
AcDbEntity
  8
0
  6
Continuous
 62
     7
100
AcDbSpline
210
0.0
220
0.0
230
1.0
 70
     8
 71
     3
 72
    11
 73
     7
 74
     5
 42
0.000000001
 43
0.0000000001
 44
0.00000001
 40
0.0
 40
0.0
 40
0.0
 40
0.0
 40
0.0561423569815819
 40
0.1089108807814294
 40
0.1588614544874764
 40
0.2071930616847572
 40
0.2071930616847572
 40
0.2071930616847572
 40
0.2071930616847572
 10
-171.7296454735792
 20
-208.5974792487825
 30
0.0
 10
-171.7113272892726
 20
-208.6017034889615
 30
0.0
 10
-171.675791736002
 20
-208.609898102358
 30
0.0
 10
-171.6223723713708
 20
-208.6072140116424
 30
0.0
 10
-171.5730300322438
 20
-208.5934352405386
 30
0.0
 10
-171.5463631652457
 20
-208.5740052709839
 30
0.0
 10
-171.5332493723666
 20
-208.5644503114527
 30
0.0
 11
-171.7296454735792
 21
-208.5974792487825
 31
0.0
 11
-171.6744020088939
 21
-208.6074854417509
 31
0.0
 11
-171.6216851169031
 21
-208.6051516372337
 31
0.0
 11
-171.5739058507142
 21
-208.5905844885756
 31
0.0
 11
-171.5332493723666
 21
-208.5644503114527
 31
0.0
  0
SPLINE
  5
14C
330
47
100
AcDbEntity
  8
0
  6
Continuous
 62
     7
100
AcDbSpline
210
0.0
220
0.0
230
1.0
 70
     8
 71
     3
 72
     9
 73
     5
 74
     3
 42
0.000000001
 43
0.0000000001
 44
0.00000001
 40
0.0
 40
0.0
 40
0.0
 40
0.0
 40
0.0808410949936335
 40
0.1684190793151287
 40
0.1684190793151287
 40
0.1684190793151287
 40
0.1684190793151287
 10
-171.5332493723666
 20
-208.5644503114527
 30
0.0
 10
-171.5150138823398
 20
-208.5436294318999
 30
0.0
 10
-171.477023265156
 20
-208.5002525560452
 30
0.0
 10
-171.4722960148493
 20
-208.4426335403662
 30
0.0
 10
-171.4698378524438
 20
-208.4126716276471
 30
0.0
 11
-171.5332493723666
 21
-208.5644503114527
 31
0.0
 11
-171.4862067768764
 21
-208.4987062836123
 31
0.0
 11
-171.4698378524438
 21
-208.4126716276471
 31
0.0
  0
SPLINE
  5
14D
330
47
100
AcDbEntity
  8
0
  6
Continuous
 62
     7
100
AcDbSpline
210
0.0
220
0.0
230
1.0
 70
     8
 71
     3
 72
    13
 73
     9
 74
     7
 42
0.000000001
 43
0.0000000001
 44
0.00000001
 40
0.0
 40
0.0
 40
0.0
 40
0.0
 40
0.1172631642635594
 40
0.2419307378213241
 40
0.3712960139462025
 40
0.5017221147110135
 40
0.6293737711448247
 40
0.7509434390752585
 40
0.7509434390752585
 40
0.7509434390752585
 40
0.7509434390752585
 10
-171.4698378524439
 20
-206.3775119287537
 30
0.0
 10
-171.4729122266981
 20
-206.3383615662293
 30
0.0
 10
-171.4792551167161
 20
-206.2575887512535
 30
0.0
 10
-171.5251251498174
 20
-206.1409408369435
 30
0.0
 10
-171.5933946292991
 20
-206.031733086209
 30
0.0
 10
-171.6829930494872
 20
-205.9377946806067
 30
0.0
 10
-171.7863949840296
 20
-205.8623916507418
 30
0.0
 10
-171.8646687591884
 20
-205.8335621792451
 30
0.0
 10
-171.9028505543361
 20
-205.8194992268614
 30
0.0
 11
-171.4698378524439
 21
-206.3775119287537
 31
0.0
 11
-171.4845925139772
 21
-206.2611807207077
 31
0.0
 11
-171.5278505543361
 21
-206.1442587532806
 31
0.0
 11
-171.5966644181192
 21
-206.0347141166202
 31
0.0
 11
-171.68634420339
 21
-205.9400119287536
 31
0.0
 11
-171.7907786501941
 21
-205.8666062604073
 31
0.0
 11
-171.9028505543361
 21
-205.8194992268614
 31
0.0
  0
SPLINE
  5
14E
330
47
100
AcDbEntity
  8
0
  6
Continuous
 62
     7
100
AcDbSpline
210
0.0
220
0.0
230
1.0
 70
     8
 71
     3
 72
    11
 73
     7
 74
     5
 42
0.000000001
 43
0.0000000001
 44
0.00000001
 40
0.0
 40
0.0
 40
0.0
 40
0.0
 40
0.093570595210905
 40
0.1815181363975341
 40
0.2647690944696106
 40
0.3453217744505528
 40
0.3453217744505528
 40
0.3453217744505528
 40
0.3453217744505528
 10
-172.0003804284269
 20
-205.7913447773312
 30
0.0
 10
-172.0309107356832
 20
-205.7843043770147
 30
0.0
 10
-172.0901366568308
 20
-205.7706466782946
 30
0.0
 10
-172.1791689324373
 20
-205.7751201673692
 30
0.0
 10
-172.2614061679539
 20
-205.7980847818324
 30
0.0
 10
-172.3058509419579
 20
-205.8304680734014
 30
0.0
 10
-172.3277072637808
 20
-205.8463930062142
 30
0.0
 11
-172.0003804284269
 21
-205.7913447773312
 31
0.0
 11
-172.0924528695689
 21
-205.7746677890506
 31
0.0
 11
-172.1803143562202
 21
-205.7785574632458
 31
0.0
 11
-172.2599464665351
 21
-205.8028360443427
 31
0.0
 11
-172.3277072637808
 21
-205.8463930062142
 31
0.0
  0
SPLINE
  5
14F
330
47
100
AcDbEntity
  8
0
  6
Continuous
 62
     7
100
AcDbSpline
210
0.0
220
0.0
230
1.0
 70
     8
 71
     3
 72
     9
 73
     5
 74
     3
 42
0.000000001
 43
0.0000000001
 44
0.00000001
 40
0.0
 40
0.0
 40
0.0
 40
0.0
 40
0.0849727062785585
 40
0.1730887211059162
 40
0.1730887211059162
 40
0.1730887211059162
 40
0.1730887211059162
 10
-172.3277072637808
 20
-205.8463930062142
 30
0.0
 10
-172.3477993419666
 20
-205.8668612757667
 30
0.0
 10
-172.3887267282801
 20
-205.9085549883611
 30
0.0
 10
-172.4085479835025
 20
-205.9635486408319
 30
0.0
 10
-172.4186385802958
 20
-205.9915448169164
 30
0.0
 11
-172.3277072637808
 21
-205.8463930062142
 31
0.0
 11
-172.38289686311
 21
-205.911003138416
 31
0.0
 11
-172.4186385802958
 21
-205.9915448169164
 31
0.0
  0
SPLINE
  5
150
330
47
100
AcDbEntity
  8
0
  6
Continuous
 62
     7
100
AcDbSpline
210
0.0
220
0.0
230
1.0
 70
     8
 71
     3
 72
    11
 73
     7
 74
     5
 42
0.000000001
 43
0.0000000001
 44
0.00000001
 40
0.0
 40
0.0
 40
0.0
 40
0.0
 40
0.3920083270232637
 40
0.779865014828732
 40
1.157457324409902
 40
1.519805444467299
 40
1.519805444467299
 40
1.519805444467299
 40
1.519805444467299
 10
-177.8257832412584
 20
-205.3964246358513
 30
0.0
 10
-177.9103306674851
 20
-205.2964327488962
 30
0.0
 10
-178.0785301151927
 20
-205.0975079683161
 30
0.0
 10
-178.3800161799278
 20
-204.8539872609414
 30
0.0
 10
-178.7025337573411
 20
-204.6564398843896
 30
0.0
 10
-178.9361341978348
 20
-204.5752996146493
 30
0.0
 10
-179.0505281126499
 20
-204.5355653090809
 30
0.0
 11
-177.8257832412584
 21
-205.3964246358513
 31
0.0
 11
-178.0882522875285
 21
-205.1052536748334
 31
0.0
 11
-178.3877009645788
 21
-204.8587515424497
 31
0.0
 11
-178.7126217788802
 21
-204.6663914166308
 31
0.0
 11
-179.0505281126499
 21
-204.5355653090809
 31
0.0
  0
SPLINE
  5
151
330
47
100
AcDbEntity
  8
0
  6
Continuous
 62
     7
100
AcDbSpline
210
0.0
220
0.0
230
1.0
 70
     8
 71
     3
 72
    11
 73
     7
 74
     5
 42
0.000000001
 43
0.0000000001
 44
0.00000001
 40
0.0
 40
0.0
 40
0.0
 40
0.0
 40
0.0982491249896059
 40
0.1905940433496299
 40
0.2780075494674425
 40
0.3625878635464325
 40
0.3625878635464325
 40
0.3625878635464325
 40
0.3625878635464325
 10
-179.0475601355577
 20
-202.890973823077
 30
0.0
 10
-179.0155033129326
 20
-202.8983662434107
 30
0.0
 10
-178.9533160958004
 20
-202.9127068277963
 30
0.0
 10
-178.859832206322
 20
-202.9080096639269
 30
0.0
 10
-178.7734831087566
 20
-202.8838968190436
 30
0.0
 10
-178.7268160963769
 20
-202.8498943622229
 30
0.0
 10
-178.703866958436
 20
-202.8331731827498
 30
0.0
 11
-179.0475601355577
 21
-202.890973823077
 31
0.0
 11
-178.9508840723585
 21
-202.9084846607717
 31
0.0
 11
-178.8586295113747
 21
-202.9044005028667
 31
0.0
 11
-178.7750157955441
 21
-202.8789079927149
 31
0.0
 11
-178.703866958436
 21
-202.8331731827498
 31
0.0
  0
SPLINE
  5
152
330
47
100
AcDbEntity
  8
0
  6
Continuous
 62
     7
100
AcDbSpline
210
0.0
220
0.0
230
1.0
 70
     8
 71
     3
 72
    15
 73
    11
 74
     9
 42
0.000000001
 43
0.0000000001
 44
0.00000001
 40
0.0
 40
0.0
 40
0.0
 40
0.0
 40
0.1129385421857532
 40
0.2322801150809364
 40
0.3616824440741637
 40
0.5012113718838113
 40
0.6480042193304554
 40
0.7974169697410448
 40
0.9442165363786141
 40
1.083757557814109
 40
1.083757557814109
 40
1.083757557814109
 40
1.083757557814109
 10
-178.703866958436
 20
-202.8331731827498
 30
0.0
 10
-178.6781109319847
 20
-202.8051154903258
 30
0.0
 10
-178.6251386566957
 20
-202.7474093713135
 30
0.0
 10
-178.5909997737684
 20
-202.6278327920758
 30
0.0
 10
-178.592067616161
 20
-202.4973104813656
 30
0.0
 10
-178.6299070868042
 20
-202.362395947729
 30
0.0
 10
-178.7000959652278
 20
-202.2338573960472
 30
0.0
 10
-178.7976738407586
 20
-202.1219738584282
 30
0.0
 10
-178.9140490650792
 20
-202.0318356497069
 30
0.0
 10
-179.0038149454616
 20
-201.9980915143832
 30
0.0
 10
-179.0475601355577
 20
-201.9816471491032
 30
0.0
 11
-178.703866958436
 21
-202.8331731827498
 31
0.0
 11
-178.6339387402631
 21
-202.7444874465442
 31
0.0
 11
-178.5975113306807
 21
-202.630841257418
 31
0.0
 11
-178.5975359033091
 21
-202.5014389277599
 31
0.0
 11
-178.6340096921462
 21
-202.3667615918206
 31
0.0
 11
-178.7039792557595
 21
-202.2377174117286
 31
0.0
 11
-178.8017767736818
 21
-202.1247580585996
 31
0.0
 11
-178.9194816675103
 21
-202.0370330876567
 31
0.0
 11
-179.0475601355577
 21
-201.9816471491032
 31
0.0
  0
SPLINE
  5
153
330
47
100
AcDbEntity
  8
0
  6
Continuous
 62
     7
100
AcDbSpline
210
0.0
220
0.0
230
1.0
 70
     8
 71
     3
 72
    13
 73
     9
 74
     7
 42
0.000000001
 43
0.0000000001
 44
0.00000001
 40
0.0
 40
0.0
 40
0.0
 40
0.0
 40
0.1172631642635312
 40
0.2419307378212762
 40
0.3712960139460673
 40
0.5017221147108586
 40
0.6293737711447327
 40
0.7509434390752189
 40
0.7509434390752189
 40
0.7509434390752189
 40
0.7509434390752189
 10
-155.5782716929995
 20
-210.9650119287536
 30
0.0
 10
-155.5813460672537
 20
-210.9258615662292
 30
0.0
 10
-155.5876889572718
 20
-210.8450887512533
 30
0.0
 10
-155.6335589903728
 20
-210.7284408369434
 30
0.0
 10
-155.7018284698547
 20
-210.6192330862091
 30
0.0
 10
-155.7914268900427
 20
-210.5252946806067
 30
0.0
 10
-155.8948288245851
 20
-210.4498916507418
 30
0.0
 10
-155.973102599744
 20
-210.421062179245
 30
0.0
 10
-156.0112843948917
 20
-210.4069992268614
 30
0.0
 11
-155.5782716929995
 21
-210.9650119287536
 31
0.0
 11
-155.5930263545328
 21
-210.8486807207076
 31
0.0
 11
-155.6362843948916
 21
-210.7317587532805
 31
0.0
 11
-155.7050982586748
 21
-210.6222141166202
 31
0.0
 11
-155.7947780439455
 21
-210.5275119287537
 31
0.0
 11
-155.8992124907496
 21
-210.4541062604072
 31
0.0
 11
-156.0112843948917
 21
-210.4069992268614
 31
0.0
  0
SPLINE
  5
154
330
47
100
AcDbEntity
  8
0
  6
Continuous
 62
     7
100
AcDbSpline
210
0.0
220
0.0
230
1.0
 70
     8
 71
     3
 72
     9
 73
     5
 74
     3
 42
0.000000001
 43
0.0000000001
 44
0.00000001
 40
0.0
 40
0.0
 40
0.0
 40
0.0
 40
0.1347351597550108
 40
0.2806984683897086
 40
0.2806984683897086
 40
0.2806984683897086
 40
0.2806984683897086
 10
-156.7716239321379
 20
-210.3370474557444
 30
0.0
 10
-156.802016415839
 20
-210.3717489220345
 30
0.0
 10
-156.8653341229126
 20
-210.4440437094584
 30
0.0
 10
-156.8732128612932
 20
-210.540075407065
 30
0.0
 10
-156.877309798676
 20
-210.5900119287536
 30
0.0
 11
-156.7716239321379
 21
-210.3370474557444
 31
0.0
 11
-156.850028257955
 21
-210.4466208354784
 31
0.0
 11
-156.877309798676
 21
-210.5900119287536
 31
0.0
  0
SPLINE
  5
155
330
47
100
AcDbEntity
  8
0
  6
Continuous
 62
     7
100
AcDbSpline
210
0.0
220
0.0
230
1.0
 70
     8
 71
     3
 72
    11
 73
     7
 74
     5
 42
0.000000001
 43
0.0000000001
 44
0.00000001
 40
0.0
 40
0.0
 40
0.0
 40
0.0
 40
0.0935705952108592
 40
0.1815181363975439
 40
0.2647690944696015
 40
0.3453217744506701
 40
0.3453217744506701
 40
0.3453217744506701
 40
0.3453217744506701
 10
-156.4442970967839
 20
-210.2819992268614
 30
0.0
 10
-156.4748274040402
 20
-210.2749588265449
 30
0.0
 10
-156.5340533251878
 20
-210.2613011278247
 30
0.0
 10
-156.6230856007942
 20
-210.2657746168993
 30
0.0
 10
-156.7053228363109
 20
-210.2887392313625
 30
0.0
 10
-156.7497676103149
 20
-210.3211225229315
 30
0.0
 10
-156.7716239321379
 20
-210.3370474557444
 30
0.0
 11
-156.4442970967839
 21
-210.2819992268614
 31
0.0
 11
-156.5363695379259
 21
-210.2653222385807
 31
0.0
 11
-156.6242310245772
 21
-210.2692119127759
 31
0.0
 11
-156.7038631348921
 21
-210.2934904938729
 31
0.0
 11
-156.7716239321379
 21
-210.3370474557444
 31
0.0
  0
SPLINE
  5
156
330
47
100
AcDbEntity
  8
0
  6
Continuous
 62
     7
100
AcDbSpline
210
0.0
220
0.0
230
1.0
 70
     8
 71
     3
 72
    11
 73
     7
 74
     5
 42
0.000000001
 43
0.0000000001
 44
0.00000001
 40
0.0
 40
0.0
 40
0.0
 40
0.0
 40
0.4557965588129171
 40
0.922387971574257
 40
1.408563928666861
 40
1.919815082949652
 40
1.919815082949652
 40
1.919815082949652
 40
1.919815082949652
 10
-182.2909624654116
 20
-202.9715517794814
 30
0.0
 10
-182.3991778130267
 20
-203.0792818679558
 30
0.0
 10
-182.6181714144414
 20
-203.2972934793803
 30
0.0
 10
-182.8409008320093
 20
-203.7171702525862
 30
0.0
 10
-182.9847026047362
 20
-204.1876330516628
 30
0.0
 10
-183.0011803621974
 20
-204.5208917858584
 30
0.0
 10
-183.0096263578716
 20
-204.6917101959442
 30
0.0
 11
-182.2909624654116
 21
-202.9715517794814
 31
0.0
 11
-182.5977487802126
 21
-203.3086462195302
 31
0.0
 11
-182.8241166034248
 21
-203.7166476377686
 31
0.0
 11
-182.9628777370187
 21
-204.1826008661096
 31
0.0
 11
-183.0096263578716
 21
-204.6917101959442
 31
0.0
  0
SPLINE
  5
157
330
47
100
AcDbEntity
  8
0
  6
Continuous
 62
     7
100
AcDbSpline
210
0.0
220
0.0
230
1.0
 70
     8
 71
     3
 72
     9
 73
     5
 74
     3
 42
0.000000001
 43
0.0000000001
 44
0.00000001
 40
0.0
 40
0.0
 40
0.0
 40
0.0
 40
0.0404195285522795
 40
0.0804893436039498
 40
0.0804893436039498
 40
0.0804893436039498
 40
0.0804893436039498
 10
-184.6767252601566
 20
-209.4066126186507
 30
0.0
 10
-184.6646533810317
 20
-209.4005357288794
 30
0.0
 10
-184.6406140799849
 20
-209.3884345100398
 30
0.0
 10
-184.6196450177575
 20
-209.3715650304608
 30
0.0
 10
-184.6092060459379
 20
-209.3631669301462
 30
0.0
 11
-184.6767252601566
 21
-209.4066126186507
 31
0.0
 11
-184.6412838716466
 21
-209.3871794942022
 31
0.0
 11
-184.6092060459379
 21
-209.3631669301462
 31
0.0
  0
SPLINE
  5
158
330
47
100
AcDbEntity
  8
0
  6
Continuous
 62
     7
100
AcDbSpline
210
0.0
220
0.0
230
1.0
 70
     8
 71
     3
 72
    11
 73
     7
 74
     5
 42
0.000000001
 43
0.0000000001
 44
0.00000001
 40
0.0
 40
0.0
 40
0.0
 40
0.0
 40
0.964044508799837
 40
1.949938633286592
 40
2.975075556818976
 40
4.050672365260787
 40
4.050672365260787
 40
4.050672365260787
 40
4.050672365260787
 10
-182.3121152948574
 20
-211.907870066595
 30
0.0
 10
-182.0843358578248
 20
-211.6790731816263
 30
0.0
 10
-181.6236144809975
 20
-211.2162938280068
 30
0.0
 10
-181.1477872224167
 20
-210.3333558229473
 30
0.0
 10
-180.8316802774955
 20
-209.3459917356072
 30
0.0
 10
-180.7829240034652
 20
-208.6450736713355
 30
0.0
 10
-180.757960308032
 20
-208.2861965688137
 30
0.0
 11
-182.3121152948574
 21
-211.907870066595
 31
0.0
 11
-181.6651607769969
 21
-211.1931451757032
 31
0.0
 11
-181.1818676004593
 21
-210.3338344433707
 31
0.0
 11
-180.8764695586672
 21
-209.355244768362
 31
0.0
 11
-180.757960308032
 21
-208.2861965688137
 31
0.0
  0
SPLINE
  5
159
330
47
100
AcDbEntity
  8
0
  6
Continuous
 62
     7
100
AcDbSpline
210
0.0
220
0.0
230
1.0
 70
     8
 71
     3
 72
    11
 73
     7
 74
     5
 42
0.000000001
 43
0.0000000001
 44
0.00000001
 40
0.0
 40
0.0
 40
0.0
 40
0.0
 40
0.6362800495369509
 40
1.23432334283337
 40
1.800429874212844
 40
2.34818810955879
 40
2.34818810955879
 40
2.34818810955879
 40
2.34818810955879
 10
-180.0651399850044
 20
-202.597223823077
 30
0.0
 10
-180.2727460750338
 20
-202.5493491007665
 30
0.0
 10
-180.6754823303961
 20
-202.4564766648535
 30
0.0
 10
-181.2809018151449
 20
-202.4868964301338
 30
0.0
 10
-181.8401150483134
 20
-202.6430557733084
 30
0.0
 10
-182.1423394739021
 20
-202.8632622340853
 30
0.0
 10
-182.2909624654116
 20
-202.9715517794814
 30
0.0
 11
-180.0651399850044
 21
-202.597223823077
 31
0.0
 11
-180.6912325847704
 21
-202.4838203027684
 31
0.0
 11
-181.2886906939989
 21
-202.5102700872957
 31
0.0
 11
-181.8301890441401
 21
-202.6753644387551
 31
0.0
 11
-182.2909624654116
 21
-202.9715517794814
 31
0.0
  0
SPLINE
  5
15A
330
47
100
AcDbEntity
  8
0
  6
Continuous
 62
     7
100
AcDbSpline
210
0.0
220
0.0
230
1.0
 70
     8
 71
     3
 72
    13
 73
     9
 74
     7
 42
0.000000001
 43
0.0000000001
 44
0.00000001
 40
0.0
 40
0.0
 40
0.0
 40
0.0
 40
0.179368983794132
 40
0.3710881307364323
 40
0.5710219848030933
 40
0.7732735077558096
 40
0.9714811854860171
 40
1.160102973305624
 40
1.160102973305624
 40
1.160102973305624
 40
1.160102973305624
 10
-181.5353426393602
 20
-205.2130178440769
 30
0.0
 10
-181.53352150269
 20
-205.2730938435788
 30
0.0
 10
-181.5297538231542
 20
-205.397382277774
 30
0.0
 10
-181.4646929400358
 20
-205.5791310028154
 30
0.0
 10
-181.3631454347097
 20
-205.7502810702421
 30
0.0
 10
-181.2266156728889
 20
-205.8981279343145
 30
0.0
 10
-181.0673394066173
 20
-206.0169345155073
 30
0.0
 10
-180.945926117745
 20
-206.0619918496681
 30
0.0
 10
-180.8867238212622
 20
-206.0839622348376
 30
0.0
 11
-181.5353426393602
 21
-205.2130178440769
 31
0.0
 11
-181.5208811341363
 21
-205.3918029042902
 31
0.0
 11
-181.4602752735507
 21
-205.5736906774857
 31
0.0
 11
-181.3579343149708
 21
-205.745445954553
 31
0.0
 11
-181.221305800243
 21
-205.8945711646578
 31
0.0
 11
-181.0603310623052
 21
-206.0102146594439
 31
0.0
 11
-180.8867238212622
 21
-206.0839622348376
 31
0.0
  0
SPLINE
  5
15B
330
47
100
AcDbEntity
  8
0
  6
Continuous
 62
     7
100
AcDbSpline
210
0.0
220
0.0
230
1.0
 70
     8
 71
     3
 72
    11
 73
     7
 74
     5
 42
0.000000001
 43
0.0000000001
 44
0.00000001
 40
0.0
 40
0.0
 40
0.0
 40
0.0
 40
0.2110327507967469
 40
0.4263801911950261
 40
0.6496619786869529
 40
0.8833257088415403
 40
0.8833257088415403
 40
0.8833257088415403
 40
0.8833257088415403
 10
-181.1780512252079
 20
-204.4298360684696
 30
0.0
 10
-181.228383580614
 20
-204.4794147949447
 30
0.0
 10
-181.3300773552358
 20
-204.5795859242824
 30
0.0
 10
-181.4377583524251
 20
-204.7701075914031
 30
0.0
 10
-181.5121049613137
 20
-204.9832457817792
 30
0.0
 10
-181.527480307431
 20
-205.1352757665315
 30
0.0
 10
-181.5353426393602
 20
-205.2130178440769
 30
0.0
 11
-181.1780512252079
 21
-204.4298360684696
 31
0.0
 11
-181.3214490610821
 21
-204.5846646290708
 31
0.0
 11
-181.4306111230671
 21
-204.7702937357694
 31
0.0
 11
-181.5025625366864
 21
-204.9816648585521
 31
0.0
 11
-181.5353426393602
 21
-205.2130178440769
 31
0.0
  0
SPLINE
  5
15C
330
47
100
AcDbEntity
  8
0
  6
Continuous
 62
     7
100
AcDbSpline
210
0.0
220
0.0
230
1.0
 70
     8
 71
     3
 72
    11
 73
     7
 74
     5
 42
0.000000001
 43
0.0000000001
 44
0.00000001
 40
0.0
 40
0.0
 40
0.0
 40
0.0
 40
0.3181400245871832
 40
0.6171616700951357
 40
0.9002149343632718
 40
1.174094051046996
 40
1.174094051046996
 40
1.174094051046996
 40
1.174094051046996
 10
-180.0651399850044
 20
-204.2426720902675
 30
0.0
 10
-180.1689430299599
 20
-204.2187347291259
 30
0.0
 10
-180.3703111583687
 20
-204.1722985184638
 30
0.0
 10
-180.6730208998272
 20
-204.1875083976925
 30
0.0
 10
-180.9526275136825
 20
-204.2655880723121
 30
0.0
 10
-181.1037397297215
 20
-204.3756912959671
 30
0.0
 10
-181.1780512252079
 20
-204.4298360684696
 30
0.0
 11
-180.0651399850044
 21
-204.2426720902675
 31
0.0
 11
-180.3781862848874
 21
-204.1859703301132
 31
0.0
 11
-180.6769153395016
 21
-204.1991952223768
 31
0.0
 11
-180.9476645145722
 21
-204.2817423981065
 31
0.0
 11
-181.1780512252079
 21
-204.4298360684696
 31
0.0
  0
SPLINE
  5
15D
330
47
100
AcDbEntity
  8
0
  6
Continuous
 62
     7
100
AcDbSpline
210
0.0
220
0.0
230
1.0
 70
     8
 71
     3
 72
     9
 73
     5
 74
     3
 42
0.000000001
 43
0.0000000001
 44
0.00000001
 40
0.0
 40
0.0
 40
0.0
 40
0.0
 40
0.706155367533377
 40
1.421178862701657
 40
1.421178862701657
 40
1.421178862701657
 40
1.421178862701657
 10
-176.8121152948574
 20
-207.1447303457806
 30
0.0
 10
-176.6414163277922
 20
-206.9812122880384
 30
0.0
 10
-176.2978747156687
 20
-206.6521226466778
 30
0.0
 10
-176.0454789404657
 20
-206.2488287877681
 30
0.0
 10
-175.9184935885822
 20
-206.0459235795207
 30
0.0
 11
-176.8121152948574
 21
-207.1447303457806
 31
0.0
 11
-176.3225213730679
 21
-206.6358559054606
 31
0.0
 11
-175.9184935885822
 21
-206.0459235795207
 31
0.0
  0
SPLINE
  5
15E
330
47
100
AcDbEntity
  8
0
  6
Continuous
 62
     7
100
AcDbSpline
210
0.0
220
0.0
230
1.0
 70
     8
 71
     3
 72
    19
 73
    15
 74
    13
 42
0.000000001
 43
0.0000000001
 44
0.00000001
 40
0.0
 40
0.0
 40
0.0
 40
0.0
 40
0.2676406686771109
 40
0.5808314346120539
 40
0.9601912858928822
 40
1.403844025770312
 40
1.89644243330483
 40
2.415200681653846
 40
2.93395893000292
 40
3.426557337537493
 40
3.87021007741486
 40
4.249569928695728
 40
4.562760694630689
 40
4.8304013633078
 40
4.8304013633078
 40
4.8304013633078
 40
4.8304013633078
 10
-155.9039114138138
 20
-197.0434688914266
 30
0.0
 10
-155.9191509602289
 20
-197.133083154152
 30
0.0
 10
-155.9522237086175
 20
-197.3275632346365
 30
0.0
 10
-156.1815346696026
 20
-197.571021096461
 30
0.0
 10
-156.5020424647987
 20
-197.7726691270444
 30
0.0
 10
-156.9167354117701
 20
-197.9257801495781
 30
0.0
 10
-157.3933913499777
 20
-198.021823658692
 30
0.0
 10
-157.9039114138137
 20
-198.0545714616765
 30
0.0
 10
-158.4144314776498
 20
-198.021823658692
 30
0.0
 10
-158.8910874158575
 20
-197.9257801495781
 30
0.0
 10
-159.3057803628289
 20
-197.7726691270444
 30
0.0
 10
-159.6262881580249
 20
-197.571021096461
 30
0.0
 10
-159.8555991190102
 20
-197.3275632346366
 30
0.0
 10
-159.8886718673987
 20
-197.133083154152
 30
0.0
 10
-159.9039114138138
 20
-197.0434688914266
 30
0.0
 11
-155.9039114138138
 21
-197.0434688914266
 31
0.0
 11
-155.9720602762784
 21
-197.3022878675265
 31
0.0
 11
-156.1718606062448
 21
-197.5434688914266
 31
0.0
 11
-156.4896982284781
 21
-197.7505754840944
 31
0.0
 11
-156.9039114138138
 21
-197.9094942952111
 31
0.0
 11
-157.386273461614
 21
-198.0093944601943
 31
0.0
 11
-157.9039114138137
 21
-198.0434688914266
 31
0.0
 11
-158.4215493660136
 21
-198.0093944601943
 31
0.0
 11
-158.9039114138138
 21
-197.9094942952111
 31
0.0
 11
-159.3181245991494
 21
-197.7505754840945
 31
0.0
 11
-159.6359622213827
 21
-197.5434688914266
 31
0.0
 11
-159.8357625513492
 21
-197.3022878675265
 31
0.0
 11
-159.9039114138138
 21
-197.0434688914266
 31
0.0
  0
SPLINE
  5
15F
330
47
100
AcDbEntity
  8
0
  6
Continuous
 62
     7
100
AcDbSpline
210
0.0
220
0.0
230
1.0
 70
     8
 71
     3
 72
    19
 73
    15
 74
    13
 42
0.000000001
 43
0.0000000001
 44
0.00000001
 40
0.0
 40
0.0
 40
0.0
 40
0.0
 40
0.4148430388278267
 40
0.9002887280266421
 40
1.488296496112521
 40
2.175958241578477
 40
2.939485771591311
 40
3.743561054513198
 40
4.547636337435082
 40
5.311163867447922
 40
5.998825612913915
 40
6.586833380999786
 40
7.072279070198579
 40
7.487122109026386
 40
7.487122109026386
 40
7.487122109026386
 40
7.487122109026386
 10
-154.8014115144653
 20
-172.0997721698698
 30
0.0
 10
-154.8250328115441
 20
-172.2386742778906
 30
0.0
 10
-154.8762955617538
 20
-172.5401184082076
 30
0.0
 10
-155.2317275698702
 20
-172.9174780820852
 30
0.0
 10
-155.7285146465738
 20
-173.2300325329506
 30
0.0
 10
-156.3712887152356
 20
-173.4673546153211
 30
0.0
 10
-157.1101054172915
 20
-173.6162220539965
 30
0.0
 10
-157.9014115144652
 20
-173.666981148067
 30
0.0
 10
-158.692717611639
 20
-173.6162220539966
 30
0.0
 10
-159.4315343136949
 20
-173.4673546153211
 30
0.0
 10
-160.0743083823567
 20
-173.2300325329507
 30
0.0
 10
-160.5710954590602
 20
-172.9174780820851
 30
0.0
 10
-160.9265274671767
 20
-172.5401184082077
 30
0.0
 10
-160.9777902173863
 20
-172.2386742778905
 30
0.0
 10
-161.0014115144652
 20
-172.0997721698698
 30
0.0
 11
-154.8014115144653
 21
-172.0997721698698
 31
0.0
 11
-154.9070422512854
 21
-172.5009415828246
 31
0.0
 11
-155.2167327627335
 21
-172.8747721698698
 31
0.0
 11
-155.7093810771951
 21
-173.1957873885049
 31
0.0
 11
-156.3514115144652
 21
-173.4421115457357
 31
0.0
 11
-157.0990726885556
 21
-173.5969568014597
 31
0.0
 11
-157.9014115144652
 21
-173.6497721698698
 31
0.0
 11
-158.7037503403748
 21
-173.5969568014597
 31
0.0
 11
-159.4514115144652
 21
-173.4421115457357
 31
0.0
 11
-160.0934419517354
 21
-173.1957873885049
 31
0.0
 11
-160.5860902661969
 21
-172.8747721698697
 31
0.0
 11
-160.895780777645
 21
-172.5009415828246
 31
0.0
 11
-161.0014115144652
 21
-172.0997721698698
 31
0.0
  0
SPLINE
  5
160
330
47
100
AcDbEntity
  8
0
  6
Continuous
 62
     7
100
AcDbSpline
210
0.0
220
0.0
230
1.0
 70
     8
 71
     3
 72
    17
 73
    13
 74
    11
 42
0.000000001
 43
0.0000000001
 44
0.00000001
 40
0.0
 40
0.0
 40
0.0
 40
0.0
 40
0.5880077727144608
 40
1.275669517170148
 40
2.039197043833292
 40
2.843272323300957
 40
3.647347602991676
 40
4.410875130563876
 40
5.098536874412386
 40
5.686544641453219
 40
6.171990334189549
 40
6.586833368396321
 40
6.586833368396321
 40
6.586833368396321
 40
6.586833368396321
 10
-160.586090266197
 20
-171.3247721698698
 30
0.0
 10
-160.4260161372642
 20
-171.2102263661128
 30
0.0
 10
-160.0787389411045
 20
-170.9617218555057
 30
0.0
 10
-159.4301167086895
 20
-170.7346821740423
 30
0.0
 10
-158.6931375649942
 20
-170.5825838949742
 30
0.0
 10
-157.9012962946261
 20
-170.5327657642641
 30
0.0
 10
-157.110134671783
 20
-170.5832708447496
 30
0.0
 10
-156.3712818478271
 20
-170.7322017981759
 30
0.0
 10
-155.7285161297549
 20
-170.969509197401
 30
0.0
 10
-155.2317272706507
 20
-171.2820667902406
 30
0.0
 10
-154.8762956113949
 20
-171.659425830382
 30
0.0
 10
-154.825032829346
 20
-171.960870031634
 30
0.0
 10
-154.8014115144653
 20
-172.0997721698698
 30
0.0
 11
-160.586090266197
 21
-171.3247721698698
 31
0.0
 11
-160.0934419517354
 21
-171.0037569512347
 31
0.0
 11
-159.4514115144652
 21
-170.757432794004
 31
0.0
 11
-158.7037503403748
 21
-170.6025875382799
 31
0.0
 11
-157.9014115144652
 21
-170.5497721698698
 31
0.0
 11
-157.0990726885556
 21
-170.6025875382799
 31
0.0
 11
-156.3514115144652
 21
-170.757432794004
 31
0.0
 11
-155.7093810771951
 21
-171.0037569512347
 31
0.0
 11
-155.2167327627334
 21
-171.3247721698698
 31
0.0
 11
-154.9070422512855
 21
-171.6986027569151
 31
0.0
 11
-154.8014115144653
 21
-172.0997721698698
 31
0.0
  0
SPLINE
  5
161
330
47
100
AcDbEntity
  8
0
  6
Continuous
 62
     7
100
AcDbSpline
210
0.0
220
0.0
230
1.0
 70
     8
 71
     3
 72
    15
 73
    11
 74
     9
 42
0.000000001
 43
0.0000000001
 44
0.00000001
 40
0.0
 40
0.0
 40
0.0
 40
0.0
 40
0.5720075578343767
 40
1.228054722747872
 40
1.946703607309415
 40
2.698499135691024
 40
3.450294664072689
 40
4.168943548634232
 40
4.824990713547719
 40
5.396998271382043
 40
5.396998271382043
 40
5.396998271382043
 40
5.396998271382043
 10
-160.4724035409017
 20
-172.9657975736542
 30
0.0
 10
-160.310422780819
 20
-172.8640466954363
 30
0.0
 10
-159.9626629651499
 20
-172.6455956729397
 30
0.0
 10
-159.3399918988459
 20
-172.4442842786785
 30
0.0
 10
-158.6430252000675
 20
-172.3106470230227
 30
0.0
 10
-157.9014115144653
 20
-172.2670860648347
 30
0.0
 10
-157.1597978288629
 20
-172.3106470230227
 30
0.0
 10
-156.4628311300846
 20
-172.4442842786785
 30
0.0
 10
-155.8401600637806
 20
-172.6455956729398
 30
0.0
 10
-155.4924002481115
 20
-172.8640466954364
 30
0.0
 10
-155.3304194880288
 20
-172.9657975736542
 30
0.0
 11
-160.4724035409017
 21
-172.9657975736542
 31
0.0
 11
-159.9766885997733
 21
-172.680386741616
 31
0.0
 11
-159.3575438052508
 21
-172.4634591048035
 31
0.0
 11
-158.6517926147758
 21
-172.3279176607911
 31
0.0
 11
-157.9014115144653
 21
-172.2818229774386
 31
0.0
 11
-157.1510304141547
 21
-172.3279176607911
 31
0.0
 11
-156.4452792236797
 21
-172.4634591048035
 31
0.0
 11
-155.8261344291572
 21
-172.6803867416161
 31
0.0
 11
-155.3304194880288
 21
-172.9657975736542
 31
0.0
  0
SPLINE
  5
162
330
47
100
AcDbEntity
  8
0
  6
Continuous
 62
     7
100
AcDbSpline
210
0.0
220
0.0
230
1.0
 70
     8
 71
     3
 72
    15
 73
    11
 74
     9
 42
0.000000001
 43
0.0000000001
 44
0.00000001
 40
0.0
 40
0.0
 40
0.0
 40
0.0
 40
0.3276172629167295
 40
0.701933164498328
 40
1.108528056806543
 40
1.528663349503231
 40
1.941985899535434
 40
2.328942985496945
 40
2.673332960505985
 40
2.965558370964804
 40
2.965558370964804
 40
2.965558370964804
 40
2.965558370964804
 10
-156.5720337836938
 20
-173.3431372786175
 30
0.0
 10
-156.6670559308613
 20
-173.2886214819008
 30
0.0
 10
-156.8706447116911
 20
-173.1718192116395
 30
0.0
 10
-157.2290871007976
 20
-173.0702061588506
 30
0.0
 10
-157.6252969331039
 20
-173.009221915429
 30
0.0
 10
-158.0397878119054
 20
-173.0011642455438
 30
0.0
 10
-158.4458590896551
 20
-173.0433230937525
 30
0.0
 10
-158.8162191721968
 20
-173.1364603392854
 30
0.0
 10
-159.136498174218
 20
-173.265765663682
 30
0.0
 10
-159.301475288602
 20
-173.4008515982136
 30
0.0
 10
-159.3772046892671
 20
-173.4628600710346
 30
0.0
 11
-156.5720337836938
 21
-173.3431372786175
 31
0.0
 11
-156.8621936401721
 21
-173.1910178284951
 31
0.0
 11
-157.2198226427324
 21
-173.0805013735414
 31
0.0
 11
-157.6217030498088
 21
-173.0187636437028
 31
0.0
 11
-158.0417429706205
 21
-173.0098121681403
 31
0.0
 11
-158.4526720266716
 21
-173.0542288362599
 31
0.0
 11
-158.8278115943517
 21
-173.1491292518217
 31
0.0
 11
-159.1428056602801
 21
-173.2883528033175
 31
0.0
 11
-159.3772046892671
 21
-173.4628600710346
 31
0.0
  0
ENDBLK
  5
49
330
47
100
AcDbEntity
  8
0
100
AcDbBlockEnd
  0
BLOCK
  5
4C
330
4A
100
AcDbEntity
  8
0
100
AcDbBlockBegin
  2
Allg1
 70
     0
 10
-164.0000000000024
 20
-192.000000021145
 30
0.0
  3
Allg1
  1

  0
INSERT
  5
4B
330
4A
100
AcDbEntity
  8
0
100
AcDbBlockReference
  2
OTTA_6-P_P_YE-select__1
 10
-185.5860519341303
 20
-219.631515966598
 30
0.0
  0
MTEXT
  5
164
330
4A
100
AcDbEntity
  8
1
 62
     6
100
AcDbMText
 10
-164.0000000000021
 20
-226.8377675048224
 30
0.0
 40
5.0
 41
0.0
 71
     2
 72
     1
  1
 
  7
CONVERTER_11
 73
     1
 44
1.32052821128451
  0
ENDBLK
  5
4D
330
4A
100
AcDbEntity
  8
0
100
AcDbBlockEnd
  0
BLOCK
  5
4F
330
4E
100
AcDbEntity
  8
0
100
AcDbBlockBegin
  2
OTTA_6-P_P_YE-select__2
 70
     0
 10
-316.9999993092717
 20
-196.4250020244181
 30
0.0
  3
OTTA_6-P_P_YE-select__2
  1

  0
LINE
  5
165
330
4E
100
AcDbEntity
  8
1
  6
DOT_CENTER
 62
     2
100
AcDbLine
 10
-287.8499994254934
 20
-188.1350020244182
 30
0.0
 11
-287.8499994254934
 21
-194.955002024418
 31
0.0
  0
LINE
  5
166
330
4E
100
AcDbEntity
  8
1
  6
DOT_CENTER
 62
     2
100
AcDbLine
 10
-284.4399994254935
 20
-191.5450020244181
 30
0.0
 11
-291.2599994254933
 21
-191.5450020244181
 31
0.0
  0
LINE
  5
167
330
4E
100
AcDbEntity
  8
1
  6
DOT_CENTER
 62
     2
100
AcDbLine
 10
-302.6499991930491
 20
-188.1350020244182
 30
0.0
 11
-302.6499991930491
 21
-194.955002024418
 31
0.0
  0
LINE
  5
168
330
4E
100
AcDbEntity
  8
1
  6
DOT_CENTER
 62
     2
100
AcDbLine
 10
-299.2399991930492
 20
-191.5450020244181
 30
0.0
 11
-306.059999193049
 21
-191.5450020244181
 31
0.0
  0
LINE
  5
169
330
4E
100
AcDbEntity
  8
0
  6
Continuous
 62
     7
100
AcDbLine
 10
-304.3763164410979
 20
-194.1198474098907
 30
0.0
 11
-303.3125883803016
 21
-193.0561193490942
 31
0.0
  0
LINE
  5
16A
330
4E
100
AcDbEntity
  8
0
  6
Continuous
 62
     7
100
AcDbLine
 10
-308.785873418942
 20
-185.4250020244181
 30
0.0
 11
-306.6499993092716
 21
-185.4250020244181
 31
0.0
  0
LINE
  5
16B
330
4E
100
AcDbEntity
  8
0
  6
Continuous
 62
     7
100
AcDbLine
 10
-306.6499993092716
 20
-185.4250020244181
 30
0.0
 11
-306.6499993092716
 21
-196.4250020244181
 31
0.0
  0
LINE
  5
16C
330
4E
100
AcDbEntity
  8
0
  6
Continuous
 62
     7
100
AcDbLine
 10
-308.785873418942
 20
-196.4250020244181
 30
0.0
 11
-306.6499993092716
 21
-196.4250020244181
 31
0.0
  0
LINE
  5
16D
330
4E
100
AcDbEntity
  8
0
  6
Continuous
 62
     7
100
AcDbLine
 10
-308.785873418942
 20
-185.4250020244181
 30
0.0
 11
-308.785873418942
 21
-196.4250020244181
 31
0.0
  0
LINE
  5
16E
330
4E
100
AcDbEntity
  8
0
  6
Continuous
 62
     7
100
AcDbLine
 10
-304.1611165177254
 20
-192.2075912116704
 30
0.0
 11
-305.2248445785218
 21
-193.2713192724668
 31
0.0
  0
LINE
  5
16F
330
4E
100
AcDbEntity
  8
0
  6
Continuous
 62
     7
100
AcDbLine
 10
-300.9236819450005
 20
-188.9701566389456
 30
0.0
 11
-301.987410005797
 21
-190.033884699742
 31
0.0
  0
LINE
  5
170
330
4E
100
AcDbEntity
  8
0
  6
Continuous
 62
     7
100
AcDbLine
 10
-301.1388818683731
 20
-190.8824128371658
 30
0.0
 11
-300.0751538075767
 21
-189.8186847763694
 31
0.0
  0
LINE
  5
171
330
4E
100
AcDbEntity
  8
0
  6
Continuous
 62
     7
100
AcDbLine
 10
-277.4252986642441
 20
-196.4250020244181
 30
0.0
 11
-277.4252986642441
 21
-185.4250020244181
 31
0.0
  0
LINE
  5
172
330
4E
100
AcDbEntity
  8
0
  6
Continuous
 62
     7
100
AcDbLine
 10
-283.8499993092714
 20
-185.4250020244181
 30
0.0
 11
-283.8499993092714
 21
-196.4250020244181
 31
0.0
  0
LINE
  5
173
330
4E
100
AcDbEntity
  8
0
  6
Continuous
 62
     7
100
AcDbLine
 10
-283.8499993092714
 20
-196.4250020244181
 30
0.0
 11
-306.6499993092716
 21
-196.4250020244181
 31
0.0
  0
LINE
  5
174
330
4E
100
AcDbEntity
  8
0
  6
Continuous
 62
     7
100
AcDbLine
 10
-283.8499993092714
 20
-196.4250020244181
 30
0.0
 11
-281.7141251996011
 21
-196.4250020244181
 31
0.0
  0
LINE
  5
175
330
4E
100
AcDbEntity
  8
0
  6
Continuous
 62
     7
100
AcDbLine
 10
-281.7141251996011
 20
-196.4250020244181
 30
0.0
 11
-277.5095192873506
 21
-196.4250020244181
 31
0.0
  0
LINE
  5
176
330
4E
100
AcDbEntity
  8
0
  6
Continuous
 62
     7
100
AcDbLine
 10
-283.8499993092714
 20
-185.4250020244181
 30
0.0
 11
-306.6499993092716
 21
-185.4250020244181
 31
0.0
  0
LINE
  5
177
330
4E
100
AcDbEntity
  8
0
  6
Continuous
 62
     7
100
AcDbLine
 10
-283.8499993092714
 20
-185.4250020244181
 30
0.0
 11
-281.7141251996011
 21
-185.4250020244181
 31
0.0
  0
LINE
  5
178
330
4E
100
AcDbEntity
  8
0
  6
Continuous
 62
     7
100
AcDbLine
 10
-275.5858734189415
 20
-185.4250020244181
 30
0.0
 11
-275.5858734189415
 21
-196.4250020244181
 31
0.0
  0
LINE
  5
179
330
4E
100
AcDbEntity
  8
0
  6
Continuous
 62
     7
100
AcDbLine
 10
-289.3611167501697
 20
-192.2075912116704
 30
0.0
 11
-290.4248448109661
 21
-193.2713192724668
 31
0.0
  0
LINE
  5
17A
330
4E
100
AcDbEntity
  8
0
  6
Continuous
 62
     7
100
AcDbLine
 10
-289.5763166735422
 20
-194.1198474098907
 30
0.0
 11
-288.5125886127459
 21
-193.0561193490943
 31
0.0
  0
LINE
  5
17B
330
4E
100
AcDbEntity
  8
0
  6
Continuous
 62
     7
100
AcDbLine
 10
-286.1236821774448
 20
-188.9701566389456
 30
0.0
 11
-287.1874102382412
 21
-190.033884699742
 31
0.0
  0
LINE
  5
17C
330
4E
100
AcDbEntity
  8
0
  6
Continuous
 62
     7
100
AcDbLine
 10
-286.3388821008174
 20
-190.8824128371658
 30
0.0
 11
-285.275154040021
 21
-189.8186847763694
 31
0.0
  0
LINE
  5
17D
330
4E
100
AcDbEntity
  8
0
  6
Continuous
 62
     7
100
AcDbLine
 10
-277.5095192873506
 20
-185.4250020244181
 30
0.0
 11
-277.5095192873506
 21
-196.4250020244181
 31
0.0
  0
LINE
  5
17E
330
4E
100
AcDbEntity
  8
0
  6
Continuous
 62
     7
100
AcDbLine
 10
-312.9904793311933
 20
-196.4250020244181
 30
0.0
 11
-312.9904793311933
 21
-185.4250020244181
 31
0.0
  0
LINE
  5
17F
330
4E
100
AcDbEntity
  8
0
  6
Continuous
 62
     7
100
AcDbLine
 10
-308.785873418942
 20
-196.4250020244181
 30
0.0
 11
-312.9904793311933
 21
-196.4250020244181
 31
0.0
  0
LINE
  5
180
330
4E
100
AcDbEntity
  8
0
  6
Continuous
 62
     7
100
AcDbLine
 10
-312.9904793311933
 20
-185.4250020244181
 30
0.0
 11
-308.785873418942
 21
-185.4250020244181
 31
0.0
  0
LINE
  5
181
330
4E
100
AcDbEntity
  8
0
  6
Continuous
 62
     7
100
AcDbLine
 10
-281.7141251996011
 20
-185.4250020244181
 30
0.0
 11
-281.7141251996011
 21
-196.4250020244181
 31
0.0
  0
LINE
  5
182
330
4E
100
AcDbEntity
  8
0
  6
Continuous
 62
     7
100
AcDbLine
 10
-313.0746999542999
 20
-185.4250020244181
 30
0.0
 11
-312.9904793311933
 21
-185.4250020244181
 31
0.0
  0
LINE
  5
183
330
4E
100
AcDbEntity
  8
0
  6
Continuous
 62
     7
100
AcDbLine
 10
-314.9141251996018
 20
-185.4250020244181
 30
0.0
 11
-313.0746999542999
 21
-185.4250020244181
 31
0.0
  0
LINE
  5
184
330
4E
100
AcDbEntity
  8
0
  6
Continuous
 62
     7
100
AcDbLine
 10
-277.4252986642441
 20
-185.4250020244181
 30
0.0
 11
-275.5858734189415
 21
-185.4250020244181
 31
0.0
  0
LINE
  5
185
330
4E
100
AcDbEntity
  8
0
  6
Continuous
 62
     7
100
AcDbLine
 10
-275.5858734189415
 20
-185.4250020244181
 30
0.0
 11
-273.4999993092716
 21
-185.4250020244181
 31
0.0
  0
LINE
  5
186
330
4E
100
AcDbEntity
  8
0
  6
Continuous
 62
     7
100
AcDbLine
 10
-281.7141251996011
 20
-185.4250020244181
 30
0.0
 11
-277.5095192873506
 21
-185.4250020244181
 31
0.0
  0
LINE
  5
187
330
4E
100
AcDbEntity
  8
0
  6
Continuous
 62
     7
100
AcDbLine
 10
-277.5095192873506
 20
-185.4250020244181
 30
0.0
 11
-277.4252986642441
 21
-185.4250020244181
 31
0.0
  0
LINE
  5
188
330
4E
100
AcDbEntity
  8
0
  6
Continuous
 62
     7
100
AcDbLine
 10
-313.0746999542999
 20
-196.4250020244181
 30
0.0
 11
-313.0746999542999
 21
-185.4250020244181
 31
0.0
  0
LINE
  5
189
330
4E
100
AcDbEntity
  8
0
  6
Continuous
 62
     7
100
AcDbLine
 10
-314.9141251996018
 20
-196.4250020244181
 30
0.0
 11
-316.9999993092717
 21
-196.4250020244181
 31
0.0
  0
LINE
  5
18A
330
4E
100
AcDbEntity
  8
0
  6
Continuous
 62
     7
100
AcDbLine
 10
-316.9999993092717
 20
-185.4250020244181
 30
0.0
 11
-314.9141251996018
 21
-185.4250020244181
 31
0.0
  0
LINE
  5
18B
330
4E
100
AcDbEntity
  8
0
  6
Continuous
 62
     7
100
AcDbLine
 10
-314.9141251996018
 20
-185.4250020244181
 30
0.0
 11
-314.9141251996018
 21
-196.4250020244181
 31
0.0
  0
LINE
  5
18C
330
4E
100
AcDbEntity
  8
0
  6
Continuous
 62
     7
100
AcDbLine
 10
-273.4999993092716
 20
-185.4250020244181
 30
0.0
 11
-273.4999993092729
 21
-196.4250020244181
 31
0.0
  0
LINE
  5
18D
330
4E
100
AcDbEntity
  8
0
  6
Continuous
 62
     7
100
AcDbLine
 10
-314.9141251996018
 20
-196.4250020244181
 30
0.0
 11
-313.0746999542999
 21
-196.4250020244181
 31
0.0
  0
LINE
  5
18E
330
4E
100
AcDbEntity
  8
0
  6
Continuous
 62
     7
100
AcDbLine
 10
-313.0746999542999
 20
-196.4250020244181
 30
0.0
 11
-312.9904793311933
 21
-196.4250020244181
 31
0.0
  0
LINE
  5
18F
330
4E
100
AcDbEntity
  8
0
  6
Continuous
 62
     7
100
AcDbLine
 10
-275.5858734189415
 20
-196.4250020244181
 30
0.0
 11
-273.4999993092729
 21
-196.4250020244181
 31
0.0
  0
LINE
  5
190
330
4E
100
AcDbEntity
  8
0
  6
Continuous
 62
     7
100
AcDbLine
 10
-277.4252986642441
 20
-196.4250020244181
 30
0.0
 11
-275.5858734189415
 21
-196.4250020244181
 31
0.0
  0
LINE
  5
191
330
4E
100
AcDbEntity
  8
0
  6
Continuous
 62
     7
100
AcDbLine
 10
-277.5095192873506
 20
-196.4250020244181
 30
0.0
 11
-277.4252986642441
 21
-196.4250020244181
 31
0.0
  0
LINE
  5
192
330
4E
100
AcDbEntity
  8
0
  6
Continuous
 62
     7
100
AcDbLine
 10
-316.9999993092717
 20
-185.4250020244181
 30
0.0
 11
-316.9999993092717
 21
-196.4250020244181
 31
0.0
  0
ARC
  5
193
330
4E
100
AcDbEntity
  8
0
  6
Continuous
 62
     7
100
AcDbCircle
 10
-302.6499991930491
 20
-191.5450020244181
 30
0.0
 40
3.099999999999839
100
AcDbArc
 50
56.15993687218657
 51
213.8400631278128
  0
ARC
  5
194
330
4E
100
AcDbEntity
  8
0
  6
Continuous
 62
     7
100
AcDbCircle
 10
-287.8499994254934
 20
-191.5450020244181
 30
0.0
 40
3.100000000000029
100
AcDbArc
 50
236.1599368721851
 51
33.84006312781575
  0
ARC
  5
195
330
4E
100
AcDbEntity
  8
0
  6
Continuous
 62
     7
100
AcDbCircle
 10
-302.6499991930491
 20
-191.5450020244181
 30
0.0
 40
1.64999999999988
100
AcDbArc
 50
66.32368626350363
 51
203.6763137365004
  0
ARC
  5
196
330
4E
100
AcDbEntity
  8
0
  6
Continuous
 62
     7
100
AcDbCircle
 10
-302.6499991930491
 20
-191.5450020244181
 30
0.0
 40
1.649999999999868
100
AcDbArc
 50
23.6763137365052
 51
66.32368626350363
  0
ARC
  5
197
330
4E
100
AcDbEntity
  8
0
  6
Continuous
 62
     7
100
AcDbCircle
 10
-302.6499991930491
 20
-191.5450020244181
 30
0.0
 40
1.65000000000018
100
AcDbArc
 50
203.6763137365004
 51
246.323686263491
  0
ARC
  5
198
330
4E
100
AcDbEntity
  8
0
  6
Continuous
 62
     7
100
AcDbCircle
 10
-302.6499991930491
 20
-191.5450020244181
 30
0.0
 40
3.100000000000091
100
AcDbArc
 50
213.8400631278128
 51
236.1599368721842
  0
ARC
  5
199
330
4E
100
AcDbEntity
  8
0
  6
Continuous
 62
     7
100
AcDbCircle
 10
-302.6499991930491
 20
-191.5450020244181
 30
0.0
 40
1.65000000000004
100
AcDbArc
 50
246.323686263491
 51
23.6763137365052
  0
ARC
  5
19A
330
4E
100
AcDbEntity
  8
0
  6
Continuous
 62
     7
100
AcDbCircle
 10
-302.6499991930491
 20
-191.5450020244181
 30
0.0
 40
3.100000000000023
100
AcDbArc
 50
0.0
 51
33.84006312781634
  0
ARC
  5
19B
330
4E
100
AcDbEntity
  8
0
  6
Continuous
 62
     7
100
AcDbCircle
 10
-302.6499991930491
 20
-191.5450020244181
 30
0.0
 40
3.10000000000006
100
AcDbArc
 50
236.1599368721842
 51
0.0
  0
ARC
  5
19C
330
4E
100
AcDbEntity
  8
0
  6
Continuous
 62
     7
100
AcDbCircle
 10
-302.6499991930491
 20
-191.5450020244181
 30
0.0
 40
3.099999999999808
100
AcDbArc
 50
33.84006312781634
 51
56.15993687218657
  0
ARC
  5
19D
330
4E
100
AcDbEntity
  8
0
  6
Continuous
 62
     7
100
AcDbCircle
 10
-287.8499994254934
 20
-191.5450020244181
 30
0.0
 40
3.099999999999966
100
AcDbArc
 50
180.0
 51
213.8400631278134
  0
ARC
  5
19E
330
4E
100
AcDbEntity
  8
0
  6
Continuous
 62
     7
100
AcDbCircle
 10
-287.8499994254934
 20
-191.5450020244181
 30
0.0
 40
3.100000000000044
100
AcDbArc
 50
213.8400631278134
 51
236.1599368721851
  0
ARC
  5
19F
330
4E
100
AcDbEntity
  8
0
  6
Continuous
 62
     7
100
AcDbCircle
 10
-287.8499994254934
 20
-191.5450020244181
 30
0.0
 40
3.099999999999871
100
AcDbArc
 50
56.1599368721857
 51
180.0
  0
ARC
  5
1A0
330
4E
100
AcDbEntity
  8
0
  6
Continuous
 62
     7
100
AcDbCircle
 10
-287.8499994254934
 20
-191.5450020244181
 30
0.0
 40
3.099999999999855
100
AcDbArc
 50
33.84006312781575
 51
56.1599368721857
  0
ARC
  5
1A1
330
4E
100
AcDbEntity
  8
0
  6
Continuous
 62
     7
100
AcDbCircle
 10
-287.8499994254934
 20
-191.5450020244181
 30
0.0
 40
1.64999999999992
100
AcDbArc
 50
23.6763137365044
 51
66.32368626350002
  0
ARC
  5
1A2
330
4E
100
AcDbEntity
  8
0
  6
Continuous
 62
     7
100
AcDbCircle
 10
-287.8499994254934
 20
-191.5450020244181
 30
0.0
 40
1.650000000000144
100
AcDbArc
 50
246.3236862634925
 51
23.6763137365044
  0
ARC
  5
1A3
330
4E
100
AcDbEntity
  8
0
  6
Continuous
 62
     7
100
AcDbCircle
 10
-287.8499994254934
 20
-191.5450020244181
 30
0.0
 40
1.650000000000128
100
AcDbArc
 50
203.6763137365012
 51
246.3236862634925
  0
ARC
  5
1A4
330
4E
100
AcDbEntity
  8
0
  6
Continuous
 62
     7
100
AcDbCircle
 10
-287.8499994254934
 20
-191.5450020244181
 30
0.0
 40
1.649999999999926
100
AcDbArc
 50
66.32368626350002
 51
203.6763137365012
  0
ENDBLK
  5
50
330
4E
100
AcDbEntity
  8
0
100
AcDbBlockEnd
  0
BLOCK
  5
53
330
51
100
AcDbEntity
  8
0
100
AcDbBlockBegin
  2
Drfsicht1
 70
     0
 10
-295.2499999999985
 20
-190.9250020244131
 30
0.0
  3
Drfsicht1
  1

  0
INSERT
  5
52
330
51
100
AcDbEntity
  8
0
100
AcDbBlockReference
  2
OTTA_6-P_P_YE-select__2
 10
-316.9999993092717
 20
-196.4250020244181
 30
0.0
  0
MTEXT
  5
1A5
330
51
100
AcDbEntity
  8
1
 62
     6
100
AcDbMText
 10
-295.2499999999986
 20
-201.4250020244131
 30
0.0
 40
5.0
 41
0.0
 71
     2
 72
     1
  1
 
  7
CONVERTER_11
 73
     1
 44
1.32052821128451
  0
DIMENSION
  5
1B0
330
51
100
AcDbEntity
  8
1
100
AcDbDimension
  2
*D17
 10
-326.9999993092717
 20
-196.4250020244181
 30
0.0
 11
-330.2499993092717
 21
-191.225253912301
 31
0.0
 70
    33
  1
<>
 71
     5
 42
-1.0
 53
90.0
  3
ME10_DIM_10
100
AcDbAlignedDimension
 13
-316.9999993092717
 23
-185.4250020244181
 33
0.0
 14
-316.9999993092717
 24
-196.4250020244181
 34
0.0
  0
ENDBLK
  5
54
330
51
100
AcDbEntity
  8
0
100
AcDbBlockEnd
  0
BLOCK
  5
56
330
55
100
AcDbEntity
  8
0
100
AcDbBlockBegin
  2
OTTA_6-P_P_YE-select__3
 70
     0
 10
-216.5000006907283
 20
-146.4250000488284
 30
0.0
  3
OTTA_6-P_P_YE-select__3
  1

  0
LINE
  5
1B1
330
55
100
AcDbEntity
  8
0
  6
Continuous
 62
     7
100
AcDbLine
 10
-177.0095206688065
 20
-105.1018521056286
 30
0.0
 11
-182.4654807126489
 21
-101.9518521056288
 31
0.0
  0
LINE
  5
1B2
330
55
100
AcDbEntity
  8
0
  6
Continuous
 62
     7
100
AcDbLine
 10
-175.4750006907262
 20
-142.2073829979879
 30
0.0
 11
-173.250000690726
 21
-143.4919873469344
 31
0.0
  0
LINE
  5
1B3
330
55
100
AcDbEntity
  8
0
  6
Continuous
 62
     7
100
AcDbLine
 10
-176.3050006907259
 20
-135.904851452197
 30
0.0
 11
-174.8251492873551
 21
-134.4250000488266
 31
0.0
  0
LINE
  5
1B4
330
55
100
AcDbEntity
  8
0
  6
Continuous
 62
     7
100
AcDbLine
 10
-173.0000006907281
 20
-103.7505753349391
 30
0.0
 11
-173.0000006907265
 21
-134.4250000488265
 31
0.0
  0
LINE
  5
1B5
330
55
100
AcDbEntity
  8
0
  6
Continuous
 62
     7
100
AcDbLine
 10
-177.4250006907266
 20
-134.5777446710111
 30
0.0
 11
-177.4250006907267
 21
-133.875000048827
 31
0.0
  0
LINE
  5
1B6
330
55
100
AcDbEntity
  8
0
  6
Continuous
 62
     7
100
AcDbLine
 10
-177.5500006907261
 20
-141.3250000488268
 30
0.0
 11
-177.4500006907263
 21
-140.125000048827
 31
0.0
  0
LINE
  5
1B7
330
55
100
AcDbEntity
  8
0
  6
Continuous
 62
     7
100
AcDbLine
 10
-177.2785540813198
 20
-134.9312980616045
 30
0.0
 11
-176.3050006907259
 21
-135.904851452197
 31
0.0
  0
LINE
  5
1B8
330
55
100
AcDbEntity
  8
0
  6
Continuous
 62
     7
100
AcDbLine
 10
-174.8251492873551
 20
-134.4250000488266
 30
0.0
 11
-173.0000006907265
 21
-134.4250000488265
 31
0.0
  0
LINE
  5
1B9
330
55
100
AcDbEntity
  8
0
  6
Continuous
 62
     7
100
AcDbLine
 10
-175.9750006907262
 20
-141.3413575942029
 30
0.0
 11
-175.9750006907263
 21
-138.3250000488267
 31
0.0
  0
LINE
  5
1BA
330
55
100
AcDbEntity
  8
0
  6
Continuous
 62
     7
100
AcDbLine
 10
-173.0000006907259
 20
-146.4250000488265
 30
0.0
 11
-173.000000690726
 21
-143.9250000488265
 31
0.0
  0
LINE
  5
1BB
330
55
100
AcDbEntity
  8
0
  6
Continuous
 62
     7
100
AcDbLine
 10
-176.7804170907138
 20
-146.4250000488267
 30
0.0
 11
-173.0000006907259
 21
-146.4250000488265
 31
0.0
  0
LINE
  5
1BC
330
55
100
AcDbEntity
  8
0
  6
Continuous
 62
     7
100
AcDbLine
 10
-212.4904807126493
 20
-105.1018521056305
 30
0.0
 11
-213.0179807126496
 21
-104.1881953046382
 31
0.0
  0
LINE
  5
1BD
330
55
100
AcDbEntity
  8
0
  6
Continuous
 62
     7
100
AcDbLine
 10
-175.0858748003981
 20
-102.5462953562255
 30
0.0
 11
-176.9253000457001
 21
-103.9322678370608
 31
0.0
  0
LINE
  5
1BE
330
55
100
AcDbEntity
  8
0
  6
Continuous
 62
     7
100
AcDbLine
 10
-213.0179807126496
 20
-104.1881953046382
 30
0.0
 11
-212.5747013357559
 21
-103.9322678370626
 31
0.0
  0
LINE
  5
1BF
330
55
100
AcDbEntity
  8
0
  6
Continuous
 62
     7
100
AcDbLine
 10
-214.4141265810584
 20
-102.5462953562276
 30
0.0
 11
-216.5000006907283
 21
-103.7505753349414
 31
0.0
  0
LINE
  5
1C0
330
55
100
AcDbEntity
  8
0
  6
Continuous
 62
     7
100
AcDbLine
 10
-212.5747013357559
 20
-103.9322678370626
 30
0.0
 11
-214.4141265810584
 21
-102.5462953562276
 31
0.0
  0
LINE
  5
1C1
330
55
100
AcDbEntity
  8
0
  6
Continuous
 62
     7
100
AcDbLine
 10
-173.0000006907281
 20
-103.7505753349391
 30
0.0
 11
-175.0858748003981
 21
-102.5462953562255
 31
0.0
  0
LINE
  5
1C2
330
55
100
AcDbEntity
  8
0
  6
Continuous
 62
     7
100
AcDbLine
 10
-207.0345206688076
 20
-101.9518521056302
 30
0.0
 11
-212.4904807126493
 21
-105.1018521056305
 31
0.0
  0
LINE
  5
1C3
330
55
100
AcDbEntity
  8
0
  6
Continuous
 62
     7
100
AcDbLine
 10
-176.4820206688064
 20
-104.1881953046359
 30
0.0
 11
-177.0095206688065
 21
-105.1018521056286
 31
0.0
  0
LINE
  5
1C4
330
55
100
AcDbEntity
  8
0
  6
Continuous
 62
     7
100
AcDbLine
 10
-176.9253000457001
 20
-103.9322678370608
 30
0.0
 11
-176.4820206688064
 21
-104.1881953046359
 31
0.0
  0
LINE
  5
1C5
330
55
100
AcDbEntity
  8
0
  6
Continuous
 62
     7
100
AcDbLine
 10
-207.5620206688076
 20
-101.0381953046378
 30
0.0
 11
-207.0345206688076
 21
-101.9518521056302
 31
0.0
  0
LINE
  5
1C6
330
55
100
AcDbEntity
  8
0
  6
Continuous
 62
     7
100
AcDbLine
 10
-182.4654807126489
 20
-101.9518521056288
 30
0.0
 11
-181.9379807126491
 21
-101.0381953046359
 31
0.0
  0
LINE
  5
1C7
330
55
100
AcDbEntity
  8
0
  6
Continuous
 62
     7
100
AcDbLine
 10
-208.1750006907264
 20
-140.1250000488287
 30
0.0
 11
-207.6500006907264
 21
-137.7568780844059
 31
0.0
  0
LINE
  5
1C8
330
55
100
AcDbEntity
  8
0
  6
Continuous
 62
     7
100
AcDbLine
 10
-207.6500006907264
 20
-137.7568780844059
 30
0.0
 11
-207.6500006907264
 21
-136.4250000488284
 31
0.0
  0
LINE
  5
1C9
330
55
100
AcDbEntity
  8
0
  6
Continuous
 62
     7
100
AcDbLine
 10
-212.2500006907262
 20
-141.3250000488287
 30
0.0
 11
-212.2500006907263
 21
-140.1250000488289
 31
0.0
  0
LINE
  5
1CA
330
55
100
AcDbEntity
  8
0
  6
Continuous
 62
     7
100
AcDbLine
 10
-211.4500006907261
 20
-141.5250000488289
 30
0.0
 11
-212.2500006907262
 21
-141.3250000488287
 31
0.0
  0
LINE
  5
1CB
330
55
100
AcDbEntity
  8
0
  6
Continuous
 62
     7
100
AcDbLine
 10
-216.5000006907264
 20
-142.9250000488289
 30
0.0
 11
-216.5000006907283
 21
-103.7505753349414
 31
0.0
  0
LINE
  5
1CC
330
55
100
AcDbEntity
  8
0
  6
Continuous
 62
     7
100
AcDbLine
 10
-181.9607871283532
 20
-137.4107864864537
 30
0.0
 11
-182.0750006907264
 21
-137.5250000488268
 31
0.0
  0
LINE
  5
1CD
330
55
100
AcDbEntity
  8
0
  6
Continuous
 62
     7
100
AcDbLine
 10
-182.0750006907264
 20
-137.5250000488268
 30
0.0
 11
-187.8750006907264
 21
-137.5250000488272
 31
0.0
  0
LINE
  5
1CE
330
55
100
AcDbEntity
  8
0
  6
Continuous
 62
     7
100
AcDbLine
 10
-188.2044199794612
 20
-136.2955905262761
 30
0.0
 11
-187.8750006907264
 21
-137.5250000488272
 31
0.0
  0
LINE
  5
1CF
330
55
100
AcDbEntity
  8
0
  6
Continuous
 62
     7
100
AcDbLine
 10
-188.8000006907265
 20
-135.9250000488273
 30
0.0
 11
-188.6873828926058
 21
-135.9250000488273
 31
0.0
  0
LINE
  5
1D0
330
55
100
AcDbEntity
  8
0
  6
Continuous
 62
     7
100
AcDbLine
 10
-211.4500006907261
 20
-141.9750000488283
 30
0.0
 11
-211.4500006907261
 21
-141.5250000488289
 31
0.0
  0
LINE
  5
1D1
330
55
100
AcDbEntity
  8
0
  6
Continuous
 62
     7
100
AcDbLine
 10
-212.2500006907263
 20
-140.1250000488289
 30
0.0
 11
-208.1750006907264
 21
-140.1250000488287
 31
0.0
  0
LINE
  5
1D2
330
55
100
AcDbEntity
  8
0
  6
Continuous
 62
     7
100
AcDbLine
 10
-207.1500006907265
 20
-135.9250000488283
 30
0.0
 11
-206.6500006907265
 21
-135.9250000488283
 31
0.0
  0
LINE
  5
1D3
330
55
100
AcDbEntity
  8
0
  6
Continuous
 62
     7
100
AcDbLine
 10
-189.3000006907263
 20
-138.7750000488273
 30
0.0
 11
-189.3000006907265
 21
-136.4250000488273
 31
0.0
  0
LINE
  5
1D4
330
55
100
AcDbEntity
  8
0
  6
Continuous
 62
     7
100
AcDbLine
 10
-206.1500006907264
 20
-136.4250000488283
 30
0.0
 11
-206.1500006907264
 21
-137.4993821318425
 31
0.0
  0
LINE
  5
1D5
330
55
100
AcDbEntity
  8
0
  6
Continuous
 62
     7
100
AcDbLine
 10
-216.5000006907264
 20
-142.9250000488289
 30
0.0
 11
-212.4000006907261
 21
-142.9250000488286
 31
0.0
  0
LINE
  5
1D6
330
55
100
AcDbEntity
  8
0
  6
Continuous
 62
     7
100
AcDbLine
 10
-206.1500006907286
 20
-97.77500004882816
 30
0.0
 11
-208.2858748003988
 21
-99.00814754100186
 31
0.0
  0
LINE
  5
1D7
330
55
100
AcDbEntity
  8
0
  6
Continuous
 62
     7
100
AcDbLine
 10
-181.2141265810579
 20
-99.00814754100041
 30
0.0
 11
-183.3500006907283
 21
-97.77500004882711
 31
0.0
  0
LINE
  5
1D8
330
55
100
AcDbEntity
  8
0
  6
Continuous
 62
     7
100
AcDbLine
 10
-207.6750006907259
 20
-146.4250000488284
 30
0.0
 11
-204.7250006907259
 21
-146.4250000488282
 31
0.0
  0
LINE
  5
1D9
330
55
100
AcDbEntity
  8
0
  6
Continuous
 62
     7
100
AcDbLine
 10
-206.525000690726
 20
-145.0250000488282
 30
0.0
 11
-207.6750006907259
 21
-145.1500000488283
 31
0.0
  0
LINE
  5
1DA
330
55
100
AcDbEntity
  8
0
  6
Continuous
 62
     7
100
AcDbLine
 10
-206.1500006907264
 20
-137.4993821318425
 30
0.0
 11
-207.3750006907261
 21
-143.0250000488283
 31
0.0
  0
LINE
  5
1DB
330
55
100
AcDbEntity
  8
0
  6
Continuous
 62
     7
100
AcDbLine
 10
-183.3500006907283
 20
-97.77500004882711
 30
0.0
 11
-183.3500006907283
 21
-95.57500004882712
 31
0.0
  0
LINE
  5
1DC
330
55
100
AcDbEntity
  8
0
  6
Continuous
 62
     7
100
AcDbLine
 10
-207.3750006907261
 20
-143.0250000488283
 30
0.0
 11
-207.3750006907261
 21
-143.5250000488283
 31
0.0
  0
LINE
  5
1DD
330
55
100
AcDbEntity
  8
0
  6
Continuous
 62
     7
100
AcDbLine
 10
-207.3750006907261
 20
-143.5250000488283
 30
0.0
 11
-206.5250006907261
 21
-143.5250000488282
 31
0.0
  0
LINE
  5
1DE
330
55
100
AcDbEntity
  8
0
  6
Continuous
 62
     7
100
AcDbLine
 10
-207.6750006907259
 20
-145.1500000488283
 30
0.0
 11
-207.6750006907259
 21
-146.4250000488284
 31
0.0
  0
LINE
  5
1DF
330
55
100
AcDbEntity
  8
0
  6
Continuous
 62
     7
100
AcDbLine
 10
-204.7250006907259
 20
-146.4250000488282
 30
0.0
 11
-204.725000690726
 21
-144.7750000488281
 31
0.0
  0
LINE
  5
1E0
330
55
100
AcDbEntity
  8
0
  6
Continuous
 62
     7
100
AcDbLine
 10
-206.1500006907289
 20
-95.57500004882837
 30
0.0
 11
-206.1500006907286
 21
-97.77500004882816
 31
0.0
  0
LINE
  5
1E1
330
55
100
AcDbEntity
  8
0
  6
Continuous
 62
     7
100
AcDbLine
 10
-206.1500006907289
 20
-95.57500004882837
 30
0.0
 11
-183.3500006907283
 21
-95.57500004882712
 31
0.0
  0
LINE
  5
1E2
330
55
100
AcDbEntity
  8
0
  6
Continuous
 62
     7
100
AcDbLine
 10
-206.5250006907261
 20
-143.5250000488282
 30
0.0
 11
-206.525000690726
 21
-145.0250000488282
 31
0.0
  0
LINE
  5
1E3
330
55
100
AcDbEntity
  8
0
  6
Continuous
 62
     7
100
AcDbLine
 10
-204.725000690726
 20
-144.7750000488281
 30
0.0
 11
-204.085000690726
 21
-144.7750000488281
 31
0.0
  0
LINE
  5
1E4
330
55
100
AcDbEntity
  8
0
  6
Continuous
 62
     7
100
AcDbLine
 10
-212.4000006907261
 20
-142.9250000488286
 30
0.0
 11
-211.4500006907261
 21
-141.9750000488283
 31
0.0
  0
LINE
  5
1E5
330
55
100
AcDbEntity
  8
0
  6
Continuous
 62
     7
100
AcDbLine
 10
-208.2858748003988
 20
-99.00814754100186
 30
0.0
 11
-208.0053000457012
 21
-101.2941227722125
 31
0.0
  0
LINE
  5
1E6
330
55
100
AcDbEntity
  8
0
  6
Continuous
 62
     7
100
AcDbLine
 10
-181.9379807126491
 20
-101.0381953046359
 30
0.0
 11
-181.4947013357555
 21
-101.2941227722116
 31
0.0
  0
LINE
  5
1E7
330
55
100
AcDbEntity
  8
0
  6
Continuous
 62
     7
100
AcDbLine
 10
-208.0053000457012
 20
-101.2941227722125
 30
0.0
 11
-207.5620206688076
 21
-101.0381953046378
 31
0.0
  0
LINE
  5
1E8
330
55
100
AcDbEntity
  8
0
  6
Continuous
 62
     7
100
AcDbLine
 10
-178.5750006907261
 20
-141.5250000488267
 30
0.0
 11
-177.5500006907261
 21
-141.3250000488268
 31
0.0
  0
LINE
  5
1E9
330
55
100
AcDbEntity
  8
0
  6
Continuous
 62
     7
100
AcDbLine
 10
-177.4500006907263
 20
-140.125000048827
 30
0.0
 11
-178.4750006907261
 21
-139.9245881467203
 31
0.0
  0
LINE
  5
1EA
330
55
100
AcDbEntity
  8
0
  6
Continuous
 62
     7
100
AcDbLine
 10
-180.5500006907265
 20
-134.9250000488269
 30
0.0
 11
-179.3750006907266
 21
-134.9250000488268
 31
0.0
  0
LINE
  5
1EB
330
55
100
AcDbEntity
  8
0
  6
Continuous
 62
     7
100
AcDbLine
 10
-178.4750006907263
 20
-139.2250000488269
 30
0.0
 11
-178.4263173926758
 21
-139.2250000488269
 31
0.0
  0
LINE
  5
1EC
330
55
100
AcDbEntity
  8
0
  6
Continuous
 62
     7
100
AcDbLine
 10
-179.3750006907264
 20
-136.8250000488269
 30
0.0
 11
-180.5465735659802
 21
-136.825000048827
 31
0.0
  0
LINE
  5
1ED
330
55
100
AcDbEntity
  8
0
  6
Continuous
 62
     7
100
AcDbLine
 10
-181.4947013357555
 20
-101.2941227722116
 30
0.0
 11
-181.2141265810579
 21
-99.00814754100041
 31
0.0
  0
LINE
  5
1EE
330
55
100
AcDbEntity
  8
0
  6
Continuous
 62
     7
100
AcDbLine
 10
-178.4750006907261
 20
-139.9245881467203
 30
0.0
 11
-178.4750006907263
 21
-139.2250000488269
 31
0.0
  0
LINE
  5
1EF
330
55
100
AcDbEntity
  8
0
  6
Continuous
 62
     7
100
AcDbLine
 10
-178.5750006907261
 20
-141.5250000488267
 30
0.0
 11
-178.5750006907261
 21
-141.7250000488297
 31
0.0
  0
LINE
  5
1F0
330
55
100
AcDbEntity
  8
0
  6
Continuous
 62
     7
100
AcDbLine
 10
-177.4250006907267
 20
-133.875000048827
 30
0.0
 11
-180.5500006907266
 21
-133.8750000488271
 31
0.0
  0
ARC
  5
1F1
330
55
100
AcDbEntity
  8
0
  6
Continuous
 62
     7
100
AcDbCircle
 10
-171.110619686126
 20
-141.5675126900218
 30
0.0
 40
7.466042194497651
100
AcDbArc
 50
181.20867657075
 51
220.5876661228502
  0
ARC
  5
1F2
330
55
100
AcDbEntity
  8
0
  6
Continuous
 62
     7
100
AcDbCircle
 10
-176.9250006907266
 20
-134.5777446710111
 30
0.0
 40
0.5
100
AcDbArc
 50
180.0
 51
225.0000000000161
  0
ARC
  5
1F3
330
55
100
AcDbEntity
  8
0
  6
Continuous
 62
     7
100
AcDbCircle
 10
-173.500000690726
 20
-143.9250000488265
 30
0.0
 40
0.5
100
AcDbArc
 50
0.0
 51
59.99999999999295
  0
ARC
  5
1F4
330
55
100
AcDbEntity
  8
0
  6
Continuous
 62
     7
100
AcDbCircle
 10
-174.9750006907262
 20
-141.3413575942029
 30
0.0
 40
1.0
100
AcDbArc
 50
180.0
 51
240.0000000000165
  0
ARC
  5
1F5
330
55
100
AcDbEntity
  8
0
  6
Continuous
 62
     7
100
AcDbCircle
 10
-191.64764696562
 20
-139.6633344630743
 30
0.0
 40
3.350000000000029
100
AcDbArc
 50
311.3165829300517
 51
357.5849578586777
  0
ARC
  5
1F6
330
55
100
AcDbEntity
  8
0
  6
Continuous
 62
     7
100
AcDbCircle
 10
-194.0750006907254
 20
-156.4250000488276
 30
0.0
 40
16.19999999999988
100
AcDbArc
 50
79.29351303112367
 51
102.3352321792845
  0
ARC
  5
1F7
330
55
100
AcDbEntity
  8
0
  6
Continuous
 62
     7
100
AcDbCircle
 10
-191.2883327217324
 20
-141.6861235098715
 30
0.0
 40
1.200000000000103
100
AcDbArc
 50
353.0762791559378
 51
79.29351303112374
  0
ARC
  5
1F8
330
55
100
AcDbEntity
  8
0
  6
Continuous
 62
     7
100
AcDbCircle
 10
-188.6873828926057
 20
-136.4250000488273
 30
0.0
 40
0.4999999999999657
100
AcDbArc
 50
14.99999999999215
 51
90.00000000000978
  0
ARC
  5
1F9
330
55
100
AcDbEntity
  8
0
  6
Continuous
 62
     7
100
AcDbCircle
 10
-188.8000006907265
 20
-136.4250000488273
 30
0.0
 40
0.5
100
AcDbArc
 50
90.0
 51
180.0
  0
ARC
  5
1FA
330
55
100
AcDbEntity
  8
0
  6
Continuous
 62
     7
100
AcDbCircle
 10
-206.6500006907264
 20
-136.4250000488283
 30
0.0
 40
0.5
100
AcDbArc
 50
0.0
 51
90.00000000001303
  0
ARC
  5
1FB
330
55
100
AcDbEntity
  8
0
  6
Continuous
 62
     7
100
AcDbCircle
 10
-189.7000006907261
 20
-141.8790000488276
 30
0.0
 40
0.3999999999999607
100
AcDbArc
 50
173.076279155901
 51
311.3165829300582
  0
ARC
  5
1FC
330
55
100
AcDbEntity
  8
0
  6
Continuous
 62
     7
100
AcDbCircle
 10
-189.0000006907263
 20
-138.7750000488273
 30
0.0
 40
0.3000000000000114
100
AcDbArc
 50
180.0
 51
270.0
  0
ARC
  5
1FD
330
55
100
AcDbEntity
  8
0
  6
Continuous
 62
     7
100
AcDbCircle
 10
-189.0000006907262
 20
-139.7750000488273
 30
0.0
 40
0.6999999999997571
100
AcDbArc
 50
357.584957858667
 51
90.00000000000699
  0
ARC
  5
1FE
330
55
100
AcDbEntity
  8
0
  6
Continuous
 62
     7
100
AcDbCircle
 10
-207.1500006907264
 20
-136.4250000488283
 30
0.0
 40
0.5
100
AcDbArc
 50
90.00000000001303
 51
180.0000000000097
  0
ARC
  5
1FF
330
55
100
AcDbEntity
  8
0
  6
Continuous
 62
     7
100
AcDbCircle
 10
-195.8267761077175
 20
-148.4143020212882
 30
0.0
 40
7.999999999999793
100
AcDbArc
 50
102.3352321792852
 51
145.6719647666297
  0
ARC
  5
200
330
55
100
AcDbEntity
  8
0
  6
Continuous
 62
     7
100
AcDbCircle
 10
-204.0850006907261
 20
-142.7750000488281
 30
0.0
 40
2.0
100
AcDbArc
 50
270.0000000000032
 51
325.6719647666183
  0
ARC
  5
201
330
55
100
AcDbEntity
  8
0
  6
Continuous
 62
     7
100
AcDbCircle
 10
-179.3750006907264
 20
-138.3250000488269
 30
0.0
 40
3.400000000000119
100
AcDbArc
 50
0.00000000000335
 51
90.00000000000335
  0
ARC
  5
202
330
55
100
AcDbEntity
  8
0
  6
Continuous
 62
     7
100
AcDbCircle
 10
-180.5500006907266
 20
-134.4000000488268
 30
0.0
 40
0.524999999999693
100
AcDbArc
 50
90.0
 51
270.0000000000093
  0
ARC
  5
203
330
55
100
AcDbEntity
  8
0
  6
Continuous
 62
     7
100
AcDbCircle
 10
-178.4263173926757
 20
-138.4750000488269
 30
0.0
 40
0.75
100
AcDbArc
 50
269.9999999999935
 51
3.01696130980818
  0
ARC
  5
204
330
55
100
AcDbEntity
  8
0
  6
Continuous
 62
     7
100
AcDbCircle
 10
-179.3750006907264
 20
-138.5250000488267
 30
0.0
 40
1.699999999999839
100
AcDbArc
 50
3.01696130980591
 51
90.0
  0
ARC
  5
205
330
55
100
AcDbEntity
  8
0
  6
Continuous
 62
     7
100
AcDbCircle
 10
-180.5465735659801
 20
-138.825000048827
 30
0.0
 40
2.0
100
AcDbArc
 50
90.00000000000244
 51
134.9999999999954
  0
ENDBLK
  5
57
330
55
100
AcDbEntity
  8
0
100
AcDbBlockEnd
  0
BLOCK
  5
5A
330
58
100
AcDbEntity
  8
0
100
AcDbBlockBegin
  2
Rckans1
 70
     0
 10
-194.7500000000014
 20
-121.000000024414
 30
0.0
  3
Rckans1
  1

  0
INSERT
  5
59
330
58
100
AcDbEntity
  8
0
100
AcDbBlockReference
  2
OTTA_6-P_P_YE-select__3
 10
-216.5000006907283
 20
-146.4250000488284
 30
0.0
  0
MTEXT
  5
206
330
58
100
AcDbEntity
  8
1
 62
     6
100
AcDbMText
 10
-194.7500000000014
 20
-151.4250020244151
 30
0.0
 40
5.0
 41
0.0
 71
     2
 72
     1
  1
 
  7
CONVERTER_11
 73
     1
 44
1.32052821128451
  0
ENDBLK
  5
5B
330
58
100
AcDbEntity
  8
0
100
AcDbBlockEnd
  0
BLOCK
  5
5D
330
5C
100
AcDbEntity
  8
0
100
AcDbBlockBegin
  2
OTTA_6-P_P_YE-select__4
 70
     0
 10
-249.4999999999849
 20
-146.4250000732422
 30
0.0
  3
OTTA_6-P_P_YE-select__4
  1

  0
LINE
  5
207
330
5C
100
AcDbEntity
  8
1
  6
DOT_CENTER
 62
     2
100
AcDbLine
 10
-243.3749999999849
 20
-118.2750000732412
 30
0.0
 11
-243.3749999999849
 21
-124.3750000732412
 31
0.0
  0
LINE
  5
208
330
5C
100
AcDbEntity
  8
0
  6
Continuous
 62
     7
100
AcDbLine
 10
-247.4499999999849
 20
-118.2750000732412
 30
0.0
 11
-247.4499999999849
 21
-124.3750000732409
 31
0.0
  0
LINE
  5
209
330
5C
100
AcDbEntity
  8
0
  6
Continuous
 62
     7
100
AcDbLine
 10
-247.4499999999849
 20
-127.1750000732408
 30
0.0
 11
-247.4499999999849
 21
-130.4750000732406
 31
0.0
  0
LINE
  5
20A
330
5C
100
AcDbEntity
  8
0
  6
Continuous
 62
     7
100
AcDbLine
 10
-249.4999999999849
 20
-142.2073830224018
 30
0.0
 11
-249.4999999999849
 21
-141.3413576186169
 31
0.0
  0
LINE
  5
20B
330
5C
100
AcDbEntity
  8
0
  6
Continuous
 62
     7
100
AcDbLine
 10
-249.4999999999849
 20
-142.2073830224018
 30
0.0
 11
-249.4999999999849
 21
-143.4919873713484
 31
0.0
  0
LINE
  5
20C
330
5C
100
AcDbEntity
  8
0
  6
Continuous
 62
     7
100
AcDbLine
 10
-249.4999999999849
 20
-143.9250000732404
 30
0.0
 11
-249.4999999999849
 21
-146.4250000732422
 31
0.0
  0
LINE
  5
20D
330
5C
100
AcDbEntity
  8
0
  6
Continuous
 62
     7
100
AcDbLine
 10
-249.4999999999849
 20
-143.9250000732404
 30
0.0
 11
-249.4999999999849
 21
-143.4919873713484
 31
0.0
  0
LINE
  5
20E
330
5C
100
AcDbEntity
  8
0
  6
Continuous
 62
     7
100
AcDbLine
 10
-247.4499999999849
 20
-116.1750140732404
 30
0.0
 11
-247.4499999999849
 21
-118.2750000732412
 31
0.0
  0
LINE
  5
20F
330
5C
100
AcDbEntity
  8
0
  6
Continuous
 62
     7
100
AcDbLine
 10
-247.4499999999849
 20
-124.3750000732409
 30
0.0
 11
-247.4499999999849
 21
-127.1750000732408
 31
0.0
  0
LINE
  5
210
330
5C
100
AcDbEntity
  8
0
  6
Continuous
 62
     7
100
AcDbLine
 10
-245.3749999999849
 20
-118.2750000732412
 30
0.0
 11
-245.3749999999849
 21
-124.3750000732412
 31
0.0
  0
LINE
  5
211
330
5C
100
AcDbEntity
  8
0
  6
Continuous
 62
     7
100
AcDbLine
 10
-247.4499999999849
 20
-124.3750000732409
 30
0.0
 11
-245.3749999999849
 21
-124.3750000732412
 31
0.0
  0
LINE
  5
212
330
5C
100
AcDbEntity
  8
0
  6
Continuous
 62
     7
100
AcDbLine
 10
-249.4999999999849
 20
-135.904851476611
 30
0.0
 11
-249.4999999999849
 21
-134.4250000732405
 31
0.0
  0
LINE
  5
213
330
5C
100
AcDbEntity
  8
0
  6
Continuous
 62
     7
100
AcDbLine
 10
-249.4999999999849
 20
-102.5462953806394
 30
0.0
 11
-249.4999999999849
 21
-101.9518521300427
 31
0.0
  0
LINE
  5
214
330
5C
100
AcDbEntity
  8
0
  6
Continuous
 62
     7
100
AcDbLine
 10
-238.4999999999849
 20
-118.2750000732412
 30
0.0
 11
-238.4999999999849
 21
-124.3750000732415
 31
0.0
  0
LINE
  5
215
330
5C
100
AcDbEntity
  8
0
  6
Continuous
 62
     7
100
AcDbLine
 10
-241.3749999999849
 20
-118.2750000732412
 30
0.0
 11
-241.3749999999849
 21
-124.3750000732412
 31
0.0
  0
LINE
  5
216
330
5C
100
AcDbEntity
  8
0
  6
Continuous
 62
     7
100
AcDbLine
 10
-241.3749999999849
 20
-118.2750000732412
 30
0.0
 11
-238.4999999999849
 21
-118.2750000732412
 31
0.0
  0
LINE
  5
217
330
5C
100
AcDbEntity
  8
0
  6
Continuous
 62
     7
100
AcDbLine
 10
-238.4999999999849
 20
-130.4750000732406
 30
0.0
 11
-238.4999999999849
 21
-127.1750000732408
 31
0.0
  0
LINE
  5
218
330
5C
100
AcDbEntity
  8
0
  6
Continuous
 62
     7
100
AcDbLine
 10
-241.3749999999849
 20
-124.3750000732412
 30
0.0
 11
-238.4999999999849
 21
-124.3750000732415
 31
0.0
  0
LINE
  5
219
330
5C
100
AcDbEntity
  8
0
  6
Continuous
 62
     7
100
AcDbLine
 10
-238.4999999999849
 20
-124.3750000732415
 30
0.0
 11
-238.4999999999849
 21
-127.1750000732408
 31
0.0
  0
LINE
  5
21A
330
5C
100
AcDbEntity
  8
0
  6
Continuous
 62
     7
100
AcDbLine
 10
-238.4999999999849
 20
-116.1750140732328
 30
0.0
 11
-238.4999999999849
 21
-118.2750000732412
 31
0.0
  0
LINE
  5
21B
330
5C
100
AcDbEntity
  8
0
  6
Continuous
 62
     7
100
AcDbLine
 10
-249.4999999999849
 20
-146.4250000732422
 30
0.0
 11
-238.4999999999849
 21
-146.4250000732422
 31
0.0
  0
LINE
  5
21C
330
5C
100
AcDbEntity
  8
0
  6
Continuous
 62
     2
100
AcDbLine
 10
-248.299999999985
 20
-143.4919873713484
 30
0.0
 11
-249.4999999999849
 21
-143.4919873713484
 31
0.0
  0
LINE
  5
21D
330
5C
100
AcDbEntity
  8
0
  6
Continuous
 62
     2
100
AcDbLine
 10
-248.299999999985
 20
-142.2073830224018
 30
0.0
 11
-249.4999999999849
 21
-142.2073830224018
 31
0.0
  0
LINE
  5
21E
330
5C
100
AcDbEntity
  8
0
  6
Continuous
 62
     7
100
AcDbLine
 10
-248.299999999985
 20
-143.4250000732405
 30
0.0
 11
-248.299999999985
 21
-142.2073830224018
 31
0.0
  0
LINE
  5
21F
330
5C
100
AcDbEntity
  8
0
  6
Continuous
 62
     7
100
AcDbLine
 10
-248.299999999985
 20
-143.4919873713484
 30
0.0
 11
-248.299999999985
 21
-143.4250000732405
 31
0.0
  0
LINE
  5
220
330
5C
100
AcDbEntity
  8
0
  6
Continuous
 62
     7
100
AcDbLine
 10
-248.299999999985
 20
-143.4250000732405
 30
0.0
 11
-238.4999999999849
 21
-143.4250000732405
 31
0.0
  0
LINE
  5
221
330
5C
100
AcDbEntity
  8
0
  6
Continuous
 62
     2
100
AcDbLine
 10
-238.4999999999849
 20
-143.9250000732404
 30
0.0
 11
-249.4999999999849
 21
-143.9250000732404
 31
0.0
  0
LINE
  5
222
330
5C
100
AcDbEntity
  8
0
  6
Continuous
 62
     7
100
AcDbLine
 10
-238.4999999999849
 20
-143.4250000732405
 30
0.0
 11
-238.4999999999849
 21
-143.9250000732404
 31
0.0
  0
LINE
  5
223
330
5C
100
AcDbEntity
  8
0
  6
Continuous
 62
     7
100
AcDbLine
 10
-248.299999999985
 20
-142.2073830224018
 30
0.0
 11
-248.299999999985
 21
-141.341357618617
 31
0.0
  0
LINE
  5
224
330
5C
100
AcDbEntity
  8
0
  6
Continuous
 62
     2
100
AcDbLine
 10
-248.299999999985
 20
-141.341357618617
 30
0.0
 11
-249.4999999999849
 21
-141.3413576186169
 31
0.0
  0
LINE
  5
225
330
5C
100
AcDbEntity
  8
0
  6
Continuous
 62
     7
100
AcDbLine
 10
-238.4999999999849
 20
-143.4250000732405
 30
0.0
 11
-238.4999999999849
 21
-138.3250000732407
 31
0.0
  0
LINE
  5
226
330
5C
100
AcDbEntity
  8
0
  6
Continuous
 62
     7
100
AcDbLine
 10
-238.4999999999849
 20
-146.4250000732422
 30
0.0
 11
-238.4999999999849
 21
-143.9250000732404
 31
0.0
  0
LINE
  5
227
330
5C
100
AcDbEntity
  8
0
  6
Continuous
 62
     7
100
AcDbLine
 10
-249.4999999999849
 20
-95.57500007324109
 30
0.0
 11
-238.4999999999849
 21
-95.57500007324109
 31
0.0
  0
LINE
  5
228
330
5C
100
AcDbEntity
  8
0
  6
Continuous
 62
     7
100
AcDbLine
 10
-249.4999999999849
 20
-103.7505753593531
 30
0.0
 11
-238.4999999999849
 21
-103.7505753593531
 31
0.0
  0
LINE
  5
229
330
5C
100
AcDbEntity
  8
0
  6
Continuous
 62
     7
100
AcDbLine
 10
-249.4999999999849
 20
-97.77500007324107
 30
0.0
 11
-249.4999999999849
 21
-95.57500007324109
 31
0.0
  0
LINE
  5
22A
330
5C
100
AcDbEntity
  8
0
  6
Continuous
 62
     7
100
AcDbLine
 10
-249.4999999999849
 20
-99.00814756541439
 30
0.0
 11
-238.4999999999849
 21
-99.00814756541439
 31
0.0
  0
LINE
  5
22B
330
5C
100
AcDbEntity
  8
0
  6
Continuous
 62
     7
100
AcDbLine
 10
-238.4999999999849
 20
-97.77500007324105
 30
0.0
 11
-238.4999999999849
 21
-95.57500007324109
 31
0.0
  0
LINE
  5
22C
330
5C
100
AcDbEntity
  8
0
  6
Continuous
 62
     7
100
AcDbLine
 10
-238.4999999999849
 20
-101.9518521300427
 30
0.0
 11
-238.4999999999849
 21
-102.5462953806394
 31
0.0
  0
LINE
  5
22D
330
5C
100
AcDbEntity
  8
0
  6
Continuous
 62
     7
100
AcDbLine
 10
-238.4999999999849
 20
-101.9518521300427
 30
0.0
 11
-238.4999999999849
 21
-101.2941227966256
 31
0.0
  0
LINE
  5
22E
330
5C
100
AcDbEntity
  8
0
  6
Continuous
 62
     7
100
AcDbLine
 10
-238.4999999999849
 20
-97.77500007324105
 30
0.0
 11
-249.4999999999849
 21
-97.77500007324107
 31
0.0
  0
LINE
  5
22F
330
5C
100
AcDbEntity
  8
0
  6
Continuous
 62
     7
100
AcDbLine
 10
-238.4999999999849
 20
-101.2941227966256
 30
0.0
 11
-238.4999999999849
 21
-99.00814756541439
 31
0.0
  0
LINE
  5
230
330
5C
100
AcDbEntity
  8
0
  6
Continuous
 62
     7
100
AcDbLine
 10
-249.4999999999849
 20
-101.2941227966256
 30
0.0
 11
-238.4999999999849
 21
-101.2941227966256
 31
0.0
  0
LINE
  5
231
330
5C
100
AcDbEntity
  8
0
  6
Continuous
 62
     7
100
AcDbLine
 10
-249.4999999999849
 20
-101.9518521300427
 30
0.0
 11
-238.4999999999849
 21
-101.9518521300427
 31
0.0
  0
LINE
  5
232
330
5C
100
AcDbEntity
  8
0
  6
Continuous
 62
     7
100
AcDbLine
 10
-238.4999999999849
 20
-99.00814756541439
 30
0.0
 11
-238.4999999999849
 21
-97.77500007324105
 31
0.0
  0
LINE
  5
233
330
5C
100
AcDbEntity
  8
0
  6
Continuous
 62
     7
100
AcDbLine
 10
-238.4999999999849
 20
-135.904851476611
 30
0.0
 11
-249.4999999999849
 21
-135.904851476611
 31
0.0
  0
LINE
  5
234
330
5C
100
AcDbEntity
  8
0
  6
Continuous
 62
     7
100
AcDbLine
 10
-238.4999999999849
 20
-135.904851476611
 30
0.0
 11
-238.4999999999849
 21
-138.3250000732407
 31
0.0
  0
LINE
  5
235
330
5C
100
AcDbEntity
  8
0
  6
Continuous
 62
     7
100
AcDbLine
 10
-247.4499999999849
 20
-118.2750000732412
 30
0.0
 11
-245.3749999999849
 21
-118.2750000732412
 31
0.0
  0
LINE
  5
236
330
5C
100
AcDbEntity
  8
0
  6
Continuous
 62
     7
100
AcDbLine
 10
-249.4999999999849
 20
-99.00814756541439
 30
0.0
 11
-249.4999999999849
 21
-97.77500007324107
 31
0.0
  0
LINE
  5
237
330
5C
100
AcDbEntity
  8
0
  6
Continuous
 62
     7
100
AcDbLine
 10
-249.4999999999849
 20
-103.7505753593531
 30
0.0
 11
-249.4999999999849
 21
-102.5462953806394
 31
0.0
  0
LINE
  5
238
330
5C
100
AcDbEntity
  8
0
  6
Continuous
 62
     7
100
AcDbLine
 10
-249.4999999999849
 20
-101.9518521300427
 30
0.0
 11
-249.4999999999849
 21
-101.2941227966256
 31
0.0
  0
LINE
  5
239
330
5C
100
AcDbEntity
  8
0
  6
Continuous
 62
     7
100
AcDbLine
 10
-249.4999999999849
 20
-101.2941227966256
 30
0.0
 11
-249.4999999999849
 21
-99.00814756541439
 31
0.0
  0
LINE
  5
23A
330
5C
100
AcDbEntity
  8
0
  6
Continuous
 62
     7
100
AcDbLine
 10
-245.3749999999849
 20
-118.2750000732412
 30
0.0
 11
-241.3749999999849
 21
-118.2750000732412
 31
0.0
  0
LINE
  5
23B
330
5C
100
AcDbEntity
  8
0
  6
Continuous
 62
     7
100
AcDbLine
 10
-249.4999999999849
 20
-138.3250000732407
 30
0.0
 11
-249.4999999999849
 21
-135.904851476611
 31
0.0
  0
LINE
  5
23C
330
5C
100
AcDbEntity
  8
0
  6
Continuous
 62
     2
100
AcDbLine
 10
-238.4999999999849
 20
-138.3250000732407
 30
0.0
 11
-249.4999999999849
 21
-138.3250000732407
 31
0.0
  0
LINE
  5
23D
330
5C
100
AcDbEntity
  8
0
  6
Continuous
 62
     7
100
AcDbLine
 10
-249.4999999999849
 20
-138.3250000732407
 30
0.0
 11
-249.4999999999849
 21
-141.3413576186169
 31
0.0
  0
LINE
  5
23E
330
5C
100
AcDbEntity
  8
0
  6
Continuous
 62
     7
100
AcDbLine
 10
-249.4999999999849
 20
-102.5462953806394
 30
0.0
 11
-238.4999999999849
 21
-102.5462953806394
 31
0.0
  0
LINE
  5
23F
330
5C
100
AcDbEntity
  8
0
  6
Continuous
 62
     7
100
AcDbLine
 10
-238.4999999999849
 20
-102.5462953806394
 30
0.0
 11
-238.4999999999849
 21
-103.7505753593531
 31
0.0
  0
LINE
  5
240
330
5C
100
AcDbEntity
  8
0
  6
Continuous
 62
     7
100
AcDbLine
 10
-238.4999999999849
 20
-116.1750140732328
 30
0.0
 11
-238.4999999999849
 21
-103.7505753593531
 31
0.0
  0
LINE
  5
241
330
5C
100
AcDbEntity
  8
0
  6
Continuous
 62
     7
100
AcDbLine
 10
-247.4499999999849
 20
-116.1750140732404
 30
0.0
 11
-238.4999999999849
 21
-116.1750140732328
 31
0.0
  0
LINE
  5
242
330
5C
100
AcDbEntity
  8
0
  6
Continuous
 62
     7
100
AcDbLine
 10
-245.3749999999849
 20
-124.3750000732412
 30
0.0
 11
-241.3749999999849
 21
-124.3750000732412
 31
0.0
  0
LINE
  5
243
330
5C
100
AcDbEntity
  8
0
  6
Continuous
 62
     7
100
AcDbLine
 10
-238.4999999999849
 20
-127.1750000732408
 30
0.0
 11
-247.4499999999849
 21
-127.1750000732408
 31
0.0
  0
LINE
  5
244
330
5C
100
AcDbEntity
  8
0
  6
Continuous
 62
     7
100
AcDbLine
 10
-249.4999999999849
 20
-134.4250000732405
 30
0.0
 11
-238.4999999999849
 21
-134.4250000732401
 31
0.0
  0
LINE
  5
245
330
5C
100
AcDbEntity
  8
0
  6
Continuous
 62
     7
100
AcDbLine
 10
-238.4999999999849
 20
-134.4250000732401
 30
0.0
 11
-238.4999999999849
 21
-130.4750000732406
 31
0.0
  0
LINE
  5
246
330
5C
100
AcDbEntity
  8
0
  6
Continuous
 62
     7
100
AcDbLine
 10
-238.4999999999849
 20
-135.904851476611
 30
0.0
 11
-238.4999999999849
 21
-134.4250000732401
 31
0.0
  0
LINE
  5
247
330
5C
100
AcDbEntity
  8
0
  6
Continuous
 62
     7
100
AcDbLine
 10
-249.4999999999849
 20
-134.4250000732405
 30
0.0
 11
-249.4999999999849
 21
-103.7505753593531
 31
0.0
  0
LINE
  5
248
330
5C
100
AcDbEntity
  8
0
  6
Continuous
 62
     7
100
AcDbLine
 10
-238.4999999999849
 20
-130.4750000732406
 30
0.0
 11
-247.4499999999849
 21
-130.4750000732406
 31
0.0
  0
ENDBLK
  5
5E
330
5C
100
AcDbEntity
  8
0
100
AcDbBlockEnd
  0
BLOCK
  5
61
330
5F
100
AcDbEntity
  8
0
100
AcDbBlockBegin
  2
SA_Links1
 70
     0
 10
-243.99999999999
 20
-121.000000048828
 30
0.0
  3
SA_Links1
  1

  0
INSERT
  5
60
330
5F
100
AcDbEntity
  8
0
100
AcDbBlockReference
  2
OTTA_6-P_P_YE-select__4
 10
-249.4999999999849
 20
-146.4250000732422
 30
0.0
  0
MTEXT
  5
249
330
5F
100
AcDbEntity
  8
1
 62
     6
100
AcDbMText
 10
-243.99999999999
 20
-151.4250020488291
 30
0.0
 40
5.0
 41
0.0
 71
     2
 72
     1
  1
 
  7
CONVERTER_11
 73
     1
 44
1.32052821128451
  0
ENDBLK
  5
62
330
5F
100
AcDbEntity
  8
0
100
AcDbBlockEnd
  0
BLOCK
  5
64
330
63
100
AcDbEntity
  8
0
100
AcDbBlockBegin
  2
OTTA_6-P_P_YE-select__5
 70
     0
 10
-385.0000000000023
 20
-146.4250000488268
 30
0.0
  3
OTTA_6-P_P_YE-select__5
  1

  0
LINE
  5
24A
330
63
100
AcDbEntity
  8
1
  6
DOT_CENTER
 62
     2
100
AcDbLine
 10
-380.1250000000024
 20
-118.2750000488283
 30
0.0
 11
-380.1250000000024
 21
-124.3750000488281
 31
0.0
  0
LINE
  5
24B
330
63
100
AcDbEntity
  8
0
  6
Continuous
 62
     7
100
AcDbLine
 10
-374.0000000000023
 20
-97.77500004882825
 30
0.0
 11
-374.0000000000023
 21
-99.00814754100195
 31
0.0
  0
LINE
  5
24C
330
63
100
AcDbEntity
  8
0
  6
Continuous
 62
     7
100
AcDbLine
 10
-374.0000000000023
 20
-101.2941227722117
 30
0.0
 11
-374.0000000000023
 21
-101.9518521056303
 31
0.0
  0
LINE
  5
24D
330
63
100
AcDbEntity
  8
0
  6
Continuous
 62
     7
100
AcDbLine
 10
-374.0000000000023
 20
-95.57500004882846
 30
0.0
 11
-385.0000000000023
 21
-95.57500004882846
 31
0.0
  0
LINE
  5
24E
330
63
100
AcDbEntity
  8
0
  6
Continuous
 62
     7
100
AcDbLine
 10
-385.0000000000023
 20
-97.77500004882832
 30
0.0
 11
-374.0000000000023
 21
-97.77500004882825
 31
0.0
  0
LINE
  5
24F
330
63
100
AcDbEntity
  8
0
  6
Continuous
 62
     7
100
AcDbLine
 10
-374.0000000000023
 20
-99.00814754100195
 30
0.0
 11
-385.0000000000023
 21
-99.00814754100192
 31
0.0
  0
LINE
  5
250
330
63
100
AcDbEntity
  8
0
  6
Continuous
 62
     7
100
AcDbLine
 10
-374.0000000000023
 20
-102.5462953562255
 30
0.0
 11
-385.0000000000023
 21
-102.5462953562255
 31
0.0
  0
LINE
  5
251
330
63
100
AcDbEntity
  8
0
  6
Continuous
 62
     7
100
AcDbLine
 10
-385.0000000000023
 20
-103.7505753349415
 30
0.0
 11
-385.0000000000023
 21
-102.5462953562255
 31
0.0
  0
LINE
  5
252
330
63
100
AcDbEntity
  8
0
  6
Continuous
 62
     7
100
AcDbLine
 10
-374.0000000000023
 20
-102.5462953562255
 30
0.0
 11
-374.0000000000023
 21
-103.7505753349415
 31
0.0
  0
LINE
  5
253
330
63
100
AcDbEntity
  8
0
  6
Continuous
 62
     7
100
AcDbLine
 10
-374.0000000000023
 20
-103.7505753349415
 30
0.0
 11
-385.0000000000023
 21
-103.7505753349415
 31
0.0
  0
LINE
  5
254
330
63
100
AcDbEntity
  8
0
  6
Continuous
 62
     7
100
AcDbLine
 10
-374.0000000000023
 20
-101.2941227722117
 30
0.0
 11
-385.0000000000023
 21
-101.2941227722117
 31
0.0
  0
LINE
  5
255
330
63
100
AcDbEntity
  8
0
  6
Continuous
 62
     7
100
AcDbLine
 10
-385.0000000000023
 20
-99.00814754100192
 30
0.0
 11
-385.0000000000023
 21
-101.2941227722117
 31
0.0
  0
LINE
  5
256
330
63
100
AcDbEntity
  8
0
  6
Continuous
 62
     7
100
AcDbLine
 10
-374.0000000000023
 20
-99.00814754100195
 30
0.0
 11
-374.0000000000023
 21
-101.2941227722117
 31
0.0
  0
LINE
  5
257
330
63
100
AcDbEntity
  8
0
  6
Continuous
 62
     7
100
AcDbLine
 10
-385.0000000000023
 20
-101.2941227722117
 30
0.0
 11
-385.0000000000023
 21
-101.9518521056303
 31
0.0
  0
LINE
  5
258
330
63
100
AcDbEntity
  8
0
  6
Continuous
 62
     7
100
AcDbLine
 10
-385.0000000000023
 20
-101.9518521056303
 30
0.0
 11
-374.0000000000023
 21
-101.9518521056303
 31
0.0
  0
LINE
  5
259
330
63
100
AcDbEntity
  8
0
  6
Continuous
 62
     7
100
AcDbLine
 10
-385.0000000000023
 20
-102.5462953562255
 30
0.0
 11
-385.0000000000023
 21
-101.9518521056303
 31
0.0
  0
LINE
  5
25A
330
63
100
AcDbEntity
  8
0
  6
Continuous
 62
     7
100
AcDbLine
 10
-374.0000000000023
 20
-101.9518521056303
 30
0.0
 11
-374.0000000000023
 21
-102.5462953562255
 31
0.0
  0
LINE
  5
25B
330
63
100
AcDbEntity
  8
0
  6
Continuous
 62
     7
100
AcDbLine
 10
-385.0000000000023
 20
-97.77500004882832
 30
0.0
 11
-385.0000000000023
 21
-99.00814754100192
 31
0.0
  0
LINE
  5
25C
330
63
100
AcDbEntity
  8
0
  6
Continuous
 62
     7
100
AcDbLine
 10
-374.0000000000023
 20
-95.57500004882846
 30
0.0
 11
-374.0000000000023
 21
-97.77500004882825
 31
0.0
  0
LINE
  5
25D
330
63
100
AcDbEntity
  8
0
  6
Continuous
 62
     7
100
AcDbLine
 10
-385.0000000000023
 20
-95.57500004882846
 30
0.0
 11
-385.0000000000023
 21
-97.77500004882832
 31
0.0
  0
LINE
  5
25E
330
63
100
AcDbEntity
  8
0
  6
Continuous
 62
     7
100
AcDbLine
 10
-374.0000000000023
 20
-146.4250000488268
 30
0.0
 11
-385.0000000000023
 21
-146.4250000488268
 31
0.0
  0
LINE
  5
25F
330
63
100
AcDbEntity
  8
0
  6
Continuous
 62
     7
100
AcDbLine
 10
-374.0000000000023
 20
-145.0250000488283
 30
0.0
 11
-374.0000000000023
 21
-143.5250000488284
 31
0.0
  0
LINE
  5
260
330
63
100
AcDbEntity
  8
0
  6
Continuous
 62
     7
100
AcDbLine
 10
-374.0000000000023
 20
-143.5250000488284
 30
0.0
 11
-374.0000000000023
 21
-143.0250000488284
 31
0.0
  0
LINE
  5
261
330
63
100
AcDbEntity
  8
0
  6
Continuous
 62
     7
100
AcDbLine
 10
-374.0000000000023
 20
-143.0250000488284
 30
0.0
 11
-374.0000000000023
 21
-142.9250000488289
 31
0.0
  0
LINE
  5
262
330
63
100
AcDbEntity
  8
0
  6
Continuous
 62
     7
100
AcDbLine
 10
-374.0000000000023
 20
-146.4250000488268
 30
0.0
 11
-374.0000000000023
 21
-145.1500000488284
 31
0.0
  0
LINE
  5
263
330
63
100
AcDbEntity
  8
0
  6
Continuous
 62
     7
100
AcDbLine
 10
-374.0000000000023
 20
-145.1500000488284
 30
0.0
 11
-374.0000000000023
 21
-145.0250000488283
 31
0.0
  0
LINE
  5
264
330
63
100
AcDbEntity
  8
0
  6
Continuous
 62
     7
100
AcDbLine
 10
-385.0000000000023
 20
-145.1500000488284
 30
0.0
 11
-374.0000000000023
 21
-145.1500000488284
 31
0.0
  0
LINE
  5
265
330
63
100
AcDbEntity
  8
0
  6
Continuous
 62
     7
100
AcDbLine
 10
-385.0000000000023
 20
-145.0250000488283
 30
0.0
 11
-374.0000000000023
 21
-145.0250000488283
 31
0.0
  0
LINE
  5
266
330
63
100
AcDbEntity
  8
0
  6
Continuous
 62
     7
100
AcDbLine
 10
-385.0000000000023
 20
-143.5250000488284
 30
0.0
 11
-374.0000000000023
 21
-143.5250000488284
 31
0.0
  0
LINE
  5
267
330
63
100
AcDbEntity
  8
0
  6
Continuous
 62
     7
100
AcDbLine
 10
-374.0000000000023
 20
-142.9250000488289
 30
0.0
 11
-385.0000000000023
 21
-142.9250000488289
 31
0.0
  0
LINE
  5
268
330
63
100
AcDbEntity
  8
0
  6
Continuous
 62
     7
100
AcDbLine
 10
-385.0000000000023
 20
-143.0250000488285
 30
0.0
 11
-374.0000000000023
 21
-143.0250000488284
 31
0.0
  0
LINE
  5
269
330
63
100
AcDbEntity
  8
0
  6
Continuous
 62
     7
100
AcDbLine
 10
-385.0000000000023
 20
-145.0250000488283
 30
0.0
 11
-385.0000000000023
 21
-143.5250000488284
 31
0.0
  0
LINE
  5
26A
330
63
100
AcDbEntity
  8
0
  6
Continuous
 62
     7
100
AcDbLine
 10
-385.0000000000023
 20
-145.1500000488284
 30
0.0
 11
-385.0000000000023
 21
-145.0250000488283
 31
0.0
  0
LINE
  5
26B
330
63
100
AcDbEntity
  8
0
  6
Continuous
 62
     7
100
AcDbLine
 10
-385.0000000000023
 20
-143.5250000488284
 30
0.0
 11
-385.0000000000023
 21
-143.0250000488285
 31
0.0
  0
LINE
  5
26C
330
63
100
AcDbEntity
  8
0
  6
Continuous
 62
     7
100
AcDbLine
 10
-385.0000000000023
 20
-143.0250000488285
 30
0.0
 11
-385.0000000000023
 21
-142.9250000488289
 31
0.0
  0
LINE
  5
26D
330
63
100
AcDbEntity
  8
0
  6
Continuous
 62
     7
100
AcDbLine
 10
-385.0000000000023
 20
-146.4250000488268
 30
0.0
 11
-385.0000000000023
 21
-145.1500000488284
 31
0.0
  0
LINE
  5
26E
330
63
100
AcDbEntity
  8
0
  6
Continuous
 62
     7
100
AcDbLine
 10
-376.0500000000023
 20
-124.3750000488284
 30
0.0
 11
-376.0500000000023
 21
-118.2750000488284
 31
0.0
  0
LINE
  5
26F
330
63
100
AcDbEntity
  8
0
  6
Continuous
 62
     7
100
AcDbLine
 10
-378.1250000000024
 20
-124.3750000488281
 30
0.0
 11
-382.1250000000024
 21
-124.3750000488281
 31
0.0
  0
LINE
  5
270
330
63
100
AcDbEntity
  8
0
  6
Continuous
 62
     7
100
AcDbLine
 10
-385.0000000000023
 20
-142.9250000488289
 30
0.0
 11
-385.0000000000023
 21
-130.4750000488287
 31
0.0
  0
LINE
  5
271
330
63
100
AcDbEntity
  8
0
  6
Continuous
 62
     7
100
AcDbLine
 10
-385.0000000000023
 20
-124.3750000488284
 30
0.0
 11
-385.0000000000023
 21
-127.1750000488285
 31
0.0
  0
LINE
  5
272
330
63
100
AcDbEntity
  8
0
  6
Continuous
 62
     7
100
AcDbLine
 10
-385.0000000000023
 20
-130.4750000488287
 30
0.0
 11
-385.0000000000023
 21
-127.1750000488285
 31
0.0
  0
LINE
  5
273
330
63
100
AcDbEntity
  8
0
  6
Continuous
 62
     7
100
AcDbLine
 10
-385.0000000000023
 20
-127.1750000488285
 30
0.0
 11
-376.0500000000023
 21
-127.1750000488285
 31
0.0
  0
LINE
  5
274
330
63
100
AcDbEntity
  8
0
  6
Continuous
 62
     7
100
AcDbLine
 10
-376.0500000000023
 20
-127.1750000488285
 30
0.0
 11
-376.0500000000023
 21
-124.3750000488284
 31
0.0
  0
LINE
  5
275
330
63
100
AcDbEntity
  8
0
  6
Continuous
 62
     7
100
AcDbLine
 10
-376.0500000000023
 20
-130.4750000488291
 30
0.0
 11
-376.0500000000023
 21
-127.1750000488285
 31
0.0
  0
LINE
  5
276
330
63
100
AcDbEntity
  8
0
  6
Continuous
 62
     7
100
AcDbLine
 10
-376.0500000000023
 20
-130.4750000488291
 30
0.0
 11
-385.0000000000023
 21
-130.4750000488287
 31
0.0
  0
LINE
  5
277
330
63
100
AcDbEntity
  8
0
  6
Continuous
 62
     7
100
AcDbLine
 10
-382.1250000000024
 20
-124.3750000488281
 30
0.0
 11
-385.0000000000023
 21
-124.3750000488284
 31
0.0
  0
LINE
  5
278
330
63
100
AcDbEntity
  8
0
  6
Continuous
 62
     7
100
AcDbLine
 10
-376.0500000000023
 20
-124.3750000488284
 30
0.0
 11
-378.1250000000024
 21
-124.3750000488281
 31
0.0
  0
LINE
  5
279
330
63
100
AcDbEntity
  8
0
  6
Continuous
 62
     7
100
AcDbLine
 10
-382.1250000000024
 20
-118.2750000488283
 30
0.0
 11
-382.1250000000024
 21
-124.3750000488281
 31
0.0
  0
LINE
  5
27A
330
63
100
AcDbEntity
  8
0
  6
Continuous
 62
     7
100
AcDbLine
 10
-378.1250000000024
 20
-118.2750000488283
 30
0.0
 11
-378.1250000000024
 21
-124.3750000488281
 31
0.0
  0
LINE
  5
27B
330
63
100
AcDbEntity
  8
0
  6
Continuous
 62
     7
100
AcDbLine
 10
-382.1250000000024
 20
-118.2750000488283
 30
0.0
 11
-385.0000000000023
 21
-118.2750000488279
 31
0.0
  0
LINE
  5
27C
330
63
100
AcDbEntity
  8
0
  6
Continuous
 62
     7
100
AcDbLine
 10
-378.1250000000024
 20
-118.2750000488283
 30
0.0
 11
-382.1250000000024
 21
-118.2750000488283
 31
0.0
  0
LINE
  5
27D
330
63
100
AcDbEntity
  8
0
  6
Continuous
 62
     7
100
AcDbLine
 10
-376.0500000000023
 20
-118.2750000488284
 30
0.0
 11
-378.1250000000024
 21
-118.2750000488283
 31
0.0
  0
LINE
  5
27E
330
63
100
AcDbEntity
  8
0
  6
Continuous
 62
     7
100
AcDbLine
 10
-385.0000000000023
 20
-124.3750000488284
 30
0.0
 11
-385.0000000000023
 21
-118.2750000488279
 31
0.0
  0
LINE
  5
27F
330
63
100
AcDbEntity
  8
0
  6
Continuous
 62
     7
100
AcDbLine
 10
-376.0500000000023
 20
-118.2750000488284
 30
0.0
 11
-376.0500000000023
 21
-116.1750140488296
 31
0.0
  0
LINE
  5
280
330
63
100
AcDbEntity
  8
0
  6
Continuous
 62
     7
100
AcDbLine
 10
-374.0000000000023
 20
-142.9250000488289
 30
0.0
 11
-374.0000000000023
 21
-103.7505753349415
 31
0.0
  0
LINE
  5
281
330
63
100
AcDbEntity
  8
0
  6
Continuous
 62
     7
100
AcDbLine
 10
-385.0000000000023
 20
-118.2750000488279
 30
0.0
 11
-385.0000000000023
 21
-116.1750140488296
 31
0.0
  0
LINE
  5
282
330
63
100
AcDbEntity
  8
0
  6
Continuous
 62
     7
100
AcDbLine
 10
-376.0500000000023
 20
-116.1750140488296
 30
0.0
 11
-385.0000000000023
 21
-116.1750140488296
 31
0.0
  0
LINE
  5
283
330
63
100
AcDbEntity
  8
0
  6
Continuous
 62
     7
100
AcDbLine
 10
-385.0000000000023
 20
-116.1750140488296
 30
0.0
 11
-385.0000000000023
 21
-103.7505753349415
 31
0.0
  0
ENDBLK
  5
65
330
63
100
AcDbEntity
  8
0
100
AcDbBlockEnd
  0
BLOCK
  5
68
330
66
100
AcDbEntity
  8
0
100
AcDbBlockBegin
  2
SA_Rechts1
 70
     0
 10
-379.4999999999973
 20
-121.0000000244141
 30
0.0
  3
SA_Rechts1
  1

  0
INSERT
  5
67
330
66
100
AcDbEntity
  8
0
100
AcDbBlockReference
  2
OTTA_6-P_P_YE-select__5
 10
-385.0000000000023
 20
-146.4250000488268
 30
0.0
  0
MTEXT
  5
284
330
66
100
AcDbEntity
  8
1
 62
     6
100
AcDbMText
 10
-379.4999999999973
 20
-151.4250020244151
 30
0.0
 40
5.0
 41
0.0
 71
     2
 72
     1
  1
 
  7
CONVERTER_11
 73
     1
 44
1.32052821128451
  0
ENDBLK
  5
69
330
66
100
AcDbEntity
  8
0
100
AcDbBlockEnd
  0
BLOCK
  5
6B
330
6A
100
AcDbEntity
  8
0
100
AcDbBlockBegin
  2
OTTA_6-P_P_YE-select__6
 70
     0
 10
-316.999999309274
 20
-146.4250000488284
 30
0.0
  3
OTTA_6-P_P_YE-select__6
  1

  0
LINE
  5
285
330
6A
100
AcDbEntity
  8
1
  6
DOT_CENTER
 62
     2
100
AcDbLine
 10
-287.8499993092724
 20
-118.2750000488281
 30
0.0
 11
-287.8499993092724
 21
-124.3750000488281
 31
0.0
  0
LINE
  5
286
330
6A
100
AcDbEntity
  8
1
  6
DOT_CENTER
 62
     2
100
AcDbLine
 10
-302.6499993092727
 20
-118.2750000488272
 30
0.0
 11
-302.6499993092727
 21
-124.3750000488273
 31
0.0
  0
LINE
  5
287
330
6A
100
AcDbEntity
  8
0
  6
Continuous
 62
     7
100
AcDbLine
 10
-307.534519287351
 20
-101.9518521056288
 30
0.0
 11
-312.9904793311933
 21
-105.1018521056286
 31
0.0
  0
LINE
  5
288
330
6A
100
AcDbEntity
  8
0
  6
Continuous
 62
     7
100
AcDbLine
 10
-306.7999993092723
 20
-116.175014048827
 30
0.0
 11
-304.6499993092727
 21
-118.2750000488272
 31
0.0
  0
LINE
  5
289
330
6A
100
AcDbEntity
  8
0
  6
Continuous
 62
     7
100
AcDbLine
 10
-308.0392128716467
 20
-137.4107864864537
 30
0.0
 11
-307.9249993092735
 21
-137.5250000488269
 31
0.0
  0
LINE
  5
28A
330
6A
100
AcDbEntity
  8
0
  6
Continuous
 62
     7
100
AcDbLine
 10
-308.3499993092731
 20
-124.3750000488269
 30
0.0
 11
-308.3499993092732
 21
-127.1750000488269
 31
0.0
  0
LINE
  5
28B
330
6A
100
AcDbEntity
  8
0
  6
Continuous
 62
     7
100
AcDbLine
 10
-285.8499993092727
 20
-124.3750000488281
 30
0.0
 11
-289.8499993092727
 21
-124.3750000488279
 31
0.0
  0
LINE
  5
28C
330
6A
100
AcDbEntity
  8
0
  6
Continuous
 62
     7
100
AcDbLine
 10
-289.8499993092723
 20
-118.2750000488281
 30
0.0
 11
-289.8499993092727
 21
-124.3750000488279
 31
0.0
  0
LINE
  5
28D
330
6A
100
AcDbEntity
  8
0
  6
Continuous
 62
     7
100
AcDbLine
 10
-300.6499993092727
 20
-118.2750000488274
 30
0.0
 11
-300.6499993092731
 21
-124.3750000488273
 31
0.0
  0
LINE
  5
28E
330
6A
100
AcDbEntity
  8
0
  6
Continuous
 62
     7
100
AcDbLine
 10
-295.9499993092728
 20
-124.3750000488276
 30
0.0
 11
-300.6499993092731
 21
-124.3750000488273
 31
0.0
  0
LINE
  5
28F
330
6A
100
AcDbEntity
  8
0
  6
Continuous
 62
     7
100
AcDbLine
 10
-295.9499993092725
 20
-118.2750000488277
 30
0.0
 11
-295.9499993092728
 21
-124.3750000488276
 31
0.0
  0
LINE
  5
290
330
6A
100
AcDbEntity
  8
0
  6
Continuous
 62
     7
100
AcDbLine
 10
-300.6499993092731
 20
-124.3750000488273
 30
0.0
 11
-304.6499993092731
 21
-124.3750000488271
 31
0.0
  0
LINE
  5
291
330
6A
100
AcDbEntity
  8
0
  6
Continuous
 62
     7
100
AcDbLine
 10
-294.5499993092725
 20
-118.2750000488278
 30
0.0
 11
-289.8499993092723
 21
-118.2750000488281
 31
0.0
  0
LINE
  5
292
330
6A
100
AcDbEntity
  8
0
  6
Continuous
 62
     7
100
AcDbLine
 10
-285.8499993092725
 20
-118.2750000488283
 30
0.0
 11
-285.8499993092727
 21
-124.3750000488281
 31
0.0
  0
LINE
  5
293
330
6A
100
AcDbEntity
  8
0
  6
Continuous
 62
     7
100
AcDbLine
 10
-283.849999309271
 20
-95.57500004882837
 30
0.0
 11
-283.8499993092714
 21
-97.77500004882822
 31
0.0
  0
LINE
  5
294
330
6A
100
AcDbEntity
  8
0
  6
Continuous
 62
     7
100
AcDbLine
 10
-283.849999309271
 20
-95.57500004882837
 30
0.0
 11
-306.6499993092716
 21
-95.57500004882712
 31
0.0
  0
LINE
  5
295
330
6A
100
AcDbEntity
  8
0
  6
Continuous
 62
     7
100
AcDbLine
 10
-307.534519287351
 20
-101.9518521056288
 30
0.0
 11
-308.0620192873508
 21
-101.0381953046359
 31
0.0
  0
LINE
  5
296
330
6A
100
AcDbEntity
  8
0
  6
Continuous
 62
     7
100
AcDbLine
 10
-300.6499993092727
 20
-118.2750000488274
 30
0.0
 11
-295.9499993092725
 21
-118.2750000488277
 31
0.0
  0
LINE
  5
297
330
6A
100
AcDbEntity
  8
0
  6
Continuous
 62
     7
100
AcDbLine
 10
-304.6499993092727
 20
-118.2750000488272
 30
0.0
 11
-300.6499993092727
 21
-118.2750000488274
 31
0.0
  0
LINE
  5
298
330
6A
100
AcDbEntity
  8
0
  6
Continuous
 62
     7
100
AcDbLine
 10
-304.6499993092727
 20
-118.2750000488272
 30
0.0
 11
-304.6499993092731
 21
-124.3750000488271
 31
0.0
  0
LINE
  5
299
330
6A
100
AcDbEntity
  8
0
  6
Continuous
 62
     7
100
AcDbLine
 10
-306.6499993092716
 20
-97.77500004882708
 30
0.0
 11
-306.6499993092716
 21
-95.57500004882712
 31
0.0
  0
LINE
  5
29A
330
6A
100
AcDbEntity
  8
0
  6
Continuous
 62
     7
100
AcDbLine
 10
-277.5095192873506
 20
-105.1018521056305
 30
0.0
 11
-282.9654793311923
 21
-101.9518521056302
 31
0.0
  0
LINE
  5
29B
330
6A
100
AcDbEntity
  8
0
  6
Continuous
 62
     7
100
AcDbLine
 10
-281.7141251996011
 20
-99.00814754100183
 30
0.0
 11
-281.9946999542987
 21
-101.2941227722125
 31
0.0
  0
LINE
  5
29C
330
6A
100
AcDbEntity
  8
0
  6
Continuous
 62
     7
100
AcDbLine
 10
-282.4379793311923
 20
-101.0381953046378
 30
0.0
 11
-282.9654793311923
 21
-101.9518521056302
 31
0.0
  0
LINE
  5
29D
330
6A
100
AcDbEntity
  8
0
  6
Continuous
 62
     7
100
AcDbLine
 10
-277.4252986642441
 20
-103.9322678370626
 30
0.0
 11
-275.5858734189415
 21
-102.5462953562276
 31
0.0
  0
LINE
  5
29E
330
6A
100
AcDbEntity
  8
0
  6
Continuous
 62
     7
100
AcDbLine
 10
-277.5095192873506
 20
-105.1018521056305
 30
0.0
 11
-276.9820192873504
 21
-104.1881953046381
 31
0.0
  0
LINE
  5
29F
330
6A
100
AcDbEntity
  8
0
  6
Continuous
 62
     7
100
AcDbLine
 10
-283.6999993092789
 20
-116.1750140488359
 30
0.0
 11
-273.4999993092723
 21
-116.1750140488295
 31
0.0
  0
LINE
  5
2A0
330
6A
100
AcDbEntity
  8
0
  6
Continuous
 62
     7
100
AcDbLine
 10
-285.8499993092725
 20
-118.2750000488283
 30
0.0
 11
-283.6999993092789
 21
-116.1750140488359
 31
0.0
  0
LINE
  5
2A1
330
6A
100
AcDbEntity
  8
0
  6
Continuous
 62
     7
100
AcDbLine
 10
-289.8499993092723
 20
-118.2750000488281
 30
0.0
 11
-285.8499993092725
 21
-118.2750000488283
 31
0.0
  0
LINE
  5
2A2
330
6A
100
AcDbEntity
  8
0
  6
Continuous
 62
     7
100
AcDbLine
 10
-289.8499993092727
 20
-124.3750000488279
 30
0.0
 11
-294.5499993092728
 21
-124.3750000488277
 31
0.0
  0
LINE
  5
2A3
330
6A
100
AcDbEntity
  8
0
  6
Continuous
 62
     7
100
AcDbLine
 10
-304.6499993092731
 20
-124.3750000488271
 30
0.0
 11
-308.3499993092731
 21
-124.3750000488269
 31
0.0
  0
LINE
  5
2A4
330
6A
100
AcDbEntity
  8
0
  6
Continuous
 62
     7
100
AcDbLine
 10
-282.1499993092731
 20
-124.3750000488283
 30
0.0
 11
-282.1499993092733
 21
-127.1750000488284
 31
0.0
  0
LINE
  5
2A5
330
6A
100
AcDbEntity
  8
0
  6
Continuous
 62
     7
100
AcDbLine
 10
-282.1499993092731
 20
-124.3750000488283
 30
0.0
 11
-285.8499993092727
 21
-124.3750000488281
 31
0.0
  0
LINE
  5
2A6
330
6A
100
AcDbEntity
  8
0
  6
Continuous
 62
     7
100
AcDbLine
 10
-294.5499993092728
 20
-124.3750000488277
 30
0.0
 11
-294.5499993092725
 21
-118.2750000488278
 31
0.0
  0
LINE
  5
2A7
330
6A
100
AcDbEntity
  8
0
  6
Continuous
 62
     7
100
AcDbLine
 10
-273.4999993092723
 20
-116.1750140488295
 30
0.0
 11
-273.4999993092716
 21
-103.7505753349414
 31
0.0
  0
LINE
  5
2A8
330
6A
100
AcDbEntity
  8
0
  6
Continuous
 62
     7
100
AcDbLine
 10
-276.9820192873504
 20
-104.1881953046381
 30
0.0
 11
-277.4252986642441
 21
-103.9322678370626
 31
0.0
  0
LINE
  5
2A9
330
6A
100
AcDbEntity
  8
0
  6
Continuous
 62
     7
100
AcDbLine
 10
-275.5858734189415
 20
-102.5462953562276
 30
0.0
 11
-273.4999993092716
 21
-103.7505753349414
 31
0.0
  0
LINE
  5
2AA
330
6A
100
AcDbEntity
  8
0
  6
Continuous
 62
     7
100
AcDbLine
 10
-281.9946999542987
 20
-101.2941227722125
 30
0.0
 11
-282.4379793311923
 21
-101.0381953046378
 31
0.0
  0
LINE
  5
2AB
330
6A
100
AcDbEntity
  8
0
  6
Continuous
 62
     7
100
AcDbLine
 10
-283.8499993092714
 20
-97.77500004882822
 30
0.0
 11
-281.7141251996011
 21
-99.00814754100183
 31
0.0
  0
LINE
  5
2AC
330
6A
100
AcDbEntity
  8
0
  6
Continuous
 62
     7
100
AcDbLine
 10
-283.8499993092735
 20
-137.4993821318424
 30
0.0
 11
-282.6249993092738
 21
-143.0250000488284
 31
0.0
  0
LINE
  5
2AD
330
6A
100
AcDbEntity
  8
0
  6
Continuous
 62
     7
100
AcDbLine
 10
-314.0249993092739
 20
-145.3750000488266
 30
0.0
 11
-314.0249993092737
 21
-141.3413575942031
 31
0.0
  0
LINE
  5
2AE
330
6A
100
AcDbEntity
  8
0
  6
Continuous
 62
     7
100
AcDbLine
 10
-314.0249993092737
 20
-141.3413575942031
 30
0.0
 11
-314.0249993092736
 21
-138.3250000488267
 31
0.0
  0
LINE
  5
2AF
330
6A
100
AcDbEntity
  8
0
  6
Continuous
 62
     7
100
AcDbLine
 10
-312.4499993092738
 20
-141.3250000488268
 30
0.0
 11
-312.5499993092736
 21
-140.125000048827
 31
0.0
  0
LINE
  5
2B0
330
6A
100
AcDbEntity
  8
0
  6
Continuous
 62
     7
100
AcDbLine
 10
-312.5499993092736
 20
-140.125000048827
 30
0.0
 11
-311.5249993092738
 21
-139.9245881467204
 31
0.0
  0
LINE
  5
2B1
330
6A
100
AcDbEntity
  8
0
  6
Continuous
 62
     7
100
AcDbLine
 10
-311.5249993092738
 20
-139.9245881467204
 30
0.0
 11
-311.5249993092736
 21
-139.2250000488269
 31
0.0
  0
LINE
  5
2B2
330
6A
100
AcDbEntity
  8
0
  6
Continuous
 62
     7
100
AcDbLine
 10
-311.5249993092736
 20
-139.2250000488269
 30
0.0
 11
-311.5736826073241
 21
-139.2250000488269
 31
0.0
  0
LINE
  5
2B3
330
6A
100
AcDbEntity
  8
0
  6
Continuous
 62
     7
100
AcDbLine
 10
-285.2749993092741
 20
-146.4250000488282
 30
0.0
 11
-285.2749993092739
 21
-144.7750000488281
 31
0.0
  0
LINE
  5
2B4
330
6A
100
AcDbEntity
  8
0
  6
Continuous
 62
     7
100
AcDbLine
 10
-282.8499993092735
 20
-135.9250000488283
 30
0.0
 11
-283.3499993092735
 21
-135.9250000488283
 31
0.0
  0
LINE
  5
2B5
330
6A
100
AcDbEntity
  8
0
  6
Continuous
 62
     7
100
AcDbLine
 10
-282.3249993092741
 20
-146.4250000488284
 30
0.0
 11
-285.2749993092741
 21
-146.4250000488282
 31
0.0
  0
LINE
  5
2B6
330
6A
100
AcDbEntity
  8
0
  6
Continuous
 62
     7
100
AcDbLine
 10
-283.4749993092739
 20
-143.5250000488282
 30
0.0
 11
-283.4749993092739
 21
-145.0250000488282
 31
0.0
  0
LINE
  5
2B7
330
6A
100
AcDbEntity
  8
0
  6
Continuous
 62
     7
100
AcDbLine
 10
-282.6249993092739
 20
-143.5250000488283
 30
0.0
 11
-283.4749993092739
 21
-143.5250000488282
 31
0.0
  0
LINE
  5
2B8
330
6A
100
AcDbEntity
  8
0
  6
Continuous
 62
     7
100
AcDbLine
 10
-282.6249993092738
 20
-143.0250000488284
 30
0.0
 11
-282.6249993092739
 21
-143.5250000488283
 31
0.0
  0
LINE
  5
2B9
330
6A
100
AcDbEntity
  8
0
  6
Continuous
 62
     7
100
AcDbLine
 10
-283.4749993092739
 20
-145.0250000488282
 30
0.0
 11
-282.324999309274
 21
-145.1500000488283
 31
0.0
  0
LINE
  5
2BA
330
6A
100
AcDbEntity
  8
0
  6
Continuous
 62
     7
100
AcDbLine
 10
-283.8499993092735
 20
-136.4250000488283
 30
0.0
 11
-283.8499993092735
 21
-137.4993821318424
 31
0.0
  0
LINE
  5
2BB
330
6A
100
AcDbEntity
  8
0
  6
Continuous
 62
     7
100
AcDbLine
 10
-282.3499993092736
 20
-137.7568780844058
 30
0.0
 11
-282.3499993092735
 21
-136.4250000488284
 31
0.0
  0
LINE
  5
2BC
330
6A
100
AcDbEntity
  8
0
  6
Continuous
 62
     7
100
AcDbLine
 10
-282.324999309274
 20
-145.1500000488283
 30
0.0
 11
-282.3249993092741
 21
-146.4250000488284
 31
0.0
  0
LINE
  5
2BD
330
6A
100
AcDbEntity
  8
0
  6
Continuous
 62
     7
100
AcDbLine
 10
-273.4999993092735
 20
-142.9250000488289
 30
0.0
 11
-277.5999993092738
 21
-142.9250000488287
 31
0.0
  0
LINE
  5
2BE
330
6A
100
AcDbEntity
  8
0
  6
Continuous
 62
     7
100
AcDbLine
 10
-277.5999993092738
 20
-142.9250000488287
 30
0.0
 11
-278.5499993092737
 21
-141.9750000488283
 31
0.0
  0
LINE
  5
2BF
330
6A
100
AcDbEntity
  8
0
  6
Continuous
 62
     7
100
AcDbLine
 10
-278.5499993092737
 20
-141.9750000488283
 30
0.0
 11
-278.5499993092739
 21
-141.525000048829
 31
0.0
  0
LINE
  5
2C0
330
6A
100
AcDbEntity
  8
0
  6
Continuous
 62
     7
100
AcDbLine
 10
-278.5499993092739
 20
-141.525000048829
 30
0.0
 11
-277.7499993092737
 21
-141.3250000488287
 31
0.0
  0
LINE
  5
2C1
330
6A
100
AcDbEntity
  8
0
  6
Continuous
 62
     7
100
AcDbLine
 10
-277.7499993092737
 20
-140.1250000488289
 30
0.0
 11
-281.8249993092736
 21
-140.1250000488287
 31
0.0
  0
LINE
  5
2C2
330
6A
100
AcDbEntity
  8
0
  6
Continuous
 62
     7
100
AcDbLine
 10
-281.8249993092736
 20
-140.1250000488287
 30
0.0
 11
-282.3499993092736
 21
-137.7568780844058
 31
0.0
  0
LINE
  5
2C3
330
6A
100
AcDbEntity
  8
0
  6
Continuous
 62
     7
100
AcDbLine
 10
-311.4249993092737
 20
-141.5250000488267
 30
0.0
 11
-312.4499993092738
 21
-141.3250000488268
 31
0.0
  0
LINE
  5
2C4
330
6A
100
AcDbEntity
  8
0
  6
Continuous
 62
     7
100
AcDbLine
 10
-315.1748507126447
 20
-134.4250000488262
 30
0.0
 11
-313.694999309274
 21
-135.904851452197
 31
0.0
  0
LINE
  5
2C5
330
6A
100
AcDbEntity
  8
0
  6
Continuous
 62
     7
100
AcDbLine
 10
-312.7214459186801
 20
-134.9312980616045
 30
0.0
 11
-313.694999309274
 21
-135.904851452197
 31
0.0
  0
LINE
  5
2C6
330
6A
100
AcDbEntity
  8
0
  6
Continuous
 62
     7
100
AcDbLine
 10
-277.7499993092737
 20
-141.3250000488287
 30
0.0
 11
-277.7499993092737
 21
-140.1250000488289
 31
0.0
  0
LINE
  5
2C7
330
6A
100
AcDbEntity
  8
0
  6
Continuous
 62
     7
100
AcDbLine
 10
-280.7499993092731
 20
-130.4750000488286
 30
0.0
 11
-273.4999993092729
 21
-130.475000048829
 31
0.0
  0
LINE
  5
2C8
330
6A
100
AcDbEntity
  8
0
  6
Continuous
 62
     7
100
AcDbLine
 10
-273.4999993092735
 20
-142.9250000488289
 30
0.0
 11
-273.4999993092729
 21
-130.475000048829
 31
0.0
  0
LINE
  5
2C9
330
6A
100
AcDbEntity
  8
0
  6
Continuous
 62
     7
100
AcDbLine
 10
-313.0746999542998
 20
-103.9322678370608
 30
0.0
 11
-313.5179793311934
 21
-104.1881953046358
 31
0.0
  0
LINE
  5
2CA
330
6A
100
AcDbEntity
  8
0
  6
Continuous
 62
     7
100
AcDbLine
 10
-313.5179793311934
 20
-104.1881953046358
 30
0.0
 11
-312.9904793311933
 21
-105.1018521056286
 31
0.0
  0
LINE
  5
2CB
330
6A
100
AcDbEntity
  8
0
  6
Continuous
 62
     7
100
AcDbLine
 10
-311.4249993092737
 20
-141.5250000488267
 30
0.0
 11
-311.4249993092737
 21
-141.7250000488297
 31
0.0
  0
LINE
  5
2CC
330
6A
100
AcDbEntity
  8
0
  6
Continuous
 62
     7
100
AcDbLine
 10
-309.7499993092732
 20
-130.475000048827
 30
0.0
 11
-309.749999309273
 21
-127.1750000488268
 31
0.0
  0
LINE
  5
2CD
330
6A
100
AcDbEntity
  8
0
  6
Continuous
 62
     7
100
AcDbLine
 10
-308.785873418942
 20
-99.00814754100041
 30
0.0
 11
-306.6499993092716
 21
-97.77500004882708
 31
0.0
  0
LINE
  5
2CE
330
6A
100
AcDbEntity
  8
0
  6
Continuous
 62
     7
100
AcDbLine
 10
-309.749999309273
 20
-127.1750000488268
 30
0.0
 11
-308.3499993092732
 21
-127.1750000488269
 31
0.0
  0
LINE
  5
2CF
330
6A
100
AcDbEntity
  8
0
  6
Continuous
 62
     7
100
AcDbLine
 10
-308.5052986642444
 20
-101.2941227722116
 30
0.0
 11
-308.785873418942
 21
-99.00814754100041
 31
0.0
  0
LINE
  5
2D0
330
6A
100
AcDbEntity
  8
0
  6
Continuous
 62
     7
100
AcDbLine
 10
-308.0620192873508
 20
-101.0381953046359
 30
0.0
 11
-308.5052986642444
 21
-101.2941227722116
 31
0.0
  0
LINE
  5
2D1
330
6A
100
AcDbEntity
  8
0
  6
Continuous
 62
     7
100
AcDbLine
 10
-316.9999993092724
 20
-116.1750140488189
 30
0.0
 11
-306.7999993092723
 21
-116.175014048827
 31
0.0
  0
LINE
  5
2D2
330
6A
100
AcDbEntity
  8
0
  6
Continuous
 62
     7
100
AcDbLine
 10
-285.2749993092739
 20
-144.7750000488281
 30
0.0
 11
-285.9149993092739
 21
-144.7750000488281
 31
0.0
  0
LINE
  5
2D3
330
6A
100
AcDbEntity
  8
0
  6
Continuous
 62
     7
100
AcDbLine
 10
-300.6999993092734
 20
-138.7750000488273
 30
0.0
 11
-300.6999993092734
 21
-136.4250000488273
 31
0.0
  0
LINE
  5
2D4
330
6A
100
AcDbEntity
  8
0
  6
Continuous
 62
     7
100
AcDbLine
 10
-301.1999993092734
 20
-135.9250000488273
 30
0.0
 11
-301.3126171073942
 21
-135.9250000488273
 31
0.0
  0
LINE
  5
2D5
330
6A
100
AcDbEntity
  8
0
  6
Continuous
 62
     7
100
AcDbLine
 10
-301.7955800205387
 20
-136.2955905262761
 30
0.0
 11
-302.1249993092735
 21
-137.5250000488272
 31
0.0
  0
LINE
  5
2D6
330
6A
100
AcDbEntity
  8
0
  6
Continuous
 62
     7
100
AcDbLine
 10
-307.9249993092735
 20
-137.5250000488269
 30
0.0
 11
-302.1249993092735
 21
-137.5250000488272
 31
0.0
  0
LINE
  5
2D7
330
6A
100
AcDbEntity
  8
0
  6
Continuous
 62
     7
100
AcDbLine
 10
-312.5749993092733
 20
-133.875000048827
 30
0.0
 11
-309.4499993092733
 21
-133.8750000488267
 31
0.0
  0
LINE
  5
2D8
330
6A
100
AcDbEntity
  8
0
  6
Continuous
 62
     7
100
AcDbLine
 10
-312.5749993092733
 20
-134.5777446710111
 30
0.0
 11
-312.5749993092733
 21
-133.875000048827
 31
0.0
  0
LINE
  5
2D9
330
6A
100
AcDbEntity
  8
0
  6
Continuous
 62
     7
100
AcDbLine
 10
-309.4499993092734
 20
-134.9250000488269
 30
0.0
 11
-310.6249993092733
 21
-134.9250000488268
 31
0.0
  0
LINE
  5
2DA
330
6A
100
AcDbEntity
  8
0
  6
Continuous
 62
     7
100
AcDbLine
 10
-310.6249993092735
 20
-136.8250000488269
 30
0.0
 11
-309.4534264340197
 21
-136.8250000488268
 31
0.0
  0
LINE
  5
2DB
330
6A
100
AcDbEntity
  8
0
  6
Continuous
 62
     7
100
AcDbLine
 10
-316.749999309274
 20
-143.4919873469344
 30
0.0
 11
-314.5249993092737
 21
-142.2073829979879
 31
0.0
  0
LINE
  5
2DC
330
6A
100
AcDbEntity
  8
0
  6
Continuous
 62
     7
100
AcDbLine
 10
-316.9999993092739
 20
-143.9250000488265
 30
0.0
 11
-316.999999309274
 21
-146.4250000488265
 31
0.0
  0
LINE
  5
2DD
330
6A
100
AcDbEntity
  8
0
  6
Continuous
 62
     7
100
AcDbLine
 10
-316.9999993092735
 20
-134.4250000488265
 30
0.0
 11
-316.9999993092732
 21
-130.4750000488266
 31
0.0
  0
LINE
  5
2DE
330
6A
100
AcDbEntity
  8
0
  6
Continuous
 62
     7
100
AcDbLine
 10
-316.9999993092735
 20
-134.4250000488265
 30
0.0
 11
-315.1748507126447
 21
-134.4250000488262
 31
0.0
  0
LINE
  5
2DF
330
6A
100
AcDbEntity
  8
0
  6
Continuous
 62
     7
100
AcDbLine
 10
-315.9499993092739
 20
-144.3250000488266
 30
0.0
 11
-315.949999309274
 21
-145.3750000488265
 31
0.0
  0
LINE
  5
2E0
330
6A
100
AcDbEntity
  8
0
  6
Continuous
 62
     7
100
AcDbLine
 10
-315.949999309274
 20
-145.3750000488265
 30
0.0
 11
-314.0249993092739
 21
-145.3750000488266
 31
0.0
  0
LINE
  5
2E1
330
6A
100
AcDbEntity
  8
0
  6
Continuous
 62
     7
100
AcDbLine
 10
-316.4999993092739
 20
-143.4250000488265
 30
0.0
 11
-316.2499993092739
 21
-143.4250000488265
 31
0.0
  0
LINE
  5
2E2
330
6A
100
AcDbEntity
  8
0
  6
Continuous
 62
     7
100
AcDbLine
 10
-316.999999309274
 20
-146.4250000488265
 30
0.0
 11
-313.2195829092862
 21
-146.4250000488267
 31
0.0
  0
LINE
  5
2E3
330
6A
100
AcDbEntity
  8
0
  6
Continuous
 62
     7
100
AcDbLine
 10
-314.9141251996018
 20
-102.5462953562255
 30
0.0
 11
-316.9999993092717
 21
-103.7505753349391
 31
0.0
  0
LINE
  5
2E4
330
6A
100
AcDbEntity
  8
0
  6
Continuous
 62
     7
100
AcDbLine
 10
-316.9999993092717
 20
-103.7505753349391
 30
0.0
 11
-316.9999993092724
 21
-116.1750140488189
 31
0.0
  0
LINE
  5
2E5
330
6A
100
AcDbEntity
  8
0
  6
Continuous
 62
     7
100
AcDbLine
 10
-313.0746999542998
 20
-103.9322678370608
 30
0.0
 11
-314.9141251996018
 21
-102.5462953562255
 31
0.0
  0
LINE
  5
2E6
330
6A
100
AcDbEntity
  8
0
  6
Continuous
 62
     7
100
AcDbLine
 10
-316.9999993092724
 20
-116.1750140488189
 30
0.0
 11
-316.9999993092732
 21
-130.4750000488266
 31
0.0
  0
LINE
  5
2E7
330
6A
100
AcDbEntity
  8
0
  6
Continuous
 62
     7
100
AcDbLine
 10
-273.4999993092729
 20
-130.475000048829
 30
0.0
 11
-273.4999993092723
 21
-116.1750140488295
 31
0.0
  0
LINE
  5
2E8
330
6A
100
AcDbEntity
  8
0
  6
Continuous
 62
     7
100
AcDbLine
 10
-280.7499993092731
 20
-130.4750000488286
 30
0.0
 11
-280.749999309273
 21
-127.1750000488284
 31
0.0
  0
LINE
  5
2E9
330
6A
100
AcDbEntity
  8
0
  6
Continuous
 62
     7
100
AcDbLine
 10
-316.9999993092732
 20
-130.4750000488266
 30
0.0
 11
-309.7499993092732
 21
-130.475000048827
 31
0.0
  0
LINE
  5
2EA
330
6A
100
AcDbEntity
  8
0
  6
Continuous
 62
     7
100
AcDbLine
 10
-282.1499993092733
 20
-127.1750000488284
 30
0.0
 11
-280.749999309273
 21
-127.1750000488284
 31
0.0
  0
ARC
  5
2EB
330
6A
100
AcDbEntity
  8
0
  6
Continuous
 62
     7
100
AcDbCircle
 10
-310.6249993092736
 20
-138.3250000488269
 30
0.0
 40
3.400000000000091
100
AcDbArc
 50
89.99999999999426
 51
179.9999999999967
  0
ARC
  5
2EC
330
6A
100
AcDbEntity
  8
0
  6
Continuous
 62
     7
100
AcDbCircle
 10
-318.8893803138739
 20
-141.5675126900218
 30
0.0
 40
7.466042194497621
100
AcDbArc
 50
319.4123338771494
 51
358.79132342925
  0
ARC
  5
2ED
330
6A
100
AcDbEntity
  8
0
  6
Continuous
 62
     7
100
AcDbCircle
 10
-313.0749993092734
 20
-134.5777446710111
 30
0.0
 40
0.5000000000001045
100
AcDbArc
 50
314.9999999999885
 51
0.0
  0
ARC
  5
2EE
330
6A
100
AcDbEntity
  8
0
  6
Continuous
 62
     7
100
AcDbCircle
 10
-311.5736826073241
 20
-138.4750000488269
 30
0.0
 40
0.7499999999997521
100
AcDbArc
 50
176.9830386901922
 51
270.0
  0
ARC
  5
2EF
330
6A
100
AcDbEntity
  8
0
  6
Continuous
 62
     7
100
AcDbCircle
 10
-282.8499993092735
 20
-136.4250000488283
 30
0.0
 40
0.5
100
AcDbArc
 50
359.9999999999902
 51
90.0
  0
ARC
  5
2F0
330
6A
100
AcDbEntity
  8
0
  6
Continuous
 62
     7
100
AcDbCircle
 10
-283.3499993092735
 20
-136.4250000488283
 30
0.0
 40
0.5
100
AcDbArc
 50
90.0
 51
180.0
  0
ARC
  5
2F1
330
6A
100
AcDbEntity
  8
0
  6
Continuous
 62
     7
100
AcDbCircle
 10
-315.0249993092737
 20
-141.3413575942029
 30
0.0
 40
1.0000000000005
100
AcDbArc
 50
299.9999999999834
 51
359.9999999999886
  0
ARC
  5
2F2
330
6A
100
AcDbEntity
  8
0
  6
Continuous
 62
     7
100
AcDbCircle
 10
-295.9249993092745
 20
-156.4250000488276
 30
0.0
 40
16.19999999999989
100
AcDbArc
 50
77.66476782071548
 51
100.7064869688765
  0
ARC
  5
2F3
330
6A
100
AcDbEntity
  8
0
  6
Continuous
 62
     7
100
AcDbCircle
 10
-309.4534264340198
 20
-138.825000048827
 30
0.0
 40
2.000000000000116
100
AcDbArc
 50
45.00000000000519
 51
89.99999999999837
  0
ARC
  5
2F4
330
6A
100
AcDbEntity
  8
0
  6
Continuous
 62
     7
100
AcDbCircle
 10
-294.1732238922824
 20
-148.4143020212882
 30
0.0
 40
7.999999999999802
100
AcDbArc
 50
34.32803523337033
 51
77.6647678207146
  0
ARC
  5
2F5
330
6A
100
AcDbEntity
  8
0
  6
Continuous
 62
     7
100
AcDbCircle
 10
-285.9149993092738
 20
-142.7750000488281
 30
0.0
 40
2.000000000000187
100
AcDbArc
 50
214.3280352333817
 51
269.9999999999968
  0
ARC
  5
2F6
330
6A
100
AcDbEntity
  8
0
  6
Continuous
 62
     7
100
AcDbCircle
 10
-298.7116672782676
 20
-141.6861235098715
 30
0.0
 40
1.199999999999787
100
AcDbArc
 50
100.7064869688723
 51
186.9237208440632
  0
ARC
  5
2F7
330
6A
100
AcDbEntity
  8
0
  6
Continuous
 62
     7
100
AcDbCircle
 10
-300.2999993092737
 20
-141.8790000488276
 30
0.0
 40
0.4000000000000218
100
AcDbArc
 50
228.6834170699311
 51
6.92372084409951
  0
ARC
  5
2F8
330
6A
100
AcDbEntity
  8
0
  6
Continuous
 62
     7
100
AcDbCircle
 10
-298.3523530343799
 20
-139.6633344630743
 30
0.0
 40
3.349999999999854
100
AcDbArc
 50
182.4150421413222
 51
228.6834170699485
  0
ARC
  5
2F9
330
6A
100
AcDbEntity
  8
0
  6
Continuous
 62
     7
100
AcDbCircle
 10
-300.9999993092737
 20
-139.7750000488273
 30
0.0
 40
0.6999999999999034
100
AcDbArc
 50
89.99999999999535
 51
182.4150421413329
  0
ARC
  5
2FA
330
6A
100
AcDbEntity
  8
0
  6
Continuous
 62
     7
100
AcDbCircle
 10
-300.9999993092736
 20
-138.7750000488273
 30
0.0
 40
0.3000000000000966
100
AcDbArc
 50
270.0
 51
0.0
  0
ARC
  5
2FB
330
6A
100
AcDbEntity
  8
0
  6
Continuous
 62
     7
100
AcDbCircle
 10
-301.1999993092734
 20
-136.4250000488273
 30
0.0
 40
0.5
100
AcDbArc
 50
0.0
 51
90.0
  0
ARC
  5
2FC
330
6A
100
AcDbEntity
  8
0
  6
Continuous
 62
     7
100
AcDbCircle
 10
-301.3126171073942
 20
-136.4250000488273
 30
0.0
 40
0.5
100
AcDbArc
 50
90.0
 51
165.000000000007
  0
ARC
  5
2FD
330
6A
100
AcDbEntity
  8
0
  6
Continuous
 62
     7
100
AcDbCircle
 10
-310.6249993092736
 20
-138.5250000488267
 30
0.0
 40
1.699999999999818
100
AcDbArc
 50
89.99999999999618
 51
176.9830386901938
  0
ARC
  5
2FE
330
6A
100
AcDbEntity
  8
0
  6
Continuous
 62
     7
100
AcDbCircle
 10
-309.4499993092733
 20
-134.4000000488268
 30
0.0
 40
0.525000000000091
100
AcDbArc
 50
269.9999999999938
 51
90.0
  0
ARC
  5
2FF
330
6A
100
AcDbEntity
  8
0
  6
Continuous
 62
     7
100
AcDbCircle
 10
-316.4999993092739
 20
-143.9250000488265
 30
0.0
 40
0.5
100
AcDbArc
 50
90.0
 51
120.0000000000183
  0
ARC
  5
300
330
6A
100
AcDbEntity
  8
0
  6
Continuous
 62
     7
100
AcDbCircle
 10
-316.2499993092739
 20
-143.9250000488265
 30
0.0
 40
0.5000000000001024
100
AcDbArc
 50
306.8698976458368
 51
90.0
  0
ARC
  5
301
330
6A
100
AcDbEntity
  8
0
  6
Continuous
 62
     7
100
AcDbCircle
 10
-316.4999993092739
 20
-143.9250000488265
 30
0.0
 40
0.4999999999999502
100
AcDbArc
 50
120.0000000000183
 51
180.0
  0
ENDBLK
  5
6C
330
6A
100
AcDbEntity
  8
0
100
AcDbBlockEnd
  0
BLOCK
  5
6F
330
6D
100
AcDbEntity
  8
0
100
AcDbBlockBegin
  2
Vordans1
 70
     0
 10
-295.2499999999985
 20
-121.000000024414
 30
0.0
  3
Vordans1
  1

  0
INSERT
  5
6E
330
6D
100
AcDbEntity
  8
0
100
AcDbBlockReference
  2
OTTA_6-P_P_YE-select__6
 10
-316.999999309274
 20
-146.4250000488284
 30
0.0
  0
LINE
  5
302
330
6D
100
AcDbEntity
  8
1
  6
DOT_CENTER
 62
     2
100
AcDbLine
 10
-295.2499993092737
 20
-138.735703585205
 30
0.0
 11
-295.2499993092737
 21
-141.735703585205
 31
0.0
  0
MTEXT
  5
303
330
6D
100
AcDbEntity
  8
1
 62
     6
100
AcDbMText
 10
-295.2499999999986
 20
-151.4250020244153
 30
0.0
 40
5.0
 41
0.0
 71
     2
 72
     1
  1
 
  7
CONVERTER_11
 73
     1
 44
1.32052821128451
  0
DIMENSION
  5
30E
330
6D
100
AcDbEntity
  8
1
100
AcDbDimension
  2
*D18
 10
-334.9999993092718
 20
-146.4250000488267
 30
0.0
 11
-338.4249993092718
 21
-123.81570890555
 31
0.0
 70
    32
  1
<>
 71
     5
 42
-1.0
 53
90.0
  3
ME10_DIM_11
100
AcDbAlignedDimension
 13
-306.6499993092716
 23
-95.57500004882712
 33
0.0
 14
-313.2195829092862
 24
-146.4250000488267
 34
0.0
 50
90.0
100
AcDbRotatedDimension
  0
DIMENSION
  5
319
330
6D
100
AcDbEntity
  8
1
100
AcDbDimension
  2
*D19
 10
-326.9999993092718
 20
-140.1250000488287
 30
0.0
 11
-330.4249993092718
 21
-116.448167429704
 31
0.0
 70
    32
  1
<>
 71
     5
 42
-1.0
 53
90.0
  3
ME10_DIM_12
100
AcDbAlignedDimension
 13
-306.6499993092716
 23
-95.57500004882712
 33
0.0
 14
-281.8249993092736
 24
-140.1250000488287
 34
0.0
 50
90.0
100
AcDbRotatedDimension
  0
DIMENSION
  5
324
330
6D
100
AcDbEntity
  8
1
100
AcDbDimension
  2
*D20
 10
-316.999999309274
 20
-172.754153699168
 30
0.0
 11
-296.699760219666
 21
-169.329153699168
 31
0.0
 70
    32
  1
<>
 71
     5
 42
-1.0
 53
0.00013888888889
  3
ME10_DIM_13
100
AcDbAlignedDimension
 13
-273.4999993092735
 23
-142.9250000488289
 33
0.0
 14
-316.999999309274
 24
-146.4250000488265
 34
0.0
100
AcDbRotatedDimension
  0
DIMENSION
  5
32F
330
6D
100
AcDbEntity
  8
1
100
AcDbDimension
  2
*D21
 10
-295.2499993092737
 20
-164.754153699168
 30
0.0
 11
-284.282079910292
 21
-161.329153699168
 31
0.0
 70
    32
  1
<>
 71
     5
 42
-1.0
 53
0.00013888888889
  3
ME10_DIM_14
100
AcDbAlignedDimension
 13
-273.4999993092735
 23
-142.9250000488289
 33
0.0
 14
-295.2499993092737
 24
-141.735703585205
 34
0.0
100
AcDbRotatedDimension
  0
DIMENSION
  5
33A
330
6D
100
AcDbEntity
  8
1
100
AcDbDimension
  2
*D22
 10
-295.2499993092737
 20
-156.754153699168
 30
0.0
 11
-286.859723875081
 21
-153.329153699168
 31
0.0
 70
    32
  1
<>
 71
     5
 42
-1.0
 53
0.00013888888889
  3
ME10_DIM_15
100
AcDbAlignedDimension
 13
-277.7499993092737
 23
-141.3250000488287
 33
0.0
 14
-295.2499993092737
 24
-141.735703585205
 34
0.0
100
AcDbRotatedDimension
  0
ENDBLK
  5
70
330
6D
100
AcDbEntity
  8
0
100
AcDbBlockEnd
  0
BLOCK
  5
72
330
71
100
AcDbEntity
  8
0
100
AcDbBlockBegin
  2
_rahmen
 70
     0
 10
-123.4999999999899
 20
-267.0000000000051
 30
0.0
  3
_rahmen
  1

  0
LINE
  5
33B
330
71
100
AcDbEntity
  8
1
  6
DOT_CENTER
 62
     2
100
AcDbLine
 10
-249.0581496401773
 20
-240.8750000000051
 30
0.0
 11
-243.5581496401773
 21
-240.8750000000051
 31
0.0
  0
LINE
  5
33C
330
71
100
AcDbEntity
  8
1
  6
PHANTOM
 62
     2
100
AcDbLine
 10
-240.3081496401773
 20
-238.1250000000051
 30
0.0
 11
-240.3081496401773
 21
-243.6250000000051
 31
0.0
  0
LINE
  5
33D
330
71
100
AcDbEntity
  8
1
  6
PHANTOM
 62
     2
100
AcDbLine
 10
-237.5581496401773
 20
-240.8750000000051
 30
0.0
 11
-243.0581496401773
 21
-240.8750000000051
 31
0.0
  0
LINE
  5
33E
330
71
100
AcDbEntity
  8
1
  6
Continuous
 62
     7
100
AcDbLine
 10
-188.7448045267399
 20
-253.5000000000051
 30
0.0
 11
-188.7448045267399
 21
-245.000000000005
 31
0.0
  0
LINE
  5
33F
330
71
100
AcDbEntity
  8
1
  6
Continuous
 62
     6
100
AcDbLine
 10
-216.64480452674
 20
-245.000000000005
 30
0.0
 11
-123.4999999999882
 21
-245.000000000005
 31
0.0
  0
LINE
  5
340
330
71
100
AcDbEntity
  8
1
  6
Continuous
 62
     7
100
AcDbLine
 10
-253.0448045267399
 20
-245.000000000005
 30
0.0
 11
-253.0448045267399
 21
-236.500000000005
 31
0.0
  0
LINE
  5
341
330
71
100
AcDbEntity
  8
1
  6
Continuous
 62
     7
100
AcDbLine
 10
-216.64480452674
 20
-245.000000000005
 30
0.0
 11
-216.64480452674
 21
-236.500000000005
 31
0.0
  0
LINE
  5
342
330
71
100
AcDbEntity
  8
1
  6
Continuous
 62
     7
100
AcDbLine
 10
-158.918408281667
 20
-236.500000000005
 30
0.0
 11
-158.918408281667
 21
-245.000000000005
 31
0.0
  0
LINE
  5
343
330
71
100
AcDbEntity
  8
1
  6
Continuous
 62
     7
100
AcDbLine
 10
-132.4184082816674
 20
-236.500000000005
 30
0.0
 11
-132.4184082816674
 21
-245.000000000005
 31
0.0
  0
LINE
  5
344
330
71
100
AcDbEntity
  8
1
  6
Continuous
 62
     6
100
AcDbLine
 10
-322.0448045267399
 20
-262.000000000005
 30
0.0
 11
-366.9999999999899
 21
-262.000000000005
 31
0.0
  0
LINE
  5
345
330
71
100
AcDbEntity
  8
1
  6
Continuous
 62
     7
100
AcDbLine
 10
-123.4999999999886
 20
-253.500000000005
 30
0.0
 11
-216.64480452674
 21
-253.500000000005
 31
0.0
  0
LINE
  5
346
102
{ACAD_REACTORS
330
458
330
459
102
}
330
71
100
AcDbEntity
  8
0
  6
Continuous
 62
     2
100
AcDbLine
 10
-239.3373755849725
 20
-252.6997108843417
 30
0.0
 11
-239.3373755849725
 21
-251.8271938775384
 31
0.0
  0
LINE
  5
347
102
{ACAD_REACTORS
330
458
330
459
102
}
330
71
100
AcDbEntity
  8
0
  6
Continuous
 62
     2
100
AcDbLine
 10
-239.3373755849725
 20
-253.6594795918246
 30
0.0
 11
-239.3373755849725
 21
-254.5319965986278
 31
0.0
  0
LINE
  5
348
102
{ACAD_REACTORS
330
45A
330
45B
102
}
330
71
100
AcDbEntity
  8
0
  6
Continuous
 62
     2
100
AcDbLine
 10
-224.004331448682
 20
-252.4379557823012
 30
0.0
 11
-222.9006921491139
 21
-252.4379557823012
 31
0.0
  0
LINE
  5
349
102
{ACAD_REACTORS
330
45A
330
45B
102
}
330
71
100
AcDbEntity
  8
0
  6
Continuous
 62
     2
100
AcDbLine
 10
-223.2346741057206
 20
-253.6594795918251
 30
0.0
 11
-223.2346741057206
 21
-254.5319965986284
 31
0.0
  0
LINE
  5
34A
102
{ACAD_REACTORS
330
464
330
465
102
}
330
71
100
AcDbEntity
  8
0
  6
Continuous
 62
     2
100
AcDbLine
 10
-225.0954307211005
 20
-251.3473095238144
 30
0.0
 11
-223.6974776741602
 21
-249.7664505300394
 31
0.0
  0
LINE
  5
34B
102
{ACAD_REACTORS
330
464
330
465
102
}
330
71
100
AcDbEntity
  8
0
  6
Continuous
 62
     2
100
AcDbLine
 10
-225.0000073049277
 20
-248.2935000000032
 30
0.0
 11
-223.6974776741602
 21
-249.7664505300394
 31
0.0
  0
LINE
  5
34C
102
{ACAD_REACTORS
330
464
330
465
102
}
330
71
100
AcDbEntity
  8
0
  6
Continuous
 62
     2
100
AcDbLine
 10
-222.3949480433938
 20
-248.2935000000032
 30
0.0
 11
-220.9922238256466
 21
-248.2935000000032
 31
0.0
  0
LINE
  5
34D
102
{ACAD_REACTORS
330
464
330
465
102
}
330
71
100
AcDbEntity
  8
0
  6
Continuous
 62
     2
100
AcDbLine
 10
-223.6927065033523
 20
-251.3473095238144
 30
0.0
 11
-222.9961155652866
 21
-250.5595777385207
 31
0.0
  0
LINE
  5
34E
102
{ACAD_REACTORS
330
464
330
465
102
}
330
71
100
AcDbEntity
  8
0
  6
Continuous
 62
     2
100
AcDbLine
 10
-223.6927065033523
 20
-251.3473095238144
 30
0.0
 11
-225.0954307211005
 21
-251.3473095238144
 31
0.0
  0
LINE
  5
34F
102
{ACAD_REACTORS
330
466
330
467
102
}
330
71
100
AcDbEntity
  8
0
  6
Continuous
 62
     2
100
AcDbLine
 10
-225.2147099913174
 20
-251.3473095238144
 30
0.0
 11
-226.4552144015703
 21
-251.3473095238144
 31
0.0
  0
LINE
  5
350
102
{ACAD_REACTORS
330
468
330
469
102
}
330
71
100
AcDbEntity
  8
0
  6
Continuous
 62
     2
100
AcDbLine
 10
-227.3231940097254
 20
-253.4849761904642
 30
0.0
 11
-227.6233592469155
 21
-252.7171612244775
 31
0.0
  0
LINE
  5
351
102
{ACAD_REACTORS
330
468
330
469
102
}
330
71
100
AcDbEntity
  8
0
  6
Continuous
 62
     2
100
AcDbLine
 10
-227.9235244841079
 20
-253.4849761904642
 30
0.0
 11
-227.3231940097254
 21
-253.4849761904642
 31
0.0
  0
LINE
  5
352
102
{ACAD_REACTORS
330
468
330
469
102
}
330
71
100
AcDbEntity
  8
0
  6
Continuous
 62
     2
100
AcDbLine
 10
-229.6415644989817
 20
-254.7064999999887
 30
0.0
 11
-228.4010600887287
 21
-254.7064999999887
 31
0.0
  0
LINE
  5
353
102
{ACAD_REACTORS
330
468
330
469
102
}
330
71
100
AcDbEntity
  8
0
  6
Continuous
 62
     2
100
AcDbLine
 10
-228.2436114520424
 20
-251.6526904761776
 30
0.0
 11
-227.0031070417897
 21
-251.6526904761776
 31
0.0
  0
LINE
  5
354
102
{ACAD_REACTORS
330
468
330
469
102
}
330
71
100
AcDbEntity
  8
0
  6
Continuous
 62
     2
100
AcDbLine
 10
-227.0031070417897
 20
-251.6526904761776
 30
0.0
 11
-225.6051539948494
 21
-254.7064999999887
 31
0.0
  0
LINE
  5
355
102
{ACAD_REACTORS
330
468
330
469
102
}
330
71
100
AcDbEntity
  8
0
  6
Continuous
 62
     2
100
AcDbLine
 10
-226.8456584051033
 20
-254.7064999999887
 30
0.0
 11
-227.0571384585791
 21
-254.1655394557708
 31
0.0
  0
LINE
  5
356
102
{ACAD_REACTORS
330
46A
330
46B
102
}
330
71
100
AcDbEntity
  8
0
  6
Continuous
 62
     2
100
AcDbLine
 10
-230.9879776006893
 20
-254.7064999999887
 30
0.0
 11
-229.7951848985228
 21
-254.7064999999887
 31
0.0
  0
LINE
  5
357
102
{ACAD_REACTORS
330
46A
330
46B
102
}
330
71
100
AcDbEntity
  8
0
  6
Continuous
 62
     2
100
AcDbLine
 10
-230.9879776006893
 20
-252.4379557823012
 30
0.0
 11
-230.9879776006893
 21
-254.7064999999887
 31
0.0
  0
LINE
  5
358
102
{ACAD_REACTORS
330
46A
330
46B
102
}
330
71
100
AcDbEntity
  8
0
  6
Continuous
 62
     2
100
AcDbLine
 10
-231.7990766381639
 20
-251.6526904761776
 30
0.0
 11
-231.7990766381639
 21
-252.4379557823012
 31
0.0
  0
LINE
  5
359
102
{ACAD_REACTORS
330
46C
330
46D
102
}
330
71
100
AcDbEntity
  8
0
  6
Continuous
 62
     2
100
AcDbLine
 10
-230.3198627565913
 20
-251.3473095238144
 30
0.0
 11
-229.1270700544248
 21
-251.3473095238144
 31
0.0
  0
LINE
  5
35A
102
{ACAD_REACTORS
330
46C
330
46D
102
}
330
71
100
AcDbEntity
  8
0
  6
Continuous
 62
     2
100
AcDbLine
 10
-227.8865656441708
 20
-249.6022755102084
 30
0.0
 11
-229.1270700544248
 21
-248.2935000000032
 31
0.0
  0
LINE
  5
35B
102
{ACAD_REACTORS
330
46C
330
46D
102
}
330
71
100
AcDbEntity
  8
0
  6
Continuous
 62
     2
100
AcDbLine
 10
-226.6937729420042
 20
-248.2935000000032
 30
0.0
 11
-227.8865656441708
 21
-248.2935000000032
 31
0.0
  0
LINE
  5
35C
102
{ACAD_REACTORS
330
46C
330
46D
102
}
330
71
100
AcDbEntity
  8
0
  6
Continuous
 62
     2
100
AcDbLine
 10
-226.6937729420042
 20
-251.3473095238144
 30
0.0
 11
-226.6937729420042
 21
-248.2935000000032
 31
0.0
  0
LINE
  5
35D
102
{ACAD_REACTORS
330
46C
330
46D
102
}
330
71
100
AcDbEntity
  8
0
  6
Continuous
 62
     2
100
AcDbLine
 10
-227.8865656441708
 20
-251.3473095238144
 30
0.0
 11
-226.6937729420042
 21
-251.3473095238144
 31
0.0
  0
LINE
  5
35E
102
{ACAD_REACTORS
330
46C
330
46D
102
}
330
71
100
AcDbEntity
  8
0
  6
Continuous
 62
     2
100
AcDbLine
 10
-229.1270700544248
 20
-250.0385340136097
 30
0.0
 11
-227.8865656441708
 21
-251.3473095238144
 31
0.0
  0
LINE
  5
35F
102
{ACAD_REACTORS
330
46E
330
46F
102
}
330
71
100
AcDbEntity
  8
0
  6
Continuous
 62
     2
100
AcDbLine
 10
-233.1350044645905
 20
-252.9614659863827
 30
0.0
 11
-234.3755088748434
 21
-251.6526904761776
 31
0.0
  0
LINE
  5
360
102
{ACAD_REACTORS
330
46E
330
46F
102
}
330
71
100
AcDbEntity
  8
0
  6
Continuous
 62
     2
100
AcDbLine
 10
-233.1350044645905
 20
-251.6526904761776
 30
0.0
 11
-233.1350044645905
 21
-252.9614659863827
 31
0.0
  0
LINE
  5
361
102
{ACAD_REACTORS
330
46E
330
46F
102
}
330
71
100
AcDbEntity
  8
0
  6
Continuous
 62
     2
100
AcDbLine
 10
-231.9422117624241
 20
-251.6526904761776
 30
0.0
 11
-233.1350044645905
 21
-251.6526904761776
 31
0.0
  0
LINE
  5
362
102
{ACAD_REACTORS
330
46E
330
46F
102
}
330
71
100
AcDbEntity
  8
0
  6
Continuous
 62
     2
100
AcDbLine
 10
-231.9422117624241
 20
-254.7064999999887
 30
0.0
 11
-231.9422117624241
 21
-251.6526904761776
 31
0.0
  0
LINE
  5
363
102
{ACAD_REACTORS
330
46E
330
46F
102
}
330
71
100
AcDbEntity
  8
0
  6
Continuous
 62
     2
100
AcDbLine
 10
-234.3755088748434
 20
-253.3977244897841
 30
0.0
 11
-233.1350044645905
 21
-254.7064999999887
 31
0.0
  0
LINE
  5
364
102
{ACAD_REACTORS
330
46E
330
46F
102
}
330
71
100
AcDbEntity
  8
0
  6
Continuous
 62
     2
100
AcDbLine
 10
-234.3755088748434
 20
-254.7064999999887
 30
0.0
 11
-234.3755088748434
 21
-253.3977244897841
 31
0.0
  0
LINE
  5
365
102
{ACAD_REACTORS
330
45E
330
45F
102
}
330
71
100
AcDbEntity
  8
0
  6
Continuous
 62
     2
100
AcDbLine
 10
-231.8943491234519
 20
-248.9915136054462
 30
0.0
 11
-230.5584212970242
 21
-248.9915136054462
 31
0.0
  0
LINE
  5
366
102
{ACAD_REACTORS
330
45E
330
45F
102
}
330
71
100
AcDbEntity
  8
0
  6
Continuous
 62
     2
100
AcDbLine
 10
-231.8943491234519
 20
-250.6492959183719
 30
0.0
 11
-231.8943491234519
 21
-250.1694115646302
 31
0.0
  0
LINE
  5
367
102
{ACAD_REACTORS
330
45E
330
45F
102
}
330
71
100
AcDbEntity
  8
0
  6
Continuous
 62
     2
100
AcDbLine
 10
-230.5584212970242
 20
-250.6492959183719
 30
0.0
 11
-231.8943491234519
 21
-250.6492959183719
 31
0.0
  0
LINE
  5
368
102
{ACAD_REACTORS
330
45E
330
45F
102
}
330
71
100
AcDbEntity
  8
0
  6
Continuous
 62
     2
100
AcDbLine
 10
-230.5584212970242
 20
-251.3473095238144
 30
0.0
 11
-230.5584212970242
 21
-250.6492959183719
 31
0.0
  0
LINE
  5
369
102
{ACAD_REACTORS
330
45E
330
45F
102
}
330
71
100
AcDbEntity
  8
0
  6
Continuous
 62
     2
100
AcDbLine
 10
-233.7087410208052
 20
-251.3473095238144
 30
0.0
 11
-230.5584212970242
 21
-251.3473095238144
 31
0.0
  0
LINE
  5
36A
102
{ACAD_REACTORS
330
45E
330
45F
102
}
330
71
100
AcDbEntity
  8
0
  6
Continuous
 62
     2
100
AcDbLine
 10
-233.7087410208052
 20
-248.2935000000032
 30
0.0
 11
-230.5584212970242
 21
-248.2935000000032
 31
0.0
  0
LINE
  5
36B
102
{ACAD_REACTORS
330
45E
330
45F
102
}
330
71
100
AcDbEntity
  8
0
  6
Continuous
 62
     2
100
AcDbLine
 10
-230.5584212970242
 20
-248.9915136054462
 30
0.0
 11
-230.5584212970242
 21
-248.2935000000032
 31
0.0
  0
LINE
  5
36C
102
{ACAD_REACTORS
330
470
330
471
102
}
330
71
100
AcDbEntity
  8
0
  6
Continuous
 62
     2
100
AcDbLine
 10
-236.5700965159452
 20
-249.3623333333378
 30
0.0
 11
-236.5700965159452
 21
-248.2935000000032
 31
0.0
  0
LINE
  5
36D
102
{ACAD_REACTORS
330
470
330
471
102
}
330
71
100
AcDbEntity
  8
0
  6
Continuous
 62
     2
100
AcDbLine
 10
-236.5700965159452
 20
-248.2935000000032
 30
0.0
 11
-235.3773038137788
 21
-248.2935000000032
 31
0.0
  0
LINE
  5
36E
102
{ACAD_REACTORS
330
470
330
471
102
}
330
71
100
AcDbEntity
  8
0
  6
Continuous
 62
     2
100
AcDbLine
 10
-236.5700965159452
 20
-250.2130374149706
 30
0.0
 11
-237.6197540938527
 21
-250.2130374149706
 31
0.0
  0
LINE
  5
36F
102
{ACAD_REACTORS
330
470
330
471
102
}
330
71
100
AcDbEntity
  8
0
  6
Continuous
 62
     2
100
AcDbLine
 10
-237.6197540938527
 20
-250.2130374149706
 30
0.0
 11
-237.6197540938527
 21
-251.3473095238144
 31
0.0
  0
LINE
  5
370
102
{ACAD_REACTORS
330
470
330
471
102
}
330
71
100
AcDbEntity
  8
0
  6
Continuous
 62
     2
100
AcDbLine
 10
-238.8125467960193
 20
-248.2935000000032
 30
0.0
 11
-238.8125467960193
 21
-251.3473095238144
 31
0.0
  0
LINE
  5
371
102
{ACAD_REACTORS
330
462
330
463
102
}
330
71
100
AcDbEntity
  8
0
  6
Continuous
 62
     2
100
AcDbLine
 10
-240.7687268275729
 20
-249.6623334947855
 30
0.0
 11
-240.7687268275729
 21
-248.9566058454433
 31
0.0
  0
LINE
  5
372
102
{ACAD_REACTORS
330
462
330
463
102
}
330
71
100
AcDbEntity
  8
0
  6
Continuous
 62
     2
100
AcDbLine
 10
-242.009231237827
 20
-251.3473095238144
 30
0.0
 11
-240.7687268275729
 21
-251.3473095238144
 31
0.0
  0
LINE
  5
373
102
{ACAD_REACTORS
330
462
330
463
102
}
330
71
100
AcDbEntity
  8
0
  6
Continuous
 62
     2
100
AcDbLine
 10
-240.7687268275729
 20
-251.3473095238144
 30
0.0
 11
-240.7687268275729
 21
-250.4042312826706
 31
0.0
  0
LINE
  5
374
102
{ACAD_REACTORS
330
45C
330
45D
102
}
330
71
100
AcDbEntity
  8
0
  6
Continuous
 62
     2
100
AcDbLine
 10
-246.3141770870384
 20
-253.9939444444318
 30
0.0
 11
-247.790010348048
 21
-253.9939444444318
 31
0.0
  0
LINE
  5
375
102
{ACAD_REACTORS
330
45C
330
45D
102
}
330
71
100
AcDbEntity
  8
0
  6
Continuous
 62
     2
100
AcDbLine
 10
-248.8081496401773
 20
-248.7177446154052
 30
0.0
 11
-248.8081496401773
 21
-254.2822553846054
 31
0.0
  0
LINE
  5
376
102
{ACAD_REACTORS
330
45C
330
45D
102
}
330
71
100
AcDbEntity
  8
0
  6
Continuous
 62
     2
100
AcDbLine
 10
-248.3839050247945
 20
-248.2935000000214
 30
0.0
 11
-242.9105929340777
 21
-248.2935000000214
 31
0.0
  0
LINE
  5
377
102
{ACAD_REACTORS
330
45C
330
45D
102
}
330
71
100
AcDbEntity
  8
0
  6
Continuous
 62
     2
100
AcDbLine
 10
-242.4863483186938
 20
-248.7177446154052
 30
0.0
 11
-242.4863483186938
 21
-254.2822553846054
 31
0.0
  0
LINE
  5
378
102
{ACAD_REACTORS
330
45C
330
45D
102
}
330
71
100
AcDbEntity
  8
0
  6
Continuous
 62
     2
100
AcDbLine
 10
-242.9105929340777
 20
-254.7064999999887
 30
0.0
 11
-248.3839050247945
 21
-254.7064999999887
 31
0.0
  0
LINE
  5
379
102
{ACAD_REACTORS
330
45C
330
45D
102
}
330
71
100
AcDbEntity
  8
0
  6
Continuous
 62
     2
100
AcDbLine
 10
-245.9984601639618
 20
-253.6782275213551
 30
0.0
 11
-245.9984601639618
 21
-252.1474565898235
 31
0.0
  0
LINE
  5
37A
102
{ACAD_REACTORS
330
45C
330
45D
102
}
330
71
100
AcDbEntity
  8
0
  6
Continuous
 62
     2
100
AcDbLine
 10
-245.9984601639618
 20
-249.9257970976985
 30
0.0
 11
-245.9984601639618
 21
-249.321772478638
 31
0.0
  0
LINE
  5
37B
102
{ACAD_REACTORS
330
45C
330
45D
102
}
330
71
100
AcDbEntity
  8
0
  6
Continuous
 62
     2
100
AcDbLine
 10
-247.790010348048
 20
-249.0060555555618
 30
0.0
 11
-246.3141770870384
 21
-249.0060555555618
 31
0.0
  0
LINE
  5
37C
102
{ACAD_REACTORS
330
45C
330
45D
102
}
330
71
100
AcDbEntity
  8
0
  6
Continuous
 62
     2
100
AcDbLine
 10
-248.1057272711237
 20
-249.321772478638
 30
0.0
 11
-248.1057272711237
 21
-253.6782275213551
 31
0.0
  0
LINE
  5
37D
102
{ACAD_REACTORS
330
462
330
463
102
}
330
71
100
AcDbEntity
  8
0
  6
Continuous
 62
     2
100
AcDbLine
 10
-240.7687268275729
 20
-250.4042312826706
 30
0.0
 11
-240.0099592397926
 21
-250.4042312826706
 31
0.0
  0
LINE
  5
37E
102
{ACAD_REACTORS
330
462
330
463
102
}
330
71
100
AcDbEntity
  8
0
  6
Continuous
 62
     2
100
AcDbLine
 10
-242.009231237827
 20
-248.2935000000032
 30
0.0
 11
-240.0099592397926
 21
-248.2935000000032
 31
0.0
  0
LINE
  5
37F
102
{ACAD_REACTORS
330
462
330
463
102
}
330
71
100
AcDbEntity
  8
0
  6
Continuous
 62
     2
100
AcDbLine
 10
-242.009231237827
 20
-248.2935000000032
 30
0.0
 11
-242.009231237827
 21
-251.3473095238144
 31
0.0
  0
LINE
  5
380
102
{ACAD_REACTORS
330
462
330
463
102
}
330
71
100
AcDbEntity
  8
0
  6
Continuous
 62
     2
100
AcDbLine
 10
-240.7687268275729
 20
-249.6623334947855
 30
0.0
 11
-240.451431766031
 21
-249.6623334947855
 31
0.0
  0
LINE
  5
381
102
{ACAD_REACTORS
330
462
330
463
102
}
330
71
100
AcDbEntity
  8
0
  6
Continuous
 62
     2
100
AcDbLine
 10
-240.7687268275729
 20
-248.9566058454433
 30
0.0
 11
-240.451431766031
 21
-248.9566058454433
 31
0.0
  0
LINE
  5
382
102
{ACAD_REACTORS
330
470
330
471
102
}
330
71
100
AcDbEntity
  8
0
  6
Continuous
 62
     2
100
AcDbLine
 10
-237.6197540938527
 20
-249.3623333333378
 30
0.0
 11
-236.5700965159452
 21
-249.3623333333378
 31
0.0
  0
LINE
  5
383
102
{ACAD_REACTORS
330
470
330
471
102
}
330
71
100
AcDbEntity
  8
0
  6
Continuous
 62
     2
100
AcDbLine
 10
-237.6197540938527
 20
-248.2935000000032
 30
0.0
 11
-237.6197540938527
 21
-249.3623333333378
 31
0.0
  0
LINE
  5
384
102
{ACAD_REACTORS
330
470
330
471
102
}
330
71
100
AcDbEntity
  8
0
  6
Continuous
 62
     2
100
AcDbLine
 10
-238.8125467960193
 20
-248.2935000000032
 30
0.0
 11
-237.6197540938527
 21
-248.2935000000032
 31
0.0
  0
LINE
  5
385
102
{ACAD_REACTORS
330
470
330
471
102
}
330
71
100
AcDbEntity
  8
0
  6
Continuous
 62
     2
100
AcDbLine
 10
-237.6197540938527
 20
-251.3473095238144
 30
0.0
 11
-238.8125467960193
 21
-251.3473095238144
 31
0.0
  0
LINE
  5
386
102
{ACAD_REACTORS
330
470
330
471
102
}
330
71
100
AcDbEntity
  8
0
  6
Continuous
 62
     2
100
AcDbLine
 10
-236.5700965159452
 20
-251.3473095238144
 30
0.0
 11
-236.5700965159452
 21
-250.2130374149706
 31
0.0
  0
LINE
  5
387
102
{ACAD_REACTORS
330
470
330
471
102
}
330
71
100
AcDbEntity
  8
0
  6
Continuous
 62
     2
100
AcDbLine
 10
-235.3773038137788
 20
-251.3473095238144
 30
0.0
 11
-236.5700965159452
 21
-251.3473095238144
 31
0.0
  0
LINE
  5
388
102
{ACAD_REACTORS
330
470
330
471
102
}
330
71
100
AcDbEntity
  8
0
  6
Continuous
 62
     2
100
AcDbLine
 10
-235.3773038137788
 20
-248.2935000000032
 30
0.0
 11
-235.3773038137788
 21
-251.3473095238144
 31
0.0
  0
LINE
  5
389
102
{ACAD_REACTORS
330
45E
330
45F
102
}
330
71
100
AcDbEntity
  8
0
  6
Continuous
 62
     2
100
AcDbLine
 10
-231.8943491234519
 20
-250.1694115646302
 30
0.0
 11
-230.5584212970242
 21
-250.1694115646302
 31
0.0
  0
LINE
  5
38A
102
{ACAD_REACTORS
330
45E
330
45F
102
}
330
71
100
AcDbEntity
  8
0
  6
Continuous
 62
     2
100
AcDbLine
 10
-230.5584212970242
 20
-250.1694115646302
 30
0.0
 11
-230.5584212970242
 21
-249.4713979591879
 31
0.0
  0
LINE
  5
38B
102
{ACAD_REACTORS
330
45E
330
45F
102
}
330
71
100
AcDbEntity
  8
0
  6
Continuous
 62
     2
100
AcDbLine
 10
-230.5584212970242
 20
-249.4713979591879
 30
0.0
 11
-231.8943491234519
 21
-249.4713979591879
 31
0.0
  0
LINE
  5
38C
102
{ACAD_REACTORS
330
45E
330
45F
102
}
330
71
100
AcDbEntity
  8
0
  6
Continuous
 62
     2
100
AcDbLine
 10
-231.8943491234519
 20
-249.4713979591879
 30
0.0
 11
-231.8943491234519
 21
-248.9915136054462
 31
0.0
  0
LINE
  5
38D
102
{ACAD_REACTORS
330
46E
330
46F
102
}
330
71
100
AcDbEntity
  8
0
  6
Continuous
 62
     2
100
AcDbLine
 10
-235.568301577011
 20
-254.7064999999887
 30
0.0
 11
-234.3755088748434
 21
-254.7064999999887
 31
0.0
  0
LINE
  5
38E
102
{ACAD_REACTORS
330
46E
330
46F
102
}
330
71
100
AcDbEntity
  8
0
  6
Continuous
 62
     2
100
AcDbLine
 10
-233.1350044645905
 20
-254.7064999999887
 30
0.0
 11
-231.9422117624241
 21
-254.7064999999887
 31
0.0
  0
LINE
  5
38F
102
{ACAD_REACTORS
330
46E
330
46F
102
}
330
71
100
AcDbEntity
  8
0
  6
Continuous
 62
     2
100
AcDbLine
 10
-234.3755088748434
 20
-251.6526904761776
 30
0.0
 11
-235.568301577011
 21
-251.6526904761776
 31
0.0
  0
LINE
  5
390
102
{ACAD_REACTORS
330
46E
330
46F
102
}
330
71
100
AcDbEntity
  8
0
  6
Continuous
 62
     2
100
AcDbLine
 10
-235.568301577011
 20
-251.6526904761776
 30
0.0
 11
-235.568301577011
 21
-254.7064999999887
 31
0.0
  0
LINE
  5
391
102
{ACAD_REACTORS
330
46C
330
46D
102
}
330
71
100
AcDbEntity
  8
0
  6
Continuous
 62
     2
100
AcDbLine
 10
-227.8865656441708
 20
-248.2935000000032
 30
0.0
 11
-227.8865656441708
 21
-249.6022755102084
 31
0.0
  0
LINE
  5
392
102
{ACAD_REACTORS
330
46C
330
46D
102
}
330
71
100
AcDbEntity
  8
0
  6
Continuous
 62
     2
100
AcDbLine
 10
-229.1270700544248
 20
-248.2935000000032
 30
0.0
 11
-230.3198627565913
 21
-248.2935000000032
 31
0.0
  0
LINE
  5
393
102
{ACAD_REACTORS
330
46C
330
46D
102
}
330
71
100
AcDbEntity
  8
0
  6
Continuous
 62
     2
100
AcDbLine
 10
-230.3198627565913
 20
-248.2935000000032
 30
0.0
 11
-230.3198627565913
 21
-251.3473095238144
 31
0.0
  0
LINE
  5
394
102
{ACAD_REACTORS
330
46C
330
46D
102
}
330
71
100
AcDbEntity
  8
0
  6
Continuous
 62
     2
100
AcDbLine
 10
-229.1270700544248
 20
-251.3473095238144
 30
0.0
 11
-229.1270700544248
 21
-250.0385340136097
 31
0.0
  0
LINE
  5
395
102
{ACAD_REACTORS
330
46A
330
46B
102
}
330
71
100
AcDbEntity
  8
0
  6
Continuous
 62
     2
100
AcDbLine
 10
-229.7951848985228
 20
-254.7064999999887
 30
0.0
 11
-229.7951848985228
 21
-252.4379557823012
 31
0.0
  0
LINE
  5
396
102
{ACAD_REACTORS
330
46A
330
46B
102
}
330
71
100
AcDbEntity
  8
0
  6
Continuous
 62
     2
100
AcDbLine
 10
-229.7951848985228
 20
-252.4379557823012
 30
0.0
 11
-228.9840858610503
 21
-252.4379557823012
 31
0.0
  0
LINE
  5
397
102
{ACAD_REACTORS
330
46A
330
46B
102
}
330
71
100
AcDbEntity
  8
0
  6
Continuous
 62
     2
100
AcDbLine
 10
-228.9840858610503
 20
-252.4379557823012
 30
0.0
 11
-228.9840858610503
 21
-251.6526904761776
 31
0.0
  0
LINE
  5
398
102
{ACAD_REACTORS
330
46A
330
46B
102
}
330
71
100
AcDbEntity
  8
0
  6
Continuous
 62
     2
100
AcDbLine
 10
-228.9840858610503
 20
-251.6526904761776
 30
0.0
 11
-231.7990766381639
 21
-251.6526904761776
 31
0.0
  0
LINE
  5
399
102
{ACAD_REACTORS
330
46A
330
46B
102
}
330
71
100
AcDbEntity
  8
0
  6
Continuous
 62
     2
100
AcDbLine
 10
-231.7990766381639
 20
-252.4379557823012
 30
0.0
 11
-230.9879776006893
 21
-252.4379557823012
 31
0.0
  0
LINE
  5
39A
102
{ACAD_REACTORS
330
468
330
469
102
}
330
71
100
AcDbEntity
  8
0
  6
Continuous
 62
     2
100
AcDbLine
 10
-228.1895800352529
 20
-254.1655394557708
 30
0.0
 11
-227.0571384585791
 21
-254.1655394557708
 31
0.0
  0
LINE
  5
39B
102
{ACAD_REACTORS
330
468
330
469
102
}
330
71
100
AcDbEntity
  8
0
  6
Continuous
 62
     2
100
AcDbLine
 10
-225.6051539948494
 20
-254.7064999999887
 30
0.0
 11
-226.8456584051033
 21
-254.7064999999887
 31
0.0
  0
LINE
  5
39C
102
{ACAD_REACTORS
330
468
330
469
102
}
330
71
100
AcDbEntity
  8
0
  6
Continuous
 62
     2
100
AcDbLine
 10
-228.2436114520424
 20
-251.6526904761776
 30
0.0
 11
-229.6415644989817
 21
-254.7064999999887
 31
0.0
  0
LINE
  5
39D
102
{ACAD_REACTORS
330
468
330
469
102
}
330
71
100
AcDbEntity
  8
0
  6
Continuous
 62
     2
100
AcDbLine
 10
-228.4010600887287
 20
-254.7064999999887
 30
0.0
 11
-228.1895800352529
 21
-254.1655394557708
 31
0.0
  0
LINE
  5
39E
102
{ACAD_REACTORS
330
468
330
469
102
}
330
71
100
AcDbEntity
  8
0
  6
Continuous
 62
     2
100
AcDbLine
 10
-227.9235244841079
 20
-253.4849761904642
 30
0.0
 11
-227.6233592469155
 21
-252.7171612244775
 31
0.0
  0
LINE
  5
39F
102
{ACAD_REACTORS
330
466
330
467
102
}
330
71
100
AcDbEntity
  8
0
  6
Continuous
 62
     2
100
AcDbLine
 10
-226.4552144015703
 20
-251.3473095238144
 30
0.0
 11
-226.4552144015703
 21
-248.2935000000032
 31
0.0
  0
LINE
  5
3A0
102
{ACAD_REACTORS
330
466
330
467
102
}
330
71
100
AcDbEntity
  8
0
  6
Continuous
 62
     2
100
AcDbLine
 10
-225.2147099913174
 20
-248.2935000000032
 30
0.0
 11
-225.2147099913174
 21
-251.3473095238144
 31
0.0
  0
LINE
  5
3A1
102
{ACAD_REACTORS
330
466
330
467
102
}
330
71
100
AcDbEntity
  8
0
  6
Continuous
 62
     2
100
AcDbLine
 10
-226.4552144015703
 20
-248.2935000000032
 30
0.0
 11
-225.2147099913174
 21
-248.2935000000032
 31
0.0
  0
LINE
  5
3A2
102
{ACAD_REACTORS
330
464
330
465
102
}
330
71
100
AcDbEntity
  8
0
  6
Continuous
 62
     2
100
AcDbLine
 10
-222.9961155652866
 20
-250.5595777385207
 30
0.0
 11
-222.2995246272211
 21
-251.3473095238144
 31
0.0
  0
LINE
  5
3A3
102
{ACAD_REACTORS
330
464
330
465
102
}
330
71
100
AcDbEntity
  8
0
  6
Continuous
 62
     2
100
AcDbLine
 10
-222.2995246272211
 20
-251.3473095238144
 30
0.0
 11
-220.8968004094728
 21
-251.3473095238144
 31
0.0
  0
LINE
  5
3A4
102
{ACAD_REACTORS
330
464
330
465
102
}
330
71
100
AcDbEntity
  8
0
  6
Continuous
 62
     2
100
AcDbLine
 10
-222.2947534564131
 20
-249.7664505300394
 30
0.0
 11
-220.8968004094728
 21
-251.3473095238144
 31
0.0
  0
LINE
  5
3A5
102
{ACAD_REACTORS
330
464
330
465
102
}
330
71
100
AcDbEntity
  8
0
  6
Continuous
 62
     2
100
AcDbLine
 10
-222.2947534564131
 20
-249.7664505300394
 30
0.0
 11
-220.9922238256466
 21
-248.2935000000032
 31
0.0
  0
LINE
  5
3A6
102
{ACAD_REACTORS
330
464
330
465
102
}
330
71
100
AcDbEntity
  8
0
  6
Continuous
 62
     2
100
AcDbLine
 10
-222.9961155652866
 20
-248.9733233215587
 30
0.0
 11
-222.3949480433938
 21
-248.2935000000032
 31
0.0
  0
LINE
  5
3A7
102
{ACAD_REACTORS
330
464
330
465
102
}
330
71
100
AcDbEntity
  8
0
  6
Continuous
 62
     2
100
AcDbLine
 10
-223.5972830871784
 20
-248.2935000000032
 30
0.0
 11
-222.9961155652866
 21
-248.9733233215587
 31
0.0
  0
LINE
  5
3A8
102
{ACAD_REACTORS
330
464
330
465
102
}
330
71
100
AcDbEntity
  8
0
  6
Continuous
 62
     2
100
AcDbLine
 10
-223.5972830871784
 20
-248.2935000000032
 30
0.0
 11
-225.0000073049277
 21
-248.2935000000032
 31
0.0
  0
LINE
  5
3A9
102
{ACAD_REACTORS
330
45A
330
45B
102
}
330
71
100
AcDbEntity
  8
0
  6
Continuous
 62
     2
100
AcDbLine
 10
-222.9006921491139
 20
-254.7064999999887
 30
0.0
 11
-221.7078994469462
 21
-254.7064999999887
 31
0.0
  0
LINE
  5
3AA
102
{ACAD_REACTORS
330
45A
330
45B
102
}
330
71
100
AcDbEntity
  8
0
  6
Continuous
 62
     2
100
AcDbLine
 10
-221.7078994469462
 20
-254.7064999999887
 30
0.0
 11
-221.7078994469462
 21
-252.4379557823012
 31
0.0
  0
LINE
  5
3AB
102
{ACAD_REACTORS
330
45A
330
45B
102
}
330
71
100
AcDbEntity
  8
0
  6
Continuous
 62
     2
100
AcDbLine
 10
-221.7078994469462
 20
-252.4379557823012
 30
0.0
 11
-220.8968004094728
 21
-252.4379557823012
 31
0.0
  0
LINE
  5
3AC
102
{ACAD_REACTORS
330
45A
330
45B
102
}
330
71
100
AcDbEntity
  8
0
  6
Continuous
 62
     2
100
AcDbLine
 10
-220.8968004094728
 20
-252.4379557823012
 30
0.0
 11
-220.8968004094728
 21
-251.6526904761776
 31
0.0
  0
LINE
  5
3AD
102
{ACAD_REACTORS
330
45A
330
45B
102
}
330
71
100
AcDbEntity
  8
0
  6
Continuous
 62
     2
100
AcDbLine
 10
-224.2817459281015
 20
-251.6526904761781
 30
0.0
 11
-220.8968004094728
 21
-251.6526904761776
 31
0.0
  0
LINE
  5
3AE
102
{ACAD_REACTORS
330
45A
330
45B
102
}
330
71
100
AcDbEntity
  8
0
  6
Continuous
 62
     2
100
AcDbLine
 10
-222.9006921491139
 20
-252.4379557823012
 30
0.0
 11
-222.9006921491139
 21
-254.7064999999887
 31
0.0
  0
LINE
  5
3AF
102
{ACAD_REACTORS
330
45C
330
45D
102
}
330
71
100
AcDbEntity
  8
0
  6
Continuous
 62
     2
100
AcDbLine
 10
-245.5301785845931
 20
-252.7276198504242
 30
0.0
 11
-245.5301785845931
 21
-252.1457684437291
 31
0.0
  0
LINE
  5
3B0
102
{ACAD_REACTORS
330
45C
330
45D
102
}
330
71
100
AcDbEntity
  8
0
  6
Continuous
 62
     2
100
AcDbLine
 10
-245.5301785845931
 20
-249.9274852437929
 30
0.0
 11
-245.5301785845931
 21
-249.3219499552861
 31
0.0
  0
LINE
  5
3B1
330
71
100
AcDbEntity
  8
1
  6
Continuous
 62
     6
100
AcDbLine
 10
-266.9999999999899
 20
-262.000000000005
 30
0.0
 11
-253.0448045267399
 21
-262.0000000000051
 31
0.0
  0
LINE
  5
3B2
330
71
100
AcDbEntity
  8
1
  6
Continuous
 62
     6
100
AcDbLine
 10
-316.9999999999901
 20
-262.000000000005
 30
0.0
 11
-322.0448045267399
 21
-262.000000000005
 31
0.0
  0
LINE
  5
3B3
330
71
100
AcDbEntity
  8
1
  6
Continuous
 62
     6
100
AcDbLine
 10
-166.9999999999899
 20
-262.000000000005
 30
0.0
 11
-123.4999999999899
 21
-262.000000000005
 31
0.0
  0
LINE
  5
3B4
330
71
100
AcDbEntity
  8
1
  6
Continuous
 62
     6
100
AcDbLine
 10
-216.9999999999899
 20
-262.000000000005
 30
0.0
 11
-234.8448045267399
 21
-262.000000000005
 31
0.0
  0
LINE
  5
3B5
330
71
100
AcDbEntity
  8
1
  6
Continuous
 62
     2
100
AcDbLine
 10
-123.4999999999899
 20
-262.000000000005
 30
0.0
 11
-118.4999999999909
 21
-262.000000000005
 31
0.0
  0
LINE
  5
3B6
330
71
100
AcDbEntity
  8
1
  6
Continuous
 62
     2
100
AcDbLine
 10
-123.4999999999899
 20
-262.000000000005
 30
0.0
 11
-123.4999999999899
 21
-267.0000000000051
 31
0.0
  0
LINE
  5
3B7
330
71
100
AcDbEntity
  8
1
  6
Continuous
 62
     6
100
AcDbLine
 10
-253.0448045267399
 20
-245.000000000005
 30
0.0
 11
-216.64480452674
 21
-245.000000000005
 31
0.0
  0
LINE
  5
3B8
330
71
100
AcDbEntity
  8
1
  6
Continuous
 62
     2
100
AcDbLine
 10
-118.4999999999909
 20
-267.0000000000051
 30
0.0
 11
-118.4999999999909
 21
-262.000000000005
 31
0.0
  0
LINE
  5
3B9
330
71
100
AcDbEntity
  8
1
  6
Continuous
 62
     2
100
AcDbLine
 10
-118.4999999999909
 20
-267.0000000000051
 30
0.0
 11
-123.4999999999899
 21
-267.0000000000051
 31
0.0
  0
LINE
  5
3BA
330
71
100
AcDbEntity
  8
1
  6
Continuous
 62
     2
100
AcDbLine
 10
-123.4999999999899
 20
-267.0000000000051
 30
0.0
 11
-166.9999999999899
 21
-267.0000000000051
 31
0.0
  0
LINE
  5
3BB
330
71
100
AcDbEntity
  8
1
  6
Continuous
 62
     6
100
AcDbLine
 10
-123.4999999999882
 20
-245.000000000005
 30
0.0
 11
-123.499999999989
 21
-212.0000000000049
 31
0.0
  0
LINE
  5
3BC
330
71
100
AcDbEntity
  8
1
  6
Continuous
 62
     2
100
AcDbLine
 10
-118.4999999999909
 20
-57.000000000005
 30
0.0
 11
-266.9999999999899
 21
-57.000000000005
 31
0.0
  0
LINE
  5
3BD
330
71
100
AcDbEntity
  8
1
  6
Continuous
 62
     6
100
AcDbLine
 10
-123.4999999999909
 20
-77.000000000005
 30
0.0
 11
-410.499999999989
 21
-77.000000000005
 31
0.0
  0
LINE
  5
3BE
330
71
100
AcDbEntity
  8
1
  6
Continuous
 62
     2
100
AcDbLine
 10
-123.499999999989
 20
-212.0000000000049
 30
0.0
 11
-118.4999999999909
 21
-212.0000000000049
 31
0.0
  0
LINE
  5
3BF
330
71
100
AcDbEntity
  8
1
  6
Continuous
 62
     6
100
AcDbLine
 10
-123.499999999989
 20
-212.0000000000049
 30
0.0
 11
-123.4999999999895
 21
-162.0000000000051
 31
0.0
  0
LINE
  5
3C0
330
71
100
AcDbEntity
  8
1
  6
Continuous
 62
     2
100
AcDbLine
 10
-118.4999999999909
 20
-212.0000000000049
 30
0.0
 11
-118.4999999999909
 21
-162.0000000000051
 31
0.0
  0
LINE
  5
3C1
330
71
100
AcDbEntity
  8
1
  6
Continuous
 62
     2
100
AcDbLine
 10
-123.4999999999895
 20
-162.0000000000051
 30
0.0
 11
-118.4999999999909
 21
-162.0000000000051
 31
0.0
  0
LINE
  5
3C2
330
71
100
AcDbEntity
  8
1
  6
Continuous
 62
     6
100
AcDbLine
 10
-123.4999999999895
 20
-162.0000000000051
 30
0.0
 11
-123.4999999999907
 21
-112.000000000005
 31
0.0
  0
LINE
  5
3C3
330
71
100
AcDbEntity
  8
1
  6
Continuous
 62
     2
100
AcDbLine
 10
-118.4999999999909
 20
-162.0000000000051
 30
0.0
 11
-118.4999999999909
 21
-112.000000000005
 31
0.0
  0
LINE
  5
3C4
330
71
100
AcDbEntity
  8
1
  6
Continuous
 62
     2
100
AcDbLine
 10
-123.4999999999907
 20
-112.000000000005
 30
0.0
 11
-118.4999999999909
 21
-112.000000000005
 31
0.0
  0
LINE
  5
3C5
330
71
100
AcDbEntity
  8
1
  6
Continuous
 62
     6
100
AcDbLine
 10
-123.4999999999907
 20
-112.000000000005
 30
0.0
 11
-123.4999999999909
 21
-77.000000000005
 31
0.0
  0
LINE
  5
3C6
330
71
100
AcDbEntity
  8
1
  6
Continuous
 62
     2
100
AcDbLine
 10
-118.4999999999909
 20
-112.000000000005
 30
0.0
 11
-118.4999999999909
 21
-57.000000000005
 31
0.0
  0
LINE
  5
3C7
330
71
100
AcDbEntity
  8
1
  6
Continuous
 62
     2
100
AcDbLine
 10
-118.4999999999909
 20
-262.000000000005
 30
0.0
 11
-118.4999999999909
 21
-212.0000000000049
 31
0.0
  0
LINE
  5
3C8
330
71
100
AcDbEntity
  8
1
  6
Continuous
 62
     2
100
AcDbLine
 10
-266.9999999999899
 20
-57.000000000005
 30
0.0
 11
-415.499999999989
 21
-57.000000000005
 31
0.0
  0
LINE
  5
3C9
330
71
100
AcDbEntity
  8
1
  6
Continuous
 62
     2
100
AcDbLine
 10
-266.9999999999899
 20
-57.000000000005
 30
0.0
 11
-266.9999999999899
 21
-66.20869184470632
 31
0.0
  0
LINE
  5
3CA
330
71
100
AcDbEntity
  8
1
  6
Continuous
 62
     2
100
AcDbLine
 10
-415.499999999989
 20
-267.0000000000051
 30
0.0
 11
-410.499999999988
 21
-267.0000000000051
 31
0.0
  0
LINE
  5
3CB
330
71
100
AcDbEntity
  8
1
  6
Continuous
 62
     2
100
AcDbLine
 10
-415.499999999989
 20
-57.000000000005
 30
0.0
 11
-415.499999999989
 21
-112.000000000005
 31
0.0
  0
LINE
  5
3CC
330
71
100
AcDbEntity
  8
1
  6
Continuous
 62
     6
100
AcDbLine
 10
-410.499999999989
 20
-77.000000000005
 30
0.0
 11
-410.4999999999889
 21
-112.000000000005
 31
0.0
  0
LINE
  5
3CD
330
71
100
AcDbEntity
  8
1
  6
Continuous
 62
     2
100
AcDbLine
 10
-415.499999999989
 20
-112.000000000005
 30
0.0
 11
-410.4999999999889
 21
-112.000000000005
 31
0.0
  0
LINE
  5
3CE
330
71
100
AcDbEntity
  8
1
  6
Continuous
 62
     2
100
AcDbLine
 10
-415.499999999989
 20
-112.000000000005
 30
0.0
 11
-415.499999999989
 21
-162.0000000000051
 31
0.0
  0
LINE
  5
3CF
330
71
100
AcDbEntity
  8
1
  6
Continuous
 62
     6
100
AcDbLine
 10
-410.4999999999889
 20
-112.000000000005
 30
0.0
 11
-410.4999999999884
 21
-162.0000000000051
 31
0.0
  0
LINE
  5
3D0
330
71
100
AcDbEntity
  8
1
  6
Continuous
 62
     2
100
AcDbLine
 10
-415.499999999989
 20
-162.0000000000051
 30
0.0
 11
-410.4999999999884
 21
-162.0000000000051
 31
0.0
  0
LINE
  5
3D1
330
71
100
AcDbEntity
  8
1
  6
Continuous
 62
     2
100
AcDbLine
 10
-415.499999999989
 20
-162.0000000000051
 30
0.0
 11
-415.499999999989
 21
-212.0000000000049
 31
0.0
  0
LINE
  5
3D2
330
71
100
AcDbEntity
  8
1
  6
Continuous
 62
     6
100
AcDbLine
 10
-410.4999999999884
 20
-162.0000000000051
 30
0.0
 11
-410.4999999999882
 21
-212.0000000000049
 31
0.0
  0
LINE
  5
3D3
330
71
100
AcDbEntity
  8
1
  6
Continuous
 62
     2
100
AcDbLine
 10
-415.499999999989
 20
-212.0000000000049
 30
0.0
 11
-410.4999999999882
 21
-212.0000000000049
 31
0.0
  0
LINE
  5
3D4
330
71
100
AcDbEntity
  8
1
  6
Continuous
 62
     2
100
AcDbLine
 10
-415.499999999989
 20
-212.0000000000049
 30
0.0
 11
-415.499999999989
 21
-262.000000000005
 31
0.0
  0
LINE
  5
3D5
330
71
100
AcDbEntity
  8
1
  6
Continuous
 62
     6
100
AcDbLine
 10
-410.4999999999882
 20
-212.0000000000049
 30
0.0
 11
-410.499999999988
 21
-262.000000000005
 31
0.0
  0
LINE
  5
3D6
330
71
100
AcDbEntity
  8
1
  6
Continuous
 62
     2
100
AcDbLine
 10
-366.9999999999899
 20
-267.0000000000051
 30
0.0
 11
-366.9999999999899
 21
-262.000000000005
 31
0.0
  0
LINE
  5
3D7
330
71
100
AcDbEntity
  8
1
  6
Continuous
 62
     2
100
AcDbLine
 10
-366.9999999999899
 20
-267.0000000000051
 30
0.0
 11
-316.9999999999901
 21
-267.0000000000051
 31
0.0
  0
LINE
  5
3D8
330
71
100
AcDbEntity
  8
1
  6
Continuous
 62
     2
100
AcDbLine
 10
-316.9999999999901
 20
-267.0000000000051
 30
0.0
 11
-316.9999999999901
 21
-262.000000000005
 31
0.0
  0
LINE
  5
3D9
330
71
100
AcDbEntity
  8
1
  6
Continuous
 62
     2
100
AcDbLine
 10
-316.9999999999901
 20
-267.0000000000051
 30
0.0
 11
-266.9999999999899
 21
-267.0000000000051
 31
0.0
  0
LINE
  5
3DA
330
71
100
AcDbEntity
  8
1
  6
Continuous
 62
     2
100
AcDbLine
 10
-266.9999999999899
 20
-267.0000000000051
 30
0.0
 11
-266.9999999999899
 21
-262.000000000005
 31
0.0
  0
LINE
  5
3DB
330
71
100
AcDbEntity
  8
1
  6
Continuous
 62
     2
100
AcDbLine
 10
-266.9999999999899
 20
-267.0000000000051
 30
0.0
 11
-216.9999999999899
 21
-267.0000000000051
 31
0.0
  0
LINE
  5
3DC
330
71
100
AcDbEntity
  8
1
  6
Continuous
 62
     2
100
AcDbLine
 10
-216.9999999999899
 20
-267.0000000000051
 30
0.0
 11
-216.9999999999899
 21
-262.000000000005
 31
0.0
  0
LINE
  5
3DD
330
71
100
AcDbEntity
  8
1
  6
Continuous
 62
     2
100
AcDbLine
 10
-166.9999999999899
 20
-267.0000000000051
 30
0.0
 11
-166.9999999999899
 21
-262.000000000005
 31
0.0
  0
LINE
  5
3DE
330
71
100
AcDbEntity
  8
1
  6
Continuous
 62
     2
100
AcDbLine
 10
-166.9999999999899
 20
-267.0000000000051
 30
0.0
 11
-216.9999999999899
 21
-267.0000000000051
 31
0.0
  0
LINE
  5
3DF
330
71
100
AcDbEntity
  8
1
  6
Continuous
 62
     2
100
AcDbLine
 10
-410.499999999988
 20
-262.000000000005
 30
0.0
 11
-410.499999999988
 21
-267.0000000000051
 31
0.0
  0
LINE
  5
3E0
330
71
100
AcDbEntity
  8
1
  6
Continuous
 62
     2
100
AcDbLine
 10
-410.499999999988
 20
-267.0000000000051
 30
0.0
 11
-366.9999999999899
 21
-267.0000000000051
 31
0.0
  0
LINE
  5
3E1
330
71
100
AcDbEntity
  8
1
  6
Continuous
 62
     2
100
AcDbLine
 10
-410.499999999988
 20
-262.000000000005
 30
0.0
 11
-415.499999999989
 21
-262.000000000005
 31
0.0
  0
LINE
  5
3E2
330
71
100
AcDbEntity
  8
1
  6
Continuous
 62
     2
100
AcDbLine
 10
-415.499999999989
 20
-262.000000000005
 30
0.0
 11
-415.499999999989
 21
-267.0000000000051
 31
0.0
  0
LINE
  5
3E3
330
71
100
AcDbEntity
  8
1
  6
Continuous
 62
     6
100
AcDbLine
 10
-123.4999999999899
 20
-262.000000000005
 30
0.0
 11
-123.4999999999886
 21
-253.500000000005
 31
0.0
  0
LINE
  5
3E4
330
71
100
AcDbEntity
  8
1
  6
Continuous
 62
     6
100
AcDbLine
 10
-216.64480452674
 20
-262.0000000000051
 30
0.0
 11
-166.9999999999899
 21
-262.000000000005
 31
0.0
  0
LINE
  5
3E5
330
71
100
AcDbEntity
  8
1
  6
Continuous
 62
     6
100
AcDbLine
 10
-369.2999999999901
 20
-262.0000000000051
 30
0.0
 11
-366.9999999999899
 21
-262.000000000005
 31
0.0
  0
LINE
  5
3E6
330
71
100
AcDbEntity
  8
1
  6
Continuous
 62
     6
100
AcDbLine
 10
-266.9999999999899
 20
-262.000000000005
 30
0.0
 11
-316.9999999999901
 21
-262.000000000005
 31
0.0
  0
LINE
  5
3E7
330
71
100
AcDbEntity
  8
1
  6
Continuous
 62
     7
100
AcDbLine
 10
-253.0448045267399
 20
-245.000000000005
 30
0.0
 11
-253.0448045267399
 21
-257.7500000000051
 31
0.0
  0
LINE
  5
3E8
330
71
100
AcDbEntity
  8
1
  6
Continuous
 62
     7
100
AcDbLine
 10
-216.64480452674
 20
-245.000000000005
 30
0.0
 11
-216.64480452674
 21
-257.750000000005
 31
0.0
  0
LINE
  5
3E9
330
71
100
AcDbEntity
  8
1
  6
Continuous
 62
     6
100
AcDbLine
 10
-369.2999999999901
 20
-262.0000000000051
 30
0.0
 11
-375.4999999999881
 21
-262.000000000005
 31
0.0
  0
LINE
  5
3EA
330
71
100
AcDbEntity
  8
1
  6
Continuous
 62
     6
100
AcDbLine
 10
-216.64480452674
 20
-262.0000000000051
 30
0.0
 11
-216.9999999999899
 21
-262.000000000005
 31
0.0
  0
LINE
  5
3EB
330
71
100
AcDbEntity
  8
1
  6
Continuous
 62
     6
100
AcDbLine
 10
-123.4999999999882
 20
-245.000000000005
 30
0.0
 11
-123.4999999999886
 21
-253.500000000005
 31
0.0
  0
LINE
  5
3EC
330
71
100
AcDbEntity
  8
1
  6
Continuous
 62
     6
100
AcDbLine
 10
-375.4999999999881
 20
-262.000000000005
 30
0.0
 11
-410.499999999988
 21
-262.000000000005
 31
0.0
  0
LINE
  5
3ED
330
71
100
AcDbEntity
  8
1
  6
Continuous
 62
     2
100
AcDbLine
 10
-248.8081496401773
 20
-239.6250000000051
 30
0.0
 11
-243.8081496401773
 21
-238.3750000000051
 31
0.0
  0
LINE
  5
3EE
330
71
100
AcDbEntity
  8
1
  6
Continuous
 62
     2
100
AcDbLine
 10
-248.8081496401773
 20
-242.1250000000051
 30
0.0
 11
-248.8081496401773
 21
-239.6250000000051
 31
0.0
  0
LINE
  5
3EF
330
71
100
AcDbEntity
  8
1
  6
Continuous
 62
     2
100
AcDbLine
 10
-243.8081496401773
 20
-243.3750000000051
 30
0.0
 11
-248.8081496401773
 21
-242.1250000000051
 31
0.0
  0
LINE
  5
3F0
330
71
100
AcDbEntity
  8
1
  6
Continuous
 62
     2
100
AcDbLine
 10
-243.8081496401773
 20
-238.3750000000051
 30
0.0
 11
-243.8081496401773
 21
-243.3750000000051
 31
0.0
  0
LINE
  5
3F1
330
71
100
AcDbEntity
  8
1
  6
Continuous
 62
     7
100
AcDbLine
 10
-253.0448045267399
 20
-257.7500000000051
 30
0.0
 11
-234.8448045267399
 21
-257.750000000005
 31
0.0
  0
LINE
  5
3F2
330
71
100
AcDbEntity
  8
1
  6
Continuous
 62
     7
100
AcDbLine
 10
-253.0448045267399
 20
-257.7500000000051
 30
0.0
 11
-253.0448045267399
 21
-262.0000000000051
 31
0.0
  0
LINE
  5
3F3
330
71
100
AcDbEntity
  8
1
  6
Continuous
 62
     7
100
AcDbLine
 10
-216.64480452674
 20
-257.750000000005
 30
0.0
 11
-216.64480452674
 21
-262.0000000000051
 31
0.0
  0
LINE
  5
3F4
330
71
100
AcDbEntity
  8
1
  6
Continuous
 62
     7
100
AcDbLine
 10
-234.8448045267399
 20
-257.750000000005
 30
0.0
 11
-234.8448045267399
 21
-262.000000000005
 31
0.0
  0
LINE
  5
3F5
330
71
100
AcDbEntity
  8
1
  6
Continuous
 62
     6
100
AcDbLine
 10
-234.8448045267399
 20
-262.000000000005
 30
0.0
 11
-253.0448045267399
 21
-262.0000000000051
 31
0.0
  0
LINE
  5
3F6
330
71
100
AcDbEntity
  8
1
  6
Continuous
 62
     7
100
AcDbLine
 10
-234.8448045267399
 20
-257.750000000005
 30
0.0
 11
-216.64480452674
 21
-257.750000000005
 31
0.0
  0
LINE
  5
3F7
330
71
100
AcDbEntity
  8
1
  6
Continuous
 62
     6
100
AcDbLine
 10
-253.0448045267399
 20
-236.500000000005
 30
0.0
 11
-123.4999999999882
 21
-236.500000000005
 31
0.0
  0
ARC
  5
3F8
102
{ACAD_REACTORS
330
460
330
461
102
}
330
71
100
AcDbEntity
  8
0
  6
Continuous
 62
     2
100
AcDbCircle
 10
-237.6531565277799
 20
-253.1795952380834
 30
0.0
 40
0.7717997786796947
100
AcDbArc
 50
321.8795802028417
 51
38.12041979715329
  0
ARC
  5
3F9
102
{ACAD_REACTORS
330
460
330
461
102
}
330
71
100
AcDbEntity
  8
0
  6
Continuous
 62
     2
100
AcDbCircle
 10
-237.4534164914335
 20
-253.3363264162034
 30
0.0
 40
0.5179085730137354
100
AcDbArc
 50
218.1204197971931
 51
321.879580202801
  0
ARC
  5
3FA
102
{ACAD_REACTORS
330
460
330
461
102
}
330
71
100
AcDbEntity
  8
0
  6
Continuous
 62
     2
100
AcDbCircle
 10
-237.2536764550874
 20
-253.1795952380834
 30
0.0
 40
0.7717997786794633
100
AcDbArc
 50
141.8795802028363
 51
218.1204197971687
  0
ARC
  5
3FB
102
{ACAD_REACTORS
330
460
330
461
102
}
330
71
100
AcDbEntity
  8
0
  6
Continuous
 62
     2
100
AcDbCircle
 10
-237.4534164914335
 20
-253.0228640599629
 30
0.0
 40
0.5179085730132998
100
AcDbArc
 50
38.12041979714704
 51
141.8795802028588
  0
ARC
  5
3FC
102
{ACAD_REACTORS
330
458
330
459
102
}
330
71
100
AcDbEntity
  8
0
  6
Continuous
 62
     2
100
AcDbCircle
 10
-240.5154306269974
 20
-254.5900616034916
 30
0.0
 40
2.227384008973478
100
AcDbArc
 50
58.06909105004071
 51
71.55192388186722
  0
ARC
  5
3FD
102
{ACAD_REACTORS
330
458
330
459
102
}
330
71
100
AcDbEntity
  8
0
  6
Continuous
 62
     2
100
AcDbCircle
 10
-240.2537029260386
 20
-252.9745238087444
 30
0.0
 40
0.5115800601948779
100
AcDbArc
 50
113.3722778881992
 51
151.4785267423044
  0
ARC
  5
3FE
102
{ACAD_REACTORS
330
458
330
459
102
}
330
71
100
AcDbEntity
  8
0
  6
Continuous
 62
     2
100
AcDbCircle
 10
-239.8763456679583
 20
-253.1795952380834
 30
0.0
 40
0.9410597353332545
100
AcDbArc
 50
151.4785267422669
 51
208.5214732577057
  0
ARC
  5
3FF
102
{ACAD_REACTORS
330
458
330
459
102
}
330
71
100
AcDbEntity
  8
0
  6
Continuous
 62
     2
100
AcDbCircle
 10
-240.6733035020903
 20
-249.866914292827
 30
0.0
 40
4.852596863498138
100
AcDbArc
 50
275.1581447696249
 51
285.9799912583529
  0
ARC
  5
400
102
{ACAD_REACTORS
330
458
330
459
102
}
330
71
100
AcDbEntity
  8
0
  6
Continuous
 62
     2
100
AcDbCircle
 10
-240.3844474073544
 20
-253.0668048760486
 30
0.0
 40
1.639695123939387
100
AcDbArc
 50
195.0618917770896
 51
275.1581447696395
  0
ARC
  5
401
102
{ACAD_REACTORS
330
458
330
459
102
}
330
71
100
AcDbEntity
  8
0
  6
Continuous
 62
     2
100
AcDbCircle
 10
-240.8035752508172
 20
-253.1795952380834
 30
0.0
 40
1.205656168390944
100
AcDbArc
 50
164.9381082228765
 51
195.0618917770948
  0
ARC
  5
402
102
{ACAD_REACTORS
330
458
330
459
102
}
330
71
100
AcDbEntity
  8
0
  6
Continuous
 62
     2
100
AcDbCircle
 10
-240.3844474073544
 20
-253.2923856001183
 30
0.0
 40
1.639695123940507
100
AcDbArc
 50
84.84185523036236
 51
164.9381082228864
  0
ARC
  5
403
102
{ACAD_REACTORS
330
45C
330
45D
102
}
330
71
100
AcDbEntity
  8
0
  6
Continuous
 62
     2
100
AcDbCircle
 10
-245.2144616615163
 20
-252.1457684437291
 30
0.0
 40
0.3157169230765328
100
AcDbArc
 50
115.3740086783519
 51
180.0
  0
ARC
  5
404
102
{ACAD_REACTORS
330
45C
330
45D
102
}
330
71
100
AcDbEntity
  8
0
  6
Continuous
 62
     2
100
AcDbCircle
 10
-245.2144616615163
 20
-249.9274852437929
 30
0.0
 40
0.315716923076792
100
AcDbArc
 50
180.0
 51
244.6259913216482
  0
ARC
  5
405
102
{ACAD_REACTORS
330
45C
330
45D
102
}
330
71
100
AcDbEntity
  8
0
  6
Continuous
 62
     2
100
AcDbCircle
 10
-245.2088455262063
 20
-251.0247849028552
 30
0.0
 40
2.018561131933266
100
AcDbArc
 50
269.8110329575858
 51
90.18896704241416
  0
ARC
  5
406
102
{ACAD_REACTORS
330
45C
330
45D
102
}
330
71
100
AcDbEntity
  8
0
  6
Continuous
 62
     2
100
AcDbCircle
 10
-245.2144616615163
 20
-252.7276198504242
 30
0.0
 40
0.315716923076792
100
AcDbArc
 50
180.0
 51
269.8110329574542
  0
ARC
  5
407
102
{ACAD_REACTORS
330
45A
330
45B
102
}
330
71
100
AcDbEntity
  8
0
  6
Continuous
 62
     2
100
AcDbCircle
 10
-224.1510014467857
 20
-252.9745238087444
 30
0.0
 40
0.5115800601944143
100
AcDbArc
 50
109.3371432194853
 51
151.4785267424225
  0
ARC
  5
408
102
{ACAD_REACTORS
330
45A
330
45B
102
}
330
71
100
AcDbEntity
  8
0
  6
Continuous
 62
     2
100
AcDbCircle
 10
-224.1510014467857
 20
-253.3846666674219
 30
0.0
 40
0.5115800601960215
100
AcDbArc
 50
208.5214732576866
 51
246.6277221118449
  0
ARC
  5
409
102
{ACAD_REACTORS
330
45A
330
45B
102
}
330
71
100
AcDbEntity
  8
0
  6
Continuous
 62
     2
100
AcDbCircle
 10
-224.7008737715631
 20
-253.1795952380834
 30
0.0
 40
1.205656168393002
100
AcDbArc
 50
164.9381082229028
 51
195.0618917770959
  0
ARC
  5
40A
102
{ACAD_REACTORS
330
45A
330
45B
102
}
330
71
100
AcDbEntity
  8
0
  6
Continuous
 62
     2
100
AcDbCircle
 10
-224.2817459281015
 20
-253.2923856001183
 30
0.0
 40
1.639695123940214
100
AcDbArc
 50
90.0
 51
164.938108222895
  0
ARC
  5
40B
102
{ACAD_REACTORS
330
45E
330
45F
102
}
330
71
100
AcDbEntity
  8
0
  6
Continuous
 62
     2
100
AcDbCircle
 10
-233.7087410208052
 20
-249.8204047619091
 30
0.0
 40
1.526904761905882
100
AcDbArc
 50
90.0
 51
270.0
  0
ARC
  5
40C
102
{ACAD_REACTORS
330
462
330
463
102
}
330
71
100
AcDbEntity
  8
0
  6
Continuous
 62
     2
100
AcDbCircle
 10
-240.451431766031
 20
-249.3094696701144
 30
0.0
 40
0.3528638246711182
100
AcDbArc
 50
270.0
 51
90.0
  0
ARC
  5
40D
102
{ACAD_REACTORS
330
45C
330
45D
102
}
330
71
100
AcDbEntity
  8
0
  6
Continuous
 62
     2
100
AcDbCircle
 10
-247.790010348048
 20
-249.321772478638
 30
0.0
 40
0.3157169230761951
100
AcDbArc
 50
90.0
 51
180.0
  0
ARC
  5
40E
102
{ACAD_REACTORS
330
45C
330
45D
102
}
330
71
100
AcDbEntity
  8
0
  6
Continuous
 62
     2
100
AcDbCircle
 10
-245.7915926394634
 20
-251.0366268437607
 30
0.0
 40
0.9118975235576147
100
AcDbArc
 50
115.1944106485282
 51
244.8055893514878
  0
ARC
  5
40F
102
{ACAD_REACTORS
330
45C
330
45D
102
}
330
71
100
AcDbEntity
  8
0
  6
Continuous
 62
     2
100
AcDbCircle
 10
-246.3141770870384
 20
-252.1474565898235
 30
0.0
 40
0.315716923076593
100
AcDbArc
 50
0.0
 51
64.80558935146027
  0
ARC
  5
410
102
{ACAD_REACTORS
330
45C
330
45D
102
}
330
71
100
AcDbEntity
  8
0
  6
Continuous
 62
     2
100
AcDbCircle
 10
-248.3839050247945
 20
-254.2822553846054
 30
0.0
 40
0.4242446153828041
100
AcDbArc
 50
180.0
 51
270.0
  0
ARC
  5
411
102
{ACAD_REACTORS
330
45E
330
45F
102
}
330
71
100
AcDbEntity
  8
0
  6
Continuous
 62
     2
100
AcDbCircle
 10
-233.49246901064
 20
-249.6636735837886
 30
0.0
 40
0.5179085730135266
100
AcDbArc
 50
38.12041979714334
 51
141.8795802028489
  0
ARC
  5
412
102
{ACAD_REACTORS
330
45E
330
45F
102
}
330
71
100
AcDbEntity
  8
0
  6
Continuous
 62
     2
100
AcDbCircle
 10
-233.2927289742937
 20
-249.8204047619091
 30
0.0
 40
0.7717997786796724
100
AcDbArc
 50
141.8795802028404
 51
218.1204197971562
  0
ARC
  5
413
102
{ACAD_REACTORS
330
460
330
461
102
}
330
71
100
AcDbEntity
  8
0
  6
Continuous
 62
     2
100
AcDbCircle
 10
-237.4534164914335
 20
-252.6410202277801
 30
0.0
 40
2.065479772208509
100
AcDbArc
 50
242.4518518243402
 51
297.5481481756871
  0
ARC
  5
414
102
{ACAD_REACTORS
330
460
330
461
102
}
330
71
100
AcDbEntity
  8
0
  6
Continuous
 62
     2
100
AcDbCircle
 10
-237.4534164914335
 20
-253.7181702483862
 30
0.0
 40
2.065479772208568
100
AcDbArc
 50
62.45185182430637
 51
117.5481481756664
  0
ARC
  5
415
102
{ACAD_REACTORS
330
460
330
461
102
}
330
71
100
AcDbEntity
  8
0
  6
Continuous
 62
     2
100
AcDbCircle
 10
-237.7343563832668
 20
-253.1795952380834
 30
0.0
 40
1.45803408365149
100
AcDbArc
 50
117.5481481756624
 51
242.4518518243375
  0
ARC
  5
416
102
{ACAD_REACTORS
330
460
330
461
102
}
330
71
100
AcDbEntity
  8
0
  6
Continuous
 62
     2
100
AcDbCircle
 10
-237.1724765996002
 20
-253.1795952380834
 30
0.0
 40
1.458034083652003
100
AcDbArc
 50
297.548148175701
 51
62.45185182429896
  0
ARC
  5
417
102
{ACAD_REACTORS
330
45E
330
45F
102
}
330
71
100
AcDbEntity
  8
0
  6
Continuous
 62
     2
100
AcDbCircle
 10
-233.49246901064
 20
-249.9771359400295
 30
0.0
 40
0.5179085730134372
100
AcDbArc
 50
218.1204197971511
 51
321.8795802028566
  0
ARC
  5
418
102
{ACAD_REACTORS
330
45E
330
45F
102
}
330
71
100
AcDbEntity
  8
0
  6
Continuous
 62
     2
100
AcDbCircle
 10
-233.6922090469862
 20
-249.8204047619091
 30
0.0
 40
0.7717997786796373
100
AcDbArc
 50
321.8795802028437
 51
38.12041979715956
  0
ARC
  5
419
102
{ACAD_REACTORS
330
45C
330
45D
102
}
330
71
100
AcDbEntity
  8
0
  6
Continuous
 62
     2
100
AcDbCircle
 10
-242.9105929340777
 20
-254.2822553846054
 30
0.0
 40
0.4242446153832873
100
AcDbArc
 50
270.0
 51
0.0
  0
ARC
  5
41A
102
{ACAD_REACTORS
330
45C
330
45D
102
}
330
71
100
AcDbEntity
  8
0
  6
Continuous
 62
     2
100
AcDbCircle
 10
-242.9105929340777
 20
-248.7177446154052
 30
0.0
 40
0.4242446153838841
100
AcDbArc
 50
0.0
 51
90.0
  0
ARC
  5
41B
102
{ACAD_REACTORS
330
45C
330
45D
102
}
330
71
100
AcDbEntity
  8
0
  6
Continuous
 62
     2
100
AcDbCircle
 10
-248.3839050247945
 20
-248.7177446154052
 30
0.0
 40
0.4242446153837989
100
AcDbArc
 50
90.0
 51
180.0
  0
ARC
  5
41C
102
{ACAD_REACTORS
330
45C
330
45D
102
}
330
71
100
AcDbEntity
  8
0
  6
Continuous
 62
     2
100
AcDbCircle
 10
-246.3141770870384
 20
-253.6782275213551
 30
0.0
 40
0.3157169230767067
100
AcDbArc
 50
270.0
 51
0.0
  0
ARC
  5
41D
102
{ACAD_REACTORS
330
45C
330
45D
102
}
330
71
100
AcDbEntity
  8
0
  6
Continuous
 62
     2
100
AcDbCircle
 10
-246.3141770870384
 20
-249.9257970976985
 30
0.0
 40
0.3157169230761203
100
AcDbArc
 50
295.1944106485397
 51
0.0
  0
ARC
  5
41E
102
{ACAD_REACTORS
330
45C
330
45D
102
}
330
71
100
AcDbEntity
  8
0
  6
Continuous
 62
     2
100
AcDbCircle
 10
-246.3141770870384
 20
-249.321772478638
 30
0.0
 40
0.315716923076593
100
AcDbArc
 50
0.0
 51
90.0
  0
ARC
  5
41F
102
{ACAD_REACTORS
330
45C
330
45D
102
}
330
71
100
AcDbEntity
  8
0
  6
Continuous
 62
     2
100
AcDbCircle
 10
-247.790010348048
 20
-253.6782275213551
 30
0.0
 40
0.3157169230756836
100
AcDbArc
 50
180.0
 51
270.0
  0
ARC
  5
420
102
{ACAD_REACTORS
330
462
330
463
102
}
330
71
100
AcDbEntity
  8
0
  6
Continuous
 62
     2
100
AcDbCircle
 10
-240.0099592397926
 20
-249.3488656413369
 30
0.0
 40
1.055365641333708
100
AcDbArc
 50
270.0
 51
90.0
  0
ARC
  5
421
102
{ACAD_REACTORS
330
45A
330
45B
102
}
330
71
100
AcDbEntity
  8
0
  6
Continuous
 62
     2
100
AcDbCircle
 10
-224.2817459281015
 20
-253.0668048760486
 30
0.0
 40
1.639695123940448
100
AcDbArc
 50
195.0618917771012
 51
275.1581447696762
  0
ARC
  5
422
102
{ACAD_REACTORS
330
45A
330
45B
102
}
330
71
100
AcDbEntity
  8
0
  6
Continuous
 62
     2
100
AcDbCircle
 10
-224.5706020228373
 20
-249.866914292827
 30
0.0
 40
4.852596863498825
100
AcDbArc
 50
275.1581447696364
 51
285.9799912583387
  0
ARC
  5
423
102
{ACAD_REACTORS
330
45A
330
45B
102
}
330
71
100
AcDbEntity
  8
0
  6
Continuous
 62
     2
100
AcDbCircle
 10
-224.4127291477445
 20
-251.7691288726753
 30
0.0
 40
2.227384008972746
100
AcDbArc
 50
288.4480761181335
 51
301.9309089499397
  0
ARC
  5
424
102
{ACAD_REACTORS
330
45A
330
45B
102
}
330
71
100
AcDbEntity
  8
0
  6
Continuous
 62
     2
100
AcDbCircle
 10
-223.9945614140826
 20
-253.0226746487119
 30
0.0
 40
0.9059297849852801
100
AcDbArc
 50
246.6277221118183
 51
288.4480761180817
  0
ARC
  5
425
102
{ACAD_REACTORS
330
45A
330
45B
102
}
330
71
100
AcDbEntity
  8
0
  6
Continuous
 62
     2
100
AcDbCircle
 10
-223.7736441887043
 20
-253.1795952380834
 30
0.0
 40
0.9410597353348924
100
AcDbArc
 50
151.4785267423624
 51
208.5214732576695
  0
ARC
  5
426
102
{ACAD_REACTORS
330
45A
330
45B
102
}
330
71
100
AcDbEntity
  8
0
  6
Continuous
 62
     2
100
AcDbCircle
 10
-224.004331448682
 20
-253.3924787891273
 30
0.0
 40
0.9545230068260935
100
AcDbArc
 50
90.0
 51
109.337143219432
  0
ARC
  5
427
102
{ACAD_REACTORS
330
45C
330
45D
102
}
330
71
100
AcDbEntity
  8
0
  6
Continuous
 62
     2
100
AcDbCircle
 10
-245.2144616615163
 20
-249.3219499552861
 30
0.0
 40
0.3157169230760711
100
AcDbArc
 50
90.18896704254594
 51
180.0
  0
ARC
  5
428
102
{ACAD_REACTORS
330
45C
330
45D
102
}
330
71
100
AcDbEntity
  8
0
  6
Continuous
 62
     2
100
AcDbCircle
 10
-245.7405043596042
 20
-251.0366268437607
 30
0.0
 40
0.911848150144459
100
AcDbArc
 50
295.3740086781764
 51
64.62599132180748
  0
ARC
  5
429
102
{ACAD_REACTORS
330
458
330
459
102
}
330
71
100
AcDbEntity
  8
0
  6
Continuous
 62
     2
100
AcDbCircle
 10
-240.5154306269974
 20
-251.7691288726747
 30
0.0
 40
2.227384008972737
100
AcDbArc
 50
288.4480761181328
 51
301.9309089499593
  0
ARC
  5
42A
102
{ACAD_REACTORS
330
458
330
459
102
}
330
71
100
AcDbEntity
  8
0
  6
Continuous
 62
     2
100
AcDbCircle
 10
-240.0972628933366
 20
-253.0226746487119
 30
0.0
 40
0.9059297849849192
100
AcDbArc
 50
246.627722111871
 51
288.4480761181584
  0
ARC
  5
42B
102
{ACAD_REACTORS
330
458
330
459
102
}
330
71
100
AcDbEntity
  8
0
  6
Continuous
 62
     2
100
AcDbCircle
 10
-240.2537029260386
 20
-253.3846666674219
 30
0.0
 40
0.5115800601948034
100
AcDbArc
 50
208.5214732576956
 51
246.6277221118274
  0
ARC
  5
42C
102
{ACAD_REACTORS
330
458
330
459
102
}
330
71
100
AcDbEntity
  8
0
  6
Continuous
 62
     2
100
AcDbCircle
 10
-240.0972628933366
 20
-253.336515827455
 30
0.0
 40
0.9059297849853228
100
AcDbArc
 50
71.55192388185348
 51
113.372277888129
  0
ARC
  5
42D
102
{ACAD_REACTORS
330
458
330
459
102
}
330
71
100
AcDbEntity
  8
0
  6
Continuous
 62
     2
100
AcDbCircle
 10
-240.6733035020903
 20
-256.4922761833393
 30
0.0
 40
4.852596863498068
100
AcDbArc
 50
74.02000874164739
 51
84.84185523037506
  0
CIRCLE
  5
42E
102
{ACAD_REACTORS
330
45C
330
45D
102
}
330
71
100
AcDbEntity
  8
0
  6
Continuous
 62
     2
100
AcDbCircle
 10
-245.764319374277
 20
-251.0366268437607
 30
0.0
 40
0.4709789327785074
  0
CIRCLE
  5
42F
330
71
100
AcDbEntity
  8
1
  6
Continuous
 62
     2
100
AcDbCircle
 10
-240.3081496401773
 20
-240.8750000000051
 30
0.0
 40
1.249999999999915
  0
CIRCLE
  5
430
330
71
100
AcDbEntity
  8
1
  6
Continuous
 62
     2
100
AcDbCircle
 10
-240.3081496401773
 20
-240.8750000000051
 30
0.0
 40
2.5
  0
TEXT
  5
431
330
71
100
AcDbEntity
  8
1
 62
     7
100
AcDbText
 10
-197.6712568047261
 20
-243.7000000000051
 30
0.0
 40
2.5
  1
/
 41
0.9
  7
CONVERTER_11
100
AcDbText
  0
TEXT
  5
433
330
71
100
AcDbEntity
  8
1
 62
     7
100
AcDbText
 10
-195.5148923076841
 20
-243.7000000000051
 30
0.0
 40
2.5
  1
00
 41
0.81
  7
CONVERTER_12
100
AcDbText
  0
TEXT
  5
434
330
71
100
AcDbEntity
  8
1
 62
     3
100
AcDbText
 10
-157.918408281667
 20
-243.7000000000051
 30
0.0
 40
2.5
  1
14.12.2017
 41
0.81
  7
CONVERTER_12
100
AcDbText
  0
MTEXT
  5
435
330
71
100
AcDbEntity
  8
1
 62
     2
100
AcDbMText
 10
-157.918408281667
 20
-237.5000000000051
 30
0.0
 40
1.8
 41
0.0
 71
     1
 72
     1
  1
date
  7
CONVERTER_11
 73
     1
 44
1.32052821128451
  0
MTEXT
  5
436
330
71
100
AcDbEntity
  8
1
 62
     2
100
AcDbMText
 10
-187.7448045267399
 20
-246.0000000000051
 30
0.0
 40
1.8
 41
0.0
 71
     1
 72
     1
  1
document-type
  7
CONVERTER_11
 73
     1
 44
1.20048019207683
  0
TEXT
  5
437
330
71
100
AcDbEntity
  8
1
 62
     3
100
AcDbText
 10
-187.7448045267399
 20
-252.2000000000051
 30
0.0
 40
2.5
  1
TECDOC 2D_Productdrawing
 41
0.81
  7
CONVERTER_12
100
AcDbText
  0
MTEXT
  5
439
330
71
100
AcDbEntity
  8
1
 62
     2
100
AcDbMText
 10
-215.5448045267399
 20
-237.500000000005
 30
0.0
 40
1.8
 41
0.0
 71
     1
 72
     1
  1
document-No. / RI
  7
CONVERTER_13
 73
     1
 44
1.32052821128451
  0
TEXT
  5
43A
330
71
100
AcDbEntity
  8
1
 62
     7
100
AcDbText
 10
-215.5448045267399
 20
-243.7000000000051
 30
0.0
 40
2.5
  1
01094071
 41
0.81
  7
CONVERTER_12
100
AcDbText
  0
MTEXT
  5
43C
330
71
100
AcDbEntity
  8
1
 62
     3
100
AcDbMText
 10
-127.9592041408276
 20
-243.7000000000049
 30
0.0
 40
2.5
 41
0.0
 71
     8
 72
     1
  1
1:1
  7
CONVERTER_14
 73
     1
 44
1.32052821128451
  0
MTEXT
  5
43D
330
71
100
AcDbEntity
  8
1
 62
     2
100
AcDbMText
 10
-131.3184082816672
 20
-237.500000000005
 30
0.0
 40
1.8
 41
0.0
 71
     1
 72
     1
  1
scale
  7
CONVERTER_11
 73
     1
 44
1.20048019207683
  0
MTEXT
  5
43E
330
71
100
AcDbEntity
  8
1
 62
     2
100
AcDbMText
 10
-215.5448045267399
 20
-246.000000000005
 30
0.0
 40
1.8
 41
0.0
 71
     1
 72
     1
  1
ident.-No.
  7
CONVERTER_11
 73
     1
 44
1.20048019207683
  0
TEXT
  5
43F
330
71
100
AcDbEntity
  8
1
 62
     7
100
AcDbText
 10
-215.1448045267402
 20
-252.2000000000051
 30
0.0
 40
2.5
  1
0790621
 41
0.81
  7
CONVERTER_12
100
AcDbText
  0
MTEXT
  5
440
330
71
100
AcDbEntity
  8
1
 62
     2
100
AcDbMText
 10
-287.4828192517874
 20
-249.2500000000051
 30
0.0
 40
2.0
 41
0.0
 71
     5
 72
     1
  1
General Information\P- Simplified representation\P- Document excluded from change process\P- Linear dimensions [mm]
  7
CONVERTER_11
 73
     1
 44
1.20048019207683
  0
MTEXT
  5
441
330
71
100
AcDbEntity
  8
1
 62
     7
100
AcDbMText
 10
-120.9999999999909
 20
-187.0000000000031
 30
0.0
 40
3.5
 41
0.0
 71
     5
 72
     1
  1
C
  7
CONVERTER_11
 73
     1
 44
1.20048019207683
  0
MTEXT
  5
442
330
71
100
AcDbEntity
  8
1
 62
     7
100
AcDbMText
 10
-120.9999999999909
 20
-84.500000000005
 30
0.0
 40
3.5
 41
0.0
 71
     5
 72
     1
  1
A
  7
CONVERTER_11
 73
     1
 44
1.20048019207683
  0
MTEXT
  5
443
330
71
100
AcDbEntity
  8
1
 62
     7
100
AcDbMText
 10
-120.9999999999909
 20
-137.0000000000031
 30
0.0
 40
3.5
 41
0.0
 71
     5
 72
     1
  1
B
  7
CONVERTER_11
 73
     1
 44
1.20048019207683
  0
MTEXT
  5
444
330
71
100
AcDbEntity
  8
1
 62
     7
100
AcDbMText
 10
-120.9999999999909
 20
-239.500000000005
 30
0.0
 40
3.5
 41
0.0
 71
     5
 72
     1
  1
D
  7
CONVERTER_11
 73
     1
 44
1.20048019207683
  0
MTEXT
  5
445
330
71
100
AcDbEntity
  8
1
 62
     7
100
AcDbMText
 10
-391.2499999999895
 20
-264.5000000000051
 30
0.0
 40
3.5
 41
0.0
 71
     5
 72
     1
  1
1
  7
CONVERTER_11
 73
     1
 44
1.20048019207683
  0
MTEXT
  5
446
330
71
100
AcDbEntity
  8
1
 62
     7
100
AcDbMText
 10
-341.9999999999899
 20
-264.5000000000051
 30
0.0
 40
3.5
 41
0.0
 71
     5
 72
     1
  1
2
  7
CONVERTER_11
 73
     1
 44
1.20048019207683
  0
MTEXT
  5
447
330
71
100
AcDbEntity
  8
1
 62
     7
100
AcDbMText
 10
-291.9999999999899
 20
-264.5000000000051
 30
0.0
 40
3.5
 41
0.0
 71
     5
 72
     1
  1
3
  7
CONVERTER_11
 73
     1
 44
1.20048019207683
  0
MTEXT
  5
448
330
71
100
AcDbEntity
  8
1
 62
     7
100
AcDbMText
 10
-241.99999999999
 20
-264.5000000000051
 30
0.0
 40
3.5
 41
0.0
 71
     5
 72
     1
  1
4
  7
CONVERTER_11
 73
     1
 44
1.20048019207683
  0
MTEXT
  5
449
330
71
100
AcDbEntity
  8
1
 62
     7
100
AcDbMText
 10
-191.9999999999899
 20
-264.5000000000051
 30
0.0
 40
3.5
 41
0.0
 71
     5
 72
     1
  1
5
  7
CONVERTER_11
 73
     1
 44
1.20048019207683
  0
MTEXT
  5
44A
330
71
100
AcDbEntity
  8
1
 62
     7
100
AcDbMText
 10
-142.7499999999907
 20
-264.5000000000051
 30
0.0
 40
3.5
 41
0.0
 71
     5
 72
     1
  1
6
  7
CONVERTER_11
 73
     1
 44
1.20048019207683
  0
MTEXT
  5
44B
330
71
100
AcDbEntity
  8
1
 62
     7
100
AcDbMText
 10
-412.999999999989
 20
-84.500000000005
 30
0.0
 40
3.5
 41
0.0
 71
     5
 72
     1
  1
A
  7
CONVERTER_11
 73
     1
 44
1.20048019207683
  0
MTEXT
  5
44C
330
71
100
AcDbEntity
  8
1
 62
     7
100
AcDbMText
 10
-412.999999999989
 20
-137.000000000005
 30
0.0
 40
3.5
 41
0.0
 71
     5
 72
     1
  1
B
  7
CONVERTER_11
 73
     1
 44
1.20048019207683
  0
MTEXT
  5
44D
330
71
100
AcDbEntity
  8
1
 62
     7
100
AcDbMText
 10
-412.999999999989
 20
-187.000000000005
 30
0.0
 40
3.5
 41
0.0
 71
     5
 72
     1
  1
C
  7
CONVERTER_11
 73
     1
 44
1.20048019207683
  0
MTEXT
  5
44E
330
71
100
AcDbEntity
  8
1
 62
     7
100
AcDbMText
 10
-412.999999999989
 20
-239.500000000005
 30
0.0
 40
3.5
 41
0.0
 71
     5
 72
     1
  1
D
  7
CONVERTER_11
 73
     1
 44
1.20048019207683
  0
MTEXT
  5
44F
330
71
100
AcDbEntity
  8
1
 62
     3
100
AcDbMText
 10
-226.84480452674
 20
-240.875000000005
 30
0.0
 40
2.5
 41
0.0
 71
     5
 72
     1
  1
DIN A4
  7
CONVERTER_11
 73
     1
 44
1.20048019207683
  0
MTEXT
  5
450
330
71
100
AcDbEntity
  8
1
 62
     2
100
AcDbMText
 10
-215.64480452674
 20
-254.500000000005
 30
0.0
 40
1.8
 41
0.0
 71
     1
 72
     1
  1
description
  7
CONVERTER_11
 73
     1
 44
1.20048019207683
  0
MTEXT
  5
451
330
71
100
AcDbEntity
  8
1
 62
     7
100
AcDbMText
 10
-170.0724022633644
 20
-258.7500000000048
 30
0.0
 40
3.0
 41
0.0
 71
     5
 72
     1
  1
OTTA  6-P/P YE
  7
CONVERTER_12
 73
     1
 44
1.20048019207683
  0
TEXT
  5
452
330
71
100
AcDbEntity
  8
1
 62
     2
100
AcDbText
 10
-228.6094957169264
 20
-260.7500000000051
 30
0.0
 40
1.8
  1
1
 41
0.9
  7
CONVERTER_11
100
AcDbText
  0
TEXT
  5
453
330
71
100
AcDbEntity
  8
1
 62
     2
100
AcDbText
 10
-243.3985395563979
 20
-260.799248653807
 30
0.0
 40
1.8
  1
1
 41
0.9
  7
CONVERTER_11
100
AcDbText
  0
TEXT
  5
454
330
71
100
AcDbEntity
  8
1
 62
     2
100
AcDbText
 10
-252.0448045267399
 20
-260.7590172149967
 30
0.0
 40
1.8
  1
page
 41
0.9
  7
CONVERTER_11
100
AcDbText
  0
TEXT
  5
455
330
71
100
AcDbEntity
  8
1
 62
     2
100
AcDbText
 10
-233.8448045267401
 20
-260.7590172149966
 30
0.0
 40
1.8
  1
of
 41
0.9
  7
CONVERTER_11
100
AcDbText
  0
MTEXT
  5
456
330
71
100
AcDbEntity
  8
1
 62
     3
100
AcDbMText
 10
-227.64182237513
 20
-75.20869184470621
 30
0.0
 40
1.8
 41
0.0
 71
     7
 72
     1
  3
Transfer or duplication of this document as well as the utilisation or\Pcommunication of its content are not permitted unless express consent\Pis granted. Violations give rise to claims for damages. All rights reserved\Pin case of patent, utility mo
  1
del or design patent registrations.
  7
CONVERTER_11
 73
     1
 44
0.99639855942377
  0
MTEXT
  5
457
330
71
100
AcDbEntity
  8
1
 62
     3
100
AcDbMText
 10
-410.4949322139181
 20
-75.20869184470621
 30
0.0
 40
1.8
 41
0.0
 71
     7
 72
     1
  3
Weitergabe sowie Vervielf\U+00e4ltigung dieses Dokuments, Verwertung und \PMitteilung seines Inhalts sind verboten, soweit nicht ausdr\U+00fccklich gestattet. \PZuwiderhandlungen verpflichten zu Schadenersatz. Alle Rechte f\U+00fcr den Fall\Pder Pat
  1
ent-, Gebrauchsmuster- oder Designeintragung vorbehalten.
  7
CONVERTER_11
 73
     1
 44
0.99639855942377
  0
HATCH
  5
458
330
71
100
AcDbEntity
  8
1
  6
Continuous
 62
     2
100
AcDbHatch
 10
0.0
 20
0.0
 30
0.0
210
0.0
220
0.0
230
1.0
  2
_USER
 70
     0
 71
     1
 91
        1
 92
        1
 93
       14
 72
     2
 10
-240.8035752508172
 20
-253.1795952380834
 40
1.205656168390944
 50
164.9381082228765
 51
195.0618917770948
 73
     1
 72
     2
 10
-240.3844474073544
 20
-253.0668048760486
 40
1.639695123939387
 50
195.0618917770896
 51
275.1581447696395
 73
     1
 72
     2
 10
-240.6733035020903
 20
-249.866914292827
 40
4.852596863498138
 50
275.1581447696249
 51
285.9799912583529
 73
     1
 72
     1
 10
-239.3373755849725
 20
-254.5319965986278
 11
-239.3373755849725
 21
-253.6594795918246
 72
     2
 10
-240.5154306269974
 20
-251.7691288726747
 40
2.227384008972737
 50
58.0690910500407
 51
71.55192388186722
 73
     0
 72
     2
 10
-240.0972628933366
 20
-253.0226746487119
 40
0.9059297849849192
 50
71.55192388184153
 51
113.372277888129
 73
     0
 72
     2
 10
-240.2537029260386
 20
-253.3846666674219
 40
0.5115800601948034
 50
113.3722778881726
 51
151.4785267423044
 73
     0
 72
     2
 10
-239.8763456679583
 20
-253.1795952380834
 40
0.9410597353332545
 50
151.4785267422943
 51
208.5214732577331
 73
     0
 72
     2
 10
-240.2537029260386
 20
-252.9745238087444
 40
0.5115800601948779
 50
208.5214732576956
 51
246.6277221118009
 73
     0
 72
     2
 10
-240.0972628933366
 20
-253.336515827455
 40
0.9059297849853228
 50
246.627722111871
 51
288.4480761181465
 73
     0
 72
     2
 10
-240.5154306269974
 20
-254.5900616034916
 40
2.227384008973478
 50
288.4480761181328
 51
301.9309089499592
 73
     0
 72
     1
 10
-239.3373755849725
 20
-252.6997108843417
 11
-239.3373755849725
 21
-251.8271938775384
 72
     2
 10
-240.6733035020903
 20
-256.4922761833393
 40
4.852596863498068
 50
74.02000874164739
 51
84.84185523037506
 73
     1
 72
     2
 10
-240.3844474073544
 20
-253.2923856001183
 40
1.639695123940507
 50
84.84185523036236
 51
164.9381082228864
 73
     1
 97
       14
330
42D
330
346
330
3FC
330
42C
330
3FD
330
3FE
330
42B
330
42A
330
429
330
347
330
3FF
330
400
330
401
330
402
 75
     1
 76
     0
 52
45.0
 41
0.1
 77
     0
 78
     1
 53
45.0
 43
0.0
 44
0.0
 45
-0.0707106781186548
 46
0.0707106781186548
 79
     0
 98
        1
 10
0.0
 20
0.0
  0
HATCH
  5
459
330
71
100
AcDbEntity
  8
1
  6
Continuous
 62
     2
100
AcDbHatch
 10
0.0
 20
0.0
 30
0.0
210
0.0
220
0.0
230
1.0
  2
_USER
 70
     0
 71
     1
 91
        1
 92
        1
 93
       14
 72
     2
 10
-240.8035752508172
 20
-253.1795952380834
 40
1.205656168390944
 50
164.9381082228765
 51
195.0618917770948
 73
     1
 72
     2
 10
-240.3844474073544
 20
-253.0668048760486
 40
1.639695123939387
 50
195.0618917770896
 51
275.1581447696395
 73
     1
 72
     2
 10
-240.6733035020903
 20
-249.866914292827
 40
4.852596863498138
 50
275.1581447696249
 51
285.9799912583529
 73
     1
 72
     1
 10
-239.3373755849725
 20
-254.5319965986278
 11
-239.3373755849725
 21
-253.6594795918246
 72
     2
 10
-240.5154306269974
 20
-251.7691288726747
 40
2.227384008972737
 50
58.0690910500407
 51
71.55192388186722
 73
     0
 72
     2
 10
-240.0972628933366
 20
-253.0226746487119
 40
0.9059297849849192
 50
71.55192388184153
 51
113.372277888129
 73
     0
 72
     2
 10
-240.2537029260386
 20
-253.3846666674219
 40
0.5115800601948034
 50
113.3722778881726
 51
151.4785267423044
 73
     0
 72
     2
 10
-239.8763456679583
 20
-253.1795952380834
 40
0.9410597353332545
 50
151.4785267422943
 51
208.5214732577331
 73
     0
 72
     2
 10
-240.2537029260386
 20
-252.9745238087444
 40
0.5115800601948779
 50
208.5214732576956
 51
246.6277221118009
 73
     0
 72
     2
 10
-240.0972628933366
 20
-253.336515827455
 40
0.9059297849853228
 50
246.627722111871
 51
288.4480761181465
 73
     0
 72
     2
 10
-240.5154306269974
 20
-254.5900616034916
 40
2.227384008973478
 50
288.4480761181328
 51
301.9309089499592
 73
     0
 72
     1
 10
-239.3373755849725
 20
-252.6997108843417
 11
-239.3373755849725
 21
-251.8271938775384
 72
     2
 10
-240.6733035020903
 20
-256.4922761833393
 40
4.852596863498068
 50
74.02000874164739
 51
84.84185523037506
 73
     1
 72
     2
 10
-240.3844474073544
 20
-253.2923856001183
 40
1.639695123940507
 50
84.84185523036236
 51
164.9381082228864
 73
     1
 97
       14
330
42D
330
346
330
3FC
330
42C
330
3FD
330
3FE
330
42B
330
42A
330
429
330
347
330
3FF
330
400
330
401
330
402
 75
     1
 76
     0
 52
45.0
 41
0.1
 77
     0
 78
     1
 53
45.0
 43
0.0
 44
0.0
 45
-0.0707106781186548
 46
0.0707106781186548
 79
     0
 98
        1
 10
0.0
 20
0.0
  0
HATCH
  5
45A
330
71
100
AcDbEntity
  8
1
  6
Continuous
 62
     2
100
AcDbHatch
 10
0.0
 20
0.0
 30
0.0
210
0.0
220
0.0
230
1.0
  2
_USER
 70
     0
 71
     1
 91
        1
 92
        1
 93
       18
 72
     2
 10
-224.2817459281015
 20
-253.2923856001183
 40
1.639695123940214
 50
90.0
 51
164.938108222895
 73
     1
 72
     2
 10
-224.7008737715631
 20
-253.1795952380834
 40
1.205656168393002
 50
164.9381082229028
 51
195.0618917770959
 73
     1
 72
     2
 10
-224.2817459281015
 20
-253.0668048760486
 40
1.639695123940448
 50
195.0618917771012
 51
275.1581447696762
 73
     1
 72
     2
 10
-224.5706020228373
 20
-249.866914292827
 40
4.852596863498825
 50
275.1581447696364
 51
285.9799912583387
 73
     1
 72
     1
 10
-223.2346741057206
 20
-254.5319965986284
 11
-223.2346741057206
 21
-253.6594795918251
 72
     2
 10
-224.4127291477445
 20
-251.7691288726753
 40
2.227384008972746
 50
58.06909105006029
 51
71.55192388186651
 73
     0
 72
     2
 10
-223.9945614140826
 20
-253.0226746487119
 40
0.9059297849852801
 50
71.55192388191827
 51
113.3722778881817
 73
     0
 72
     2
 10
-224.1510014467857
 20
-253.3846666674219
 40
0.5115800601960215
 50
113.3722778881551
 51
151.4785267423134
 73
     0
 72
     2
 10
-223.7736441887043
 20
-253.1795952380834
 40
0.9410597353348924
 50
151.4785267423305
 51
208.5214732576376
 73
     0
 72
     2
 10
-224.1510014467857
 20
-252.9745238087444
 40
0.5115800601944143
 50
208.5214732575775
 51
250.6628567805147
 73
     0
 72
     2
 10
-224.004331448682
 20
-253.3924787891273
 40
0.9545230068260935
 50
250.662856780568
 51
270.0
 73
     0
 72
     1
 10
-224.004331448682
 20
-252.4379557823012
 11
-222.9006921491139
 21
-252.4379557823012
 72
     1
 10
-222.9006921491139
 20
-252.4379557823012
 11
-222.9006921491139
 21
-254.7064999999887
 72
     1
 10
-222.9006921491139
 20
-254.7064999999887
 11
-221.7078994469462
 21
-254.7064999999887
 72
     1
 10
-221.7078994469462
 20
-254.7064999999887
 11
-221.7078994469462
 21
-252.4379557823012
 72
     1
 10
-221.7078994469462
 20
-252.4379557823012
 11
-220.8968004094728
 21
-252.4379557823012
 72
     1
 10
-220.8968004094728
 20
-252.4379557823012
 11
-220.8968004094728
 21
-251.6526904761776
 72
     1
 10
-220.8968004094728
 20
-251.6526904761776
 11
-224.2817459281015
 21
-251.6526904761781
 97
       18
330
3AC
330
3AB
330
3AA
330
3A9
330
3AE
330
348
330
426
330
407
330
425
330
408
330
424
330
423
330
349
330
422
330
421
330
409
330
40A
330
3AD
 75
     1
 76
     0
 52
45.0
 41
0.1
 77
     0
 78
     1
 53
45.0
 43
0.0
 44
0.0
 45
-0.0707106781186548
 46
0.0707106781186548
 79
     0
 98
        1
 10
0.0
 20
0.0
  0
HATCH
  5
45B
330
71
100
AcDbEntity
  8
1
  6
Continuous
 62
     2
100
AcDbHatch
 10
0.0
 20
0.0
 30
0.0
210
0.0
220
0.0
230
1.0
  2
_USER
 70
     0
 71
     1
 91
        1
 92
        1
 93
       18
 72
     2
 10
-224.2817459281015
 20
-253.2923856001183
 40
1.639695123940214
 50
90.0
 51
164.938108222895
 73
     1
 72
     2
 10
-224.7008737715631
 20
-253.1795952380834
 40
1.205656168393002
 50
164.9381082229028
 51
195.0618917770959
 73
     1
 72
     2
 10
-224.2817459281015
 20
-253.0668048760486
 40
1.639695123940448
 50
195.0618917771012
 51
275.1581447696762
 73
     1
 72
     2
 10
-224.5706020228373
 20
-249.866914292827
 40
4.852596863498825
 50
275.1581447696364
 51
285.9799912583387
 73
     1
 72
     1
 10
-223.2346741057206
 20
-254.5319965986284
 11
-223.2346741057206
 21
-253.6594795918251
 72
     2
 10
-224.4127291477445
 20
-251.7691288726753
 40
2.227384008972746
 50
58.06909105006029
 51
71.55192388186651
 73
     0
 72
     2
 10
-223.9945614140826
 20
-253.0226746487119
 40
0.9059297849852801
 50
71.55192388191827
 51
113.3722778881817
 73
     0
 72
     2
 10
-224.1510014467857
 20
-253.3846666674219
 40
0.5115800601960215
 50
113.3722778881551
 51
151.4785267423134
 73
     0
 72
     2
 10
-223.7736441887043
 20
-253.1795952380834
 40
0.9410597353348924
 50
151.4785267423305
 51
208.5214732576376
 73
     0
 72
     2
 10
-224.1510014467857
 20
-252.9745238087444
 40
0.5115800601944143
 50
208.5214732575775
 51
250.6628567805147
 73
     0
 72
     2
 10
-224.004331448682
 20
-253.3924787891273
 40
0.9545230068260935
 50
250.662856780568
 51
270.0
 73
     0
 72
     1
 10
-224.004331448682
 20
-252.4379557823012
 11
-222.9006921491139
 21
-252.4379557823012
 72
     1
 10
-222.9006921491139
 20
-252.4379557823012
 11
-222.9006921491139
 21
-254.7064999999887
 72
     1
 10
-222.9006921491139
 20
-254.7064999999887
 11
-221.7078994469462
 21
-254.7064999999887
 72
     1
 10
-221.7078994469462
 20
-254.7064999999887
 11
-221.7078994469462
 21
-252.4379557823012
 72
     1
 10
-221.7078994469462
 20
-252.4379557823012
 11
-220.8968004094728
 21
-252.4379557823012
 72
     1
 10
-220.8968004094728
 20
-252.4379557823012
 11
-220.8968004094728
 21
-251.6526904761776
 72
     1
 10
-220.8968004094728
 20
-251.6526904761776
 11
-224.2817459281015
 21
-251.6526904761781
 97
       18
330
3AC
330
3AB
330
3AA
330
3A9
330
3AE
330
348
330
426
330
407
330
425
330
408
330
424
330
423
330
349
330
422
330
421
330
409
330
40A
330
3AD
 75
     1
 76
     0
 52
45.0
 41
0.1
 77
     0
 78
     1
 53
45.0
 43
0.0
 44
0.0
 45
-0.0707106781186548
 46
0.0707106781186548
 79
     0
 98
        1
 10
0.0
 20
0.0
  0
HATCH
  5
45C
330
71
100
AcDbEntity
  8
1
  6
Continuous
 62
     2
100
AcDbHatch
 10
0.0
 20
0.0
 30
0.0
210
0.0
220
0.0
230
1.0
  2
_USER
 70
     0
 71
     1
 91
        4
 92
        1
 93
        8
 72
     2
 10
-248.3839050247945
 20
-248.7177446154052
 40
0.4242446153837989
 50
90.0
 51
180.0
 73
     1
 72
     1
 10
-248.8081496401773
 20
-248.7177446154052
 11
-248.8081496401773
 21
-254.2822553846054
 72
     2
 10
-248.3839050247945
 20
-254.2822553846054
 40
0.4242446153828041
 50
180.0
 51
270.0
 73
     1
 72
     1
 10
-248.3839050247945
 20
-254.7064999999887
 11
-242.9105929340777
 21
-254.7064999999887
 72
     2
 10
-242.9105929340777
 20
-254.2822553846054
 40
0.4242446153832873
 50
270.0
 51
360.0
 73
     1
 72
     1
 10
-242.4863483186938
 20
-254.2822553846054
 11
-242.4863483186938
 21
-248.7177446154052
 72
     2
 10
-242.9105929340777
 20
-248.7177446154052
 40
0.4242446153838841
 50
0.0
 51
90.0
 73
     1
 72
     1
 10
-242.9105929340777
 20
-248.2935000000214
 11
-248.3839050247945
 21
-248.2935000000214
 97
        8
330
41A
330
377
330
419
330
378
330
410
330
375
330
41B
330
376
 92
       16
 93
        1
 72
     2
 10
-245.764319374277
 20
-251.0366268437607
 40
0.4709789327785074
 50
0.0
 51
360.0
 73
     1
 97
        1
330
42E
 92
       16
 93
        8
 72
     2
 10
-245.7405043596042
 20
-251.0366268437607
 40
0.911848150144459
 50
295.3740086781764
 51
424.6259913218075
 73
     1
 72
     2
 10
-245.2144616615163
 20
-249.9274852437929
 40
0.315716923076792
 50
115.3740086783518
 51
180.0
 73
     0
 72
     1
 10
-245.5301785845931
 20
-249.9274852437929
 11
-245.5301785845931
 21
-249.3219499552861
 72
     2
 10
-245.2144616615163
 20
-249.3219499552861
 40
0.3157169230760711
 50
180.0
 51
269.8110329574541
 73
     0
 72
     2
 10
-245.2088455262063
 20
-251.0247849028552
 40
2.018561131933266
 50
269.8110329575858
 51
450.1889670424142
 73
     0
 72
     2
 10
-245.2144616615163
 20
-252.7276198504242
 40
0.315716923076792
 50
90.18896704254585
 51
180.0
 73
     0
 72
     1
 10
-245.5301785845931
 20
-252.7276198504242
 11
-245.5301785845931
 21
-252.1457684437291
 72
     2
 10
-245.2144616615163
 20
-252.1457684437291
 40
0.3157169230765328
 50
180.0
 51
244.6259913216482
 73
     0
 97
        8
330
428
330
404
330
3B0
330
427
330
405
330
406
330
3AF
330
403
 92
       16
 93
       12
 72
     1
 10
-247.790010348048
 20
-253.9939444444318
 11
-246.3141770870384
 21
-253.9939444444318
 72
     2
 10
-246.3141770870384
 20
-253.6782275213551
 40
0.3157169230767067
 50
270.0
 51
360.0
 73
     1
 72
     1
 10
-245.9984601639618
 20
-253.6782275213551
 11
-245.9984601639618
 21
-252.1474565898235
 72
     2
 10
-246.3141770870384
 20
-252.1474565898235
 40
0.315716923076593
 50
0.0
 51
64.80558935146027
 73
     1
 72
     2
 10
-245.7915926394634
 20
-251.0366268437607
 40
0.9118975235576147
 50
115.1944106485122
 51
244.8055893514718
 73
     0
 72
     2
 10
-246.3141770870384
 20
-249.9257970976985
 40
0.3157169230761203
 50
295.1944106485397
 51
360.0
 73
     1
 72
     1
 10
-245.9984601639618
 20
-249.9257970976985
 11
-245.9984601639618
 21
-249.321772478638
 72
     2
 10
-246.3141770870384
 20
-249.321772478638
 40
0.315716923076593
 50
0.0
 51
90.0
 73
     1
 72
     1
 10
-246.3141770870384
 20
-249.0060555555618
 11
-247.790010348048
 21
-249.0060555555618
 72
     2
 10
-247.790010348048
 20
-249.321772478638
 40
0.3157169230761951
 50
90.0
 51
180.0
 73
     1
 72
     1
 10
-248.1057272711237
 20
-249.321772478638
 11
-248.1057272711237
 21
-253.6782275213551
 72
     2
 10
-247.790010348048
 20
-253.6782275213551
 40
0.3157169230756836
 50
180.0
 51
270.0
 73
     1
 97
       12
330
37C
330
40D
330
37B
330
41E
330
37A
330
41D
330
40E
330
40F
330
379
330
41C
330
374
330
41F
 75
     1
 76
     0
 52
45.0
 41
0.1
 77
     0
 78
     1
 53
45.0
 43
0.0
 44
0.0
 45
-0.0707106781186548
 46
0.0707106781186548
 79
     0
 98
        1
 10
0.0
 20
0.0
  0
HATCH
  5
45D
330
71
100
AcDbEntity
  8
1
  6
Continuous
 62
     2
100
AcDbHatch
 10
0.0
 20
0.0
 30
0.0
210
0.0
220
0.0
230
1.0
  2
_USER
 70
     0
 71
     1
 91
        4
 92
        1
 93
        8
 72
     2
 10
-248.3839050247945
 20
-248.7177446154052
 40
0.4242446153837989
 50
90.0
 51
180.0
 73
     1
 72
     1
 10
-248.8081496401773
 20
-248.7177446154052
 11
-248.8081496401773
 21
-254.2822553846054
 72
     2
 10
-248.3839050247945
 20
-254.2822553846054
 40
0.4242446153828041
 50
180.0
 51
270.0
 73
     1
 72
     1
 10
-248.3839050247945
 20
-254.7064999999887
 11
-242.9105929340777
 21
-254.7064999999887
 72
     2
 10
-242.9105929340777
 20
-254.2822553846054
 40
0.4242446153832873
 50
270.0
 51
360.0
 73
     1
 72
     1
 10
-242.4863483186938
 20
-254.2822553846054
 11
-242.4863483186938
 21
-248.7177446154052
 72
     2
 10
-242.9105929340777
 20
-248.7177446154052
 40
0.4242446153838841
 50
0.0
 51
90.0
 73
     1
 72
     1
 10
-242.9105929340777
 20
-248.2935000000214
 11
-248.3839050247945
 21
-248.2935000000214
 97
        8
330
41A
330
377
330
419
330
378
330
410
330
375
330
41B
330
376
 92
       16
 93
        1
 72
     2
 10
-245.764319374277
 20
-251.0366268437607
 40
0.4709789327785074
 50
0.0
 51
360.0
 73
     1
 97
        1
330
42E
 92
       16
 93
        8
 72
     2
 10
-245.7405043596042
 20
-251.0366268437607
 40
0.911848150144459
 50
295.3740086781764
 51
424.6259913218075
 73
     1
 72
     2
 10
-245.2144616615163
 20
-249.9274852437929
 40
0.315716923076792
 50
115.3740086783518
 51
180.0
 73
     0
 72
     1
 10
-245.5301785845931
 20
-249.9274852437929
 11
-245.5301785845931
 21
-249.3219499552861
 72
     2
 10
-245.2144616615163
 20
-249.3219499552861
 40
0.3157169230760711
 50
180.0
 51
269.8110329574541
 73
     0
 72
     2
 10
-245.2088455262063
 20
-251.0247849028552
 40
2.018561131933266
 50
269.8110329575858
 51
450.1889670424142
 73
     0
 72
     2
 10
-245.2144616615163
 20
-252.7276198504242
 40
0.315716923076792
 50
90.18896704254585
 51
180.0
 73
     0
 72
     1
 10
-245.5301785845931
 20
-252.7276198504242
 11
-245.5301785845931
 21
-252.1457684437291
 72
     2
 10
-245.2144616615163
 20
-252.1457684437291
 40
0.3157169230765328
 50
180.0
 51
244.6259913216482
 73
     0
 97
        8
330
428
330
404
330
3B0
330
427
330
405
330
406
330
3AF
330
403
 92
       16
 93
       12
 72
     1
 10
-247.790010348048
 20
-253.9939444444318
 11
-246.3141770870384
 21
-253.9939444444318
 72
     2
 10
-246.3141770870384
 20
-253.6782275213551
 40
0.3157169230767067
 50
270.0
 51
360.0
 73
     1
 72
     1
 10
-245.9984601639618
 20
-253.6782275213551
 11
-245.9984601639618
 21
-252.1474565898235
 72
     2
 10
-246.3141770870384
 20
-252.1474565898235
 40
0.315716923076593
 50
0.0
 51
64.80558935146027
 73
     1
 72
     2
 10
-245.7915926394634
 20
-251.0366268437607
 40
0.9118975235576147
 50
115.1944106485122
 51
244.8055893514718
 73
     0
 72
     2
 10
-246.3141770870384
 20
-249.9257970976985
 40
0.3157169230761203
 50
295.1944106485397
 51
360.0
 73
     1
 72
     1
 10
-245.9984601639618
 20
-249.9257970976985
 11
-245.9984601639618
 21
-249.321772478638
 72
     2
 10
-246.3141770870384
 20
-249.321772478638
 40
0.315716923076593
 50
0.0
 51
90.0
 73
     1
 72
     1
 10
-246.3141770870384
 20
-249.0060555555618
 11
-247.790010348048
 21
-249.0060555555618
 72
     2
 10
-247.790010348048
 20
-249.321772478638
 40
0.3157169230761951
 50
90.0
 51
180.0
 73
     1
 72
     1
 10
-248.1057272711237
 20
-249.321772478638
 11
-248.1057272711237
 21
-253.6782275213551
 72
     2
 10
-247.790010348048
 20
-253.6782275213551
 40
0.3157169230756836
 50
180.0
 51
270.0
 73
     1
 97
       12
330
37C
330
40D
330
37B
330
41E
330
37A
330
41D
330
40E
330
40F
330
379
330
41C
330
374
330
41F
 75
     1
 76
     0
 52
45.0
 41
0.1
 77
     0
 78
     1
 53
45.0
 43
0.0
 44
0.0
 45
-0.0707106781186548
 46
0.0707106781186548
 79
     0
 98
        1
 10
0.0
 20
0.0
  0
HATCH
  5
45E
330
71
100
AcDbEntity
  8
1
  6
Continuous
 62
     2
100
AcDbHatch
 10
0.0
 20
0.0
 30
0.0
210
0.0
220
0.0
230
1.0
  2
_USER
 70
     0
 71
     1
 91
        2
 92
        1
 93
       12
 72
     2
 10
-233.7087410208052
 20
-249.8204047619091
 40
1.526904761905882
 50
90.0
 51
270.0
 73
     1
 72
     1
 10
-233.7087410208052
 20
-251.3473095238144
 11
-230.5584212970242
 21
-251.3473095238144
 72
     1
 10
-230.5584212970242
 20
-251.3473095238144
 11
-230.5584212970242
 21
-250.6492959183719
 72
     1
 10
-230.5584212970242
 20
-250.6492959183719
 11
-231.8943491234519
 21
-250.6492959183719
 72
     1
 10
-231.8943491234519
 20
-250.6492959183719
 11
-231.8943491234519
 21
-250.1694115646302
 72
     1
 10
-231.8943491234519
 20
-250.1694115646302
 11
-230.5584212970242
 21
-250.1694115646302
 72
     1
 10
-230.5584212970242
 20
-250.1694115646302
 11
-230.5584212970242
 21
-249.4713979591879
 72
     1
 10
-230.5584212970242
 20
-249.4713979591879
 11
-231.8943491234519
 21
-249.4713979591879
 72
     1
 10
-231.8943491234519
 20
-249.4713979591879
 11
-231.8943491234519
 21
-248.9915136054462
 72
     1
 10
-231.8943491234519
 20
-248.9915136054462
 11
-230.5584212970242
 21
-248.9915136054462
 72
     1
 10
-230.5584212970242
 20
-248.9915136054462
 11
-230.5584212970242
 21
-248.2935000000032
 72
     1
 10
-230.5584212970242
 20
-248.2935000000032
 11
-233.7087410208052
 21
-248.2935000000032
 97
       12
330
36B
330
365
330
38C
330
38B
330
38A
330
389
330
366
330
367
330
368
330
369
330
40B
330
36A
 92
       16
 93
        4
 72
     2
 10
-233.2927289742937
 20
-249.8204047619091
 40
0.7717997786796724
 50
141.8795802028404
 51
218.1204197971562
 73
     1
 72
     2
 10
-233.49246901064
 20
-249.9771359400295
 40
0.5179085730134372
 50
218.1204197971511
 51
321.8795802028566
 73
     1
 72
     2
 10
-233.6922090469862
 20
-249.8204047619091
 40
0.7717997786796373
 50
321.8795802028437
 51
398.1204197971596
 73
     1
 72
     2
 10
-233.49246901064
 20
-249.6636735837886
 40
0.5179085730135266
 50
38.12041979714334
 51
141.8795802028489
 73
     1
 97
        4
330
418
330
417
330
412
330
411
 75
     1
 76
     0
 52
45.0
 41
0.1
 77
     0
 78
     1
 53
45.0
 43
0.0
 44
0.0
 45
-0.0707106781186548
 46
0.0707106781186548
 79
     0
 98
        1
 10
0.0
 20
0.0
  0
HATCH
  5
45F
330
71
100
AcDbEntity
  8
1
  6
Continuous
 62
     2
100
AcDbHatch
 10
0.0
 20
0.0
 30
0.0
210
0.0
220
0.0
230
1.0
  2
_USER
 70
     0
 71
     1
 91
        2
 92
        1
 93
       12
 72
     2
 10
-233.7087410208052
 20
-249.8204047619091
 40
1.526904761905882
 50
90.0
 51
270.0
 73
     1
 72
     1
 10
-233.7087410208052
 20
-251.3473095238144
 11
-230.5584212970242
 21
-251.3473095238144
 72
     1
 10
-230.5584212970242
 20
-251.3473095238144
 11
-230.5584212970242
 21
-250.6492959183719
 72
     1
 10
-230.5584212970242
 20
-250.6492959183719
 11
-231.8943491234519
 21
-250.6492959183719
 72
     1
 10
-231.8943491234519
 20
-250.6492959183719
 11
-231.8943491234519
 21
-250.1694115646302
 72
     1
 10
-231.8943491234519
 20
-250.1694115646302
 11
-230.5584212970242
 21
-250.1694115646302
 72
     1
 10
-230.5584212970242
 20
-250.1694115646302
 11
-230.5584212970242
 21
-249.4713979591879
 72
     1
 10
-230.5584212970242
 20
-249.4713979591879
 11
-231.8943491234519
 21
-249.4713979591879
 72
     1
 10
-231.8943491234519
 20
-249.4713979591879
 11
-231.8943491234519
 21
-248.9915136054462
 72
     1
 10
-231.8943491234519
 20
-248.9915136054462
 11
-230.5584212970242
 21
-248.9915136054462
 72
     1
 10
-230.5584212970242
 20
-248.9915136054462
 11
-230.5584212970242
 21
-248.2935000000032
 72
     1
 10
-230.5584212970242
 20
-248.2935000000032
 11
-233.7087410208052
 21
-248.2935000000032
 97
       12
330
36B
330
365
330
38C
330
38B
330
38A
330
389
330
366
330
367
330
368
330
369
330
40B
330
36A
 92
       16
 93
        4
 72
     2
 10
-233.2927289742937
 20
-249.8204047619091
 40
0.7717997786796724
 50
141.8795802028404
 51
218.1204197971562
 73
     1
 72
     2
 10
-233.49246901064
 20
-249.9771359400295
 40
0.5179085730134372
 50
218.1204197971511
 51
321.8795802028566
 73
     1
 72
     2
 10
-233.6922090469862
 20
-249.8204047619091
 40
0.7717997786796373
 50
321.8795802028437
 51
398.1204197971596
 73
     1
 72
     2
 10
-233.49246901064
 20
-249.6636735837886
 40
0.5179085730135266
 50
38.12041979714334
 51
141.8795802028489
 73
     1
 97
        4
330
418
330
417
330
412
330
411
 75
     1
 76
     0
 52
45.0
 41
0.1
 77
     0
 78
     1
 53
45.0
 43
0.0
 44
0.0
 45
-0.0707106781186548
 46
0.0707106781186548
 79
     0
 98
        1
 10
0.0
 20
0.0
  0
HATCH
  5
460
330
71
100
AcDbEntity
  8
1
  6
Continuous
 62
     2
100
AcDbHatch
 10
0.0
 20
0.0
 30
0.0
210
0.0
220
0.0
230
1.0
  2
_USER
 70
     0
 71
     1
 91
        2
 92
        1
 93
        4
 72
     2
 10
-237.7343563832668
 20
-253.1795952380834
 40
1.45803408365149
 50
117.5481481756624
 51
242.4518518243375
 73
     1
 72
     2
 10
-237.4534164914335
 20
-252.6410202277801
 40
2.065479772208509
 50
242.4518518243402
 51
297.5481481756871
 73
     1
 72
     2
 10
-237.1724765996002
 20
-253.1795952380834
 40
1.458034083652003
 50
297.548148175701
 51
422.451851824299
 73
     1
 72
     2
 10
-237.4534164914335
 20
-253.7181702483862
 40
2.065479772208568
 50
62.45185182430637
 51
117.5481481756664
 73
     1
 97
        4
330
416
330
413
330
415
330
414
 92
       16
 93
        4
 72
     2
 10
-237.4534164914335
 20
-253.0228640599629
 40
0.5179085730132998
 50
38.12041979714704
 51
141.8795802028588
 73
     1
 72
     2
 10
-237.2536764550874
 20
-253.1795952380834
 40
0.7717997786794633
 50
141.8795802028363
 51
218.1204197971687
 73
     1
 72
     2
 10
-237.4534164914335
 20
-253.3363264162034
 40
0.5179085730137354
 50
218.1204197971931
 51
321.879580202801
 73
     1
 72
     2
 10
-237.6531565277799
 20
-253.1795952380834
 40
0.7717997786796947
 50
321.8795802028417
 51
398.1204197971533
 73
     1
 97
        4
330
3F9
330
3FA
330
3FB
330
3F8
 75
     1
 76
     0
 52
45.0
 41
0.1
 77
     0
 78
     1
 53
45.0
 43
0.0
 44
0.0
 45
-0.0707106781186548
 46
0.0707106781186548
 79
     0
 98
        1
 10
0.0
 20
0.0
  0
HATCH
  5
461
330
71
100
AcDbEntity
  8
1
  6
Continuous
 62
     2
100
AcDbHatch
 10
0.0
 20
0.0
 30
0.0
210
0.0
220
0.0
230
1.0
  2
_USER
 70
     0
 71
     1
 91
        2
 92
        1
 93
        4
 72
     2
 10
-237.7343563832668
 20
-253.1795952380834
 40
1.45803408365149
 50
117.5481481756624
 51
242.4518518243375
 73
     1
 72
     2
 10
-237.4534164914335
 20
-252.6410202277801
 40
2.065479772208509
 50
242.4518518243402
 51
297.5481481756871
 73
     1
 72
     2
 10
-237.1724765996002
 20
-253.1795952380834
 40
1.458034083652003
 50
297.548148175701
 51
422.451851824299
 73
     1
 72
     2
 10
-237.4534164914335
 20
-253.7181702483862
 40
2.065479772208568
 50
62.45185182430637
 51
117.5481481756664
 73
     1
 97
        4
330
416
330
413
330
415
330
414
 92
       16
 93
        4
 72
     2
 10
-237.4534164914335
 20
-253.0228640599629
 40
0.5179085730132998
 50
38.12041979714704
 51
141.8795802028588
 73
     1
 72
     2
 10
-237.2536764550874
 20
-253.1795952380834
 40
0.7717997786794633
 50
141.8795802028363
 51
218.1204197971687
 73
     1
 72
     2
 10
-237.4534164914335
 20
-253.3363264162034
 40
0.5179085730137354
 50
218.1204197971931
 51
321.879580202801
 73
     1
 72
     2
 10
-237.6531565277799
 20
-253.1795952380834
 40
0.7717997786796947
 50
321.8795802028417
 51
398.1204197971533
 73
     1
 97
        4
330
3F9
330
3FA
330
3FB
330
3F8
 75
     1
 76
     0
 52
45.0
 41
0.1
 77
     0
 78
     1
 53
45.0
 43
0.0
 44
0.0
 45
-0.0707106781186548
 46
0.0707106781186548
 79
     0
 98
        1
 10
0.0
 20
0.0
  0
HATCH
  5
462
330
71
100
AcDbEntity
  8
1
  6
Continuous
 62
     2
100
AcDbHatch
 10
0.0
 20
0.0
 30
0.0
210
0.0
220
0.0
230
1.0
  2
_USER
 70
     0
 71
     1
 91
        2
 92
        1
 93
        6
 72
     1
 10
-242.009231237827
 20
-248.2935000000032
 11
-242.009231237827
 21
-251.3473095238144
 72
     1
 10
-242.009231237827
 20
-251.3473095238144
 11
-240.7687268275729
 21
-251.3473095238144
 72
     1
 10
-240.7687268275729
 20
-251.3473095238144
 11
-240.7687268275729
 21
-250.4042312826706
 72
     1
 10
-240.7687268275729
 20
-250.4042312826706
 11
-240.0099592397926
 21
-250.4042312826706
 72
     2
 10
-240.0099592397926
 20
-249.3488656413369
 40
1.055365641333708
 50
270.0
 51
450.0
 73
     1
 72
     1
 10
-240.0099592397926
 20
-248.2935000000032
 11
-242.009231237827
 21
-248.2935000000032
 97
        6
330
420
330
37D
330
373
330
372
330
37F
330
37E
 92
       16
 93
        4
 72
     1
 10
-240.451431766031
 20
-248.9566058454433
 11
-240.7687268275729
 21
-248.9566058454433
 72
     1
 10
-240.7687268275729
 20
-248.9566058454433
 11
-240.7687268275729
 21
-249.6623334947855
 72
     1
 10
-240.7687268275729
 20
-249.6623334947855
 11
-240.451431766031
 21
-249.6623334947855
 72
     2
 10
-240.451431766031
 20
-249.3094696701144
 40
0.3528638246711182
 50
270.0
 51
450.0
 73
     1
 97
        4
330
380
330
371
330
381
330
40C
 75
     1
 76
     0
 52
45.0
 41
0.1
 77
     0
 78
     1
 53
45.0
 43
0.0
 44
0.0
 45
-0.0707106781186548
 46
0.0707106781186548
 79
     0
 98
        1
 10
0.0
 20
0.0
  0
HATCH
  5
463
330
71
100
AcDbEntity
  8
1
  6
Continuous
 62
     2
100
AcDbHatch
 10
0.0
 20
0.0
 30
0.0
210
0.0
220
0.0
230
1.0
  2
_USER
 70
     0
 71
     1
 91
        2
 92
        1
 93
        6
 72
     1
 10
-242.009231237827
 20
-248.2935000000032
 11
-242.009231237827
 21
-251.3473095238144
 72
     1
 10
-242.009231237827
 20
-251.3473095238144
 11
-240.7687268275729
 21
-251.3473095238144
 72
     1
 10
-240.7687268275729
 20
-251.3473095238144
 11
-240.7687268275729
 21
-250.4042312826706
 72
     1
 10
-240.7687268275729
 20
-250.4042312826706
 11
-240.0099592397926
 21
-250.4042312826706
 72
     2
 10
-240.0099592397926
 20
-249.3488656413369
 40
1.055365641333708
 50
270.0
 51
450.0
 73
     1
 72
     1
 10
-240.0099592397926
 20
-248.2935000000032
 11
-242.009231237827
 21
-248.2935000000032
 97
        6
330
420
330
37D
330
373
330
372
330
37F
330
37E
 92
       16
 93
        4
 72
     1
 10
-240.451431766031
 20
-248.9566058454433
 11
-240.7687268275729
 21
-248.9566058454433
 72
     1
 10
-240.7687268275729
 20
-248.9566058454433
 11
-240.7687268275729
 21
-249.6623334947855
 72
     1
 10
-240.7687268275729
 20
-249.6623334947855
 11
-240.451431766031
 21
-249.6623334947855
 72
     2
 10
-240.451431766031
 20
-249.3094696701144
 40
0.3528638246711182
 50
270.0
 51
450.0
 73
     1
 97
        4
330
380
330
371
330
381
330
40C
 75
     1
 76
     0
 52
45.0
 41
0.1
 77
     0
 78
     1
 53
45.0
 43
0.0
 44
0.0
 45
-0.0707106781186548
 46
0.0707106781186548
 79
     0
 98
        1
 10
0.0
 20
0.0
  0
HATCH
  5
464
330
71
100
AcDbEntity
  8
1
  6
Continuous
 62
     2
100
AcDbHatch
 10
0.0
 20
0.0
 30
0.0
210
0.0
220
0.0
230
1.0
  2
_USER
 70
     0
 71
     1
 91
        1
 92
        1
 93
       12
 72
     1
 10
-222.3949480433938
 20
-248.2935000000032
 11
-220.9922238256466
 21
-248.2935000000032
 72
     1
 10
-220.9922238256466
 20
-248.2935000000032
 11
-222.2947534564131
 21
-249.7664505300394
 72
     1
 10
-222.2947534564131
 20
-249.7664505300394
 11
-220.8968004094728
 21
-251.3473095238144
 72
     1
 10
-220.8968004094728
 20
-251.3473095238144
 11
-222.2995246272211
 21
-251.3473095238144
 72
     1
 10
-222.2995246272211
 20
-251.3473095238144
 11
-222.9961155652866
 21
-250.5595777385207
 72
     1
 10
-222.9961155652866
 20
-250.5595777385207
 11
-223.6927065033523
 21
-251.3473095238144
 72
     1
 10
-223.6927065033523
 20
-251.3473095238144
 11
-225.0954307211005
 21
-251.3473095238144
 72
     1
 10
-225.0954307211005
 20
-251.3473095238144
 11
-223.6974776741602
 21
-249.7664505300394
 72
     1
 10
-223.6974776741602
 20
-249.7664505300394
 11
-225.0000073049277
 21
-248.2935000000032
 72
     1
 10
-225.0000073049277
 20
-248.2935000000032
 11
-223.5972830871784
 21
-248.2935000000032
 72
     1
 10
-223.5972830871784
 20
-248.2935000000032
 11
-222.9961155652866
 21
-248.9733233215587
 72
     1
 10
-222.9961155652866
 20
-248.9733233215587
 11
-222.3949480433938
 21
-248.2935000000032
 97
       12
330
34C
330
3A5
330
3A4
330
3A3
330
3A2
330
34D
330
34E
330
34A
330
34B
330
3A8
330
3A7
330
3A6
 75
     1
 76
     0
 52
45.0
 41
0.1
 77
     0
 78
     1
 53
45.0
 43
0.0
 44
0.0
 45
-0.0707106781186548
 46
0.0707106781186548
 79
     0
 98
        1
 10
0.0
 20
0.0
  0
HATCH
  5
465
330
71
100
AcDbEntity
  8
1
  6
Continuous
 62
     2
100
AcDbHatch
 10
0.0
 20
0.0
 30
0.0
210
0.0
220
0.0
230
1.0
  2
_USER
 70
     0
 71
     1
 91
        1
 92
        1
 93
       12
 72
     1
 10
-222.3949480433938
 20
-248.2935000000032
 11
-220.9922238256466
 21
-248.2935000000032
 72
     1
 10
-220.9922238256466
 20
-248.2935000000032
 11
-222.2947534564131
 21
-249.7664505300394
 72
     1
 10
-222.2947534564131
 20
-249.7664505300394
 11
-220.8968004094728
 21
-251.3473095238144
 72
     1
 10
-220.8968004094728
 20
-251.3473095238144
 11
-222.2995246272211
 21
-251.3473095238144
 72
     1
 10
-222.2995246272211
 20
-251.3473095238144
 11
-222.9961155652866
 21
-250.5595777385207
 72
     1
 10
-222.9961155652866
 20
-250.5595777385207
 11
-223.6927065033523
 21
-251.3473095238144
 72
     1
 10
-223.6927065033523
 20
-251.3473095238144
 11
-225.0954307211005
 21
-251.3473095238144
 72
     1
 10
-225.0954307211005
 20
-251.3473095238144
 11
-223.6974776741602
 21
-249.7664505300394
 72
     1
 10
-223.6974776741602
 20
-249.7664505300394
 11
-225.0000073049277
 21
-248.2935000000032
 72
     1
 10
-225.0000073049277
 20
-248.2935000000032
 11
-223.5972830871784
 21
-248.2935000000032
 72
     1
 10
-223.5972830871784
 20
-248.2935000000032
 11
-222.9961155652866
 21
-248.9733233215587
 72
     1
 10
-222.9961155652866
 20
-248.9733233215587
 11
-222.3949480433938
 21
-248.2935000000032
 97
       12
330
34C
330
3A5
330
3A4
330
3A3
330
3A2
330
34D
330
34E
330
34A
330
34B
330
3A8
330
3A7
330
3A6
 75
     1
 76
     0
 52
45.0
 41
0.1
 77
     0
 78
     1
 53
45.0
 43
0.0
 44
0.0
 45
-0.0707106781186548
 46
0.0707106781186548
 79
     0
 98
        1
 10
0.0
 20
0.0
  0
HATCH
  5
466
330
71
100
AcDbEntity
  8
1
  6
Continuous
 62
     2
100
AcDbHatch
 10
0.0
 20
0.0
 30
0.0
210
0.0
220
0.0
230
1.0
  2
_USER
 70
     0
 71
     1
 91
        1
 92
        1
 93
        4
 72
     1
 10
-225.2147099913174
 20
-248.2935000000032
 11
-225.2147099913174
 21
-251.3473095238144
 72
     1
 10
-225.2147099913174
 20
-251.3473095238144
 11
-226.4552144015703
 21
-251.3473095238144
 72
     1
 10
-226.4552144015703
 20
-251.3473095238144
 11
-226.4552144015703
 21
-248.2935000000032
 72
     1
 10
-226.4552144015703
 20
-248.2935000000032
 11
-225.2147099913174
 21
-248.2935000000032
 97
        4
330
3A0
330
34F
330
39F
330
3A1
 75
     1
 76
     0
 52
45.0
 41
0.1
 77
     0
 78
     1
 53
45.0
 43
0.0
 44
0.0
 45
-0.0707106781186548
 46
0.0707106781186548
 79
     0
 98
        1
 10
0.0
 20
0.0
  0
HATCH
  5
467
330
71
100
AcDbEntity
  8
1
  6
Continuous
 62
     2
100
AcDbHatch
 10
0.0
 20
0.0
 30
0.0
210
0.0
220
0.0
230
1.0
  2
_USER
 70
     0
 71
     1
 91
        1
 92
        1
 93
        4
 72
     1
 10
-225.2147099913174
 20
-248.2935000000032
 11
-225.2147099913174
 21
-251.3473095238144
 72
     1
 10
-225.2147099913174
 20
-251.3473095238144
 11
-226.4552144015703
 21
-251.3473095238144
 72
     1
 10
-226.4552144015703
 20
-251.3473095238144
 11
-226.4552144015703
 21
-248.2935000000032
 72
     1
 10
-226.4552144015703
 20
-248.2935000000032
 11
-225.2147099913174
 21
-248.2935000000032
 97
        4
330
3A0
330
34F
330
39F
330
3A1
 75
     1
 76
     0
 52
45.0
 41
0.1
 77
     0
 78
     1
 53
45.0
 43
0.0
 44
0.0
 45
-0.0707106781186548
 46
0.0707106781186548
 79
     0
 98
        1
 10
0.0
 20
0.0
  0
HATCH
  5
468
330
71
100
AcDbEntity
  8
1
  6
Continuous
 62
     2
100
AcDbHatch
 10
0.0
 20
0.0
 30
0.0
210
0.0
220
0.0
230
1.0
  2
_USER
 70
     0
 71
     1
 91
        2
 92
        1
 93
        8
 72
     1
 10
-225.6051539948494
 20
-254.7064999999887
 11
-226.8456584051033
 21
-254.7064999999887
 72
     1
 10
-226.8456584051033
 20
-254.7064999999887
 11
-227.0571384585791
 21
-254.1655394557708
 72
     1
 10
-227.0571384585791
 20
-254.1655394557708
 11
-228.1895800352529
 21
-254.1655394557708
 72
     1
 10
-228.1895800352529
 20
-254.1655394557708
 11
-228.4010600887287
 21
-254.7064999999887
 72
     1
 10
-228.4010600887287
 20
-254.7064999999887
 11
-229.6415644989817
 21
-254.7064999999887
 72
     1
 10
-229.6415644989817
 20
-254.7064999999887
 11
-228.2436114520424
 21
-251.6526904761776
 72
     1
 10
-228.2436114520424
 20
-251.6526904761776
 11
-227.0031070417897
 21
-251.6526904761776
 72
     1
 10
-227.0031070417897
 20
-251.6526904761776
 11
-225.6051539948494
 21
-254.7064999999887
 97
        8
330
39B
330
355
330
39A
330
39D
330
352
330
39C
330
353
330
354
 92
       16
 93
        3
 72
     1
 10
-227.9235244841079
 20
-253.4849761904642
 11
-227.3231940097254
 21
-253.4849761904642
 72
     1
 10
-227.3231940097254
 20
-253.4849761904642
 11
-227.6233592469155
 21
-252.7171612244775
 72
     1
 10
-227.6233592469155
 20
-252.7171612244775
 11
-227.9235244841079
 21
-253.4849761904642
 97
        3
330
351
330
350
330
39E
 75
     1
 76
     0
 52
45.0
 41
0.1
 77
     0
 78
     1
 53
45.0
 43
0.0
 44
0.0
 45
-0.0707106781186548
 46
0.0707106781186548
 79
     0
 98
        1
 10
0.0
 20
0.0
  0
HATCH
  5
469
330
71
100
AcDbEntity
  8
1
  6
Continuous
 62
     2
100
AcDbHatch
 10
0.0
 20
0.0
 30
0.0
210
0.0
220
0.0
230
1.0
  2
_USER
 70
     0
 71
     1
 91
        2
 92
        1
 93
        8
 72
     1
 10
-225.6051539948494
 20
-254.7064999999887
 11
-226.8456584051033
 21
-254.7064999999887
 72
     1
 10
-226.8456584051033
 20
-254.7064999999887
 11
-227.0571384585791
 21
-254.1655394557708
 72
     1
 10
-227.0571384585791
 20
-254.1655394557708
 11
-228.1895800352529
 21
-254.1655394557708
 72
     1
 10
-228.1895800352529
 20
-254.1655394557708
 11
-228.4010600887287
 21
-254.7064999999887
 72
     1
 10
-228.4010600887287
 20
-254.7064999999887
 11
-229.6415644989817
 21
-254.7064999999887
 72
     1
 10
-229.6415644989817
 20
-254.7064999999887
 11
-228.2436114520424
 21
-251.6526904761776
 72
     1
 10
-228.2436114520424
 20
-251.6526904761776
 11
-227.0031070417897
 21
-251.6526904761776
 72
     1
 10
-227.0031070417897
 20
-251.6526904761776
 11
-225.6051539948494
 21
-254.7064999999887
 97
        8
330
39B
330
355
330
39A
330
39D
330
352
330
39C
330
353
330
354
 92
       16
 93
        3
 72
     1
 10
-227.9235244841079
 20
-253.4849761904642
 11
-227.3231940097254
 21
-253.4849761904642
 72
     1
 10
-227.3231940097254
 20
-253.4849761904642
 11
-227.6233592469155
 21
-252.7171612244775
 72
     1
 10
-227.6233592469155
 20
-252.7171612244775
 11
-227.9235244841079
 21
-253.4849761904642
 97
        3
330
351
330
350
330
39E
 75
     1
 76
     0
 52
45.0
 41
0.1
 77
     0
 78
     1
 53
45.0
 43
0.0
 44
0.0
 45
-0.0707106781186548
 46
0.0707106781186548
 79
     0
 98
        1
 10
0.0
 20
0.0
  0
HATCH
  5
46A
330
71
100
AcDbEntity
  8
1
  6
Continuous
 62
     2
100
AcDbHatch
 10
0.0
 20
0.0
 30
0.0
210
0.0
220
0.0
230
1.0
  2
_USER
 70
     0
 71
     1
 91
        1
 92
        1
 93
        8
 72
     1
 10
-231.7990766381639
 20
-251.6526904761776
 11
-231.7990766381639
 21
-252.4379557823012
 72
     1
 10
-231.7990766381639
 20
-252.4379557823012
 11
-230.9879776006893
 21
-252.4379557823012
 72
     1
 10
-230.9879776006893
 20
-252.4379557823012
 11
-230.9879776006893
 21
-254.7064999999887
 72
     1
 10
-230.9879776006893
 20
-254.7064999999887
 11
-229.7951848985228
 21
-254.7064999999887
 72
     1
 10
-229.7951848985228
 20
-254.7064999999887
 11
-229.7951848985228
 21
-252.4379557823012
 72
     1
 10
-229.7951848985228
 20
-252.4379557823012
 11
-228.9840858610503
 21
-252.4379557823012
 72
     1
 10
-228.9840858610503
 20
-252.4379557823012
 11
-228.9840858610503
 21
-251.6526904761776
 72
     1
 10
-228.9840858610503
 20
-251.6526904761776
 11
-231.7990766381639
 21
-251.6526904761776
 97
        8
330
397
330
396
330
395
330
356
330
357
330
399
330
358
330
398
 75
     1
 76
     0
 52
45.0
 41
0.1
 77
     0
 78
     1
 53
45.0
 43
0.0
 44
0.0
 45
-0.0707106781186548
 46
0.0707106781186548
 79
     0
 98
        1
 10
0.0
 20
0.0
  0
HATCH
  5
46B
330
71
100
AcDbEntity
  8
1
  6
Continuous
 62
     2
100
AcDbHatch
 10
0.0
 20
0.0
 30
0.0
210
0.0
220
0.0
230
1.0
  2
_USER
 70
     0
 71
     1
 91
        1
 92
        1
 93
        8
 72
     1
 10
-231.7990766381639
 20
-251.6526904761776
 11
-231.7990766381639
 21
-252.4379557823012
 72
     1
 10
-231.7990766381639
 20
-252.4379557823012
 11
-230.9879776006893
 21
-252.4379557823012
 72
     1
 10
-230.9879776006893
 20
-252.4379557823012
 11
-230.9879776006893
 21
-254.7064999999887
 72
     1
 10
-230.9879776006893
 20
-254.7064999999887
 11
-229.7951848985228
 21
-254.7064999999887
 72
     1
 10
-229.7951848985228
 20
-254.7064999999887
 11
-229.7951848985228
 21
-252.4379557823012
 72
     1
 10
-229.7951848985228
 20
-252.4379557823012
 11
-228.9840858610503
 21
-252.4379557823012
 72
     1
 10
-228.9840858610503
 20
-252.4379557823012
 11
-228.9840858610503
 21
-251.6526904761776
 72
     1
 10
-228.9840858610503
 20
-251.6526904761776
 11
-231.7990766381639
 21
-251.6526904761776
 97
        8
330
397
330
396
330
395
330
356
330
357
330
399
330
358
330
398
 75
     1
 76
     0
 52
45.0
 41
0.1
 77
     0
 78
     1
 53
45.0
 43
0.0
 44
0.0
 45
-0.0707106781186548
 46
0.0707106781186548
 79
     0
 98
        1
 10
0.0
 20
0.0
  0
HATCH
  5
46C
330
71
100
AcDbEntity
  8
1
  6
Continuous
 62
     2
100
AcDbHatch
 10
0.0
 20
0.0
 30
0.0
210
0.0
220
0.0
230
1.0
  2
_USER
 70
     0
 71
     1
 91
        1
 92
        1
 93
       10
 72
     1
 10
-229.1270700544248
 20
-248.2935000000032
 11
-230.3198627565913
 21
-248.2935000000032
 72
     1
 10
-230.3198627565913
 20
-248.2935000000032
 11
-230.3198627565913
 21
-251.3473095238144
 72
     1
 10
-230.3198627565913
 20
-251.3473095238144
 11
-229.1270700544248
 21
-251.3473095238144
 72
     1
 10
-229.1270700544248
 20
-251.3473095238144
 11
-229.1270700544248
 21
-250.0385340136097
 72
     1
 10
-229.1270700544248
 20
-250.0385340136097
 11
-227.8865656441708
 21
-251.3473095238144
 72
     1
 10
-227.8865656441708
 20
-251.3473095238144
 11
-226.6937729420042
 21
-251.3473095238144
 72
     1
 10
-226.6937729420042
 20
-251.3473095238144
 11
-226.6937729420042
 21
-248.2935000000032
 72
     1
 10
-226.6937729420042
 20
-248.2935000000032
 11
-227.8865656441708
 21
-248.2935000000032
 72
     1
 10
-227.8865656441708
 20
-248.2935000000032
 11
-227.8865656441708
 21
-249.6022755102084
 72
     1
 10
-227.8865656441708
 20
-249.6022755102084
 11
-229.1270700544248
 21
-248.2935000000032
 97
       10
330
391
330
35B
330
35C
330
35D
330
35E
330
394
330
359
330
393
330
392
330
35A
 75
     1
 76
     0
 52
45.0
 41
0.1
 77
     0
 78
     1
 53
45.0
 43
0.0
 44
0.0
 45
-0.0707106781186548
 46
0.0707106781186548
 79
     0
 98
        1
 10
0.0
 20
0.0
  0
HATCH
  5
46D
330
71
100
AcDbEntity
  8
1
  6
Continuous
 62
     2
100
AcDbHatch
 10
0.0
 20
0.0
 30
0.0
210
0.0
220
0.0
230
1.0
  2
_USER
 70
     0
 71
     1
 91
        1
 92
        1
 93
       10
 72
     1
 10
-229.1270700544248
 20
-248.2935000000032
 11
-230.3198627565913
 21
-248.2935000000032
 72
     1
 10
-230.3198627565913
 20
-248.2935000000032
 11
-230.3198627565913
 21
-251.3473095238144
 72
     1
 10
-230.3198627565913
 20
-251.3473095238144
 11
-229.1270700544248
 21
-251.3473095238144
 72
     1
 10
-229.1270700544248
 20
-251.3473095238144
 11
-229.1270700544248
 21
-250.0385340136097
 72
     1
 10
-229.1270700544248
 20
-250.0385340136097
 11
-227.8865656441708
 21
-251.3473095238144
 72
     1
 10
-227.8865656441708
 20
-251.3473095238144
 11
-226.6937729420042
 21
-251.3473095238144
 72
     1
 10
-226.6937729420042
 20
-251.3473095238144
 11
-226.6937729420042
 21
-248.2935000000032
 72
     1
 10
-226.6937729420042
 20
-248.2935000000032
 11
-227.8865656441708
 21
-248.2935000000032
 72
     1
 10
-227.8865656441708
 20
-248.2935000000032
 11
-227.8865656441708
 21
-249.6022755102084
 72
     1
 10
-227.8865656441708
 20
-249.6022755102084
 11
-229.1270700544248
 21
-248.2935000000032
 97
       10
330
391
330
35B
330
35C
330
35D
330
35E
330
394
330
359
330
393
330
392
330
35A
 75
     1
 76
     0
 52
45.0
 41
0.1
 77
     0
 78
     1
 53
45.0
 43
0.0
 44
0.0
 45
-0.0707106781186548
 46
0.0707106781186548
 79
     0
 98
        1
 10
0.0
 20
0.0
  0
HATCH
  5
46E
330
71
100
AcDbEntity
  8
1
  6
Continuous
 62
     2
100
AcDbHatch
 10
0.0
 20
0.0
 30
0.0
210
0.0
220
0.0
230
1.0
  2
_USER
 70
     0
 71
     1
 91
        1
 92
        1
 93
       10
 72
     1
 10
-234.3755088748434
 20
-251.6526904761776
 11
-235.568301577011
 21
-251.6526904761776
 72
     1
 10
-235.568301577011
 20
-251.6526904761776
 11
-235.568301577011
 21
-254.7064999999887
 72
     1
 10
-235.568301577011
 20
-254.7064999999887
 11
-234.3755088748434
 21
-254.7064999999887
 72
     1
 10
-234.3755088748434
 20
-254.7064999999887
 11
-234.3755088748434
 21
-253.3977244897841
 72
     1
 10
-234.3755088748434
 20
-253.3977244897841
 11
-233.1350044645905
 21
-254.7064999999887
 72
     1
 10
-233.1350044645905
 20
-254.7064999999887
 11
-231.9422117624241
 21
-254.7064999999887
 72
     1
 10
-231.9422117624241
 20
-254.7064999999887
 11
-231.9422117624241
 21
-251.6526904761776
 72
     1
 10
-231.9422117624241
 20
-251.6526904761776
 11
-233.1350044645905
 21
-251.6526904761776
 72
     1
 10
-233.1350044645905
 20
-251.6526904761776
 11
-233.1350044645905
 21
-252.9614659863827
 72
     1
 10
-233.1350044645905
 20
-252.9614659863827
 11
-234.3755088748434
 21
-251.6526904761776
 97
       10
330
360
330
361
330
362
330
38E
330
363
330
364
330
38D
330
390
330
38F
330
35F
 75
     1
 76
     0
 52
45.0
 41
0.1
 77
     0
 78
     1
 53
45.0
 43
0.0
 44
0.0
 45
-0.0707106781186548
 46
0.0707106781186548
 79
     0
 98
        1
 10
0.0
 20
0.0
  0
HATCH
  5
46F
330
71
100
AcDbEntity
  8
1
  6
Continuous
 62
     2
100
AcDbHatch
 10
0.0
 20
0.0
 30
0.0
210
0.0
220
0.0
230
1.0
  2
_USER
 70
     0
 71
     1
 91
        1
 92
        1
 93
       10
 72
     1
 10
-234.3755088748434
 20
-251.6526904761776
 11
-235.568301577011
 21
-251.6526904761776
 72
     1
 10
-235.568301577011
 20
-251.6526904761776
 11
-235.568301577011
 21
-254.7064999999887
 72
     1
 10
-235.568301577011
 20
-254.7064999999887
 11
-234.3755088748434
 21
-254.7064999999887
 72
     1
 10
-234.3755088748434
 20
-254.7064999999887
 11
-234.3755088748434
 21
-253.3977244897841
 72
     1
 10
-234.3755088748434
 20
-253.3977244897841
 11
-233.1350044645905
 21
-254.7064999999887
 72
     1
 10
-233.1350044645905
 20
-254.7064999999887
 11
-231.9422117624241
 21
-254.7064999999887
 72
     1
 10
-231.9422117624241
 20
-254.7064999999887
 11
-231.9422117624241
 21
-251.6526904761776
 72
     1
 10
-231.9422117624241
 20
-251.6526904761776
 11
-233.1350044645905
 21
-251.6526904761776
 72
     1
 10
-233.1350044645905
 20
-251.6526904761776
 11
-233.1350044645905
 21
-252.9614659863827
 72
     1
 10
-233.1350044645905
 20
-252.9614659863827
 11
-234.3755088748434
 21
-251.6526904761776
 97
       10
330
360
330
361
330
362
330
38E
330
363
330
364
330
38D
330
390
330
38F
330
35F
 75
     1
 76
     0
 52
45.0
 41
0.1
 77
     0
 78
     1
 53
45.0
 43
0.0
 44
0.0
 45
-0.0707106781186548
 46
0.0707106781186548
 79
     0
 98
        1
 10
0.0
 20
0.0
  0
HATCH
  5
470
330
71
100
AcDbEntity
  8
1
  6
Continuous
 62
     2
100
AcDbHatch
 10
0.0
 20
0.0
 30
0.0
210
0.0
220
0.0
230
1.0
  2
_USER
 70
     0
 71
     1
 91
        1
 92
        1
 93
       12
 72
     1
 10
-235.3773038137788
 20
-248.2935000000032
 11
-235.3773038137788
 21
-251.3473095238144
 72
     1
 10
-235.3773038137788
 20
-251.3473095238144
 11
-236.5700965159452
 21
-251.3473095238144
 72
     1
 10
-236.5700965159452
 20
-251.3473095238144
 11
-236.5700965159452
 21
-250.2130374149706
 72
     1
 10
-236.5700965159452
 20
-250.2130374149706
 11
-237.6197540938527
 21
-250.2130374149706
 72
     1
 10
-237.6197540938527
 20
-250.2130374149706
 11
-237.6197540938527
 21
-251.3473095238144
 72
     1
 10
-237.6197540938527
 20
-251.3473095238144
 11
-238.8125467960193
 21
-251.3473095238144
 72
     1
 10
-238.8125467960193
 20
-251.3473095238144
 11
-238.8125467960193
 21
-248.2935000000032
 72
     1
 10
-238.8125467960193
 20
-248.2935000000032
 11
-237.6197540938527
 21
-248.2935000000032
 72
     1
 10
-237.6197540938527
 20
-248.2935000000032
 11
-237.6197540938527
 21
-249.3623333333378
 72
     1
 10
-237.6197540938527
 20
-249.3623333333378
 11
-236.5700965159452
 21
-249.3623333333378
 72
     1
 10
-236.5700965159452
 20
-249.3623333333378
 11
-236.5700965159452
 21
-248.2935000000032
 72
     1
 10
-236.5700965159452
 20
-248.2935000000032
 11
-235.3773038137788
 21
-248.2935000000032
 97
       12
330
388
330
387
330
386
330
36E
330
36F
330
385
330
370
330
384
330
383
330
382
330
36C
330
36D
 75
     1
 76
     0
 52
45.0
 41
0.1
 77
     0
 78
     1
 53
45.0
 43
0.0
 44
0.0
 45
-0.0707106781186548
 46
0.0707106781186548
 79
     0
 98
        1
 10
0.0
 20
0.0
  0
HATCH
  5
471
330
71
100
AcDbEntity
  8
1
  6
Continuous
 62
     2
100
AcDbHatch
 10
0.0
 20
0.0
 30
0.0
210
0.0
220
0.0
230
1.0
  2
_USER
 70
     0
 71
     1
 91
        1
 92
        1
 93
       12
 72
     1
 10
-235.3773038137788
 20
-248.2935000000032
 11
-235.3773038137788
 21
-251.3473095238144
 72
     1
 10
-235.3773038137788
 20
-251.3473095238144
 11
-236.5700965159452
 21
-251.3473095238144
 72
     1
 10
-236.5700965159452
 20
-251.3473095238144
 11
-236.5700965159452
 21
-250.2130374149706
 72
     1
 10
-236.5700965159452
 20
-250.2130374149706
 11
-237.6197540938527
 21
-250.2130374149706
 72
     1
 10
-237.6197540938527
 20
-250.2130374149706
 11
-237.6197540938527
 21
-251.3473095238144
 72
     1
 10
-237.6197540938527
 20
-251.3473095238144
 11
-238.8125467960193
 21
-251.3473095238144
 72
     1
 10
-238.8125467960193
 20
-251.3473095238144
 11
-238.8125467960193
 21
-248.2935000000032
 72
     1
 10
-238.8125467960193
 20
-248.2935000000032
 11
-237.6197540938527
 21
-248.2935000000032
 72
     1
 10
-237.6197540938527
 20
-248.2935000000032
 11
-237.6197540938527
 21
-249.3623333333378
 72
     1
 10
-237.6197540938527
 20
-249.3623333333378
 11
-236.5700965159452
 21
-249.3623333333378
 72
     1
 10
-236.5700965159452
 20
-249.3623333333378
 11
-236.5700965159452
 21
-248.2935000000032
 72
     1
 10
-236.5700965159452
 20
-248.2935000000032
 11
-235.3773038137788
 21
-248.2935000000032
 97
       12
330
388
330
387
330
386
330
36E
330
36F
330
385
330
370
330
384
330
383
330
382
330
36C
330
36D
 75
     1
 76
     0
 52
45.0
 41
0.1
 77
     0
 78
     1
 53
45.0
 43
0.0
 44
0.0
 45
-0.0707106781186548
 46
0.0707106781186548
 79
     0
 98
        1
 10
0.0
 20
0.0
  0
ENDBLK
  5
73
330
71
100
AcDbEntity
  8
0
100
AcDbBlockEnd
  0
BLOCK
  5
75
330
74
100
AcDbEntity
  8
0
100
AcDbBlockBegin
  2
_punkt
 70
     0
 10
-123.4999999999899
 20
-262.000000000005
 30
0.0
  3
_punkt
  1

  0
LINE
  5
472
330
74
100
AcDbEntity
  8
1
  6
Continuous
 62
     2
100
AcDbLine
 10
-123.4999999999899
 20
-262.000000000005
 30
0.0
 11
-123.4999999999899
 21
-267.0000000000051
 31
0.0
  0
LINE
  5
473
330
74
100
AcDbEntity
  8
1
  6
Continuous
 62
     2
100
AcDbLine
 10
-123.4999999999899
 20
-262.000000000005
 30
0.0
 11
-118.4999999999909
 21
-262.000000000005
 31
0.0
  0
ENDBLK
  5
76
330
74
100
AcDbEntity
  8
0
100
AcDbBlockEnd
  0
BLOCK
  5
7A
330
77
100
AcDbEntity
  8
0
100
AcDbBlockBegin
  2
A4I_CS
 70
     0
 10
-123.4999999999899
 20
-267.0000000000051
 30
0.0
  3
A4I_CS
  1

  0
INSERT
  5
78
330
77
100
AcDbEntity
  8
1
100
AcDbBlockReference
  2
_rahmen
 10
-123.4999999999899
 20
-267.0000000000051
 30
0.0
  0
INSERT
  5
79
330
77
100
AcDbEntity
  8
1
100
AcDbBlockReference
  2
_punkt
 10
-123.4999999999899
 20
-262.000000000005
 30
0.0
  0
ENDBLK
  5
7B
330
77
100
AcDbEntity
  8
0
100
AcDbBlockEnd
  0
BLOCK
  5
84
330
7C
100
AcDbEntity
  8
0
100
AcDbBlockBegin
  2
1
 70
     0
 10
0.0
 20
0.0
 30
0.0
  3
1
  1

  0
INSERT
  5
7D
330
7C
100
AcDbEntity
  8
0
100
AcDbBlockReference
  2
Allg1
 10
-164.0000000000024
 20
-192.000000021145
 30
0.0
  0
INSERT
  5
7E
330
7C
100
AcDbEntity
  8
0
100
AcDbBlockReference
  2
Drfsicht1
 10
-295.2499999999985
 20
-190.9250020244131
 30
0.0
  0
INSERT
  5
7F
330
7C
100
AcDbEntity
  8
0
100
AcDbBlockReference
  2
Rckans1
 10
-194.7500000000014
 20
-121.000000024414
 30
0.0
  0
INSERT
  5
80
330
7C
100
AcDbEntity
  8
0
100
AcDbBlockReference
  2
SA_Links1
 10
-243.99999999999
 20
-121.000000048828
 30
0.0
  0
INSERT
  5
81
330
7C
100
AcDbEntity
  8
0
100
AcDbBlockReference
  2
SA_Rechts1
 10
-379.4999999999973
 20
-121.0000000244141
 30
0.0
  0
INSERT
  5
82
330
7C
100
AcDbEntity
  8
0
100
AcDbBlockReference
  2
Vordans1
 10
-295.2499999999985
 20
-121.000000024414
 30
0.0
  0
INSERT
  5
83
330
7C
100
AcDbEntity
  8
0
100
AcDbBlockReference
  2
A4I_CS
 10
-123.4999999999899
 20
-267.0000000000051
 30
0.0
  0
ENDBLK
  5
85
330
7C
100
AcDbEntity
  8
0
100
AcDbBlockEnd
  0
BLOCK
  5
1AD
330
1A6
100
AcDbEntity
  8
0
100
AcDbBlockBegin
  2
*D17
 70
     1
 10
0.0
 20
0.0
 30
0.0
  3
*D17
  1

  0
LINE
  5
1A7
330
1A6
100
AcDbEntity
  8
1
  6
Continuous
 62
     2
100
AcDbLine
 10
-326.9999993092717
 20
-196.4250020244181
 30
0.0
 11
-326.9999993092717
 21
-185.4250020244181
 31
0.0
  0
LINE
  5
1A8
330
1A6
100
AcDbEntity
  8
1
  6
Continuous
 62
     2
100
AcDbLine
 10
-316.9999993092717
 20
-185.4250020244181
 30
0.0
 11
-328.4999993092717
 21
-185.4250020244181
 31
0.0
  0
LINE
  5
1A9
330
1A6
100
AcDbEntity
  8
1
  6
Continuous
 62
     2
100
AcDbLine
 10
-316.9999993092717
 20
-196.4250020244181
 30
0.0
 11
-328.4999993092717
 21
-196.4250020244181
 31
0.0
  0
SOLID
  5
1AA
330
1A6
100
AcDbEntity
  8
1
 62
     2
100
AcDbTrace
 10
-327.4607830508276
 20
-192.9250020244181
 30
0.0
 11
-326.5392155677158
 21
-192.9250020244181
 31
0.0
 12
-326.9999993092717
 22
-196.4250020244181
 32
0.0
 13
-326.9999993092717
 23
-196.4250020244181
 33
0.0
  0
SOLID
  5
1AB
330
1A6
100
AcDbEntity
  8
1
 62
     2
100
AcDbTrace
 10
-326.5392155677158
 20
-188.9250020244181
 30
0.0
 11
-327.4607830508276
 21
-188.9250020244181
 31
0.0
 12
-326.9999993092717
 22
-185.4250020244181
 32
0.0
 13
-326.9999993092717
 23
-185.4250020244181
 33
0.0
  0
MTEXT
  5
1AC
330
1A6
100
AcDbEntity
  8
1
 62
     3
100
AcDbMText
 10
-328.4999993092717
 20
-192.800253912301
 30
0.0
 40
3.5
 41
0.0
 71
     7
 72
     1
  1
11
  7
CONVERTER_11
 11
0.0
 21
1.0
 31
0.0
 73
     1
 44
0.60024009603842
  0
ENDBLK
  5
1AE
330
1A6
100
AcDbEntity
  8
0
100
AcDbBlockEnd
  0
BLOCK
  5
30B
330
304
100
AcDbEntity
  8
0
100
AcDbBlockBegin
  2
*D18
 70
     1
 10
0.0
 20
0.0
 30
0.0
  3
*D18
  1

  0
LINE
  5
305
330
304
100
AcDbEntity
  8
1
  6
Continuous
 62
     2
100
AcDbLine
 10
-334.9999993092718
 20
-146.4250000488267
 30
0.0
 11
-334.9999993092718
 21
-95.57500004882712
 31
0.0
  0
LINE
  5
306
330
304
100
AcDbEntity
  8
1
  6
Continuous
 62
     2
100
AcDbLine
 10
-306.6499993092716
 20
-95.57500004882712
 30
0.0
 11
-336.4999993092718
 21
-95.57500004882712
 31
0.0
  0
LINE
  5
307
330
304
100
AcDbEntity
  8
1
  6
Continuous
 62
     2
100
AcDbLine
 10
-313.2195829092862
 20
-146.4250000488267
 30
0.0
 11
-336.4999993092718
 21
-146.4250000488267
 31
0.0
  0
SOLID
  5
308
330
304
100
AcDbEntity
  8
1
 62
     2
100
AcDbTrace
 10
-335.4607830508277
 20
-142.9250000488267
 30
0.0
 11
-334.5392155677159
 21
-142.9250000488267
 31
0.0
 12
-334.9999993092718
 22
-146.4250000488267
 32
0.0
 13
-334.9999993092718
 23
-146.4250000488267
 33
0.0
  0
SOLID
  5
309
330
304
100
AcDbEntity
  8
1
 62
     2
100
AcDbTrace
 10
-334.5392155677159
 20
-99.07500004882712
 30
0.0
 11
-335.4607830508277
 21
-99.07500004882712
 31
0.0
 12
-334.9999993092718
 22
-95.57500004882712
 32
0.0
 13
-334.9999993092718
 23
-95.57500004882712
 33
0.0
  0
MTEXT
  5
30A
330
304
100
AcDbEntity
  8
1
 62
     3
100
AcDbMText
 10
-336.8499993092718
 20
-130.20320890555
 30
0.0
 40
3.5
 41
0.0
 71
     7
 72
     1
  1
50,85
  7
CONVERTER_11
 11
0.0
 21
1.0
 31
0.0
 73
     1
 44
0.60024009603842
  0
ENDBLK
  5
30C
330
304
100
AcDbEntity
  8
0
100
AcDbBlockEnd
  0
BLOCK
  5
316
330
30F
100
AcDbEntity
  8
0
100
AcDbBlockBegin
  2
*D19
 70
     1
 10
0.0
 20
0.0
 30
0.0
  3
*D19
  1

  0
LINE
  5
310
330
30F
100
AcDbEntity
  8
1
  6
Continuous
 62
     2
100
AcDbLine
 10
-326.9999993092718
 20
-140.1250000488287
 30
0.0
 11
-326.9999993092718
 21
-95.57500004882712
 31
0.0
  0
LINE
  5
311
330
30F
100
AcDbEntity
  8
1
  6
Continuous
 62
     2
100
AcDbLine
 10
-306.6499993092716
 20
-95.57500004882712
 30
0.0
 11
-328.4999993092718
 21
-95.57500004882712
 31
0.0
  0
LINE
  5
312
330
30F
100
AcDbEntity
  8
1
  6
Continuous
 62
     2
100
AcDbLine
 10
-281.8249993092736
 20
-140.1250000488287
 30
0.0
 11
-328.4999993092718
 21
-140.1250000488287
 31
0.0
  0
SOLID
  5
313
330
30F
100
AcDbEntity
  8
1
 62
     2
100
AcDbTrace
 10
-327.4607830508277
 20
-136.6250000488287
 30
0.0
 11
-326.5392155677159
 21
-136.6250000488287
 31
0.0
 12
-326.9999993092718
 22
-140.1250000488287
 32
0.0
 13
-326.9999993092718
 23
-140.1250000488287
 33
0.0
  0
SOLID
  5
314
330
30F
100
AcDbEntity
  8
1
 62
     2
100
AcDbTrace
 10
-326.5392155677159
 20
-99.07500004882712
 30
0.0
 11
-327.4607830508277
 21
-99.07500004882712
 31
0.0
 12
-326.9999993092718
 22
-95.57500004882712
 32
0.0
 13
-326.9999993092718
 23
-95.57500004882712
 33
0.0
  0
MTEXT
  5
315
330
30F
100
AcDbEntity
  8
1
 62
     3
100
AcDbMText
 10
-328.8499993092718
 20
-122.835667429704
 30
0.0
 40
3.5
 41
0.0
 71
     7
 72
     1
  1
44,55
  7
CONVERTER_11
 11
0.0
 21
1.0
 31
0.0
 73
     1
 44
0.60024009603842
  0
ENDBLK
  5
317
330
30F
100
AcDbEntity
  8
0
100
AcDbBlockEnd
  0
BLOCK
  5
321
330
31A
100
AcDbEntity
  8
0
100
AcDbBlockBegin
  2
*D20
 70
     1
 10
0.0
 20
0.0
 30
0.0
  3
*D20
  1

  0
LINE
  5
31B
330
31A
100
AcDbEntity
  8
1
  6
Continuous
 62
     2
100
AcDbLine
 10
-316.999999309274
 20
-172.754153699168
 30
0.0
 11
-273.4999993092735
 21
-172.754153699168
 31
0.0
  0
LINE
  5
31C
330
31A
100
AcDbEntity
  8
1
  6
Continuous
 62
     2
100
AcDbLine
 10
-273.4999993092735
 20
-142.9250000488288
 30
0.0
 11
-273.4999993092735
 21
-174.254153699168
 31
0.0
  0
LINE
  5
31D
330
31A
100
AcDbEntity
  8
1
  6
Continuous
 62
     2
100
AcDbLine
 10
-316.999999309274
 20
-146.4250000488265
 30
0.0
 11
-316.999999309274
 21
-174.254153699168
 31
0.0
  0
SOLID
  5
31E
330
31A
100
AcDbEntity
  8
1
 62
     2
100
AcDbTrace
 10
-313.499999309274
 20
-172.2933699576121
 30
0.0
 11
-313.499999309274
 21
-173.2149374407239
 31
0.0
 12
-316.999999309274
 22
-172.754153699168
 32
0.0
 13
-316.999999309274
 23
-172.754153699168
 33
0.0
  0
SOLID
  5
31F
330
31A
100
AcDbEntity
  8
1
 62
     2
100
AcDbTrace
 10
-276.9999993092735
 20
-173.2149374407239
 30
0.0
 11
-276.9999993092735
 21
-172.2933699576121
 31
0.0
 12
-273.4999993092735
 22
-172.754153699168
 32
0.0
 13
-273.4999993092735
 23
-172.754153699168
 33
0.0
  0
MTEXT
  5
320
330
31A
100
AcDbEntity
  8
1
 62
     3
100
AcDbMText
 10
-301.512260219666
 20
-170.904153699168
 30
0.0
 40
3.5
 41
0.0
 71
     7
 72
     1
  1
43,5
  7
CONVERTER_11
 11
0.9999999999970619
 21
2.424068405545306E-6
 31
0.0
 73
     1
 44
0.60024009603842
  0
ENDBLK
  5
322
330
31A
100
AcDbEntity
  8
0
100
AcDbBlockEnd
  0
BLOCK
  5
32C
330
325
100
AcDbEntity
  8
0
100
AcDbBlockBegin
  2
*D21
 70
     1
 10
0.0
 20
0.0
 30
0.0
  3
*D21
  1

  0
LINE
  5
326
330
325
100
AcDbEntity
  8
1
  6
Continuous
 62
     2
100
AcDbLine
 10
-295.2499993092737
 20
-164.754153699168
 30
0.0
 11
-273.4999993092735
 21
-164.754153699168
 31
0.0
  0
LINE
  5
327
330
325
100
AcDbEntity
  8
1
  6
Continuous
 62
     2
100
AcDbLine
 10
-273.4999993092735
 20
-142.9250000488288
 30
0.0
 11
-273.4999993092735
 21
-166.254153699168
 31
0.0
  0
LINE
  5
328
330
325
100
AcDbEntity
  8
1
  6
Continuous
 62
     2
100
AcDbLine
 10
-295.2499993092737
 20
-141.735703585205
 30
0.0
 11
-295.2499993092737
 21
-166.254153699168
 31
0.0
  0
SOLID
  5
329
330
325
100
AcDbEntity
  8
1
 62
     2
100
AcDbTrace
 10
-291.7499993092737
 20
-164.2933699576121
 30
0.0
 11
-291.7499993092737
 21
-165.2149374407239
 31
0.0
 12
-295.2499993092737
 22
-164.754153699168
 32
0.0
 13
-295.2499993092737
 23
-164.754153699168
 33
0.0
  0
SOLID
  5
32A
330
325
100
AcDbEntity
  8
1
 62
     2
100
AcDbTrace
 10
-276.9999993092735
 20
-165.2149374407239
 30
0.0
 11
-276.9999993092735
 21
-164.2933699576121
 31
0.0
 12
-273.4999993092735
 22
-164.754153699168
 32
0.0
 13
-273.4999993092735
 23
-164.754153699168
 33
0.0
  0
MTEXT
  5
32B
330
325
100
AcDbEntity
  8
1
 62
     3
100
AcDbMText
 10
-290.144579910292
 20
-162.904153699168
 30
0.0
 40
3.5
 41
0.0
 71
     7
 72
     1
  1
21,75
  7
CONVERTER_11
 11
0.9999999999970619
 21
2.424068405545306E-6
 31
0.0
 73
     1
 44
0.60024009603842
  0
ENDBLK
  5
32D
330
325
100
AcDbEntity
  8
0
100
AcDbBlockEnd
  0
BLOCK
  5
337
330
330
100
AcDbEntity
  8
0
100
AcDbBlockBegin
  2
*D22
 70
     1
 10
0.0
 20
0.0
 30
0.0
  3
*D22
  1

  0
LINE
  5
331
330
330
100
AcDbEntity
  8
1
  6
Continuous
 62
     2
100
AcDbLine
 10
-295.2499993092737
 20
-156.754153699168
 30
0.0
 11
-277.7499993092737
 21
-156.754153699168
 31
0.0
  0
LINE
  5
332
330
330
100
AcDbEntity
  8
1
  6
Continuous
 62
     2
100
AcDbLine
 10
-277.7499993092737
 20
-141.3250000488287
 30
0.0
 11
-277.7499993092737
 21
-158.254153699168
 31
0.0
  0
LINE
  5
333
330
330
100
AcDbEntity
  8
1
  6
Continuous
 62
     2
100
AcDbLine
 10
-295.2499993092737
 20
-141.735703585205
 30
0.0
 11
-295.2499993092737
 21
-158.254153699168
 31
0.0
  0
SOLID
  5
334
330
330
100
AcDbEntity
  8
1
 62
     2
100
AcDbTrace
 10
-291.7499993092737
 20
-156.2933699576121
 30
0.0
 11
-291.7499993092737
 21
-157.2149374407239
 31
0.0
 12
-295.2499993092737
 22
-156.754153699168
 32
0.0
 13
-295.2499993092737
 23
-156.754153699168
 33
0.0
  0
SOLID
  5
335
330
330
100
AcDbEntity
  8
1
 62
     2
100
AcDbTrace
 10
-281.2499993092737
 20
-157.2149374407239
 30
0.0
 11
-281.2499993092737
 21
-156.2933699576121
 31
0.0
 12
-277.7499993092737
 22
-156.754153699168
 32
0.0
 13
-277.7499993092737
 23
-156.754153699168
 33
0.0
  0
MTEXT
  5
336
330
330
100
AcDbEntity
  8
1
 62
     3
100
AcDbMText
 10
-291.147223875081
 20
-154.904153699168
 30
0.0
 40
3.5
 41
0.0
 71
     7
 72
     1
  1
17,5
  7
CONVERTER_11
 11
0.9999999999970619
 21
2.424068405545306E-6
 31
0.0
 73
     1
 44
0.60024009603842
  0
ENDBLK
  5
338
330
330
100
AcDbEntity
  8
0
100
AcDbBlockEnd
  0
ENDSEC
  0
SECTION
  2
ENTITIES
  0
INSERT
  5
86
330
1F
100
AcDbEntity
  8
1
100
AcDbBlockReference
  2
1
 10
0.0
 20
0.0
 30
0.0
  0
ENDSEC
  0
SECTION
  2
OBJECTS
  0
DICTIONARY
  5
C
330
0
100
AcDbDictionary
281
     1
  3
ACAD_GROUP
350
D
  3
ACAD_LAYOUT
350
1A
  3
ACAD_MATERIAL
350
3B
  3
ACAD_MLEADERSTYLE
350
49B
  3
ACAD_MLINESTYLE
350
17
  3
ACAD_PLOTSETTINGS
350
19
  3
ACAD_PLOTSTYLENAME
350
E
  3
ACAD_TABLESTYLE
350
49A
  3
ACAD_VISUALSTYLE
350
2A
  0
DICTIONARY
  5
D
102
{ACAD_REACTORS
330
C
102
}
330
C
100
AcDbDictionary
281
     1
  0
DICTIONARY
  5
1A
102
{ACAD_REACTORS
330
C
102
}
330
C
100
AcDbDictionary
281
     1
  3
Layout1
350
1E
  3
Layout2
350
26
  3
Model
350
22
  0
DICTIONARY
  5
3B
102
{ACAD_REACTORS
330
C
102
}
330
C
100
AcDbDictionary
281
     1
  3
ByBlock
350
3D
  3
ByLayer
350
3C
  3
Global
350
3E
  0
DICTIONARY
  5
49B
102
{ACAD_REACTORS
330
C
102
}
330
C
100
AcDbDictionary
281
     1
  0
DICTIONARY
  5
17
102
{ACAD_REACTORS
330
C
102
}
330
C
100
AcDbDictionary
281
     1
  3
Standard
350
18
  0
DICTIONARY
  5
19
102
{ACAD_REACTORS
330
C
102
}
330
C
100
AcDbDictionary
281
     1
  0
ACDBDICTIONARYWDFLT
  5
E
102
{ACAD_REACTORS
330
C
102
}
330
C
100
AcDbDictionary
281
     1
  3
Normal
350
F
100
AcDbDictionaryWithDefault
340
F
  0
DICTIONARY
  5
49A
102
{ACAD_REACTORS
330
C
102
}
330
C
100
AcDbDictionary
281
     1
  0
DICTIONARY
  5
2A
102
{ACAD_REACTORS
330
C
102
}
330
C
100
AcDbDictionary
281
     1
  3
2dWireframe
350
2F
  3
3D Hidden
350
31
  3
3dWireframe
350
30
  3
Basic
350
32
  3
Brighten
350
36
  3
ColorChange
350
3A
  3
Conceptual
350
34
  3
Dim
350
35
  3
Facepattern
350
39
  3
Flat
350
2B
  3
FlatWithEdges
350
2C
  3
Gouraud
350
2D
  3
GouraudWithEdges
350
2E
  3
Linepattern
350
38
  3
Realistic
350
33
  3
Thicken
350
37
  0
LAYOUT
  5
1E
102
{ACAD_REACTORS
330
1A
102
}
330
1A
100
AcDbPlotSettings
  1

  2
none_device
  4

  6

 40
0.0
 41
0.0
 42
0.0
 43
0.0
 44
0.0
 45
0.0
 46
0.0
 47
0.0
 48
0.0
 49
0.0
140
0.0
141
0.0
142
1.0
143
1.0
 70
   688
 72
     0
 73
     0
 74
     5
  7

 75
    16
 76
     0
 77
     2
 78
   300
147
1.0
148
0.0
149
0.0
100
AcDbLayout
  1
Layout1
 70
     1
 71
     1
 10
0.0
 20
0.0
 11
12.0
 21
9.0
 12
0.0
 22
0.0
 32
0.0
 14
1.00000000000000E+20
 24
1.00000000000000E+20
 34
1.00000000000000E+20
 15
-1.00000000000000E+20
 25
-1.00000000000000E+20
 35
-1.00000000000000E+20
146
0.0
 13
0.0
 23
0.0
 33
0.0
 16
1.0
 26
0.0
 36
0.0
 17
0.0
 27
1.0
 37
0.0
 76
     0
330
1B
  0
LAYOUT
  5
26
102
{ACAD_REACTORS
330
1A
102
}
330
1A
100
AcDbPlotSettings
  1

  2
none_device
  4

  6

 40
0.0
 41
0.0
 42
0.0
 43
0.0
 44
0.0
 45
0.0
 46
0.0
 47
0.0
 48
0.0
 49
0.0
140
0.0
141
0.0
142
1.0
143
1.0
 70
   688
 72
     0
 73
     0
 74
     5
  7

 75
    16
 76
     0
 77
     2
 78
   300
147
1.0
148
0.0
149
0.0
100
AcDbLayout
  1
Layout2
 70
     1
 71
     2
 10
0.0
 20
0.0
 11
0.0
 21
0.0
 12
0.0
 22
0.0
 32
0.0
 14
0.0
 24
0.0
 34
0.0
 15
0.0
 25
0.0
 35
0.0
146
0.0
 13
0.0
 23
0.0
 33
0.0
 16
1.0
 26
0.0
 36
0.0
 17
0.0
 27
1.0
 37
0.0
 76
     0
330
23
  0
LAYOUT
  5
22
102
{ACAD_REACTORS
330
1A
102
}
330
1A
100
AcDbPlotSettings
  1

  2
none_device
  4

  6

 40
0.0
 41
0.0
 42
0.0
 43
0.0
 44
0.0
 45
0.0
 46
0.0
 47
0.0
 48
0.0
 49
0.0
140
0.0
141
0.0
142
1.0
143
1.0
 70
  1712
 72
     0
 73
     0
 74
     0
  7

 75
     0
 76
     0
 77
     2
 78
   300
147
1.0
148
0.0
149
0.0
100
AcDbLayout
  1
Model
 70
     1
 71
     0
 10
0.0
 20
0.0
 11
12.0
 21
9.0
 12
0.0
 22
0.0
 32
0.0
 14
-415.499999999989
 24
-267.0000000000051
 34
0.0
 15
-118.4999999999909
 25
-57.000000000005
 35
0.0
146
0.0
 13
0.0
 23
0.0
 33
0.0
 16
1.0
 26
0.0
 36
0.0
 17
0.0
 27
1.0
 37
0.0
 76
     0
330
1F
331
29
  0
MATERIAL
  5
3D
102
{ACAD_REACTORS
330
3B
102
}
102
{ACAD_XDICTIONARY
360
496
102
}
330
3B
100
AcDbMaterial
  1
ByBlock
  0
MATERIAL
  5
3C
102
{ACAD_REACTORS
330
3B
102
}
102
{ACAD_XDICTIONARY
360
494
102
}
330
3B
100
AcDbMaterial
  1
ByLayer
  0
MATERIAL
  5
3E
102
{ACAD_REACTORS
330
3B
102
}
102
{ACAD_XDICTIONARY
360
498
102
}
330
3B
100
AcDbMaterial
  1
Global
  0
MLINESTYLE
  5
18
102
{ACAD_REACTORS
330
17
102
}
330
17
100
AcDbMlineStyle
  2
Standard
 70
     0
  3

 62
   256
 51
90.0
 52
90.0
 71
     2
 49
0.5
 62
   256
  6
BYLAYER
 49
-0.5
 62
   256
  6
BYLAYER
  0
ACDBPLACEHOLDER
  5
F
102
{ACAD_REACTORS
330
E
102
}
330
E
  0
VISUALSTYLE
  5
2F
102
{ACAD_REACTORS
330
2A
102
}
102
{ACAD_XDICTIONARY
360
47C
102
}
330
2A
100
AcDbVisualStyle
  2
2dWireframe
 70
     4
 71
     0
 72
     2
 73
     0
 90
        0
 40
-0.6
 41
-30.0
 62
     5
 63
     7
421
 16777215
 74
     1
 91
        4
 64
     7
 65
   257
 75
     1
175
     1
 42
1.0
 92
        0
 66
   257
 43
1.0
 76
     1
 77
     6
 78
     2
 67
     7
 79
     5
170
     0
171
     0
290
     0
174
     0
 93
        1
 44
0.0
173
     0
291
     0
 45
0.0
1001
ACAD
1000
AcDbSavedByObjectVersion
1070
     0
  0
VISUALSTYLE
  5
31
102
{ACAD_REACTORS
330
2A
102
}
102
{ACAD_XDICTIONARY
360
480
102
}
330
2A
100
AcDbVisualStyle
  2
3D Hidden
 70
     6
 71
     1
 72
     2
 73
     2
 90
        0
 40
-0.6
 41
-30.0
 62
     5
 63
     7
421
 16777215
 74
     2
 91
        2
 64
     7
 65
   257
 75
     2
175
     1
 42
40.0
 92
        0
 66
   257
 43
1.0
 76
     1
 77
     6
 78
     2
 67
     7
 79
     3
170
     0
171
     0
290
     0
174
     0
 93
        1
 44
0.0
173
     0
291
     0
 45
0.0
1001
ACAD
1000
AcDbSavedByObjectVersion
1070
     0
  0
VISUALSTYLE
  5
30
102
{ACAD_REACTORS
330
2A
102
}
102
{ACAD_XDICTIONARY
360
47E
102
}
330
2A
100
AcDbVisualStyle
  2
3dWireframe
 70
     5
 71
     0
 72
     2
 73
     0
 90
        0
 40
-0.6
 41
-30.0
 62
     5
 63
     7
421
 16777215
 74
     1
 91
        4
 64
     7
 65
   257
 75
     1
175
     1
 42
1.0
 92
        0
 66
   257
 43
1.0
 76
     1
 77
     6
 78
     2
 67
     7
 79
     5
170
     0
171
     0
290
     0
174
     0
 93
        1
 44
0.0
173
     0
291
     0
 45
0.0
1001
ACAD
1000
AcDbSavedByObjectVersion
1070
     0
  0
VISUALSTYLE
  5
32
102
{ACAD_REACTORS
330
2A
102
}
102
{ACAD_XDICTIONARY
360
482
102
}
330
2A
100
AcDbVisualStyle
  2
Basic
 70
     7
 71
     1
 72
     0
 73
     1
 90
        0
 40
-0.6
 41
-30.0
 62
     5
 63
     7
421
 16777215
 74
     0
 91
        4
 64
     7
 65
   257
 75
     1
175
     1
 42
1.0
 92
        8
 66
     7
 43
1.0
 76
     1
 77
     6
 78
     2
 67
     7
 79
     5
170
     0
171
     0
290
     0
174
     0
 93
        1
 44
0.0
173
     0
291
     1
 45
0.0
1001
ACAD
1000
AcDbSavedByObjectVersion
1070
     0
  0
VISUALSTYLE
  5
36
102
{ACAD_REACTORS
330
2A
102
}
102
{ACAD_XDICTIONARY
360
48A
102
}
330
2A
100
AcDbVisualStyle
  2
Brighten
 70
    12
 71
     2
 72
     2
 73
     0
 90
        0
 40
-0.6
 41
-30.0
 62
     5
 63
     7
421
 16777215
 74
     1
 91
        4
 64
     7
 65
   257
 75
     1
175
     1
 42
1.0
 92
        8
 66
     7
 43
1.0
 76
     1
 77
     6
 78
     2
 67
     7
 79
     5
170
     0
171
     0
290
     0
174
     0
 93
        1
 44
50.0
173
     0
291
     1
 45
0.0
1001
ACAD
1000
AcDbSavedByObjectVersion
1070
     0
  0
VISUALSTYLE
  5
3A
102
{ACAD_REACTORS
330
2A
102
}
102
{ACAD_XDICTIONARY
360
492
102
}
330
2A
100
AcDbVisualStyle
  2
ColorChange
 70
    16
 71
     2
 72
     2
 73
     3
 90
        0
 40
-0.6
 41
-30.0
 62
     5
 63
     8
421
  8421504
 74
     1
 91
        4
 64
     7
 65
   257
 75
     1
175
     1
 42
1.0
 92
        8
 66
     8
424
  8421504
 43
1.0
 76
     1
 77
     6
 78
     2
 67
     7
 79
     5
170
     0
171
     0
290
     0
174
     0
 93
        1
 44
0.0
173
     0
291
     1
 45
0.0
1001
ACAD
1000
AcDbSavedByObjectVersion
1070
     0
  0
VISUALSTYLE
  5
34
102
{ACAD_REACTORS
330
2A
102
}
102
{ACAD_XDICTIONARY
360
486
102
}
330
2A
100
AcDbVisualStyle
  2
Conceptual
 70
     9
 71
     3
 72
     2
 73
     0
 90
        0
 40
-0.6
 41
-30.0
 62
     5
 63
     7
421
 16777215
 74
     2
 91
        2
 64
     7
 65
   257
 75
     1
175
     1
 42
40.0
 92
        8
 66
     7
 43
1.0
 76
     1
 77
     6
 78
     2
 67
     7
 79
     3
170
     0
171
     0
290
     0
174
     0
 93
        1
 44
0.0
173
     0
291
     0
 45
0.0
1001
ACAD
1000
AcDbSavedByObjectVersion
1070
     0
  0
VISUALSTYLE
  5
35
102
{ACAD_REACTORS
330
2A
102
}
102
{ACAD_XDICTIONARY
360
488
102
}
330
2A
100
AcDbVisualStyle
  2
Dim
 70
    11
 71
     2
 72
     2
 73
     0
 90
        0
 40
-0.6
 41
-30.0
 62
     5
 63
     7
421
 16777215
 74
     1
 91
        4
 64
     7
 65
   257
 75
     1
175
     1
 42
1.0
 92
        8
 66
     7
 43
1.0
 76
     1
 77
     6
 78
     2
 67
     7
 79
     5
170
     0
171
     0
290
     0
174
     0
 93
        1
 44
-50.0
173
     0
291
     1
 45
0.0
1001
ACAD
1000
AcDbSavedByObjectVersion
1070
     0
  0
VISUALSTYLE
  5
39
102
{ACAD_REACTORS
330
2A
102
}
102
{ACAD_XDICTIONARY
360
490
102
}
330
2A
100
AcDbVisualStyle
  2
Facepattern
 70
    15
 71
     2
 72
     2
 73
     0
 90
        0
 40
-0.6
 41
-30.0
 62
     5
 63
     7
421
 16777215
 74
     1
 91
        4
 64
     7
 65
   257
 75
     1
175
     1
 42
1.0
 92
        8
 66
     7
 43
1.0
 76
     1
 77
     6
 78
     2
 67
     7
 79
     5
170
     0
171
     0
290
     0
174
     0
 93
        1
 44
0.0
173
     0
291
     1
 45
0.0
1001
ACAD
1000
AcDbSavedByObjectVersion
1070
     0
  0
VISUALSTYLE
  5
2B
102
{ACAD_REACTORS
330
2A
102
}
102
{ACAD_XDICTIONARY
360
474
102
}
330
2A
100
AcDbVisualStyle
  2
Flat
 70
     0
 71
     2
 72
     1
 73
     1
 90
        2
 40
-0.6
 41
30.0
 62
     5
 63
     7
421
 16777215
 74
     0
 91
        4
 64
     7
 65
   257
 75
     1
175
     1
 42
1.0
 92
        8
 66
     7
 43
1.0
 76
     1
 77
     6
 78
     2
 67
     7
 79
     5
170
     0
171
     0
290
     0
174
     0
 93
       13
 44
0.0
173
     0
291
     1
 45
0.0
1001
ACAD
1000
AcDbSavedByObjectVersion
1070
     0
  0
VISUALSTYLE
  5
2C
102
{ACAD_REACTORS
330
2A
102
}
102
{ACAD_XDICTIONARY
360
476
102
}
330
2A
100
AcDbVisualStyle
  2
FlatWithEdges
 70
     1
 71
     2
 72
     1
 73
     1
 90
        2
 40
-0.6
 41
30.0
 62
     5
 63
     7
421
 16777215
 74
     1
 91
        4
 64
     7
 65
   257
 75
     1
175
     1
 42
1.0
 92
        0
 66
   257
 43
1.0
 76
     1
 77
     6
 78
     2
 67
     7
 79
     5
170
     0
171
     0
290
     0
174
     0
 93
       13
 44
0.0
173
     0
291
     1
 45
0.0
1001
ACAD
1000
AcDbSavedByObjectVersion
1070
     0
  0
VISUALSTYLE
  5
2D
102
{ACAD_REACTORS
330
2A
102
}
102
{ACAD_XDICTIONARY
360
478
102
}
330
2A
100
AcDbVisualStyle
  2
Gouraud
 70
     2
 71
     2
 72
     2
 73
     1
 90
        2
 40
-0.6
 41
30.0
 62
     5
 63
     7
421
 16777215
 74
     0
 91
        4
 64
     7
 65
   257
 75
     1
175
     1
 42
1.0
 92
        0
 66
     7
 43
1.0
 76
     1
 77
     6
 78
     2
 67
     7
 79
     5
170
     0
171
     0
290
     0
174
     0
 93
       13
 44
0.0
173
     0
291
     1
 45
0.0
1001
ACAD
1000
AcDbSavedByObjectVersion
1070
     0
  0
VISUALSTYLE
  5
2E
102
{ACAD_REACTORS
330
2A
102
}
102
{ACAD_XDICTIONARY
360
47A
102
}
330
2A
100
AcDbVisualStyle
  2
GouraudWithEdges
 70
     3
 71
     2
 72
     2
 73
     1
 90
        2
 40
-0.6
 41
30.0
 62
     5
 63
     7
421
 16777215
 74
     1
 91
        4
 64
     7
 65
   257
 75
     1
175
     1
 42
1.0
 92
        0
 66
   257
 43
1.0
 76
     1
 77
     6
 78
     2
 67
     7
 79
     5
170
     0
171
     0
290
     0
174
     0
 93
       13
 44
0.0
173
     0
291
     1
 45
0.0
1001
ACAD
1000
AcDbSavedByObjectVersion
1070
     0
  0
VISUALSTYLE
  5
38
102
{ACAD_REACTORS
330
2A
102
}
102
{ACAD_XDICTIONARY
360
48E
102
}
330
2A
100
AcDbVisualStyle
  2
Linepattern
 70
    14
 71
     2
 72
     2
 73
     0
 90
        0
 40
-0.6
 41
-30.0
 62
     5
 63
     7
421
 16777215
 74
     1
 91
        4
 64
     7
 65
   257
 75
     7
175
     7
 42
1.0
 92
        8
 66
     7
 43
1.0
 76
     1
 77
     6
 78
     2
 67
     7
 79
     5
170
     0
171
     0
290
     0
174
     0
 93
        1
 44
0.0
173
     0
291
     1
 45
0.0
1001
ACAD
1000
AcDbSavedByObjectVersion
1070
     0
  0
VISUALSTYLE
  5
33
102
{ACAD_REACTORS
330
2A
102
}
102
{ACAD_XDICTIONARY
360
484
102
}
330
2A
100
AcDbVisualStyle
  2
Realistic
 70
     8
 71
     2
 72
     2
 73
     0
 90
        0
 40
-0.6
 41
-30.0
 62
     5
 63
     7
421
 16777215
 74
     1
 91
        0
 64
     7
 65
   257
 75
     1
175
     1
 42
1.0
 92
        8
 66
     8
424
  7895160
 43
1.0
 76
     1
 77
     6
 78
     2
 67
     7
 79
     5
170
     0
171
     0
290
     0
174
     0
 93
       13
 44
0.0
173
     0
291
     0
 45
0.0
1001
ACAD
1000
AcDbSavedByObjectVersion
1070
     0
  0
VISUALSTYLE
  5
37
102
{ACAD_REACTORS
330
2A
102
}
102
{ACAD_XDICTIONARY
360
48C
102
}
330
2A
100
AcDbVisualStyle
  2
Thicken
 70
    13
 71
     2
 72
     2
 73
     0
 90
        0
 40
-0.6
 41
-30.0
 62
     5
 63
     7
421
 16777215
 74
     1
 91
        4
 64
     7
 65
   257
 75
     1
175
     1
 42
1.0
 92
       12
 66
     7
 43
1.0
 76
     1
 77
     6
 78
     2
 67
     7
 79
     5
170
     0
171
     0
290
     0
174
     0
 93
        1
 44
0.0
173
     0
291
     1
 45
0.0
1001
ACAD
1000
AcDbSavedByObjectVersion
1070
     0
  0
DICTIONARY
  5
496
330
3D
100
AcDbDictionary
280
     1
281
     1
  3
ACAD_XREC_ROUNDTRIP
360
497
  0
DICTIONARY
  5
494
330
3C
100
AcDbDictionary
280
     1
281
     1
  3
ACAD_XREC_ROUNDTRIP
360
495
  0
DICTIONARY
  5
498
330
3E
100
AcDbDictionary
280
     1
281
     1
  3
ACAD_XREC_ROUNDTRIP
360
499
  0
DICTIONARY
  5
47C
330
2F
100
AcDbDictionary
280
     1
281
     1
  3
ACAD_XREC_ROUNDTRIP
360
47D
  0
DICTIONARY
  5
480
330
31
100
AcDbDictionary
280
     1
281
     1
  3
ACAD_XREC_ROUNDTRIP
360
481
  0
DICTIONARY
  5
47E
330
30
100
AcDbDictionary
280
     1
281
     1
  3
ACAD_XREC_ROUNDTRIP
360
47F
  0
DICTIONARY
  5
482
330
32
100
AcDbDictionary
280
     1
281
     1
  3
ACAD_XREC_ROUNDTRIP
360
483
  0
DICTIONARY
  5
48A
330
36
100
AcDbDictionary
280
     1
281
     1
  3
ACAD_XREC_ROUNDTRIP
360
48B
  0
DICTIONARY
  5
492
330
3A
100
AcDbDictionary
280
     1
281
     1
  3
ACAD_XREC_ROUNDTRIP
360
493
  0
DICTIONARY
  5
486
330
34
100
AcDbDictionary
280
     1
281
     1
  3
ACAD_XREC_ROUNDTRIP
360
487
  0
DICTIONARY
  5
488
330
35
100
AcDbDictionary
280
     1
281
     1
  3
ACAD_XREC_ROUNDTRIP
360
489
  0
DICTIONARY
  5
490
330
39
100
AcDbDictionary
280
     1
281
     1
  3
ACAD_XREC_ROUNDTRIP
360
491
  0
DICTIONARY
  5
474
330
2B
100
AcDbDictionary
280
     1
281
     1
  3
ACAD_XREC_ROUNDTRIP
360
475
  0
DICTIONARY
  5
476
330
2C
100
AcDbDictionary
280
     1
281
     1
  3
ACAD_XREC_ROUNDTRIP
360
477
  0
DICTIONARY
  5
478
330
2D
100
AcDbDictionary
280
     1
281
     1
  3
ACAD_XREC_ROUNDTRIP
360
479
  0
DICTIONARY
  5
47A
330
2E
100
AcDbDictionary
280
     1
281
     1
  3
ACAD_XREC_ROUNDTRIP
360
47B
  0
DICTIONARY
  5
48E
330
38
100
AcDbDictionary
280
     1
281
     1
  3
ACAD_XREC_ROUNDTRIP
360
48F
  0
DICTIONARY
  5
484
330
33
100
AcDbDictionary
280
     1
281
     1
  3
ACAD_XREC_ROUNDTRIP
360
485
  0
DICTIONARY
  5
48C
330
37
100
AcDbDictionary
280
     1
281
     1
  3
ACAD_XREC_ROUNDTRIP
360
48D
  0
XRECORD
  5
497
102
{ACAD_REACTORS
330
496
102
}
330
496
100
AcDbXrecord
280
     1
102
MATERIAL
148
0.0
149
0.0
149
0.0
 93
        0
 94
      127
282
     0
 72
     1
 77
     1
171
     1
175
     1
179
     1
273
     0
  0
XRECORD
  5
495
102
{ACAD_REACTORS
330
494
102
}
330
494
100
AcDbXrecord
280
     1
102
MATERIAL
148
0.0
149
0.0
149
0.0
 93
        0
 94
      127
282
     0
 72
     1
 77
     1
171
     1
175
     1
179
     1
273
     0
  0
XRECORD
  5
499
102
{ACAD_REACTORS
330
498
102
}
330
498
100
AcDbXrecord
280
     1
102
MATERIAL
148
0.0
149
0.0
149
0.0
 93
        0
 94
      127
282
     0
 72
     1
 77
     1
171
     1
175
     1
179
     1
273
     0
  0
XRECORD
  5
47D
102
{ACAD_REACTORS
330
47C
102
}
330
47C
100
AcDbXrecord
280
     1
102
RTVSPropertyOp0
 70
     1
102
RTVSPropertyOp1
 70
     1
102
RTVSPropertyOp2
 70
     1
102
RTVSPropertyOp3
 70
     1
102
RTVSPropertyOp4
 70
     1
102
RTVSPropertyOp5
 70
     1
102
RTVSPropertyOp6
 70
     1
102
RTVSPropertyOp7
 70
     1
102
RTVSPropertyOp8
 70
     1
102
RTVSPropertyOp9
 70
     1
102
RTVSPropertyOp10
 70
     1
102
RTVSPropertyOp11
 70
     1
102
RTVSPropertyOp12
 70
     1
102
RTVSPropertyOp13
 70
     1
102
RTVSPropertyOp14
 70
     1
102
RTVSPropertyOp15
 70
     1
102
RTVSPropertyOp16
 70
     1
102
RTVSPropertyOp17
 70
     1
102
RTVSPropertyOp18
 70
     1
102
RTVSPropertyOp19
 70
     1
102
RTVSPropertyOp20
 70
     1
102
RTVSPropertyOp21
 70
     1
102
RTVSPropertyOp22
 70
     1
102
RTVSPropertyOp23
 70
     1
102
RTVSPropertyOp24
 70
     1
102
RTVSPropertyOp25
 70
     1
102
RTVSPropertyOp26
 70
     1
102
RTVSPropertyOp27
 70
     1
102
RTVSPropertyOp28
 70
     1
102
RTVSPropertyOp29
 70
     1
102
RTVSPropertyOp30
 70
     1
102
RTVSPropertyOp31
 70
     1
102
RTVSPropertyOp32
 70
     1
  0
XRECORD
  5
481
102
{ACAD_REACTORS
330
480
102
}
330
480
100
AcDbXrecord
280
     1
102
RTVSPropertyOp0
 70
     1
102
RTVSPropertyOp1
 70
     1
102
RTVSPropertyOp2
 70
     1
102
RTVSPropertyOp3
 70
     1
102
RTVSPropertyOp4
 70
     1
102
RTVSPropertyOp5
 70
     1
102
RTVSPropertyOp6
 70
     1
102
RTVSPropertyOp7
 70
     1
102
RTVSPropertyOp8
 70
     1
102
RTVSPropertyOp9
 70
     1
102
RTVSPropertyOp10
 70
     1
102
RTVSPropertyOp11
 70
     1
102
RTVSPropertyOp12
 70
     1
102
RTVSPropertyOp13
 70
     1
102
RTVSPropertyOp14
 70
     1
102
RTVSPropertyOp15
 70
     1
102
RTVSPropertyOp16
 70
     1
102
RTVSPropertyOp17
 70
     1
102
RTVSPropertyOp18
 70
     1
102
RTVSPropertyOp19
 70
     1
102
RTVSPropertyOp20
 70
     1
102
RTVSPropertyOp21
 70
     1
102
RTVSPropertyOp22
 70
     1
102
RTVSPropertyOp23
 70
     1
102
RTVSPropertyOp24
 70
     1
102
RTVSPropertyOp25
 70
     1
102
RTVSPropertyOp26
 70
     1
102
RTVSPropertyOp27
 70
     1
102
RTVSPropertyOp28
 70
     1
102
RTVSPropertyOp29
 70
     1
102
RTVSPropertyOp30
 70
     1
102
RTVSPropertyOp31
 70
     1
102
RTVSPropertyOp32
 70
     1
  0
XRECORD
  5
47F
102
{ACAD_REACTORS
330
47E
102
}
330
47E
100
AcDbXrecord
280
     1
102
RTVSPropertyOp0
 70
     1
102
RTVSPropertyOp1
 70
     1
102
RTVSPropertyOp2
 70
     1
102
RTVSPropertyOp3
 70
     1
102
RTVSPropertyOp4
 70
     1
102
RTVSPropertyOp5
 70
     1
102
RTVSPropertyOp6
 70
     1
102
RTVSPropertyOp7
 70
     1
102
RTVSPropertyOp8
 70
     1
102
RTVSPropertyOp9
 70
     1
102
RTVSPropertyOp10
 70
     1
102
RTVSPropertyOp11
 70
     1
102
RTVSPropertyOp12
 70
     1
102
RTVSPropertyOp13
 70
     1
102
RTVSPropertyOp14
 70
     1
102
RTVSPropertyOp15
 70
     1
102
RTVSPropertyOp16
 70
     1
102
RTVSPropertyOp17
 70
     1
102
RTVSPropertyOp18
 70
     1
102
RTVSPropertyOp19
 70
     1
102
RTVSPropertyOp20
 70
     1
102
RTVSPropertyOp21
 70
     1
102
RTVSPropertyOp22
 70
     1
102
RTVSPropertyOp23
 70
     1
102
RTVSPropertyOp24
 70
     1
102
RTVSPropertyOp25
 70
     1
102
RTVSPropertyOp26
 70
     1
102
RTVSPropertyOp27
 70
     1
102
RTVSPropertyOp28
 70
     1
102
RTVSPropertyOp29
 70
     1
102
RTVSPropertyOp30
 70
     1
102
RTVSPropertyOp31
 70
     1
102
RTVSPropertyOp32
 70
     1
  0
XRECORD
  5
483
102
{ACAD_REACTORS
330
482
102
}
330
482
100
AcDbXrecord
280
     1
102
RTVSPropertyOp0
 70
     1
102
RTVSPropertyOp1
 70
     1
102
RTVSPropertyOp2
 70
     1
102
RTVSPropertyOp3
 70
     1
102
RTVSPropertyOp4
 70
     1
102
RTVSPropertyOp5
 70
     1
102
RTVSPropertyOp6
 70
     1
102
RTVSPropertyOp7
 70
     1
102
RTVSPropertyOp8
 70
     1
102
RTVSPropertyOp9
 70
     1
102
RTVSPropertyOp10
 70
     1
102
RTVSPropertyOp11
 70
     1
102
RTVSPropertyOp12
 70
     1
102
RTVSPropertyOp13
 70
     1
102
RTVSPropertyOp14
 70
     1
102
RTVSPropertyOp15
 70
     1
102
RTVSPropertyOp16
 70
     1
102
RTVSPropertyOp17
 70
     1
102
RTVSPropertyOp18
 70
     1
102
RTVSPropertyOp19
 70
     1
102
RTVSPropertyOp20
 70
     1
102
RTVSPropertyOp21
 70
     1
102
RTVSPropertyOp22
 70
     1
102
RTVSPropertyOp23
 70
     1
102
RTVSPropertyOp24
 70
     1
102
RTVSPropertyOp25
 70
     1
102
RTVSPropertyOp26
 70
     1
102
RTVSPropertyOp27
 70
     1
102
RTVSPropertyOp28
 70
     1
102
RTVSPropertyOp29
 70
     1
102
RTVSPropertyOp30
 70
     1
102
RTVSPropertyOp31
 70
     1
102
RTVSPropertyOp32
 70
     1
  0
XRECORD
  5
48B
102
{ACAD_REACTORS
330
48A
102
}
330
48A
100
AcDbXrecord
280
     1
102
RTVSPropertyOp0
 70
     1
102
RTVSPropertyOp1
 70
     1
102
RTVSPropertyOp2
 70
     1
102
RTVSPropertyOp3
 70
     1
102
RTVSPropertyOp4
 70
     1
102
RTVSPropertyOp5
 70
     1
102
RTVSPropertyOp6
 70
     1
102
RTVSPropertyOp7
 70
     1
102
RTVSPropertyOp8
 70
     1
102
RTVSPropertyOp9
 70
     1
102
RTVSPropertyOp10
 70
     1
102
RTVSPropertyOp11
 70
     1
102
RTVSPropertyOp12
 70
     1
102
RTVSPropertyOp13
 70
     1
102
RTVSPropertyOp14
 70
     1
102
RTVSPropertyOp15
 70
     1
102
RTVSPropertyOp16
 70
     1
102
RTVSPropertyOp17
 70
     1
102
RTVSPropertyOp18
 70
     1
102
RTVSPropertyOp19
 70
     1
102
RTVSPropertyOp20
 70
     1
102
RTVSPropertyOp21
 70
     1
102
RTVSPropertyOp22
 70
     1
102
RTVSPropertyOp23
 70
     1
102
RTVSPropertyOp24
 70
     1
102
RTVSPropertyOp25
 70
     1
102
RTVSPropertyOp26
 70
     1
102
RTVSPropertyOp27
 70
     1
102
RTVSPropertyOp28
 70
     1
102
RTVSPropertyOp29
 70
     1
102
RTVSPropertyOp30
 70
     1
102
RTVSPropertyOp31
 70
     1
102
RTVSPropertyOp32
 70
     1
  0
XRECORD
  5
493
102
{ACAD_REACTORS
330
492
102
}
330
492
100
AcDbXrecord
280
     1
102
RTVSPropertyOp0
 70
     1
102
RTVSPropertyOp1
 70
     1
102
RTVSPropertyOp2
 70
     1
102
RTVSPropertyOp3
 70
     1
102
RTVSPropertyOp4
 70
     1
102
RTVSPropertyOp5
 70
     1
102
RTVSPropertyOp6
 70
     1
102
RTVSPropertyOp7
 70
     1
102
RTVSPropertyOp8
 70
     1
102
RTVSPropertyOp9
 70
     1
102
RTVSPropertyOp10
 70
     1
102
RTVSPropertyOp11
 70
     1
102
RTVSPropertyOp12
 70
     1
102
RTVSPropertyOp13
 70
     1
102
RTVSPropertyOp14
 70
     1
102
RTVSPropertyOp15
 70
     1
102
RTVSPropertyOp16
 70
     1
102
RTVSPropertyOp17
 70
     1
102
RTVSPropertyOp18
 70
     1
102
RTVSPropertyOp19
 70
     1
102
RTVSPropertyOp20
 70
     1
102
RTVSPropertyOp21
 70
     1
102
RTVSPropertyOp22
 70
     1
102
RTVSPropertyOp23
 70
     1
102
RTVSPropertyOp24
 70
     1
102
RTVSPropertyOp25
 70
     1
102
RTVSPropertyOp26
 70
     1
102
RTVSPropertyOp27
 70
     1
102
RTVSPropertyOp28
 70
     1
102
RTVSPropertyOp29
 70
     1
102
RTVSPropertyOp30
 70
     1
102
RTVSPropertyOp31
 70
     1
102
RTVSPropertyOp32
 70
     1
  0
XRECORD
  5
487
102
{ACAD_REACTORS
330
486
102
}
330
486
100
AcDbXrecord
280
     1
102
RTVSPropertyOp0
 70
     1
102
RTVSPropertyOp1
 70
     1
102
RTVSPropertyOp2
 70
     1
102
RTVSPropertyOp3
 70
     1
102
RTVSPropertyOp4
 70
     1
102
RTVSPropertyOp5
 70
     1
102
RTVSPropertyOp6
 70
     1
102
RTVSPropertyOp7
 70
     1
102
RTVSPropertyOp8
 70
     1
102
RTVSPropertyOp9
 70
     1
102
RTVSPropertyOp10
 70
     1
102
RTVSPropertyOp11
 70
     1
102
RTVSPropertyOp12
 70
     1
102
RTVSPropertyOp13
 70
     1
102
RTVSPropertyOp14
 70
     1
102
RTVSPropertyOp15
 70
     1
102
RTVSPropertyOp16
 70
     1
102
RTVSPropertyOp17
 70
     1
102
RTVSPropertyOp18
 70
     1
102
RTVSPropertyOp19
 70
     1
102
RTVSPropertyOp20
 70
     1
102
RTVSPropertyOp21
 70
     1
102
RTVSPropertyOp22
 70
     1
102
RTVSPropertyOp23
 70
     1
102
RTVSPropertyOp24
 70
     1
102
RTVSPropertyOp25
 70
     1
102
RTVSPropertyOp26
 70
     1
102
RTVSPropertyOp27
 70
     1
102
RTVSPropertyOp28
 70
     1
102
RTVSPropertyOp29
 70
     1
102
RTVSPropertyOp30
 70
     1
102
RTVSPropertyOp31
 70
     1
102
RTVSPropertyOp32
 70
     1
  0
XRECORD
  5
489
102
{ACAD_REACTORS
330
488
102
}
330
488
100
AcDbXrecord
280
     1
102
RTVSPropertyOp0
 70
     1
102
RTVSPropertyOp1
 70
     1
102
RTVSPropertyOp2
 70
     1
102
RTVSPropertyOp3
 70
     1
102
RTVSPropertyOp4
 70
     1
102
RTVSPropertyOp5
 70
     1
102
RTVSPropertyOp6
 70
     1
102
RTVSPropertyOp7
 70
     1
102
RTVSPropertyOp8
 70
     1
102
RTVSPropertyOp9
 70
     1
102
RTVSPropertyOp10
 70
     1
102
RTVSPropertyOp11
 70
     1
102
RTVSPropertyOp12
 70
     1
102
RTVSPropertyOp13
 70
     1
102
RTVSPropertyOp14
 70
     1
102
RTVSPropertyOp15
 70
     1
102
RTVSPropertyOp16
 70
     1
102
RTVSPropertyOp17
 70
     1
102
RTVSPropertyOp18
 70
     1
102
RTVSPropertyOp19
 70
     1
102
RTVSPropertyOp20
 70
     1
102
RTVSPropertyOp21
 70
     1
102
RTVSPropertyOp22
 70
     1
102
RTVSPropertyOp23
 70
     1
102
RTVSPropertyOp24
 70
     1
102
RTVSPropertyOp25
 70
     1
102
RTVSPropertyOp26
 70
     1
102
RTVSPropertyOp27
 70
     1
102
RTVSPropertyOp28
 70
     1
102
RTVSPropertyOp29
 70
     1
102
RTVSPropertyOp30
 70
     1
102
RTVSPropertyOp31
 70
     1
102
RTVSPropertyOp32
 70
     1
  0
XRECORD
  5
491
102
{ACAD_REACTORS
330
490
102
}
330
490
100
AcDbXrecord
280
     1
102
RTVSPropertyOp0
 70
     1
102
RTVSPropertyOp1
 70
     1
102
RTVSPropertyOp2
 70
     1
102
RTVSPropertyOp3
 70
     1
102
RTVSPropertyOp4
 70
     1
102
RTVSPropertyOp5
 70
     1
102
RTVSPropertyOp6
 70
     1
102
RTVSPropertyOp7
 70
     1
102
RTVSPropertyOp8
 70
     1
102
RTVSPropertyOp9
 70
     1
102
RTVSPropertyOp10
 70
     1
102
RTVSPropertyOp11
 70
     1
102
RTVSPropertyOp12
 70
     1
102
RTVSPropertyOp13
 70
     1
102
RTVSPropertyOp14
 70
     1
102
RTVSPropertyOp15
 70
     1
102
RTVSPropertyOp16
 70
     1
102
RTVSPropertyOp17
 70
     1
102
RTVSPropertyOp18
 70
     1
102
RTVSPropertyOp19
 70
     1
102
RTVSPropertyOp20
 70
     1
102
RTVSPropertyOp21
 70
     1
102
RTVSPropertyOp22
 70
     1
102
RTVSPropertyOp23
 70
     1
102
RTVSPropertyOp24
 70
     1
102
RTVSPropertyOp25
 70
     1
102
RTVSPropertyOp26
 70
     1
102
RTVSPropertyOp27
 70
     1
102
RTVSPropertyOp28
 70
     1
102
RTVSPropertyOp29
 70
     1
102
RTVSPropertyOp30
 70
     1
102
RTVSPropertyOp31
 70
     1
102
RTVSPropertyOp32
 70
     1
  0
XRECORD
  5
475
102
{ACAD_REACTORS
330
474
102
}
330
474
100
AcDbXrecord
280
     1
102
RTVSPropertyOp0
 70
     1
102
RTVSPropertyOp1
 70
     1
102
RTVSPropertyOp2
 70
     1
102
RTVSPropertyOp3
 70
     1
102
RTVSPropertyOp4
 70
     1
102
RTVSPropertyOp5
 70
     1
102
RTVSPropertyOp6
 70
     1
102
RTVSPropertyOp7
 70
     1
102
RTVSPropertyOp8
 70
     1
102
RTVSPropertyOp9
 70
     1
102
RTVSPropertyOp10
 70
     1
102
RTVSPropertyOp11
 70
     1
102
RTVSPropertyOp12
 70
     1
102
RTVSPropertyOp13
 70
     1
102
RTVSPropertyOp14
 70
     1
102
RTVSPropertyOp15
 70
     1
102
RTVSPropertyOp16
 70
     1
102
RTVSPropertyOp17
 70
     1
102
RTVSPropertyOp18
 70
     1
102
RTVSPropertyOp19
 70
     1
102
RTVSPropertyOp20
 70
     1
102
RTVSPropertyOp21
 70
     1
102
RTVSPropertyOp22
 70
     1
102
RTVSPropertyOp23
 70
     1
102
RTVSPropertyOp24
 70
     1
102
RTVSPropertyOp25
 70
     1
102
RTVSPropertyOp26
 70
     1
102
RTVSPropertyOp27
 70
     1
102
RTVSPropertyOp28
 70
     1
102
RTVSPropertyOp29
 70
     1
102
RTVSPropertyOp30
 70
     1
102
RTVSPropertyOp31
 70
     1
102
RTVSPropertyOp32
 70
     1
  0
XRECORD
  5
477
102
{ACAD_REACTORS
330
476
102
}
330
476
100
AcDbXrecord
280
     1
102
RTVSPropertyOp0
 70
     1
102
RTVSPropertyOp1
 70
     1
102
RTVSPropertyOp2
 70
     1
102
RTVSPropertyOp3
 70
     1
102
RTVSPropertyOp4
 70
     1
102
RTVSPropertyOp5
 70
     1
102
RTVSPropertyOp6
 70
     1
102
RTVSPropertyOp7
 70
     1
102
RTVSPropertyOp8
 70
     1
102
RTVSPropertyOp9
 70
     1
102
RTVSPropertyOp10
 70
     1
102
RTVSPropertyOp11
 70
     1
102
RTVSPropertyOp12
 70
     1
102
RTVSPropertyOp13
 70
     1
102
RTVSPropertyOp14
 70
     1
102
RTVSPropertyOp15
 70
     1
102
RTVSPropertyOp16
 70
     1
102
RTVSPropertyOp17
 70
     1
102
RTVSPropertyOp18
 70
     1
102
RTVSPropertyOp19
 70
     1
102
RTVSPropertyOp20
 70
     1
102
RTVSPropertyOp21
 70
     1
102
RTVSPropertyOp22
 70
     1
102
RTVSPropertyOp23
 70
     1
102
RTVSPropertyOp24
 70
     1
102
RTVSPropertyOp25
 70
     1
102
RTVSPropertyOp26
 70
     1
102
RTVSPropertyOp27
 70
     1
102
RTVSPropertyOp28
 70
     1
102
RTVSPropertyOp29
 70
     1
102
RTVSPropertyOp30
 70
     1
102
RTVSPropertyOp31
 70
     1
102
RTVSPropertyOp32
 70
     1
  0
XRECORD
  5
479
102
{ACAD_REACTORS
330
478
102
}
330
478
100
AcDbXrecord
280
     1
102
RTVSPropertyOp0
 70
     1
102
RTVSPropertyOp1
 70
     1
102
RTVSPropertyOp2
 70
     1
102
RTVSPropertyOp3
 70
     1
102
RTVSPropertyOp4
 70
     1
102
RTVSPropertyOp5
 70
     1
102
RTVSPropertyOp6
 70
     1
102
RTVSPropertyOp7
 70
     1
102
RTVSPropertyOp8
 70
     1
102
RTVSPropertyOp9
 70
     1
102
RTVSPropertyOp10
 70
     1
102
RTVSPropertyOp11
 70
     1
102
RTVSPropertyOp12
 70
     1
102
RTVSPropertyOp13
 70
     1
102
RTVSPropertyOp14
 70
     1
102
RTVSPropertyOp15
 70
     1
102
RTVSPropertyOp16
 70
     1
102
RTVSPropertyOp17
 70
     1
102
RTVSPropertyOp18
 70
     1
102
RTVSPropertyOp19
 70
     1
102
RTVSPropertyOp20
 70
     1
102
RTVSPropertyOp21
 70
     1
102
RTVSPropertyOp22
 70
     1
102
RTVSPropertyOp23
 70
     1
102
RTVSPropertyOp24
 70
     1
102
RTVSPropertyOp25
 70
     1
102
RTVSPropertyOp26
 70
     1
102
RTVSPropertyOp27
 70
     1
102
RTVSPropertyOp28
 70
     1
102
RTVSPropertyOp29
 70
     1
102
RTVSPropertyOp30
 70
     1
102
RTVSPropertyOp31
 70
     1
102
RTVSPropertyOp32
 70
     1
  0
XRECORD
  5
47B
102
{ACAD_REACTORS
330
47A
102
}
330
47A
100
AcDbXrecord
280
     1
102
RTVSPropertyOp0
 70
     1
102
RTVSPropertyOp1
 70
     1
102
RTVSPropertyOp2
 70
     1
102
RTVSPropertyOp3
 70
     1
102
RTVSPropertyOp4
 70
     1
102
RTVSPropertyOp5
 70
     1
102
RTVSPropertyOp6
 70
     1
102
RTVSPropertyOp7
 70
     1
102
RTVSPropertyOp8
 70
     1
102
RTVSPropertyOp9
 70
     1
102
RTVSPropertyOp10
 70
     1
102
RTVSPropertyOp11
 70
     1
102
RTVSPropertyOp12
 70
     1
102
RTVSPropertyOp13
 70
     1
102
RTVSPropertyOp14
 70
     1
102
RTVSPropertyOp15
 70
     1
102
RTVSPropertyOp16
 70
     1
102
RTVSPropertyOp17
 70
     1
102
RTVSPropertyOp18
 70
     1
102
RTVSPropertyOp19
 70
     1
102
RTVSPropertyOp20
 70
     1
102
RTVSPropertyOp21
 70
     1
102
RTVSPropertyOp22
 70
     1
102
RTVSPropertyOp23
 70
     1
102
RTVSPropertyOp24
 70
     1
102
RTVSPropertyOp25
 70
     1
102
RTVSPropertyOp26
 70
     1
102
RTVSPropertyOp27
 70
     1
102
RTVSPropertyOp28
 70
     1
102
RTVSPropertyOp29
 70
     1
102
RTVSPropertyOp30
 70
     1
102
RTVSPropertyOp31
 70
     1
102
RTVSPropertyOp32
 70
     1
  0
XRECORD
  5
48F
102
{ACAD_REACTORS
330
48E
102
}
330
48E
100
AcDbXrecord
280
     1
102
RTVSPropertyOp0
 70
     1
102
RTVSPropertyOp1
 70
     1
102
RTVSPropertyOp2
 70
     1
102
RTVSPropertyOp3
 70
     1
102
RTVSPropertyOp4
 70
     1
102
RTVSPropertyOp5
 70
     1
102
RTVSPropertyOp6
 70
     1
102
RTVSPropertyOp7
 70
     1
102
RTVSPropertyOp8
 70
     1
102
RTVSPropertyOp9
 70
     1
102
RTVSPropertyOp10
 70
     1
102
RTVSPropertyOp11
 70
     1
102
RTVSPropertyOp12
 70
     1
102
RTVSPropertyOp13
 70
     1
102
RTVSPropertyOp14
 70
     1
102
RTVSPropertyOp15
 70
     1
102
RTVSPropertyOp16
 70
     1
102
RTVSPropertyOp17
 70
     1
102
RTVSPropertyOp18
 70
     1
102
RTVSPropertyOp19
 70
     1
102
RTVSPropertyOp20
 70
     1
102
RTVSPropertyOp21
 70
     1
102
RTVSPropertyOp22
 70
     1
102
RTVSPropertyOp23
 70
     1
102
RTVSPropertyOp24
 70
     1
102
RTVSPropertyOp25
 70
     1
102
RTVSPropertyOp26
 70
     1
102
RTVSPropertyOp27
 70
     1
102
RTVSPropertyOp28
 70
     1
102
RTVSPropertyOp29
 70
     1
102
RTVSPropertyOp30
 70
     1
102
RTVSPropertyOp31
 70
     1
102
RTVSPropertyOp32
 70
     1
  0
XRECORD
  5
485
102
{ACAD_REACTORS
330
484
102
}
330
484
100
AcDbXrecord
280
     1
102
RTVSPropertyOp0
 70
     1
102
RTVSPropertyOp1
 70
     1
102
RTVSPropertyOp2
 70
     1
102
RTVSPropertyOp3
 70
     1
102
RTVSPropertyOp4
 70
     1
102
RTVSPropertyOp5
 70
     1
102
RTVSPropertyOp6
 70
     1
102
RTVSPropertyOp7
 70
     1
102
RTVSPropertyOp8
 70
     1
102
RTVSPropertyOp9
 70
     1
102
RTVSPropertyOp10
 70
     1
102
RTVSPropertyOp11
 70
     1
102
RTVSPropertyOp12
 70
     1
102
RTVSPropertyOp13
 70
     1
102
RTVSPropertyOp14
 70
     1
102
RTVSPropertyOp15
 70
     1
102
RTVSPropertyOp16
 70
     1
102
RTVSPropertyOp17
 70
     1
102
RTVSPropertyOp18
 70
     1
102
RTVSPropertyOp19
 70
     1
102
RTVSPropertyOp20
 70
     1
102
RTVSPropertyOp21
 70
     1
102
RTVSPropertyOp22
 70
     1
102
RTVSPropertyOp23
 70
     1
102
RTVSPropertyOp24
 70
     1
102
RTVSPropertyOp25
 70
     1
102
RTVSPropertyOp26
 70
     1
102
RTVSPropertyOp27
 70
     1
102
RTVSPropertyOp28
 70
     1
102
RTVSPropertyOp29
 70
     1
102
RTVSPropertyOp30
 70
     1
102
RTVSPropertyOp31
 70
     1
102
RTVSPropertyOp32
 70
     1
  0
XRECORD
  5
48D
102
{ACAD_REACTORS
330
48C
102
}
330
48C
100
AcDbXrecord
280
     1
102
RTVSPropertyOp0
 70
     1
102
RTVSPropertyOp1
 70
     1
102
RTVSPropertyOp2
 70
     1
102
RTVSPropertyOp3
 70
     1
102
RTVSPropertyOp4
 70
     1
102
RTVSPropertyOp5
 70
     1
102
RTVSPropertyOp6
 70
     1
102
RTVSPropertyOp7
 70
     1
102
RTVSPropertyOp8
 70
     1
102
RTVSPropertyOp9
 70
     1
102
RTVSPropertyOp10
 70
     1
102
RTVSPropertyOp11
 70
     1
102
RTVSPropertyOp12
 70
     1
102
RTVSPropertyOp13
 70
     1
102
RTVSPropertyOp14
 70
     1
102
RTVSPropertyOp15
 70
     1
102
RTVSPropertyOp16
 70
     1
102
RTVSPropertyOp17
 70
     1
102
RTVSPropertyOp18
 70
     1
102
RTVSPropertyOp19
 70
     1
102
RTVSPropertyOp20
 70
     1
102
RTVSPropertyOp21
 70
     1
102
RTVSPropertyOp22
 70
     1
102
RTVSPropertyOp23
 70
     1
102
RTVSPropertyOp24
 70
     1
102
RTVSPropertyOp25
 70
     1
102
RTVSPropertyOp26
 70
     1
102
RTVSPropertyOp27
 70
     1
102
RTVSPropertyOp28
 70
     1
102
RTVSPropertyOp29
 70
     1
102
RTVSPropertyOp30
 70
     1
102
RTVSPropertyOp31
 70
     1
102
RTVSPropertyOp32
 70
     1
  0
ENDSEC
  0
EOF
