  0
SECTION
  2
HEADER
  9
$ACADVER
  1
AC1018
  9
$ACADMAINTVER
 70
     0
  9
$DWGCODEPAGE
  3
ANSI_1252
  9
$INSBASE
 10
0.0
 20
0.0
 30
0.0
  9
$EXTMIN
 10
-415.499999999989
 20
-267.0000000000051
 30
0.0
  9
$EXTMAX
 10
-118.4999999999909
 20
-57.000000000005
 30
0.0
  9
$LIMMIN
 10
0.0
 20
0.0
  9
$LIMMAX
 10
12.0
 20
9.0
  9
$ORTHOMODE
 70
     0
  9
$REGENMODE
 70
     1
  9
$FILLMODE
 70
     1
  9
$QTEXTMODE
 70
     0
  9
$MIRRTEXT
 70
     1
  9
$LTSCALE
 40
1.0
  9
$ATTMODE
 70
     1
  9
$TEXTSIZE
 40
0.2
  9
$TRACEWID
 40
0.05
  9
$TEXTSTYLE
  7
Standard
  9
$CLAYER
  8
0
  9
$CELTYPE
  6
ByLayer
  9
$CECOLOR
 62
   256
  9
$CELTSCALE
 40
1.0
  9
$DISPSILH
 70
     0
  9
$DIMSCALE
 40
1.0
  9
$DIMASZ
 40
0.18
  9
$DIMEXO
 40
0.0625
  9
$DIMDLI
 40
0.38
  9
$DIMRND
 40
0.0
  9
$DIMDLE
 40
0.0
  9
$DIMEXE
 40
0.18
  9
$DIMTP
 40
0.0
  9
$DIMTM
 40
0.0
  9
$DIMTXT
 40
0.18
  9
$DIMCEN
 40
0.09
  9
$DIMTSZ
 40
0.0
  9
$DIMTOL
 70
     0
  9
$DIMLIM
 70
     0
  9
$DIMTIH
 70
     1
  9
$DIMTOH
 70
     1
  9
$DIMSE1
 70
     0
  9
$DIMSE2
 70
     0
  9
$DIMTAD
 70
     0
  9
$DIMZIN
 70
     0
  9
$DIMBLK
  1

  9
$DIMASO
 70
     1
  9
$DIMSHO
 70
     1
  9
$DIMPOST
  1

  9
$DIMAPOST
  1

  9
$DIMALT
 70
     0
  9
$DIMALTD
 70
     2
  9
$DIMALTF
 40
25.4
  9
$DIMLFAC
 40
1.0
  9
$DIMTOFL
 70
     0
  9
$DIMTVP
 40
0.0
  9
$DIMTIX
 70
     0
  9
$DIMSOXD
 70
     0
  9
$DIMSAH
 70
     0
  9
$DIMBLK1
  1

  9
$DIMBLK2
  1

  9
$DIMSTYLE
  2
Standard
  9
$DIMCLRD
 70
     0
  9
$DIMCLRE
 70
     0
  9
$DIMCLRT
 70
     0
  9
$DIMTFAC
 40
1.0
  9
$DIMGAP
 40
0.09
  9
$DIMJUST
 70
     0
  9
$DIMSD1
 70
     0
  9
$DIMSD2
 70
     0
  9
$DIMTOLJ
 70
     1
  9
$DIMTZIN
 70
     0
  9
$DIMALTZ
 70
     0
  9
$DIMALTTZ
 70
     0
  9
$DIMUPT
 70
     0
  9
$DIMDEC
 70
     4
  9
$DIMTDEC
 70
     4
  9
$DIMALTU
 70
     2
  9
$DIMALTTD
 70
     2
  9
$DIMTXSTY
  7
Standard
  9
$DIMAUNIT
 70
     0
  9
$DIMADEC
 70
     0
  9
$DIMALTRND
 40
0.0
  9
$DIMAZIN
 70
     0
  9
$DIMDSEP
 70
    46
  9
$DIMATFIT
 70
     3
  9
$DIMFRAC
 70
     0
  9
$DIMLDRBLK
  1

  9
$DIMLUNIT
 70
     2
  9
$DIMLWD
 70
    -2
  9
$DIMLWE
 70
    -2
  9
$DIMTMOVE
 70
     0
  9
$LUNITS
 70
     2
  9
$LUPREC
 70
     4
  9
$SKETCHINC
 40
0.1
  9
$FILLETRAD
 40
0.5
  9
$AUNITS
 70
     0
  9
$AUPREC
 70
     0
  9
$MENU
  1
.
  9
$ELEVATION
 40
0.0
  9
$PELEVATION
 40
0.0
  9
$THICKNESS
 40
0.0
  9
$LIMCHECK
 70
     0
  9
$CHAMFERA
 40
0.5
  9
$CHAMFERB
 40
0.5
  9
$CHAMFERC
 40
1.0
  9
$CHAMFERD
 40
0.0
  9
$SKPOLY
 70
     0
  9
$TDCREATE
 40
2458102.62611875
  9
$TDUCREATE
 40
2458102.584452083
  9
$TDUPDATE
 40
2458102.626119421
  9
$TDUUPDATE
 40
2458102.584452755
  9
$TDINDWG
 40
0.0000000116
  9
$TDUSRTIMER
 40
0.0000000116
  9
$USRTIMER
 70
     1
  9
$ANGBASE
 50
0.0
  9
$ANGDIR
 70
     0
  9
$PDMODE
 70
     0
  9
$PDSIZE
 40
0.0
  9
$PLINEWID
 40
0.0
  9
$SPLFRAME
 70
     0
  9
$SPLINETYPE
 70
     6
  9
$SPLINESEGS
 70
     8
  9
$HANDSEED
  5
48C
  9
$SURFTAB1
 70
     6
  9
$SURFTAB2
 70
     6
  9
$SURFTYPE
 70
     6
  9
$SURFU
 70
     6
  9
$SURFV
 70
     6
  9
$UCSBASE
  2

  9
$UCSNAME
  2

  9
$UCSORG
 10
0.0
 20
0.0
 30
0.0
  9
$UCSXDIR
 10
1.0
 20
0.0
 30
0.0
  9
$UCSYDIR
 10
0.0
 20
1.0
 30
0.0
  9
$UCSORTHOREF
  2

  9
$UCSORTHOVIEW
 70
     0
  9
$UCSORGTOP
 10
0.0
 20
0.0
 30
0.0
  9
$UCSORGBOTTOM
 10
0.0
 20
0.0
 30
0.0
  9
$UCSORGLEFT
 10
0.0
 20
0.0
 30
0.0
  9
$UCSORGRIGHT
 10
0.0
 20
0.0
 30
0.0
  9
$UCSORGFRONT
 10
0.0
 20
0.0
 30
0.0
  9
$UCSORGBACK
 10
0.0
 20
0.0
 30
0.0
  9
$PUCSBASE
  2

  9
$PUCSNAME
  2

  9
$PUCSORG
 10
0.0
 20
0.0
 30
0.0
  9
$PUCSXDIR
 10
1.0
 20
0.0
 30
0.0
  9
$PUCSYDIR
 10
0.0
 20
1.0
 30
0.0
  9
$PUCSORTHOREF
  2

  9
$PUCSORTHOVIEW
 70
     0
  9
$PUCSORGTOP
 10
0.0
 20
0.0
 30
0.0
  9
$PUCSORGBOTTOM
 10
0.0
 20
0.0
 30
0.0
  9
$PUCSORGLEFT
 10
0.0
 20
0.0
 30
0.0
  9
$PUCSORGRIGHT
 10
0.0
 20
0.0
 30
0.0
  9
$PUCSORGFRONT
 10
0.0
 20
0.0
 30
0.0
  9
$PUCSORGBACK
 10
0.0
 20
0.0
 30
0.0
  9
$USERI1
 70
     0
  9
$USERI2
 70
     0
  9
$USERI3
 70
     0
  9
$USERI4
 70
     0
  9
$USERI5
 70
     0
  9
$USERR1
 40
18.1
  9
$USERR2
 40
0.0
  9
$USERR3
 40
0.0
  9
$USERR4
 40
0.0
  9
$USERR5
 40
0.0
  9
$WORLDVIEW
 70
     1
  9
$SHADEDGE
 70
     3
  9
$SHADEDIF
 70
    70
  9
$TILEMODE
 70
     1
  9
$MAXACTVP
 70
    64
  9
$PINSBASE
 10
0.0
 20
0.0
 30
0.0
  9
$PLIMCHECK
 70
     0
  9
$PEXTMIN
 10
1.00000000000000E+20
 20
1.00000000000000E+20
 30
1.00000000000000E+20
  9
$PEXTMAX
 10
-1.00000000000000E+20
 20
-1.00000000000000E+20
 30
-1.00000000000000E+20
  9
$PLIMMIN
 10
0.0
 20
0.0
  9
$PLIMMAX
 10
12.0
 20
9.0
  9
$UNITMODE
 70
     0
  9
$VISRETAIN
 70
     1
  9
$PLINEGEN
 70
     0
  9
$PSLTSCALE
 70
     1
  9
$TREEDEPTH
 70
  3020
  9
$CMLSTYLE
  2
Standard
  9
$CMLJUST
 70
     0
  9
$CMLSCALE
 40
1.0
  9
$PROXYGRAPHICS
 70
     1
  9
$MEASUREMENT
 70
     1
  9
$CELWEIGHT
370
    -1
  9
$ENDCAPS
280
     0
  9
$JOINSTYLE
280
     0
  9
$LWDISPLAY
290
     0
  9
$INSUNITS
 70
     4
  9
$HYPERLINKBASE
  1

  9
$STYLESHEET
  1

  9
$XEDIT
290
     1
  9
$CEPSNTYPE
380
     0
  9
$PSTYLEMODE
290
     1
  9
$FINGERPRINTGUID
  2
{849DFBF5-33D0-4EA5-B2DE-382E9A4DBB8B}
  9
$VERSIONGUID
  2
{FAEB1C32-E019-11D5-929B-00C0DF256EC4}
  9
$EXTNAMES
290
     1
  9
$PSVPSCALE
 40
0.0
  9
$OLESTARTUP
290
     0
  9
$SORTENTS
280
   127
  9
$INDEXCTL
280
     0
  9
$HIDETEXT
280
     1
  9
$XCLIPFRAME
290
     0
  9
$HALOGAP
280
     0
  9
$OBSCOLOR
 70
   257
  9
$OBSLTYPE
280
     0
  9
$INTERSECTIONDISPLAY
280
     0
  9
$INTERSECTIONCOLOR
 70
   257
  9
$DIMASSOC
280
     2
  9
$PROJECTNAME
  1

  0
ENDSEC
  0
SECTION
  2
CLASSES
  0
CLASS
  1
ACDBDICTIONARYWDFLT
  2
AcDbDictionaryWithDefault
  3
ObjectDBX Classes
 90
        0
 91
        4
280
     0
281
     0
  0
CLASS
  1
VISUALSTYLE
  2
AcDbVisualStyle
  3
ObjectDBX Classes
 90
     4095
 91
        4
280
     0
281
     0
  0
CLASS
  1
MATERIAL
  2
AcDbMaterial
  3
ObjectDBX Classes
 90
     1153
 91
        4
280
     0
281
     0
  0
ENDSEC
  0
SECTION
  2
TABLES
  0
TABLE
  2
VPORT
  5
8
330
0
100
AcDbSymbolTable
 70
     1
  0
VPORT
  5
29
330
8
100
AcDbSymbolTableRecord
100
AcDbViewportTableRecord
  2
*Active
 70
     0
 10
0.0
 20
0.0
 11
1.0
 21
1.0
 12
-266.9999999999899
 22
-162.0000000000051
 13
0.0
 23
0.0
 14
0.5
 24
0.5
 15
0.5
 25
0.5
 16
0.0
 26
0.0
 36
1.0
 17
0.0
 27
0.0
 37
0.0
 40
231.0000000000001
 41
1.60267857142857
 42
50.0
 43
0.0
 44
0.0
 50
0.0
 51
0.0
 71
     0
 72
   100
 73
     1
 74
     3
 75
     0
 76
     0
 77
     0
 78
     0
281
     0
 65
     1
110
0.0
120
0.0
130
0.0
111
1.0
121
0.0
131
0.0
112
0.0
122
1.0
132
0.0
 79
     0
146
0.0
  0
ENDTAB
  0
TABLE
  2
LTYPE
  5
5
330
0
100
AcDbSymbolTable
 70
     8
  0
LTYPE
  5
14
330
5
100
AcDbSymbolTableRecord
100
AcDbLinetypeTableRecord
  2
ByBlock
 70
     0
  3

 72
    65
 73
     0
 40
0.0
  0
LTYPE
  5
15
330
5
100
AcDbSymbolTableRecord
100
AcDbLinetypeTableRecord
  2
ByLayer
 70
     0
  3

 72
    65
 73
     0
 40
0.0
  0
LTYPE
  5
16
330
5
100
AcDbSymbolTableRecord
100
AcDbLinetypeTableRecord
  2
Continuous
 70
     0
  3
Solid line
 72
    65
 73
     0
 40
0.0
  0
LTYPE
  5
3F
330
5
100
AcDbSymbolTableRecord
100
AcDbLinetypeTableRecord
  2
DASHED
 70
     0
  3
Dashed
 72
    65
 73
     2
 40
15.0
 49
7.0
 74
     0
 49
-8.0
 74
     0
  0
LTYPE
  5
40
330
5
100
AcDbSymbolTableRecord
100
AcDbLinetypeTableRecord
  2
DOTTED
 70
     0
  3
Dotted
 72
    65
 73
     2
 40
1.0
 49
0.0
 74
     0
 49
-1.0
 74
     0
  0
LTYPE
  5
41
330
5
100
AcDbSymbolTableRecord
100
AcDbLinetypeTableRecord
  2
DOT_CENTER
 70
     0
  3
Dot_Center
 72
    65
 73
     4
 40
14.0
 49
12.0
 74
     0
 49
-1.0
 74
     0
 49
0.0
 74
     0
 49
-1.0
 74
     0
  0
LTYPE
  5
42
330
5
100
AcDbSymbolTableRecord
100
AcDbLinetypeTableRecord
  2
LONG_DASHED
 70
     0
  3
Long_Dashed
 72
    65
 73
     2
 40
15.0
 49
10.0
 74
     0
 49
-5.0
 74
     0
  0
LTYPE
  5
43
330
5
100
AcDbSymbolTableRecord
100
AcDbLinetypeTableRecord
  2
DASH_CENTER
 70
     0
  3
Dash_Center
 72
    65
 73
     4
 40
14.0
 49
11.0
 74
     0
 49
-1.0
 74
     0
 49
1.0
 74
     0
 49
-1.0
 74
     0
  0
LTYPE
  5
44
330
5
100
AcDbSymbolTableRecord
100
AcDbLinetypeTableRecord
  2
PHANTOM
 70
     0
  3
Phantom
 72
    65
 73
     6
 40
13.0
 49
10.0
 74
     0
 49
-1.0
 74
     0
 49
0.0
 74
     0
 49
-1.0
 74
     0
 49
0.0
 74
     0
 49
-1.0
 74
     0
  0
LTYPE
  5
45
330
5
100
AcDbSymbolTableRecord
100
AcDbLinetypeTableRecord
  2
CENTER_DASH_DASH
 70
     0
  3
Center_Dash_Dash
 72
    65
 73
     6
 40
14.0
 49
9.0
 74
     0
 49
-1.0
 74
     0
 49
1.0
 74
     0
 49
-1.0
 74
     0
 49
1.0
 74
     0
 49
-1.0
 74
     0
  0
ENDTAB
  0
TABLE
  2
LAYER
  5
2
330
0
100
AcDbSymbolTable
 70
     2
  0
LAYER
  5
10
330
2
100
AcDbSymbolTableRecord
100
AcDbLayerTableRecord
  2
0
 70
     0
 62
     7
  6
Continuous
370
    -3
390
F
  0
LAYER
  5
46
330
2
100
AcDbSymbolTableRecord
100
AcDbLayerTableRecord
  2
1
 70
     0
 62
     7
  6
Continuous
370
    -3
390
F
  0
ENDTAB
  0
TABLE
  2
STYLE
  5
3
330
0
100
AcDbSymbolTable
 70
     5
  0
STYLE
  5
11
330
3
100
AcDbSymbolTableRecord
100
AcDbTextStyleTableRecord
  2
Standard
 70
     0
 40
0.0
 41
1.0
 50
0.0
 71
     0
 42
0.2
  3
txt
  4

  0
STYLE
  5
15F
330
3
100
AcDbSymbolTableRecord
100
AcDbTextStyleTableRecord
  2
CONVERTER_11
 70
     0
 40
0.0
 41
0.9
 50
0.0
 71
     0
 42
0.2
  3
txt.shx
  4

  0
STYLE
  5
422
330
3
100
AcDbSymbolTableRecord
100
AcDbTextStyleTableRecord
  2
CONVERTER_12
 70
     0
 40
0.0
 41
0.81
 50
0.0
 71
     0
 42
0.2
  3
txt.shx
  4

  0
STYLE
  5
428
330
3
100
AcDbSymbolTableRecord
100
AcDbTextStyleTableRecord
  2
CONVERTER_13
 70
     0
 40
0.0
 41
0.855
 50
0.0
 71
     0
 42
0.2
  3
txt.shx
  4

  0
STYLE
  5
42B
330
3
100
AcDbSymbolTableRecord
100
AcDbTextStyleTableRecord
  2
CONVERTER_14
 70
     0
 40
0.0
 41
0.72
 50
0.0
 71
     0
 42
0.2
  3
txt.shx
  4

  0
ENDTAB
  0
TABLE
  2
VIEW
  5
6
330
0
100
AcDbSymbolTable
 70
     0
  0
ENDTAB
  0
TABLE
  2
UCS
  5
7
330
0
100
AcDbSymbolTable
 70
     0
  0
ENDTAB
  0
TABLE
  2
APPID
  5
9
330
0
100
AcDbSymbolTable
 70
     1
  0
APPID
  5
12
330
9
100
AcDbSymbolTableRecord
100
AcDbRegAppTableRecord
  2
ACAD
 70
     0
  0
ENDTAB
  0
TABLE
  2
DIMSTYLE
  5
A
330
0
100
AcDbSymbolTable
 70
     7
100
AcDbDimStyleTable
  0
DIMSTYLE
105
27
330
A
100
AcDbSymbolTableRecord
100
AcDbDimStyleTableRecord
  2
Standard
 70
     0
178
     0
340
11
  0
DIMSTYLE
105
19F
102
{ACAD_REACTORS
330
1A0
102
}
330
A
100
AcDbSymbolTableRecord
100
AcDbDimStyleTableRecord
  2
ME10_DIM_10
 70
     0
 41
3.5
 42
0.0
 44
1.5
 73
     0
 74
     0
 77
     1
 78
     8
140
3.5
147
1.5
172
     1
173
     1
174
     1
175
     1
176
     2
177
     2
178
     3
340
15F
  0
DIMSTYLE
105
2FD
102
{ACAD_REACTORS
330
2FE
102
}
330
A
100
AcDbSymbolTableRecord
100
AcDbDimStyleTableRecord
  2
ME10_DIM_11
 70
     0
 41
3.5
 42
0.0
 44
1.5
 73
     0
 74
     0
 77
     1
 78
     8
140
3.5
147
1.5
172
     1
173
     1
174
     1
175
     1
176
     2
177
     2
178
     3
340
15F
  0
DIMSTYLE
105
308
102
{ACAD_REACTORS
330
309
102
}
330
A
100
AcDbSymbolTableRecord
100
AcDbDimStyleTableRecord
  2
ME10_DIM_12
 70
     0
 41
3.5
 42
0.0
 44
1.5
 73
     0
 74
     0
 77
     1
 78
     8
140
3.5
147
1.5
172
     1
173
     1
174
     1
175
     1
176
     2
177
     2
178
     3
340
15F
  0
DIMSTYLE
105
313
102
{ACAD_REACTORS
330
314
102
}
330
A
100
AcDbSymbolTableRecord
100
AcDbDimStyleTableRecord
  2
ME10_DIM_13
 70
     0
 41
3.5
 42
0.0
 44
1.5
 73
     0
 74
     0
 77
     1
 78
     8
140
3.5
147
1.5
172
     1
173
     1
174
     1
175
     1
176
     2
177
     2
271
     2
178
     3
271
     2
340
15F
  0
DIMSTYLE
105
31E
102
{ACAD_REACTORS
330
31F
102
}
330
A
100
AcDbSymbolTableRecord
100
AcDbDimStyleTableRecord
  2
ME10_DIM_14
 70
     0
 41
3.5
 42
0.0
 44
1.5
 73
     0
 74
     0
 77
     1
 78
     8
140
3.5
147
1.5
172
     1
173
     1
174
     1
175
     1
176
     2
177
     2
178
     3
340
15F
  0
DIMSTYLE
105
329
102
{ACAD_REACTORS
330
32A
102
}
330
A
100
AcDbSymbolTableRecord
100
AcDbDimStyleTableRecord
  2
ME10_DIM_15
 70
     0
 41
3.5
 42
0.0
 44
1.5
 73
     0
 74
     0
 77
     1
 78
     8
140
3.5
147
1.5
172
     1
173
     1
174
     1
175
     1
176
     2
177
     2
178
     3
340
15F
  0
ENDTAB
  0
TABLE
  2
BLOCK_RECORD
  5
1
330
0
100
AcDbSymbolTable
 70
    23
  0
BLOCK_RECORD
  5
1F
330
1
100
AcDbSymbolTableRecord
100
AcDbBlockTableRecord
  2
*Model_Space
340
22
  0
BLOCK_RECORD
  5
1B
330
1
100
AcDbSymbolTableRecord
100
AcDbBlockTableRecord
  2
*Paper_Space
340
1E
  0
BLOCK_RECORD
  5
23
330
1
100
AcDbSymbolTableRecord
100
AcDbBlockTableRecord
  2
*Paper_Space0
340
26
  0
BLOCK_RECORD
  5
47
330
1
100
AcDbSymbolTableRecord
100
AcDbBlockTableRecord
  2
OTTA_6_YE-select__1
340
0
102
{BLKREFS
331
4B
102
}
  0
BLOCK_RECORD
  5
4A
330
1
100
AcDbSymbolTableRecord
100
AcDbBlockTableRecord
  2
Allg1
340
0
102
{BLKREFS
331
7D
102
}
  0
BLOCK_RECORD
  5
4E
330
1
100
AcDbSymbolTableRecord
100
AcDbBlockTableRecord
  2
OTTA_6_YE-select__2
340
0
102
{BLKREFS
331
52
102
}
  0
BLOCK_RECORD
  5
51
330
1
100
AcDbSymbolTableRecord
100
AcDbBlockTableRecord
  2
Drfsicht1
340
0
102
{BLKREFS
331
7E
102
}
  0
BLOCK_RECORD
  5
55
330
1
100
AcDbSymbolTableRecord
100
AcDbBlockTableRecord
  2
OTTA_6_YE-select__3
340
0
102
{BLKREFS
331
59
102
}
  0
BLOCK_RECORD
  5
58
330
1
100
AcDbSymbolTableRecord
100
AcDbBlockTableRecord
  2
Rckans1
340
0
102
{BLKREFS
331
7F
102
}
  0
BLOCK_RECORD
  5
5C
330
1
100
AcDbSymbolTableRecord
100
AcDbBlockTableRecord
  2
OTTA_6_YE-select__4
340
0
102
{BLKREFS
331
60
102
}
  0
BLOCK_RECORD
  5
5F
330
1
100
AcDbSymbolTableRecord
100
AcDbBlockTableRecord
  2
SA_Links1
340
0
102
{BLKREFS
331
80
102
}
  0
BLOCK_RECORD
  5
63
330
1
100
AcDbSymbolTableRecord
100
AcDbBlockTableRecord
  2
OTTA_6_YE-select__5
340
0
102
{BLKREFS
331
67
102
}
  0
BLOCK_RECORD
  5
66
330
1
100
AcDbSymbolTableRecord
100
AcDbBlockTableRecord
  2
SA_Rechts1
340
0
102
{BLKREFS
331
81
102
}
  0
BLOCK_RECORD
  5
6A
330
1
100
AcDbSymbolTableRecord
100
AcDbBlockTableRecord
  2
OTTA_6_YE-select__6
340
0
102
{BLKREFS
331
6E
102
}
  0
BLOCK_RECORD
  5
6D
330
1
100
AcDbSymbolTableRecord
100
AcDbBlockTableRecord
  2
Vordans1
340
0
102
{BLKREFS
331
82
102
}
  0
BLOCK_RECORD
  5
71
330
1
100
AcDbSymbolTableRecord
100
AcDbBlockTableRecord
  2
_rahmen
340
0
102
{BLKREFS
331
78
102
}
  0
BLOCK_RECORD
  5
74
330
1
100
AcDbSymbolTableRecord
100
AcDbBlockTableRecord
  2
_punkt
340
0
102
{BLKREFS
331
79
102
}
  0
BLOCK_RECORD
  5
77
330
1
100
AcDbSymbolTableRecord
100
AcDbBlockTableRecord
  2
A4I_CS
340
0
102
{BLKREFS
331
83
102
}
  0
BLOCK_RECORD
  5
7C
330
1
100
AcDbSymbolTableRecord
100
AcDbBlockTableRecord
  2
1
340
0
102
{BLKREFS
331
86
102
}
  0
BLOCK_RECORD
  5
196
330
1
100
AcDbSymbolTableRecord
100
AcDbBlockTableRecord
  2
*D17
340
0
  0
BLOCK_RECORD
  5
2F4
330
1
100
AcDbSymbolTableRecord
100
AcDbBlockTableRecord
  2
*D18
340
0
  0
BLOCK_RECORD
  5
2FF
330
1
100
AcDbSymbolTableRecord
100
AcDbBlockTableRecord
  2
*D19
340
0
  0
BLOCK_RECORD
  5
30A
330
1
100
AcDbSymbolTableRecord
100
AcDbBlockTableRecord
  2
*D20
340
0
  0
BLOCK_RECORD
  5
315
330
1
100
AcDbSymbolTableRecord
100
AcDbBlockTableRecord
  2
*D21
340
0
  0
BLOCK_RECORD
  5
320
330
1
100
AcDbSymbolTableRecord
100
AcDbBlockTableRecord
  2
*D22
340
0
  0
ENDTAB
  0
ENDSEC
  0
SECTION
  2
BLOCKS
  0
BLOCK
  5
20
330
1F
100
AcDbEntity
  8
0
100
AcDbBlockBegin
  2
*Model_Space
 70
     0
 10
0.0
 20
0.0
 30
0.0
  3
*Model_Space
  1

  0
ENDBLK
  5
21
330
1F
100
AcDbEntity
  8
0
100
AcDbBlockEnd
  0
BLOCK
  5
1C
330
1B
100
AcDbEntity
 67
     1
  8
0
100
AcDbBlockBegin
  2
*Paper_Space
 70
     0
 10
0.0
 20
0.0
 30
0.0
  3
*Paper_Space
  1

  0
ENDBLK
  5
1D
330
1B
100
AcDbEntity
 67
     1
  8
0
100
AcDbBlockEnd
  0
BLOCK
  5
24
330
23
100
AcDbEntity
  8
0
100
AcDbBlockBegin
  2
*Paper_Space0
 70
     0
 10
0.0
 20
0.0
 30
0.0
  3
*Paper_Space0
  1

  0
ENDBLK
  5
25
330
23
100
AcDbEntity
  8
0
100
AcDbBlockEnd
  0
BLOCK
  5
48
330
47
100
AcDbEntity
  8
0
100
AcDbBlockBegin
  2
OTTA_6_YE-select__1
 70
     0
 10
-183.586051933806
 20
-219.6315159666778
 30
0.0
  3
OTTA_6_YE-select__1
  1

  0
LINE
  5
87
330
47
100
AcDbEntity
  8
0
  6
Continuous
 62
     7
100
AcDbLine
 10
-149.3773097983515
 20
-170.4497344634248
 30
0.0
 11
-169.1226890046372
 21
-164.7497344634247
 31
0.0
  0
LINE
  5
88
330
47
100
AcDbEntity
  8
0
  6
Continuous
 62
     7
100
AcDbLine
 10
-169.1226890046372
 20
-164.7497344634247
 30
0.0
 11
-174.6226890046372
 21
-169.5128741842391
 31
0.0
  0
LINE
  5
89
330
47
100
AcDbEntity
  8
0
  6
Continuous
 62
     7
100
AcDbLine
 10
-174.6226890046371
 20
-170.3501930177298
 30
0.0
 11
-176.4724102428971
 21
-171.9520985999825
 31
0.0
  0
LINE
  5
8A
330
47
100
AcDbEntity
  8
0
  6
Continuous
 62
     7
100
AcDbLine
 10
-176.2796319657356
 20
-168.7210218243328
 30
0.0
 11
-174.6866429749416
 21
-170.3811655130078
 31
0.0
  0
LINE
  5
8B
330
47
100
AcDbEntity
  8
0
  6
Continuous
 62
     7
100
AcDbLine
 10
-140.4139468691827
 20
-180.1174903517504
 30
0.0
 11
-145.9139468691827
 21
-184.8806300725648
 31
0.0
  0
LINE
  5
8C
330
47
100
AcDbEntity
  8
0
  6
Continuous
 62
     7
100
AcDbLine
 10
-154.7474059877897
 20
-193.0905096265591
 30
0.0
 11
-145.9139468691827
 21
-195.6405096265548
 31
0.0
  0
LINE
  5
8D
330
47
100
AcDbEntity
  8
0
  6
Continuous
 62
     7
100
AcDbLine
 10
-152.1926310466199
 20
-203.3542769438273
 30
0.0
 11
-147.7176310466199
 21
-199.478813261892
 31
0.0
  0
LINE
  5
8E
330
47
100
AcDbEntity
  8
0
  6
Continuous
 62
     7
100
AcDbLine
 10
-141.4389468691825
 20
-204.1491970943809
 30
0.0
 11
-147.7176310466199
 21
-202.3366970943808
 31
0.0
  0
LINE
  5
8F
330
47
100
AcDbEntity
  8
0
  6
Continuous
 62
     7
100
AcDbLine
 10
-153.4050666119184
 20
-203.0042769438273
 30
0.0
 11
-152.1926310466199
 21
-203.3542769438273
 31
0.0
  0
LINE
  5
90
330
47
100
AcDbEntity
  8
0
  6
Continuous
 62
     7
100
AcDbLine
 10
-153.4050666119184
 20
-203.0042769438273
 30
0.0
 11
-148.9300666119185
 21
-199.1288132618919
 31
0.0
  0
LINE
  5
91
330
47
100
AcDbEntity
  8
0
  6
Continuous
 62
     7
100
AcDbLine
 10
-147.7176310466199
 20
-199.478813261892
 30
0.0
 11
-147.7176310466199
 21
-202.3366970943808
 31
0.0
  0
LINE
  5
92
330
47
100
AcDbEntity
  8
0
  6
Continuous
 62
     7
100
AcDbLine
 10
-148.9300666119185
 20
-199.1288132618919
 30
0.0
 11
-147.7176310466199
 21
-199.478813261892
 31
0.0
  0
LINE
  5
93
330
47
100
AcDbEntity
  8
0
  6
Continuous
 62
     7
100
AcDbLine
 10
-148.9300666119185
 20
-196.7039421312954
 30
0.0
 11
-148.9300666119185
 21
-199.1288132618919
 31
0.0
  0
LINE
  5
94
330
47
100
AcDbEntity
  8
0
  6
Continuous
 62
     7
100
AcDbLine
 10
-148.9300666119185
 20
-196.7039421312954
 30
0.0
 11
-153.4050666119184
 21
-200.5794058132308
 31
0.0
  0
LINE
  5
95
330
47
100
AcDbEntity
  8
0
  6
Continuous
 62
     7
100
AcDbLine
 10
-153.4050666119184
 20
-200.5794058132308
 30
0.0
 11
-153.4050666119184
 21
-203.0042769438273
 31
0.0
  0
LINE
  5
96
330
47
100
AcDbEntity
  8
0
  6
Continuous
 62
     7
100
AcDbLine
 10
-141.4389468691825
 20
-204.1491970943809
 30
0.0
 11
-141.4389468691826
 21
-191.7650459446194
 31
0.0
  0
LINE
  5
97
330
47
100
AcDbEntity
  8
0
  6
Continuous
 62
     7
100
AcDbLine
 10
-156.6093606059205
 20
-194.371650850146
 30
0.0
 11
-154.7474059877897
 21
-193.0905096265591
 31
0.0
  0
LINE
  5
98
330
47
100
AcDbEntity
  8
0
  6
Continuous
 62
     7
100
AcDbLine
 10
-153.9039114134894
 20
-193.3340055363247
 30
0.0
 11
-153.9039114134894
 21
-197.0434688915064
 31
0.0
  0
LINE
  5
99
330
47
100
AcDbEntity
  8
0
  6
Continuous
 62
     7
100
AcDbLine
 10
-140.4139468691825
 20
-214.0435373326179
 30
0.0
 11
-140.4139468691827
 21
-180.1174903517504
 31
0.0
  0
LINE
  5
9A
330
47
100
AcDbEntity
  8
0
  6
Continuous
 62
     7
100
AcDbLine
 10
-145.9139468691827
 20
-195.6405096265548
 30
0.0
 11
-145.9139468691827
 21
-184.8806300725648
 31
0.0
  0
LINE
  5
9B
330
47
100
AcDbEntity
  8
0
  6
Continuous
 62
     7
100
AcDbLine
 10
-152.1926310466199
 20
-206.2121607763162
 30
0.0
 11
-147.7176310466199
 21
-202.3366970943808
 31
0.0
  0
LINE
  5
9C
330
47
100
AcDbEntity
  8
0
  6
Continuous
 62
     7
100
AcDbLine
 10
-141.4389468691825
 20
-204.1491970943809
 30
0.0
 11
-145.9139468691826
 21
-208.0246607763162
 31
0.0
  0
LINE
  5
9D
330
47
100
AcDbEntity
  8
0
  6
Continuous
 62
     7
100
AcDbLine
 10
-153.5782716926751
 20
-212.118452142386
 30
0.0
 11
-153.578271692675
 21
-210.9650119288334
 31
0.0
  0
LINE
  5
9E
330
47
100
AcDbEntity
  8
0
  6
Continuous
 62
     7
100
AcDbLine
 10
-154.8773097983518
 20
-210.5900119288334
 30
0.0
 11
-154.8773097983518
 21
-211.5204541060945
 31
0.0
  0
LINE
  5
9F
330
47
100
AcDbEntity
  8
0
  6
Continuous
 62
     7
100
AcDbLine
 10
-153.7638050515627
 20
-210.5561307081406
 30
0.0
 11
-154.8773097983518
 21
-211.5204541060945
 31
0.0
  0
LINE
  5
A0
330
47
100
AcDbEntity
  8
0
  6
Continuous
 62
     2
100
AcDbLine
 10
-154.8773097983518
 20
-210.5900119288334
 30
0.0
 11
-154.5061560538727
 21
-210.2685833574049
 31
0.0
  0
LINE
  5
A1
330
47
100
AcDbEntity
  8
0
  6
Continuous
 62
     7
100
AcDbLine
 10
-147.7203668372532
 20
-183.3162244903123
 30
0.0
 11
-145.9139468691827
 21
-184.8806300725648
 31
0.0
  0
LINE
  5
A2
330
47
100
AcDbEntity
  8
0
  6
Continuous
 62
     7
100
AcDbLine
 10
-154.1112930271802
 20
-180.9565200561244
 30
0.0
 11
-153.502188493185
 21
-180.4290200561243
 31
0.0
  0
LINE
  5
A3
330
47
100
AcDbEntity
  8
0
  6
Continuous
 62
     7
100
AcDbLine
 10
-153.2705734253203
 20
-180.6296045887938
 30
0.0
 11
-153.6544646266839
 21
-180.2971450561245
 31
0.0
  0
LINE
  5
A4
330
47
100
AcDbEntity
  8
0
  6
Continuous
 62
     7
100
AcDbLine
 10
-149.3862930271802
 20
-185.0484900890058
 30
0.0
 11
-148.9294646266839
 21
-184.389115089006
 31
0.0
  0
LINE
  5
A5
330
47
100
AcDbEntity
  8
0
  6
Continuous
 62
     7
100
AcDbLine
 10
-148.9294646266839
 20
-184.389115089006
 30
0.0
 11
-149.3133558280475
 21
-184.056655556336
 31
0.0
  0
LINE
  5
A6
330
47
100
AcDbEntity
  8
0
  6
Continuous
 62
     7
100
AcDbLine
 10
-149.3133558280475
 20
-184.056655556336
 30
0.0
 11
-147.7203668372532
 21
-183.3162244903123
 31
0.0
  0
LINE
  5
A7
330
47
100
AcDbEntity
  8
0
  6
Continuous
 62
     7
100
AcDbLine
 10
-152.1926310466199
 20
-206.2121607763162
 30
0.0
 11
-152.1926310466199
 21
-203.3542769438273
 31
0.0
  0
LINE
  5
A8
330
47
100
AcDbEntity
  8
0
  6
Continuous
 62
     7
100
AcDbLine
 10
-152.1926310466199
 20
-206.2121607763162
 30
0.0
 11
-145.9139468691826
 21
-208.0246607763162
 31
0.0
  0
LINE
  5
A9
330
47
100
AcDbEntity
  8
0
  6
Continuous
 62
     7
100
AcDbLine
 10
-154.0112843945673
 20
-210.4069992269412
 30
0.0
 11
-154.4442970964595
 21
-210.2819992269412
 31
0.0
  0
LINE
  5
AA
330
47
100
AcDbEntity
  8
0
  6
Continuous
 62
     7
100
AcDbLine
 10
-141.4389468691826
 20
-191.7650459446194
 30
0.0
 11
-145.9139468691827
 21
-195.6405096265548
 31
0.0
  0
LINE
  5
AB
330
47
100
AcDbEntity
  8
0
  6
Continuous
 62
     7
100
AcDbLine
 10
-171.6199321910708
 20
-190.1539421312955
 30
0.0
 11
-176.0949321910708
 21
-194.0294058132308
 31
0.0
  0
LINE
  5
AC
330
47
100
AcDbEntity
  8
0
  6
Continuous
 62
     7
100
AcDbLine
 10
-165.3562171841434
 20
-197.1294058132309
 30
0.0
 11
-176.0949321910708
 21
-194.0294058132308
 31
0.0
  0
LINE
  5
AD
330
47
100
AcDbEntity
  8
0
  6
Continuous
 62
     7
100
AcDbLine
 10
-159.6687816188452
 20
-193.6039421312955
 30
0.0
 11
-157.9039114134894
 21
-194.113416275369
 31
0.0
  0
LINE
  5
AE
330
47
100
AcDbEntity
  8
0
  6
Continuous
 62
     7
100
AcDbLine
 10
-153.9039114134895
 20
-195.2681168137482
 30
0.0
 11
-148.9300666119185
 21
-196.7039421312954
 31
0.0
  0
LINE
  5
AF
330
47
100
AcDbEntity
  8
0
  6
Continuous
 62
     7
100
AcDbLine
 10
-159.6687816188452
 20
-193.6039421312955
 30
0.0
 11
-164.1437816188453
 21
-197.4794058132309
 31
0.0
  0
LINE
  5
B0
330
47
100
AcDbEntity
  8
0
  6
Continuous
 62
     7
100
AcDbLine
 10
-157.9039114134894
 20
-193.9979462215312
 30
0.0
 11
-157.9039114134894
 21
-197.0434688915064
 31
0.0
  0
LINE
  5
B1
330
47
100
AcDbEntity
  8
0
  6
Continuous
 62
     7
100
AcDbLine
 10
-176.0949321910708
 20
-194.0294058132308
 30
0.0
 11
-176.0949321910708
 21
-196.4542769438272
 31
0.0
  0
LINE
  5
B2
330
47
100
AcDbEntity
  8
0
  6
Continuous
 62
     7
100
AcDbLine
 10
-176.0949321910708
 20
-194.144875867069
 30
0.0
 11
-179.111051933806
 21
-193.2741970943808
 31
0.0
  0
LINE
  5
B3
330
47
100
AcDbEntity
  8
0
  6
Continuous
 62
     7
100
AcDbLine
 10
-159.6687816188452
 20
-193.6039421312955
 30
0.0
 11
-159.6687816188452
 21
-193.4884720774577
 31
0.0
  0
LINE
  5
B4
330
47
100
AcDbEntity
  8
0
  6
Continuous
 62
     7
100
AcDbLine
 10
-177.3073677563687
 20
-196.1042769438273
 30
0.0
 11
-176.0949321910708
 21
-195.0542769438276
 31
0.0
  0
LINE
  5
B5
330
47
100
AcDbEntity
  8
0
  6
Continuous
 62
     7
100
AcDbLine
 10
-177.3073677563687
 20
-196.1042769438273
 30
0.0
 11
-176.0949321910708
 21
-196.4542769438272
 31
0.0
  0
LINE
  5
B6
330
47
100
AcDbEntity
  8
0
  6
Continuous
 62
     7
100
AcDbLine
 10
-183.586051933806
 20
-197.1496607763161
 30
0.0
 11
-179.111051933806
 21
-193.2741970943808
 31
0.0
  0
LINE
  5
B7
330
47
100
AcDbEntity
  8
0
  6
Continuous
 62
     7
100
AcDbLine
 10
-165.3562171841434
 20
-191.8466508501459
 30
0.0
 11
-165.3562171841434
 21
-197.1294058132309
 31
0.0
  0
LINE
  5
B8
330
47
100
AcDbEntity
  8
0
  6
Continuous
 62
     7
100
AcDbLine
 10
-172.8906381970683
 20
-189.6716508501458
 30
0.0
 11
-165.3562171841434
 21
-191.8466508501459
 31
0.0
  0
LINE
  5
B9
330
47
100
AcDbEntity
  8
0
  6
Continuous
 62
     7
100
AcDbLine
 10
-166.7210873894995
 20
-191.5681168137481
 30
0.0
 11
-165.3562171841435
 21
-191.9621209039838
 31
0.0
  0
LINE
  5
BA
330
47
100
AcDbEntity
  8
0
  6
Continuous
 62
     7
100
AcDbLine
 10
-171.6199321910708
 20
-190.1539421312955
 30
0.0
 11
-170.7210873894995
 21
-190.4134162753689
 31
0.0
  0
LINE
  5
BB
330
47
100
AcDbEntity
  8
0
  6
Continuous
 62
     7
100
AcDbLine
 10
-166.7210873894994
 20
-191.4526467599103
 30
0.0
 11
-166.7210873894994
 21
-193.3434688915063
 31
0.0
  0
LINE
  5
BC
330
47
100
AcDbEntity
  8
0
  6
Continuous
 62
     7
100
AcDbLine
 10
-170.7210873894994
 20
-190.2979462215311
 30
0.0
 11
-170.7210873894994
 21
-193.3434688915063
 31
0.0
  0
LINE
  5
BD
330
47
100
AcDbEntity
  8
0
  6
Continuous
 62
     7
100
AcDbLine
 10
-154.8773097983515
 20
-175.2128741842392
 30
0.0
 11
-174.6226890046372
 21
-169.5128741842391
 31
0.0
  0
LINE
  5
BE
330
47
100
AcDbEntity
  8
0
  6
Continuous
 62
     7
100
AcDbLine
 10
-149.3773097983515
 20
-170.4497344634248
 30
0.0
 11
-154.8773097983515
 21
-175.2128741842392
 31
0.0
  0
LINE
  5
BF
330
47
100
AcDbEntity
  8
0
  6
Continuous
 62
     7
100
AcDbLine
 10
-174.6226890046372
 20
-171.4181300725648
 30
0.0
 11
-174.6226890046372
 21
-169.5128741842391
 31
0.0
  0
LINE
  5
C0
330
47
100
AcDbEntity
  8
0
  6
Continuous
 62
     7
100
AcDbLine
 10
-166.6184215267903
 20
-169.539871321549
 30
0.0
 11
-169.3972850974597
 21
-169.9121684463675
 31
0.0
  0
LINE
  5
C1
330
47
100
AcDbEntity
  8
0
  6
Continuous
 62
     7
100
AcDbLine
 10
-164.1437816188453
 20
-192.1966508501459
 30
0.0
 11
-156.6093606059205
 21
-194.371650850146
 31
0.0
  0
LINE
  5
C2
330
47
100
AcDbEntity
  8
0
  6
Continuous
 62
     7
100
AcDbLine
 10
-164.1437816188453
 20
-197.4794058132309
 30
0.0
 11
-164.1437816188453
 21
-192.1966508501459
 31
0.0
  0
LINE
  5
C3
330
47
100
AcDbEntity
  8
0
  6
Continuous
 62
     7
100
AcDbLine
 10
-153.4050666119184
 20
-200.5794058132308
 30
0.0
 11
-164.1437816188453
 21
-197.4794058132309
 31
0.0
  0
LINE
  5
C4
330
47
100
AcDbEntity
  8
0
  6
Continuous
 62
     7
100
AcDbLine
 10
-156.1113959987445
 20
-218.8940159666778
 30
0.0
 11
-156.1113959987445
 21
-217.4650740504334
 31
0.0
  0
LINE
  5
C5
330
47
100
AcDbEntity
  8
0
  6
Continuous
 62
     7
100
AcDbLine
 10
-153.5566210575804
 20
-218.5273335768526
 30
0.0
 11
-153.5566210575804
 21
-219.6315159666778
 31
0.0
  0
LINE
  5
C6
330
47
100
AcDbEntity
  8
0
  6
Continuous
 62
     7
100
AcDbLine
 10
-153.5566210575804
 20
-219.6315159666778
 30
0.0
 11
-156.1113959987445
 21
-218.8940159666778
 31
0.0
  0
LINE
  5
C7
330
47
100
AcDbEntity
  8
0
  6
Continuous
 62
     7
100
AcDbLine
 10
-153.8012457520898
 20
-173.2398712634388
 30
0.0
 11
-156.5801093227461
 21
-173.6121683882556
 31
0.0
  0
LINE
  5
C8
330
47
100
AcDbEntity
  8
0
  6
Continuous
 62
     7
100
AcDbLine
 10
-175.3887057758086
 20
-174.8142600670846
 30
0.0
 11
-180.1137057758088
 21
-176.1782500780452
 31
0.0
  0
LINE
  5
C9
330
47
100
AcDbEntity
  8
0
  6
Continuous
 62
     7
100
AcDbLine
 10
-142.2203668372531
 20
-178.5530847694978
 30
0.0
 11
-140.4139468691827
 21
-180.1174903517504
 31
0.0
  0
LINE
  5
CA
330
47
100
AcDbEntity
  8
0
  6
Continuous
 62
     7
100
AcDbLine
 10
-142.2203668372531
 20
-178.5530847694978
 30
0.0
 11
-147.7203668372532
 21
-183.3162244903123
 31
0.0
  0
LINE
  5
CB
330
47
100
AcDbEntity
  8
0
  6
Continuous
 62
     7
100
AcDbLine
 10
-148.3796779593158
 20
-176.3939648679798
 30
0.0
 11
-144.4224603620424
 21
-179.8210158355214
 31
0.0
  0
LINE
  5
CC
330
47
100
AcDbEntity
  8
0
  6
Continuous
 62
     7
100
AcDbLine
 10
-149.3862930271802
 20
-185.0484900890058
 30
0.0
 11
-154.1112930271802
 21
-180.9565200561244
 31
0.0
  0
LINE
  5
CD
330
47
100
AcDbEntity
  8
0
  6
Continuous
 62
     7
100
AcDbLine
 10
-147.7705734253203
 20
-175.8664648679794
 30
0.0
 11
-153.2705734253203
 21
-180.6296045887938
 31
0.0
  0
LINE
  5
CE
330
47
100
AcDbEntity
  8
0
  6
Continuous
 62
     7
100
AcDbLine
 10
-147.5275885600918
 20
-173.9568959340033
 30
0.0
 11
-147.7705734253203
 21
-175.8664648679794
 31
0.0
  0
LINE
  5
CF
330
47
100
AcDbEntity
  8
0
  6
Continuous
 62
     7
100
AcDbLine
 10
-154.8773097983518
 20
-177.1181300725648
 30
0.0
 11
-153.0275885600918
 21
-178.7200356548177
 31
0.0
  0
LINE
  5
D0
330
47
100
AcDbEntity
  8
0
  6
Continuous
 62
     7
100
AcDbLine
 10
-147.5275885600918
 20
-173.9568959340033
 30
0.0
 11
-153.0275885600918
 21
-178.7200356548177
 31
0.0
  0
LINE
  5
D1
330
47
100
AcDbEntity
  8
0
  6
Continuous
 62
     7
100
AcDbLine
 10
-149.3773097983515
 20
-170.4497344634248
 30
0.0
 11
-149.3773097983518
 21
-172.3549903517503
 31
0.0
  0
LINE
  5
D2
330
47
100
AcDbEntity
  8
0
  6
Continuous
 62
     7
100
AcDbLine
 10
-154.8773097983518
 20
-177.1181300725648
 30
0.0
 11
-149.3773097983518
 21
-172.3549903517503
 31
0.0
  0
LINE
  5
D3
330
47
100
AcDbEntity
  8
0
  6
Continuous
 62
     7
100
AcDbLine
 10
-154.8773097983515
 20
-175.2128741842392
 30
0.0
 11
-154.8773097983518
 21
-177.1181300725648
 31
0.0
  0
LINE
  5
D4
330
47
100
AcDbEntity
  8
0
  6
Continuous
 62
     7
100
AcDbLine
 10
-149.3773097983518
 20
-172.3549903517503
 30
0.0
 11
-147.5275885600918
 21
-173.9568959340033
 31
0.0
  0
LINE
  5
D5
330
47
100
AcDbEntity
  8
0
  6
Continuous
 62
     7
100
AcDbLine
 10
-153.0275885600918
 20
-178.7200356548177
 30
0.0
 11
-153.2705734253203
 21
-180.6296045887938
 31
0.0
  0
LINE
  5
D6
330
47
100
AcDbEntity
  8
0
  6
Continuous
 62
     7
100
AcDbLine
 10
-153.6544646266839
 20
-180.2971450561245
 30
0.0
 11
-154.1112930271802
 21
-180.9565200561244
 31
0.0
  0
LINE
  5
D7
330
47
100
AcDbEntity
  8
0
  6
Continuous
 62
     7
100
AcDbLine
 10
-143.8133558280476
 20
-179.2935158355216
 30
0.0
 11
-142.2203668372531
 21
-178.5530847694978
 31
0.0
  0
LINE
  5
D8
330
47
100
AcDbEntity
  8
0
  6
Continuous
 62
     7
100
AcDbLine
 10
-149.3133558280475
 20
-184.056655556336
 30
0.0
 11
-143.8133558280476
 21
-179.2935158355216
 31
0.0
  0
LINE
  5
D9
330
47
100
AcDbEntity
  8
0
  6
Continuous
 62
     7
100
AcDbLine
 10
-179.111051933806
 20
-186.0573308538627
 30
0.0
 11
-179.111051933806
 21
-193.2741970943808
 31
0.0
  0
LINE
  5
DA
330
47
100
AcDbEntity
  8
0
  6
Continuous
 62
     7
100
AcDbLine
 10
-174.7525928152046
 20
-187.3155096265542
 30
0.0
 11
-172.8906381970683
 21
-189.6716508501458
 31
0.0
  0
LINE
  5
DB
330
47
100
AcDbEntity
  8
0
  6
Continuous
 62
     7
100
AcDbLine
 10
-183.5860519338059
 20
-184.7655096265476
 30
0.0
 11
-174.7525928152046
 21
-187.3155096265542
 31
0.0
  0
LINE
  5
DC
330
47
100
AcDbEntity
  8
0
  6
Continuous
 62
     7
100
AcDbLine
 10
-183.586051933806
 20
-174.0056300725648
 30
0.0
 11
-183.5860519338059
 21
-184.7655096265476
 31
0.0
  0
LINE
  5
DD
330
47
100
AcDbEntity
  8
0
  6
Continuous
 62
     7
100
AcDbLine
 10
-180.1137057758088
 20
-176.1782500780452
 30
0.0
 11
-176.3570934255538
 21
-172.924928350554
 31
0.0
  0
LINE
  5
DE
330
47
100
AcDbEntity
  8
0
  6
Continuous
 62
     7
100
AcDbLine
 10
-180.1866429749416
 20
-175.1443052338222
 30
0.0
 11
-174.6866429749416
 21
-170.3811655130078
 31
0.0
  0
LINE
  5
DF
330
47
100
AcDbEntity
  8
0
  6
Continuous
 62
     7
100
AcDbLine
 10
-178.086051933806
 20
-169.2424903517505
 30
0.0
 11
-183.586051933806
 21
-174.0056300725648
 31
0.0
  0
LINE
  5
E0
330
47
100
AcDbEntity
  8
0
  6
Continuous
 62
     7
100
AcDbLine
 10
-181.7796319657356
 20
-173.4841615451472
 30
0.0
 11
-183.586051933806
 21
-174.0056300725648
 31
0.0
  0
LINE
  5
E1
330
47
100
AcDbEntity
  8
0
  6
Continuous
 62
     7
100
AcDbLine
 10
-176.2796319657356
 20
-168.7210218243328
 30
0.0
 11
-181.7796319657356
 21
-173.4841615451472
 31
0.0
  0
LINE
  5
E2
330
47
100
AcDbEntity
  8
0
  6
Continuous
 62
     7
100
AcDbLine
 10
-178.086051933806
 20
-169.2424903517505
 30
0.0
 11
-176.2796319657356
 21
-168.7210218243328
 31
0.0
  0
LINE
  5
E3
330
47
100
AcDbEntity
  8
0
  6
Continuous
 62
     7
100
AcDbLine
 10
-180.1866429749416
 20
-175.1443052338222
 30
0.0
 11
-181.7796319657356
 21
-173.4841615451472
 31
0.0
  0
LINE
  5
E4
330
47
100
AcDbEntity
  8
0
  6
Continuous
 62
     7
100
AcDbLine
 10
-174.9937559360321
 20
-170.6471331391437
 30
0.0
 11
-174.9852989320325
 21
-170.6642224265186
 31
0.0
  0
LINE
  5
E5
330
47
100
AcDbEntity
  8
0
  6
Continuous
 62
     7
100
AcDbLine
 10
-176.2294253776683
 20
-174.0019549113079
 30
0.0
 11
-176.4724102428971
 21
-171.9520985999825
 31
0.0
  0
LINE
  5
E6
330
47
100
AcDbEntity
  8
0
  6
Continuous
 62
     7
100
AcDbLine
 10
-175.8455341763047
 20
-173.8911350670844
 30
0.0
 11
-176.2294253776683
 21
-174.0019549113079
 31
0.0
  0
LINE
  5
E7
330
47
100
AcDbEntity
  8
0
  6
Continuous
 62
     7
100
AcDbLine
 10
-175.3887057758086
 20
-174.8142600670846
 30
0.0
 11
-175.8455341763047
 21
-173.8911350670844
 31
0.0
  0
LINE
  5
E8
330
47
100
AcDbEntity
  8
0
  6
Continuous
 62
     7
100
AcDbLine
 10
-180.5705341763051
 20
-175.255125078045
 30
0.0
 11
-180.1137057758088
 21
-176.1782500780452
 31
0.0
  0
LINE
  5
E9
330
47
100
AcDbEntity
  8
0
  6
Continuous
 62
     7
100
AcDbLine
 10
-176.4724102428971
 20
-171.9520985999825
 30
0.0
 11
-174.6226890046372
 21
-171.4181300725648
 31
0.0
  0
LINE
  5
EA
330
47
100
AcDbEntity
  8
0
  6
Continuous
 62
     7
100
AcDbLine
 10
-180.1866429749416
 20
-175.1443052338222
 30
0.0
 11
-180.5705341763051
 21
-175.255125078045
 31
0.0
  0
LINE
  5
EB
330
47
100
AcDbEntity
  8
0
  6
Continuous
 62
     7
100
AcDbLine
 10
-150.2507978959615
 20
-216.7685891282966
 30
0.0
 11
-153.5566210575804
 21
-219.6315159666778
 31
0.0
  0
LINE
  5
EC
330
47
100
AcDbEntity
  8
0
  6
Continuous
 62
     7
100
AcDbLine
 10
-140.4139468691825
 20
-214.0435373326179
 30
0.0
 11
-145.9139468691826
 21
-218.8066770534323
 31
0.0
  0
LINE
  5
ED
330
47
100
AcDbEntity
  8
0
  6
Continuous
 62
     2
100
AcDbLine
 10
-168.7795437184817
 20
-211.2583262373792
 30
0.0
 11
-167.7578197621928
 21
-210.3734873355776
 31
0.0
  0
LINE
  5
EE
330
47
100
AcDbEntity
  8
0
  6
Continuous
 62
     7
100
AcDbLine
 10
-167.5815078581791
 20
-210.3946229978063
 30
0.0
 11
-168.8615662223226
 21
-211.5031860594813
 31
0.0
  0
LINE
  5
EF
330
47
100
AcDbEntity
  8
0
  6
Continuous
 62
     7
100
AcDbLine
 10
-145.9139468691826
 20
-218.8066770534323
 30
0.0
 11
-145.9139468691826
 21
-208.0246607763162
 31
0.0
  0
LINE
  5
F0
330
47
100
AcDbEntity
  8
0
  6
Continuous
 62
     7
100
AcDbLine
 10
-149.5945548352667
 20
-215.3193059228361
 30
0.0
 11
-153.1236083556881
 21
-214.3005559228361
 31
0.0
  0
LINE
  5
F1
330
47
100
AcDbEntity
  8
0
  6
Continuous
 62
     7
100
AcDbLine
 10
-153.1236083556881
 20
-214.3005559228361
 30
0.0
 11
-153.5782716926751
 21
-212.118452142386
 31
0.0
  0
LINE
  5
F2
330
47
100
AcDbEntity
  8
0
  6
Continuous
 62
     7
100
AcDbLine
 10
-154.8773097983518
 20
-211.5204541060945
 30
0.0
 11
-153.8164286787157
 21
-216.6120295938107
 31
0.0
  0
LINE
  5
F3
330
47
100
AcDbEntity
  8
0
  6
Continuous
 62
     7
100
AcDbLine
 10
-153.8164286787157
 20
-217.0450422957028
 30
0.0
 11
-154.5525502719326
 21
-216.8325422957029
 31
0.0
  0
LINE
  5
F4
330
47
100
AcDbEntity
  8
0
  6
Continuous
 62
     7
100
AcDbLine
 10
-153.8164286787157
 20
-216.6120295938107
 30
0.0
 11
-153.8164286787157
 21
-217.0450422957028
 31
0.0
  0
LINE
  5
F5
330
47
100
AcDbEntity
  8
0
  6
Continuous
 62
     7
100
AcDbLine
 10
-149.4646510246989
 20
-217.7816770534323
 30
0.0
 11
-150.2873751582943
 21
-216.7214529198368
 31
0.0
  0
LINE
  5
F6
330
47
100
AcDbEntity
  8
0
  6
Continuous
 62
     7
100
AcDbLine
 10
-156.1113959987445
 20
-217.4650740504334
 30
0.0
 11
-156.6656522571666
 21
-217.3050740504334
 31
0.0
  0
LINE
  5
F7
330
47
100
AcDbEntity
  8
0
  6
Continuous
 62
     7
100
AcDbLine
 10
-145.9139468691826
 20
-218.8066770534323
 30
0.0
 11
-149.4646510246989
 21
-217.7816770534323
 31
0.0
  0
LINE
  5
F8
330
47
100
AcDbEntity
  8
0
  6
Continuous
 62
     7
100
AcDbLine
 10
-154.5525502719326
 20
-218.1315804013795
 30
0.0
 11
-153.5566210575804
 21
-218.5273335768526
 31
0.0
  0
LINE
  5
F9
330
47
100
AcDbEntity
  8
0
  6
Continuous
 62
     7
100
AcDbLine
 10
-153.5566210575804
 20
-218.5273335768526
 30
0.0
 11
-149.7878710575807
 21
-215.2635003363402
 31
0.0
  0
LINE
  5
FA
330
47
100
AcDbEntity
  8
0
  6
Continuous
 62
     7
100
AcDbLine
 10
-150.2873751582943
 20
-216.3317414881344
 30
0.0
 11
-149.5945548352667
 21
-215.7317414881343
 31
0.0
  0
LINE
  5
FB
330
47
100
AcDbEntity
  8
0
  6
Continuous
 62
     7
100
AcDbLine
 10
-154.5525502719326
 20
-218.1315804013795
 30
0.0
 11
-150.8775502719328
 21
-214.948937042472
 31
0.0
  0
LINE
  5
FC
330
47
100
AcDbEntity
  8
0
  6
Continuous
 62
     7
100
AcDbLine
 10
-150.2873751582943
 20
-216.3317414881344
 30
0.0
 11
-149.5945548352667
 21
-216.3585364073772
 31
0.0
  0
LINE
  5
FD
330
47
100
AcDbEntity
  8
0
  6
Continuous
 62
     7
100
AcDbLine
 10
-154.5525502719326
 20
-216.8325422957029
 30
0.0
 11
-154.5525502719326
 21
-218.1315804013795
 31
0.0
  0
LINE
  5
FE
330
47
100
AcDbEntity
  8
0
  6
Continuous
 62
     7
100
AcDbLine
 10
-149.5945548352667
 20
-216.3585364073772
 30
0.0
 11
-149.5945548352667
 21
-215.3193059228361
 31
0.0
  0
LINE
  5
FF
330
47
100
AcDbEntity
  8
0
  6
Continuous
 62
     7
100
AcDbLine
 10
-150.2873751582943
 20
-216.7214529198368
 30
0.0
 11
-150.2873751582943
 21
-216.3317414881344
 31
0.0
  0
LINE
  5
100
330
47
100
AcDbEntity
  8
0
  6
Continuous
 62
     7
100
AcDbLine
 10
-153.8164286787157
 20
-216.6120295938107
 30
0.0
 11
-151.641428678716
 21
-214.7284243405797
 31
0.0
  0
LINE
  5
101
330
47
100
AcDbEntity
  8
0
  6
Continuous
 62
     7
100
AcDbLine
 10
-153.8164286787157
 20
-217.0450422957028
 30
0.0
 11
-151.266428678716
 21
-214.8366775160528
 31
0.0
  0
LINE
  5
102
330
47
100
AcDbEntity
  8
0
  6
Continuous
 62
     7
100
AcDbLine
 10
-181.0096263575471
 20
-206.4050146294507
 30
0.0
 11
-183.4803660672675
 21
-208.5447379842076
 31
0.0
  0
LINE
  5
103
330
47
100
AcDbEntity
  8
0
  6
Continuous
 62
     2
100
AcDbLine
 10
-183.1530392319136
 20
-208.4896897553245
 30
0.0
 11
-181.0096263575471
 21
-206.6334397553245
 31
0.0
  0
LINE
  5
104
330
47
100
AcDbEntity
  8
0
  6
Continuous
 62
     2
100
AcDbLine
 10
-182.9365328809676
 20
-208.5521897553245
 30
0.0
 11
-181.0096263575471
 21
-206.8834397553245
 31
0.0
  0
LINE
  5
105
330
47
100
AcDbEntity
  8
0
  6
Continuous
 62
     7
100
AcDbLine
 10
-178.7579603077076
 20
-208.2861965688935
 30
0.0
 11
-175.6079603077054
 21
-205.5582165469706
 31
0.0
  0
LINE
  5
106
330
47
100
AcDbEntity
  8
0
  6
Continuous
 62
     7
100
AcDbLine
 10
-183.586051933806
 20
-197.1496607763161
 30
0.0
 11
-177.3073677563687
 21
-198.9621607763162
 31
0.0
  0
LINE
  5
107
330
47
100
AcDbEntity
  8
0
  6
Continuous
 62
     7
100
AcDbLine
 10
-179.6456363465868
 20
-207.6835364073772
 30
0.0
 11
-176.3855794896622
 21
-204.8602443514989
 31
0.0
  0
LINE
  5
108
330
47
100
AcDbEntity
  8
0
  6
Continuous
 62
     7
100
AcDbLine
 10
-178.7579603077077
 20
-208.112991488134
 30
0.0
 11
-175.7435318928575
 21
-205.5024199029841
 31
0.0
  0
LINE
  5
109
330
47
100
AcDbEntity
  8
0
  6
Continuous
 62
     7
100
AcDbLine
 10
-177.0475601352334
 20
-202.8909738231567
 30
0.0
 11
-178.0651399846801
 21
-202.5972238231568
 31
0.0
  0
LINE
  5
10A
330
47
100
AcDbEntity
  8
0
  6
Continuous
 62
     2
100
AcDbLine
 10
-177.0475601352334
 20
-202.8909738231567
 30
0.0
 11
-176.5975601352333
 21
-202.5012623914537
 31
0.0
  0
LINE
  5
10B
330
47
100
AcDbEntity
  8
0
  6
Continuous
 62
     2
100
AcDbLine
 10
-178.0651399846801
 20
-202.5972238231568
 30
0.0
 11
-177.2776399846803
 21
-201.9152288176767
 31
0.0
  0
LINE
  5
10C
330
47
100
AcDbEntity
  8
0
  6
Continuous
 62
     7
100
AcDbLine
 10
-178.8445628480862
 20
-206.7019941243909
 30
0.0
 11
-176.5770140747619
 21
-204.7382392823718
 31
0.0
  0
LINE
  5
10D
330
47
100
AcDbEntity
  8
0
  6
Continuous
 62
     7
100
AcDbLine
 10
-178.7579603077077
 20
-208.112991488134
 30
0.0
 11
-179.6456363465868
 21
-207.6835364073772
 31
0.0
  0
LINE
  5
10E
330
47
100
AcDbEntity
  8
0
  6
Continuous
 62
     7
100
AcDbLine
 10
-178.8445628480861
 20
-206.09613305943
 30
0.0
 11
-177.0445717177711
 21
-204.5372950139906
 31
0.0
  0
LINE
  5
10F
330
47
100
AcDbEntity
  8
0
  6
Continuous
 62
     7
100
AcDbLine
 10
-178.8445628480862
 20
-206.7019941243909
 30
0.0
 11
-178.8445628480861
 21
-206.09613305943
 31
0.0
  0
LINE
  5
110
330
47
100
AcDbEntity
  8
0
  6
Continuous
 62
     2
100
AcDbLine
 10
-178.8867238209378
 20
-206.0839622349174
 30
0.0
 11
-177.0867238209378
 21
-204.5251165081054
 31
0.0
  0
LINE
  5
111
330
47
100
AcDbEntity
  8
0
  6
Continuous
 62
     7
100
AcDbLine
 10
-178.8445628480861
 20
-206.09613305943
 30
0.0
 11
-178.8867238209378
 21
-206.0839622349174
 31
0.0
  0
LINE
  5
112
330
47
100
AcDbEntity
  8
0
  6
Continuous
 62
     7
100
AcDbLine
 10
-178.0651399846801
 20
-204.2426720903473
 30
0.0
 11
-177.0505281123255
 21
-204.5355653091606
 31
0.0
  0
LINE
  5
113
330
47
100
AcDbEntity
  8
0
  6
Continuous
 62
     2
100
AcDbLine
 10
-179.5353426390361
 20
-205.2130178441566
 30
0.0
 11
-178.3518606646255
 21
-204.1880923893962
 31
0.0
  0
LINE
  5
114
330
47
100
AcDbEntity
  8
0
  6
Continuous
 62
     7
100
AcDbLine
 10
-175.825783240934
 20
-205.3964246359311
 30
0.0
 11
-175.7268713944621
 21
-205.5238898729962
 31
0.0
  0
LINE
  5
115
330
47
100
AcDbEntity
  8
0
  6
Continuous
 62
     7
100
AcDbLine
 10
-174.8121152945331
 20
-207.1447303458604
 30
0.0
 11
-180.3121152945331
 21
-211.9078700666748
 31
0.0
  0
LINE
  5
116
330
47
100
AcDbEntity
  8
0
  6
Continuous
 62
     7
100
AcDbLine
 10
-178.7579603077077
 20
-208.112991488134
 30
0.0
 11
-178.7579603077076
 21
-208.2861965688935
 31
0.0
  0
LINE
  5
117
330
47
100
AcDbEntity
  8
0
  6
Continuous
 62
     7
100
AcDbLine
 10
-179.6456363465868
 20
-207.6835364073772
 30
0.0
 11
-179.7322388869651
 21
-206.6193059228361
 31
0.0
  0
LINE
  5
118
330
47
100
AcDbEntity
  8
0
  6
Continuous
 62
     7
100
AcDbLine
 10
-179.7322388869651
 20
-206.6193059228361
 30
0.0
 11
-178.8445628480862
 21
-206.7019941243909
 31
0.0
  0
LINE
  5
119
330
47
100
AcDbEntity
  8
0
  6
Continuous
 62
     7
100
AcDbLine
 10
-178.6228293253928
 20
-201.526906103691
 30
0.0
 11
-180.2909624650873
 21
-202.9715517795611
 31
0.0
  0
LINE
  5
11A
330
47
100
AcDbEntity
  8
0
  6
Continuous
 62
     2
100
AcDbLine
 10
-179.7538895220597
 20
-201.8089918443677
 30
0.0
 11
-179.2268310554217
 21
-201.3525458229794
 31
0.0
  0
LINE
  5
11B
330
47
100
AcDbEntity
  8
0
  6
Continuous
 62
     7
100
AcDbLine
 10
-179.0870217954443
 20
-201.392905279921
 30
0.0
 11
-179.8595753885979
 21
-202.061956317377
 31
0.0
  0
LINE
  5
11C
330
47
100
AcDbEntity
  8
0
  6
Continuous
 62
     7
100
AcDbLine
 10
-179.7538895220597
 20
-201.2003971491834
 30
0.0
 11
-177.0475601352334
 21
-201.981647149183
 31
0.0
  0
LINE
  5
11D
330
47
100
AcDbEntity
  8
0
  6
Continuous
 62
     7
100
AcDbLine
 10
-179.7538895220597
 20
-201.8089918443677
 30
0.0
 11
-179.7538895220597
 21
-201.2003971491834
 31
0.0
  0
LINE
  5
11E
330
47
100
AcDbEntity
  8
0
  6
Continuous
 62
     7
100
AcDbLine
 10
-183.586051933806
 20
-200.5704611212645
 30
0.0
 11
-182.0054268834439
 21
-201.0267482704214
 31
0.0
  0
LINE
  5
11F
330
47
100
AcDbEntity
  8
0
  6
Continuous
 62
     7
100
AcDbLine
 10
-179.880716006104
 20
-202.078566409864
 30
0.0
 11
-180.7238379742988
 21
-202.6783000304092
 31
0.0
  0
LINE
  5
120
330
47
100
AcDbEntity
  8
0
  6
Continuous
 62
     7
100
AcDbLine
 10
-182.0054268834439
 20
-201.0267482704214
 30
0.0
 11
-180.7238379742988
 21
-202.6783000304092
 31
0.0
  0
LINE
  5
121
330
47
100
AcDbEntity
  8
0
  6
Continuous
 62
     7
100
AcDbLine
 10
-183.5860519338059
 20
-210.9627659666778
 30
0.0
 11
-180.3121152945331
 21
-211.9078700666748
 31
0.0
  0
LINE
  5
122
330
47
100
AcDbEntity
  8
0
  6
Continuous
 62
     7
100
AcDbLine
 10
-182.6767252598322
 20
-210.3159392927041
 30
0.0
 11
-181.0096263575471
 21
-210.7971892927042
 31
0.0
  0
LINE
  5
123
330
47
100
AcDbEntity
  8
0
  6
Continuous
 62
     7
100
AcDbLine
 10
-181.0096263575471
 20
-210.7971892927042
 30
0.0
 11
-181.0096263575472
 21
-204.6917101960239
 31
0.0
  0
LINE
  5
124
330
47
100
AcDbEntity
  8
0
  6
Continuous
 62
     7
100
AcDbLine
 10
-183.5860519338059
 20
-208.7977024572167
 30
0.0
 11
-183.5860519338059
 21
-210.9627659666778
 31
0.0
  0
LINE
  5
125
330
47
100
AcDbEntity
  8
0
  6
Continuous
 62
     7
100
AcDbLine
 10
-183.586051933806
 20
-200.5704611212645
 30
0.0
 11
-183.586051933806
 21
-197.1496607763161
 31
0.0
  0
LINE
  5
126
330
47
100
AcDbEntity
  8
0
  6
Continuous
 62
     7
100
AcDbLine
 10
-181.0096263575471
 20
-207.9778902849828
 30
0.0
 11
-182.6092060456136
 21
-209.363166930226
 31
0.0
  0
LINE
  5
127
330
47
100
AcDbEntity
  8
0
  6
Continuous
 62
     7
100
AcDbLine
 10
-183.1530392319136
 20
-208.4896897553245
 30
0.0
 11
-182.9365328809676
 21
-208.5521897553245
 31
0.0
  0
LINE
  5
128
330
47
100
AcDbEntity
  8
0
  6
Continuous
 62
     7
100
AcDbLine
 10
-182.6767252598322
 20
-210.3159392927041
 30
0.0
 11
-181.0096263575471
 21
-208.8721892927041
 31
0.0
  0
LINE
  5
129
330
47
100
AcDbEntity
  8
0
  6
Continuous
 62
     7
100
AcDbLine
 10
-182.6767252598322
 20
-209.4066126187305
 30
0.0
 11
-182.6767252598322
 21
-210.3159392927041
 31
0.0
  0
LINE
  5
12A
330
47
100
AcDbEntity
  8
0
  6
Continuous
 62
     7
100
AcDbLine
 10
-177.3073677563687
 20
-198.9621607763162
 30
0.0
 11
-177.3073677563687
 21
-196.1042769438273
 31
0.0
  0
LINE
  5
12B
330
47
100
AcDbEntity
  8
0
  6
Continuous
 62
     7
100
AcDbLine
 10
-175.7268713944621
 20
-205.5238898729962
 30
0.0
 11
-170.7039240525123
 21
-206.9738898729962
 31
0.0
  0
LINE
  5
12C
330
47
100
AcDbEntity
  8
0
  6
Continuous
 62
     7
100
AcDbLine
 10
-170.4186385799714
 20
-205.9915448169961
 30
0.0
 11
-170.7039240525123
 21
-206.9738898729962
 31
0.0
  0
LINE
  5
12D
330
47
100
AcDbEntity
  8
0
  6
Continuous
 62
     2
100
AcDbLine
 10
-170.4186385799714
 20
-205.9915448169961
 30
0.0
 11
-170.1710540405562
 21
-205.7771303162784
 31
0.0
  0
LINE
  5
12E
330
47
100
AcDbEntity
  8
0
  6
Continuous
 62
     7
100
AcDbLine
 10
-169.9028505540117
 20
-205.8194992269412
 30
0.0
 11
-170.0003804281025
 21
-205.791344777411
 31
0.0
  0
LINE
  5
12F
330
47
100
AcDbEntity
  8
0
  6
Continuous
 62
     7
100
AcDbLine
 10
-169.4698378521193
 20
-208.4126716277268
 30
0.0
 11
-169.4698378521196
 21
-206.3775119288334
 31
0.0
  0
LINE
  5
130
330
47
100
AcDbEntity
  8
0
  6
Continuous
 62
     7
100
AcDbLine
 10
-170.7039240525123
 20
-206.9738898729962
 30
0.0
 11
-169.6059523076629
 21
-206.023018449319
 31
0.0
  0
LINE
  5
131
330
47
100
AcDbEntity
  8
0
  6
Continuous
 62
     7
100
AcDbLine
 10
-169.4698378521196
 20
-208.0526840726389
 30
0.0
 11
-170.1879030427504
 21
-208.6745467692984
 31
0.0
  0
LINE
  5
132
330
47
100
AcDbEntity
  8
0
  6
Continuous
 62
     2
100
AcDbLine
 10
-169.7296454732548
 20
-208.5974792488623
 30
0.0
 11
-169.4698378521196
 21
-208.3724792488623
 31
0.0
  0
SPLINE
  5
133
330
47
100
AcDbEntity
  8
0
  6
Continuous
 62
     7
100
AcDbSpline
210
0.0
220
0.0
230
1.0
 70
     8
 71
     3
 72
    17
 73
    13
 74
    11
 42
0.000000001
 43
0.0000000001
 44
0.00000001
 40
0.0
 40
0.0
 40
0.0
 40
0.0
 40
0.4148430342068136
 40
0.9002887269431576
 40
1.488296493983887
 40
2.175958237832371
 40
2.939485765404632
 40
3.743561045095349
 40
4.547636324563043
 40
5.311163851226159
 40
5.998825595681867
 40
6.586833368396288
 40
6.586833368396288
 40
6.586833368396288
 40
6.586833368396288
 10
-171.8185872888478
 20
-168.3997722280607
 30
0.0
 10
-171.7949659739671
 20
-168.5386743662966
 30
0.0
 10
-171.7437031919182
 20
-168.8401185675486
 30
0.0
 10
-171.3882715326621
 20
-169.2174776076898
 30
0.0
 10
-170.8914826735582
 20
-169.5300352005295
 30
0.0
 10
-170.248716955486
 20
-169.7673425997547
 30
0.0
 10
-169.5098641315301
 20
-169.9162735531809
 30
0.0
 10
-168.718702508687
 20
-169.9667786336665
 30
0.0
 10
-167.9268612383188
 20
-169.9169605029563
 30
0.0
 10
-167.1898820946236
 20
-169.7648622238882
 30
0.0
 10
-166.5412598622086
 20
-169.5378225424247
 30
0.0
 10
-166.193982666049
 20
-169.2893180318176
 30
0.0
 10
-166.0339085371161
 20
-169.1747722280607
 30
0.0
 11
-171.8185872888478
 21
-168.3997722280607
 31
0.0
 11
-171.7129565520275
 21
-168.8009416410155
 31
0.0
 11
-171.4032660405795
 21
-169.1747722280606
 31
0.0
 11
-170.910617726118
 21
-169.4957874466958
 31
0.0
 11
-170.2685872888479
 21
-169.7421116039266
 31
0.0
 11
-169.5209261147575
 21
-169.8969568596506
 31
0.0
 11
-168.7185872888479
 21
-169.9497722280607
 31
0.0
 11
-167.9162484629383
 21
-169.8969568596506
 31
0.0
 11
-167.1685872888478
 21
-169.7421116039266
 31
0.0
 11
-166.5265568515777
 21
-169.4957874466957
 31
0.0
 11
-166.0339085371161
 21
-169.1747722280607
 31
0.0
  0
SPLINE
  5
134
330
47
100
AcDbEntity
  8
0
  6
Continuous
 62
     7
100
AcDbSpline
210
0.0
220
0.0
230
1.0
 70
     8
 71
     3
 72
    15
 73
    11
 74
     9
 42
0.000000001
 43
0.0000000001
 44
0.00000001
 40
0.0
 40
0.0
 40
0.0
 40
0.0
 40
0.5720075578344118
 40
1.228054722747908
 40
1.946703607309478
 40
2.698499135691087
 40
3.450294664072639
 40
4.16894354863421
 40
4.824990713547678
 40
5.39699827138214
 40
5.39699827138214
 40
5.39699827138214
 40
5.39699827138214
 10
-166.1475952624114
 20
-169.2657976318451
 30
0.0
 10
-166.3095760224941
 20
-169.1640467536273
 30
0.0
 10
-166.6573358381632
 20
-168.9455957311306
 30
0.0
 10
-167.2800069044673
 20
-168.7442843368694
 30
0.0
 10
-167.9769736032456
 20
-168.6106470812136
 30
0.0
 10
-168.7185872888479
 20
-168.5670861230256
 30
0.0
 10
-169.4602009744501
 20
-168.6106470812136
 30
0.0
 10
-170.1571676732285
 20
-168.7442843368694
 30
0.0
 10
-170.7798387395325
 20
-168.9455957311307
 30
0.0
 10
-171.1275985552017
 20
-169.1640467536272
 30
0.0
 10
-171.2895793152844
 20
-169.2657976318451
 30
0.0
 11
-166.1475952624114
 21
-169.2657976318451
 31
0.0
 11
-166.6433102035398
 21
-168.9803867998069
 31
0.0
 11
-167.2624549980624
 21
-168.7634591629944
 31
0.0
 11
-167.9682061885374
 21
-168.627917718982
 31
0.0
 11
-168.7185872888479
 21
-168.5818230356295
 31
0.0
 11
-169.4689683891584
 21
-168.627917718982
 31
0.0
 11
-170.1747195796334
 21
-168.7634591629944
 31
0.0
 11
-170.7938643741559
 21
-168.9803867998069
 31
0.0
 11
-171.2895793152844
 21
-169.2657976318451
 31
0.0
  0
SPLINE
  5
135
330
47
100
AcDbEntity
  8
0
  6
Continuous
 62
     7
100
AcDbSpline
210
0.0
220
0.0
230
1.0
 70
     8
 71
     3
 72
     9
 73
     5
 74
     3
 42
0.000000001
 43
0.0000000001
 44
0.00000001
 40
0.0
 40
0.0
 40
0.0
 40
0.0
 40
0.4854456906795532
 40
0.9002887316767969
 40
0.9002887316767969
 40
0.9002887316767969
 40
0.9002887316767969
 10
-166.0339085371161
 20
-169.1747722280607
 30
0.0
 10
-165.9139554220188
 20
-169.0587547523575
 30
0.0
 10
-165.6914950478915
 20
-168.8435932356792
 30
0.0
 10
-165.6415851887947
 20
-168.5397704115334
 30
0.0
 10
-165.618587288848
 20
-168.3997722280607
 30
0.0
 11
-166.0339085371161
 21
-169.1747722280607
 31
0.0
 11
-165.7242180256682
 21
-168.8009416410155
 31
0.0
 11
-165.618587288848
 21
-168.3997722280607
 31
0.0
  0
SPLINE
  5
136
330
47
100
AcDbEntity
  8
0
  6
Continuous
 62
     7
100
AcDbSpline
210
0.0
220
0.0
230
1.0
 70
     8
 71
     3
 72
    19
 73
    15
 74
    13
 42
0.000000001
 43
0.0000000001
 44
0.00000001
 40
0.0
 40
0.0
 40
0.0
 40
0.0
 40
0.414843038827834
 40
0.9002887280266131
 40
1.488296496112516
 40
2.175958241578445
 40
2.939485771591245
 40
3.743561054513162
 40
4.54763633743502
 40
5.311163867447882
 40
5.998825612913875
 40
6.586833380999667
 40
7.07227907019849
 40
7.487122109026276
 40
7.487122109026276
 40
7.487122109026276
 40
7.487122109026276
 10
-165.618587288848
 20
-168.3997722280607
 30
0.0
 10
-165.6422085859269
 20
-168.26087012004
 30
0.0
 10
-165.6934713361365
 20
-167.9594259897228
 30
0.0
 10
-166.0489033442528
 20
-167.5820663158453
 30
0.0
 10
-166.5456904209566
 20
-167.2695118649798
 30
0.0
 10
-167.1884644896182
 20
-167.0321897826094
 30
0.0
 10
-167.9272811916742
 20
-166.883322343934
 30
0.0
 10
-168.7185872888479
 20
-166.8325632498635
 30
0.0
 10
-169.5098933860216
 20
-166.8833223439339
 30
0.0
 10
-170.2487100880776
 20
-167.0321897826094
 30
0.0
 10
-170.8914841567393
 20
-167.2695118649798
 30
0.0
 10
-171.388271233443
 20
-167.5820663158453
 30
0.0
 10
-171.7437032415592
 20
-167.9594259897229
 30
0.0
 10
-171.7949659917689
 20
-168.2608701200399
 30
0.0
 10
-171.8185872888478
 20
-168.3997722280607
 30
0.0
 11
-165.618587288848
 21
-168.3997722280607
 31
0.0
 11
-165.7242180256682
 21
-167.9986028151059
 31
0.0
 11
-166.0339085371162
 21
-167.6247722280607
 31
0.0
 11
-166.5265568515778
 21
-167.3037570094256
 31
0.0
 11
-167.1685872888479
 21
-167.0574328521948
 31
0.0
 11
-167.9162484629383
 21
-166.9025875964709
 31
0.0
 11
-168.7185872888479
 21
-166.8497722280607
 31
0.0
 11
-169.5209261147575
 21
-166.9025875964708
 31
0.0
 11
-170.2685872888479
 21
-167.0574328521948
 31
0.0
 11
-170.9106177261181
 21
-167.3037570094256
 31
0.0
 11
-171.4032660405796
 21
-167.6247722280607
 31
0.0
 11
-171.7129565520276
 21
-167.998602815106
 31
0.0
 11
-171.8185872888478
 21
-168.3997722280607
 31
0.0
  0
SPLINE
  5
137
330
47
100
AcDbEntity
  8
0
  6
Continuous
 62
     7
100
AcDbSpline
210
0.0
220
0.0
230
1.0
 70
     8
 71
     3
 72
    19
 73
    15
 74
    13
 42
0.000000001
 43
0.0000000001
 44
0.00000001
 40
0.0
 40
0.0
 40
0.0
 40
0.0
 40
0.2676406686770632
 40
0.5808314346120025
 40
0.9601912858927987
 40
1.403844025770218
 40
1.896442433304887
 40
2.415200681653933
 40
2.933958930002867
 40
3.426557337537424
 40
3.87021007741479
 40
4.249569928695658
 40
4.56276069463058
 40
4.830401363307643
 40
4.830401363307643
 40
4.830401363307643
 40
4.830401363307643
 10
-153.9039114134894
 20
-197.0434688915064
 30
0.0
 10
-153.9191509599045
 20
-197.1330831542318
 30
0.0
 10
-153.9522237082931
 20
-197.3275632347163
 30
0.0
 10
-154.1815346692782
 20
-197.5710210965407
 30
0.0
 10
-154.5020424644743
 20
-197.7726691271241
 30
0.0
 10
-154.9167354114457
 20
-197.9257801496578
 30
0.0
 10
-155.3933913496534
 20
-198.0218236587716
 30
0.0
 10
-155.9039114134895
 20
-198.0545714617564
 30
0.0
 10
-156.4144314773255
 20
-198.0218236587717
 30
0.0
 10
-156.8910874155331
 20
-197.9257801496578
 30
0.0
 10
-157.3057803625045
 20
-197.7726691271241
 30
0.0
 10
-157.6262881577005
 20
-197.5710210965407
 30
0.0
 10
-157.8555991186857
 20
-197.3275632347163
 30
0.0
 10
-157.8886718670743
 20
-197.1330831542319
 30
0.0
 10
-157.9039114134894
 20
-197.0434688915064
 30
0.0
 11
-153.9039114134894
 21
-197.0434688915064
 31
0.0
 11
-153.972060275954
 21
-197.3022878676062
 31
0.0
 11
-154.1718606059205
 21
-197.5434688915063
 31
0.0
 11
-154.4896982281537
 21
-197.7505754841742
 31
0.0
 11
-154.9039114134894
 21
-197.9094942952908
 31
0.0
 11
-155.3862734612897
 21
-198.0093944602741
 31
0.0
 11
-155.9039114134895
 21
-198.0434688915064
 31
0.0
 11
-156.4215493656892
 21
-198.0093944602741
 31
0.0
 11
-156.9039114134894
 21
-197.9094942952908
 31
0.0
 11
-157.318124598825
 21
-197.7505754841742
 31
0.0
 11
-157.6359622210583
 21
-197.5434688915063
 31
0.0
 11
-157.8357625510247
 21
-197.3022878676062
 31
0.0
 11
-157.9039114134894
 21
-197.0434688915064
 31
0.0
  0
SPLINE
  5
138
330
47
100
AcDbEntity
  8
0
  6
Continuous
 62
     7
100
AcDbSpline
210
0.0
220
0.0
230
1.0
 70
     8
 71
     3
 72
    13
 73
     9
 74
     7
 42
0.000000001
 43
0.0000000001
 44
0.00000001
 40
0.0
 40
0.0
 40
0.0
 40
0.0
 40
0.1172631642635455
 40
0.2419307378213398
 40
0.3712960139461309
 40
0.5017221147109614
 40
0.6293737711447261
 40
0.7509434390751186
 40
0.7509434390751186
 40
0.7509434390751186
 40
0.7509434390751186
 10
-153.578271692675
 20
-210.9650119288334
 30
0.0
 10
-153.5813460669292
 20
-210.925861566309
 30
0.0
 10
-153.5876889569473
 20
-210.8450887513332
 30
0.0
 10
-153.6335589900486
 20
-210.7284408370233
 30
0.0
 10
-153.7018284695305
 20
-210.6192330862888
 30
0.0
 10
-153.7914268897184
 20
-210.5252946806865
 30
0.0
 10
-153.8948288242609
 20
-210.4498916508217
 30
0.0
 10
-153.9731025994196
 20
-210.4210621793249
 30
0.0
 10
-154.0112843945673
 20
-210.4069992269412
 30
0.0
 11
-153.578271692675
 21
-210.9650119288334
 31
0.0
 11
-153.5930263542084
 21
-210.8486807207874
 31
0.0
 11
-153.6362843945674
 21
-210.7317587533603
 31
0.0
 11
-153.7050982583505
 21
-210.6222141167
 31
0.0
 11
-153.7947780436213
 21
-210.5275119288335
 31
0.0
 11
-153.8992124904254
 21
-210.4541062604871
 31
0.0
 11
-154.0112843945673
 21
-210.4069992269412
 31
0.0
  0
SPLINE
  5
139
330
47
100
AcDbEntity
  8
0
  6
Continuous
 62
     7
100
AcDbSpline
210
0.0
220
0.0
230
1.0
 70
     8
 71
     3
 72
     9
 73
     5
 74
     3
 42
0.000000001
 43
0.0000000001
 44
0.00000001
 40
0.0
 40
0.0
 40
0.0
 40
0.0
 40
0.134735159755077
 40
0.2806984683897907
 40
0.2806984683897907
 40
0.2806984683897907
 40
0.2806984683897907
 10
-154.7716239318135
 20
-210.3370474558242
 30
0.0
 10
-154.8020164155146
 20
-210.3717489221143
 30
0.0
 10
-154.8653341225883
 20
-210.4440437095381
 30
0.0
 10
-154.8732128609691
 20
-210.5400754071449
 30
0.0
 10
-154.8773097983518
 20
-210.5900119288334
 30
0.0
 11
-154.7716239318135
 21
-210.3370474558242
 31
0.0
 11
-154.8500282576307
 21
-210.4466208355582
 31
0.0
 11
-154.8773097983518
 21
-210.5900119288334
 31
0.0
  0
SPLINE
  5
13A
330
47
100
AcDbEntity
  8
0
  6
Continuous
 62
     7
100
AcDbSpline
210
0.0
220
0.0
230
1.0
 70
     8
 71
     3
 72
    11
 73
     7
 74
     5
 42
0.000000001
 43
0.0000000001
 44
0.00000001
 40
0.0
 40
0.0
 40
0.0
 40
0.0
 40
0.0935705952109151
 40
0.1815181363975998
 40
0.2647690944695759
 40
0.3453217744506684
 40
0.3453217744506684
 40
0.3453217744506684
 40
0.3453217744506684
 10
-154.4442970964595
 20
-210.2819992269412
 30
0.0
 10
-154.4748274037159
 20
-210.2749588266246
 30
0.0
 10
-154.5340533248634
 20
-210.2613011279046
 30
0.0
 10
-154.6230856004699
 20
-210.265774616979
 30
0.0
 10
-154.7053228359865
 20
-210.2887392314423
 30
0.0
 10
-154.7497676099906
 20
-210.3211225230113
 30
0.0
 10
-154.7716239318135
 20
-210.3370474558242
 30
0.0
 11
-154.4442970964595
 21
-210.2819992269412
 31
0.0
 11
-154.5363695376016
 21
-210.2653222386605
 31
0.0
 11
-154.6242310242528
 21
-210.2692119128557
 31
0.0
 11
-154.7038631345676
 21
-210.2934904939527
 31
0.0
 11
-154.7716239318135
 21
-210.3370474558242
 31
0.0
  0
SPLINE
  5
13B
330
47
100
AcDbEntity
  8
0
  6
Continuous
 62
     7
100
AcDbSpline
210
0.0
220
0.0
230
1.0
 70
     8
 71
     3
 72
    19
 73
    15
 74
    13
 42
0.000000001
 43
0.0000000001
 44
0.00000001
 40
0.0
 40
0.0
 40
0.0
 40
0.0
 40
0.267640668677098
 40
0.5808314346120915
 40
0.960191285892896
 40
1.403844025770183
 40
1.896442433304762
 40
2.415200681653839
 40
2.933958930002859
 40
3.426557337537383
 40
3.870210077414803
 40
4.249569928695655
 40
4.562760694630557
 40
4.830401363307641
 40
4.830401363307641
 40
4.830401363307641
 40
4.830401363307641
 10
-166.7210873894994
 20
-193.3434688915063
 30
0.0
 10
-166.7363269359145
 20
-193.4330831542318
 30
0.0
 10
-166.7693996843032
 20
-193.6275632347162
 30
0.0
 10
-166.9987106452883
 20
-193.8710210965405
 30
0.0
 10
-167.3192184404844
 20
-194.072669127124
 30
0.0
 10
-167.7339113874557
 20
-194.2257801496577
 30
0.0
 10
-168.2105673256634
 20
-194.3218236587716
 30
0.0
 10
-168.7210873894994
 20
-194.3545714617562
 30
0.0
 10
-169.2316074533355
 20
-194.3218236587716
 30
0.0
 10
-169.7082633915431
 20
-194.2257801496576
 30
0.0
 10
-170.1229563385145
 20
-194.072669127124
 30
0.0
 10
-170.4434641337106
 20
-193.8710210965407
 30
0.0
 10
-170.6727750946957
 20
-193.6275632347161
 30
0.0
 10
-170.7058478430842
 20
-193.4330831542317
 30
0.0
 10
-170.7210873894994
 20
-193.3434688915063
 30
0.0
 11
-166.7210873894994
 21
-193.3434688915063
 31
0.0
 11
-166.7892362519641
 21
-193.6022878676062
 31
0.0
 11
-166.9890365819306
 21
-193.8434688915063
 31
0.0
 11
-167.3068742041639
 21
-194.0505754841741
 31
0.0
 11
-167.7210873894994
 21
-194.2094942952907
 31
0.0
 11
-168.2034494372996
 21
-194.3093944602739
 31
0.0
 11
-168.7210873894994
 21
-194.3434688915063
 31
0.0
 11
-169.2387253416992
 21
-194.3093944602739
 31
0.0
 11
-169.7210873894994
 21
-194.2094942952907
 31
0.0
 11
-170.135300574835
 21
-194.0505754841741
 31
0.0
 11
-170.4531381970684
 21
-193.8434688915063
 31
0.0
 11
-170.6529385270348
 21
-193.6022878676062
 31
0.0
 11
-170.7210873894994
 21
-193.3434688915063
 31
0.0
  0
SPLINE
  5
13C
330
47
100
AcDbEntity
  8
0
  6
Continuous
 62
     7
100
AcDbSpline
210
0.0
220
0.0
230
1.0
 70
     8
 71
     3
 72
    19
 73
    15
 74
    13
 42
0.000000001
 43
0.0000000001
 44
0.00000001
 40
0.0
 40
0.0
 40
0.0
 40
0.0
 40
0.4148430388278282
 40
0.9002887280265672
 40
1.488296496112398
 40
2.175958241578481
 40
2.939485771591287
 40
3.743561054513117
 40
4.547636337434975
 40
5.311163867447808
 40
5.998825612913811
 40
6.586833380999666
 40
7.072279070198442
 40
7.487122109026263
 40
7.487122109026263
 40
7.487122109026263
 40
7.487122109026263
 10
-152.8014115141409
 20
-172.0997721699496
 30
0.0
 10
-152.8250328112198
 20
-172.2386742779704
 30
0.0
 10
-152.8762955614295
 20
-172.5401184082874
 30
0.0
 10
-153.2317275695458
 20
-172.917478082165
 30
0.0
 10
-153.7285146462494
 20
-173.2300325330305
 30
0.0
 10
-154.3712887149113
 20
-173.4673546154009
 30
0.0
 10
-155.1101054169672
 20
-173.6162220540763
 30
0.0
 10
-155.9014115141408
 20
-173.6669811481468
 30
0.0
 10
-156.6927176113146
 20
-173.6162220540764
 30
0.0
 10
-157.4315343133704
 20
-173.467354615401
 30
0.0
 10
-158.0743083820322
 20
-173.2300325330304
 30
0.0
 10
-158.5710954587359
 20
-172.917478082165
 30
0.0
 10
-158.9265274668522
 20
-172.5401184082874
 30
0.0
 10
-158.9777902170619
 20
-172.2386742779704
 30
0.0
 10
-159.0014115141408
 20
-172.0997721699496
 30
0.0
 11
-152.8014115141409
 21
-172.0997721699496
 31
0.0
 11
-152.9070422509612
 21
-172.5009415829044
 31
0.0
 11
-153.2167327624092
 21
-172.8747721699496
 31
0.0
 11
-153.7093810768707
 21
-173.1957873885846
 31
0.0
 11
-154.3514115141409
 21
-173.4421115458155
 31
0.0
 11
-155.0990726882313
 21
-173.5969568015395
 31
0.0
 11
-155.9014115141408
 21
-173.6497721699496
 31
0.0
 11
-156.7037503400504
 21
-173.5969568015395
 31
0.0
 11
-157.4514115141408
 21
-173.4421115458155
 31
0.0
 11
-158.093441951411
 21
-173.1957873885846
 31
0.0
 11
-158.5860902658725
 21
-172.8747721699496
 31
0.0
 11
-158.8957807773206
 21
-172.5009415829044
 31
0.0
 11
-159.0014115141408
 21
-172.0997721699496
 31
0.0
  0
SPLINE
  5
13D
330
47
100
AcDbEntity
  8
0
  6
Continuous
 62
     7
100
AcDbSpline
210
0.0
220
0.0
230
1.0
 70
     8
 71
     3
 72
     9
 73
     5
 74
     3
 42
0.000000001
 43
0.0000000001
 44
0.00000001
 40
0.0
 40
0.0
 40
0.0
 40
0.0
 40
0.4148430409972235
 40
0.9002887316767804
 40
0.9002887316767804
 40
0.9002887316767804
 40
0.9002887316767804
 10
-159.0014115141408
 20
-172.0997721699496
 30
0.0
 10
-158.9784136141941
 20
-171.959773986477
 30
0.0
 10
-158.9285037550973
 20
-171.6559511623312
 30
0.0
 10
-158.70604338097
 20
-171.4407896456527
 30
0.0
 10
-158.5860902658727
 20
-171.3247721699496
 30
0.0
 11
-159.0014115141408
 21
-172.0997721699496
 31
0.0
 11
-158.8957807773206
 21
-171.6986027569948
 31
0.0
 11
-158.5860902658727
 21
-171.3247721699496
 31
0.0
  0
SPLINE
  5
13E
330
47
100
AcDbEntity
  8
0
  6
Continuous
 62
     7
100
AcDbSpline
210
0.0
220
0.0
230
1.0
 70
     8
 71
     3
 72
    15
 73
    11
 74
     9
 42
0.000000001
 43
0.0000000001
 44
0.00000001
 40
0.0
 40
0.0
 40
0.0
 40
0.0
 40
0.5720075578343693
 40
1.228054722747757
 40
1.946703607309333
 40
2.698499135690974
 40
3.450294664072615
 40
4.168943548634107
 40
4.824990713547585
 40
5.39699827138194
 40
5.39699827138194
 40
5.39699827138194
 40
5.39699827138194
 10
-158.4724035405773
 20
-172.965797573734
 30
0.0
 10
-158.3104227804945
 20
-172.8640466955162
 30
0.0
 10
-157.9626629648254
 20
-172.6455956730197
 30
0.0
 10
-157.3399918985215
 20
-172.4442842787583
 30
0.0
 10
-156.6430251997432
 20
-172.3106470231026
 30
0.0
 10
-155.9014115141408
 20
-172.2670860649144
 30
0.0
 10
-155.1597978285386
 20
-172.3106470231026
 30
0.0
 10
-154.4628311297602
 20
-172.4442842787583
 30
0.0
 10
-153.8401600634563
 20
-172.6455956730198
 30
0.0
 10
-153.4924002477871
 20
-172.8640466955162
 30
0.0
 10
-153.3304194877044
 20
-172.965797573734
 30
0.0
 11
-158.4724035405773
 21
-172.965797573734
 31
0.0
 11
-157.9766885994489
 21
-172.6803867416959
 31
0.0
 11
-157.3575438049264
 21
-172.4634591048834
 31
0.0
 11
-156.6517926144514
 21
-172.327917660871
 31
0.0
 11
-155.9014115141408
 21
-172.2818229775184
 31
0.0
 11
-155.1510304138303
 21
-172.327917660871
 31
0.0
 11
-154.4452792233554
 21
-172.4634591048834
 31
0.0
 11
-153.8261344288328
 21
-172.6803867416959
 31
0.0
 11
-153.3304194877044
 21
-172.965797573734
 31
0.0
  0
SPLINE
  5
13F
330
47
100
AcDbEntity
  8
0
  6
Continuous
 62
     7
100
AcDbSpline
210
0.0
220
0.0
230
1.0
 70
     8
 71
     3
 72
    17
 73
    13
 74
    11
 42
0.000000001
 43
0.0000000001
 44
0.00000001
 40
0.0
 40
0.0
 40
0.0
 40
0.0
 40
0.5880077727145084
 40
1.275669517170259
 40
2.039197043833381
 40
2.843272323301044
 40
3.647347602991678
 40
4.410875130563795
 40
5.098536874412348
 40
5.686544641453158
 40
6.171990334189545
 40
6.586833368396366
 40
6.586833368396366
 40
6.586833368396366
 40
6.586833368396366
 10
-158.5860902658727
 20
-171.3247721699496
 30
0.0
 10
-158.4260161369398
 20
-171.2102263661925
 30
0.0
 10
-158.0787389407802
 20
-170.9617218555856
 30
0.0
 10
-157.4301167083651
 20
-170.7346821741222
 30
0.0
 10
-156.6931375646698
 20
-170.5825838950539
 30
0.0
 10
-155.9012962943017
 20
-170.5327657643438
 30
0.0
 10
-155.1101346714588
 20
-170.5832708448294
 30
0.0
 10
-154.3712818475028
 20
-170.7322017982557
 30
0.0
 10
-153.7285161294306
 20
-170.9695091974807
 30
0.0
 10
-153.2317272703265
 20
-171.2820667903204
 30
0.0
 10
-152.8762956110705
 20
-171.6594258304617
 30
0.0
 10
-152.8250328290217
 20
-171.9608700317138
 30
0.0
 10
-152.8014115141409
 20
-172.0997721699496
 30
0.0
 11
-158.5860902658727
 21
-171.3247721699496
 31
0.0
 11
-158.093441951411
 21
-171.0037569513145
 31
0.0
 11
-157.4514115141408
 21
-170.7574327940837
 31
0.0
 11
-156.7037503400504
 21
-170.6025875383597
 31
0.0
 11
-155.9014115141408
 21
-170.5497721699496
 31
0.0
 11
-155.0990726882313
 21
-170.6025875383597
 31
0.0
 11
-154.351411514141
 21
-170.7574327940837
 31
0.0
 11
-153.7093810768708
 21
-171.0037569513145
 31
0.0
 11
-153.2167327624092
 21
-171.3247721699496
 31
0.0
 11
-152.9070422509612
 21
-171.6986027569948
 31
0.0
 11
-152.8014115141409
 21
-172.0997721699496
 31
0.0
  0
SPLINE
  5
140
330
47
100
AcDbEntity
  8
0
  6
Continuous
 62
     7
100
AcDbSpline
210
0.0
220
0.0
230
1.0
 70
     8
 71
     3
 72
    11
 73
     7
 74
     5
 42
0.000000001
 43
0.0000000001
 44
0.00000001
 40
0.0
 40
0.0
 40
0.0
 40
0.0
 40
0.1676014956987028
 40
0.3276192723756683
 40
0.4818199683817089
 40
0.6328501322471961
 40
0.6328501322471961
 40
0.6328501322471961
 40
0.6328501322471961
 10
-167.9409578223547
 20
-210.3539888264372
 30
0.0
 10
-167.9969337931834
 20
-210.3510989221702
 30
0.0
 10
-168.1063529051434
 20
-210.3454498922098
 30
0.0
 10
-168.2653786885325
 20
-210.3752869982397
 30
0.0
 10
-168.4117399775845
 20
-210.4314562661976
 30
0.0
 10
-168.493179445967
 20
-210.4931970392051
 30
0.0
 10
-168.5334762069595
 20
-210.5237467710732
 30
0.0
 11
-167.9409578223547
 21
-210.3539888264372
 31
0.0
 11
-168.1085487544993
 21
-210.3521070711031
 31
0.0
 11
-168.2660383843481
 21
-210.3804391369101
 31
0.0
 11
-168.4090156951583
 21
-210.4381915734623
 31
0.0
 11
-168.5334762069595
 21
-210.5237467710732
 31
0.0
  0
SPLINE
  5
141
330
47
100
AcDbEntity
  8
0
  6
Continuous
 62
     7
100
AcDbSpline
210
0.0
220
0.0
230
1.0
 70
     8
 71
     3
 72
    11
 73
     7
 74
     5
 42
0.000000001
 43
0.0000000001
 44
0.00000001
 40
0.0
 40
0.0
 40
0.0
 40
0.0
 40
0.0627418998187718
 40
0.1274830534603085
 40
0.1957283673665321
 40
0.2682168887435602
 40
0.2682168887435602
 40
0.2682168887435602
 40
0.2682168887435602
 10
-168.8615662223226
 20
-211.5031860594813
 30
0.0
 10
-168.8468279390642
 20
-211.4881482883827
 30
0.0
 10
-168.8168817523449
 20
-211.4575935620823
 30
0.0
 10
-168.789418780591
 20
-211.3972194916698
 30
0.0
 10
-168.775040174373
 20
-211.3295698792289
 30
0.0
 10
-168.7780126580616
 20
-211.2825467100297
 30
0.0
 10
-168.7795437184817
 20
-211.2583262373792
 30
0.0
 11
-168.8615662223226
 21
-211.5031860594813
 31
0.0
 11
-168.8202722671078
 21
-211.4559488337381
 31
0.0
 11
-168.7921272137527
 21
-211.3976455464825
 31
0.0
 11
-168.7783518993363
 21
-211.3308049608452
 31
0.0
 11
-168.7795437184817
 21
-211.2583262373792
 31
0.0
  0
SPLINE
  5
142
330
47
100
AcDbEntity
  8
0
  6
Continuous
 62
     7
100
AcDbSpline
210
0.0
220
0.0
230
1.0
 70
     8
 71
     3
 72
    11
 73
     7
 74
     5
 42
0.000000001
 43
0.0000000001
 44
0.00000001
 40
0.0
 40
0.0
 40
0.0
 40
0.0
 40
0.1882257032866208
 40
0.3824491697457733
 40
0.5871851159401412
 40
0.8046506808535793
 40
0.8046506808535793
 40
0.8046506808535793
 40
0.8046506808535793
 10
-168.5334762069595
 20
-210.5237467710732
 30
0.0
 10
-168.5776910576344
 20
-210.5688600852868
 30
0.0
 10
-168.6675296424794
 20
-210.6605242473178
 30
0.0
 10
-168.7499185473544
 20
-210.8416464710156
 30
0.0
 10
-168.7930543801147
 20
-211.0445953097355
 30
0.0
 10
-168.7841368997587
 20
-211.1856648191663
 30
0.0
 10
-168.7795437184817
 20
-211.2583262373792
 30
0.0
 11
-168.5334762069595
 21
-210.5237467710732
 31
0.0
 11
-168.6573580726036
 21
-210.6654584483029
 31
0.0
 11
-168.7417932326688
 21
-210.8403683100694
 31
0.0
 11
-168.7831191759183
 21
-211.0408900669812
 31
0.0
 11
-168.7795437184817
 21
-211.2583262373792
 31
0.0
  0
SPLINE
  5
143
330
47
100
AcDbEntity
  8
0
  6
Continuous
 62
     7
100
AcDbSpline
210
0.0
220
0.0
230
1.0
 70
     8
 71
     3
 72
     9
 73
     5
 74
     3
 42
0.000000001
 43
0.0000000001
 44
0.00000001
 40
0.0
 40
0.0
 40
0.0
 40
0.0
 40
3.017382863900941
 40
5.879923767077679
 40
5.879923767077679
 40
5.879923767077679
 40
5.879923767077679
 10
-162.3374045236822
 20
-212.051246704244
 30
0.0
 10
-163.2563229022456
 20
-211.629019482275
 30
0.0
 10
-165.0470038590735
 20
-210.8062323409174
 30
0.0
 10
-166.9933918992487
 20
-210.5020666914353
 30
0.0
 10
-167.9409578223547
 20
-210.3539888264372
 30
0.0
 11
-162.3374045236822
 21
-212.051246704244
 31
0.0
 11
-165.1351636247853
 21
-210.9211390256951
 31
0.0
 11
-167.9409578223547
 21
-210.3539888264372
 31
0.0
  0
SPLINE
  5
144
330
47
100
AcDbEntity
  8
0
  6
Continuous
 62
     7
100
AcDbSpline
210
0.0
220
0.0
230
1.0
 70
     8
 71
     3
 72
    11
 73
     7
 74
     5
 42
0.000000001
 43
0.0000000001
 44
0.00000001
 40
0.0
 40
0.0
 40
0.0
 40
0.0
 40
1.501716589123646
 40
3.01198292802594
 40
4.50738058262942
 40
5.965940896288608
 40
5.965940896288608
 40
5.965940896288608
 40
5.965940896288608
 10
-158.096018712975
 20
-216.136867767267
 30
0.0
 10
-158.3625770082183
 20
-215.7120265270833
 30
0.0
 10
-158.8972112121349
 20
-214.8599252989887
 30
0.0
 10
-159.9182270573995
 20
-213.7489725459039
 30
0.0
 10
-161.0549259127179
 20
-212.7776683671576
 30
0.0
 10
-161.9134805199432
 20
-212.29136577508
 30
0.0
 10
-162.3374045236822
 20
-212.051246704244
 30
0.0
 11
-158.096018712975
 21
-216.136867767267
 31
0.0
 11
-158.9323950623109
 21
-214.8896198696746
 31
0.0
 11
-159.9429217268817
 21
-213.7672383485268
 31
0.0
 11
-161.091574653368
 21
-212.8097360746652
 31
0.0
 11
-162.3374045236822
 21
-212.051246704244
 31
0.0
  0
SPLINE
  5
145
330
47
100
AcDbEntity
  8
0
  6
Continuous
 62
     7
100
AcDbSpline
210
0.0
220
0.0
230
1.0
 70
     8
 71
     3
 72
    11
 73
     7
 74
     5
 42
0.000000001
 43
0.0000000001
 44
0.00000001
 40
0.0
 40
0.0
 40
0.0
 40
0.0
 40
0.4826695327547474
 40
0.9661074661587249
 40
1.438159115350713
 40
1.888547215089118
 40
1.888547215089118
 40
1.888547215089118
 40
1.888547215089118
 10
-158.096018712975
 20
-216.136867767267
 30
0.0
 10
-158.0086154003198
 20
-216.2725615633097
 30
0.0
 10
-157.8336696185107
 20
-216.5441651685879
 30
0.0
 10
-157.485417090871
 20
-216.8783209207822
 30
0.0
 10
-157.0976193866352
 20
-217.1487480909736
 30
0.0
 10
-156.8073691209575
 20
-217.2537876887429
 30
0.0
 10
-156.6656522571666
 20
-217.3050740504334
 30
0.0
 11
-158.096018712975
 21
-216.136867767267
 31
0.0
 11
-157.8190825527816
 21
-216.5321856666342
 31
0.0
 11
-157.4744196552056
 21
-216.8711837850586
 31
0.0
 11
-157.0822672877513
 21
-217.1339560861279
 31
0.0
 11
-156.6656522571666
 21
-217.3050740504334
 31
0.0
  0
SPLINE
  5
146
330
47
100
AcDbEntity
  8
0
  6
Continuous
 62
     7
100
AcDbSpline
210
0.0
220
0.0
230
1.0
 70
     8
 71
     3
 72
    15
 73
    11
 74
     9
 42
0.000000001
 43
0.0000000001
 44
0.00000001
 40
0.0
 40
0.0
 40
0.0
 40
0.0
 40
0.112938542185718
 40
0.2322801150809283
 40
0.3616824440741556
 40
0.5012113718837283
 40
0.6480042193304589
 40
0.7974169697409839
 40
0.9442165363785133
 40
1.083757557814083
 40
1.083757557814083
 40
1.083757557814083
 40
1.083757557814083
 10
-176.7038669581116
 20
-202.8331731828296
 30
0.0
 10
-176.6781109316603
 20
-202.8051154904057
 30
0.0
 10
-176.6251386563713
 20
-202.7474093713933
 30
0.0
 10
-176.5909997734441
 20
-202.6278327921556
 30
0.0
 10
-176.5920676158367
 20
-202.4973104814455
 30
0.0
 10
-176.62990708648
 20
-202.3623959478089
 30
0.0
 10
-176.7000959649035
 20
-202.2338573961269
 30
0.0
 10
-176.7976738404343
 20
-202.1219738585081
 30
0.0
 10
-176.9140490647549
 20
-202.0318356497867
 30
0.0
 10
-177.0038149451373
 20
-201.9980915144631
 30
0.0
 10
-177.0475601352334
 20
-201.981647149183
 30
0.0
 11
-176.7038669581116
 21
-202.8331731828296
 31
0.0
 11
-176.6339387399388
 21
-202.744487446624
 31
0.0
 11
-176.5975113303563
 21
-202.6308412574978
 31
0.0
 11
-176.5975359029848
 21
-202.5014389278397
 31
0.0
 11
-176.6340096918219
 21
-202.3667615919005
 31
0.0
 11
-176.7039792554352
 21
-202.2377174118084
 31
0.0
 11
-176.8017767733575
 21
-202.1247580586794
 31
0.0
 11
-176.919481667186
 21
-202.0370330877365
 31
0.0
 11
-177.0475601352334
 21
-201.981647149183
 31
0.0
  0
SPLINE
  5
147
330
47
100
AcDbEntity
  8
0
  6
Continuous
 62
     7
100
AcDbSpline
210
0.0
220
0.0
230
1.0
 70
     8
 71
     3
 72
    11
 73
     7
 74
     5
 42
0.000000001
 43
0.0000000001
 44
0.00000001
 40
0.0
 40
0.0
 40
0.0
 40
0.0
 40
0.0982491249895881
 40
0.1905940433496676
 40
0.2780075494674885
 40
0.3625878635465349
 40
0.3625878635465349
 40
0.3625878635465349
 40
0.3625878635465349
 10
-177.0475601352334
 20
-202.8909738231567
 30
0.0
 10
-177.0155033126083
 20
-202.8983662434905
 30
0.0
 10
-176.9533160954762
 20
-202.9127068278761
 30
0.0
 10
-176.8598322059977
 20
-202.9080096640067
 30
0.0
 10
-176.7734831084323
 20
-202.8838968191234
 30
0.0
 10
-176.7268160960525
 20
-202.8498943623026
 30
0.0
 10
-176.7038669581116
 20
-202.8331731828296
 30
0.0
 11
-177.0475601352334
 21
-202.8909738231567
 31
0.0
 11
-176.9508840720343
 21
-202.9084846608515
 31
0.0
 11
-176.8586295110504
 21
-202.9044005029465
 31
0.0
 11
-176.7750157952198
 21
-202.8789079927947
 31
0.0
 11
-176.7038669581116
 21
-202.8331731828296
 31
0.0
  0
SPLINE
  5
148
330
47
100
AcDbEntity
  8
0
  6
Continuous
 62
     7
100
AcDbSpline
210
0.0
220
0.0
230
1.0
 70
     8
 71
     3
 72
    11
 73
     7
 74
     5
 42
0.000000001
 43
0.0000000001
 44
0.00000001
 40
0.0
 40
0.0
 40
0.0
 40
0.0
 40
0.9640445087998581
 40
1.94993863328663
 40
2.975075556819041
 40
4.050672365260827
 40
4.050672365260827
 40
4.050672365260827
 40
4.050672365260827
 10
-180.3121152945331
 20
-211.9078700666748
 30
0.0
 10
-180.0843358575005
 20
-211.6790731817061
 30
0.0
 10
-179.6236144806732
 20
-211.2162938280865
 30
0.0
 10
-179.1477872220924
 20
-210.3333558230273
 30
0.0
 10
-178.831680277171
 20
-209.3459917356868
 30
0.0
 10
-178.7829240031408
 20
-208.6450736714153
 30
0.0
 10
-178.7579603077076
 20
-208.2861965688935
 30
0.0
 11
-180.3121152945331
 21
-211.9078700666748
 31
0.0
 11
-179.6651607766726
 21
-211.1931451757829
 31
0.0
 11
-179.181867600135
 21
-210.3338344434505
 31
0.0
 11
-178.8764695583428
 21
-209.3552447684418
 31
0.0
 11
-178.7579603077076
 21
-208.2861965688935
 31
0.0
  0
SPLINE
  5
149
330
47
100
AcDbEntity
  8
0
  6
Continuous
 62
     7
100
AcDbSpline
210
0.0
220
0.0
230
1.0
 70
     8
 71
     3
 72
    13
 73
     9
 74
     7
 42
0.000000001
 43
0.0000000001
 44
0.00000001
 40
0.0
 40
0.0
 40
0.0
 40
0.0
 40
0.179368983794207
 40
0.3710881307364983
 40
0.5710219848031884
 40
0.7732735077559065
 40
0.9714811854860512
 40
1.160102973305773
 40
1.160102973305773
 40
1.160102973305773
 40
1.160102973305773
 10
-179.5353426390361
 20
-205.2130178441566
 30
0.0
 10
-179.5335215023658
 20
-205.2730938436586
 30
0.0
 10
-179.5297538228298
 20
-205.3973822778537
 30
0.0
 10
-179.4646929397116
 20
-205.5791310028953
 30
0.0
 10
-179.3631454343852
 20
-205.7502810703218
 30
0.0
 10
-179.2266156725646
 20
-205.8981279343943
 30
0.0
 10
-179.0673394062929
 20
-206.0169345155871
 30
0.0
 10
-178.9459261174206
 20
-206.0619918497479
 30
0.0
 10
-178.8867238209378
 20
-206.0839622349174
 30
0.0
 11
-179.5353426390361
 21
-205.2130178441566
 31
0.0
 11
-179.520881133812
 21
-205.39180290437
 31
0.0
 11
-179.4602752732264
 21
-205.5736906775655
 31
0.0
 11
-179.3579343146465
 21
-205.7454459546328
 31
0.0
 11
-179.2213057999187
 21
-205.8945711647376
 31
0.0
 11
-179.0603310619809
 21
-206.0102146595237
 31
0.0
 11
-178.8867238209378
 21
-206.0839622349174
 31
0.0
  0
SPLINE
  5
14A
330
47
100
AcDbEntity
  8
0
  6
Continuous
 62
     7
100
AcDbSpline
210
0.0
220
0.0
230
1.0
 70
     8
 71
     3
 72
     9
 73
     5
 74
     3
 42
0.000000001
 43
0.0000000001
 44
0.00000001
 40
0.0
 40
0.0
 40
0.0
 40
0.0
 40
0.7061553675333976
 40
1.42117886270167
 40
1.42117886270167
 40
1.42117886270167
 40
1.42117886270167
 10
-174.8121152945331
 20
-207.1447303458604
 30
0.0
 10
-174.6414163274679
 20
-206.9812122881182
 30
0.0
 10
-174.2978747153444
 20
-206.6521226467576
 30
0.0
 10
-174.0454789401414
 20
-206.248828787848
 30
0.0
 10
-173.9184935882579
 20
-206.0459235796005
 30
0.0
 11
-174.8121152945331
 21
-207.1447303458604
 31
0.0
 11
-174.3225213727436
 21
-206.6358559055404
 31
0.0
 11
-173.9184935882579
 21
-206.0459235796005
 31
0.0
  0
SPLINE
  5
14B
330
47
100
AcDbEntity
  8
0
  6
Continuous
 62
     7
100
AcDbSpline
210
0.0
220
0.0
230
1.0
 70
     8
 71
     3
 72
    11
 73
     7
 74
     5
 42
0.000000001
 43
0.0000000001
 44
0.00000001
 40
0.0
 40
0.0
 40
0.0
 40
0.0
 40
0.3920083270232637
 40
0.7798650148287682
 40
1.157457324409914
 40
1.519805444467358
 40
1.519805444467358
 40
1.519805444467358
 40
1.519805444467358
 10
-175.825783240934
 20
-205.3964246359311
 30
0.0
 10
-175.9103306671608
 20
-205.296432748976
 30
0.0
 10
-176.0785301148684
 20
-205.0975079683959
 30
0.0
 10
-176.3800161796033
 20
-204.8539872610212
 30
0.0
 10
-176.7025337570168
 20
-204.6564398844694
 30
0.0
 10
-176.9361341975104
 20
-204.5752996147289
 30
0.0
 10
-177.0505281123255
 20
-204.5355653091606
 30
0.0
 11
-175.825783240934
 21
-205.3964246359311
 31
0.0
 11
-176.0882522872041
 21
-205.1052536749132
 31
0.0
 11
-176.3877009642543
 21
-204.8587515425294
 31
0.0
 11
-176.7126217785557
 21
-204.6663914167106
 31
0.0
 11
-177.0505281123255
 21
-204.5355653091606
 31
0.0
  0
SPLINE
  5
14C
330
47
100
AcDbEntity
  8
0
  6
Continuous
 62
     7
100
AcDbSpline
210
0.0
220
0.0
230
1.0
 70
     8
 71
     3
 72
    11
 73
     7
 74
     5
 42
0.000000001
 43
0.0000000001
 44
0.00000001
 40
0.0
 40
0.0
 40
0.0
 40
0.0
 40
0.2110327507967067
 40
0.4263801911950248
 40
0.6496619786869522
 40
0.8833257088415113
 40
0.8833257088415113
 40
0.8833257088415113
 40
0.8833257088415113
 10
-179.1780512248835
 20
-204.4298360685494
 30
0.0
 10
-179.2283835802895
 20
-204.4794147950245
 30
0.0
 10
-179.3300773549113
 20
-204.5795859243622
 30
0.0
 10
-179.4377583521007
 20
-204.7701075914829
 30
0.0
 10
-179.5121049609893
 20
-204.983245781859
 30
0.0
 10
-179.5274803071068
 20
-205.1352757666112
 30
0.0
 10
-179.5353426390361
 20
-205.2130178441566
 30
0.0
 11
-179.1780512248835
 21
-204.4298360685494
 31
0.0
 11
-179.3214490607577
 21
-204.5846646291506
 31
0.0
 11
-179.4306111227427
 21
-204.7702937358492
 31
0.0
 11
-179.5025625363621
 21
-204.9816648586319
 31
0.0
 11
-179.5353426390361
 21
-205.2130178441566
 31
0.0
  0
SPLINE
  5
14D
330
47
100
AcDbEntity
  8
0
  6
Continuous
 62
     7
100
AcDbSpline
210
0.0
220
0.0
230
1.0
 70
     8
 71
     3
 72
    11
 73
     7
 74
     5
 42
0.000000001
 43
0.0000000001
 44
0.00000001
 40
0.0
 40
0.0
 40
0.0
 40
0.0
 40
0.3181400245871502
 40
0.6171616700950473
 40
0.9002149343632295
 40
1.17409405104689
 40
1.17409405104689
 40
1.17409405104689
 40
1.17409405104689
 10
-178.0651399846801
 20
-204.2426720903473
 30
0.0
 10
-178.1689430296356
 20
-204.2187347292057
 30
0.0
 10
-178.3703111580444
 20
-204.1722985185437
 30
0.0
 10
-178.6730208995028
 20
-204.1875083977724
 30
0.0
 10
-178.9526275133582
 20
-204.265588072392
 30
0.0
 10
-179.1037397293971
 20
-204.3756912960469
 30
0.0
 10
-179.1780512248835
 20
-204.4298360685494
 30
0.0
 11
-178.0651399846801
 21
-204.2426720903473
 31
0.0
 11
-178.378186284563
 21
-204.185970330193
 31
0.0
 11
-178.6769153391772
 21
-204.1991952224567
 31
0.0
 11
-178.9476645142478
 21
-204.2817423981863
 31
0.0
 11
-179.1780512248835
 21
-204.4298360685494
 31
0.0
  0
SPLINE
  5
14E
330
47
100
AcDbEntity
  8
0
  6
Continuous
 62
     7
100
AcDbSpline
210
0.0
220
0.0
230
1.0
 70
     8
 71
     3
 72
     9
 73
     5
 74
     3
 42
0.000000001
 43
0.0000000001
 44
0.00000001
 40
0.0
 40
0.0
 40
0.0
 40
0.0
 40
0.1347351597551628
 40
0.2806984683898553
 40
0.2806984683898553
 40
0.2806984683898553
 40
0.2806984683898553
 10
-179.8595753885979
 20
-202.061956317377
 30
0.0
 10
-179.8291829048968
 20
-202.0272548510869
 30
0.0
 10
-179.7658651978231
 20
-201.954960063663
 30
0.0
 10
-179.7579864594424
 20
-201.8589283660563
 30
0.0
 10
-179.7538895220597
 20
-201.8089918443677
 30
0.0
 11
-179.8595753885979
 21
-202.061956317377
 31
0.0
 11
-179.7811710627807
 21
-201.9523829376429
 31
0.0
 11
-179.7538895220597
 21
-201.8089918443677
 31
0.0
  0
SPLINE
  5
14F
330
47
100
AcDbEntity
  8
0
  6
Continuous
 62
     7
100
AcDbSpline
210
0.0
220
0.0
230
1.0
 70
     8
 71
     3
 72
     9
 73
     5
 74
     3
 42
0.000000001
 43
0.0000000001
 44
0.00000001
 40
0.0
 40
0.0
 40
0.0
 40
0.0
 40
0.0134531932712577
 40
0.026892986103035
 40
0.026892986103035
 40
0.026892986103035
 40
0.026892986103035
 10
-179.880716006104
 20
-202.078566409864
 30
0.0
 10
-179.8770916591219
 20
-202.0759228790373
 30
0.0
 10
-179.8698465874546
 20
-202.070638434684
 30
0.0
 10
-179.8629979798479
 20
-202.0648494001322
 30
0.0
 10
-179.8595753885979
 20
-202.061956317377
 30
0.0
 11
-179.880716006104
 21
-202.078566409864
 31
0.0
 11
-179.8699421859639
 21
-202.0705095360781
 31
0.0
 11
-179.8595753885979
 21
-202.061956317377
 31
0.0
  0
SPLINE
  5
150
330
47
100
AcDbEntity
  8
0
  6
Continuous
 62
     7
100
AcDbSpline
210
0.0
220
0.0
230
1.0
 70
     8
 71
     3
 72
    11
 73
     7
 74
     5
 42
0.000000001
 43
0.0000000001
 44
0.00000001
 40
0.0
 40
0.0
 40
0.0
 40
0.0
 40
0.6362800495369509
 40
1.234323342833342
 40
1.80042987421278
 40
2.348188109558743
 40
2.348188109558743
 40
2.348188109558743
 40
2.348188109558743
 10
-178.0651399846801
 20
-202.5972238231568
 30
0.0
 10
-178.2727460747094
 20
-202.5493491008463
 30
0.0
 10
-178.6754823300718
 20
-202.4564766649332
 30
0.0
 10
-179.2809018148205
 20
-202.4868964302136
 30
0.0
 10
-179.8401150479891
 20
-202.6430557733882
 30
0.0
 10
-180.1423394735778
 20
-202.863262234165
 30
0.0
 10
-180.2909624650873
 20
-202.9715517795611
 30
0.0
 11
-178.0651399846801
 21
-202.5972238231568
 31
0.0
 11
-178.6912325844461
 21
-202.4838203028482
 31
0.0
 11
-179.2886906936746
 21
-202.5102700873755
 31
0.0
 11
-179.8301890438157
 21
-202.6753644388349
 31
0.0
 11
-180.2909624650873
 21
-202.9715517795611
 31
0.0
  0
SPLINE
  5
151
330
47
100
AcDbEntity
  8
0
  6
Continuous
 62
     7
100
AcDbSpline
210
0.0
220
0.0
230
1.0
 70
     8
 71
     3
 72
    11
 73
     7
 74
     5
 42
0.000000001
 43
0.0000000001
 44
0.00000001
 40
0.0
 40
0.0
 40
0.0
 40
0.0
 40
0.4557965588129573
 40
0.9223879715743469
 40
1.40856392866688
 40
1.919815082949609
 40
1.919815082949609
 40
1.919815082949609
 40
1.919815082949609
 10
-180.2909624650873
 20
-202.9715517795611
 30
0.0
 10
-180.3991778127024
 20
-203.0792818680356
 30
0.0
 10
-180.6181714141172
 20
-203.2972934794601
 30
0.0
 10
-180.8409008316849
 20
-203.7171702526659
 30
0.0
 10
-180.9847026044118
 20
-204.1876330517427
 30
0.0
 10
-181.001180361873
 20
-204.5208917859381
 30
0.0
 10
-181.0096263575472
 20
-204.6917101960239
 30
0.0
 11
-180.2909624650873
 21
-202.9715517795611
 31
0.0
 11
-180.5977487798883
 21
-203.30864621961
 31
0.0
 11
-180.8241166031005
 21
-203.7166476378484
 31
0.0
 11
-180.9628777366943
 21
-204.1826008661894
 31
0.0
 11
-181.0096263575472
 21
-204.6917101960239
 31
0.0
  0
SPLINE
  5
152
330
47
100
AcDbEntity
  8
0
  6
Continuous
 62
     7
100
AcDbSpline
210
0.0
220
0.0
230
1.0
 70
     8
 71
     3
 72
     9
 73
     5
 74
     3
 42
0.000000001
 43
0.0000000001
 44
0.00000001
 40
0.0
 40
0.0
 40
0.0
 40
0.0
 40
0.1347351597551331
 40
0.2806984683897405
 40
0.2806984683897405
 40
0.2806984683897405
 40
0.2806984683897405
 10
-183.4803660672675
 20
-208.5447379842076
 30
0.0
 10
-183.5107585509687
 20
-208.5794394504977
 30
0.0
 10
-183.5740762580422
 20
-208.6517342379216
 30
0.0
 10
-183.5819549964231
 20
-208.7477659355282
 30
0.0
 10
-183.5860519338059
 20
-208.7977024572167
 30
0.0
 11
-183.4803660672675
 21
-208.5447379842076
 31
0.0
 11
-183.5587703930848
 21
-208.6543113639416
 31
0.0
 11
-183.5860519338059
 21
-208.7977024572167
 31
0.0
  0
SPLINE
  5
153
330
47
100
AcDbEntity
  8
0
  6
Continuous
 62
     7
100
AcDbSpline
210
0.0
220
0.0
230
1.0
 70
     8
 71
     3
 72
    11
 73
     7
 74
     5
 42
0.000000001
 43
0.0000000001
 44
0.00000001
 40
0.0
 40
0.0
 40
0.0
 40
0.0
 40
0.0935705952109279
 40
0.1815181363975854
 40
0.2647690944695887
 40
0.3453217744505702
 40
0.3453217744505702
 40
0.3453217744505702
 40
0.3453217744505702
 10
-183.1530392319136
 20
-208.4896897553245
 30
0.0
 10
-183.18356953917
 20
-208.482649355008
 30
0.0
 10
-183.2427954603175
 20
-208.468991656288
 30
0.0
 10
-183.331827735924
 20
-208.4734651453624
 30
0.0
 10
-183.4140649714407
 20
-208.4964297598258
 30
0.0
 10
-183.4585097454446
 20
-208.5288130513947
 30
0.0
 10
-183.4803660672675
 20
-208.5447379842076
 30
0.0
 11
-183.1530392319136
 21
-208.4896897553245
 31
0.0
 11
-183.2451116730557
 21
-208.4730127670439
 31
0.0
 11
-183.3329731597069
 21
-208.4769024412391
 31
0.0
 11
-183.4126052700217
 21
-208.5011810223361
 31
0.0
 11
-183.4803660672675
 21
-208.5447379842076
 31
0.0
  0
SPLINE
  5
154
330
47
100
AcDbEntity
  8
0
  6
Continuous
 62
     7
100
AcDbSpline
210
0.0
220
0.0
230
1.0
 70
     8
 71
     3
 72
    15
 73
    11
 74
     9
 42
0.000000001
 43
0.0000000001
 44
0.00000001
 40
0.0
 40
0.0
 40
0.0
 40
0.0
 40
0.1075605161160634
 40
0.2212191566791815
 40
0.3444594698632711
 40
0.4773441629484223
 40
0.617146874772204
 40
0.7594447323082575
 40
0.8992538434251596
 40
1.032150054400899
 40
1.032150054400899
 40
1.032150054400899
 40
1.032150054400899
 10
-182.6092060456136
 20
-209.363166930226
 30
0.0
 10
-182.5846764966697
 20
-209.3364453184561
 30
0.0
 10
-182.5342267113266
 20
-209.2814871096145
 30
0.0
 10
-182.5017134891065
 20
-209.1676046536808
 30
0.0
 10
-182.5027304817701
 20
-209.043297691199
 30
0.0
 10
-182.5387680727362
 20
-208.9148076592268
 30
0.0
 10
-182.6056146235883
 20
-208.7923899909829
 30
0.0
 10
-182.6985459335913
 20
-208.685834240797
 30
0.0
 10
-182.8093794807277
 20
-208.5999883279955
 30
0.0
 10
-182.8948707951352
 20
-208.5678510556012
 30
0.0
 10
-182.9365328809676
 20
-208.5521897553245
 30
0.0
 11
-182.6092060456136
 21
-209.363166930226
 31
0.0
 11
-182.5426077425918
 21
-209.2787043243158
 31
0.0
 11
-182.507914971561
 21
-209.1704698584815
 31
0.0
 11
-182.5079383740642
 21
-209.0472295445213
 31
0.0
 11
-182.5426753158138
 21
-208.9189654150554
 31
0.0
 11
-182.6093129954455
 21
-208.79606619592
 31
0.0
 11
-182.7024534887048
 21
-208.6884858596068
 31
0.0
 11
-182.8145533875891
 21
-208.6049382682326
 31
0.0
 11
-182.9365328809676
 21
-208.5521897553245
 31
0.0
  0
SPLINE
  5
155
330
47
100
AcDbEntity
  8
0
  6
Continuous
 62
     7
100
AcDbSpline
210
0.0
220
0.0
230
1.0
 70
     8
 71
     3
 72
     9
 73
     5
 74
     3
 42
0.000000001
 43
0.0000000001
 44
0.00000001
 40
0.0
 40
0.0
 40
0.0
 40
0.0
 40
0.0404195285522907
 40
0.0804893436038871
 40
0.0804893436038871
 40
0.0804893436038871
 40
0.0804893436038871
 10
-182.6767252598322
 20
-209.4066126187305
 30
0.0
 10
-182.6646533807073
 20
-209.4005357289592
 30
0.0
 10
-182.6406140796605
 20
-209.3884345101198
 30
0.0
 10
-182.6196450174332
 20
-209.3715650305406
 30
0.0
 10
-182.6092060456136
 20
-209.363166930226
 30
0.0
 11
-182.6767252598322
 21
-209.4066126187305
 31
0.0
 11
-182.6412838713222
 21
-209.387179494282
 31
0.0
 11
-182.6092060456136
 21
-209.363166930226
 31
0.0
  0
SPLINE
  5
156
330
47
100
AcDbEntity
  8
0
  6
Continuous
 62
     7
100
AcDbSpline
210
0.0
220
0.0
230
1.0
 70
     8
 71
     3
 72
     9
 73
     5
 74
     3
 42
0.000000001
 43
0.0000000001
 44
0.00000001
 40
0.0
 40
0.0
 40
0.0
 40
0.0
 40
0.0849727062784694
 40
0.1730887211057375
 40
0.1730887211057375
 40
0.1730887211057375
 40
0.1730887211057375
 10
-170.3277072634566
 20
-205.846393006294
 30
0.0
 10
-170.3477993416423
 20
-205.8668612758465
 30
0.0
 10
-170.3887267279557
 20
-205.9085549884409
 30
0.0
 10
-170.408547983178
 20
-205.9635486409117
 30
0.0
 10
-170.4186385799714
 20
-205.9915448169961
 30
0.0
 11
-170.3277072634566
 21
-205.846393006294
 31
0.0
 11
-170.3828968627856
 21
-205.9110031384958
 31
0.0
 11
-170.4186385799714
 21
-205.9915448169961
 31
0.0
  0
SPLINE
  5
157
330
47
100
AcDbEntity
  8
0
  6
Continuous
 62
     7
100
AcDbSpline
210
0.0
220
0.0
230
1.0
 70
     8
 71
     3
 72
    11
 73
     7
 74
     5
 42
0.000000001
 43
0.0000000001
 44
0.00000001
 40
0.0
 40
0.0
 40
0.0
 40
0.0
 40
0.0935705952110499
 40
0.1815181363976506
 40
0.2647690944696562
 40
0.3453217744507487
 40
0.3453217744507487
 40
0.3453217744507487
 40
0.3453217744507487
 10
-170.0003804281025
 20
-205.791344777411
 30
0.0
 10
-170.0309107353589
 20
-205.7843043770945
 30
0.0
 10
-170.0901366565064
 20
-205.7706466783744
 30
0.0
 10
-170.179168932113
 20
-205.7751201674489
 30
0.0
 10
-170.2614061676296
 20
-205.7980847819122
 30
0.0
 10
-170.3058509416337
 20
-205.8304680734811
 30
0.0
 10
-170.3277072634566
 20
-205.846393006294
 30
0.0
 11
-170.0003804281025
 21
-205.791344777411
 31
0.0
 11
-170.0924528692447
 21
-205.7746677891303
 31
0.0
 11
-170.1803143558959
 21
-205.7785574633256
 31
0.0
 11
-170.2599464662107
 21
-205.8028360444225
 31
0.0
 11
-170.3277072634566
 21
-205.846393006294
 31
0.0
  0
SPLINE
  5
158
330
47
100
AcDbEntity
  8
0
  6
Continuous
 62
     7
100
AcDbSpline
210
0.0
220
0.0
230
1.0
 70
     8
 71
     3
 72
    11
 73
     7
 74
     5
 42
0.000000001
 43
0.0000000001
 44
0.00000001
 40
0.0
 40
0.0
 40
0.0
 40
0.0
 40
0.0994033217202946
 40
0.2014330550267181
 40
0.3081733529235242
 40
0.4208342685141807
 40
0.4208342685141807
 40
0.4208342685141807
 40
0.4208342685141807
 10
-170.1879030427504
 20
-208.6745467692984
 30
0.0
 10
-170.211416613936
 20
-208.6981555318808
 30
0.0
 10
-170.2590650153065
 20
-208.7459968520523
 30
0.0
 10
-170.3058949404295
 20
-208.8390092219174
 30
0.0
 10
-170.3342898725198
 20
-208.9432869290467
 30
0.0
 10
-170.3349736877676
 20
-209.0167001125906
 30
0.0
 10
-170.3353248143887
 20
-209.0543972449782
 30
0.0
 11
-170.1879030427504
 21
-208.6745467692984
 31
0.0
 11
-170.2542944357389
 21
-208.7485278725795
 31
0.0
 11
-170.3020067719806
 21
-208.8387143458453
 31
0.0
 11
-170.3293412662624
 21
-208.9418953376139
 31
0.0
 11
-170.3353248143887
 21
-209.0543972449782
 31
0.0
  0
SPLINE
  5
159
330
47
100
AcDbEntity
  8
0
  6
Continuous
 62
     7
100
AcDbSpline
210
0.0
220
0.0
230
1.0
 70
     8
 71
     3
 72
    13
 73
     9
 74
     7
 42
0.000000001
 43
0.0000000001
 44
0.00000001
 40
0.0
 40
0.0
 40
0.0
 40
0.0
 40
0.1172631642634994
 40
0.2419307378212346
 40
0.3712960139460648
 40
0.5017221147108963
 40
0.6293737711447076
 40
0.7509434390751414
 40
0.7509434390751414
 40
0.7509434390751414
 40
0.7509434390751414
 10
-169.4698378521196
 20
-206.3775119288334
 30
0.0
 10
-169.4729122263738
 20
-206.3383615663089
 30
0.0
 10
-169.4792551163919
 20
-206.2575887513332
 30
0.0
 10
-169.5251251494929
 20
-206.1409408370233
 30
0.0
 10
-169.5933946289747
 20
-206.0317330862888
 30
0.0
 10
-169.6829930491627
 20
-205.9377946806865
 30
0.0
 10
-169.7863949837052
 20
-205.8623916508216
 30
0.0
 10
-169.864668758864
 20
-205.8335621793248
 30
0.0
 10
-169.9028505540117
 20
-205.8194992269412
 30
0.0
 11
-169.4698378521196
 21
-206.3775119288334
 31
0.0
 11
-169.4845925136529
 21
-206.2611807207874
 31
0.0
 11
-169.5278505540117
 21
-206.1442587533604
 31
0.0
 11
-169.5966644177948
 21
-206.0347141167
 31
0.0
 11
-169.6863442030656
 21
-205.9400119288334
 31
0.0
 11
-169.7907786498697
 21
-205.866606260487
 31
0.0
 11
-169.9028505540117
 21
-205.8194992269412
 31
0.0
  0
SPLINE
  5
15A
330
47
100
AcDbEntity
  8
0
  6
Continuous
 62
     7
100
AcDbSpline
210
0.0
220
0.0
230
1.0
 70
     8
 71
     3
 72
    11
 73
     7
 74
     5
 42
0.000000001
 43
0.0000000001
 44
0.00000001
 40
0.0
 40
0.0
 40
0.0
 40
0.0
 40
0.0561423569814828
 40
0.1089108807812697
 40
0.1588614544873334
 40
0.2071930616845971
 40
0.2071930616845971
 40
0.2071930616845971
 40
0.2071930616845971
 10
-169.7296454732548
 20
-208.5974792488623
 30
0.0
 10
-169.7113272889483
 20
-208.6017034890412
 30
0.0
 10
-169.6757917356777
 20
-208.6098981024377
 30
0.0
 10
-169.6223723710466
 20
-208.6072140117223
 30
0.0
 10
-169.5730300319195
 20
-208.5934352406182
 30
0.0
 10
-169.5463631649214
 20
-208.5740052710636
 30
0.0
 10
-169.5332493720424
 20
-208.5644503115324
 30
0.0
 11
-169.7296454732548
 21
-208.5974792488623
 31
0.0
 11
-169.6744020085696
 21
-208.6074854418306
 31
0.0
 11
-169.6216851165789
 21
-208.6051516373136
 31
0.0
 11
-169.5739058503899
 21
-208.5905844886553
 31
0.0
 11
-169.5332493720424
 21
-208.5644503115324
 31
0.0
  0
SPLINE
  5
15B
330
47
100
AcDbEntity
  8
0
  6
Continuous
 62
     7
100
AcDbSpline
210
0.0
220
0.0
230
1.0
 70
     8
 71
     3
 72
    11
 73
     7
 74
     5
 42
0.000000001
 43
0.0000000001
 44
0.00000001
 40
0.0
 40
0.0
 40
0.0
 40
0.0
 40
0.1309988334403095
 40
0.2541253920138636
 40
0.3706767344519069
 40
0.4834504872167021
 40
0.4834504872167021
 40
0.4834504872167021
 40
0.4834504872167021
 10
-169.7296454732548
 20
-208.5974792488623
 30
0.0
 10
-169.772387903461
 20
-208.5876226884083
 30
0.0
 10
-169.8553041924855
 20
-208.5685019043646
 30
0.0
 10
-169.9799493790672
 20
-208.574764791798
 30
0.0
 10
-170.0950815109737
 20
-208.6069152496207
 30
0.0
 10
-170.1573041919836
 20
-208.652251863204
 30
0.0
 10
-170.1879030427504
 20
-208.6745467692984
 30
0.0
 11
-169.7296454732548
 21
-208.5974792488623
 31
0.0
 11
-169.8585468908537
 21
-208.5741314652693
 31
0.0
 11
-169.9815529721654
 21
-208.5795770091426
 31
0.0
 11
-170.0930379266063
 21
-208.6135670226783
 31
0.0
 11
-170.1879030427504
 21
-208.6745467692984
 31
0.0
  0
SPLINE
  5
15C
330
47
100
AcDbEntity
  8
0
  6
Continuous
 62
     7
100
AcDbSpline
210
0.0
220
0.0
230
1.0
 70
     8
 71
     3
 72
     9
 73
     5
 74
     3
 42
0.000000001
 43
0.0000000001
 44
0.00000001
 40
0.0
 40
0.0
 40
0.0
 40
0.0
 40
0.0808410949937097
 40
0.168419079315226
 40
0.168419079315226
 40
0.168419079315226
 40
0.168419079315226
 10
-169.5332493720424
 20
-208.5644503115324
 30
0.0
 10
-169.5150138820155
 20
-208.5436294319796
 30
0.0
 10
-169.4770232648316
 20
-208.5002525561249
 30
0.0
 10
-169.4722960145249
 20
-208.442633540446
 30
0.0
 10
-169.4698378521193
 20
-208.4126716277268
 30
0.0
 11
-169.5332493720424
 21
-208.5644503115324
 31
0.0
 11
-169.486206776552
 21
-208.498706283692
 31
0.0
 11
-169.4698378521193
 21
-208.4126716277268
 31
0.0
  0
SPLINE
  5
15D
330
47
100
AcDbEntity
  8
0
  6
Continuous
 62
     7
100
AcDbSpline
210
0.0
220
0.0
230
1.0
 70
     8
 71
     3
 72
    11
 73
     7
 74
     5
 42
0.000000001
 43
0.0000000001
 44
0.00000001
 40
0.0
 40
0.0
 40
0.0
 40
0.0
 40
0.6085423711959533
 40
1.247260111612504
 40
1.908517438562473
 40
2.581951841252623
 40
2.581951841252623
 40
2.581951841252623
 40
2.581951841252623
 10
-170.3353248143887
 20
-209.0543972449782
 30
0.0
 10
-170.3150469887441
 20
-209.2568432803349
 30
0.0
 10
-170.2734858200569
 20
-209.6717739002232
 30
0.0
 10
-170.0649483344972
 20
-210.2775348103765
 30
0.0
 10
-169.7663033909478
 20
-210.867164361718
 30
0.0
 10
-169.4910278193241
 20
-211.2179692129933
 30
0.0
 10
-169.3521342874389
 20
-211.3949719203729
 30
0.0
 11
-170.3353248143887
 21
-209.0543972449782
 31
0.0
 11
-170.251942582095
 21
-209.6572000503994
 31
0.0
 11
-170.0542093957391
 21
-210.2645401045328
 31
0.0
 11
-169.7501563547412
 21
-210.8517479066016
 31
0.0
 11
-169.3521342874389
 21
-211.3949719203729
 31
0.0
  0
SPLINE
  5
15E
330
47
100
AcDbEntity
  8
0
  6
Continuous
 62
     7
100
AcDbSpline
210
0.0
220
0.0
230
1.0
 70
     8
 71
     3
 72
    13
 73
     9
 74
     7
 42
0.000000001
 43
0.0000000001
 44
0.00000001
 40
0.0
 40
0.0
 40
0.0
 40
0.0
 40
0.104556728650836
 40
0.2061418007536956
 40
0.302274547152896
 40
0.3916590361758041
 40
0.4747389888149716
 40
0.5539452715655732
 40
0.5539452715655732
 40
0.5539452715655732
 40
0.5539452715655732
 10
-169.3521342874389
 20
-211.3949719203729
 30
0.0
 10
-169.3279315013312
 20
-211.4202120080169
 30
0.0
 10
-169.2802137983179
 20
-211.4699748125696
 30
0.0
 10
-169.1936772726659
 20
-211.5235414457365
 30
0.0
 10
-169.1029630245349
 20
-211.5566345491535
 30
0.0
 10
-169.0130585240403
 20
-211.5649747442482
 30
0.0
 10
-168.9282562210273
 20
-211.5496949338199
 30
0.0
 10
-168.8834396384187
 20
-211.5184403457814
 30
0.0
 10
-168.8615662223226
 20
-211.5031860594813
 30
0.0
 11
-169.3521342874389
 21
-211.3949719203729
 31
0.0
 11
-169.2766195344144
 21
-211.4672881087163
 31
0.0
 11
-169.1905672511769
 21
-211.5212745098306
 31
0.0
 11
-169.099896601687
 21
-211.5532172489146
 31
0.0
 11
-169.0108445733603
 21
-211.5609194362764
 31
0.0
 11
-168.9295368624653
 21
-211.5438508840276
 31
0.0
 11
-168.8615662223226
 21
-211.5031860594813
 31
0.0
  0
ENDBLK
  5
49
330
47
100
AcDbEntity
  8
0
100
AcDbBlockEnd
  0
BLOCK
  5
4C
330
4A
100
AcDbEntity
  8
0
100
AcDbBlockBegin
  2
Allg1
 70
     0
 10
-161.9999999998406
 20
-192.000000021185
 30
0.0
  3
Allg1
  1

  0
INSERT
  5
4B
330
4A
100
AcDbEntity
  8
0
100
AcDbBlockReference
  2
OTTA_6_YE-select__1
 10
-183.586051933806
 20
-219.6315159666778
 30
0.0
  0
MTEXT
  5
160
330
4A
100
AcDbEntity
  8
1
 62
     6
100
AcDbMText
 10
-161.9999999998402
 20
-226.8377675048624
 30
0.0
 40
5.0
 41
0.0
 71
     2
 72
     1
  1
 
  7
CONVERTER_11
 73
     1
 44
1.32052821128451
  0
ENDBLK
  5
4D
330
4A
100
AcDbEntity
  8
0
100
AcDbBlockEnd
  0
BLOCK
  5
4F
330
4E
100
AcDbEntity
  8
0
100
AcDbBlockBegin
  2
OTTA_6_YE-select__2
 70
     0
 10
-320.999999309087
 20
-188.4250020244081
 30
0.0
  3
OTTA_6_YE-select__2
  1

  0
LINE
  5
161
330
4E
100
AcDbEntity
  8
1
  6
DOT_CENTER
 62
     2
100
AcDbLine
 10
-291.8499994253086
 20
-180.1350020244082
 30
0.0
 11
-291.8499994253086
 21
-186.955002024408
 31
0.0
  0
LINE
  5
162
330
4E
100
AcDbEntity
  8
1
  6
DOT_CENTER
 62
     2
100
AcDbLine
 10
-288.4399994253087
 20
-183.5450020244081
 30
0.0
 11
-295.2599994253085
 21
-183.5450020244081
 31
0.0
  0
LINE
  5
163
330
4E
100
AcDbEntity
  8
1
  6
DOT_CENTER
 62
     2
100
AcDbLine
 10
-306.6499991928643
 20
-180.1350020244082
 30
0.0
 11
-306.6499991928643
 21
-186.955002024408
 31
0.0
  0
LINE
  5
164
330
4E
100
AcDbEntity
  8
1
  6
DOT_CENTER
 62
     2
100
AcDbLine
 10
-303.2399991928644
 20
-183.5450020244081
 30
0.0
 11
-310.0599991928642
 21
-183.5450020244081
 31
0.0
  0
LINE
  5
165
330
4E
100
AcDbEntity
  8
0
  6
Continuous
 62
     7
100
AcDbLine
 10
-290.12368217726
 20
-180.9701566389355
 30
0.0
 11
-294.4248448107813
 21
-185.2713192724567
 31
0.0
  0
LINE
  5
166
330
4E
100
AcDbEntity
  8
0
  6
Continuous
 62
     7
100
AcDbLine
 10
-293.5763166733574
 20
-186.1198474098806
 30
0.0
 11
-289.2751540398362
 21
-181.8186847763594
 31
0.0
  0
LINE
  5
167
330
4E
100
AcDbEntity
  8
0
  6
Continuous
 62
     7
100
AcDbLine
 10
-317.074699954115
 20
-188.4250020244081
 30
0.0
 11
-317.074699954115
 21
-177.4250020244081
 31
0.0
  0
LINE
  5
168
330
4E
100
AcDbEntity
  8
0
  6
Continuous
 62
     7
100
AcDbLine
 10
-316.9904793310085
 20
-177.4250020244081
 30
0.0
 11
-317.074699954115
 21
-177.4250020244081
 31
0.0
  0
LINE
  5
169
330
4E
100
AcDbEntity
  8
0
  6
Continuous
 62
     7
100
AcDbLine
 10
-316.9904793310085
 20
-188.4250020244081
 30
0.0
 11
-316.9904793310085
 21
-177.4250020244081
 31
0.0
  0
LINE
  5
16A
330
4E
100
AcDbEntity
  8
0
  6
Continuous
 62
     7
100
AcDbLine
 10
-316.9904793310085
 20
-188.4250020244081
 30
0.0
 11
-317.074699954115
 21
-188.4250020244081
 31
0.0
  0
LINE
  5
16B
330
4E
100
AcDbEntity
  8
0
  6
Continuous
 62
     7
100
AcDbLine
 10
-317.074699954115
 20
-188.4250020244081
 30
0.0
 11
-318.914125199417
 21
-188.4250020244081
 31
0.0
  0
LINE
  5
16C
330
4E
100
AcDbEntity
  8
0
  6
Continuous
 62
     7
100
AcDbLine
 10
-312.7858734187572
 20
-188.4250020244081
 30
0.0
 11
-316.9904793310085
 21
-188.4250020244081
 31
0.0
  0
LINE
  5
16D
330
4E
100
AcDbEntity
  8
0
  6
Continuous
 62
     7
100
AcDbLine
 10
-312.7858734187572
 20
-188.4250020244081
 30
0.0
 11
-310.6499993090868
 21
-188.4250020244081
 31
0.0
  0
LINE
  5
16E
330
4E
100
AcDbEntity
  8
0
  6
Continuous
 62
     7
100
AcDbLine
 10
-287.8499993090862
 20
-188.4250020244081
 30
0.0
 11
-310.6499993090868
 21
-188.4250020244081
 31
0.0
  0
LINE
  5
16F
330
4E
100
AcDbEntity
  8
0
  6
Continuous
 62
     7
100
AcDbLine
 10
-281.5095192871657
 20
-188.4250020244081
 30
0.0
 11
-285.7141251994163
 21
-188.4250020244081
 31
0.0
  0
LINE
  5
170
330
4E
100
AcDbEntity
  8
0
  6
Continuous
 62
     7
100
AcDbLine
 10
-287.8499993090862
 20
-188.4250020244081
 30
0.0
 11
-285.7141251994163
 21
-188.4250020244081
 31
0.0
  0
LINE
  5
171
330
4E
100
AcDbEntity
  8
0
  6
Continuous
 62
     7
100
AcDbLine
 10
-281.5095192871657
 20
-188.4250020244081
 30
0.0
 11
-281.4252986640593
 21
-188.4250020244081
 31
0.0
  0
LINE
  5
172
330
4E
100
AcDbEntity
  8
0
  6
Continuous
 62
     7
100
AcDbLine
 10
-281.4252986640593
 20
-188.4250020244081
 30
0.0
 11
-279.5858734187567
 21
-188.4250020244081
 31
0.0
  0
LINE
  5
173
330
4E
100
AcDbEntity
  8
0
  6
Continuous
 62
     7
100
AcDbLine
 10
-279.5858734187567
 20
-188.4250020244081
 30
0.0
 11
-277.4999993090868
 21
-188.4250020244081
 31
0.0
  0
LINE
  5
174
330
4E
100
AcDbEntity
  8
0
  6
Continuous
 62
     7
100
AcDbLine
 10
-318.914125199417
 20
-177.4250020244081
 30
0.0
 11
-317.074699954115
 21
-177.4250020244081
 31
0.0
  0
LINE
  5
175
330
4E
100
AcDbEntity
  8
0
  6
Continuous
 62
     7
100
AcDbLine
 10
-316.9904793310085
 20
-177.4250020244081
 30
0.0
 11
-312.7858734187572
 21
-177.4250020244081
 31
0.0
  0
LINE
  5
176
330
4E
100
AcDbEntity
  8
0
  6
Continuous
 62
     7
100
AcDbLine
 10
-312.7858734187572
 20
-177.4250020244081
 30
0.0
 11
-310.6499993090868
 21
-177.4250020244081
 31
0.0
  0
LINE
  5
177
330
4E
100
AcDbEntity
  8
0
  6
Continuous
 62
     7
100
AcDbLine
 10
-285.7141251994163
 20
-177.4250020244081
 30
0.0
 11
-281.5095192871657
 21
-177.4250020244081
 31
0.0
  0
LINE
  5
178
330
4E
100
AcDbEntity
  8
0
  6
Continuous
 62
     7
100
AcDbLine
 10
-281.5095192871657
 20
-177.4250020244081
 30
0.0
 11
-281.4252986640593
 21
-177.4250020244081
 31
0.0
  0
LINE
  5
179
330
4E
100
AcDbEntity
  8
0
  6
Continuous
 62
     7
100
AcDbLine
 10
-308.3763164409131
 20
-186.1198474098806
 30
0.0
 11
-304.0751538073919
 21
-181.8186847763594
 31
0.0
  0
LINE
  5
17A
330
4E
100
AcDbEntity
  8
0
  6
Continuous
 62
     7
100
AcDbLine
 10
-304.9236819448157
 20
-180.9701566389355
 30
0.0
 11
-309.224844578337
 21
-185.2713192724567
 31
0.0
  0
LINE
  5
17B
330
4E
100
AcDbEntity
  8
0
  6
Continuous
 62
     7
100
AcDbLine
 10
-318.914125199417
 20
-177.4250020244081
 30
0.0
 11
-318.914125199417
 21
-188.4250020244081
 31
0.0
  0
LINE
  5
17C
330
4E
100
AcDbEntity
  8
0
  6
Continuous
 62
     7
100
AcDbLine
 10
-318.914125199417
 20
-188.4250020244081
 30
0.0
 11
-320.999999309087
 21
-188.4250020244081
 31
0.0
  0
LINE
  5
17D
330
4E
100
AcDbEntity
  8
0
  6
Continuous
 62
     7
100
AcDbLine
 10
-320.999999309087
 20
-177.4250020244081
 30
0.0
 11
-318.914125199417
 21
-177.4250020244081
 31
0.0
  0
LINE
  5
17E
330
4E
100
AcDbEntity
  8
0
  6
Continuous
 62
     7
100
AcDbLine
 10
-320.999999309087
 20
-177.4250020244081
 30
0.0
 11
-320.999999309087
 21
-188.4250020244081
 31
0.0
  0
LINE
  5
17F
330
4E
100
AcDbEntity
  8
0
  6
Continuous
 62
     7
100
AcDbLine
 10
-279.5858734187567
 20
-177.4250020244081
 30
0.0
 11
-279.5858734187567
 21
-188.4250020244081
 31
0.0
  0
LINE
  5
180
330
4E
100
AcDbEntity
  8
0
  6
Continuous
 62
     7
100
AcDbLine
 10
-281.5095192871657
 20
-177.4250020244081
 30
0.0
 11
-281.5095192871657
 21
-188.4250020244081
 31
0.0
  0
LINE
  5
181
330
4E
100
AcDbEntity
  8
0
  6
Continuous
 62
     7
100
AcDbLine
 10
-285.7141251994163
 20
-177.4250020244081
 30
0.0
 11
-285.7141251994163
 21
-188.4250020244081
 31
0.0
  0
LINE
  5
182
330
4E
100
AcDbEntity
  8
0
  6
Continuous
 62
     7
100
AcDbLine
 10
-287.8499993090862
 20
-177.4250020244081
 30
0.0
 11
-310.6499993090868
 21
-177.4250020244081
 31
0.0
  0
LINE
  5
183
330
4E
100
AcDbEntity
  8
0
  6
Continuous
 62
     7
100
AcDbLine
 10
-287.8499993090862
 20
-177.4250020244081
 30
0.0
 11
-287.8499993090862
 21
-188.4250020244081
 31
0.0
  0
LINE
  5
184
330
4E
100
AcDbEntity
  8
0
  6
Continuous
 62
     7
100
AcDbLine
 10
-287.8499993090862
 20
-177.4250020244081
 30
0.0
 11
-285.7141251994163
 21
-177.4250020244081
 31
0.0
  0
LINE
  5
185
330
4E
100
AcDbEntity
  8
0
  6
Continuous
 62
     7
100
AcDbLine
 10
-281.4252986640593
 20
-177.4250020244081
 30
0.0
 11
-279.5858734187567
 21
-177.4250020244081
 31
0.0
  0
LINE
  5
186
330
4E
100
AcDbEntity
  8
0
  6
Continuous
 62
     7
100
AcDbLine
 10
-281.4252986640593
 20
-188.4250020244081
 30
0.0
 11
-281.4252986640593
 21
-177.4250020244081
 31
0.0
  0
LINE
  5
187
330
4E
100
AcDbEntity
  8
0
  6
Continuous
 62
     7
100
AcDbLine
 10
-279.5858734187567
 20
-177.4250020244081
 30
0.0
 11
-277.4999993090868
 21
-177.4250020244081
 31
0.0
  0
LINE
  5
188
330
4E
100
AcDbEntity
  8
0
  6
Continuous
 62
     7
100
AcDbLine
 10
-277.4999993090868
 20
-177.4250020244081
 30
0.0
 11
-277.4999993090868
 21
-188.4250020244081
 31
0.0
  0
LINE
  5
189
330
4E
100
AcDbEntity
  8
0
  6
Continuous
 62
     7
100
AcDbLine
 10
-310.6499993090868
 20
-177.4250020244081
 30
0.0
 11
-310.6499993090868
 21
-188.4250020244081
 31
0.0
  0
LINE
  5
18A
330
4E
100
AcDbEntity
  8
0
  6
Continuous
 62
     7
100
AcDbLine
 10
-312.7858734187572
 20
-177.4250020244081
 30
0.0
 11
-312.7858734187572
 21
-188.4250020244081
 31
0.0
  0
ARC
  5
18B
330
4E
100
AcDbEntity
  8
0
  6
Continuous
 62
     7
100
AcDbCircle
 10
-291.8499994253086
 20
-183.5450020244081
 30
0.0
 40
3.099999999999958
100
AcDbArc
 50
236.1599368721842
 51
33.84006312781575
  0
ARC
  5
18C
330
4E
100
AcDbEntity
  8
0
  6
Continuous
 62
     7
100
AcDbCircle
 10
-291.8499994253086
 20
-183.5450020244081
 30
0.0
 40
3.099999999999966
100
AcDbArc
 50
180.0
 51
213.8400631278121
  0
ARC
  5
18D
330
4E
100
AcDbEntity
  8
0
  6
Continuous
 62
     7
100
AcDbCircle
 10
-291.8499994253086
 20
-183.5450020244081
 30
0.0
 40
3.099999999999965
100
AcDbArc
 50
56.15993687218688
 51
180.0
  0
ARC
  5
18E
330
4E
100
AcDbEntity
  8
0
  6
Continuous
 62
     7
100
AcDbCircle
 10
-291.8499994253086
 20
-183.5450020244081
 30
0.0
 40
3.099999999999997
100
AcDbArc
 50
213.8400631278121
 51
236.1599368721842
  0
ARC
  5
18F
330
4E
100
AcDbEntity
  8
0
  6
Continuous
 62
     7
100
AcDbCircle
 10
-291.8499994253086
 20
-183.5450020244081
 30
0.0
 40
3.099999999999855
100
AcDbArc
 50
33.84006312781575
 51
56.15993687218688
  0
ARC
  5
190
330
4E
100
AcDbEntity
  8
0
  6
Continuous
 62
     7
100
AcDbCircle
 10
-306.6499991928643
 20
-183.5450020244081
 30
0.0
 40
3.099999999999934
100
AcDbArc
 50
56.15993687218775
 51
213.8400631278115
  0
ARC
  5
191
330
4E
100
AcDbEntity
  8
0
  6
Continuous
 62
     7
100
AcDbCircle
 10
-306.6499991928643
 20
-183.5450020244081
 30
0.0
 40
3.099999999999989
100
AcDbArc
 50
236.1599368721834
 51
0.0
  0
ARC
  5
192
330
4E
100
AcDbEntity
  8
0
  6
Continuous
 62
     7
100
AcDbCircle
 10
-306.6499991928643
 20
-183.5450020244081
 30
0.0
 40
3.100000000000023
100
AcDbArc
 50
0.0
 51
33.84006312781634
  0
ARC
  5
193
330
4E
100
AcDbEntity
  8
0
  6
Continuous
 62
     7
100
AcDbCircle
 10
-306.6499991928643
 20
-183.5450020244081
 30
0.0
 40
3.100000000000044
100
AcDbArc
 50
213.8400631278115
 51
236.1599368721834
  0
ARC
  5
194
330
4E
100
AcDbEntity
  8
0
  6
Continuous
 62
     7
100
AcDbCircle
 10
-306.6499991928643
 20
-183.5450020244081
 30
0.0
 40
3.099999999999808
100
AcDbArc
 50
33.84006312781634
 51
56.15993687218775
  0
ENDBLK
  5
50
330
4E
100
AcDbEntity
  8
0
100
AcDbBlockEnd
  0
BLOCK
  5
53
330
51
100
AcDbEntity
  8
0
100
AcDbBlockBegin
  2
Drfsicht1
 70
     0
 10
-299.2499999999986
 20
-182.925002024408
 30
0.0
  3
Drfsicht1
  1

  0
INSERT
  5
52
330
51
100
AcDbEntity
  8
0
100
AcDbBlockReference
  2
OTTA_6_YE-select__2
 10
-320.999999309087
 20
-188.4250020244081
 30
0.0
  0
MTEXT
  5
195
330
51
100
AcDbEntity
  8
1
 62
     6
100
AcDbMText
 10
-299.2499999999986
 20
-193.4250020244081
 30
0.0
 40
5.0
 41
0.0
 71
     2
 72
     1
  1
 
  7
CONVERTER_11
 73
     1
 44
1.32052821128451
  0
DIMENSION
  5
1A0
330
51
100
AcDbEntity
  8
1
100
AcDbDimension
  2
*D17
 10
-330.999999309087
 20
-188.4250020244081
 30
0.0
 11
-334.249999309087
 21
-182.988073373508
 31
0.0
 70
    33
  1
<>
 71
     5
 42
-1.0
 53
90.0
  3
ME10_DIM_10
100
AcDbAlignedDimension
 13
-320.999999309087
 23
-177.4250020244081
 33
0.0
 14
-320.999999309087
 24
-188.4250020244081
 34
0.0
  0
ENDBLK
  5
54
330
51
100
AcDbEntity
  8
0
100
AcDbBlockEnd
  0
BLOCK
  5
56
330
55
100
AcDbEntity
  8
0
100
AcDbBlockBegin
  2
OTTA_6_YE-select__3
 70
     0
 10
-212.5000006909132
 20
-144.4250000488184
 30
0.0
  3
OTTA_6_YE-select__3
  1

  0
LINE
  5
1A1
330
55
100
AcDbEntity
  8
0
  6
Continuous
 62
     7
100
AcDbLine
 10
-173.0095206689915
 20
-103.1018521056187
 30
0.0
 11
-178.4654807128339
 21
-99.95185210561877
 31
0.0
  0
LINE
  5
1A2
330
55
100
AcDbEntity
  8
0
  6
Continuous
 62
     7
100
AcDbLine
 10
-210.4141265812434
 20
-100.5462953562176
 30
0.0
 11
-212.5000006909132
 21
-101.7505753349314
 31
0.0
  0
LINE
  5
1A3
330
55
100
AcDbEntity
  8
0
  6
Continuous
 62
     7
100
AcDbLine
 10
-208.5747013359408
 20
-101.9322678370527
 30
0.0
 11
-210.4141265812434
 21
-100.5462953562176
 31
0.0
  0
LINE
  5
1A4
330
55
100
AcDbEntity
  8
0
  6
Continuous
 62
     7
100
AcDbLine
 10
-169.0000006909131
 20
-101.7505753349292
 30
0.0
 11
-171.0858748005831
 21
-100.5462953562155
 31
0.0
  0
LINE
  5
1A5
330
55
100
AcDbEntity
  8
0
  6
Continuous
 62
     7
100
AcDbLine
 10
-202.5250006909109
 20
-143.0250000488182
 30
0.0
 11
-203.6750006909109
 21
-143.1500000488183
 31
0.0
  0
LINE
  5
1A6
330
55
100
AcDbEntity
  8
0
  6
Continuous
 62
     7
100
AcDbLine
 10
-202.1500006909113
 20
-135.4993821318325
 30
0.0
 11
-203.375000690911
 21
-141.0250000488184
 31
0.0
  0
LINE
  5
1A7
330
55
100
AcDbEntity
  8
0
  6
Continuous
 62
     7
100
AcDbLine
 10
-202.1500006909138
 20
-93.5750000488184
 30
0.0
 11
-179.3500006909133
 21
-93.57500004881715
 31
0.0
  0
LINE
  5
1A8
330
55
100
AcDbEntity
  8
0
  6
Continuous
 62
     7
100
AcDbLine
 10
-179.3500006909132
 20
-95.77500004881713
 30
0.0
 11
-179.3500006909133
 21
-93.57500004881715
 31
0.0
  0
LINE
  5
1A9
330
55
100
AcDbEntity
  8
0
  6
Continuous
 62
     7
100
AcDbLine
 10
-202.1500006909138
 20
-93.5750000488184
 30
0.0
 11
-202.1500006909135
 21
-95.77500004881819
 31
0.0
  0
LINE
  5
1AA
330
55
100
AcDbEntity
  8
0
  6
Continuous
 62
     7
100
AcDbLine
 10
-203.375000690911
 20
-141.0250000488184
 30
0.0
 11
-203.375000690911
 21
-141.5250000488183
 31
0.0
  0
LINE
  5
1AB
330
55
100
AcDbEntity
  8
0
  6
Continuous
 62
     7
100
AcDbLine
 10
-203.375000690911
 20
-141.5250000488183
 30
0.0
 11
-202.525000690911
 21
-141.5250000488182
 31
0.0
  0
LINE
  5
1AC
330
55
100
AcDbEntity
  8
0
  6
Continuous
 62
     7
100
AcDbLine
 10
-203.6750006909109
 20
-143.1500000488183
 30
0.0
 11
-203.6750006909108
 21
-144.4250000488184
 31
0.0
  0
LINE
  5
1AD
330
55
100
AcDbEntity
  8
0
  6
Continuous
 62
     7
100
AcDbLine
 10
-200.7250006909108
 20
-144.4250000488182
 30
0.0
 11
-200.7250006909109
 21
-142.7750000488181
 31
0.0
  0
LINE
  5
1AE
330
55
100
AcDbEntity
  8
0
  6
Continuous
 62
     7
100
AcDbLine
 10
-203.6750006909108
 20
-144.4250000488184
 30
0.0
 11
-200.7250006909108
 21
-144.4250000488182
 31
0.0
  0
LINE
  5
1AF
330
55
100
AcDbEntity
  8
0
  6
Continuous
 62
     7
100
AcDbLine
 10
-208.4904807128343
 20
-103.1018521056205
 30
0.0
 11
-209.0179807128345
 21
-102.1881953046282
 31
0.0
  0
LINE
  5
1B0
330
55
100
AcDbEntity
  8
0
  6
Continuous
 62
     7
100
AcDbLine
 10
-171.0858748005831
 20
-100.5462953562155
 30
0.0
 11
-172.925300045885
 21
-101.9322678370508
 31
0.0
  0
LINE
  5
1B1
330
55
100
AcDbEntity
  8
0
  6
Continuous
 62
     7
100
AcDbLine
 10
-209.0179807128345
 20
-102.1881953046282
 30
0.0
 11
-208.5747013359408
 21
-101.9322678370527
 31
0.0
  0
LINE
  5
1B2
330
55
100
AcDbEntity
  8
0
  6
Continuous
 62
     7
100
AcDbLine
 10
-204.1750006909113
 20
-138.1250000488187
 30
0.0
 11
-203.6500006909113
 21
-135.7568780843959
 31
0.0
  0
LINE
  5
1B3
330
55
100
AcDbEntity
  8
0
  6
Continuous
 62
     7
100
AcDbLine
 10
-203.6500006909113
 20
-135.7568780843959
 30
0.0
 11
-203.6500006909114
 21
-134.4250000488184
 31
0.0
  0
LINE
  5
1B4
330
55
100
AcDbEntity
  8
0
  6
Continuous
 62
     7
100
AcDbLine
 10
-208.2500006909111
 20
-139.3250000488187
 30
0.0
 11
-208.2500006909112
 21
-138.1250000488189
 31
0.0
  0
LINE
  5
1B5
330
55
100
AcDbEntity
  8
0
  6
Continuous
 62
     7
100
AcDbLine
 10
-207.4500006909111
 20
-139.525000048819
 30
0.0
 11
-208.2500006909111
 21
-139.3250000488187
 31
0.0
  0
LINE
  5
1B6
330
55
100
AcDbEntity
  8
0
  6
Continuous
 62
     7
100
AcDbLine
 10
-212.5000006909114
 20
-140.9250000488189
 30
0.0
 11
-212.5000006909132
 21
-101.7505753349314
 31
0.0
  0
LINE
  5
1B7
330
55
100
AcDbEntity
  8
0
  6
Continuous
 62
     7
100
AcDbLine
 10
-203.1500006909114
 20
-133.9250000488184
 30
0.0
 11
-202.6500006909114
 21
-133.9250000488183
 31
0.0
  0
LINE
  5
1B8
330
55
100
AcDbEntity
  8
0
  6
Continuous
 62
     7
100
AcDbLine
 10
-207.4500006909111
 20
-139.9750000488183
 30
0.0
 11
-207.4500006909111
 21
-139.525000048819
 31
0.0
  0
LINE
  5
1B9
330
55
100
AcDbEntity
  8
0
  6
Continuous
 62
     7
100
AcDbLine
 10
-208.2500006909112
 20
-138.1250000488189
 30
0.0
 11
-204.1750006909113
 21
-138.1250000488187
 31
0.0
  0
LINE
  5
1BA
330
55
100
AcDbEntity
  8
0
  6
Continuous
 62
     7
100
AcDbLine
 10
-185.3000006909113
 20
-136.7750000488173
 30
0.0
 11
-185.3000006909114
 21
-134.4250000488174
 31
0.0
  0
LINE
  5
1BB
330
55
100
AcDbEntity
  8
0
  6
Continuous
 62
     7
100
AcDbLine
 10
-202.1500006909114
 20
-134.4250000488183
 30
0.0
 11
-202.1500006909113
 21
-135.4993821318325
 31
0.0
  0
LINE
  5
1BC
330
55
100
AcDbEntity
  8
0
  6
Continuous
 62
     7
100
AcDbLine
 10
-184.2044199796461
 20
-134.2955905262661
 30
0.0
 11
-183.8750006909114
 21
-135.5250000488172
 31
0.0
  0
LINE
  5
1BD
330
55
100
AcDbEntity
  8
0
  6
Continuous
 62
     7
100
AcDbLine
 10
-184.8000006909114
 20
-133.9250000488174
 30
0.0
 11
-184.6873828927907
 21
-133.9250000488173
 31
0.0
  0
LINE
  5
1BE
330
55
100
AcDbEntity
  8
0
  6
Continuous
 62
     7
100
AcDbLine
 10
-212.5000006909114
 20
-140.9250000488189
 30
0.0
 11
-208.4000006909111
 21
-140.9250000488187
 31
0.0
  0
LINE
  5
1BF
330
55
100
AcDbEntity
  8
0
  6
Continuous
 62
     7
100
AcDbLine
 10
-203.0345206689925
 20
-99.95185210562019
 30
0.0
 11
-208.4904807128343
 21
-103.1018521056205
 31
0.0
  0
LINE
  5
1C0
330
55
100
AcDbEntity
  8
0
  6
Continuous
 62
     7
100
AcDbLine
 10
-172.4820206689914
 20
-102.1881953046259
 30
0.0
 11
-173.0095206689915
 21
-103.1018521056187
 31
0.0
  0
LINE
  5
1C1
330
55
100
AcDbEntity
  8
0
  6
Continuous
 62
     7
100
AcDbLine
 10
-172.925300045885
 20
-101.9322678370508
 30
0.0
 11
-172.4820206689914
 21
-102.1881953046259
 31
0.0
  0
LINE
  5
1C2
330
55
100
AcDbEntity
  8
0
  6
Continuous
 62
     7
100
AcDbLine
 10
-204.2858748005837
 20
-97.00814754099189
 30
0.0
 11
-204.0053000458861
 21
-99.29412277220251
 31
0.0
  0
LINE
  5
1C3
330
55
100
AcDbEntity
  8
0
  6
Continuous
 62
     7
100
AcDbLine
 10
-177.9379807128341
 20
-99.0381953046259
 30
0.0
 11
-177.4947013359405
 21
-99.29412277220166
 31
0.0
  0
LINE
  5
1C4
330
55
100
AcDbEntity
  8
0
  6
Continuous
 62
     7
100
AcDbLine
 10
-204.0053000458861
 20
-99.29412277220251
 30
0.0
 11
-203.5620206689926
 21
-99.0381953046278
 31
0.0
  0
LINE
  5
1C5
330
55
100
AcDbEntity
  8
0
  6
Continuous
 62
     7
100
AcDbLine
 10
-202.1500006909135
 20
-95.77500004881819
 30
0.0
 11
-204.2858748005837
 21
-97.00814754099189
 31
0.0
  0
LINE
  5
1C6
330
55
100
AcDbEntity
  8
0
  6
Continuous
 62
     7
100
AcDbLine
 10
-177.2141265812429
 20
-97.00814754099044
 30
0.0
 11
-179.3500006909132
 21
-95.77500004881713
 31
0.0
  0
LINE
  5
1C7
330
55
100
AcDbEntity
  8
0
  6
Continuous
 62
     7
100
AcDbLine
 10
-177.4947013359405
 20
-99.29412277220166
 30
0.0
 11
-177.2141265812429
 21
-97.00814754099044
 31
0.0
  0
LINE
  5
1C8
330
55
100
AcDbEntity
  8
0
  6
Continuous
 62
     7
100
AcDbLine
 10
-202.525000690911
 20
-141.5250000488182
 30
0.0
 11
-202.5250006909109
 21
-143.0250000488182
 31
0.0
  0
LINE
  5
1C9
330
55
100
AcDbEntity
  8
0
  6
Continuous
 62
     7
100
AcDbLine
 10
-200.7250006909109
 20
-142.7750000488181
 30
0.0
 11
-200.0850006909109
 21
-142.7750000488181
 31
0.0
  0
LINE
  5
1CA
330
55
100
AcDbEntity
  8
0
  6
Continuous
 62
     7
100
AcDbLine
 10
-178.0750006909114
 20
-135.5250000488169
 30
0.0
 11
-183.8750006909114
 21
-135.5250000488172
 31
0.0
  0
LINE
  5
1CB
330
55
100
AcDbEntity
  8
0
  6
Continuous
 62
     7
100
AcDbLine
 10
-177.9607871285382
 20
-135.4107864864437
 30
0.0
 11
-178.0750006909114
 21
-135.5250000488169
 31
0.0
  0
LINE
  5
1CC
330
55
100
AcDbEntity
  8
0
  6
Continuous
 62
     7
100
AcDbLine
 10
-208.4000006909111
 20
-140.9250000488187
 30
0.0
 11
-207.4500006909111
 21
-139.9750000488183
 31
0.0
  0
LINE
  5
1CD
330
55
100
AcDbEntity
  8
0
  6
Continuous
 62
     7
100
AcDbLine
 10
-203.5620206689926
 20
-99.0381953046278
 30
0.0
 11
-203.0345206689925
 21
-99.95185210562019
 31
0.0
  0
LINE
  5
1CE
330
55
100
AcDbEntity
  8
0
  6
Continuous
 62
     7
100
AcDbLine
 10
-178.4654807128339
 20
-99.95185210561877
 30
0.0
 11
-177.9379807128341
 21
-99.0381953046259
 31
0.0
  0
LINE
  5
1CF
330
55
100
AcDbEntity
  8
0
  6
Continuous
 62
     7
100
AcDbLine
 10
-172.3050006909108
 20
-133.904851452187
 30
0.0
 11
-170.82514928754
 21
-132.4250000488166
 31
0.0
  0
LINE
  5
1D0
330
55
100
AcDbEntity
  8
0
  6
Continuous
 62
     7
100
AcDbLine
 10
-173.2785540815048
 20
-132.9312980615945
 30
0.0
 11
-172.3050006909108
 21
-133.904851452187
 31
0.0
  0
LINE
  5
1D1
330
55
100
AcDbEntity
  8
0
  6
Continuous
 62
     7
100
AcDbLine
 10
-173.4500006909112
 20
-138.125000048817
 30
0.0
 11
-174.475000690911
 21
-137.9245881467104
 31
0.0
  0
LINE
  5
1D2
330
55
100
AcDbEntity
  8
0
  6
Continuous
 62
     7
100
AcDbLine
 10
-173.4250006909116
 20
-131.875000048817
 30
0.0
 11
-176.5500006909116
 21
-131.8750000488172
 31
0.0
  0
LINE
  5
1D3
330
55
100
AcDbEntity
  8
0
  6
Continuous
 62
     7
100
AcDbLine
 10
-169.0000006909131
 20
-101.7505753349292
 30
0.0
 11
-169.0000006909114
 21
-132.4250000488165
 31
0.0
  0
LINE
  5
1D4
330
55
100
AcDbEntity
  8
0
  6
Continuous
 62
     7
100
AcDbLine
 10
-175.3750006909114
 20
-134.8250000488169
 30
0.0
 11
-176.5465735661652
 21
-134.825000048817
 31
0.0
  0
LINE
  5
1D5
330
55
100
AcDbEntity
  8
0
  6
Continuous
 62
     7
100
AcDbLine
 10
-173.4250006909115
 20
-132.5777446710011
 30
0.0
 11
-173.4250006909116
 21
-131.875000048817
 31
0.0
  0
LINE
  5
1D6
330
55
100
AcDbEntity
  8
0
  6
Continuous
 62
     7
100
AcDbLine
 10
-176.5500006909115
 20
-132.9250000488169
 30
0.0
 11
-175.3750006909115
 21
-132.9250000488168
 31
0.0
  0
LINE
  5
1D7
330
55
100
AcDbEntity
  8
0
  6
Continuous
 62
     7
100
AcDbLine
 10
-170.82514928754
 20
-132.4250000488166
 30
0.0
 11
-169.0000006909114
 21
-132.4250000488165
 31
0.0
  0
LINE
  5
1D8
330
55
100
AcDbEntity
  8
0
  6
Continuous
 62
     7
100
AcDbLine
 10
-174.4750006909113
 20
-137.225000048817
 30
0.0
 11
-174.4263173928608
 21
-137.225000048817
 31
0.0
  0
LINE
  5
1D9
330
55
100
AcDbEntity
  8
0
  6
Continuous
 62
     7
100
AcDbLine
 10
-174.475000690911
 20
-137.9245881467104
 30
0.0
 11
-174.4750006909113
 21
-137.225000048817
 31
0.0
  0
LINE
  5
1DA
330
55
100
AcDbEntity
  8
0
  6
Continuous
 62
     7
100
AcDbLine
 10
-173.550000690911
 20
-139.3250000488168
 30
0.0
 11
-173.4500006909112
 21
-138.125000048817
 31
0.0
  0
LINE
  5
1DB
330
55
100
AcDbEntity
  8
0
  6
Continuous
 62
     7
100
AcDbLine
 10
-171.9750006909111
 20
-139.3413575941929
 30
0.0
 11
-171.9750006909113
 21
-136.3250000488168
 31
0.0
  0
LINE
  5
1DC
330
55
100
AcDbEntity
  8
0
  6
Continuous
 62
     7
100
AcDbLine
 10
-174.5750006909111
 20
-139.5250000488167
 30
0.0
 11
-173.550000690911
 21
-139.3250000488168
 31
0.0
  0
LINE
  5
1DD
330
55
100
AcDbEntity
  8
0
  6
Continuous
 62
     7
100
AcDbLine
 10
-174.5750006909111
 20
-139.5250000488167
 30
0.0
 11
-174.5750006909111
 21
-139.7250000488197
 31
0.0
  0
LINE
  5
1DE
330
55
100
AcDbEntity
  8
0
  6
Continuous
 62
     7
100
AcDbLine
 10
-171.4750006909111
 20
-140.2073829979779
 30
0.0
 11
-169.2500006909109
 21
-141.4919873469244
 31
0.0
  0
LINE
  5
1DF
330
55
100
AcDbEntity
  8
0
  6
Continuous
 62
     7
100
AcDbLine
 10
-169.0000006909109
 20
-144.4250000488165
 30
0.0
 11
-169.000000690911
 21
-141.9250000488165
 31
0.0
  0
LINE
  5
1E0
330
55
100
AcDbEntity
  8
0
  6
Continuous
 62
     7
100
AcDbLine
 10
-172.7804170908987
 20
-144.4250000488167
 30
0.0
 11
-169.0000006909109
 21
-144.4250000488165
 31
0.0
  0
ARC
  5
1E1
330
55
100
AcDbEntity
  8
0
  6
Continuous
 62
     7
100
AcDbCircle
 10
-187.6476469658049
 20
-137.6633344630643
 30
0.0
 40
3.349999999999973
100
AcDbArc
 50
311.3165829300506
 51
357.5849578586777
  0
ARC
  5
1E2
330
55
100
AcDbEntity
  8
0
  6
Continuous
 62
     7
100
AcDbCircle
 10
-190.0750006909103
 20
-154.4250000488177
 30
0.0
 40
16.19999999999999
100
AcDbArc
 50
79.29351303112384
 51
102.3352321792849
  0
ARC
  5
1E3
330
55
100
AcDbEntity
  8
0
  6
Continuous
 62
     7
100
AcDbCircle
 10
-187.2883327219173
 20
-139.6861235098615
 30
0.0
 40
1.200000000000033
100
AcDbArc
 50
353.0762791559319
 51
79.29351303112374
  0
ARC
  5
1E4
330
55
100
AcDbEntity
  8
0
  6
Continuous
 62
     7
100
AcDbCircle
 10
-203.1500006909114
 20
-134.4250000488184
 30
0.0
 40
0.5
100
AcDbArc
 50
90.0
 51
180.0
  0
ARC
  5
1E5
330
55
100
AcDbEntity
  8
0
  6
Continuous
 62
     7
100
AcDbCircle
 10
-185.7000006909111
 20
-139.8790000488176
 30
0.0
 40
0.399999999999947
100
AcDbArc
 50
173.0762791559171
 51
311.3165829300582
  0
ARC
  5
1E6
330
55
100
AcDbEntity
  8
0
  6
Continuous
 62
     7
100
AcDbCircle
 10
-185.0000006909112
 20
-136.7750000488173
 30
0.0
 40
0.3000000000000966
100
AcDbArc
 50
180.0
 51
270.0
  0
ARC
  5
1E7
330
55
100
AcDbEntity
  8
0
  6
Continuous
 62
     7
100
AcDbCircle
 10
-185.0000006909112
 20
-137.7750000488173
 30
0.0
 40
0.6999999999998423
100
AcDbArc
 50
357.5849578586673
 51
90.0
  0
ARC
  5
1E8
330
55
100
AcDbEntity
  8
0
  6
Continuous
 62
     7
100
AcDbCircle
 10
-184.6873828927907
 20
-134.4250000488173
 30
0.0
 40
0.5000000000000554
100
AcDbArc
 50
14.99999999999277
 51
90.0
  0
ARC
  5
1E9
330
55
100
AcDbEntity
  8
0
  6
Continuous
 62
     7
100
AcDbCircle
 10
-184.8000006909114
 20
-134.4250000488174
 30
0.0
 40
0.5
100
AcDbArc
 50
90.0
 51
180.0
  0
ARC
  5
1EA
330
55
100
AcDbEntity
  8
0
  6
Continuous
 62
     7
100
AcDbCircle
 10
-202.6500006909114
 20
-134.4250000488183
 30
0.0
 40
0.5
100
AcDbArc
 50
0.0
 51
90.0
  0
ARC
  5
1EB
330
55
100
AcDbEntity
  8
0
  6
Continuous
 62
     7
100
AcDbCircle
 10
-191.8267761079024
 20
-146.4143020212782
 30
0.0
 40
7.999999999999707
100
AcDbArc
 50
102.3352321792862
 51
145.6719647666301
  0
ARC
  5
1EC
330
55
100
AcDbEntity
  8
0
  6
Continuous
 62
     7
100
AcDbCircle
 10
-200.085000690911
 20
-140.7750000488181
 30
0.0
 40
2.0
100
AcDbArc
 50
270.0000000000024
 51
325.6719647666164
  0
ARC
  5
1ED
330
55
100
AcDbEntity
  8
0
  6
Continuous
 62
     7
100
AcDbCircle
 10
-175.3750006909113
 20
-136.3250000488169
 30
0.0
 40
3.400000000000006
100
AcDbArc
 50
0.00000000000144
 51
90.00000000000335
  0
ARC
  5
1EE
330
55
100
AcDbEntity
  8
0
  6
Continuous
 62
     7
100
AcDbCircle
 10
-167.1106196863109
 20
-139.5675126900119
 30
0.0
 40
7.466042194497734
100
AcDbArc
 50
181.2086765707491
 51
220.5876661228497
  0
ARC
  5
1EF
330
55
100
AcDbEntity
  8
0
  6
Continuous
 62
     7
100
AcDbCircle
 10
-176.5500006909115
 20
-132.4000000488168
 30
0.0
 40
0.5249999999995794
100
AcDbArc
 50
90.00000000000931
 51
270.0
  0
ARC
  5
1F0
330
55
100
AcDbEntity
  8
0
  6
Continuous
 62
     7
100
AcDbCircle
 10
-172.9250006909115
 20
-132.5777446710011
 30
0.0
 40
0.5
100
AcDbArc
 50
180.0
 51
225.0000000000069
  0
ARC
  5
1F1
330
55
100
AcDbEntity
  8
0
  6
Continuous
 62
     7
100
AcDbCircle
 10
-174.4263173928607
 20
-136.475000048817
 30
0.0
 40
0.75
100
AcDbArc
 50
269.9999999999935
 51
3.01696130981639
  0
ARC
  5
1F2
330
55
100
AcDbEntity
  8
0
  6
Continuous
 62
     7
100
AcDbCircle
 10
-175.3750006909113
 20
-136.5250000488167
 30
0.0
 40
1.699999999999839
100
AcDbArc
 50
3.01696130980591
 51
90.00000000000384
  0
ARC
  5
1F3
330
55
100
AcDbEntity
  8
0
  6
Continuous
 62
     7
100
AcDbCircle
 10
-176.5465735661651
 20
-136.825000048817
 30
0.0
 40
2.0
100
AcDbArc
 50
90.00000000000244
 51
134.9999999999954
  0
ARC
  5
1F4
330
55
100
AcDbEntity
  8
0
  6
Continuous
 62
     7
100
AcDbCircle
 10
-169.500000690911
 20
-141.9250000488165
 30
0.0
 40
0.5
100
AcDbArc
 50
0.0
 51
59.99999999998329
  0
ARC
  5
1F5
330
55
100
AcDbEntity
  8
0
  6
Continuous
 62
     7
100
AcDbCircle
 10
-170.9750006909111
 20
-139.3413575941929
 30
0.0
 40
1.0
100
AcDbArc
 50
180.0
 51
240.0000000000157
  0
ENDBLK
  5
57
330
55
100
AcDbEntity
  8
0
100
AcDbBlockEnd
  0
BLOCK
  5
5A
330
58
100
AcDbEntity
  8
0
100
AcDbBlockBegin
  2
Rckans1
 70
     0
 10
-190.7500000000014
 20
-119.000000024409
 30
0.0
  3
Rckans1
  1

  0
INSERT
  5
59
330
58
100
AcDbEntity
  8
0
100
AcDbBlockReference
  2
OTTA_6_YE-select__3
 10
-212.5000006909132
 20
-144.4250000488184
 30
0.0
  0
MTEXT
  5
1F6
330
58
100
AcDbEntity
  8
1
 62
     6
100
AcDbMText
 10
-190.7500000000013
 20
-149.4250020244101
 30
0.0
 40
5.0
 41
0.0
 71
     2
 72
     1
  1
 
  7
CONVERTER_11
 73
     1
 44
1.32052821128451
  0
ENDBLK
  5
5B
330
58
100
AcDbEntity
  8
0
100
AcDbBlockEnd
  0
BLOCK
  5
5D
330
5C
100
AcDbEntity
  8
0
100
AcDbBlockBegin
  2
OTTA_6_YE-select__4
 70
     0
 10
-246.4999999999999
 20
-144.4250000732255
 30
0.0
  3
OTTA_6_YE-select__4
  1

  0
LINE
  5
1F7
330
5C
100
AcDbEntity
  8
1
  6
DOT_CENTER
 62
     2
100
AcDbLine
 10
-240.3749999999999
 20
-116.2750000732264
 30
0.0
 11
-240.3749999999999
 21
-122.3750000732263
 31
0.0
  0
LINE
  5
1F8
330
5C
100
AcDbEntity
  8
0
  6
Continuous
 62
     7
100
AcDbLine
 10
-235.4999999999999
 20
-132.4250000732255
 30
0.0
 11
-235.4999999999999
 21
-128.4750000732257
 31
0.0
  0
LINE
  5
1F9
330
5C
100
AcDbEntity
  8
0
  6
Continuous
 62
     7
100
AcDbLine
 10
-235.4999999999999
 20
-141.4250000732257
 30
0.0
 11
-235.4999999999999
 21
-141.9250000732255
 31
0.0
  0
LINE
  5
1FA
330
5C
100
AcDbEntity
  8
0
  6
Continuous
 62
     7
100
AcDbLine
 10
-235.4999999999999
 20
-133.9048514765961
 30
0.0
 11
-235.4999999999999
 21
-136.3250000732258
 31
0.0
  0
LINE
  5
1FB
330
5C
100
AcDbEntity
  8
0
  6
Continuous
 62
     7
100
AcDbLine
 10
-235.4999999999999
 20
-132.4250000732255
 30
0.0
 11
-235.4999999999999
 21
-133.9048514765961
 31
0.0
  0
LINE
  5
1FC
330
5C
100
AcDbEntity
  8
0
  6
Continuous
 62
     7
100
AcDbLine
 10
-235.4999999999999
 20
-141.4250000732257
 30
0.0
 11
-235.4999999999999
 21
-136.3250000732258
 31
0.0
  0
LINE
  5
1FD
330
5C
100
AcDbEntity
  8
0
  6
Continuous
 62
     7
100
AcDbLine
 10
-235.4999999999999
 20
-141.9250000732255
 30
0.0
 11
-235.4999999999999
 21
-144.4250000732255
 31
0.0
  0
LINE
  5
1FE
330
5C
100
AcDbEntity
  8
0
  6
Continuous
 62
     7
100
AcDbLine
 10
-235.4999999999999
 20
-100.5462953806246
 30
0.0
 11
-235.4999999999999
 21
-101.7505753593382
 31
0.0
  0
LINE
  5
1FF
330
5C
100
AcDbEntity
  8
0
  6
Continuous
 62
     7
100
AcDbLine
 10
-235.4999999999999
 20
-99.95185213002785
 30
0.0
 11
-235.4999999999999
 21
-100.5462953806246
 31
0.0
  0
LINE
  5
200
330
5C
100
AcDbEntity
  8
0
  6
Continuous
 62
     7
100
AcDbLine
 10
-235.4999999999999
 20
-99.95185213002785
 30
0.0
 11
-235.4999999999999
 21
-99.29412279661074
 31
0.0
  0
LINE
  5
201
330
5C
100
AcDbEntity
  8
0
  6
Continuous
 62
     7
100
AcDbLine
 10
-235.4999999999999
 20
-99.29412279661074
 30
0.0
 11
-235.4999999999999
 21
-97.00814756539953
 31
0.0
  0
LINE
  5
202
330
5C
100
AcDbEntity
  8
0
  6
Continuous
 62
     7
100
AcDbLine
 10
-235.4999999999999
 20
-97.00814756539953
 30
0.0
 11
-235.4999999999999
 21
-95.77500007322617
 31
0.0
  0
LINE
  5
203
330
5C
100
AcDbEntity
  8
0
  6
Continuous
 62
     7
100
AcDbLine
 10
-242.3749999999999
 20
-122.3750000732263
 30
0.0
 11
-238.3749999999999
 21
-122.3750000732263
 31
0.0
  0
LINE
  5
204
330
5C
100
AcDbEntity
  8
0
  6
Continuous
 62
     7
100
AcDbLine
 10
-235.4999999999999
 20
-125.1750000732259
 30
0.0
 11
-244.4499999999999
 21
-125.1750000732259
 31
0.0
  0
LINE
  5
205
330
5C
100
AcDbEntity
  8
0
  6
Continuous
 62
     7
100
AcDbLine
 10
-235.4999999999999
 20
-128.4750000732257
 30
0.0
 11
-244.4499999999999
 21
-128.4750000732257
 31
0.0
  0
LINE
  5
206
330
5C
100
AcDbEntity
  8
0
  6
Continuous
 62
     7
100
AcDbLine
 10
-244.4499999999999
 20
-122.375000073226
 30
0.0
 11
-242.3749999999999
 21
-122.3750000732263
 31
0.0
  0
LINE
  5
207
330
5C
100
AcDbEntity
  8
0
  6
Continuous
 62
     7
100
AcDbLine
 10
-238.3749999999999
 20
-122.3750000732263
 30
0.0
 11
-235.4999999999999
 21
-122.3750000732267
 31
0.0
  0
LINE
  5
208
330
5C
100
AcDbEntity
  8
0
  6
Continuous
 62
     7
100
AcDbLine
 10
-235.4999999999999
 20
-101.7505753593382
 30
0.0
 11
-235.4999999999999
 21
-114.175014073218
 31
0.0
  0
LINE
  5
209
330
5C
100
AcDbEntity
  8
0
  6
Continuous
 62
     7
100
AcDbLine
 10
-246.4999999999999
 20
-100.5462953806246
 30
0.0
 11
-235.4999999999999
 21
-100.5462953806246
 31
0.0
  0
LINE
  5
20A
330
5C
100
AcDbEntity
  8
0
  6
Continuous
 62
     7
100
AcDbLine
 10
-235.4999999999999
 20
-95.77500007322617
 30
0.0
 11
-246.4999999999999
 21
-95.7750000732262
 31
0.0
  0
LINE
  5
20B
330
5C
100
AcDbEntity
  8
0
  6
Continuous
 62
     7
100
AcDbLine
 10
-246.4999999999999
 20
-97.00814756539953
 30
0.0
 11
-235.4999999999999
 21
-97.00814756539953
 31
0.0
  0
LINE
  5
20C
330
5C
100
AcDbEntity
  8
0
  6
Continuous
 62
     7
100
AcDbLine
 10
-246.4999999999999
 20
-99.29412279661074
 30
0.0
 11
-235.4999999999999
 21
-99.29412279661074
 31
0.0
  0
LINE
  5
20D
330
5C
100
AcDbEntity
  8
0
  6
Continuous
 62
     7
100
AcDbLine
 10
-246.4999999999999
 20
-99.95185213002785
 30
0.0
 11
-235.4999999999999
 21
-99.95185213002785
 31
0.0
  0
LINE
  5
20E
330
5C
100
AcDbEntity
  8
0
  6
Continuous
 62
     7
100
AcDbLine
 10
-246.4999999999999
 20
-101.7505753593382
 30
0.0
 11
-235.4999999999999
 21
-101.7505753593382
 31
0.0
  0
LINE
  5
20F
330
5C
100
AcDbEntity
  8
0
  6
Continuous
 62
     7
100
AcDbLine
 10
-246.4999999999999
 20
-99.95185213002785
 30
0.0
 11
-246.4999999999999
 21
-99.29412279661074
 31
0.0
  0
LINE
  5
210
330
5C
100
AcDbEntity
  8
0
  6
Continuous
 62
     7
100
AcDbLine
 10
-246.4999999999999
 20
-99.29412279661074
 30
0.0
 11
-246.4999999999999
 21
-97.00814756539953
 31
0.0
  0
LINE
  5
211
330
5C
100
AcDbEntity
  8
0
  6
Continuous
 62
     7
100
AcDbLine
 10
-246.4999999999999
 20
-97.00814756539953
 30
0.0
 11
-246.4999999999999
 21
-95.7750000732262
 31
0.0
  0
LINE
  5
212
330
5C
100
AcDbEntity
  8
0
  6
Continuous
 62
     7
100
AcDbLine
 10
-246.4999999999999
 20
-95.7750000732262
 30
0.0
 11
-246.4999999999999
 21
-93.5750000732262
 31
0.0
  0
LINE
  5
213
330
5C
100
AcDbEntity
  8
0
  6
Continuous
 62
     7
100
AcDbLine
 10
-235.4999999999999
 20
-95.77500007322617
 30
0.0
 11
-235.4999999999999
 21
-93.5750000732262
 31
0.0
  0
LINE
  5
214
330
5C
100
AcDbEntity
  8
0
  6
Continuous
 62
     7
100
AcDbLine
 10
-246.4999999999999
 20
-93.5750000732262
 30
0.0
 11
-235.4999999999999
 21
-93.5750000732262
 31
0.0
  0
LINE
  5
215
330
5C
100
AcDbEntity
  8
0
  6
Continuous
 62
     7
100
AcDbLine
 10
-238.3749999999999
 20
-116.2750000732264
 30
0.0
 11
-235.4999999999999
 21
-116.2750000732268
 31
0.0
  0
LINE
  5
216
330
5C
100
AcDbEntity
  8
0
  6
Continuous
 62
     7
100
AcDbLine
 10
-244.4499999999999
 20
-114.1750140732256
 30
0.0
 11
-235.4999999999999
 21
-114.175014073218
 31
0.0
  0
LINE
  5
217
330
5C
100
AcDbEntity
  8
0
  6
Continuous
 62
     7
100
AcDbLine
 10
-244.4499999999999
 20
-116.2750000732263
 30
0.0
 11
-242.3749999999999
 21
-116.2750000732264
 31
0.0
  0
LINE
  5
218
330
5C
100
AcDbEntity
  8
0
  6
Continuous
 62
     7
100
AcDbLine
 10
-235.4999999999999
 20
-114.175014073218
 30
0.0
 11
-235.4999999999999
 21
-116.2750000732268
 31
0.0
  0
LINE
  5
219
330
5C
100
AcDbEntity
  8
0
  6
Continuous
 62
     7
100
AcDbLine
 10
-242.3749999999999
 20
-116.2750000732264
 30
0.0
 11
-238.3749999999999
 21
-116.2750000732264
 31
0.0
  0
LINE
  5
21A
330
5C
100
AcDbEntity
  8
0
  6
Continuous
 62
     7
100
AcDbLine
 10
-246.4999999999999
 20
-144.4250000732255
 30
0.0
 11
-235.4999999999999
 21
-144.4250000732255
 31
0.0
  0
LINE
  5
21B
330
5C
100
AcDbEntity
  8
0
  6
Continuous
 62
     2
100
AcDbLine
 10
-235.4999999999999
 20
-141.9250000732255
 30
0.0
 11
-246.4999999999999
 21
-141.9250000732255
 31
0.0
  0
LINE
  5
21C
330
5C
100
AcDbEntity
  8
0
  6
Continuous
 62
     2
100
AcDbLine
 10
-235.4999999999999
 20
-136.3250000732258
 30
0.0
 11
-246.4999999999999
 21
-136.3250000732258
 31
0.0
  0
LINE
  5
21D
330
5C
100
AcDbEntity
  8
0
  6
Continuous
 62
     7
100
AcDbLine
 10
-246.4999999999999
 20
-132.4250000732255
 30
0.0
 11
-246.4999999999999
 21
-133.9048514765961
 31
0.0
  0
LINE
  5
21E
330
5C
100
AcDbEntity
  8
0
  6
Continuous
 62
     7
100
AcDbLine
 10
-246.4999999999999
 20
-133.9048514765961
 30
0.0
 11
-246.4999999999999
 21
-136.3250000732258
 31
0.0
  0
LINE
  5
21F
330
5C
100
AcDbEntity
  8
0
  6
Continuous
 62
     7
100
AcDbLine
 10
-246.4999999999999
 20
-132.4250000732255
 30
0.0
 11
-235.4999999999999
 21
-132.4250000732255
 31
0.0
  0
LINE
  5
220
330
5C
100
AcDbEntity
  8
0
  6
Continuous
 62
     7
100
AcDbLine
 10
-235.4999999999999
 20
-133.9048514765961
 30
0.0
 11
-246.4999999999999
 21
-133.9048514765961
 31
0.0
  0
LINE
  5
221
330
5C
100
AcDbEntity
  8
0
  6
Continuous
 62
     7
100
AcDbLine
 10
-245.3
 20
-140.207383022387
 30
0.0
 11
-245.3
 21
-139.3413576186021
 31
0.0
  0
LINE
  5
222
330
5C
100
AcDbEntity
  8
0
  6
Continuous
 62
     2
100
AcDbLine
 10
-245.3
 20
-140.207383022387
 30
0.0
 11
-246.4999999999999
 21
-140.207383022387
 31
0.0
  0
LINE
  5
223
330
5C
100
AcDbEntity
  8
0
  6
Continuous
 62
     7
100
AcDbLine
 10
-246.4999999999999
 20
-140.207383022387
 30
0.0
 11
-246.4999999999999
 21
-139.341357618602
 31
0.0
  0
LINE
  5
224
330
5C
100
AcDbEntity
  8
0
  6
Continuous
 62
     7
100
AcDbLine
 10
-246.4999999999999
 20
-139.341357618602
 30
0.0
 11
-246.4999999999999
 21
-136.3250000732258
 31
0.0
  0
LINE
  5
225
330
5C
100
AcDbEntity
  8
0
  6
Continuous
 62
     2
100
AcDbLine
 10
-245.3
 20
-139.3413576186021
 30
0.0
 11
-246.4999999999999
 21
-139.341357618602
 31
0.0
  0
LINE
  5
226
330
5C
100
AcDbEntity
  8
0
  6
Continuous
 62
     7
100
AcDbLine
 10
-245.3
 20
-141.4250000732257
 30
0.0
 11
-235.4999999999999
 21
-141.4250000732257
 31
0.0
  0
LINE
  5
227
330
5C
100
AcDbEntity
  8
0
  6
Continuous
 62
     7
100
AcDbLine
 10
-245.3
 20
-141.4250000732257
 30
0.0
 11
-245.3
 21
-140.207383022387
 31
0.0
  0
LINE
  5
228
330
5C
100
AcDbEntity
  8
0
  6
Continuous
 62
     7
100
AcDbLine
 10
-245.3
 20
-141.4919873713335
 30
0.0
 11
-245.3
 21
-141.4250000732257
 31
0.0
  0
LINE
  5
229
330
5C
100
AcDbEntity
  8
0
  6
Continuous
 62
     7
100
AcDbLine
 10
-246.4999999999999
 20
-140.207383022387
 30
0.0
 11
-246.4999999999999
 21
-141.4919873713335
 31
0.0
  0
LINE
  5
22A
330
5C
100
AcDbEntity
  8
0
  6
Continuous
 62
     7
100
AcDbLine
 10
-246.4999999999999
 20
-141.4919873713335
 30
0.0
 11
-246.4999999999999
 21
-141.9250000732255
 31
0.0
  0
LINE
  5
22B
330
5C
100
AcDbEntity
  8
0
  6
Continuous
 62
     7
100
AcDbLine
 10
-246.4999999999999
 20
-144.4250000732255
 30
0.0
 11
-246.4999999999999
 21
-141.9250000732255
 31
0.0
  0
LINE
  5
22C
330
5C
100
AcDbEntity
  8
0
  6
Continuous
 62
     7
100
AcDbLine
 10
-246.4999999999999
 20
-101.7505753593382
 30
0.0
 11
-246.4999999999999
 21
-100.5462953806246
 31
0.0
  0
LINE
  5
22D
330
5C
100
AcDbEntity
  8
0
  6
Continuous
 62
     2
100
AcDbLine
 10
-245.3
 20
-141.4919873713335
 30
0.0
 11
-246.4999999999999
 21
-141.4919873713335
 31
0.0
  0
LINE
  5
22E
330
5C
100
AcDbEntity
  8
0
  6
Continuous
 62
     7
100
AcDbLine
 10
-246.4999999999999
 20
-101.7505753593382
 30
0.0
 11
-246.4999999999999
 21
-132.4250000732255
 31
0.0
  0
LINE
  5
22F
330
5C
100
AcDbEntity
  8
0
  6
Continuous
 62
     7
100
AcDbLine
 10
-246.4999999999999
 20
-100.5462953806246
 30
0.0
 11
-246.4999999999999
 21
-99.95185213002785
 31
0.0
  0
LINE
  5
230
330
5C
100
AcDbEntity
  8
0
  6
Continuous
 62
     7
100
AcDbLine
 10
-242.3749999999999
 20
-116.2750000732264
 30
0.0
 11
-242.3749999999999
 21
-122.3750000732263
 31
0.0
  0
LINE
  5
231
330
5C
100
AcDbEntity
  8
0
  6
Continuous
 62
     7
100
AcDbLine
 10
-244.4499999999999
 20
-116.2750000732263
 30
0.0
 11
-244.4499999999999
 21
-122.375000073226
 31
0.0
  0
LINE
  5
232
330
5C
100
AcDbEntity
  8
0
  6
Continuous
 62
     7
100
AcDbLine
 10
-244.4499999999999
 20
-125.1750000732259
 30
0.0
 11
-244.4499999999999
 21
-128.4750000732257
 31
0.0
  0
LINE
  5
233
330
5C
100
AcDbEntity
  8
0
  6
Continuous
 62
     7
100
AcDbLine
 10
-244.4499999999999
 20
-122.375000073226
 30
0.0
 11
-244.4499999999999
 21
-125.1750000732259
 31
0.0
  0
LINE
  5
234
330
5C
100
AcDbEntity
  8
0
  6
Continuous
 62
     7
100
AcDbLine
 10
-244.4499999999999
 20
-114.1750140732256
 30
0.0
 11
-244.4499999999999
 21
-116.2750000732263
 31
0.0
  0
LINE
  5
235
330
5C
100
AcDbEntity
  8
0
  6
Continuous
 62
     7
100
AcDbLine
 10
-238.3749999999999
 20
-116.2750000732264
 30
0.0
 11
-238.3749999999999
 21
-122.3750000732263
 31
0.0
  0
LINE
  5
236
330
5C
100
AcDbEntity
  8
0
  6
Continuous
 62
     7
100
AcDbLine
 10
-235.4999999999999
 20
-128.4750000732257
 30
0.0
 11
-235.4999999999999
 21
-125.1750000732259
 31
0.0
  0
LINE
  5
237
330
5C
100
AcDbEntity
  8
0
  6
Continuous
 62
     7
100
AcDbLine
 10
-235.4999999999999
 20
-116.2750000732268
 30
0.0
 11
-235.4999999999999
 21
-122.3750000732267
 31
0.0
  0
LINE
  5
238
330
5C
100
AcDbEntity
  8
0
  6
Continuous
 62
     7
100
AcDbLine
 10
-235.4999999999999
 20
-122.3750000732267
 30
0.0
 11
-235.4999999999999
 21
-125.1750000732259
 31
0.0
  0
ENDBLK
  5
5E
330
5C
100
AcDbEntity
  8
0
100
AcDbBlockEnd
  0
BLOCK
  5
61
330
5F
100
AcDbEntity
  8
0
100
AcDbBlockBegin
  2
SA_Links1
 70
     0
 10
-241.0
 20
-119.0000000488181
 30
0.0
  3
SA_Links1
  1

  0
INSERT
  5
60
330
5F
100
AcDbEntity
  8
0
100
AcDbBlockReference
  2
OTTA_6_YE-select__4
 10
-246.4999999999999
 20
-144.4250000732255
 30
0.0
  0
MTEXT
  5
239
330
5F
100
AcDbEntity
  8
1
 62
     6
100
AcDbMText
 10
-241.0
 20
-149.4250020488191
 30
0.0
 40
5.0
 41
0.0
 71
     2
 72
     1
  1
 
  7
CONVERTER_11
 73
     1
 44
1.32052821128451
  0
ENDBLK
  5
62
330
5F
100
AcDbEntity
  8
0
100
AcDbBlockEnd
  0
BLOCK
  5
64
330
63
100
AcDbEntity
  8
0
100
AcDbBlockBegin
  2
OTTA_6_YE-select__5
 70
     0
 10
-376.9999999999976
 20
-144.4250000488167
 30
0.0
  3
OTTA_6_YE-select__5
  1

  0
LINE
  5
23A
330
63
100
AcDbEntity
  8
1
  6
DOT_CENTER
 62
     2
100
AcDbLine
 10
-372.1249999999977
 20
-116.2750000488183
 30
0.0
 11
-372.1249999999977
 21
-122.3750000488181
 31
0.0
  0
LINE
  5
23B
330
63
100
AcDbEntity
  8
0
  6
Continuous
 62
     7
100
AcDbLine
 10
-374.1249999999977
 20
-116.2750000488183
 30
0.0
 11
-376.9999999999976
 21
-116.2750000488184
 31
0.0
  0
LINE
  5
23C
330
63
100
AcDbEntity
  8
0
  6
Continuous
 62
     7
100
AcDbLine
 10
-368.0499999999976
 20
-114.1750140488196
 30
0.0
 11
-376.9999999999976
 21
-114.1750140488196
 31
0.0
  0
LINE
  5
23D
330
63
100
AcDbEntity
  8
0
  6
Continuous
 62
     7
100
AcDbLine
 10
-368.0499999999976
 20
-116.2750000488184
 30
0.0
 11
-370.1249999999977
 21
-116.2750000488183
 31
0.0
  0
LINE
  5
23E
330
63
100
AcDbEntity
  8
0
  6
Continuous
 62
     7
100
AcDbLine
 10
-370.1249999999977
 20
-116.2750000488183
 30
0.0
 11
-374.1249999999977
 21
-116.2750000488183
 31
0.0
  0
LINE
  5
23F
330
63
100
AcDbEntity
  8
0
  6
Continuous
 62
     7
100
AcDbLine
 10
-365.9999999999976
 20
-93.57500004881847
 30
0.0
 11
-376.9999999999976
 21
-93.57500004881847
 31
0.0
  0
LINE
  5
240
330
63
100
AcDbEntity
  8
0
  6
Continuous
 62
     7
100
AcDbLine
 10
-376.9999999999976
 20
-95.77500004881831
 30
0.0
 11
-365.9999999999976
 21
-95.77500004881826
 31
0.0
  0
LINE
  5
241
330
63
100
AcDbEntity
  8
0
  6
Continuous
 62
     7
100
AcDbLine
 10
-365.9999999999976
 20
-99.29412277220173
 30
0.0
 11
-376.9999999999976
 21
-99.29412277220173
 31
0.0
  0
LINE
  5
242
330
63
100
AcDbEntity
  8
0
  6
Continuous
 62
     7
100
AcDbLine
 10
-376.9999999999976
 20
-101.7505753349315
 30
0.0
 11
-376.9999999999976
 21
-100.5462953562156
 31
0.0
  0
LINE
  5
243
330
63
100
AcDbEntity
  8
0
  6
Continuous
 62
     7
100
AcDbLine
 10
-376.9999999999976
 20
-99.29412277220173
 30
0.0
 11
-376.9999999999976
 21
-99.9518521056203
 31
0.0
  0
LINE
  5
244
330
63
100
AcDbEntity
  8
0
  6
Continuous
 62
     7
100
AcDbLine
 10
-376.9999999999976
 20
-99.9518521056203
 30
0.0
 11
-365.9999999999976
 21
-99.95185210562025
 31
0.0
  0
LINE
  5
245
330
63
100
AcDbEntity
  8
0
  6
Continuous
 62
     7
100
AcDbLine
 10
-365.9999999999976
 20
-99.29412277220173
 30
0.0
 11
-365.9999999999976
 21
-99.95185210562025
 31
0.0
  0
LINE
  5
246
330
63
100
AcDbEntity
  8
0
  6
Continuous
 62
     7
100
AcDbLine
 10
-376.9999999999976
 20
-100.5462953562156
 30
0.0
 11
-376.9999999999976
 21
-99.9518521056203
 31
0.0
  0
LINE
  5
247
330
63
100
AcDbEntity
  8
0
  6
Continuous
 62
     7
100
AcDbLine
 10
-365.9999999999976
 20
-101.7505753349315
 30
0.0
 11
-376.9999999999976
 21
-101.7505753349315
 31
0.0
  0
LINE
  5
248
330
63
100
AcDbEntity
  8
0
  6
Continuous
 62
     7
100
AcDbLine
 10
-365.9999999999976
 20
-95.77500004881826
 30
0.0
 11
-365.9999999999976
 21
-97.00814754099194
 31
0.0
  0
LINE
  5
249
330
63
100
AcDbEntity
  8
0
  6
Continuous
 62
     7
100
AcDbLine
 10
-376.9999999999976
 20
-95.77500004881831
 30
0.0
 11
-376.9999999999976
 21
-97.00814754099191
 31
0.0
  0
LINE
  5
24A
330
63
100
AcDbEntity
  8
0
  6
Continuous
 62
     7
100
AcDbLine
 10
-376.9999999999976
 20
-97.00814754099191
 30
0.0
 11
-376.9999999999976
 21
-99.29412277220173
 31
0.0
  0
LINE
  5
24B
330
63
100
AcDbEntity
  8
0
  6
Continuous
 62
     7
100
AcDbLine
 10
-374.1249999999977
 20
-116.2750000488183
 30
0.0
 11
-374.1249999999977
 21
-122.3750000488181
 31
0.0
  0
LINE
  5
24C
330
63
100
AcDbEntity
  8
0
  6
Continuous
 62
     7
100
AcDbLine
 10
-376.9999999999976
 20
-122.3750000488184
 30
0.0
 11
-376.9999999999976
 21
-116.2750000488184
 31
0.0
  0
LINE
  5
24D
330
63
100
AcDbEntity
  8
0
  6
Continuous
 62
     7
100
AcDbLine
 10
-376.9999999999976
 20
-93.57500004881847
 30
0.0
 11
-376.9999999999976
 21
-95.77500004881831
 31
0.0
  0
LINE
  5
24E
330
63
100
AcDbEntity
  8
0
  6
Continuous
 62
     7
100
AcDbLine
 10
-376.9999999999976
 20
-101.7505753349315
 30
0.0
 11
-376.9999999999976
 21
-114.1750140488196
 31
0.0
  0
LINE
  5
24F
330
63
100
AcDbEntity
  8
0
  6
Continuous
 62
     7
100
AcDbLine
 10
-376.9999999999976
 20
-128.4750000488191
 30
0.0
 11
-376.9999999999976
 21
-125.1750000488185
 31
0.0
  0
LINE
  5
250
330
63
100
AcDbEntity
  8
0
  6
Continuous
 62
     7
100
AcDbLine
 10
-376.9999999999976
 20
-122.3750000488184
 30
0.0
 11
-376.9999999999976
 21
-125.1750000488185
 31
0.0
  0
LINE
  5
251
330
63
100
AcDbEntity
  8
0
  6
Continuous
 62
     7
100
AcDbLine
 10
-376.9999999999976
 20
-116.2750000488184
 30
0.0
 11
-376.9999999999976
 21
-114.1750140488196
 31
0.0
  0
LINE
  5
252
330
63
100
AcDbEntity
  8
0
  6
Continuous
 62
     7
100
AcDbLine
 10
-365.9999999999976
 20
-97.00814754099194
 30
0.0
 11
-376.9999999999976
 21
-97.00814754099191
 31
0.0
  0
LINE
  5
253
330
63
100
AcDbEntity
  8
0
  6
Continuous
 62
     7
100
AcDbLine
 10
-365.9999999999976
 20
-100.5462953562156
 30
0.0
 11
-376.9999999999976
 21
-100.5462953562156
 31
0.0
  0
LINE
  5
254
330
63
100
AcDbEntity
  8
0
  6
Continuous
 62
     7
100
AcDbLine
 10
-365.9999999999976
 20
-100.5462953562156
 30
0.0
 11
-365.9999999999976
 21
-101.7505753349315
 31
0.0
  0
LINE
  5
255
330
63
100
AcDbEntity
  8
0
  6
Continuous
 62
     7
100
AcDbLine
 10
-365.9999999999976
 20
-144.4250000488167
 30
0.0
 11
-376.9999999999976
 21
-144.4250000488167
 31
0.0
  0
LINE
  5
256
330
63
100
AcDbEntity
  8
0
  6
Continuous
 62
     7
100
AcDbLine
 10
-365.9999999999976
 20
-143.0250000488183
 30
0.0
 11
-365.9999999999976
 21
-141.5250000488184
 31
0.0
  0
LINE
  5
257
330
63
100
AcDbEntity
  8
0
  6
Continuous
 62
     7
100
AcDbLine
 10
-365.9999999999976
 20
-141.0250000488184
 30
0.0
 11
-365.9999999999976
 21
-140.925000048819
 31
0.0
  0
LINE
  5
258
330
63
100
AcDbEntity
  8
0
  6
Continuous
 62
     7
100
AcDbLine
 10
-365.9999999999976
 20
-141.5250000488184
 30
0.0
 11
-365.9999999999976
 21
-141.0250000488184
 31
0.0
  0
LINE
  5
259
330
63
100
AcDbEntity
  8
0
  6
Continuous
 62
     7
100
AcDbLine
 10
-365.9999999999976
 20
-144.4250000488167
 30
0.0
 11
-365.9999999999976
 21
-143.1500000488184
 31
0.0
  0
LINE
  5
25A
330
63
100
AcDbEntity
  8
0
  6
Continuous
 62
     7
100
AcDbLine
 10
-365.9999999999976
 20
-143.1500000488184
 30
0.0
 11
-365.9999999999976
 21
-143.0250000488183
 31
0.0
  0
LINE
  5
25B
330
63
100
AcDbEntity
  8
0
  6
Continuous
 62
     7
100
AcDbLine
 10
-376.9999999999976
 20
-141.0250000488184
 30
0.0
 11
-376.9999999999976
 21
-140.925000048819
 31
0.0
  0
LINE
  5
25C
330
63
100
AcDbEntity
  8
0
  6
Continuous
 62
     7
100
AcDbLine
 10
-376.9999999999976
 20
-141.5250000488184
 30
0.0
 11
-376.9999999999976
 21
-141.0250000488184
 31
0.0
  0
LINE
  5
25D
330
63
100
AcDbEntity
  8
0
  6
Continuous
 62
     7
100
AcDbLine
 10
-376.9999999999976
 20
-144.4250000488167
 30
0.0
 11
-376.9999999999976
 21
-143.1500000488184
 31
0.0
  0
LINE
  5
25E
330
63
100
AcDbEntity
  8
0
  6
Continuous
 62
     7
100
AcDbLine
 10
-376.9999999999976
 20
-143.1500000488184
 30
0.0
 11
-376.9999999999976
 21
-143.0250000488183
 31
0.0
  0
LINE
  5
25F
330
63
100
AcDbEntity
  8
0
  6
Continuous
 62
     7
100
AcDbLine
 10
-376.9999999999976
 20
-143.0250000488183
 30
0.0
 11
-376.9999999999976
 21
-141.5250000488184
 31
0.0
  0
LINE
  5
260
330
63
100
AcDbEntity
  8
0
  6
Continuous
 62
     7
100
AcDbLine
 10
-365.9999999999976
 20
-140.925000048819
 30
0.0
 11
-376.9999999999976
 21
-140.925000048819
 31
0.0
  0
LINE
  5
261
330
63
100
AcDbEntity
  8
0
  6
Continuous
 62
     7
100
AcDbLine
 10
-376.9999999999976
 20
-141.0250000488184
 30
0.0
 11
-365.9999999999976
 21
-141.0250000488184
 31
0.0
  0
LINE
  5
262
330
63
100
AcDbEntity
  8
0
  6
Continuous
 62
     7
100
AcDbLine
 10
-376.9999999999976
 20
-141.5250000488184
 30
0.0
 11
-365.9999999999976
 21
-141.5250000488184
 31
0.0
  0
LINE
  5
263
330
63
100
AcDbEntity
  8
0
  6
Continuous
 62
     7
100
AcDbLine
 10
-376.9999999999976
 20
-143.0250000488183
 30
0.0
 11
-365.9999999999976
 21
-143.0250000488183
 31
0.0
  0
LINE
  5
264
330
63
100
AcDbEntity
  8
0
  6
Continuous
 62
     7
100
AcDbLine
 10
-376.9999999999976
 20
-143.1500000488184
 30
0.0
 11
-365.9999999999976
 21
-143.1500000488184
 31
0.0
  0
LINE
  5
265
330
63
100
AcDbEntity
  8
0
  6
Continuous
 62
     7
100
AcDbLine
 10
-370.1249999999977
 20
-122.3750000488181
 30
0.0
 11
-374.1249999999977
 21
-122.3750000488181
 31
0.0
  0
LINE
  5
266
330
63
100
AcDbEntity
  8
0
  6
Continuous
 62
     7
100
AcDbLine
 10
-376.9999999999976
 20
-125.1750000488185
 30
0.0
 11
-368.0499999999976
 21
-125.1750000488185
 31
0.0
  0
LINE
  5
267
330
63
100
AcDbEntity
  8
0
  6
Continuous
 62
     7
100
AcDbLine
 10
-368.0499999999976
 20
-128.4750000488191
 30
0.0
 11
-376.9999999999976
 21
-128.4750000488191
 31
0.0
  0
LINE
  5
268
330
63
100
AcDbEntity
  8
0
  6
Continuous
 62
     7
100
AcDbLine
 10
-376.9999999999976
 20
-140.925000048819
 30
0.0
 11
-376.9999999999976
 21
-128.4750000488191
 31
0.0
  0
LINE
  5
269
330
63
100
AcDbEntity
  8
0
  6
Continuous
 62
     7
100
AcDbLine
 10
-374.1249999999977
 20
-122.3750000488181
 30
0.0
 11
-376.9999999999976
 21
-122.3750000488184
 31
0.0
  0
LINE
  5
26A
330
63
100
AcDbEntity
  8
0
  6
Continuous
 62
     7
100
AcDbLine
 10
-368.0499999999976
 20
-122.3750000488184
 30
0.0
 11
-370.1249999999977
 21
-122.3750000488181
 31
0.0
  0
LINE
  5
26B
330
63
100
AcDbEntity
  8
0
  6
Continuous
 62
     7
100
AcDbLine
 10
-365.9999999999976
 20
-93.57500004881847
 30
0.0
 11
-365.9999999999976
 21
-95.77500004881826
 31
0.0
  0
LINE
  5
26C
330
63
100
AcDbEntity
  8
0
  6
Continuous
 62
     7
100
AcDbLine
 10
-365.9999999999976
 20
-99.95185210562025
 30
0.0
 11
-365.9999999999976
 21
-100.5462953562156
 31
0.0
  0
LINE
  5
26D
330
63
100
AcDbEntity
  8
0
  6
Continuous
 62
     7
100
AcDbLine
 10
-365.9999999999976
 20
-97.00814754099194
 30
0.0
 11
-365.9999999999976
 21
-99.29412277220173
 31
0.0
  0
LINE
  5
26E
330
63
100
AcDbEntity
  8
0
  6
Continuous
 62
     7
100
AcDbLine
 10
-370.1249999999977
 20
-116.2750000488183
 30
0.0
 11
-370.1249999999977
 21
-122.3750000488181
 31
0.0
  0
LINE
  5
26F
330
63
100
AcDbEntity
  8
0
  6
Continuous
 62
     7
100
AcDbLine
 10
-368.0499999999976
 20
-122.3750000488184
 30
0.0
 11
-368.0499999999976
 21
-116.2750000488184
 31
0.0
  0
LINE
  5
270
330
63
100
AcDbEntity
  8
0
  6
Continuous
 62
     7
100
AcDbLine
 10
-365.9999999999976
 20
-140.925000048819
 30
0.0
 11
-365.9999999999976
 21
-101.7505753349315
 31
0.0
  0
LINE
  5
271
330
63
100
AcDbEntity
  8
0
  6
Continuous
 62
     7
100
AcDbLine
 10
-368.0499999999976
 20
-128.4750000488191
 30
0.0
 11
-368.0499999999976
 21
-125.1750000488185
 31
0.0
  0
LINE
  5
272
330
63
100
AcDbEntity
  8
0
  6
Continuous
 62
     7
100
AcDbLine
 10
-368.0499999999976
 20
-125.1750000488185
 30
0.0
 11
-368.0499999999976
 21
-122.3750000488184
 31
0.0
  0
LINE
  5
273
330
63
100
AcDbEntity
  8
0
  6
Continuous
 62
     7
100
AcDbLine
 10
-368.0499999999976
 20
-116.2750000488184
 30
0.0
 11
-368.0499999999976
 21
-114.1750140488196
 31
0.0
  0
ENDBLK
  5
65
330
63
100
AcDbEntity
  8
0
100
AcDbBlockEnd
  0
BLOCK
  5
68
330
66
100
AcDbEntity
  8
0
100
AcDbBlockBegin
  2
SA_Rechts1
 70
     0
 10
-371.4999999999976
 20
-119.0000000244091
 30
0.0
  3
SA_Rechts1
  1

  0
INSERT
  5
67
330
66
100
AcDbEntity
  8
0
100
AcDbBlockReference
  2
OTTA_6_YE-select__5
 10
-376.9999999999976
 20
-144.4250000488167
 30
0.0
  0
MTEXT
  5
274
330
66
100
AcDbEntity
  8
1
 62
     6
100
AcDbMText
 10
-371.4999999999973
 20
-149.4250020244101
 30
0.0
 40
5.0
 41
0.0
 71
     2
 72
     1
  1
 
  7
CONVERTER_11
 73
     1
 44
1.32052821128451
  0
ENDBLK
  5
69
330
66
100
AcDbEntity
  8
0
100
AcDbBlockEnd
  0
BLOCK
  5
6B
330
6A
100
AcDbEntity
  8
0
100
AcDbBlockBegin
  2
OTTA_6_YE-select__6
 70
     0
 10
-320.9999993090892
 20
-144.4250000488184
 30
0.0
  3
OTTA_6_YE-select__6
  1

  0
LINE
  5
275
330
6A
100
AcDbEntity
  8
1
  6
DOT_CENTER
 62
     2
100
AcDbLine
 10
-306.6499993090879
 20
-116.2750000488172
 30
0.0
 11
-306.6499993090879
 21
-122.3750000488173
 31
0.0
  0
LINE
  5
276
330
6A
100
AcDbEntity
  8
1
  6
DOT_CENTER
 62
     2
100
AcDbLine
 10
-291.8499993090875
 20
-116.2750000488181
 30
0.0
 11
-291.8499993090875
 21
-122.3750000488182
 31
0.0
  0
LINE
  5
277
330
6A
100
AcDbEntity
  8
0
  6
Continuous
 62
     7
100
AcDbLine
 10
-311.5345192871661
 20
-99.95185210561877
 30
0.0
 11
-316.9904793310085
 21
-103.1018521056187
 31
0.0
  0
LINE
  5
278
330
6A
100
AcDbEntity
  8
0
  6
Continuous
 62
     7
100
AcDbLine
 10
-281.5095192871657
 20
-103.1018521056205
 30
0.0
 11
-286.9654793310075
 21
-99.95185210562025
 31
0.0
  0
LINE
  5
279
330
6A
100
AcDbEntity
  8
0
  6
Continuous
 62
     7
100
AcDbLine
 10
-287.8499993090865
 20
-95.77500004881824
 30
0.0
 11
-285.7141251994163
 21
-97.00814754099186
 31
0.0
  0
LINE
  5
27A
330
6A
100
AcDbEntity
  8
0
  6
Continuous
 62
     7
100
AcDbLine
 10
-285.7141251994163
 20
-97.00814754099186
 30
0.0
 11
-285.9946999541139
 21
-99.29412277220251
 31
0.0
  0
LINE
  5
27B
330
6A
100
AcDbEntity
  8
0
  6
Continuous
 62
     7
100
AcDbLine
 10
-286.4379793310075
 20
-99.0381953046278
 30
0.0
 11
-286.9654793310075
 21
-99.95185210562025
 31
0.0
  0
LINE
  5
27C
330
6A
100
AcDbEntity
  8
0
  6
Continuous
 62
     7
100
AcDbLine
 10
-281.4252986640592
 20
-101.9322678370527
 30
0.0
 11
-279.5858734187567
 21
-100.5462953562176
 31
0.0
  0
LINE
  5
27D
330
6A
100
AcDbEntity
  8
0
  6
Continuous
 62
     7
100
AcDbLine
 10
-281.5095192871657
 20
-103.1018521056205
 30
0.0
 11
-280.9820192871656
 21
-102.1881953046282
 31
0.0
  0
LINE
  5
27E
330
6A
100
AcDbEntity
  8
0
  6
Continuous
 62
     7
100
AcDbLine
 10
-277.4999993090887
 20
-140.9250000488189
 30
0.0
 11
-277.499999309088
 21
-128.4750000488191
 31
0.0
  0
LINE
  5
27F
330
6A
100
AcDbEntity
  8
0
  6
Continuous
 62
     7
100
AcDbLine
 10
-287.8499993090887
 20
-135.4993821318324
 30
0.0
 11
-286.624999309089
 21
-141.0250000488184
 31
0.0
  0
LINE
  5
280
330
6A
100
AcDbEntity
  8
0
  6
Continuous
 62
     7
100
AcDbLine
 10
-277.499999309088
 20
-128.4750000488191
 30
0.0
 11
-277.4999993090873
 21
-114.1750140488196
 31
0.0
  0
LINE
  5
281
330
6A
100
AcDbEntity
  8
0
  6
Continuous
 62
     7
100
AcDbLine
 10
-281.599999309089
 20
-140.9250000488187
 30
0.0
 11
-282.5499993090889
 21
-139.9750000488183
 31
0.0
  0
LINE
  5
282
330
6A
100
AcDbEntity
  8
0
  6
Continuous
 62
     7
100
AcDbLine
 10
-287.474999309089
 20
-141.5250000488182
 30
0.0
 11
-287.4749993090891
 21
-143.0250000488182
 31
0.0
  0
LINE
  5
283
330
6A
100
AcDbEntity
  8
0
  6
Continuous
 62
     7
100
AcDbLine
 10
-286.3249993090892
 20
-144.4250000488184
 30
0.0
 11
-289.2749993090892
 21
-144.4250000488182
 31
0.0
  0
LINE
  5
284
330
6A
100
AcDbEntity
  8
0
  6
Continuous
 62
     7
100
AcDbLine
 10
-282.549999309089
 20
-139.525000048819
 30
0.0
 11
-281.7499993090889
 21
-139.3250000488187
 31
0.0
  0
LINE
  5
285
330
6A
100
AcDbEntity
  8
0
  6
Continuous
 62
     7
100
AcDbLine
 10
-286.624999309089
 20
-141.5250000488183
 30
0.0
 11
-287.474999309089
 21
-141.5250000488182
 31
0.0
  0
LINE
  5
286
330
6A
100
AcDbEntity
  8
0
  6
Continuous
 62
     7
100
AcDbLine
 10
-281.7499993090889
 20
-139.3250000488187
 30
0.0
 11
-281.7499993090888
 21
-138.1250000488189
 31
0.0
  0
LINE
  5
287
330
6A
100
AcDbEntity
  8
0
  6
Continuous
 62
     7
100
AcDbLine
 10
-281.7499993090888
 20
-138.1250000488189
 30
0.0
 11
-285.8249993090887
 21
-138.1250000488187
 31
0.0
  0
LINE
  5
288
330
6A
100
AcDbEntity
  8
0
  6
Continuous
 62
     7
100
AcDbLine
 10
-282.5499993090889
 20
-139.9750000488183
 30
0.0
 11
-282.549999309089
 21
-139.525000048819
 31
0.0
  0
LINE
  5
289
330
6A
100
AcDbEntity
  8
0
  6
Continuous
 62
     7
100
AcDbLine
 10
-285.8249993090887
 20
-138.1250000488187
 30
0.0
 11
-286.3499993090887
 21
-135.7568780843959
 31
0.0
  0
LINE
  5
28A
330
6A
100
AcDbEntity
  8
0
  6
Continuous
 62
     7
100
AcDbLine
 10
-286.624999309089
 20
-141.0250000488184
 30
0.0
 11
-286.624999309089
 21
-141.5250000488183
 31
0.0
  0
LINE
  5
28B
330
6A
100
AcDbEntity
  8
0
  6
Continuous
 62
     7
100
AcDbLine
 10
-284.7499993090883
 20
-128.4750000488187
 30
0.0
 11
-284.7499993090881
 21
-125.1750000488185
 31
0.0
  0
LINE
  5
28C
330
6A
100
AcDbEntity
  8
0
  6
Continuous
 62
     7
100
AcDbLine
 10
-286.1499993090885
 20
-125.1750000488184
 30
0.0
 11
-284.7499993090881
 21
-125.1750000488185
 31
0.0
  0
LINE
  5
28D
330
6A
100
AcDbEntity
  8
0
  6
Continuous
 62
     7
100
AcDbLine
 10
-287.4749993090891
 20
-143.0250000488182
 30
0.0
 11
-286.3249993090892
 21
-143.1500000488183
 31
0.0
  0
LINE
  5
28E
330
6A
100
AcDbEntity
  8
0
  6
Continuous
 62
     7
100
AcDbLine
 10
-287.8499993090886
 20
-134.4250000488183
 30
0.0
 11
-287.8499993090887
 21
-135.4993821318324
 31
0.0
  0
LINE
  5
28F
330
6A
100
AcDbEntity
  8
0
  6
Continuous
 62
     7
100
AcDbLine
 10
-284.7499993090883
 20
-128.4750000488187
 30
0.0
 11
-277.499999309088
 21
-128.4750000488191
 31
0.0
  0
LINE
  5
290
330
6A
100
AcDbEntity
  8
0
  6
Continuous
 62
     7
100
AcDbLine
 10
-286.8499993090886
 20
-133.9250000488184
 30
0.0
 11
-287.3499993090886
 21
-133.9250000488183
 31
0.0
  0
LINE
  5
291
330
6A
100
AcDbEntity
  8
0
  6
Continuous
 62
     7
100
AcDbLine
 10
-286.1499993090883
 20
-122.3750000488184
 30
0.0
 11
-286.1499993090885
 21
-125.1750000488184
 31
0.0
  0
LINE
  5
292
330
6A
100
AcDbEntity
  8
0
  6
Continuous
 62
     7
100
AcDbLine
 10
-286.3499993090887
 20
-135.7568780843959
 30
0.0
 11
-286.3499993090886
 21
-134.4250000488184
 31
0.0
  0
LINE
  5
293
330
6A
100
AcDbEntity
  8
0
  6
Continuous
 62
     7
100
AcDbLine
 10
-286.3249993090892
 20
-143.1500000488183
 30
0.0
 11
-286.3249993090892
 21
-144.4250000488184
 31
0.0
  0
LINE
  5
294
330
6A
100
AcDbEntity
  8
0
  6
Continuous
 62
     7
100
AcDbLine
 10
-277.4999993090887
 20
-140.9250000488189
 30
0.0
 11
-281.599999309089
 21
-140.9250000488187
 31
0.0
  0
LINE
  5
295
330
6A
100
AcDbEntity
  8
0
  6
Continuous
 62
     7
100
AcDbLine
 10
-277.4999993090873
 20
-114.1750140488196
 30
0.0
 11
-277.4999993090868
 21
-101.7505753349314
 31
0.0
  0
LINE
  5
296
330
6A
100
AcDbEntity
  8
0
  6
Continuous
 62
     7
100
AcDbLine
 10
-280.9820192871656
 20
-102.1881953046282
 30
0.0
 11
-281.4252986640592
 21
-101.9322678370527
 31
0.0
  0
LINE
  5
297
330
6A
100
AcDbEntity
  8
0
  6
Continuous
 62
     7
100
AcDbLine
 10
-279.5858734187567
 20
-100.5462953562176
 30
0.0
 11
-277.4999993090868
 21
-101.7505753349314
 31
0.0
  0
LINE
  5
298
330
6A
100
AcDbEntity
  8
0
  6
Continuous
 62
     7
100
AcDbLine
 10
-285.9946999541139
 20
-99.29412277220251
 30
0.0
 11
-286.4379793310075
 21
-99.0381953046278
 31
0.0
  0
LINE
  5
299
330
6A
100
AcDbEntity
  8
0
  6
Continuous
 62
     7
100
AcDbLine
 10
-287.8499993090862
 20
-93.5750000488184
 30
0.0
 11
-287.8499993090865
 21
-95.77500004881824
 31
0.0
  0
LINE
  5
29A
330
6A
100
AcDbEntity
  8
0
  6
Continuous
 62
     7
100
AcDbLine
 10
-310.7999993090875
 20
-114.1750140488171
 30
0.0
 11
-308.6499993090879
 21
-116.2750000488172
 31
0.0
  0
LINE
  5
29B
330
6A
100
AcDbEntity
  8
0
  6
Continuous
 62
     7
100
AcDbLine
 10
-287.699999309094
 20
-114.1750140488259
 30
0.0
 11
-277.4999993090873
 21
-114.1750140488196
 31
0.0
  0
LINE
  5
29C
330
6A
100
AcDbEntity
  8
0
  6
Continuous
 62
     7
100
AcDbLine
 10
-289.8499993090876
 20
-116.2750000488183
 30
0.0
 11
-287.699999309094
 21
-114.1750140488259
 31
0.0
  0
LINE
  5
29D
330
6A
100
AcDbEntity
  8
0
  6
Continuous
 62
     7
100
AcDbLine
 10
-293.8499993090875
 20
-116.2750000488181
 30
0.0
 11
-293.8499993090878
 21
-122.3750000488179
 31
0.0
  0
LINE
  5
29E
330
6A
100
AcDbEntity
  8
0
  6
Continuous
 62
     7
100
AcDbLine
 10
-293.8499993090878
 20
-122.3750000488179
 30
0.0
 11
-298.549999309088
 21
-122.3750000488177
 31
0.0
  0
LINE
  5
29F
330
6A
100
AcDbEntity
  8
0
  6
Continuous
 62
     7
100
AcDbLine
 10
-299.949999309088
 20
-122.3750000488176
 30
0.0
 11
-304.6499993090882
 21
-122.3750000488173
 31
0.0
  0
LINE
  5
2A0
330
6A
100
AcDbEntity
  8
0
  6
Continuous
 62
     7
100
AcDbLine
 10
-308.6499993090882
 20
-122.3750000488171
 30
0.0
 11
-312.3499993090883
 21
-122.3750000488169
 31
0.0
  0
LINE
  5
2A1
330
6A
100
AcDbEntity
  8
0
  6
Continuous
 62
     7
100
AcDbLine
 10
-304.6499993090882
 20
-122.3750000488173
 30
0.0
 11
-308.6499993090882
 21
-122.3750000488171
 31
0.0
  0
LINE
  5
2A2
330
6A
100
AcDbEntity
  8
0
  6
Continuous
 62
     7
100
AcDbLine
 10
-286.1499993090883
 20
-122.3750000488184
 30
0.0
 11
-289.8499993090878
 21
-122.3750000488182
 31
0.0
  0
LINE
  5
2A3
330
6A
100
AcDbEntity
  8
0
  6
Continuous
 62
     7
100
AcDbLine
 10
-289.8499993090878
 20
-122.3750000488182
 30
0.0
 11
-293.8499993090878
 21
-122.3750000488179
 31
0.0
  0
LINE
  5
2A4
330
6A
100
AcDbEntity
  8
0
  6
Continuous
 62
     7
100
AcDbLine
 10
-298.549999309088
 20
-122.3750000488177
 30
0.0
 11
-298.5499993090876
 21
-116.2750000488178
 31
0.0
  0
LINE
  5
2A5
330
6A
100
AcDbEntity
  8
0
  6
Continuous
 62
     7
100
AcDbLine
 10
-299.9499993090877
 20
-116.2750000488177
 30
0.0
 11
-299.949999309088
 21
-122.3750000488176
 31
0.0
  0
LINE
  5
2A6
330
6A
100
AcDbEntity
  8
0
  6
Continuous
 62
     7
100
AcDbLine
 10
-289.8499993090876
 20
-116.2750000488183
 30
0.0
 11
-289.8499993090878
 21
-122.3750000488182
 31
0.0
  0
LINE
  5
2A7
330
6A
100
AcDbEntity
  8
0
  6
Continuous
 62
     7
100
AcDbLine
 10
-293.8499993090875
 20
-116.2750000488181
 30
0.0
 11
-289.8499993090876
 21
-116.2750000488183
 31
0.0
  0
LINE
  5
2A8
330
6A
100
AcDbEntity
  8
0
  6
Continuous
 62
     7
100
AcDbLine
 10
-298.5499993090876
 20
-116.2750000488178
 30
0.0
 11
-293.8499993090875
 21
-116.2750000488181
 31
0.0
  0
LINE
  5
2A9
330
6A
100
AcDbEntity
  8
0
  6
Continuous
 62
     7
100
AcDbLine
 10
-304.6499993090879
 20
-116.2750000488174
 30
0.0
 11
-299.9499993090877
 21
-116.2750000488177
 31
0.0
  0
LINE
  5
2AA
330
6A
100
AcDbEntity
  8
0
  6
Continuous
 62
     7
100
AcDbLine
 10
-308.6499993090879
 20
-116.2750000488172
 30
0.0
 11
-304.6499993090879
 21
-116.2750000488174
 31
0.0
  0
LINE
  5
2AB
330
6A
100
AcDbEntity
  8
0
  6
Continuous
 62
     7
100
AcDbLine
 10
-308.6499993090879
 20
-116.2750000488172
 30
0.0
 11
-308.6499993090882
 21
-122.3750000488171
 31
0.0
  0
LINE
  5
2AC
330
6A
100
AcDbEntity
  8
0
  6
Continuous
 62
     7
100
AcDbLine
 10
-304.6499993090879
 20
-116.2750000488174
 30
0.0
 11
-304.6499993090882
 21
-122.3750000488173
 31
0.0
  0
LINE
  5
2AD
330
6A
100
AcDbEntity
  8
0
  6
Continuous
 62
     7
100
AcDbLine
 10
-310.6499993090868
 20
-95.7750000488171
 30
0.0
 11
-310.6499993090868
 21
-93.57500004881715
 31
0.0
  0
LINE
  5
2AE
330
6A
100
AcDbEntity
  8
0
  6
Continuous
 62
     7
100
AcDbLine
 10
-287.8499993090862
 20
-93.5750000488184
 30
0.0
 11
-310.6499993090868
 21
-93.57500004881715
 31
0.0
  0
LINE
  5
2AF
330
6A
100
AcDbEntity
  8
0
  6
Continuous
 62
     7
100
AcDbLine
 10
-311.5345192871661
 20
-99.95185210561877
 30
0.0
 11
-312.062019287166
 21
-99.0381953046259
 31
0.0
  0
LINE
  5
2B0
330
6A
100
AcDbEntity
  8
0
  6
Continuous
 62
     7
100
AcDbLine
 10
-305.7955800203539
 20
-134.2955905262661
 30
0.0
 11
-306.1249993090887
 21
-135.5250000488172
 31
0.0
  0
LINE
  5
2B1
330
6A
100
AcDbEntity
  8
0
  6
Continuous
 62
     7
100
AcDbLine
 10
-311.9249993090887
 20
-135.5250000488169
 30
0.0
 11
-306.1249993090887
 21
-135.5250000488172
 31
0.0
  0
LINE
  5
2B2
330
6A
100
AcDbEntity
  8
0
  6
Continuous
 62
     7
100
AcDbLine
 10
-313.7499993090881
 20
-125.1750000488169
 30
0.0
 11
-312.3499993090885
 21
-125.1750000488169
 31
0.0
  0
LINE
  5
2B3
330
6A
100
AcDbEntity
  8
0
  6
Continuous
 62
     7
100
AcDbLine
 10
-319.1748507124598
 20
-132.4250000488162
 30
0.0
 11
-317.6949993090892
 21
-133.904851452187
 31
0.0
  0
LINE
  5
2B4
330
6A
100
AcDbEntity
  8
0
  6
Continuous
 62
     7
100
AcDbLine
 10
-316.7214459184953
 20
-132.9312980615945
 30
0.0
 11
-317.6949993090892
 21
-133.904851452187
 31
0.0
  0
LINE
  5
2B5
330
6A
100
AcDbEntity
  8
0
  6
Continuous
 62
     7
100
AcDbLine
 10
-318.0249993090889
 20
-139.3413575941931
 30
0.0
 11
-318.0249993090887
 21
-136.3250000488168
 31
0.0
  0
LINE
  5
2B6
330
6A
100
AcDbEntity
  8
0
  6
Continuous
 62
     7
100
AcDbLine
 10
-318.024999309089
 20
-143.3750000488166
 30
0.0
 11
-318.0249993090889
 21
-139.3413575941931
 31
0.0
  0
LINE
  5
2B7
330
6A
100
AcDbEntity
  8
0
  6
Continuous
 62
     7
100
AcDbLine
 10
-316.449999309089
 20
-139.3250000488168
 30
0.0
 11
-316.5499993090888
 21
-138.125000048817
 31
0.0
  0
LINE
  5
2B8
330
6A
100
AcDbEntity
  8
0
  6
Continuous
 62
     7
100
AcDbLine
 10
-316.5499993090888
 20
-138.125000048817
 30
0.0
 11
-315.524999309089
 21
-137.9245881467104
 31
0.0
  0
LINE
  5
2B9
330
6A
100
AcDbEntity
  8
0
  6
Continuous
 62
     7
100
AcDbLine
 10
-315.524999309089
 20
-137.9245881467104
 30
0.0
 11
-315.5249993090888
 21
-137.225000048817
 31
0.0
  0
LINE
  5
2BA
330
6A
100
AcDbEntity
  8
0
  6
Continuous
 62
     7
100
AcDbLine
 10
-315.5249993090888
 20
-137.225000048817
 30
0.0
 11
-315.5736826071393
 21
-137.2250000488169
 31
0.0
  0
LINE
  5
2BB
330
6A
100
AcDbEntity
  8
0
  6
Continuous
 62
     7
100
AcDbLine
 10
-305.1999993090886
 20
-133.9250000488174
 30
0.0
 11
-305.3126171072093
 21
-133.9250000488173
 31
0.0
  0
LINE
  5
2BC
330
6A
100
AcDbEntity
  8
0
  6
Continuous
 62
     7
100
AcDbLine
 10
-320.9999993090884
 20
-128.4750000488167
 30
0.0
 11
-313.7499993090883
 21
-128.4750000488171
 31
0.0
  0
LINE
  5
2BD
330
6A
100
AcDbEntity
  8
0
  6
Continuous
 62
     7
100
AcDbLine
 10
-317.074699954115
 20
-101.9322678370508
 30
0.0
 11
-317.5179793310085
 21
-102.1881953046259
 31
0.0
  0
LINE
  5
2BE
330
6A
100
AcDbEntity
  8
0
  6
Continuous
 62
     7
100
AcDbLine
 10
-317.5179793310085
 20
-102.1881953046259
 30
0.0
 11
-316.9904793310085
 21
-103.1018521056187
 31
0.0
  0
LINE
  5
2BF
330
6A
100
AcDbEntity
  8
0
  6
Continuous
 62
     7
100
AcDbLine
 10
-315.424999309089
 20
-139.5250000488167
 30
0.0
 11
-315.4249993090889
 21
-139.7250000488197
 31
0.0
  0
LINE
  5
2C0
330
6A
100
AcDbEntity
  8
0
  6
Continuous
 62
     7
100
AcDbLine
 10
-313.7499993090883
 20
-128.4750000488171
 30
0.0
 11
-313.7499993090881
 21
-125.1750000488169
 31
0.0
  0
LINE
  5
2C1
330
6A
100
AcDbEntity
  8
0
  6
Continuous
 62
     7
100
AcDbLine
 10
-312.7858734187572
 20
-97.00814754099044
 30
0.0
 11
-310.6499993090868
 21
-95.7750000488171
 31
0.0
  0
LINE
  5
2C2
330
6A
100
AcDbEntity
  8
0
  6
Continuous
 62
     7
100
AcDbLine
 10
-312.0392128714619
 20
-135.4107864864437
 30
0.0
 11
-311.9249993090887
 21
-135.5250000488169
 31
0.0
  0
LINE
  5
2C3
330
6A
100
AcDbEntity
  8
0
  6
Continuous
 62
     7
100
AcDbLine
 10
-312.3499993090883
 20
-122.3750000488169
 30
0.0
 11
-312.3499993090885
 21
-125.1750000488169
 31
0.0
  0
LINE
  5
2C4
330
6A
100
AcDbEntity
  8
0
  6
Continuous
 62
     7
100
AcDbLine
 10
-312.5052986640596
 20
-99.29412277220166
 30
0.0
 11
-312.7858734187572
 21
-97.00814754099044
 31
0.0
  0
LINE
  5
2C5
330
6A
100
AcDbEntity
  8
0
  6
Continuous
 62
     7
100
AcDbLine
 10
-312.062019287166
 20
-99.0381953046259
 30
0.0
 11
-312.5052986640596
 21
-99.29412277220166
 31
0.0
  0
LINE
  5
2C6
330
6A
100
AcDbEntity
  8
0
  6
Continuous
 62
     7
100
AcDbLine
 10
-289.2749993090892
 20
-144.4250000488182
 30
0.0
 11
-289.2749993090891
 21
-142.7750000488181
 31
0.0
  0
LINE
  5
2C7
330
6A
100
AcDbEntity
  8
0
  6
Continuous
 62
     7
100
AcDbLine
 10
-289.2749993090891
 20
-142.7750000488181
 30
0.0
 11
-289.9149993090891
 21
-142.7750000488181
 31
0.0
  0
LINE
  5
2C8
330
6A
100
AcDbEntity
  8
0
  6
Continuous
 62
     7
100
AcDbLine
 10
-316.5749993090884
 20
-131.875000048817
 30
0.0
 11
-313.4499993090885
 21
-131.8750000488167
 31
0.0
  0
LINE
  5
2C9
330
6A
100
AcDbEntity
  8
0
  6
Continuous
 62
     7
100
AcDbLine
 10
-316.5749993090884
 20
-132.5777446710011
 30
0.0
 11
-316.5749993090884
 21
-131.875000048817
 31
0.0
  0
LINE
  5
2CA
330
6A
100
AcDbEntity
  8
0
  6
Continuous
 62
     7
100
AcDbLine
 10
-313.4499993090885
 20
-132.9250000488169
 30
0.0
 11
-314.6249993090885
 21
-132.9250000488168
 31
0.0
  0
LINE
  5
2CB
330
6A
100
AcDbEntity
  8
0
  6
Continuous
 62
     7
100
AcDbLine
 10
-315.424999309089
 20
-139.5250000488167
 30
0.0
 11
-316.449999309089
 21
-139.3250000488168
 31
0.0
  0
LINE
  5
2CC
330
6A
100
AcDbEntity
  8
0
  6
Continuous
 62
     7
100
AcDbLine
 10
-314.6249993090887
 20
-134.8250000488169
 30
0.0
 11
-313.4534264338349
 21
-134.8250000488169
 31
0.0
  0
LINE
  5
2CD
330
6A
100
AcDbEntity
  8
0
  6
Continuous
 62
     7
100
AcDbLine
 10
-304.6999993090886
 20
-136.7750000488173
 30
0.0
 11
-304.6999993090886
 21
-134.4250000488174
 31
0.0
  0
LINE
  5
2CE
330
6A
100
AcDbEntity
  8
0
  6
Continuous
 62
     7
100
AcDbLine
 10
-320.7499993090891
 20
-141.4919873469245
 30
0.0
 11
-318.5249993090889
 21
-140.2073829979779
 31
0.0
  0
LINE
  5
2CF
330
6A
100
AcDbEntity
  8
0
  6
Continuous
 62
     7
100
AcDbLine
 10
-320.9999993090891
 20
-141.9250000488165
 30
0.0
 11
-320.9999993090892
 21
-144.4250000488165
 31
0.0
  0
LINE
  5
2D0
330
6A
100
AcDbEntity
  8
0
  6
Continuous
 62
     7
100
AcDbLine
 10
-320.9999993090886
 20
-132.4250000488165
 30
0.0
 11
-320.9999993090884
 21
-128.4750000488167
 31
0.0
  0
LINE
  5
2D1
330
6A
100
AcDbEntity
  8
0
  6
Continuous
 62
     7
100
AcDbLine
 10
-320.9999993090886
 20
-132.4250000488165
 30
0.0
 11
-319.1748507124598
 21
-132.4250000488162
 31
0.0
  0
LINE
  5
2D2
330
6A
100
AcDbEntity
  8
0
  6
Continuous
 62
     7
100
AcDbLine
 10
-319.949999309089
 20
-142.3250000488166
 30
0.0
 11
-319.9499993090891
 21
-143.3750000488166
 31
0.0
  0
LINE
  5
2D3
330
6A
100
AcDbEntity
  8
0
  6
Continuous
 62
     7
100
AcDbLine
 10
-319.9499993090891
 20
-143.3750000488166
 30
0.0
 11
-318.024999309089
 21
-143.3750000488166
 31
0.0
  0
LINE
  5
2D4
330
6A
100
AcDbEntity
  8
0
  6
Continuous
 62
     7
100
AcDbLine
 10
-320.499999309089
 20
-141.4250000488165
 30
0.0
 11
-320.2499993090891
 21
-141.4250000488165
 31
0.0
  0
LINE
  5
2D5
330
6A
100
AcDbEntity
  8
0
  6
Continuous
 62
     7
100
AcDbLine
 10
-320.9999993090892
 20
-144.4250000488165
 30
0.0
 11
-317.2195829091013
 21
-144.4250000488167
 31
0.0
  0
LINE
  5
2D6
330
6A
100
AcDbEntity
  8
0
  6
Continuous
 62
     7
100
AcDbLine
 10
-318.914125199417
 20
-100.5462953562155
 30
0.0
 11
-320.9999993090869
 21
-101.7505753349291
 31
0.0
  0
LINE
  5
2D7
330
6A
100
AcDbEntity
  8
0
  6
Continuous
 62
     7
100
AcDbLine
 10
-320.9999993090869
 20
-101.7505753349291
 30
0.0
 11
-320.9999993090876
 21
-114.1750140488089
 31
0.0
  0
LINE
  5
2D8
330
6A
100
AcDbEntity
  8
0
  6
Continuous
 62
     7
100
AcDbLine
 10
-317.074699954115
 20
-101.9322678370508
 30
0.0
 11
-318.914125199417
 21
-100.5462953562155
 31
0.0
  0
LINE
  5
2D9
330
6A
100
AcDbEntity
  8
0
  6
Continuous
 62
     7
100
AcDbLine
 10
-320.9999993090876
 20
-114.1750140488089
 30
0.0
 11
-320.9999993090884
 21
-128.4750000488167
 31
0.0
  0
LINE
  5
2DA
330
6A
100
AcDbEntity
  8
0
  6
Continuous
 62
     7
100
AcDbLine
 10
-320.9999993090876
 20
-114.1750140488089
 30
0.0
 11
-310.7999993090875
 21
-114.1750140488171
 31
0.0
  0
ARC
  5
2DB
330
6A
100
AcDbEntity
  8
0
  6
Continuous
 62
     7
100
AcDbCircle
 10
-287.3499993090886
 20
-134.4250000488183
 30
0.0
 40
0.5
100
AcDbArc
 50
90.0
 51
180.0
  0
ARC
  5
2DC
330
6A
100
AcDbEntity
  8
0
  6
Continuous
 62
     7
100
AcDbCircle
 10
-286.8499993090886
 20
-134.4250000488184
 30
0.0
 40
0.5
100
AcDbArc
 50
0.0
 51
90.0
  0
ARC
  5
2DD
330
6A
100
AcDbEntity
  8
0
  6
Continuous
 62
     7
100
AcDbCircle
 10
-313.453426433835
 20
-136.825000048817
 30
0.0
 40
2.000000000000116
100
AcDbArc
 50
45.00000000000519
 51
89.99999999999837
  0
ARC
  5
2DE
330
6A
100
AcDbEntity
  8
0
  6
Continuous
 62
     7
100
AcDbCircle
 10
-298.1732238920976
 20
-146.4143020212782
 30
0.0
 40
7.999999999999802
100
AcDbArc
 50
34.32803523337033
 51
77.66476782071364
  0
ARC
  5
2DF
330
6A
100
AcDbEntity
  8
0
  6
Continuous
 62
     7
100
AcDbCircle
 10
-314.6249993090887
 20
-136.3250000488169
 30
0.0
 40
3.400000000000091
100
AcDbArc
 50
89.99999999999618
 51
179.9999999999986
  0
ARC
  5
2E0
330
6A
100
AcDbEntity
  8
0
  6
Continuous
 62
     7
100
AcDbCircle
 10
-322.8893803136891
 20
-139.5675126900119
 30
0.0
 40
7.466042194497652
100
AcDbArc
 50
319.4123338771505
 51
358.7913234292509
  0
ARC
  5
2E1
330
6A
100
AcDbEntity
  8
0
  6
Continuous
 62
     7
100
AcDbCircle
 10
-319.0249993090889
 20
-139.3413575941929
 30
0.0
 40
1.000000000000476
100
AcDbArc
 50
299.9999999999842
 51
359.9999999999886
  0
ARC
  5
2E2
330
6A
100
AcDbEntity
  8
0
  6
Continuous
 62
     7
100
AcDbCircle
 10
-315.5736826071394
 20
-136.475000048817
 30
0.0
 40
0.7499999999996445
100
AcDbArc
 50
176.9830386901831
 51
270.0000000000086
  0
ARC
  5
2E3
330
6A
100
AcDbEntity
  8
0
  6
Continuous
 62
     7
100
AcDbCircle
 10
-289.914999309089
 20
-140.7750000488181
 30
0.0
 40
2.000000000000187
100
AcDbArc
 50
214.3280352333817
 51
269.9999999999968
  0
ARC
  5
2E4
330
6A
100
AcDbEntity
  8
0
  6
Continuous
 62
     7
100
AcDbCircle
 10
-299.9249993090897
 20
-154.4250000488177
 30
0.0
 40
16.19999999999991
100
AcDbArc
 50
77.66476782071508
 51
100.7064869688762
  0
ARC
  5
2E5
330
6A
100
AcDbEntity
  8
0
  6
Continuous
 62
     7
100
AcDbCircle
 10
-302.7116672780827
 20
-139.6861235098615
 30
0.0
 40
1.199999999999797
100
AcDbArc
 50
100.7064869688749
 51
186.9237208440679
  0
ARC
  5
2E6
330
6A
100
AcDbEntity
  8
0
  6
Continuous
 62
     7
100
AcDbCircle
 10
-304.2999993090889
 20
-139.8790000488176
 30
0.0
 40
0.3999999999999467
100
AcDbArc
 50
228.6834170699433
 51
6.92372084408335
  0
ARC
  5
2E7
330
6A
100
AcDbEntity
  8
0
  6
Continuous
 62
     7
100
AcDbCircle
 10
-302.3523530341951
 20
-137.6633344630643
 30
0.0
 40
3.349999999999797
100
AcDbArc
 50
182.4150421413223
 51
228.68341706995
  0
ARC
  5
2E8
330
6A
100
AcDbEntity
  8
0
  6
Continuous
 62
     7
100
AcDbCircle
 10
-304.9999993090888
 20
-137.7750000488173
 30
0.0
 40
0.6999999999998181
100
AcDbArc
 50
90.0
 51
182.4150421413329
  0
ARC
  5
2E9
330
6A
100
AcDbEntity
  8
0
  6
Continuous
 62
     7
100
AcDbCircle
 10
-305.1999993090886
 20
-134.4250000488174
 30
0.0
 40
0.5
100
AcDbArc
 50
0.0
 51
90.0
  0
ARC
  5
2EA
330
6A
100
AcDbEntity
  8
0
  6
Continuous
 62
     7
100
AcDbCircle
 10
-305.3126171072094
 20
-134.4250000488173
 30
0.0
 40
0.5
100
AcDbArc
 50
89.99999999998697
 51
165.0000000000038
  0
ARC
  5
2EB
330
6A
100
AcDbEntity
  8
0
  6
Continuous
 62
     7
100
AcDbCircle
 10
-314.6249993090887
 20
-136.5250000488167
 30
0.0
 40
1.699999999999818
100
AcDbArc
 50
90.0
 51
176.983038690194
  0
ARC
  5
2EC
330
6A
100
AcDbEntity
  8
0
  6
Continuous
 62
     7
100
AcDbCircle
 10
-313.4499993090885
 20
-132.4000000488168
 30
0.0
 40
0.5250000000001194
100
AcDbArc
 50
270.0
 51
90.0
  0
ARC
  5
2ED
330
6A
100
AcDbEntity
  8
0
  6
Continuous
 62
     7
100
AcDbCircle
 10
-317.0749993090885
 20
-132.5777446710011
 30
0.0
 40
0.5000000000000442
100
AcDbArc
 50
314.9999999999862
 51
0.0
  0
ARC
  5
2EE
330
6A
100
AcDbEntity
  8
0
  6
Continuous
 62
     7
100
AcDbCircle
 10
-304.9999993090888
 20
-136.7750000488173
 30
0.0
 40
0.3000000000001819
100
AcDbArc
 50
270.0
 51
0.0
  0
ARC
  5
2EF
330
6A
100
AcDbEntity
  8
0
  6
Continuous
 62
     7
100
AcDbCircle
 10
-320.4999993090891
 20
-141.9250000488165
 30
0.0
 40
0.5
100
AcDbArc
 50
89.99999999998697
 51
120.0000000000119
  0
ARC
  5
2F0
330
6A
100
AcDbEntity
  8
0
  6
Continuous
 62
     7
100
AcDbCircle
 10
-320.2499993090891
 20
-141.9250000488165
 30
0.0
 40
0.5000000000001478
100
AcDbArc
 50
306.8698976458492
 51
90.0
  0
ARC
  5
2F1
330
6A
100
AcDbEntity
  8
0
  6
Continuous
 62
     7
100
AcDbCircle
 10
-320.4999993090891
 20
-141.9250000488165
 30
0.0
 40
0.4999999999998195
100
AcDbArc
 50
120.0000000000119
 51
180.0
  0
ENDBLK
  5
6C
330
6A
100
AcDbEntity
  8
0
100
AcDbBlockEnd
  0
BLOCK
  5
6F
330
6D
100
AcDbEntity
  8
0
100
AcDbBlockBegin
  2
Vordans1
 70
     0
 10
-299.2499999999986
 20
-119.000000024409
 30
0.0
  3
Vordans1
  1

  0
INSERT
  5
6E
330
6D
100
AcDbEntity
  8
0
100
AcDbBlockReference
  2
OTTA_6_YE-select__6
 10
-320.9999993090892
 20
-144.4250000488184
 30
0.0
  0
LINE
  5
2F2
330
6D
100
AcDbEntity
  8
1
  6
DOT_CENTER
 62
     2
100
AcDbLine
 10
-299.2499993090888
 20
-136.730221247789
 30
0.0
 11
-299.2499993090888
 21
-139.730221247789
 31
0.0
  0
MTEXT
  5
2F3
330
6D
100
AcDbEntity
  8
1
 62
     6
100
AcDbMText
 10
-299.2499999999986
 20
-149.4250020244103
 30
0.0
 40
5.0
 41
0.0
 71
     2
 72
     1
  1
 
  7
CONVERTER_11
 73
     1
 44
1.32052821128451
  0
DIMENSION
  5
2FE
330
6D
100
AcDbEntity
  8
1
100
AcDbDimension
  2
*D18
 10
-299.2499993090888
 20
-152.183823702378
 30
0.0
 11
-290.405537660955
 21
-148.758823702378
 31
0.0
 70
    32
  1
<>
 71
     5
 42
-1.0
 53
0.00013888888889
  3
ME10_DIM_11
100
AcDbAlignedDimension
 13
-281.7499993090889
 23
-139.3250000488187
 33
0.0
 14
-299.2499993090888
 24
-139.730221247789
 34
0.0
100
AcDbRotatedDimension
  0
DIMENSION
  5
309
330
6D
100
AcDbEntity
  8
1
100
AcDbDimension
  2
*D19
 10
-299.2499993090888
 20
-160.183823702378
 30
0.0
 11
-288.385192910956
 21
-156.758823702378
 31
0.0
 70
    32
  1
<>
 71
     5
 42
-1.0
 53
0.00013888888889
  3
ME10_DIM_12
100
AcDbAlignedDimension
 13
-277.4999993090887
 23
-140.9250000488189
 33
0.0
 14
-299.2499993090888
 24
-139.730221247789
 34
0.0
100
AcDbRotatedDimension
  0
DIMENSION
  5
314
330
6D
100
AcDbEntity
  8
1
100
AcDbDimension
  2
*D20
 10
-320.9999993090892
 20
-168.183823702378
 30
0.0
 11
-300.807792092594
 21
-164.758823702378
 31
0.0
 70
    32
  1
<>
 71
     5
 42
-1.0
 53
0.00013888888889
  3
ME10_DIM_13
100
AcDbAlignedDimension
 13
-277.4999993090887
 23
-140.9250000488189
 33
0.0
 14
-320.9999993090892
 24
-144.4250000488165
 34
0.0
100
AcDbRotatedDimension
  0
DIMENSION
  5
31F
330
6D
100
AcDbEntity
  8
1
100
AcDbDimension
  2
*D21
 10
-330.9999993090869
 20
-138.1250000488189
 30
0.0
 11
-334.4249993090869
 21
-114.910549068954
 31
0.0
 70
    32
  1
<>
 71
     5
 42
-1.0
 53
90.0
  3
ME10_DIM_14
100
AcDbAlignedDimension
 13
-310.6499993090868
 23
-93.57500004881715
 33
0.0
 14
-281.7499993090888
 24
-138.1250000488189
 34
0.0
 50
90.0
100
AcDbRotatedDimension
  0
DIMENSION
  5
32A
330
6D
100
AcDbEntity
  8
1
100
AcDbDimension
  2
*D22
 10
-338.9999993090869
 20
-144.4250000488167
 30
0.0
 11
-342.4249993090869
 21
-119.799238024218
 31
0.0
 70
    32
  1
<>
 71
     5
 42
-1.0
 53
90.0
  3
ME10_DIM_15
100
AcDbAlignedDimension
 13
-310.6499993090868
 23
-93.57500004881715
 33
0.0
 14
-317.2195829091013
 24
-144.4250000488167
 34
0.0
 50
90.0
100
AcDbRotatedDimension
  0
ENDBLK
  5
70
330
6D
100
AcDbEntity
  8
0
100
AcDbBlockEnd
  0
BLOCK
  5
72
330
71
100
AcDbEntity
  8
0
100
AcDbBlockBegin
  2
_rahmen
 70
     0
 10
-123.4999999999899
 20
-267.0000000000051
 30
0.0
  3
_rahmen
  1

  0
LINE
  5
32B
330
71
100
AcDbEntity
  8
1
  6
DOT_CENTER
 62
     2
100
AcDbLine
 10
-249.0581496401773
 20
-240.8750000000051
 30
0.0
 11
-243.5581496401773
 21
-240.8750000000051
 31
0.0
  0
LINE
  5
32C
330
71
100
AcDbEntity
  8
1
  6
PHANTOM
 62
     2
100
AcDbLine
 10
-240.3081496401773
 20
-238.1250000000051
 30
0.0
 11
-240.3081496401773
 21
-243.6250000000051
 31
0.0
  0
LINE
  5
32D
330
71
100
AcDbEntity
  8
1
  6
PHANTOM
 62
     2
100
AcDbLine
 10
-237.5581496401773
 20
-240.8750000000051
 30
0.0
 11
-243.0581496401773
 21
-240.8750000000051
 31
0.0
  0
LINE
  5
32E
330
71
100
AcDbEntity
  8
1
  6
Continuous
 62
     7
100
AcDbLine
 10
-188.7448045267399
 20
-253.5000000000051
 30
0.0
 11
-188.7448045267399
 21
-245.000000000005
 31
0.0
  0
LINE
  5
32F
330
71
100
AcDbEntity
  8
1
  6
Continuous
 62
     6
100
AcDbLine
 10
-216.64480452674
 20
-245.000000000005
 30
0.0
 11
-123.4999999999882
 21
-245.000000000005
 31
0.0
  0
LINE
  5
330
330
71
100
AcDbEntity
  8
1
  6
Continuous
 62
     7
100
AcDbLine
 10
-253.0448045267399
 20
-245.000000000005
 30
0.0
 11
-253.0448045267399
 21
-236.500000000005
 31
0.0
  0
LINE
  5
331
330
71
100
AcDbEntity
  8
1
  6
Continuous
 62
     7
100
AcDbLine
 10
-216.64480452674
 20
-245.000000000005
 30
0.0
 11
-216.64480452674
 21
-236.500000000005
 31
0.0
  0
LINE
  5
332
330
71
100
AcDbEntity
  8
1
  6
Continuous
 62
     7
100
AcDbLine
 10
-158.918408281667
 20
-236.500000000005
 30
0.0
 11
-158.918408281667
 21
-245.000000000005
 31
0.0
  0
LINE
  5
333
330
71
100
AcDbEntity
  8
1
  6
Continuous
 62
     7
100
AcDbLine
 10
-132.4184082816674
 20
-236.500000000005
 30
0.0
 11
-132.4184082816674
 21
-245.000000000005
 31
0.0
  0
LINE
  5
334
330
71
100
AcDbEntity
  8
1
  6
Continuous
 62
     6
100
AcDbLine
 10
-322.0448045267399
 20
-262.000000000005
 30
0.0
 11
-366.9999999999899
 21
-262.000000000005
 31
0.0
  0
LINE
  5
335
330
71
100
AcDbEntity
  8
1
  6
Continuous
 62
     7
100
AcDbLine
 10
-123.4999999999886
 20
-253.500000000005
 30
0.0
 11
-216.64480452674
 21
-253.500000000005
 31
0.0
  0
LINE
  5
336
102
{ACAD_REACTORS
330
448
330
449
102
}
330
71
100
AcDbEntity
  8
0
  6
Continuous
 62
     2
100
AcDbLine
 10
-239.3373755849725
 20
-252.6997108843417
 30
0.0
 11
-239.3373755849725
 21
-251.8271938775384
 31
0.0
  0
LINE
  5
337
102
{ACAD_REACTORS
330
448
330
449
102
}
330
71
100
AcDbEntity
  8
0
  6
Continuous
 62
     2
100
AcDbLine
 10
-239.3373755849725
 20
-253.6594795918246
 30
0.0
 11
-239.3373755849725
 21
-254.5319965986278
 31
0.0
  0
LINE
  5
338
102
{ACAD_REACTORS
330
44A
330
44B
102
}
330
71
100
AcDbEntity
  8
0
  6
Continuous
 62
     2
100
AcDbLine
 10
-224.004331448682
 20
-252.4379557823012
 30
0.0
 11
-222.9006921491139
 21
-252.4379557823012
 31
0.0
  0
LINE
  5
339
102
{ACAD_REACTORS
330
44A
330
44B
102
}
330
71
100
AcDbEntity
  8
0
  6
Continuous
 62
     2
100
AcDbLine
 10
-223.2346741057206
 20
-253.6594795918251
 30
0.0
 11
-223.2346741057206
 21
-254.5319965986284
 31
0.0
  0
LINE
  5
33A
102
{ACAD_REACTORS
330
454
330
455
102
}
330
71
100
AcDbEntity
  8
0
  6
Continuous
 62
     2
100
AcDbLine
 10
-225.0954307211005
 20
-251.3473095238144
 30
0.0
 11
-223.6974776741602
 21
-249.7664505300394
 31
0.0
  0
LINE
  5
33B
102
{ACAD_REACTORS
330
454
330
455
102
}
330
71
100
AcDbEntity
  8
0
  6
Continuous
 62
     2
100
AcDbLine
 10
-225.0000073049277
 20
-248.2935000000032
 30
0.0
 11
-223.6974776741602
 21
-249.7664505300394
 31
0.0
  0
LINE
  5
33C
102
{ACAD_REACTORS
330
454
330
455
102
}
330
71
100
AcDbEntity
  8
0
  6
Continuous
 62
     2
100
AcDbLine
 10
-222.3949480433938
 20
-248.2935000000032
 30
0.0
 11
-220.9922238256466
 21
-248.2935000000032
 31
0.0
  0
LINE
  5
33D
102
{ACAD_REACTORS
330
454
330
455
102
}
330
71
100
AcDbEntity
  8
0
  6
Continuous
 62
     2
100
AcDbLine
 10
-223.6927065033523
 20
-251.3473095238144
 30
0.0
 11
-222.9961155652866
 21
-250.5595777385207
 31
0.0
  0
LINE
  5
33E
102
{ACAD_REACTORS
330
454
330
455
102
}
330
71
100
AcDbEntity
  8
0
  6
Continuous
 62
     2
100
AcDbLine
 10
-223.6927065033523
 20
-251.3473095238144
 30
0.0
 11
-225.0954307211005
 21
-251.3473095238144
 31
0.0
  0
LINE
  5
33F
102
{ACAD_REACTORS
330
456
330
457
102
}
330
71
100
AcDbEntity
  8
0
  6
Continuous
 62
     2
100
AcDbLine
 10
-225.2147099913174
 20
-251.3473095238144
 30
0.0
 11
-226.4552144015703
 21
-251.3473095238144
 31
0.0
  0
LINE
  5
340
102
{ACAD_REACTORS
330
458
330
459
102
}
330
71
100
AcDbEntity
  8
0
  6
Continuous
 62
     2
100
AcDbLine
 10
-227.3231940097254
 20
-253.4849761904642
 30
0.0
 11
-227.6233592469155
 21
-252.7171612244775
 31
0.0
  0
LINE
  5
341
102
{ACAD_REACTORS
330
458
330
459
102
}
330
71
100
AcDbEntity
  8
0
  6
Continuous
 62
     2
100
AcDbLine
 10
-227.9235244841079
 20
-253.4849761904642
 30
0.0
 11
-227.3231940097254
 21
-253.4849761904642
 31
0.0
  0
LINE
  5
342
102
{ACAD_REACTORS
330
458
330
459
102
}
330
71
100
AcDbEntity
  8
0
  6
Continuous
 62
     2
100
AcDbLine
 10
-229.6415644989817
 20
-254.7064999999887
 30
0.0
 11
-228.4010600887287
 21
-254.7064999999887
 31
0.0
  0
LINE
  5
343
102
{ACAD_REACTORS
330
458
330
459
102
}
330
71
100
AcDbEntity
  8
0
  6
Continuous
 62
     2
100
AcDbLine
 10
-228.2436114520424
 20
-251.6526904761776
 30
0.0
 11
-227.0031070417897
 21
-251.6526904761776
 31
0.0
  0
LINE
  5
344
102
{ACAD_REACTORS
330
458
330
459
102
}
330
71
100
AcDbEntity
  8
0
  6
Continuous
 62
     2
100
AcDbLine
 10
-227.0031070417897
 20
-251.6526904761776
 30
0.0
 11
-225.6051539948494
 21
-254.7064999999887
 31
0.0
  0
LINE
  5
345
102
{ACAD_REACTORS
330
458
330
459
102
}
330
71
100
AcDbEntity
  8
0
  6
Continuous
 62
     2
100
AcDbLine
 10
-226.8456584051033
 20
-254.7064999999887
 30
0.0
 11
-227.0571384585791
 21
-254.1655394557708
 31
0.0
  0
LINE
  5
346
102
{ACAD_REACTORS
330
45A
330
45B
102
}
330
71
100
AcDbEntity
  8
0
  6
Continuous
 62
     2
100
AcDbLine
 10
-230.9879776006893
 20
-254.7064999999887
 30
0.0
 11
-229.7951848985228
 21
-254.7064999999887
 31
0.0
  0
LINE
  5
347
102
{ACAD_REACTORS
330
45A
330
45B
102
}
330
71
100
AcDbEntity
  8
0
  6
Continuous
 62
     2
100
AcDbLine
 10
-230.9879776006893
 20
-252.4379557823012
 30
0.0
 11
-230.9879776006893
 21
-254.7064999999887
 31
0.0
  0
LINE
  5
348
102
{ACAD_REACTORS
330
45A
330
45B
102
}
330
71
100
AcDbEntity
  8
0
  6
Continuous
 62
     2
100
AcDbLine
 10
-231.7990766381639
 20
-251.6526904761776
 30
0.0
 11
-231.7990766381639
 21
-252.4379557823012
 31
0.0
  0
LINE
  5
349
102
{ACAD_REACTORS
330
45C
330
45D
102
}
330
71
100
AcDbEntity
  8
0
  6
Continuous
 62
     2
100
AcDbLine
 10
-230.3198627565913
 20
-251.3473095238144
 30
0.0
 11
-229.1270700544248
 21
-251.3473095238144
 31
0.0
  0
LINE
  5
34A
102
{ACAD_REACTORS
330
45C
330
45D
102
}
330
71
100
AcDbEntity
  8
0
  6
Continuous
 62
     2
100
AcDbLine
 10
-227.8865656441708
 20
-249.6022755102084
 30
0.0
 11
-229.1270700544248
 21
-248.2935000000032
 31
0.0
  0
LINE
  5
34B
102
{ACAD_REACTORS
330
45C
330
45D
102
}
330
71
100
AcDbEntity
  8
0
  6
Continuous
 62
     2
100
AcDbLine
 10
-226.6937729420042
 20
-248.2935000000032
 30
0.0
 11
-227.8865656441708
 21
-248.2935000000032
 31
0.0
  0
LINE
  5
34C
102
{ACAD_REACTORS
330
45C
330
45D
102
}
330
71
100
AcDbEntity
  8
0
  6
Continuous
 62
     2
100
AcDbLine
 10
-226.6937729420042
 20
-251.3473095238144
 30
0.0
 11
-226.6937729420042
 21
-248.2935000000032
 31
0.0
  0
LINE
  5
34D
102
{ACAD_REACTORS
330
45C
330
45D
102
}
330
71
100
AcDbEntity
  8
0
  6
Continuous
 62
     2
100
AcDbLine
 10
-227.8865656441708
 20
-251.3473095238144
 30
0.0
 11
-226.6937729420042
 21
-251.3473095238144
 31
0.0
  0
LINE
  5
34E
102
{ACAD_REACTORS
330
45C
330
45D
102
}
330
71
100
AcDbEntity
  8
0
  6
Continuous
 62
     2
100
AcDbLine
 10
-229.1270700544248
 20
-250.0385340136097
 30
0.0
 11
-227.8865656441708
 21
-251.3473095238144
 31
0.0
  0
LINE
  5
34F
102
{ACAD_REACTORS
330
45E
330
45F
102
}
330
71
100
AcDbEntity
  8
0
  6
Continuous
 62
     2
100
AcDbLine
 10
-233.1350044645905
 20
-252.9614659863827
 30
0.0
 11
-234.3755088748434
 21
-251.6526904761776
 31
0.0
  0
LINE
  5
350
102
{ACAD_REACTORS
330
45E
330
45F
102
}
330
71
100
AcDbEntity
  8
0
  6
Continuous
 62
     2
100
AcDbLine
 10
-233.1350044645905
 20
-251.6526904761776
 30
0.0
 11
-233.1350044645905
 21
-252.9614659863827
 31
0.0
  0
LINE
  5
351
102
{ACAD_REACTORS
330
45E
330
45F
102
}
330
71
100
AcDbEntity
  8
0
  6
Continuous
 62
     2
100
AcDbLine
 10
-231.9422117624241
 20
-251.6526904761776
 30
0.0
 11
-233.1350044645905
 21
-251.6526904761776
 31
0.0
  0
LINE
  5
352
102
{ACAD_REACTORS
330
45E
330
45F
102
}
330
71
100
AcDbEntity
  8
0
  6
Continuous
 62
     2
100
AcDbLine
 10
-231.9422117624241
 20
-254.7064999999887
 30
0.0
 11
-231.9422117624241
 21
-251.6526904761776
 31
0.0
  0
LINE
  5
353
102
{ACAD_REACTORS
330
45E
330
45F
102
}
330
71
100
AcDbEntity
  8
0
  6
Continuous
 62
     2
100
AcDbLine
 10
-234.3755088748434
 20
-253.3977244897841
 30
0.0
 11
-233.1350044645905
 21
-254.7064999999887
 31
0.0
  0
LINE
  5
354
102
{ACAD_REACTORS
330
45E
330
45F
102
}
330
71
100
AcDbEntity
  8
0
  6
Continuous
 62
     2
100
AcDbLine
 10
-234.3755088748434
 20
-254.7064999999887
 30
0.0
 11
-234.3755088748434
 21
-253.3977244897841
 31
0.0
  0
LINE
  5
355
102
{ACAD_REACTORS
330
44E
330
44F
102
}
330
71
100
AcDbEntity
  8
0
  6
Continuous
 62
     2
100
AcDbLine
 10
-231.8943491234519
 20
-248.9915136054462
 30
0.0
 11
-230.5584212970242
 21
-248.9915136054462
 31
0.0
  0
LINE
  5
356
102
{ACAD_REACTORS
330
44E
330
44F
102
}
330
71
100
AcDbEntity
  8
0
  6
Continuous
 62
     2
100
AcDbLine
 10
-231.8943491234519
 20
-250.6492959183719
 30
0.0
 11
-231.8943491234519
 21
-250.1694115646302
 31
0.0
  0
LINE
  5
357
102
{ACAD_REACTORS
330
44E
330
44F
102
}
330
71
100
AcDbEntity
  8
0
  6
Continuous
 62
     2
100
AcDbLine
 10
-230.5584212970242
 20
-250.6492959183719
 30
0.0
 11
-231.8943491234519
 21
-250.6492959183719
 31
0.0
  0
LINE
  5
358
102
{ACAD_REACTORS
330
44E
330
44F
102
}
330
71
100
AcDbEntity
  8
0
  6
Continuous
 62
     2
100
AcDbLine
 10
-230.5584212970242
 20
-251.3473095238144
 30
0.0
 11
-230.5584212970242
 21
-250.6492959183719
 31
0.0
  0
LINE
  5
359
102
{ACAD_REACTORS
330
44E
330
44F
102
}
330
71
100
AcDbEntity
  8
0
  6
Continuous
 62
     2
100
AcDbLine
 10
-233.7087410208052
 20
-251.3473095238144
 30
0.0
 11
-230.5584212970242
 21
-251.3473095238144
 31
0.0
  0
LINE
  5
35A
102
{ACAD_REACTORS
330
44E
330
44F
102
}
330
71
100
AcDbEntity
  8
0
  6
Continuous
 62
     2
100
AcDbLine
 10
-233.7087410208052
 20
-248.2935000000032
 30
0.0
 11
-230.5584212970242
 21
-248.2935000000032
 31
0.0
  0
LINE
  5
35B
102
{ACAD_REACTORS
330
44E
330
44F
102
}
330
71
100
AcDbEntity
  8
0
  6
Continuous
 62
     2
100
AcDbLine
 10
-230.5584212970242
 20
-248.9915136054462
 30
0.0
 11
-230.5584212970242
 21
-248.2935000000032
 31
0.0
  0
LINE
  5
35C
102
{ACAD_REACTORS
330
460
330
461
102
}
330
71
100
AcDbEntity
  8
0
  6
Continuous
 62
     2
100
AcDbLine
 10
-236.5700965159452
 20
-249.3623333333378
 30
0.0
 11
-236.5700965159452
 21
-248.2935000000032
 31
0.0
  0
LINE
  5
35D
102
{ACAD_REACTORS
330
460
330
461
102
}
330
71
100
AcDbEntity
  8
0
  6
Continuous
 62
     2
100
AcDbLine
 10
-236.5700965159452
 20
-248.2935000000032
 30
0.0
 11
-235.3773038137788
 21
-248.2935000000032
 31
0.0
  0
LINE
  5
35E
102
{ACAD_REACTORS
330
460
330
461
102
}
330
71
100
AcDbEntity
  8
0
  6
Continuous
 62
     2
100
AcDbLine
 10
-236.5700965159452
 20
-250.2130374149706
 30
0.0
 11
-237.6197540938527
 21
-250.2130374149706
 31
0.0
  0
LINE
  5
35F
102
{ACAD_REACTORS
330
460
330
461
102
}
330
71
100
AcDbEntity
  8
0
  6
Continuous
 62
     2
100
AcDbLine
 10
-237.6197540938527
 20
-250.2130374149706
 30
0.0
 11
-237.6197540938527
 21
-251.3473095238144
 31
0.0
  0
LINE
  5
360
102
{ACAD_REACTORS
330
460
330
461
102
}
330
71
100
AcDbEntity
  8
0
  6
Continuous
 62
     2
100
AcDbLine
 10
-238.8125467960193
 20
-248.2935000000032
 30
0.0
 11
-238.8125467960193
 21
-251.3473095238144
 31
0.0
  0
LINE
  5
361
102
{ACAD_REACTORS
330
452
330
453
102
}
330
71
100
AcDbEntity
  8
0
  6
Continuous
 62
     2
100
AcDbLine
 10
-240.7687268275729
 20
-249.6623334947855
 30
0.0
 11
-240.7687268275729
 21
-248.9566058454433
 31
0.0
  0
LINE
  5
362
102
{ACAD_REACTORS
330
452
330
453
102
}
330
71
100
AcDbEntity
  8
0
  6
Continuous
 62
     2
100
AcDbLine
 10
-242.009231237827
 20
-251.3473095238144
 30
0.0
 11
-240.7687268275729
 21
-251.3473095238144
 31
0.0
  0
LINE
  5
363
102
{ACAD_REACTORS
330
452
330
453
102
}
330
71
100
AcDbEntity
  8
0
  6
Continuous
 62
     2
100
AcDbLine
 10
-240.7687268275729
 20
-251.3473095238144
 30
0.0
 11
-240.7687268275729
 21
-250.4042312826706
 31
0.0
  0
LINE
  5
364
102
{ACAD_REACTORS
330
44C
330
44D
102
}
330
71
100
AcDbEntity
  8
0
  6
Continuous
 62
     2
100
AcDbLine
 10
-246.3141770870384
 20
-253.9939444444318
 30
0.0
 11
-247.790010348048
 21
-253.9939444444318
 31
0.0
  0
LINE
  5
365
102
{ACAD_REACTORS
330
44C
330
44D
102
}
330
71
100
AcDbEntity
  8
0
  6
Continuous
 62
     2
100
AcDbLine
 10
-248.8081496401773
 20
-248.7177446154052
 30
0.0
 11
-248.8081496401773
 21
-254.2822553846054
 31
0.0
  0
LINE
  5
366
102
{ACAD_REACTORS
330
44C
330
44D
102
}
330
71
100
AcDbEntity
  8
0
  6
Continuous
 62
     2
100
AcDbLine
 10
-248.3839050247945
 20
-248.2935000000214
 30
0.0
 11
-242.9105929340777
 21
-248.2935000000214
 31
0.0
  0
LINE
  5
367
102
{ACAD_REACTORS
330
44C
330
44D
102
}
330
71
100
AcDbEntity
  8
0
  6
Continuous
 62
     2
100
AcDbLine
 10
-242.4863483186938
 20
-248.7177446154052
 30
0.0
 11
-242.4863483186938
 21
-254.2822553846054
 31
0.0
  0
LINE
  5
368
102
{ACAD_REACTORS
330
44C
330
44D
102
}
330
71
100
AcDbEntity
  8
0
  6
Continuous
 62
     2
100
AcDbLine
 10
-242.9105929340777
 20
-254.7064999999887
 30
0.0
 11
-248.3839050247945
 21
-254.7064999999887
 31
0.0
  0
LINE
  5
369
102
{ACAD_REACTORS
330
44C
330
44D
102
}
330
71
100
AcDbEntity
  8
0
  6
Continuous
 62
     2
100
AcDbLine
 10
-245.9984601639618
 20
-253.6782275213551
 30
0.0
 11
-245.9984601639618
 21
-252.1474565898235
 31
0.0
  0
LINE
  5
36A
102
{ACAD_REACTORS
330
44C
330
44D
102
}
330
71
100
AcDbEntity
  8
0
  6
Continuous
 62
     2
100
AcDbLine
 10
-245.9984601639618
 20
-249.9257970976985
 30
0.0
 11
-245.9984601639618
 21
-249.321772478638
 31
0.0
  0
LINE
  5
36B
102
{ACAD_REACTORS
330
44C
330
44D
102
}
330
71
100
AcDbEntity
  8
0
  6
Continuous
 62
     2
100
AcDbLine
 10
-247.790010348048
 20
-249.0060555555618
 30
0.0
 11
-246.3141770870384
 21
-249.0060555555618
 31
0.0
  0
LINE
  5
36C
102
{ACAD_REACTORS
330
44C
330
44D
102
}
330
71
100
AcDbEntity
  8
0
  6
Continuous
 62
     2
100
AcDbLine
 10
-248.1057272711237
 20
-249.321772478638
 30
0.0
 11
-248.1057272711237
 21
-253.6782275213551
 31
0.0
  0
LINE
  5
36D
102
{ACAD_REACTORS
330
452
330
453
102
}
330
71
100
AcDbEntity
  8
0
  6
Continuous
 62
     2
100
AcDbLine
 10
-240.7687268275729
 20
-250.4042312826706
 30
0.0
 11
-240.0099592397926
 21
-250.4042312826706
 31
0.0
  0
LINE
  5
36E
102
{ACAD_REACTORS
330
452
330
453
102
}
330
71
100
AcDbEntity
  8
0
  6
Continuous
 62
     2
100
AcDbLine
 10
-242.009231237827
 20
-248.2935000000032
 30
0.0
 11
-240.0099592397926
 21
-248.2935000000032
 31
0.0
  0
LINE
  5
36F
102
{ACAD_REACTORS
330
452
330
453
102
}
330
71
100
AcDbEntity
  8
0
  6
Continuous
 62
     2
100
AcDbLine
 10
-242.009231237827
 20
-248.2935000000032
 30
0.0
 11
-242.009231237827
 21
-251.3473095238144
 31
0.0
  0
LINE
  5
370
102
{ACAD_REACTORS
330
452
330
453
102
}
330
71
100
AcDbEntity
  8
0
  6
Continuous
 62
     2
100
AcDbLine
 10
-240.7687268275729
 20
-249.6623334947855
 30
0.0
 11
-240.451431766031
 21
-249.6623334947855
 31
0.0
  0
LINE
  5
371
102
{ACAD_REACTORS
330
452
330
453
102
}
330
71
100
AcDbEntity
  8
0
  6
Continuous
 62
     2
100
AcDbLine
 10
-240.7687268275729
 20
-248.9566058454433
 30
0.0
 11
-240.451431766031
 21
-248.9566058454433
 31
0.0
  0
LINE
  5
372
102
{ACAD_REACTORS
330
460
330
461
102
}
330
71
100
AcDbEntity
  8
0
  6
Continuous
 62
     2
100
AcDbLine
 10
-237.6197540938527
 20
-249.3623333333378
 30
0.0
 11
-236.5700965159452
 21
-249.3623333333378
 31
0.0
  0
LINE
  5
373
102
{ACAD_REACTORS
330
460
330
461
102
}
330
71
100
AcDbEntity
  8
0
  6
Continuous
 62
     2
100
AcDbLine
 10
-237.6197540938527
 20
-248.2935000000032
 30
0.0
 11
-237.6197540938527
 21
-249.3623333333378
 31
0.0
  0
LINE
  5
374
102
{ACAD_REACTORS
330
460
330
461
102
}
330
71
100
AcDbEntity
  8
0
  6
Continuous
 62
     2
100
AcDbLine
 10
-238.8125467960193
 20
-248.2935000000032
 30
0.0
 11
-237.6197540938527
 21
-248.2935000000032
 31
0.0
  0
LINE
  5
375
102
{ACAD_REACTORS
330
460
330
461
102
}
330
71
100
AcDbEntity
  8
0
  6
Continuous
 62
     2
100
AcDbLine
 10
-237.6197540938527
 20
-251.3473095238144
 30
0.0
 11
-238.8125467960193
 21
-251.3473095238144
 31
0.0
  0
LINE
  5
376
102
{ACAD_REACTORS
330
460
330
461
102
}
330
71
100
AcDbEntity
  8
0
  6
Continuous
 62
     2
100
AcDbLine
 10
-236.5700965159452
 20
-251.3473095238144
 30
0.0
 11
-236.5700965159452
 21
-250.2130374149706
 31
0.0
  0
LINE
  5
377
102
{ACAD_REACTORS
330
460
330
461
102
}
330
71
100
AcDbEntity
  8
0
  6
Continuous
 62
     2
100
AcDbLine
 10
-235.3773038137788
 20
-251.3473095238144
 30
0.0
 11
-236.5700965159452
 21
-251.3473095238144
 31
0.0
  0
LINE
  5
378
102
{ACAD_REACTORS
330
460
330
461
102
}
330
71
100
AcDbEntity
  8
0
  6
Continuous
 62
     2
100
AcDbLine
 10
-235.3773038137788
 20
-248.2935000000032
 30
0.0
 11
-235.3773038137788
 21
-251.3473095238144
 31
0.0
  0
LINE
  5
379
102
{ACAD_REACTORS
330
44E
330
44F
102
}
330
71
100
AcDbEntity
  8
0
  6
Continuous
 62
     2
100
AcDbLine
 10
-231.8943491234519
 20
-250.1694115646302
 30
0.0
 11
-230.5584212970242
 21
-250.1694115646302
 31
0.0
  0
LINE
  5
37A
102
{ACAD_REACTORS
330
44E
330
44F
102
}
330
71
100
AcDbEntity
  8
0
  6
Continuous
 62
     2
100
AcDbLine
 10
-230.5584212970242
 20
-250.1694115646302
 30
0.0
 11
-230.5584212970242
 21
-249.4713979591879
 31
0.0
  0
LINE
  5
37B
102
{ACAD_REACTORS
330
44E
330
44F
102
}
330
71
100
AcDbEntity
  8
0
  6
Continuous
 62
     2
100
AcDbLine
 10
-230.5584212970242
 20
-249.4713979591879
 30
0.0
 11
-231.8943491234519
 21
-249.4713979591879
 31
0.0
  0
LINE
  5
37C
102
{ACAD_REACTORS
330
44E
330
44F
102
}
330
71
100
AcDbEntity
  8
0
  6
Continuous
 62
     2
100
AcDbLine
 10
-231.8943491234519
 20
-249.4713979591879
 30
0.0
 11
-231.8943491234519
 21
-248.9915136054462
 31
0.0
  0
LINE
  5
37D
102
{ACAD_REACTORS
330
45E
330
45F
102
}
330
71
100
AcDbEntity
  8
0
  6
Continuous
 62
     2
100
AcDbLine
 10
-235.568301577011
 20
-254.7064999999887
 30
0.0
 11
-234.3755088748434
 21
-254.7064999999887
 31
0.0
  0
LINE
  5
37E
102
{ACAD_REACTORS
330
45E
330
45F
102
}
330
71
100
AcDbEntity
  8
0
  6
Continuous
 62
     2
100
AcDbLine
 10
-233.1350044645905
 20
-254.7064999999887
 30
0.0
 11
-231.9422117624241
 21
-254.7064999999887
 31
0.0
  0
LINE
  5
37F
102
{ACAD_REACTORS
330
45E
330
45F
102
}
330
71
100
AcDbEntity
  8
0
  6
Continuous
 62
     2
100
AcDbLine
 10
-234.3755088748434
 20
-251.6526904761776
 30
0.0
 11
-235.568301577011
 21
-251.6526904761776
 31
0.0
  0
LINE
  5
380
102
{ACAD_REACTORS
330
45E
330
45F
102
}
330
71
100
AcDbEntity
  8
0
  6
Continuous
 62
     2
100
AcDbLine
 10
-235.568301577011
 20
-251.6526904761776
 30
0.0
 11
-235.568301577011
 21
-254.7064999999887
 31
0.0
  0
LINE
  5
381
102
{ACAD_REACTORS
330
45C
330
45D
102
}
330
71
100
AcDbEntity
  8
0
  6
Continuous
 62
     2
100
AcDbLine
 10
-227.8865656441708
 20
-248.2935000000032
 30
0.0
 11
-227.8865656441708
 21
-249.6022755102084
 31
0.0
  0
LINE
  5
382
102
{ACAD_REACTORS
330
45C
330
45D
102
}
330
71
100
AcDbEntity
  8
0
  6
Continuous
 62
     2
100
AcDbLine
 10
-229.1270700544248
 20
-248.2935000000032
 30
0.0
 11
-230.3198627565913
 21
-248.2935000000032
 31
0.0
  0
LINE
  5
383
102
{ACAD_REACTORS
330
45C
330
45D
102
}
330
71
100
AcDbEntity
  8
0
  6
Continuous
 62
     2
100
AcDbLine
 10
-230.3198627565913
 20
-248.2935000000032
 30
0.0
 11
-230.3198627565913
 21
-251.3473095238144
 31
0.0
  0
LINE
  5
384
102
{ACAD_REACTORS
330
45C
330
45D
102
}
330
71
100
AcDbEntity
  8
0
  6
Continuous
 62
     2
100
AcDbLine
 10
-229.1270700544248
 20
-251.3473095238144
 30
0.0
 11
-229.1270700544248
 21
-250.0385340136097
 31
0.0
  0
LINE
  5
385
102
{ACAD_REACTORS
330
45A
330
45B
102
}
330
71
100
AcDbEntity
  8
0
  6
Continuous
 62
     2
100
AcDbLine
 10
-229.7951848985228
 20
-254.7064999999887
 30
0.0
 11
-229.7951848985228
 21
-252.4379557823012
 31
0.0
  0
LINE
  5
386
102
{ACAD_REACTORS
330
45A
330
45B
102
}
330
71
100
AcDbEntity
  8
0
  6
Continuous
 62
     2
100
AcDbLine
 10
-229.7951848985228
 20
-252.4379557823012
 30
0.0
 11
-228.9840858610503
 21
-252.4379557823012
 31
0.0
  0
LINE
  5
387
102
{ACAD_REACTORS
330
45A
330
45B
102
}
330
71
100
AcDbEntity
  8
0
  6
Continuous
 62
     2
100
AcDbLine
 10
-228.9840858610503
 20
-252.4379557823012
 30
0.0
 11
-228.9840858610503
 21
-251.6526904761776
 31
0.0
  0
LINE
  5
388
102
{ACAD_REACTORS
330
45A
330
45B
102
}
330
71
100
AcDbEntity
  8
0
  6
Continuous
 62
     2
100
AcDbLine
 10
-228.9840858610503
 20
-251.6526904761776
 30
0.0
 11
-231.7990766381639
 21
-251.6526904761776
 31
0.0
  0
LINE
  5
389
102
{ACAD_REACTORS
330
45A
330
45B
102
}
330
71
100
AcDbEntity
  8
0
  6
Continuous
 62
     2
100
AcDbLine
 10
-231.7990766381639
 20
-252.4379557823012
 30
0.0
 11
-230.9879776006893
 21
-252.4379557823012
 31
0.0
  0
LINE
  5
38A
102
{ACAD_REACTORS
330
458
330
459
102
}
330
71
100
AcDbEntity
  8
0
  6
Continuous
 62
     2
100
AcDbLine
 10
-228.1895800352529
 20
-254.1655394557708
 30
0.0
 11
-227.0571384585791
 21
-254.1655394557708
 31
0.0
  0
LINE
  5
38B
102
{ACAD_REACTORS
330
458
330
459
102
}
330
71
100
AcDbEntity
  8
0
  6
Continuous
 62
     2
100
AcDbLine
 10
-225.6051539948494
 20
-254.7064999999887
 30
0.0
 11
-226.8456584051033
 21
-254.7064999999887
 31
0.0
  0
LINE
  5
38C
102
{ACAD_REACTORS
330
458
330
459
102
}
330
71
100
AcDbEntity
  8
0
  6
Continuous
 62
     2
100
AcDbLine
 10
-228.2436114520424
 20
-251.6526904761776
 30
0.0
 11
-229.6415644989817
 21
-254.7064999999887
 31
0.0
  0
LINE
  5
38D
102
{ACAD_REACTORS
330
458
330
459
102
}
330
71
100
AcDbEntity
  8
0
  6
Continuous
 62
     2
100
AcDbLine
 10
-228.4010600887287
 20
-254.7064999999887
 30
0.0
 11
-228.1895800352529
 21
-254.1655394557708
 31
0.0
  0
LINE
  5
38E
102
{ACAD_REACTORS
330
458
330
459
102
}
330
71
100
AcDbEntity
  8
0
  6
Continuous
 62
     2
100
AcDbLine
 10
-227.9235244841079
 20
-253.4849761904642
 30
0.0
 11
-227.6233592469155
 21
-252.7171612244775
 31
0.0
  0
LINE
  5
38F
102
{ACAD_REACTORS
330
456
330
457
102
}
330
71
100
AcDbEntity
  8
0
  6
Continuous
 62
     2
100
AcDbLine
 10
-226.4552144015703
 20
-251.3473095238144
 30
0.0
 11
-226.4552144015703
 21
-248.2935000000032
 31
0.0
  0
LINE
  5
390
102
{ACAD_REACTORS
330
456
330
457
102
}
330
71
100
AcDbEntity
  8
0
  6
Continuous
 62
     2
100
AcDbLine
 10
-225.2147099913174
 20
-248.2935000000032
 30
0.0
 11
-225.2147099913174
 21
-251.3473095238144
 31
0.0
  0
LINE
  5
391
102
{ACAD_REACTORS
330
456
330
457
102
}
330
71
100
AcDbEntity
  8
0
  6
Continuous
 62
     2
100
AcDbLine
 10
-226.4552144015703
 20
-248.2935000000032
 30
0.0
 11
-225.2147099913174
 21
-248.2935000000032
 31
0.0
  0
LINE
  5
392
102
{ACAD_REACTORS
330
454
330
455
102
}
330
71
100
AcDbEntity
  8
0
  6
Continuous
 62
     2
100
AcDbLine
 10
-222.9961155652866
 20
-250.5595777385207
 30
0.0
 11
-222.2995246272211
 21
-251.3473095238144
 31
0.0
  0
LINE
  5
393
102
{ACAD_REACTORS
330
454
330
455
102
}
330
71
100
AcDbEntity
  8
0
  6
Continuous
 62
     2
100
AcDbLine
 10
-222.2995246272211
 20
-251.3473095238144
 30
0.0
 11
-220.8968004094728
 21
-251.3473095238144
 31
0.0
  0
LINE
  5
394
102
{ACAD_REACTORS
330
454
330
455
102
}
330
71
100
AcDbEntity
  8
0
  6
Continuous
 62
     2
100
AcDbLine
 10
-222.2947534564131
 20
-249.7664505300394
 30
0.0
 11
-220.8968004094728
 21
-251.3473095238144
 31
0.0
  0
LINE
  5
395
102
{ACAD_REACTORS
330
454
330
455
102
}
330
71
100
AcDbEntity
  8
0
  6
Continuous
 62
     2
100
AcDbLine
 10
-222.2947534564131
 20
-249.7664505300394
 30
0.0
 11
-220.9922238256466
 21
-248.2935000000032
 31
0.0
  0
LINE
  5
396
102
{ACAD_REACTORS
330
454
330
455
102
}
330
71
100
AcDbEntity
  8
0
  6
Continuous
 62
     2
100
AcDbLine
 10
-222.9961155652866
 20
-248.9733233215587
 30
0.0
 11
-222.3949480433938
 21
-248.2935000000032
 31
0.0
  0
LINE
  5
397
102
{ACAD_REACTORS
330
454
330
455
102
}
330
71
100
AcDbEntity
  8
0
  6
Continuous
 62
     2
100
AcDbLine
 10
-223.5972830871784
 20
-248.2935000000032
 30
0.0
 11
-222.9961155652866
 21
-248.9733233215587
 31
0.0
  0
LINE
  5
398
102
{ACAD_REACTORS
330
454
330
455
102
}
330
71
100
AcDbEntity
  8
0
  6
Continuous
 62
     2
100
AcDbLine
 10
-223.5972830871784
 20
-248.2935000000032
 30
0.0
 11
-225.0000073049277
 21
-248.2935000000032
 31
0.0
  0
LINE
  5
399
102
{ACAD_REACTORS
330
44A
330
44B
102
}
330
71
100
AcDbEntity
  8
0
  6
Continuous
 62
     2
100
AcDbLine
 10
-222.9006921491139
 20
-254.7064999999887
 30
0.0
 11
-221.7078994469462
 21
-254.7064999999887
 31
0.0
  0
LINE
  5
39A
102
{ACAD_REACTORS
330
44A
330
44B
102
}
330
71
100
AcDbEntity
  8
0
  6
Continuous
 62
     2
100
AcDbLine
 10
-221.7078994469462
 20
-254.7064999999887
 30
0.0
 11
-221.7078994469462
 21
-252.4379557823012
 31
0.0
  0
LINE
  5
39B
102
{ACAD_REACTORS
330
44A
330
44B
102
}
330
71
100
AcDbEntity
  8
0
  6
Continuous
 62
     2
100
AcDbLine
 10
-221.7078994469462
 20
-252.4379557823012
 30
0.0
 11
-220.8968004094728
 21
-252.4379557823012
 31
0.0
  0
LINE
  5
39C
102
{ACAD_REACTORS
330
44A
330
44B
102
}
330
71
100
AcDbEntity
  8
0
  6
Continuous
 62
     2
100
AcDbLine
 10
-220.8968004094728
 20
-252.4379557823012
 30
0.0
 11
-220.8968004094728
 21
-251.6526904761776
 31
0.0
  0
LINE
  5
39D
102
{ACAD_REACTORS
330
44A
330
44B
102
}
330
71
100
AcDbEntity
  8
0
  6
Continuous
 62
     2
100
AcDbLine
 10
-224.2817459281015
 20
-251.6526904761781
 30
0.0
 11
-220.8968004094728
 21
-251.6526904761776
 31
0.0
  0
LINE
  5
39E
102
{ACAD_REACTORS
330
44A
330
44B
102
}
330
71
100
AcDbEntity
  8
0
  6
Continuous
 62
     2
100
AcDbLine
 10
-222.9006921491139
 20
-252.4379557823012
 30
0.0
 11
-222.9006921491139
 21
-254.7064999999887
 31
0.0
  0
LINE
  5
39F
102
{ACAD_REACTORS
330
44C
330
44D
102
}
330
71
100
AcDbEntity
  8
0
  6
Continuous
 62
     2
100
AcDbLine
 10
-245.5301785845931
 20
-252.7276198504242
 30
0.0
 11
-245.5301785845931
 21
-252.1457684437291
 31
0.0
  0
LINE
  5
3A0
102
{ACAD_REACTORS
330
44C
330
44D
102
}
330
71
100
AcDbEntity
  8
0
  6
Continuous
 62
     2
100
AcDbLine
 10
-245.5301785845931
 20
-249.9274852437929
 30
0.0
 11
-245.5301785845931
 21
-249.3219499552861
 31
0.0
  0
LINE
  5
3A1
330
71
100
AcDbEntity
  8
1
  6
Continuous
 62
     6
100
AcDbLine
 10
-266.9999999999899
 20
-262.000000000005
 30
0.0
 11
-253.0448045267399
 21
-262.0000000000051
 31
0.0
  0
LINE
  5
3A2
330
71
100
AcDbEntity
  8
1
  6
Continuous
 62
     6
100
AcDbLine
 10
-316.9999999999901
 20
-262.000000000005
 30
0.0
 11
-322.0448045267399
 21
-262.000000000005
 31
0.0
  0
LINE
  5
3A3
330
71
100
AcDbEntity
  8
1
  6
Continuous
 62
     6
100
AcDbLine
 10
-166.9999999999899
 20
-262.000000000005
 30
0.0
 11
-123.4999999999899
 21
-262.000000000005
 31
0.0
  0
LINE
  5
3A4
330
71
100
AcDbEntity
  8
1
  6
Continuous
 62
     6
100
AcDbLine
 10
-216.9999999999899
 20
-262.000000000005
 30
0.0
 11
-234.8448045267399
 21
-262.000000000005
 31
0.0
  0
LINE
  5
3A5
330
71
100
AcDbEntity
  8
1
  6
Continuous
 62
     2
100
AcDbLine
 10
-123.4999999999899
 20
-262.000000000005
 30
0.0
 11
-118.4999999999909
 21
-262.000000000005
 31
0.0
  0
LINE
  5
3A6
330
71
100
AcDbEntity
  8
1
  6
Continuous
 62
     2
100
AcDbLine
 10
-123.4999999999899
 20
-262.000000000005
 30
0.0
 11
-123.4999999999899
 21
-267.0000000000051
 31
0.0
  0
LINE
  5
3A7
330
71
100
AcDbEntity
  8
1
  6
Continuous
 62
     6
100
AcDbLine
 10
-253.0448045267399
 20
-245.000000000005
 30
0.0
 11
-216.64480452674
 21
-245.000000000005
 31
0.0
  0
LINE
  5
3A8
330
71
100
AcDbEntity
  8
1
  6
Continuous
 62
     2
100
AcDbLine
 10
-118.4999999999909
 20
-267.0000000000051
 30
0.0
 11
-118.4999999999909
 21
-262.000000000005
 31
0.0
  0
LINE
  5
3A9
330
71
100
AcDbEntity
  8
1
  6
Continuous
 62
     2
100
AcDbLine
 10
-118.4999999999909
 20
-267.0000000000051
 30
0.0
 11
-123.4999999999899
 21
-267.0000000000051
 31
0.0
  0
LINE
  5
3AA
330
71
100
AcDbEntity
  8
1
  6
Continuous
 62
     2
100
AcDbLine
 10
-123.4999999999899
 20
-267.0000000000051
 30
0.0
 11
-166.9999999999899
 21
-267.0000000000051
 31
0.0
  0
LINE
  5
3AB
330
71
100
AcDbEntity
  8
1
  6
Continuous
 62
     6
100
AcDbLine
 10
-123.4999999999882
 20
-245.000000000005
 30
0.0
 11
-123.499999999989
 21
-212.0000000000049
 31
0.0
  0
LINE
  5
3AC
330
71
100
AcDbEntity
  8
1
  6
Continuous
 62
     2
100
AcDbLine
 10
-118.4999999999909
 20
-57.000000000005
 30
0.0
 11
-266.9999999999899
 21
-57.000000000005
 31
0.0
  0
LINE
  5
3AD
330
71
100
AcDbEntity
  8
1
  6
Continuous
 62
     6
100
AcDbLine
 10
-123.4999999999909
 20
-77.000000000005
 30
0.0
 11
-410.499999999989
 21
-77.000000000005
 31
0.0
  0
LINE
  5
3AE
330
71
100
AcDbEntity
  8
1
  6
Continuous
 62
     2
100
AcDbLine
 10
-123.499999999989
 20
-212.0000000000049
 30
0.0
 11
-118.4999999999909
 21
-212.0000000000049
 31
0.0
  0
LINE
  5
3AF
330
71
100
AcDbEntity
  8
1
  6
Continuous
 62
     6
100
AcDbLine
 10
-123.499999999989
 20
-212.0000000000049
 30
0.0
 11
-123.4999999999895
 21
-162.0000000000051
 31
0.0
  0
LINE
  5
3B0
330
71
100
AcDbEntity
  8
1
  6
Continuous
 62
     2
100
AcDbLine
 10
-118.4999999999909
 20
-212.0000000000049
 30
0.0
 11
-118.4999999999909
 21
-162.0000000000051
 31
0.0
  0
LINE
  5
3B1
330
71
100
AcDbEntity
  8
1
  6
Continuous
 62
     2
100
AcDbLine
 10
-123.4999999999895
 20
-162.0000000000051
 30
0.0
 11
-118.4999999999909
 21
-162.0000000000051
 31
0.0
  0
LINE
  5
3B2
330
71
100
AcDbEntity
  8
1
  6
Continuous
 62
     6
100
AcDbLine
 10
-123.4999999999895
 20
-162.0000000000051
 30
0.0
 11
-123.4999999999907
 21
-112.000000000005
 31
0.0
  0
LINE
  5
3B3
330
71
100
AcDbEntity
  8
1
  6
Continuous
 62
     2
100
AcDbLine
 10
-118.4999999999909
 20
-162.0000000000051
 30
0.0
 11
-118.4999999999909
 21
-112.000000000005
 31
0.0
  0
LINE
  5
3B4
330
71
100
AcDbEntity
  8
1
  6
Continuous
 62
     2
100
AcDbLine
 10
-123.4999999999907
 20
-112.000000000005
 30
0.0
 11
-118.4999999999909
 21
-112.000000000005
 31
0.0
  0
LINE
  5
3B5
330
71
100
AcDbEntity
  8
1
  6
Continuous
 62
     6
100
AcDbLine
 10
-123.4999999999907
 20
-112.000000000005
 30
0.0
 11
-123.4999999999909
 21
-77.000000000005
 31
0.0
  0
LINE
  5
3B6
330
71
100
AcDbEntity
  8
1
  6
Continuous
 62
     2
100
AcDbLine
 10
-118.4999999999909
 20
-112.000000000005
 30
0.0
 11
-118.4999999999909
 21
-57.000000000005
 31
0.0
  0
LINE
  5
3B7
330
71
100
AcDbEntity
  8
1
  6
Continuous
 62
     2
100
AcDbLine
 10
-118.4999999999909
 20
-262.000000000005
 30
0.0
 11
-118.4999999999909
 21
-212.0000000000049
 31
0.0
  0
LINE
  5
3B8
330
71
100
AcDbEntity
  8
1
  6
Continuous
 62
     2
100
AcDbLine
 10
-266.9999999999899
 20
-57.000000000005
 30
0.0
 11
-415.499999999989
 21
-57.000000000005
 31
0.0
  0
LINE
  5
3B9
330
71
100
AcDbEntity
  8
1
  6
Continuous
 62
     2
100
AcDbLine
 10
-266.9999999999899
 20
-57.000000000005
 30
0.0
 11
-266.9999999999899
 21
-66.20869184470632
 31
0.0
  0
LINE
  5
3BA
330
71
100
AcDbEntity
  8
1
  6
Continuous
 62
     2
100
AcDbLine
 10
-415.499999999989
 20
-267.0000000000051
 30
0.0
 11
-410.499999999988
 21
-267.0000000000051
 31
0.0
  0
LINE
  5
3BB
330
71
100
AcDbEntity
  8
1
  6
Continuous
 62
     2
100
AcDbLine
 10
-415.499999999989
 20
-57.000000000005
 30
0.0
 11
-415.499999999989
 21
-112.000000000005
 31
0.0
  0
LINE
  5
3BC
330
71
100
AcDbEntity
  8
1
  6
Continuous
 62
     6
100
AcDbLine
 10
-410.499999999989
 20
-77.000000000005
 30
0.0
 11
-410.4999999999889
 21
-112.000000000005
 31
0.0
  0
LINE
  5
3BD
330
71
100
AcDbEntity
  8
1
  6
Continuous
 62
     2
100
AcDbLine
 10
-415.499999999989
 20
-112.000000000005
 30
0.0
 11
-410.4999999999889
 21
-112.000000000005
 31
0.0
  0
LINE
  5
3BE
330
71
100
AcDbEntity
  8
1
  6
Continuous
 62
     2
100
AcDbLine
 10
-415.499999999989
 20
-112.000000000005
 30
0.0
 11
-415.499999999989
 21
-162.0000000000051
 31
0.0
  0
LINE
  5
3BF
330
71
100
AcDbEntity
  8
1
  6
Continuous
 62
     6
100
AcDbLine
 10
-410.4999999999889
 20
-112.000000000005
 30
0.0
 11
-410.4999999999884
 21
-162.0000000000051
 31
0.0
  0
LINE
  5
3C0
330
71
100
AcDbEntity
  8
1
  6
Continuous
 62
     2
100
AcDbLine
 10
-415.499999999989
 20
-162.0000000000051
 30
0.0
 11
-410.4999999999884
 21
-162.0000000000051
 31
0.0
  0
LINE
  5
3C1
330
71
100
AcDbEntity
  8
1
  6
Continuous
 62
     2
100
AcDbLine
 10
-415.499999999989
 20
-162.0000000000051
 30
0.0
 11
-415.499999999989
 21
-212.0000000000049
 31
0.0
  0
LINE
  5
3C2
330
71
100
AcDbEntity
  8
1
  6
Continuous
 62
     6
100
AcDbLine
 10
-410.4999999999884
 20
-162.0000000000051
 30
0.0
 11
-410.4999999999882
 21
-212.0000000000049
 31
0.0
  0
LINE
  5
3C3
330
71
100
AcDbEntity
  8
1
  6
Continuous
 62
     2
100
AcDbLine
 10
-415.499999999989
 20
-212.0000000000049
 30
0.0
 11
-410.4999999999882
 21
-212.0000000000049
 31
0.0
  0
LINE
  5
3C4
330
71
100
AcDbEntity
  8
1
  6
Continuous
 62
     2
100
AcDbLine
 10
-415.499999999989
 20
-212.0000000000049
 30
0.0
 11
-415.499999999989
 21
-262.000000000005
 31
0.0
  0
LINE
  5
3C5
330
71
100
AcDbEntity
  8
1
  6
Continuous
 62
     6
100
AcDbLine
 10
-410.4999999999882
 20
-212.0000000000049
 30
0.0
 11
-410.499999999988
 21
-262.000000000005
 31
0.0
  0
LINE
  5
3C6
330
71
100
AcDbEntity
  8
1
  6
Continuous
 62
     2
100
AcDbLine
 10
-366.9999999999899
 20
-267.0000000000051
 30
0.0
 11
-366.9999999999899
 21
-262.000000000005
 31
0.0
  0
LINE
  5
3C7
330
71
100
AcDbEntity
  8
1
  6
Continuous
 62
     2
100
AcDbLine
 10
-366.9999999999899
 20
-267.0000000000051
 30
0.0
 11
-316.9999999999901
 21
-267.0000000000051
 31
0.0
  0
LINE
  5
3C8
330
71
100
AcDbEntity
  8
1
  6
Continuous
 62
     2
100
AcDbLine
 10
-316.9999999999901
 20
-267.0000000000051
 30
0.0
 11
-316.9999999999901
 21
-262.000000000005
 31
0.0
  0
LINE
  5
3C9
330
71
100
AcDbEntity
  8
1
  6
Continuous
 62
     2
100
AcDbLine
 10
-316.9999999999901
 20
-267.0000000000051
 30
0.0
 11
-266.9999999999899
 21
-267.0000000000051
 31
0.0
  0
LINE
  5
3CA
330
71
100
AcDbEntity
  8
1
  6
Continuous
 62
     2
100
AcDbLine
 10
-266.9999999999899
 20
-267.0000000000051
 30
0.0
 11
-266.9999999999899
 21
-262.000000000005
 31
0.0
  0
LINE
  5
3CB
330
71
100
AcDbEntity
  8
1
  6
Continuous
 62
     2
100
AcDbLine
 10
-266.9999999999899
 20
-267.0000000000051
 30
0.0
 11
-216.9999999999899
 21
-267.0000000000051
 31
0.0
  0
LINE
  5
3CC
330
71
100
AcDbEntity
  8
1
  6
Continuous
 62
     2
100
AcDbLine
 10
-216.9999999999899
 20
-267.0000000000051
 30
0.0
 11
-216.9999999999899
 21
-262.000000000005
 31
0.0
  0
LINE
  5
3CD
330
71
100
AcDbEntity
  8
1
  6
Continuous
 62
     2
100
AcDbLine
 10
-166.9999999999899
 20
-267.0000000000051
 30
0.0
 11
-166.9999999999899
 21
-262.000000000005
 31
0.0
  0
LINE
  5
3CE
330
71
100
AcDbEntity
  8
1
  6
Continuous
 62
     2
100
AcDbLine
 10
-166.9999999999899
 20
-267.0000000000051
 30
0.0
 11
-216.9999999999899
 21
-267.0000000000051
 31
0.0
  0
LINE
  5
3CF
330
71
100
AcDbEntity
  8
1
  6
Continuous
 62
     2
100
AcDbLine
 10
-410.499999999988
 20
-262.000000000005
 30
0.0
 11
-410.499999999988
 21
-267.0000000000051
 31
0.0
  0
LINE
  5
3D0
330
71
100
AcDbEntity
  8
1
  6
Continuous
 62
     2
100
AcDbLine
 10
-410.499999999988
 20
-267.0000000000051
 30
0.0
 11
-366.9999999999899
 21
-267.0000000000051
 31
0.0
  0
LINE
  5
3D1
330
71
100
AcDbEntity
  8
1
  6
Continuous
 62
     2
100
AcDbLine
 10
-410.499999999988
 20
-262.000000000005
 30
0.0
 11
-415.499999999989
 21
-262.000000000005
 31
0.0
  0
LINE
  5
3D2
330
71
100
AcDbEntity
  8
1
  6
Continuous
 62
     2
100
AcDbLine
 10
-415.499999999989
 20
-262.000000000005
 30
0.0
 11
-415.499999999989
 21
-267.0000000000051
 31
0.0
  0
LINE
  5
3D3
330
71
100
AcDbEntity
  8
1
  6
Continuous
 62
     6
100
AcDbLine
 10
-123.4999999999899
 20
-262.000000000005
 30
0.0
 11
-123.4999999999886
 21
-253.500000000005
 31
0.0
  0
LINE
  5
3D4
330
71
100
AcDbEntity
  8
1
  6
Continuous
 62
     6
100
AcDbLine
 10
-216.64480452674
 20
-262.0000000000051
 30
0.0
 11
-166.9999999999899
 21
-262.000000000005
 31
0.0
  0
LINE
  5
3D5
330
71
100
AcDbEntity
  8
1
  6
Continuous
 62
     6
100
AcDbLine
 10
-369.2999999999901
 20
-262.0000000000051
 30
0.0
 11
-366.9999999999899
 21
-262.000000000005
 31
0.0
  0
LINE
  5
3D6
330
71
100
AcDbEntity
  8
1
  6
Continuous
 62
     6
100
AcDbLine
 10
-266.9999999999899
 20
-262.000000000005
 30
0.0
 11
-316.9999999999901
 21
-262.000000000005
 31
0.0
  0
LINE
  5
3D7
330
71
100
AcDbEntity
  8
1
  6
Continuous
 62
     7
100
AcDbLine
 10
-253.0448045267399
 20
-245.000000000005
 30
0.0
 11
-253.0448045267399
 21
-257.7500000000051
 31
0.0
  0
LINE
  5
3D8
330
71
100
AcDbEntity
  8
1
  6
Continuous
 62
     7
100
AcDbLine
 10
-216.64480452674
 20
-245.000000000005
 30
0.0
 11
-216.64480452674
 21
-257.750000000005
 31
0.0
  0
LINE
  5
3D9
330
71
100
AcDbEntity
  8
1
  6
Continuous
 62
     6
100
AcDbLine
 10
-369.2999999999901
 20
-262.0000000000051
 30
0.0
 11
-375.4999999999881
 21
-262.000000000005
 31
0.0
  0
LINE
  5
3DA
330
71
100
AcDbEntity
  8
1
  6
Continuous
 62
     6
100
AcDbLine
 10
-216.64480452674
 20
-262.0000000000051
 30
0.0
 11
-216.9999999999899
 21
-262.000000000005
 31
0.0
  0
LINE
  5
3DB
330
71
100
AcDbEntity
  8
1
  6
Continuous
 62
     6
100
AcDbLine
 10
-123.4999999999882
 20
-245.000000000005
 30
0.0
 11
-123.4999999999886
 21
-253.500000000005
 31
0.0
  0
LINE
  5
3DC
330
71
100
AcDbEntity
  8
1
  6
Continuous
 62
     6
100
AcDbLine
 10
-375.4999999999881
 20
-262.000000000005
 30
0.0
 11
-410.499999999988
 21
-262.000000000005
 31
0.0
  0
LINE
  5
3DD
330
71
100
AcDbEntity
  8
1
  6
Continuous
 62
     2
100
AcDbLine
 10
-248.8081496401773
 20
-239.6250000000051
 30
0.0
 11
-243.8081496401773
 21
-238.3750000000051
 31
0.0
  0
LINE
  5
3DE
330
71
100
AcDbEntity
  8
1
  6
Continuous
 62
     2
100
AcDbLine
 10
-248.8081496401773
 20
-242.1250000000051
 30
0.0
 11
-248.8081496401773
 21
-239.6250000000051
 31
0.0
  0
LINE
  5
3DF
330
71
100
AcDbEntity
  8
1
  6
Continuous
 62
     2
100
AcDbLine
 10
-243.8081496401773
 20
-243.3750000000051
 30
0.0
 11
-248.8081496401773
 21
-242.1250000000051
 31
0.0
  0
LINE
  5
3E0
330
71
100
AcDbEntity
  8
1
  6
Continuous
 62
     2
100
AcDbLine
 10
-243.8081496401773
 20
-238.3750000000051
 30
0.0
 11
-243.8081496401773
 21
-243.3750000000051
 31
0.0
  0
LINE
  5
3E1
330
71
100
AcDbEntity
  8
1
  6
Continuous
 62
     7
100
AcDbLine
 10
-253.0448045267399
 20
-257.7500000000051
 30
0.0
 11
-234.8448045267399
 21
-257.750000000005
 31
0.0
  0
LINE
  5
3E2
330
71
100
AcDbEntity
  8
1
  6
Continuous
 62
     7
100
AcDbLine
 10
-253.0448045267399
 20
-257.7500000000051
 30
0.0
 11
-253.0448045267399
 21
-262.0000000000051
 31
0.0
  0
LINE
  5
3E3
330
71
100
AcDbEntity
  8
1
  6
Continuous
 62
     7
100
AcDbLine
 10
-216.64480452674
 20
-257.750000000005
 30
0.0
 11
-216.64480452674
 21
-262.0000000000051
 31
0.0
  0
LINE
  5
3E4
330
71
100
AcDbEntity
  8
1
  6
Continuous
 62
     7
100
AcDbLine
 10
-234.8448045267399
 20
-257.750000000005
 30
0.0
 11
-234.8448045267399
 21
-262.000000000005
 31
0.0
  0
LINE
  5
3E5
330
71
100
AcDbEntity
  8
1
  6
Continuous
 62
     6
100
AcDbLine
 10
-234.8448045267399
 20
-262.000000000005
 30
0.0
 11
-253.0448045267399
 21
-262.0000000000051
 31
0.0
  0
LINE
  5
3E6
330
71
100
AcDbEntity
  8
1
  6
Continuous
 62
     7
100
AcDbLine
 10
-234.8448045267399
 20
-257.750000000005
 30
0.0
 11
-216.64480452674
 21
-257.750000000005
 31
0.0
  0
LINE
  5
3E7
330
71
100
AcDbEntity
  8
1
  6
Continuous
 62
     6
100
AcDbLine
 10
-253.0448045267399
 20
-236.500000000005
 30
0.0
 11
-123.4999999999882
 21
-236.500000000005
 31
0.0
  0
ARC
  5
3E8
102
{ACAD_REACTORS
330
450
330
451
102
}
330
71
100
AcDbEntity
  8
0
  6
Continuous
 62
     2
100
AcDbCircle
 10
-237.6531565277799
 20
-253.1795952380834
 30
0.0
 40
0.7717997786796947
100
AcDbArc
 50
321.8795802028417
 51
38.12041979715329
  0
ARC
  5
3E9
102
{ACAD_REACTORS
330
450
330
451
102
}
330
71
100
AcDbEntity
  8
0
  6
Continuous
 62
     2
100
AcDbCircle
 10
-237.4534164914335
 20
-253.3363264162034
 30
0.0
 40
0.5179085730137354
100
AcDbArc
 50
218.1204197971931
 51
321.879580202801
  0
ARC
  5
3EA
102
{ACAD_REACTORS
330
450
330
451
102
}
330
71
100
AcDbEntity
  8
0
  6
Continuous
 62
     2
100
AcDbCircle
 10
-237.2536764550874
 20
-253.1795952380834
 30
0.0
 40
0.7717997786794633
100
AcDbArc
 50
141.8795802028363
 51
218.1204197971687
  0
ARC
  5
3EB
102
{ACAD_REACTORS
330
450
330
451
102
}
330
71
100
AcDbEntity
  8
0
  6
Continuous
 62
     2
100
AcDbCircle
 10
-237.4534164914335
 20
-253.0228640599629
 30
0.0
 40
0.5179085730132998
100
AcDbArc
 50
38.12041979714704
 51
141.8795802028588
  0
ARC
  5
3EC
102
{ACAD_REACTORS
330
448
330
449
102
}
330
71
100
AcDbEntity
  8
0
  6
Continuous
 62
     2
100
AcDbCircle
 10
-240.5154306269974
 20
-254.5900616034916
 30
0.0
 40
2.227384008973478
100
AcDbArc
 50
58.06909105004071
 51
71.55192388186722
  0
ARC
  5
3ED
102
{ACAD_REACTORS
330
448
330
449
102
}
330
71
100
AcDbEntity
  8
0
  6
Continuous
 62
     2
100
AcDbCircle
 10
-240.2537029260386
 20
-252.9745238087444
 30
0.0
 40
0.5115800601948779
100
AcDbArc
 50
113.3722778881992
 51
151.4785267423044
  0
ARC
  5
3EE
102
{ACAD_REACTORS
330
448
330
449
102
}
330
71
100
AcDbEntity
  8
0
  6
Continuous
 62
     2
100
AcDbCircle
 10
-239.8763456679583
 20
-253.1795952380834
 30
0.0
 40
0.9410597353332545
100
AcDbArc
 50
151.4785267422669
 51
208.5214732577057
  0
ARC
  5
3EF
102
{ACAD_REACTORS
330
448
330
449
102
}
330
71
100
AcDbEntity
  8
0
  6
Continuous
 62
     2
100
AcDbCircle
 10
-240.6733035020903
 20
-249.866914292827
 30
0.0
 40
4.852596863498138
100
AcDbArc
 50
275.1581447696249
 51
285.9799912583529
  0
ARC
  5
3F0
102
{ACAD_REACTORS
330
448
330
449
102
}
330
71
100
AcDbEntity
  8
0
  6
Continuous
 62
     2
100
AcDbCircle
 10
-240.3844474073544
 20
-253.0668048760486
 30
0.0
 40
1.639695123939387
100
AcDbArc
 50
195.0618917770896
 51
275.1581447696395
  0
ARC
  5
3F1
102
{ACAD_REACTORS
330
448
330
449
102
}
330
71
100
AcDbEntity
  8
0
  6
Continuous
 62
     2
100
AcDbCircle
 10
-240.8035752508172
 20
-253.1795952380834
 30
0.0
 40
1.205656168390944
100
AcDbArc
 50
164.9381082228765
 51
195.0618917770948
  0
ARC
  5
3F2
102
{ACAD_REACTORS
330
448
330
449
102
}
330
71
100
AcDbEntity
  8
0
  6
Continuous
 62
     2
100
AcDbCircle
 10
-240.3844474073544
 20
-253.2923856001183
 30
0.0
 40
1.639695123940507
100
AcDbArc
 50
84.84185523036236
 51
164.9381082228864
  0
ARC
  5
3F3
102
{ACAD_REACTORS
330
44C
330
44D
102
}
330
71
100
AcDbEntity
  8
0
  6
Continuous
 62
     2
100
AcDbCircle
 10
-245.2144616615163
 20
-252.1457684437291
 30
0.0
 40
0.3157169230765328
100
AcDbArc
 50
115.3740086783519
 51
180.0
  0
ARC
  5
3F4
102
{ACAD_REACTORS
330
44C
330
44D
102
}
330
71
100
AcDbEntity
  8
0
  6
Continuous
 62
     2
100
AcDbCircle
 10
-245.2144616615163
 20
-249.9274852437929
 30
0.0
 40
0.315716923076792
100
AcDbArc
 50
180.0
 51
244.6259913216482
  0
ARC
  5
3F5
102
{ACAD_REACTORS
330
44C
330
44D
102
}
330
71
100
AcDbEntity
  8
0
  6
Continuous
 62
     2
100
AcDbCircle
 10
-245.2088455262063
 20
-251.0247849028552
 30
0.0
 40
2.018561131933266
100
AcDbArc
 50
269.8110329575858
 51
90.18896704241416
  0
ARC
  5
3F6
102
{ACAD_REACTORS
330
44C
330
44D
102
}
330
71
100
AcDbEntity
  8
0
  6
Continuous
 62
     2
100
AcDbCircle
 10
-245.2144616615163
 20
-252.7276198504242
 30
0.0
 40
0.315716923076792
100
AcDbArc
 50
180.0
 51
269.8110329574542
  0
ARC
  5
3F7
102
{ACAD_REACTORS
330
44A
330
44B
102
}
330
71
100
AcDbEntity
  8
0
  6
Continuous
 62
     2
100
AcDbCircle
 10
-224.1510014467857
 20
-252.9745238087444
 30
0.0
 40
0.5115800601944143
100
AcDbArc
 50
109.3371432194853
 51
151.4785267424225
  0
ARC
  5
3F8
102
{ACAD_REACTORS
330
44A
330
44B
102
}
330
71
100
AcDbEntity
  8
0
  6
Continuous
 62
     2
100
AcDbCircle
 10
-224.1510014467857
 20
-253.3846666674219
 30
0.0
 40
0.5115800601960215
100
AcDbArc
 50
208.5214732576866
 51
246.6277221118449
  0
ARC
  5
3F9
102
{ACAD_REACTORS
330
44A
330
44B
102
}
330
71
100
AcDbEntity
  8
0
  6
Continuous
 62
     2
100
AcDbCircle
 10
-224.7008737715631
 20
-253.1795952380834
 30
0.0
 40
1.205656168393002
100
AcDbArc
 50
164.9381082229028
 51
195.0618917770959
  0
ARC
  5
3FA
102
{ACAD_REACTORS
330
44A
330
44B
102
}
330
71
100
AcDbEntity
  8
0
  6
Continuous
 62
     2
100
AcDbCircle
 10
-224.2817459281015
 20
-253.2923856001183
 30
0.0
 40
1.639695123940214
100
AcDbArc
 50
90.0
 51
164.938108222895
  0
ARC
  5
3FB
102
{ACAD_REACTORS
330
44E
330
44F
102
}
330
71
100
AcDbEntity
  8
0
  6
Continuous
 62
     2
100
AcDbCircle
 10
-233.7087410208052
 20
-249.8204047619091
 30
0.0
 40
1.526904761905882
100
AcDbArc
 50
90.0
 51
270.0
  0
ARC
  5
3FC
102
{ACAD_REACTORS
330
452
330
453
102
}
330
71
100
AcDbEntity
  8
0
  6
Continuous
 62
     2
100
AcDbCircle
 10
-240.451431766031
 20
-249.3094696701144
 30
0.0
 40
0.3528638246711182
100
AcDbArc
 50
270.0
 51
90.0
  0
ARC
  5
3FD
102
{ACAD_REACTORS
330
44C
330
44D
102
}
330
71
100
AcDbEntity
  8
0
  6
Continuous
 62
     2
100
AcDbCircle
 10
-247.790010348048
 20
-249.321772478638
 30
0.0
 40
0.3157169230761951
100
AcDbArc
 50
90.0
 51
180.0
  0
ARC
  5
3FE
102
{ACAD_REACTORS
330
44C
330
44D
102
}
330
71
100
AcDbEntity
  8
0
  6
Continuous
 62
     2
100
AcDbCircle
 10
-245.7915926394634
 20
-251.0366268437607
 30
0.0
 40
0.9118975235576147
100
AcDbArc
 50
115.1944106485282
 51
244.8055893514878
  0
ARC
  5
3FF
102
{ACAD_REACTORS
330
44C
330
44D
102
}
330
71
100
AcDbEntity
  8
0
  6
Continuous
 62
     2
100
AcDbCircle
 10
-246.3141770870384
 20
-252.1474565898235
 30
0.0
 40
0.315716923076593
100
AcDbArc
 50
0.0
 51
64.80558935146027
  0
ARC
  5
400
102
{ACAD_REACTORS
330
44C
330
44D
102
}
330
71
100
AcDbEntity
  8
0
  6
Continuous
 62
     2
100
AcDbCircle
 10
-248.3839050247945
 20
-254.2822553846054
 30
0.0
 40
0.4242446153828041
100
AcDbArc
 50
180.0
 51
270.0
  0
ARC
  5
401
102
{ACAD_REACTORS
330
44E
330
44F
102
}
330
71
100
AcDbEntity
  8
0
  6
Continuous
 62
     2
100
AcDbCircle
 10
-233.49246901064
 20
-249.6636735837886
 30
0.0
 40
0.5179085730135266
100
AcDbArc
 50
38.12041979714334
 51
141.8795802028489
  0
ARC
  5
402
102
{ACAD_REACTORS
330
44E
330
44F
102
}
330
71
100
AcDbEntity
  8
0
  6
Continuous
 62
     2
100
AcDbCircle
 10
-233.2927289742937
 20
-249.8204047619091
 30
0.0
 40
0.7717997786796724
100
AcDbArc
 50
141.8795802028404
 51
218.1204197971562
  0
ARC
  5
403
102
{ACAD_REACTORS
330
450
330
451
102
}
330
71
100
AcDbEntity
  8
0
  6
Continuous
 62
     2
100
AcDbCircle
 10
-237.4534164914335
 20
-252.6410202277801
 30
0.0
 40
2.065479772208509
100
AcDbArc
 50
242.4518518243402
 51
297.5481481756871
  0
ARC
  5
404
102
{ACAD_REACTORS
330
450
330
451
102
}
330
71
100
AcDbEntity
  8
0
  6
Continuous
 62
     2
100
AcDbCircle
 10
-237.4534164914335
 20
-253.7181702483862
 30
0.0
 40
2.065479772208568
100
AcDbArc
 50
62.45185182430637
 51
117.5481481756664
  0
ARC
  5
405
102
{ACAD_REACTORS
330
450
330
451
102
}
330
71
100
AcDbEntity
  8
0
  6
Continuous
 62
     2
100
AcDbCircle
 10
-237.7343563832668
 20
-253.1795952380834
 30
0.0
 40
1.45803408365149
100
AcDbArc
 50
117.5481481756624
 51
242.4518518243375
  0
ARC
  5
406
102
{ACAD_REACTORS
330
450
330
451
102
}
330
71
100
AcDbEntity
  8
0
  6
Continuous
 62
     2
100
AcDbCircle
 10
-237.1724765996002
 20
-253.1795952380834
 30
0.0
 40
1.458034083652003
100
AcDbArc
 50
297.548148175701
 51
62.45185182429896
  0
ARC
  5
407
102
{ACAD_REACTORS
330
44E
330
44F
102
}
330
71
100
AcDbEntity
  8
0
  6
Continuous
 62
     2
100
AcDbCircle
 10
-233.49246901064
 20
-249.9771359400295
 30
0.0
 40
0.5179085730134372
100
AcDbArc
 50
218.1204197971511
 51
321.8795802028566
  0
ARC
  5
408
102
{ACAD_REACTORS
330
44E
330
44F
102
}
330
71
100
AcDbEntity
  8
0
  6
Continuous
 62
     2
100
AcDbCircle
 10
-233.6922090469862
 20
-249.8204047619091
 30
0.0
 40
0.7717997786796373
100
AcDbArc
 50
321.8795802028437
 51
38.12041979715956
  0
ARC
  5
409
102
{ACAD_REACTORS
330
44C
330
44D
102
}
330
71
100
AcDbEntity
  8
0
  6
Continuous
 62
     2
100
AcDbCircle
 10
-242.9105929340777
 20
-254.2822553846054
 30
0.0
 40
0.4242446153832873
100
AcDbArc
 50
270.0
 51
0.0
  0
ARC
  5
40A
102
{ACAD_REACTORS
330
44C
330
44D
102
}
330
71
100
AcDbEntity
  8
0
  6
Continuous
 62
     2
100
AcDbCircle
 10
-242.9105929340777
 20
-248.7177446154052
 30
0.0
 40
0.4242446153838841
100
AcDbArc
 50
0.0
 51
90.0
  0
ARC
  5
40B
102
{ACAD_REACTORS
330
44C
330
44D
102
}
330
71
100
AcDbEntity
  8
0
  6
Continuous
 62
     2
100
AcDbCircle
 10
-248.3839050247945
 20
-248.7177446154052
 30
0.0
 40
0.4242446153837989
100
AcDbArc
 50
90.0
 51
180.0
  0
ARC
  5
40C
102
{ACAD_REACTORS
330
44C
330
44D
102
}
330
71
100
AcDbEntity
  8
0
  6
Continuous
 62
     2
100
AcDbCircle
 10
-246.3141770870384
 20
-253.6782275213551
 30
0.0
 40
0.3157169230767067
100
AcDbArc
 50
270.0
 51
0.0
  0
ARC
  5
40D
102
{ACAD_REACTORS
330
44C
330
44D
102
}
330
71
100
AcDbEntity
  8
0
  6
Continuous
 62
     2
100
AcDbCircle
 10
-246.3141770870384
 20
-249.9257970976985
 30
0.0
 40
0.3157169230761203
100
AcDbArc
 50
295.1944106485397
 51
0.0
  0
ARC
  5
40E
102
{ACAD_REACTORS
330
44C
330
44D
102
}
330
71
100
AcDbEntity
  8
0
  6
Continuous
 62
     2
100
AcDbCircle
 10
-246.3141770870384
 20
-249.321772478638
 30
0.0
 40
0.315716923076593
100
AcDbArc
 50
0.0
 51
90.0
  0
ARC
  5
40F
102
{ACAD_REACTORS
330
44C
330
44D
102
}
330
71
100
AcDbEntity
  8
0
  6
Continuous
 62
     2
100
AcDbCircle
 10
-247.790010348048
 20
-253.6782275213551
 30
0.0
 40
0.3157169230756836
100
AcDbArc
 50
180.0
 51
270.0
  0
ARC
  5
410
102
{ACAD_REACTORS
330
452
330
453
102
}
330
71
100
AcDbEntity
  8
0
  6
Continuous
 62
     2
100
AcDbCircle
 10
-240.0099592397926
 20
-249.3488656413369
 30
0.0
 40
1.055365641333708
100
AcDbArc
 50
270.0
 51
90.0
  0
ARC
  5
411
102
{ACAD_REACTORS
330
44A
330
44B
102
}
330
71
100
AcDbEntity
  8
0
  6
Continuous
 62
     2
100
AcDbCircle
 10
-224.2817459281015
 20
-253.0668048760486
 30
0.0
 40
1.639695123940448
100
AcDbArc
 50
195.0618917771012
 51
275.1581447696762
  0
ARC
  5
412
102
{ACAD_REACTORS
330
44A
330
44B
102
}
330
71
100
AcDbEntity
  8
0
  6
Continuous
 62
     2
100
AcDbCircle
 10
-224.5706020228373
 20
-249.866914292827
 30
0.0
 40
4.852596863498825
100
AcDbArc
 50
275.1581447696364
 51
285.9799912583387
  0
ARC
  5
413
102
{ACAD_REACTORS
330
44A
330
44B
102
}
330
71
100
AcDbEntity
  8
0
  6
Continuous
 62
     2
100
AcDbCircle
 10
-224.4127291477445
 20
-251.7691288726753
 30
0.0
 40
2.227384008972746
100
AcDbArc
 50
288.4480761181335
 51
301.9309089499397
  0
ARC
  5
414
102
{ACAD_REACTORS
330
44A
330
44B
102
}
330
71
100
AcDbEntity
  8
0
  6
Continuous
 62
     2
100
AcDbCircle
 10
-223.9945614140826
 20
-253.0226746487119
 30
0.0
 40
0.9059297849852801
100
AcDbArc
 50
246.6277221118183
 51
288.4480761180817
  0
ARC
  5
415
102
{ACAD_REACTORS
330
44A
330
44B
102
}
330
71
100
AcDbEntity
  8
0
  6
Continuous
 62
     2
100
AcDbCircle
 10
-223.7736441887043
 20
-253.1795952380834
 30
0.0
 40
0.9410597353348924
100
AcDbArc
 50
151.4785267423624
 51
208.5214732576695
  0
ARC
  5
416
102
{ACAD_REACTORS
330
44A
330
44B
102
}
330
71
100
AcDbEntity
  8
0
  6
Continuous
 62
     2
100
AcDbCircle
 10
-224.004331448682
 20
-253.3924787891273
 30
0.0
 40
0.9545230068260935
100
AcDbArc
 50
90.0
 51
109.337143219432
  0
ARC
  5
417
102
{ACAD_REACTORS
330
44C
330
44D
102
}
330
71
100
AcDbEntity
  8
0
  6
Continuous
 62
     2
100
AcDbCircle
 10
-245.2144616615163
 20
-249.3219499552861
 30
0.0
 40
0.3157169230760711
100
AcDbArc
 50
90.18896704254594
 51
180.0
  0
ARC
  5
418
102
{ACAD_REACTORS
330
44C
330
44D
102
}
330
71
100
AcDbEntity
  8
0
  6
Continuous
 62
     2
100
AcDbCircle
 10
-245.7405043596042
 20
-251.0366268437607
 30
0.0
 40
0.911848150144459
100
AcDbArc
 50
295.3740086781764
 51
64.62599132180748
  0
ARC
  5
419
102
{ACAD_REACTORS
330
448
330
449
102
}
330
71
100
AcDbEntity
  8
0
  6
Continuous
 62
     2
100
AcDbCircle
 10
-240.5154306269974
 20
-251.7691288726747
 30
0.0
 40
2.227384008972737
100
AcDbArc
 50
288.4480761181328
 51
301.9309089499593
  0
ARC
  5
41A
102
{ACAD_REACTORS
330
448
330
449
102
}
330
71
100
AcDbEntity
  8
0
  6
Continuous
 62
     2
100
AcDbCircle
 10
-240.0972628933366
 20
-253.0226746487119
 30
0.0
 40
0.9059297849849192
100
AcDbArc
 50
246.627722111871
 51
288.4480761181584
  0
ARC
  5
41B
102
{ACAD_REACTORS
330
448
330
449
102
}
330
71
100
AcDbEntity
  8
0
  6
Continuous
 62
     2
100
AcDbCircle
 10
-240.2537029260386
 20
-253.3846666674219
 30
0.0
 40
0.5115800601948034
100
AcDbArc
 50
208.5214732576956
 51
246.6277221118274
  0
ARC
  5
41C
102
{ACAD_REACTORS
330
448
330
449
102
}
330
71
100
AcDbEntity
  8
0
  6
Continuous
 62
     2
100
AcDbCircle
 10
-240.0972628933366
 20
-253.336515827455
 30
0.0
 40
0.9059297849853228
100
AcDbArc
 50
71.55192388185348
 51
113.372277888129
  0
ARC
  5
41D
102
{ACAD_REACTORS
330
448
330
449
102
}
330
71
100
AcDbEntity
  8
0
  6
Continuous
 62
     2
100
AcDbCircle
 10
-240.6733035020903
 20
-256.4922761833393
 30
0.0
 40
4.852596863498068
100
AcDbArc
 50
74.02000874164739
 51
84.84185523037506
  0
CIRCLE
  5
41E
102
{ACAD_REACTORS
330
44C
330
44D
102
}
330
71
100
AcDbEntity
  8
0
  6
Continuous
 62
     2
100
AcDbCircle
 10
-245.764319374277
 20
-251.0366268437607
 30
0.0
 40
0.4709789327785074
  0
CIRCLE
  5
41F
330
71
100
AcDbEntity
  8
1
  6
Continuous
 62
     2
100
AcDbCircle
 10
-240.3081496401773
 20
-240.8750000000051
 30
0.0
 40
1.249999999999915
  0
CIRCLE
  5
420
330
71
100
AcDbEntity
  8
1
  6
Continuous
 62
     2
100
AcDbCircle
 10
-240.3081496401773
 20
-240.8750000000051
 30
0.0
 40
2.5
  0
TEXT
  5
421
330
71
100
AcDbEntity
  8
1
 62
     7
100
AcDbText
 10
-197.6712568047261
 20
-243.7000000000051
 30
0.0
 40
2.5
  1
/
 41
0.9
  7
CONVERTER_11
100
AcDbText
  0
TEXT
  5
423
330
71
100
AcDbEntity
  8
1
 62
     7
100
AcDbText
 10
-195.5148923076841
 20
-243.7000000000051
 30
0.0
 40
2.5
  1
00
 41
0.81
  7
CONVERTER_12
100
AcDbText
  0
TEXT
  5
424
330
71
100
AcDbEntity
  8
1
 62
     3
100
AcDbText
 10
-157.918408281667
 20
-243.7000000000051
 30
0.0
 40
2.5
  1
14.12.2017
 41
0.81
  7
CONVERTER_12
100
AcDbText
  0
MTEXT
  5
425
330
71
100
AcDbEntity
  8
1
 62
     2
100
AcDbMText
 10
-157.918408281667
 20
-237.5000000000051
 30
0.0
 40
1.8
 41
0.0
 71
     1
 72
     1
  1
date
  7
CONVERTER_11
 73
     1
 44
1.32052821128451
  0
MTEXT
  5
426
330
71
100
AcDbEntity
  8
1
 62
     2
100
AcDbMText
 10
-187.7448045267399
 20
-246.0000000000051
 30
0.0
 40
1.8
 41
0.0
 71
     1
 72
     1
  1
document-type
  7
CONVERTER_11
 73
     1
 44
1.20048019207683
  0
TEXT
  5
427
330
71
100
AcDbEntity
  8
1
 62
     3
100
AcDbText
 10
-187.7448045267399
 20
-252.2000000000051
 30
0.0
 40
2.5
  1
TECDOC 2D_Productdrawing
 41
0.81
  7
CONVERTER_12
100
AcDbText
  0
MTEXT
  5
429
330
71
100
AcDbEntity
  8
1
 62
     2
100
AcDbMText
 10
-215.5448045267399
 20
-237.500000000005
 30
0.0
 40
1.8
 41
0.0
 71
     1
 72
     1
  1
document-No. / RI
  7
CONVERTER_13
 73
     1
 44
1.32052821128451
  0
TEXT
  5
42A
330
71
100
AcDbEntity
  8
1
 62
     7
100
AcDbText
 10
-215.5448045267399
 20
-243.7000000000051
 30
0.0
 40
2.5
  1
01094061
 41
0.81
  7
CONVERTER_12
100
AcDbText
  0
MTEXT
  5
42C
330
71
100
AcDbEntity
  8
1
 62
     3
100
AcDbMText
 10
-127.9592041408276
 20
-243.7000000000049
 30
0.0
 40
2.5
 41
0.0
 71
     8
 72
     1
  1
1:1
  7
CONVERTER_14
 73
     1
 44
1.32052821128451
  0
MTEXT
  5
42D
330
71
100
AcDbEntity
  8
1
 62
     2
100
AcDbMText
 10
-131.3184082816672
 20
-237.500000000005
 30
0.0
 40
1.8
 41
0.0
 71
     1
 72
     1
  1
scale
  7
CONVERTER_11
 73
     1
 44
1.20048019207683
  0
MTEXT
  5
42E
330
71
100
AcDbEntity
  8
1
 62
     2
100
AcDbMText
 10
-215.5448045267399
 20
-246.000000000005
 30
0.0
 40
1.8
 41
0.0
 71
     1
 72
     1
  1
ident.-No.
  7
CONVERTER_11
 73
     1
 44
1.20048019207683
  0
TEXT
  5
42F
330
71
100
AcDbEntity
  8
1
 62
     7
100
AcDbText
 10
-215.1448045267402
 20
-252.2000000000051
 30
0.0
 40
2.5
  1
0790620
 41
0.81
  7
CONVERTER_12
100
AcDbText
  0
MTEXT
  5
430
330
71
100
AcDbEntity
  8
1
 62
     2
100
AcDbMText
 10
-287.4828192517874
 20
-249.2500000000051
 30
0.0
 40
2.0
 41
0.0
 71
     5
 72
     1
  1
General Information\P- Simplified representation\P- Document excluded from change process\P- Linear dimensions [mm]
  7
CONVERTER_11
 73
     1
 44
1.20048019207683
  0
MTEXT
  5
431
330
71
100
AcDbEntity
  8
1
 62
     7
100
AcDbMText
 10
-120.9999999999909
 20
-187.0000000000031
 30
0.0
 40
3.5
 41
0.0
 71
     5
 72
     1
  1
C
  7
CONVERTER_11
 73
     1
 44
1.20048019207683
  0
MTEXT
  5
432
330
71
100
AcDbEntity
  8
1
 62
     7
100
AcDbMText
 10
-120.9999999999909
 20
-84.500000000005
 30
0.0
 40
3.5
 41
0.0
 71
     5
 72
     1
  1
A
  7
CONVERTER_11
 73
     1
 44
1.20048019207683
  0
MTEXT
  5
433
330
71
100
AcDbEntity
  8
1
 62
     7
100
AcDbMText
 10
-120.9999999999909
 20
-137.0000000000031
 30
0.0
 40
3.5
 41
0.0
 71
     5
 72
     1
  1
B
  7
CONVERTER_11
 73
     1
 44
1.20048019207683
  0
MTEXT
  5
434
330
71
100
AcDbEntity
  8
1
 62
     7
100
AcDbMText
 10
-120.9999999999909
 20
-239.500000000005
 30
0.0
 40
3.5
 41
0.0
 71
     5
 72
     1
  1
D
  7
CONVERTER_11
 73
     1
 44
1.20048019207683
  0
MTEXT
  5
435
330
71
100
AcDbEntity
  8
1
 62
     7
100
AcDbMText
 10
-391.2499999999895
 20
-264.5000000000051
 30
0.0
 40
3.5
 41
0.0
 71
     5
 72
     1
  1
1
  7
CONVERTER_11
 73
     1
 44
1.20048019207683
  0
MTEXT
  5
436
330
71
100
AcDbEntity
  8
1
 62
     7
100
AcDbMText
 10
-341.9999999999899
 20
-264.5000000000051
 30
0.0
 40
3.5
 41
0.0
 71
     5
 72
     1
  1
2
  7
CONVERTER_11
 73
     1
 44
1.20048019207683
  0
MTEXT
  5
437
330
71
100
AcDbEntity
  8
1
 62
     7
100
AcDbMText
 10
-291.9999999999899
 20
-264.5000000000051
 30
0.0
 40
3.5
 41
0.0
 71
     5
 72
     1
  1
3
  7
CONVERTER_11
 73
     1
 44
1.20048019207683
  0
MTEXT
  5
438
330
71
100
AcDbEntity
  8
1
 62
     7
100
AcDbMText
 10
-241.99999999999
 20
-264.5000000000051
 30
0.0
 40
3.5
 41
0.0
 71
     5
 72
     1
  1
4
  7
CONVERTER_11
 73
     1
 44
1.20048019207683
  0
MTEXT
  5
439
330
71
100
AcDbEntity
  8
1
 62
     7
100
AcDbMText
 10
-191.9999999999899
 20
-264.5000000000051
 30
0.0
 40
3.5
 41
0.0
 71
     5
 72
     1
  1
5
  7
CONVERTER_11
 73
     1
 44
1.20048019207683
  0
MTEXT
  5
43A
330
71
100
AcDbEntity
  8
1
 62
     7
100
AcDbMText
 10
-142.7499999999907
 20
-264.5000000000051
 30
0.0
 40
3.5
 41
0.0
 71
     5
 72
     1
  1
6
  7
CONVERTER_11
 73
     1
 44
1.20048019207683
  0
MTEXT
  5
43B
330
71
100
AcDbEntity
  8
1
 62
     7
100
AcDbMText
 10
-412.999999999989
 20
-84.500000000005
 30
0.0
 40
3.5
 41
0.0
 71
     5
 72
     1
  1
A
  7
CONVERTER_11
 73
     1
 44
1.20048019207683
  0
MTEXT
  5
43C
330
71
100
AcDbEntity
  8
1
 62
     7
100
AcDbMText
 10
-412.999999999989
 20
-137.000000000005
 30
0.0
 40
3.5
 41
0.0
 71
     5
 72
     1
  1
B
  7
CONVERTER_11
 73
     1
 44
1.20048019207683
  0
MTEXT
  5
43D
330
71
100
AcDbEntity
  8
1
 62
     7
100
AcDbMText
 10
-412.999999999989
 20
-187.000000000005
 30
0.0
 40
3.5
 41
0.0
 71
     5
 72
     1
  1
C
  7
CONVERTER_11
 73
     1
 44
1.20048019207683
  0
MTEXT
  5
43E
330
71
100
AcDbEntity
  8
1
 62
     7
100
AcDbMText
 10
-412.999999999989
 20
-239.500000000005
 30
0.0
 40
3.5
 41
0.0
 71
     5
 72
     1
  1
D
  7
CONVERTER_11
 73
     1
 44
1.20048019207683
  0
MTEXT
  5
43F
330
71
100
AcDbEntity
  8
1
 62
     3
100
AcDbMText
 10
-226.84480452674
 20
-240.875000000005
 30
0.0
 40
2.5
 41
0.0
 71
     5
 72
     1
  1
DIN A4
  7
CONVERTER_11
 73
     1
 44
1.20048019207683
  0
MTEXT
  5
440
330
71
100
AcDbEntity
  8
1
 62
     2
100
AcDbMText
 10
-215.64480452674
 20
-254.500000000005
 30
0.0
 40
1.8
 41
0.0
 71
     1
 72
     1
  1
description
  7
CONVERTER_11
 73
     1
 44
1.20048019207683
  0
MTEXT
  5
441
330
71
100
AcDbEntity
  8
1
 62
     7
100
AcDbMText
 10
-170.0724022633644
 20
-258.7500000000048
 30
0.0
 40
3.0
 41
0.0
 71
     5
 72
     1
  1
OTTA  6 YE
  7
CONVERTER_12
 73
     1
 44
1.20048019207683
  0
TEXT
  5
442
330
71
100
AcDbEntity
  8
1
 62
     2
100
AcDbText
 10
-228.6094957169264
 20
-260.7500000000051
 30
0.0
 40
1.8
  1
1
 41
0.9
  7
CONVERTER_11
100
AcDbText
  0
TEXT
  5
443
330
71
100
AcDbEntity
  8
1
 62
     2
100
AcDbText
 10
-243.3985395563979
 20
-260.799248653807
 30
0.0
 40
1.8
  1
1
 41
0.9
  7
CONVERTER_11
100
AcDbText
  0
TEXT
  5
444
330
71
100
AcDbEntity
  8
1
 62
     2
100
AcDbText
 10
-252.0448045267399
 20
-260.7590172149967
 30
0.0
 40
1.8
  1
page
 41
0.9
  7
CONVERTER_11
100
AcDbText
  0
TEXT
  5
445
330
71
100
AcDbEntity
  8
1
 62
     2
100
AcDbText
 10
-233.8448045267401
 20
-260.7590172149966
 30
0.0
 40
1.8
  1
of
 41
0.9
  7
CONVERTER_11
100
AcDbText
  0
MTEXT
  5
446
330
71
100
AcDbEntity
  8
1
 62
     3
100
AcDbMText
 10
-227.64182237513
 20
-75.20869184470621
 30
0.0
 40
1.8
 41
0.0
 71
     7
 72
     1
  3
Transfer or duplication of this document as well as the utilisation or\Pcommunication of its content are not permitted unless express consent\Pis granted. Violations give rise to claims for damages. All rights reserved\Pin case of patent, utility mo
  1
del or design patent registrations.
  7
CONVERTER_11
 73
     1
 44
0.99639855942377
  0
MTEXT
  5
447
330
71
100
AcDbEntity
  8
1
 62
     3
100
AcDbMText
 10
-410.4949322139181
 20
-75.20869184470621
 30
0.0
 40
1.8
 41
0.0
 71
     7
 72
     1
  3
Weitergabe sowie Vervielf\U+00e4ltigung dieses Dokuments, Verwertung und \PMitteilung seines Inhalts sind verboten, soweit nicht ausdr\U+00fccklich gestattet. \PZuwiderhandlungen verpflichten zu Schadenersatz. Alle Rechte f\U+00fcr den Fall\Pder Pat
  1
ent-, Gebrauchsmuster- oder Designeintragung vorbehalten.
  7
CONVERTER_11
 73
     1
 44
0.99639855942377
  0
HATCH
  5
448
330
71
100
AcDbEntity
  8
1
  6
Continuous
 62
     2
100
AcDbHatch
 10
0.0
 20
0.0
 30
0.0
210
0.0
220
0.0
230
1.0
  2
_USER
 70
     0
 71
     1
 91
        1
 92
        1
 93
       14
 72
     2
 10
-240.8035752508172
 20
-253.1795952380834
 40
1.205656168390944
 50
164.9381082228765
 51
195.0618917770948
 73
     1
 72
     2
 10
-240.3844474073544
 20
-253.0668048760486
 40
1.639695123939387
 50
195.0618917770896
 51
275.1581447696395
 73
     1
 72
     2
 10
-240.6733035020903
 20
-249.866914292827
 40
4.852596863498138
 50
275.1581447696249
 51
285.9799912583529
 73
     1
 72
     1
 10
-239.3373755849725
 20
-254.5319965986278
 11
-239.3373755849725
 21
-253.6594795918246
 72
     2
 10
-240.5154306269974
 20
-251.7691288726747
 40
2.227384008972737
 50
58.0690910500407
 51
71.55192388186722
 73
     0
 72
     2
 10
-240.0972628933366
 20
-253.0226746487119
 40
0.9059297849849192
 50
71.55192388184153
 51
113.372277888129
 73
     0
 72
     2
 10
-240.2537029260386
 20
-253.3846666674219
 40
0.5115800601948034
 50
113.3722778881726
 51
151.4785267423044
 73
     0
 72
     2
 10
-239.8763456679583
 20
-253.1795952380834
 40
0.9410597353332545
 50
151.4785267422943
 51
208.5214732577331
 73
     0
 72
     2
 10
-240.2537029260386
 20
-252.9745238087444
 40
0.5115800601948779
 50
208.5214732576956
 51
246.6277221118009
 73
     0
 72
     2
 10
-240.0972628933366
 20
-253.336515827455
 40
0.9059297849853228
 50
246.627722111871
 51
288.4480761181465
 73
     0
 72
     2
 10
-240.5154306269974
 20
-254.5900616034916
 40
2.227384008973478
 50
288.4480761181328
 51
301.9309089499592
 73
     0
 72
     1
 10
-239.3373755849725
 20
-252.6997108843417
 11
-239.3373755849725
 21
-251.8271938775384
 72
     2
 10
-240.6733035020903
 20
-256.4922761833393
 40
4.852596863498068
 50
74.02000874164739
 51
84.84185523037506
 73
     1
 72
     2
 10
-240.3844474073544
 20
-253.2923856001183
 40
1.639695123940507
 50
84.84185523036236
 51
164.9381082228864
 73
     1
 97
       14
330
41D
330
336
330
3EC
330
41C
330
3ED
330
3EE
330
41B
330
41A
330
419
330
337
330
3EF
330
3F0
330
3F1
330
3F2
 75
     1
 76
     0
 52
45.0
 41
0.1
 77
     0
 78
     1
 53
45.0
 43
0.0
 44
0.0
 45
-0.0707106781186548
 46
0.0707106781186548
 79
     0
 98
        1
 10
0.0
 20
0.0
  0
HATCH
  5
449
330
71
100
AcDbEntity
  8
1
  6
Continuous
 62
     2
100
AcDbHatch
 10
0.0
 20
0.0
 30
0.0
210
0.0
220
0.0
230
1.0
  2
_USER
 70
     0
 71
     1
 91
        1
 92
        1
 93
       14
 72
     2
 10
-240.8035752508172
 20
-253.1795952380834
 40
1.205656168390944
 50
164.9381082228765
 51
195.0618917770948
 73
     1
 72
     2
 10
-240.3844474073544
 20
-253.0668048760486
 40
1.639695123939387
 50
195.0618917770896
 51
275.1581447696395
 73
     1
 72
     2
 10
-240.6733035020903
 20
-249.866914292827
 40
4.852596863498138
 50
275.1581447696249
 51
285.9799912583529
 73
     1
 72
     1
 10
-239.3373755849725
 20
-254.5319965986278
 11
-239.3373755849725
 21
-253.6594795918246
 72
     2
 10
-240.5154306269974
 20
-251.7691288726747
 40
2.227384008972737
 50
58.0690910500407
 51
71.55192388186722
 73
     0
 72
     2
 10
-240.0972628933366
 20
-253.0226746487119
 40
0.9059297849849192
 50
71.55192388184153
 51
113.372277888129
 73
     0
 72
     2
 10
-240.2537029260386
 20
-253.3846666674219
 40
0.5115800601948034
 50
113.3722778881726
 51
151.4785267423044
 73
     0
 72
     2
 10
-239.8763456679583
 20
-253.1795952380834
 40
0.9410597353332545
 50
151.4785267422943
 51
208.5214732577331
 73
     0
 72
     2
 10
-240.2537029260386
 20
-252.9745238087444
 40
0.5115800601948779
 50
208.5214732576956
 51
246.6277221118009
 73
     0
 72
     2
 10
-240.0972628933366
 20
-253.336515827455
 40
0.9059297849853228
 50
246.627722111871
 51
288.4480761181465
 73
     0
 72
     2
 10
-240.5154306269974
 20
-254.5900616034916
 40
2.227384008973478
 50
288.4480761181328
 51
301.9309089499592
 73
     0
 72
     1
 10
-239.3373755849725
 20
-252.6997108843417
 11
-239.3373755849725
 21
-251.8271938775384
 72
     2
 10
-240.6733035020903
 20
-256.4922761833393
 40
4.852596863498068
 50
74.02000874164739
 51
84.84185523037506
 73
     1
 72
     2
 10
-240.3844474073544
 20
-253.2923856001183
 40
1.639695123940507
 50
84.84185523036236
 51
164.9381082228864
 73
     1
 97
       14
330
41D
330
336
330
3EC
330
41C
330
3ED
330
3EE
330
41B
330
41A
330
419
330
337
330
3EF
330
3F0
330
3F1
330
3F2
 75
     1
 76
     0
 52
45.0
 41
0.1
 77
     0
 78
     1
 53
45.0
 43
0.0
 44
0.0
 45
-0.0707106781186548
 46
0.0707106781186548
 79
     0
 98
        1
 10
0.0
 20
0.0
  0
HATCH
  5
44A
330
71
100
AcDbEntity
  8
1
  6
Continuous
 62
     2
100
AcDbHatch
 10
0.0
 20
0.0
 30
0.0
210
0.0
220
0.0
230
1.0
  2
_USER
 70
     0
 71
     1
 91
        1
 92
        1
 93
       18
 72
     2
 10
-224.2817459281015
 20
-253.2923856001183
 40
1.639695123940214
 50
90.0
 51
164.938108222895
 73
     1
 72
     2
 10
-224.7008737715631
 20
-253.1795952380834
 40
1.205656168393002
 50
164.9381082229028
 51
195.0618917770959
 73
     1
 72
     2
 10
-224.2817459281015
 20
-253.0668048760486
 40
1.639695123940448
 50
195.0618917771012
 51
275.1581447696762
 73
     1
 72
     2
 10
-224.5706020228373
 20
-249.866914292827
 40
4.852596863498825
 50
275.1581447696364
 51
285.9799912583387
 73
     1
 72
     1
 10
-223.2346741057206
 20
-254.5319965986284
 11
-223.2346741057206
 21
-253.6594795918251
 72
     2
 10
-224.4127291477445
 20
-251.7691288726753
 40
2.227384008972746
 50
58.06909105006029
 51
71.55192388186651
 73
     0
 72
     2
 10
-223.9945614140826
 20
-253.0226746487119
 40
0.9059297849852801
 50
71.55192388191827
 51
113.3722778881817
 73
     0
 72
     2
 10
-224.1510014467857
 20
-253.3846666674219
 40
0.5115800601960215
 50
113.3722778881551
 51
151.4785267423134
 73
     0
 72
     2
 10
-223.7736441887043
 20
-253.1795952380834
 40
0.9410597353348924
 50
151.4785267423305
 51
208.5214732576376
 73
     0
 72
     2
 10
-224.1510014467857
 20
-252.9745238087444
 40
0.5115800601944143
 50
208.5214732575775
 51
250.6628567805147
 73
     0
 72
     2
 10
-224.004331448682
 20
-253.3924787891273
 40
0.9545230068260935
 50
250.662856780568
 51
270.0
 73
     0
 72
     1
 10
-224.004331448682
 20
-252.4379557823012
 11
-222.9006921491139
 21
-252.4379557823012
 72
     1
 10
-222.9006921491139
 20
-252.4379557823012
 11
-222.9006921491139
 21
-254.7064999999887
 72
     1
 10
-222.9006921491139
 20
-254.7064999999887
 11
-221.7078994469462
 21
-254.7064999999887
 72
     1
 10
-221.7078994469462
 20
-254.7064999999887
 11
-221.7078994469462
 21
-252.4379557823012
 72
     1
 10
-221.7078994469462
 20
-252.4379557823012
 11
-220.8968004094728
 21
-252.4379557823012
 72
     1
 10
-220.8968004094728
 20
-252.4379557823012
 11
-220.8968004094728
 21
-251.6526904761776
 72
     1
 10
-220.8968004094728
 20
-251.6526904761776
 11
-224.2817459281015
 21
-251.6526904761781
 97
       18
330
39C
330
39B
330
39A
330
399
330
39E
330
338
330
416
330
3F7
330
415
330
3F8
330
414
330
413
330
339
330
412
330
411
330
3F9
330
3FA
330
39D
 75
     1
 76
     0
 52
45.0
 41
0.1
 77
     0
 78
     1
 53
45.0
 43
0.0
 44
0.0
 45
-0.0707106781186548
 46
0.0707106781186548
 79
     0
 98
        1
 10
0.0
 20
0.0
  0
HATCH
  5
44B
330
71
100
AcDbEntity
  8
1
  6
Continuous
 62
     2
100
AcDbHatch
 10
0.0
 20
0.0
 30
0.0
210
0.0
220
0.0
230
1.0
  2
_USER
 70
     0
 71
     1
 91
        1
 92
        1
 93
       18
 72
     2
 10
-224.2817459281015
 20
-253.2923856001183
 40
1.639695123940214
 50
90.0
 51
164.938108222895
 73
     1
 72
     2
 10
-224.7008737715631
 20
-253.1795952380834
 40
1.205656168393002
 50
164.9381082229028
 51
195.0618917770959
 73
     1
 72
     2
 10
-224.2817459281015
 20
-253.0668048760486
 40
1.639695123940448
 50
195.0618917771012
 51
275.1581447696762
 73
     1
 72
     2
 10
-224.5706020228373
 20
-249.866914292827
 40
4.852596863498825
 50
275.1581447696364
 51
285.9799912583387
 73
     1
 72
     1
 10
-223.2346741057206
 20
-254.5319965986284
 11
-223.2346741057206
 21
-253.6594795918251
 72
     2
 10
-224.4127291477445
 20
-251.7691288726753
 40
2.227384008972746
 50
58.06909105006029
 51
71.55192388186651
 73
     0
 72
     2
 10
-223.9945614140826
 20
-253.0226746487119
 40
0.9059297849852801
 50
71.55192388191827
 51
113.3722778881817
 73
     0
 72
     2
 10
-224.1510014467857
 20
-253.3846666674219
 40
0.5115800601960215
 50
113.3722778881551
 51
151.4785267423134
 73
     0
 72
     2
 10
-223.7736441887043
 20
-253.1795952380834
 40
0.9410597353348924
 50
151.4785267423305
 51
208.5214732576376
 73
     0
 72
     2
 10
-224.1510014467857
 20
-252.9745238087444
 40
0.5115800601944143
 50
208.5214732575775
 51
250.6628567805147
 73
     0
 72
     2
 10
-224.004331448682
 20
-253.3924787891273
 40
0.9545230068260935
 50
250.662856780568
 51
270.0
 73
     0
 72
     1
 10
-224.004331448682
 20
-252.4379557823012
 11
-222.9006921491139
 21
-252.4379557823012
 72
     1
 10
-222.9006921491139
 20
-252.4379557823012
 11
-222.9006921491139
 21
-254.7064999999887
 72
     1
 10
-222.9006921491139
 20
-254.7064999999887
 11
-221.7078994469462
 21
-254.7064999999887
 72
     1
 10
-221.7078994469462
 20
-254.7064999999887
 11
-221.7078994469462
 21
-252.4379557823012
 72
     1
 10
-221.7078994469462
 20
-252.4379557823012
 11
-220.8968004094728
 21
-252.4379557823012
 72
     1
 10
-220.8968004094728
 20
-252.4379557823012
 11
-220.8968004094728
 21
-251.6526904761776
 72
     1
 10
-220.8968004094728
 20
-251.6526904761776
 11
-224.2817459281015
 21
-251.6526904761781
 97
       18
330
39C
330
39B
330
39A
330
399
330
39E
330
338
330
416
330
3F7
330
415
330
3F8
330
414
330
413
330
339
330
412
330
411
330
3F9
330
3FA
330
39D
 75
     1
 76
     0
 52
45.0
 41
0.1
 77
     0
 78
     1
 53
45.0
 43
0.0
 44
0.0
 45
-0.0707106781186548
 46
0.0707106781186548
 79
     0
 98
        1
 10
0.0
 20
0.0
  0
HATCH
  5
44C
330
71
100
AcDbEntity
  8
1
  6
Continuous
 62
     2
100
AcDbHatch
 10
0.0
 20
0.0
 30
0.0
210
0.0
220
0.0
230
1.0
  2
_USER
 70
     0
 71
     1
 91
        4
 92
        1
 93
        8
 72
     2
 10
-248.3839050247945
 20
-248.7177446154052
 40
0.4242446153837989
 50
90.0
 51
180.0
 73
     1
 72
     1
 10
-248.8081496401773
 20
-248.7177446154052
 11
-248.8081496401773
 21
-254.2822553846054
 72
     2
 10
-248.3839050247945
 20
-254.2822553846054
 40
0.4242446153828041
 50
180.0
 51
270.0
 73
     1
 72
     1
 10
-248.3839050247945
 20
-254.7064999999887
 11
-242.9105929340777
 21
-254.7064999999887
 72
     2
 10
-242.9105929340777
 20
-254.2822553846054
 40
0.4242446153832873
 50
270.0
 51
360.0
 73
     1
 72
     1
 10
-242.4863483186938
 20
-254.2822553846054
 11
-242.4863483186938
 21
-248.7177446154052
 72
     2
 10
-242.9105929340777
 20
-248.7177446154052
 40
0.4242446153838841
 50
0.0
 51
90.0
 73
     1
 72
     1
 10
-242.9105929340777
 20
-248.2935000000214
 11
-248.3839050247945
 21
-248.2935000000214
 97
        8
330
40A
330
367
330
409
330
368
330
400
330
365
330
40B
330
366
 92
       16
 93
        1
 72
     2
 10
-245.764319374277
 20
-251.0366268437607
 40
0.4709789327785074
 50
0.0
 51
360.0
 73
     1
 97
        1
330
41E
 92
       16
 93
        8
 72
     2
 10
-245.7405043596042
 20
-251.0366268437607
 40
0.911848150144459
 50
295.3740086781764
 51
424.6259913218075
 73
     1
 72
     2
 10
-245.2144616615163
 20
-249.9274852437929
 40
0.315716923076792
 50
115.3740086783518
 51
180.0
 73
     0
 72
     1
 10
-245.5301785845931
 20
-249.9274852437929
 11
-245.5301785845931
 21
-249.3219499552861
 72
     2
 10
-245.2144616615163
 20
-249.3219499552861
 40
0.3157169230760711
 50
180.0
 51
269.8110329574541
 73
     0
 72
     2
 10
-245.2088455262063
 20
-251.0247849028552
 40
2.018561131933266
 50
269.8110329575858
 51
450.1889670424142
 73
     0
 72
     2
 10
-245.2144616615163
 20
-252.7276198504242
 40
0.315716923076792
 50
90.18896704254585
 51
180.0
 73
     0
 72
     1
 10
-245.5301785845931
 20
-252.7276198504242
 11
-245.5301785845931
 21
-252.1457684437291
 72
     2
 10
-245.2144616615163
 20
-252.1457684437291
 40
0.3157169230765328
 50
180.0
 51
244.6259913216482
 73
     0
 97
        8
330
418
330
3F4
330
3A0
330
417
330
3F5
330
3F6
330
39F
330
3F3
 92
       16
 93
       12
 72
     1
 10
-247.790010348048
 20
-253.9939444444318
 11
-246.3141770870384
 21
-253.9939444444318
 72
     2
 10
-246.3141770870384
 20
-253.6782275213551
 40
0.3157169230767067
 50
270.0
 51
360.0
 73
     1
 72
     1
 10
-245.9984601639618
 20
-253.6782275213551
 11
-245.9984601639618
 21
-252.1474565898235
 72
     2
 10
-246.3141770870384
 20
-252.1474565898235
 40
0.315716923076593
 50
0.0
 51
64.80558935146027
 73
     1
 72
     2
 10
-245.7915926394634
 20
-251.0366268437607
 40
0.9118975235576147
 50
115.1944106485122
 51
244.8055893514718
 73
     0
 72
     2
 10
-246.3141770870384
 20
-249.9257970976985
 40
0.3157169230761203
 50
295.1944106485397
 51
360.0
 73
     1
 72
     1
 10
-245.9984601639618
 20
-249.9257970976985
 11
-245.9984601639618
 21
-249.321772478638
 72
     2
 10
-246.3141770870384
 20
-249.321772478638
 40
0.315716923076593
 50
0.0
 51
90.0
 73
     1
 72
     1
 10
-246.3141770870384
 20
-249.0060555555618
 11
-247.790010348048
 21
-249.0060555555618
 72
     2
 10
-247.790010348048
 20
-249.321772478638
 40
0.3157169230761951
 50
90.0
 51
180.0
 73
     1
 72
     1
 10
-248.1057272711237
 20
-249.321772478638
 11
-248.1057272711237
 21
-253.6782275213551
 72
     2
 10
-247.790010348048
 20
-253.6782275213551
 40
0.3157169230756836
 50
180.0
 51
270.0
 73
     1
 97
       12
330
36C
330
3FD
330
36B
330
40E
330
36A
330
40D
330
3FE
330
3FF
330
369
330
40C
330
364
330
40F
 75
     1
 76
     0
 52
45.0
 41
0.1
 77
     0
 78
     1
 53
45.0
 43
0.0
 44
0.0
 45
-0.0707106781186548
 46
0.0707106781186548
 79
     0
 98
        1
 10
0.0
 20
0.0
  0
HATCH
  5
44D
330
71
100
AcDbEntity
  8
1
  6
Continuous
 62
     2
100
AcDbHatch
 10
0.0
 20
0.0
 30
0.0
210
0.0
220
0.0
230
1.0
  2
_USER
 70
     0
 71
     1
 91
        4
 92
        1
 93
        8
 72
     2
 10
-248.3839050247945
 20
-248.7177446154052
 40
0.4242446153837989
 50
90.0
 51
180.0
 73
     1
 72
     1
 10
-248.8081496401773
 20
-248.7177446154052
 11
-248.8081496401773
 21
-254.2822553846054
 72
     2
 10
-248.3839050247945
 20
-254.2822553846054
 40
0.4242446153828041
 50
180.0
 51
270.0
 73
     1
 72
     1
 10
-248.3839050247945
 20
-254.7064999999887
 11
-242.9105929340777
 21
-254.7064999999887
 72
     2
 10
-242.9105929340777
 20
-254.2822553846054
 40
0.4242446153832873
 50
270.0
 51
360.0
 73
     1
 72
     1
 10
-242.4863483186938
 20
-254.2822553846054
 11
-242.4863483186938
 21
-248.7177446154052
 72
     2
 10
-242.9105929340777
 20
-248.7177446154052
 40
0.4242446153838841
 50
0.0
 51
90.0
 73
     1
 72
     1
 10
-242.9105929340777
 20
-248.2935000000214
 11
-248.3839050247945
 21
-248.2935000000214
 97
        8
330
40A
330
367
330
409
330
368
330
400
330
365
330
40B
330
366
 92
       16
 93
        1
 72
     2
 10
-245.764319374277
 20
-251.0366268437607
 40
0.4709789327785074
 50
0.0
 51
360.0
 73
     1
 97
        1
330
41E
 92
       16
 93
        8
 72
     2
 10
-245.7405043596042
 20
-251.0366268437607
 40
0.911848150144459
 50
295.3740086781764
 51
424.6259913218075
 73
     1
 72
     2
 10
-245.2144616615163
 20
-249.9274852437929
 40
0.315716923076792
 50
115.3740086783518
 51
180.0
 73
     0
 72
     1
 10
-245.5301785845931
 20
-249.9274852437929
 11
-245.5301785845931
 21
-249.3219499552861
 72
     2
 10
-245.2144616615163
 20
-249.3219499552861
 40
0.3157169230760711
 50
180.0
 51
269.8110329574541
 73
     0
 72
     2
 10
-245.2088455262063
 20
-251.0247849028552
 40
2.018561131933266
 50
269.8110329575858
 51
450.1889670424142
 73
     0
 72
     2
 10
-245.2144616615163
 20
-252.7276198504242
 40
0.315716923076792
 50
90.18896704254585
 51
180.0
 73
     0
 72
     1
 10
-245.5301785845931
 20
-252.7276198504242
 11
-245.5301785845931
 21
-252.1457684437291
 72
     2
 10
-245.2144616615163
 20
-252.1457684437291
 40
0.3157169230765328
 50
180.0
 51
244.6259913216482
 73
     0
 97
        8
330
418
330
3F4
330
3A0
330
417
330
3F5
330
3F6
330
39F
330
3F3
 92
       16
 93
       12
 72
     1
 10
-247.790010348048
 20
-253.9939444444318
 11
-246.3141770870384
 21
-253.9939444444318
 72
     2
 10
-246.3141770870384
 20
-253.6782275213551
 40
0.3157169230767067
 50
270.0
 51
360.0
 73
     1
 72
     1
 10
-245.9984601639618
 20
-253.6782275213551
 11
-245.9984601639618
 21
-252.1474565898235
 72
     2
 10
-246.3141770870384
 20
-252.1474565898235
 40
0.315716923076593
 50
0.0
 51
64.80558935146027
 73
     1
 72
     2
 10
-245.7915926394634
 20
-251.0366268437607
 40
0.9118975235576147
 50
115.1944106485122
 51
244.8055893514718
 73
     0
 72
     2
 10
-246.3141770870384
 20
-249.9257970976985
 40
0.3157169230761203
 50
295.1944106485397
 51
360.0
 73
     1
 72
     1
 10
-245.9984601639618
 20
-249.9257970976985
 11
-245.9984601639618
 21
-249.321772478638
 72
     2
 10
-246.3141770870384
 20
-249.321772478638
 40
0.315716923076593
 50
0.0
 51
90.0
 73
     1
 72
     1
 10
-246.3141770870384
 20
-249.0060555555618
 11
-247.790010348048
 21
-249.0060555555618
 72
     2
 10
-247.790010348048
 20
-249.321772478638
 40
0.3157169230761951
 50
90.0
 51
180.0
 73
     1
 72
     1
 10
-248.1057272711237
 20
-249.321772478638
 11
-248.1057272711237
 21
-253.6782275213551
 72
     2
 10
-247.790010348048
 20
-253.6782275213551
 40
0.3157169230756836
 50
180.0
 51
270.0
 73
     1
 97
       12
330
36C
330
3FD
330
36B
330
40E
330
36A
330
40D
330
3FE
330
3FF
330
369
330
40C
330
364
330
40F
 75
     1
 76
     0
 52
45.0
 41
0.1
 77
     0
 78
     1
 53
45.0
 43
0.0
 44
0.0
 45
-0.0707106781186548
 46
0.0707106781186548
 79
     0
 98
        1
 10
0.0
 20
0.0
  0
HATCH
  5
44E
330
71
100
AcDbEntity
  8
1
  6
Continuous
 62
     2
100
AcDbHatch
 10
0.0
 20
0.0
 30
0.0
210
0.0
220
0.0
230
1.0
  2
_USER
 70
     0
 71
     1
 91
        2
 92
        1
 93
       12
 72
     2
 10
-233.7087410208052
 20
-249.8204047619091
 40
1.526904761905882
 50
90.0
 51
270.0
 73
     1
 72
     1
 10
-233.7087410208052
 20
-251.3473095238144
 11
-230.5584212970242
 21
-251.3473095238144
 72
     1
 10
-230.5584212970242
 20
-251.3473095238144
 11
-230.5584212970242
 21
-250.6492959183719
 72
     1
 10
-230.5584212970242
 20
-250.6492959183719
 11
-231.8943491234519
 21
-250.6492959183719
 72
     1
 10
-231.8943491234519
 20
-250.6492959183719
 11
-231.8943491234519
 21
-250.1694115646302
 72
     1
 10
-231.8943491234519
 20
-250.1694115646302
 11
-230.5584212970242
 21
-250.1694115646302
 72
     1
 10
-230.5584212970242
 20
-250.1694115646302
 11
-230.5584212970242
 21
-249.4713979591879
 72
     1
 10
-230.5584212970242
 20
-249.4713979591879
 11
-231.8943491234519
 21
-249.4713979591879
 72
     1
 10
-231.8943491234519
 20
-249.4713979591879
 11
-231.8943491234519
 21
-248.9915136054462
 72
     1
 10
-231.8943491234519
 20
-248.9915136054462
 11
-230.5584212970242
 21
-248.9915136054462
 72
     1
 10
-230.5584212970242
 20
-248.9915136054462
 11
-230.5584212970242
 21
-248.2935000000032
 72
     1
 10
-230.5584212970242
 20
-248.2935000000032
 11
-233.7087410208052
 21
-248.2935000000032
 97
       12
330
35B
330
355
330
37C
330
37B
330
37A
330
379
330
356
330
357
330
358
330
359
330
3FB
330
35A
 92
       16
 93
        4
 72
     2
 10
-233.2927289742937
 20
-249.8204047619091
 40
0.7717997786796724
 50
141.8795802028404
 51
218.1204197971562
 73
     1
 72
     2
 10
-233.49246901064
 20
-249.9771359400295
 40
0.5179085730134372
 50
218.1204197971511
 51
321.8795802028566
 73
     1
 72
     2
 10
-233.6922090469862
 20
-249.8204047619091
 40
0.7717997786796373
 50
321.8795802028437
 51
398.1204197971596
 73
     1
 72
     2
 10
-233.49246901064
 20
-249.6636735837886
 40
0.5179085730135266
 50
38.12041979714334
 51
141.8795802028489
 73
     1
 97
        4
330
408
330
407
330
402
330
401
 75
     1
 76
     0
 52
45.0
 41
0.1
 77
     0
 78
     1
 53
45.0
 43
0.0
 44
0.0
 45
-0.0707106781186548
 46
0.0707106781186548
 79
     0
 98
        1
 10
0.0
 20
0.0
  0
HATCH
  5
44F
330
71
100
AcDbEntity
  8
1
  6
Continuous
 62
     2
100
AcDbHatch
 10
0.0
 20
0.0
 30
0.0
210
0.0
220
0.0
230
1.0
  2
_USER
 70
     0
 71
     1
 91
        2
 92
        1
 93
       12
 72
     2
 10
-233.7087410208052
 20
-249.8204047619091
 40
1.526904761905882
 50
90.0
 51
270.0
 73
     1
 72
     1
 10
-233.7087410208052
 20
-251.3473095238144
 11
-230.5584212970242
 21
-251.3473095238144
 72
     1
 10
-230.5584212970242
 20
-251.3473095238144
 11
-230.5584212970242
 21
-250.6492959183719
 72
     1
 10
-230.5584212970242
 20
-250.6492959183719
 11
-231.8943491234519
 21
-250.6492959183719
 72
     1
 10
-231.8943491234519
 20
-250.6492959183719
 11
-231.8943491234519
 21
-250.1694115646302
 72
     1
 10
-231.8943491234519
 20
-250.1694115646302
 11
-230.5584212970242
 21
-250.1694115646302
 72
     1
 10
-230.5584212970242
 20
-250.1694115646302
 11
-230.5584212970242
 21
-249.4713979591879
 72
     1
 10
-230.5584212970242
 20
-249.4713979591879
 11
-231.8943491234519
 21
-249.4713979591879
 72
     1
 10
-231.8943491234519
 20
-249.4713979591879
 11
-231.8943491234519
 21
-248.9915136054462
 72
     1
 10
-231.8943491234519
 20
-248.9915136054462
 11
-230.5584212970242
 21
-248.9915136054462
 72
     1
 10
-230.5584212970242
 20
-248.9915136054462
 11
-230.5584212970242
 21
-248.2935000000032
 72
     1
 10
-230.5584212970242
 20
-248.2935000000032
 11
-233.7087410208052
 21
-248.2935000000032
 97
       12
330
35B
330
355
330
37C
330
37B
330
37A
330
379
330
356
330
357
330
358
330
359
330
3FB
330
35A
 92
       16
 93
        4
 72
     2
 10
-233.2927289742937
 20
-249.8204047619091
 40
0.7717997786796724
 50
141.8795802028404
 51
218.1204197971562
 73
     1
 72
     2
 10
-233.49246901064
 20
-249.9771359400295
 40
0.5179085730134372
 50
218.1204197971511
 51
321.8795802028566
 73
     1
 72
     2
 10
-233.6922090469862
 20
-249.8204047619091
 40
0.7717997786796373
 50
321.8795802028437
 51
398.1204197971596
 73
     1
 72
     2
 10
-233.49246901064
 20
-249.6636735837886
 40
0.5179085730135266
 50
38.12041979714334
 51
141.8795802028489
 73
     1
 97
        4
330
408
330
407
330
402
330
401
 75
     1
 76
     0
 52
45.0
 41
0.1
 77
     0
 78
     1
 53
45.0
 43
0.0
 44
0.0
 45
-0.0707106781186548
 46
0.0707106781186548
 79
     0
 98
        1
 10
0.0
 20
0.0
  0
HATCH
  5
450
330
71
100
AcDbEntity
  8
1
  6
Continuous
 62
     2
100
AcDbHatch
 10
0.0
 20
0.0
 30
0.0
210
0.0
220
0.0
230
1.0
  2
_USER
 70
     0
 71
     1
 91
        2
 92
        1
 93
        4
 72
     2
 10
-237.7343563832668
 20
-253.1795952380834
 40
1.45803408365149
 50
117.5481481756624
 51
242.4518518243375
 73
     1
 72
     2
 10
-237.4534164914335
 20
-252.6410202277801
 40
2.065479772208509
 50
242.4518518243402
 51
297.5481481756871
 73
     1
 72
     2
 10
-237.1724765996002
 20
-253.1795952380834
 40
1.458034083652003
 50
297.548148175701
 51
422.451851824299
 73
     1
 72
     2
 10
-237.4534164914335
 20
-253.7181702483862
 40
2.065479772208568
 50
62.45185182430637
 51
117.5481481756664
 73
     1
 97
        4
330
406
330
403
330
405
330
404
 92
       16
 93
        4
 72
     2
 10
-237.4534164914335
 20
-253.0228640599629
 40
0.5179085730132998
 50
38.12041979714704
 51
141.8795802028588
 73
     1
 72
     2
 10
-237.2536764550874
 20
-253.1795952380834
 40
0.7717997786794633
 50
141.8795802028363
 51
218.1204197971687
 73
     1
 72
     2
 10
-237.4534164914335
 20
-253.3363264162034
 40
0.5179085730137354
 50
218.1204197971931
 51
321.879580202801
 73
     1
 72
     2
 10
-237.6531565277799
 20
-253.1795952380834
 40
0.7717997786796947
 50
321.8795802028417
 51
398.1204197971533
 73
     1
 97
        4
330
3E9
330
3EA
330
3EB
330
3E8
 75
     1
 76
     0
 52
45.0
 41
0.1
 77
     0
 78
     1
 53
45.0
 43
0.0
 44
0.0
 45
-0.0707106781186548
 46
0.0707106781186548
 79
     0
 98
        1
 10
0.0
 20
0.0
  0
HATCH
  5
451
330
71
100
AcDbEntity
  8
1
  6
Continuous
 62
     2
100
AcDbHatch
 10
0.0
 20
0.0
 30
0.0
210
0.0
220
0.0
230
1.0
  2
_USER
 70
     0
 71
     1
 91
        2
 92
        1
 93
        4
 72
     2
 10
-237.7343563832668
 20
-253.1795952380834
 40
1.45803408365149
 50
117.5481481756624
 51
242.4518518243375
 73
     1
 72
     2
 10
-237.4534164914335
 20
-252.6410202277801
 40
2.065479772208509
 50
242.4518518243402
 51
297.5481481756871
 73
     1
 72
     2
 10
-237.1724765996002
 20
-253.1795952380834
 40
1.458034083652003
 50
297.548148175701
 51
422.451851824299
 73
     1
 72
     2
 10
-237.4534164914335
 20
-253.7181702483862
 40
2.065479772208568
 50
62.45185182430637
 51
117.5481481756664
 73
     1
 97
        4
330
406
330
403
330
405
330
404
 92
       16
 93
        4
 72
     2
 10
-237.4534164914335
 20
-253.0228640599629
 40
0.5179085730132998
 50
38.12041979714704
 51
141.8795802028588
 73
     1
 72
     2
 10
-237.2536764550874
 20
-253.1795952380834
 40
0.7717997786794633
 50
141.8795802028363
 51
218.1204197971687
 73
     1
 72
     2
 10
-237.4534164914335
 20
-253.3363264162034
 40
0.5179085730137354
 50
218.1204197971931
 51
321.879580202801
 73
     1
 72
     2
 10
-237.6531565277799
 20
-253.1795952380834
 40
0.7717997786796947
 50
321.8795802028417
 51
398.1204197971533
 73
     1
 97
        4
330
3E9
330
3EA
330
3EB
330
3E8
 75
     1
 76
     0
 52
45.0
 41
0.1
 77
     0
 78
     1
 53
45.0
 43
0.0
 44
0.0
 45
-0.0707106781186548
 46
0.0707106781186548
 79
     0
 98
        1
 10
0.0
 20
0.0
  0
HATCH
  5
452
330
71
100
AcDbEntity
  8
1
  6
Continuous
 62
     2
100
AcDbHatch
 10
0.0
 20
0.0
 30
0.0
210
0.0
220
0.0
230
1.0
  2
_USER
 70
     0
 71
     1
 91
        2
 92
        1
 93
        6
 72
     1
 10
-242.009231237827
 20
-248.2935000000032
 11
-242.009231237827
 21
-251.3473095238144
 72
     1
 10
-242.009231237827
 20
-251.3473095238144
 11
-240.7687268275729
 21
-251.3473095238144
 72
     1
 10
-240.7687268275729
 20
-251.3473095238144
 11
-240.7687268275729
 21
-250.4042312826706
 72
     1
 10
-240.7687268275729
 20
-250.4042312826706
 11
-240.0099592397926
 21
-250.4042312826706
 72
     2
 10
-240.0099592397926
 20
-249.3488656413369
 40
1.055365641333708
 50
270.0
 51
450.0
 73
     1
 72
     1
 10
-240.0099592397926
 20
-248.2935000000032
 11
-242.009231237827
 21
-248.2935000000032
 97
        6
330
410
330
36D
330
363
330
362
330
36F
330
36E
 92
       16
 93
        4
 72
     1
 10
-240.451431766031
 20
-248.9566058454433
 11
-240.7687268275729
 21
-248.9566058454433
 72
     1
 10
-240.7687268275729
 20
-248.9566058454433
 11
-240.7687268275729
 21
-249.6623334947855
 72
     1
 10
-240.7687268275729
 20
-249.6623334947855
 11
-240.451431766031
 21
-249.6623334947855
 72
     2
 10
-240.451431766031
 20
-249.3094696701144
 40
0.3528638246711182
 50
270.0
 51
450.0
 73
     1
 97
        4
330
370
330
361
330
371
330
3FC
 75
     1
 76
     0
 52
45.0
 41
0.1
 77
     0
 78
     1
 53
45.0
 43
0.0
 44
0.0
 45
-0.0707106781186548
 46
0.0707106781186548
 79
     0
 98
        1
 10
0.0
 20
0.0
  0
HATCH
  5
453
330
71
100
AcDbEntity
  8
1
  6
Continuous
 62
     2
100
AcDbHatch
 10
0.0
 20
0.0
 30
0.0
210
0.0
220
0.0
230
1.0
  2
_USER
 70
     0
 71
     1
 91
        2
 92
        1
 93
        6
 72
     1
 10
-242.009231237827
 20
-248.2935000000032
 11
-242.009231237827
 21
-251.3473095238144
 72
     1
 10
-242.009231237827
 20
-251.3473095238144
 11
-240.7687268275729
 21
-251.3473095238144
 72
     1
 10
-240.7687268275729
 20
-251.3473095238144
 11
-240.7687268275729
 21
-250.4042312826706
 72
     1
 10
-240.7687268275729
 20
-250.4042312826706
 11
-240.0099592397926
 21
-250.4042312826706
 72
     2
 10
-240.0099592397926
 20
-249.3488656413369
 40
1.055365641333708
 50
270.0
 51
450.0
 73
     1
 72
     1
 10
-240.0099592397926
 20
-248.2935000000032
 11
-242.009231237827
 21
-248.2935000000032
 97
        6
330
410
330
36D
330
363
330
362
330
36F
330
36E
 92
       16
 93
        4
 72
     1
 10
-240.451431766031
 20
-248.9566058454433
 11
-240.7687268275729
 21
-248.9566058454433
 72
     1
 10
-240.7687268275729
 20
-248.9566058454433
 11
-240.7687268275729
 21
-249.6623334947855
 72
     1
 10
-240.7687268275729
 20
-249.6623334947855
 11
-240.451431766031
 21
-249.6623334947855
 72
     2
 10
-240.451431766031
 20
-249.3094696701144
 40
0.3528638246711182
 50
270.0
 51
450.0
 73
     1
 97
        4
330
370
330
361
330
371
330
3FC
 75
     1
 76
     0
 52
45.0
 41
0.1
 77
     0
 78
     1
 53
45.0
 43
0.0
 44
0.0
 45
-0.0707106781186548
 46
0.0707106781186548
 79
     0
 98
        1
 10
0.0
 20
0.0
  0
HATCH
  5
454
330
71
100
AcDbEntity
  8
1
  6
Continuous
 62
     2
100
AcDbHatch
 10
0.0
 20
0.0
 30
0.0
210
0.0
220
0.0
230
1.0
  2
_USER
 70
     0
 71
     1
 91
        1
 92
        1
 93
       12
 72
     1
 10
-222.3949480433938
 20
-248.2935000000032
 11
-220.9922238256466
 21
-248.2935000000032
 72
     1
 10
-220.9922238256466
 20
-248.2935000000032
 11
-222.2947534564131
 21
-249.7664505300394
 72
     1
 10
-222.2947534564131
 20
-249.7664505300394
 11
-220.8968004094728
 21
-251.3473095238144
 72
     1
 10
-220.8968004094728
 20
-251.3473095238144
 11
-222.2995246272211
 21
-251.3473095238144
 72
     1
 10
-222.2995246272211
 20
-251.3473095238144
 11
-222.9961155652866
 21
-250.5595777385207
 72
     1
 10
-222.9961155652866
 20
-250.5595777385207
 11
-223.6927065033523
 21
-251.3473095238144
 72
     1
 10
-223.6927065033523
 20
-251.3473095238144
 11
-225.0954307211005
 21
-251.3473095238144
 72
     1
 10
-225.0954307211005
 20
-251.3473095238144
 11
-223.6974776741602
 21
-249.7664505300394
 72
     1
 10
-223.6974776741602
 20
-249.7664505300394
 11
-225.0000073049277
 21
-248.2935000000032
 72
     1
 10
-225.0000073049277
 20
-248.2935000000032
 11
-223.5972830871784
 21
-248.2935000000032
 72
     1
 10
-223.5972830871784
 20
-248.2935000000032
 11
-222.9961155652866
 21
-248.9733233215587
 72
     1
 10
-222.9961155652866
 20
-248.9733233215587
 11
-222.3949480433938
 21
-248.2935000000032
 97
       12
330
33C
330
395
330
394
330
393
330
392
330
33D
330
33E
330
33A
330
33B
330
398
330
397
330
396
 75
     1
 76
     0
 52
45.0
 41
0.1
 77
     0
 78
     1
 53
45.0
 43
0.0
 44
0.0
 45
-0.0707106781186548
 46
0.0707106781186548
 79
     0
 98
        1
 10
0.0
 20
0.0
  0
HATCH
  5
455
330
71
100
AcDbEntity
  8
1
  6
Continuous
 62
     2
100
AcDbHatch
 10
0.0
 20
0.0
 30
0.0
210
0.0
220
0.0
230
1.0
  2
_USER
 70
     0
 71
     1
 91
        1
 92
        1
 93
       12
 72
     1
 10
-222.3949480433938
 20
-248.2935000000032
 11
-220.9922238256466
 21
-248.2935000000032
 72
     1
 10
-220.9922238256466
 20
-248.2935000000032
 11
-222.2947534564131
 21
-249.7664505300394
 72
     1
 10
-222.2947534564131
 20
-249.7664505300394
 11
-220.8968004094728
 21
-251.3473095238144
 72
     1
 10
-220.8968004094728
 20
-251.3473095238144
 11
-222.2995246272211
 21
-251.3473095238144
 72
     1
 10
-222.2995246272211
 20
-251.3473095238144
 11
-222.9961155652866
 21
-250.5595777385207
 72
     1
 10
-222.9961155652866
 20
-250.5595777385207
 11
-223.6927065033523
 21
-251.3473095238144
 72
     1
 10
-223.6927065033523
 20
-251.3473095238144
 11
-225.0954307211005
 21
-251.3473095238144
 72
     1
 10
-225.0954307211005
 20
-251.3473095238144
 11
-223.6974776741602
 21
-249.7664505300394
 72
     1
 10
-223.6974776741602
 20
-249.7664505300394
 11
-225.0000073049277
 21
-248.2935000000032
 72
     1
 10
-225.0000073049277
 20
-248.2935000000032
 11
-223.5972830871784
 21
-248.2935000000032
 72
     1
 10
-223.5972830871784
 20
-248.2935000000032
 11
-222.9961155652866
 21
-248.9733233215587
 72
     1
 10
-222.9961155652866
 20
-248.9733233215587
 11
-222.3949480433938
 21
-248.2935000000032
 97
       12
330
33C
330
395
330
394
330
393
330
392
330
33D
330
33E
330
33A
330
33B
330
398
330
397
330
396
 75
     1
 76
     0
 52
45.0
 41
0.1
 77
     0
 78
     1
 53
45.0
 43
0.0
 44
0.0
 45
-0.0707106781186548
 46
0.0707106781186548
 79
     0
 98
        1
 10
0.0
 20
0.0
  0
HATCH
  5
456
330
71
100
AcDbEntity
  8
1
  6
Continuous
 62
     2
100
AcDbHatch
 10
0.0
 20
0.0
 30
0.0
210
0.0
220
0.0
230
1.0
  2
_USER
 70
     0
 71
     1
 91
        1
 92
        1
 93
        4
 72
     1
 10
-225.2147099913174
 20
-248.2935000000032
 11
-225.2147099913174
 21
-251.3473095238144
 72
     1
 10
-225.2147099913174
 20
-251.3473095238144
 11
-226.4552144015703
 21
-251.3473095238144
 72
     1
 10
-226.4552144015703
 20
-251.3473095238144
 11
-226.4552144015703
 21
-248.2935000000032
 72
     1
 10
-226.4552144015703
 20
-248.2935000000032
 11
-225.2147099913174
 21
-248.2935000000032
 97
        4
330
390
330
33F
330
38F
330
391
 75
     1
 76
     0
 52
45.0
 41
0.1
 77
     0
 78
     1
 53
45.0
 43
0.0
 44
0.0
 45
-0.0707106781186548
 46
0.0707106781186548
 79
     0
 98
        1
 10
0.0
 20
0.0
  0
HATCH
  5
457
330
71
100
AcDbEntity
  8
1
  6
Continuous
 62
     2
100
AcDbHatch
 10
0.0
 20
0.0
 30
0.0
210
0.0
220
0.0
230
1.0
  2
_USER
 70
     0
 71
     1
 91
        1
 92
        1
 93
        4
 72
     1
 10
-225.2147099913174
 20
-248.2935000000032
 11
-225.2147099913174
 21
-251.3473095238144
 72
     1
 10
-225.2147099913174
 20
-251.3473095238144
 11
-226.4552144015703
 21
-251.3473095238144
 72
     1
 10
-226.4552144015703
 20
-251.3473095238144
 11
-226.4552144015703
 21
-248.2935000000032
 72
     1
 10
-226.4552144015703
 20
-248.2935000000032
 11
-225.2147099913174
 21
-248.2935000000032
 97
        4
330
390
330
33F
330
38F
330
391
 75
     1
 76
     0
 52
45.0
 41
0.1
 77
     0
 78
     1
 53
45.0
 43
0.0
 44
0.0
 45
-0.0707106781186548
 46
0.0707106781186548
 79
     0
 98
        1
 10
0.0
 20
0.0
  0
HATCH
  5
458
330
71
100
AcDbEntity
  8
1
  6
Continuous
 62
     2
100
AcDbHatch
 10
0.0
 20
0.0
 30
0.0
210
0.0
220
0.0
230
1.0
  2
_USER
 70
     0
 71
     1
 91
        2
 92
        1
 93
        8
 72
     1
 10
-225.6051539948494
 20
-254.7064999999887
 11
-226.8456584051033
 21
-254.7064999999887
 72
     1
 10
-226.8456584051033
 20
-254.7064999999887
 11
-227.0571384585791
 21
-254.1655394557708
 72
     1
 10
-227.0571384585791
 20
-254.1655394557708
 11
-228.1895800352529
 21
-254.1655394557708
 72
     1
 10
-228.1895800352529
 20
-254.1655394557708
 11
-228.4010600887287
 21
-254.7064999999887
 72
     1
 10
-228.4010600887287
 20
-254.7064999999887
 11
-229.6415644989817
 21
-254.7064999999887
 72
     1
 10
-229.6415644989817
 20
-254.7064999999887
 11
-228.2436114520424
 21
-251.6526904761776
 72
     1
 10
-228.2436114520424
 20
-251.6526904761776
 11
-227.0031070417897
 21
-251.6526904761776
 72
     1
 10
-227.0031070417897
 20
-251.6526904761776
 11
-225.6051539948494
 21
-254.7064999999887
 97
        8
330
38B
330
345
330
38A
330
38D
330
342
330
38C
330
343
330
344
 92
       16
 93
        3
 72
     1
 10
-227.9235244841079
 20
-253.4849761904642
 11
-227.3231940097254
 21
-253.4849761904642
 72
     1
 10
-227.3231940097254
 20
-253.4849761904642
 11
-227.6233592469155
 21
-252.7171612244775
 72
     1
 10
-227.6233592469155
 20
-252.7171612244775
 11
-227.9235244841079
 21
-253.4849761904642
 97
        3
330
341
330
340
330
38E
 75
     1
 76
     0
 52
45.0
 41
0.1
 77
     0
 78
     1
 53
45.0
 43
0.0
 44
0.0
 45
-0.0707106781186548
 46
0.0707106781186548
 79
     0
 98
        1
 10
0.0
 20
0.0
  0
HATCH
  5
459
330
71
100
AcDbEntity
  8
1
  6
Continuous
 62
     2
100
AcDbHatch
 10
0.0
 20
0.0
 30
0.0
210
0.0
220
0.0
230
1.0
  2
_USER
 70
     0
 71
     1
 91
        2
 92
        1
 93
        8
 72
     1
 10
-225.6051539948494
 20
-254.7064999999887
 11
-226.8456584051033
 21
-254.7064999999887
 72
     1
 10
-226.8456584051033
 20
-254.7064999999887
 11
-227.0571384585791
 21
-254.1655394557708
 72
     1
 10
-227.0571384585791
 20
-254.1655394557708
 11
-228.1895800352529
 21
-254.1655394557708
 72
     1
 10
-228.1895800352529
 20
-254.1655394557708
 11
-228.4010600887287
 21
-254.7064999999887
 72
     1
 10
-228.4010600887287
 20
-254.7064999999887
 11
-229.6415644989817
 21
-254.7064999999887
 72
     1
 10
-229.6415644989817
 20
-254.7064999999887
 11
-228.2436114520424
 21
-251.6526904761776
 72
     1
 10
-228.2436114520424
 20
-251.6526904761776
 11
-227.0031070417897
 21
-251.6526904761776
 72
     1
 10
-227.0031070417897
 20
-251.6526904761776
 11
-225.6051539948494
 21
-254.7064999999887
 97
        8
330
38B
330
345
330
38A
330
38D
330
342
330
38C
330
343
330
344
 92
       16
 93
        3
 72
     1
 10
-227.9235244841079
 20
-253.4849761904642
 11
-227.3231940097254
 21
-253.4849761904642
 72
     1
 10
-227.3231940097254
 20
-253.4849761904642
 11
-227.6233592469155
 21
-252.7171612244775
 72
     1
 10
-227.6233592469155
 20
-252.7171612244775
 11
-227.9235244841079
 21
-253.4849761904642
 97
        3
330
341
330
340
330
38E
 75
     1
 76
     0
 52
45.0
 41
0.1
 77
     0
 78
     1
 53
45.0
 43
0.0
 44
0.0
 45
-0.0707106781186548
 46
0.0707106781186548
 79
     0
 98
        1
 10
0.0
 20
0.0
  0
HATCH
  5
45A
330
71
100
AcDbEntity
  8
1
  6
Continuous
 62
     2
100
AcDbHatch
 10
0.0
 20
0.0
 30
0.0
210
0.0
220
0.0
230
1.0
  2
_USER
 70
     0
 71
     1
 91
        1
 92
        1
 93
        8
 72
     1
 10
-231.7990766381639
 20
-251.6526904761776
 11
-231.7990766381639
 21
-252.4379557823012
 72
     1
 10
-231.7990766381639
 20
-252.4379557823012
 11
-230.9879776006893
 21
-252.4379557823012
 72
     1
 10
-230.9879776006893
 20
-252.4379557823012
 11
-230.9879776006893
 21
-254.7064999999887
 72
     1
 10
-230.9879776006893
 20
-254.7064999999887
 11
-229.7951848985228
 21
-254.7064999999887
 72
     1
 10
-229.7951848985228
 20
-254.7064999999887
 11
-229.7951848985228
 21
-252.4379557823012
 72
     1
 10
-229.7951848985228
 20
-252.4379557823012
 11
-228.9840858610503
 21
-252.4379557823012
 72
     1
 10
-228.9840858610503
 20
-252.4379557823012
 11
-228.9840858610503
 21
-251.6526904761776
 72
     1
 10
-228.9840858610503
 20
-251.6526904761776
 11
-231.7990766381639
 21
-251.6526904761776
 97
        8
330
387
330
386
330
385
330
346
330
347
330
389
330
348
330
388
 75
     1
 76
     0
 52
45.0
 41
0.1
 77
     0
 78
     1
 53
45.0
 43
0.0
 44
0.0
 45
-0.0707106781186548
 46
0.0707106781186548
 79
     0
 98
        1
 10
0.0
 20
0.0
  0
HATCH
  5
45B
330
71
100
AcDbEntity
  8
1
  6
Continuous
 62
     2
100
AcDbHatch
 10
0.0
 20
0.0
 30
0.0
210
0.0
220
0.0
230
1.0
  2
_USER
 70
     0
 71
     1
 91
        1
 92
        1
 93
        8
 72
     1
 10
-231.7990766381639
 20
-251.6526904761776
 11
-231.7990766381639
 21
-252.4379557823012
 72
     1
 10
-231.7990766381639
 20
-252.4379557823012
 11
-230.9879776006893
 21
-252.4379557823012
 72
     1
 10
-230.9879776006893
 20
-252.4379557823012
 11
-230.9879776006893
 21
-254.7064999999887
 72
     1
 10
-230.9879776006893
 20
-254.7064999999887
 11
-229.7951848985228
 21
-254.7064999999887
 72
     1
 10
-229.7951848985228
 20
-254.7064999999887
 11
-229.7951848985228
 21
-252.4379557823012
 72
     1
 10
-229.7951848985228
 20
-252.4379557823012
 11
-228.9840858610503
 21
-252.4379557823012
 72
     1
 10
-228.9840858610503
 20
-252.4379557823012
 11
-228.9840858610503
 21
-251.6526904761776
 72
     1
 10
-228.9840858610503
 20
-251.6526904761776
 11
-231.7990766381639
 21
-251.6526904761776
 97
        8
330
387
330
386
330
385
330
346
330
347
330
389
330
348
330
388
 75
     1
 76
     0
 52
45.0
 41
0.1
 77
     0
 78
     1
 53
45.0
 43
0.0
 44
0.0
 45
-0.0707106781186548
 46
0.0707106781186548
 79
     0
 98
        1
 10
0.0
 20
0.0
  0
HATCH
  5
45C
330
71
100
AcDbEntity
  8
1
  6
Continuous
 62
     2
100
AcDbHatch
 10
0.0
 20
0.0
 30
0.0
210
0.0
220
0.0
230
1.0
  2
_USER
 70
     0
 71
     1
 91
        1
 92
        1
 93
       10
 72
     1
 10
-229.1270700544248
 20
-248.2935000000032
 11
-230.3198627565913
 21
-248.2935000000032
 72
     1
 10
-230.3198627565913
 20
-248.2935000000032
 11
-230.3198627565913
 21
-251.3473095238144
 72
     1
 10
-230.3198627565913
 20
-251.3473095238144
 11
-229.1270700544248
 21
-251.3473095238144
 72
     1
 10
-229.1270700544248
 20
-251.3473095238144
 11
-229.1270700544248
 21
-250.0385340136097
 72
     1
 10
-229.1270700544248
 20
-250.0385340136097
 11
-227.8865656441708
 21
-251.3473095238144
 72
     1
 10
-227.8865656441708
 20
-251.3473095238144
 11
-226.6937729420042
 21
-251.3473095238144
 72
     1
 10
-226.6937729420042
 20
-251.3473095238144
 11
-226.6937729420042
 21
-248.2935000000032
 72
     1
 10
-226.6937729420042
 20
-248.2935000000032
 11
-227.8865656441708
 21
-248.2935000000032
 72
     1
 10
-227.8865656441708
 20
-248.2935000000032
 11
-227.8865656441708
 21
-249.6022755102084
 72
     1
 10
-227.8865656441708
 20
-249.6022755102084
 11
-229.1270700544248
 21
-248.2935000000032
 97
       10
330
381
330
34B
330
34C
330
34D
330
34E
330
384
330
349
330
383
330
382
330
34A
 75
     1
 76
     0
 52
45.0
 41
0.1
 77
     0
 78
     1
 53
45.0
 43
0.0
 44
0.0
 45
-0.0707106781186548
 46
0.0707106781186548
 79
     0
 98
        1
 10
0.0
 20
0.0
  0
HATCH
  5
45D
330
71
100
AcDbEntity
  8
1
  6
Continuous
 62
     2
100
AcDbHatch
 10
0.0
 20
0.0
 30
0.0
210
0.0
220
0.0
230
1.0
  2
_USER
 70
     0
 71
     1
 91
        1
 92
        1
 93
       10
 72
     1
 10
-229.1270700544248
 20
-248.2935000000032
 11
-230.3198627565913
 21
-248.2935000000032
 72
     1
 10
-230.3198627565913
 20
-248.2935000000032
 11
-230.3198627565913
 21
-251.3473095238144
 72
     1
 10
-230.3198627565913
 20
-251.3473095238144
 11
-229.1270700544248
 21
-251.3473095238144
 72
     1
 10
-229.1270700544248
 20
-251.3473095238144
 11
-229.1270700544248
 21
-250.0385340136097
 72
     1
 10
-229.1270700544248
 20
-250.0385340136097
 11
-227.8865656441708
 21
-251.3473095238144
 72
     1
 10
-227.8865656441708
 20
-251.3473095238144
 11
-226.6937729420042
 21
-251.3473095238144
 72
     1
 10
-226.6937729420042
 20
-251.3473095238144
 11
-226.6937729420042
 21
-248.2935000000032
 72
     1
 10
-226.6937729420042
 20
-248.2935000000032
 11
-227.8865656441708
 21
-248.2935000000032
 72
     1
 10
-227.8865656441708
 20
-248.2935000000032
 11
-227.8865656441708
 21
-249.6022755102084
 72
     1
 10
-227.8865656441708
 20
-249.6022755102084
 11
-229.1270700544248
 21
-248.2935000000032
 97
       10
330
381
330
34B
330
34C
330
34D
330
34E
330
384
330
349
330
383
330
382
330
34A
 75
     1
 76
     0
 52
45.0
 41
0.1
 77
     0
 78
     1
 53
45.0
 43
0.0
 44
0.0
 45
-0.0707106781186548
 46
0.0707106781186548
 79
     0
 98
        1
 10
0.0
 20
0.0
  0
HATCH
  5
45E
330
71
100
AcDbEntity
  8
1
  6
Continuous
 62
     2
100
AcDbHatch
 10
0.0
 20
0.0
 30
0.0
210
0.0
220
0.0
230
1.0
  2
_USER
 70
     0
 71
     1
 91
        1
 92
        1
 93
       10
 72
     1
 10
-234.3755088748434
 20
-251.6526904761776
 11
-235.568301577011
 21
-251.6526904761776
 72
     1
 10
-235.568301577011
 20
-251.6526904761776
 11
-235.568301577011
 21
-254.7064999999887
 72
     1
 10
-235.568301577011
 20
-254.7064999999887
 11
-234.3755088748434
 21
-254.7064999999887
 72
     1
 10
-234.3755088748434
 20
-254.7064999999887
 11
-234.3755088748434
 21
-253.3977244897841
 72
     1
 10
-234.3755088748434
 20
-253.3977244897841
 11
-233.1350044645905
 21
-254.7064999999887
 72
     1
 10
-233.1350044645905
 20
-254.7064999999887
 11
-231.9422117624241
 21
-254.7064999999887
 72
     1
 10
-231.9422117624241
 20
-254.7064999999887
 11
-231.9422117624241
 21
-251.6526904761776
 72
     1
 10
-231.9422117624241
 20
-251.6526904761776
 11
-233.1350044645905
 21
-251.6526904761776
 72
     1
 10
-233.1350044645905
 20
-251.6526904761776
 11
-233.1350044645905
 21
-252.9614659863827
 72
     1
 10
-233.1350044645905
 20
-252.9614659863827
 11
-234.3755088748434
 21
-251.6526904761776
 97
       10
330
350
330
351
330
352
330
37E
330
353
330
354
330
37D
330
380
330
37F
330
34F
 75
     1
 76
     0
 52
45.0
 41
0.1
 77
     0
 78
     1
 53
45.0
 43
0.0
 44
0.0
 45
-0.0707106781186548
 46
0.0707106781186548
 79
     0
 98
        1
 10
0.0
 20
0.0
  0
HATCH
  5
45F
330
71
100
AcDbEntity
  8
1
  6
Continuous
 62
     2
100
AcDbHatch
 10
0.0
 20
0.0
 30
0.0
210
0.0
220
0.0
230
1.0
  2
_USER
 70
     0
 71
     1
 91
        1
 92
        1
 93
       10
 72
     1
 10
-234.3755088748434
 20
-251.6526904761776
 11
-235.568301577011
 21
-251.6526904761776
 72
     1
 10
-235.568301577011
 20
-251.6526904761776
 11
-235.568301577011
 21
-254.7064999999887
 72
     1
 10
-235.568301577011
 20
-254.7064999999887
 11
-234.3755088748434
 21
-254.7064999999887
 72
     1
 10
-234.3755088748434
 20
-254.7064999999887
 11
-234.3755088748434
 21
-253.3977244897841
 72
     1
 10
-234.3755088748434
 20
-253.3977244897841
 11
-233.1350044645905
 21
-254.7064999999887
 72
     1
 10
-233.1350044645905
 20
-254.7064999999887
 11
-231.9422117624241
 21
-254.7064999999887
 72
     1
 10
-231.9422117624241
 20
-254.7064999999887
 11
-231.9422117624241
 21
-251.6526904761776
 72
     1
 10
-231.9422117624241
 20
-251.6526904761776
 11
-233.1350044645905
 21
-251.6526904761776
 72
     1
 10
-233.1350044645905
 20
-251.6526904761776
 11
-233.1350044645905
 21
-252.9614659863827
 72
     1
 10
-233.1350044645905
 20
-252.9614659863827
 11
-234.3755088748434
 21
-251.6526904761776
 97
       10
330
350
330
351
330
352
330
37E
330
353
330
354
330
37D
330
380
330
37F
330
34F
 75
     1
 76
     0
 52
45.0
 41
0.1
 77
     0
 78
     1
 53
45.0
 43
0.0
 44
0.0
 45
-0.0707106781186548
 46
0.0707106781186548
 79
     0
 98
        1
 10
0.0
 20
0.0
  0
HATCH
  5
460
330
71
100
AcDbEntity
  8
1
  6
Continuous
 62
     2
100
AcDbHatch
 10
0.0
 20
0.0
 30
0.0
210
0.0
220
0.0
230
1.0
  2
_USER
 70
     0
 71
     1
 91
        1
 92
        1
 93
       12
 72
     1
 10
-235.3773038137788
 20
-248.2935000000032
 11
-235.3773038137788
 21
-251.3473095238144
 72
     1
 10
-235.3773038137788
 20
-251.3473095238144
 11
-236.5700965159452
 21
-251.3473095238144
 72
     1
 10
-236.5700965159452
 20
-251.3473095238144
 11
-236.5700965159452
 21
-250.2130374149706
 72
     1
 10
-236.5700965159452
 20
-250.2130374149706
 11
-237.6197540938527
 21
-250.2130374149706
 72
     1
 10
-237.6197540938527
 20
-250.2130374149706
 11
-237.6197540938527
 21
-251.3473095238144
 72
     1
 10
-237.6197540938527
 20
-251.3473095238144
 11
-238.8125467960193
 21
-251.3473095238144
 72
     1
 10
-238.8125467960193
 20
-251.3473095238144
 11
-238.8125467960193
 21
-248.2935000000032
 72
     1
 10
-238.8125467960193
 20
-248.2935000000032
 11
-237.6197540938527
 21
-248.2935000000032
 72
     1
 10
-237.6197540938527
 20
-248.2935000000032
 11
-237.6197540938527
 21
-249.3623333333378
 72
     1
 10
-237.6197540938527
 20
-249.3623333333378
 11
-236.5700965159452
 21
-249.3623333333378
 72
     1
 10
-236.5700965159452
 20
-249.3623333333378
 11
-236.5700965159452
 21
-248.2935000000032
 72
     1
 10
-236.5700965159452
 20
-248.2935000000032
 11
-235.3773038137788
 21
-248.2935000000032
 97
       12
330
378
330
377
330
376
330
35E
330
35F
330
375
330
360
330
374
330
373
330
372
330
35C
330
35D
 75
     1
 76
     0
 52
45.0
 41
0.1
 77
     0
 78
     1
 53
45.0
 43
0.0
 44
0.0
 45
-0.0707106781186548
 46
0.0707106781186548
 79
     0
 98
        1
 10
0.0
 20
0.0
  0
HATCH
  5
461
330
71
100
AcDbEntity
  8
1
  6
Continuous
 62
     2
100
AcDbHatch
 10
0.0
 20
0.0
 30
0.0
210
0.0
220
0.0
230
1.0
  2
_USER
 70
     0
 71
     1
 91
        1
 92
        1
 93
       12
 72
     1
 10
-235.3773038137788
 20
-248.2935000000032
 11
-235.3773038137788
 21
-251.3473095238144
 72
     1
 10
-235.3773038137788
 20
-251.3473095238144
 11
-236.5700965159452
 21
-251.3473095238144
 72
     1
 10
-236.5700965159452
 20
-251.3473095238144
 11
-236.5700965159452
 21
-250.2130374149706
 72
     1
 10
-236.5700965159452
 20
-250.2130374149706
 11
-237.6197540938527
 21
-250.2130374149706
 72
     1
 10
-237.6197540938527
 20
-250.2130374149706
 11
-237.6197540938527
 21
-251.3473095238144
 72
     1
 10
-237.6197540938527
 20
-251.3473095238144
 11
-238.8125467960193
 21
-251.3473095238144
 72
     1
 10
-238.8125467960193
 20
-251.3473095238144
 11
-238.8125467960193
 21
-248.2935000000032
 72
     1
 10
-238.8125467960193
 20
-248.2935000000032
 11
-237.6197540938527
 21
-248.2935000000032
 72
     1
 10
-237.6197540938527
 20
-248.2935000000032
 11
-237.6197540938527
 21
-249.3623333333378
 72
     1
 10
-237.6197540938527
 20
-249.3623333333378
 11
-236.5700965159452
 21
-249.3623333333378
 72
     1
 10
-236.5700965159452
 20
-249.3623333333378
 11
-236.5700965159452
 21
-248.2935000000032
 72
     1
 10
-236.5700965159452
 20
-248.2935000000032
 11
-235.3773038137788
 21
-248.2935000000032
 97
       12
330
378
330
377
330
376
330
35E
330
35F
330
375
330
360
330
374
330
373
330
372
330
35C
330
35D
 75
     1
 76
     0
 52
45.0
 41
0.1
 77
     0
 78
     1
 53
45.0
 43
0.0
 44
0.0
 45
-0.0707106781186548
 46
0.0707106781186548
 79
     0
 98
        1
 10
0.0
 20
0.0
  0
ENDBLK
  5
73
330
71
100
AcDbEntity
  8
0
100
AcDbBlockEnd
  0
BLOCK
  5
75
330
74
100
AcDbEntity
  8
0
100
AcDbBlockBegin
  2
_punkt
 70
     0
 10
-123.4999999999899
 20
-262.000000000005
 30
0.0
  3
_punkt
  1

  0
LINE
  5
462
330
74
100
AcDbEntity
  8
1
  6
Continuous
 62
     2
100
AcDbLine
 10
-123.4999999999899
 20
-262.000000000005
 30
0.0
 11
-123.4999999999899
 21
-267.0000000000051
 31
0.0
  0
LINE
  5
463
330
74
100
AcDbEntity
  8
1
  6
Continuous
 62
     2
100
AcDbLine
 10
-123.4999999999899
 20
-262.000000000005
 30
0.0
 11
-118.4999999999909
 21
-262.000000000005
 31
0.0
  0
ENDBLK
  5
76
330
74
100
AcDbEntity
  8
0
100
AcDbBlockEnd
  0
BLOCK
  5
7A
330
77
100
AcDbEntity
  8
0
100
AcDbBlockBegin
  2
A4I_CS
 70
     0
 10
-123.4999999999899
 20
-267.0000000000051
 30
0.0
  3
A4I_CS
  1

  0
INSERT
  5
78
330
77
100
AcDbEntity
  8
1
100
AcDbBlockReference
  2
_rahmen
 10
-123.4999999999899
 20
-267.0000000000051
 30
0.0
  0
INSERT
  5
79
330
77
100
AcDbEntity
  8
1
100
AcDbBlockReference
  2
_punkt
 10
-123.4999999999899
 20
-262.000000000005
 30
0.0
  0
ENDBLK
  5
7B
330
77
100
AcDbEntity
  8
0
100
AcDbBlockEnd
  0
BLOCK
  5
84
330
7C
100
AcDbEntity
  8
0
100
AcDbBlockBegin
  2
1
 70
     0
 10
0.0
 20
0.0
 30
0.0
  3
1
  1

  0
INSERT
  5
7D
330
7C
100
AcDbEntity
  8
0
100
AcDbBlockReference
  2
Allg1
 10
-161.9999999998406
 20
-192.000000021185
 30
0.0
  0
INSERT
  5
7E
330
7C
100
AcDbEntity
  8
0
100
AcDbBlockReference
  2
Drfsicht1
 10
-299.2499999999986
 20
-182.925002024408
 30
0.0
  0
INSERT
  5
7F
330
7C
100
AcDbEntity
  8
0
100
AcDbBlockReference
  2
Rckans1
 10
-190.7500000000014
 20
-119.000000024409
 30
0.0
  0
INSERT
  5
80
330
7C
100
AcDbEntity
  8
0
100
AcDbBlockReference
  2
SA_Links1
 10
-241.0
 20
-119.0000000488181
 30
0.0
  0
INSERT
  5
81
330
7C
100
AcDbEntity
  8
0
100
AcDbBlockReference
  2
SA_Rechts1
 10
-371.4999999999976
 20
-119.0000000244091
 30
0.0
  0
INSERT
  5
82
330
7C
100
AcDbEntity
  8
0
100
AcDbBlockReference
  2
Vordans1
 10
-299.2499999999986
 20
-119.000000024409
 30
0.0
  0
INSERT
  5
83
330
7C
100
AcDbEntity
  8
0
100
AcDbBlockReference
  2
A4I_CS
 10
-123.4999999999899
 20
-267.0000000000051
 30
0.0
  0
ENDBLK
  5
85
330
7C
100
AcDbEntity
  8
0
100
AcDbBlockEnd
  0
BLOCK
  5
19D
330
196
100
AcDbEntity
  8
0
100
AcDbBlockBegin
  2
*D17
 70
     1
 10
0.0
 20
0.0
 30
0.0
  3
*D17
  1

  0
LINE
  5
197
330
196
100
AcDbEntity
  8
1
  6
Continuous
 62
     2
100
AcDbLine
 10
-330.999999309087
 20
-188.4250020244081
 30
0.0
 11
-330.999999309087
 21
-177.4250020244081
 31
0.0
  0
LINE
  5
198
330
196
100
AcDbEntity
  8
1
  6
Continuous
 62
     2
100
AcDbLine
 10
-320.999999309087
 20
-177.4250020244081
 30
0.0
 11
-332.499999309087
 21
-177.4250020244081
 31
0.0
  0
LINE
  5
199
330
196
100
AcDbEntity
  8
1
  6
Continuous
 62
     2
100
AcDbLine
 10
-320.999999309087
 20
-188.4250020244081
 30
0.0
 11
-332.499999309087
 21
-188.4250020244081
 31
0.0
  0
SOLID
  5
19A
330
196
100
AcDbEntity
  8
1
 62
     2
100
AcDbTrace
 10
-331.4607830506429
 20
-184.9250020244081
 30
0.0
 11
-330.5392155675311
 21
-184.9250020244081
 31
0.0
 12
-330.999999309087
 22
-188.4250020244081
 32
0.0
 13
-330.999999309087
 23
-188.4250020244081
 33
0.0
  0
SOLID
  5
19B
330
196
100
AcDbEntity
  8
1
 62
     2
100
AcDbTrace
 10
-330.5392155675311
 20
-180.9250020244081
 30
0.0
 11
-331.4607830506429
 21
-180.9250020244081
 31
0.0
 12
-330.999999309087
 22
-177.4250020244081
 32
0.0
 13
-330.999999309087
 23
-177.4250020244081
 33
0.0
  0
MTEXT
  5
19C
330
196
100
AcDbEntity
  8
1
 62
     3
100
AcDbMText
 10
-332.499999309087
 20
-184.563073373508
 30
0.0
 40
3.5
 41
0.0
 71
     7
 72
     1
  1
11
  7
CONVERTER_11
 11
0.0
 21
1.0
 31
0.0
 73
     1
 44
0.60024009603842
  0
ENDBLK
  5
19E
330
196
100
AcDbEntity
  8
0
100
AcDbBlockEnd
  0
BLOCK
  5
2FB
330
2F4
100
AcDbEntity
  8
0
100
AcDbBlockBegin
  2
*D18
 70
     1
 10
0.0
 20
0.0
 30
0.0
  3
*D18
  1

  0
LINE
  5
2F5
330
2F4
100
AcDbEntity
  8
1
  6
Continuous
 62
     2
100
AcDbLine
 10
-299.2499993090888
 20
-152.183823702378
 30
0.0
 11
-281.7499993090889
 21
-152.183823702378
 31
0.0
  0
LINE
  5
2F6
330
2F4
100
AcDbEntity
  8
1
  6
Continuous
 62
     2
100
AcDbLine
 10
-281.7499993090889
 20
-139.3250000488188
 30
0.0
 11
-281.7499993090889
 21
-153.683823702378
 31
0.0
  0
LINE
  5
2F7
330
2F4
100
AcDbEntity
  8
1
  6
Continuous
 62
     2
100
AcDbLine
 10
-299.2499993090888
 20
-139.730221247789
 30
0.0
 11
-299.2499993090888
 21
-153.683823702378
 31
0.0
  0
SOLID
  5
2F8
330
2F4
100
AcDbEntity
  8
1
 62
     2
100
AcDbTrace
 10
-295.7499993090888
 20
-151.7230399608221
 30
0.0
 11
-295.7499993090888
 21
-152.6446074439339
 31
0.0
 12
-299.2499993090888
 22
-152.183823702378
 32
0.0
 13
-299.2499993090888
 23
-152.183823702378
 33
0.0
  0
SOLID
  5
2F9
330
2F4
100
AcDbEntity
  8
1
 62
     2
100
AcDbTrace
 10
-285.2499993090889
 20
-152.6446074439339
 30
0.0
 11
-285.2499993090889
 21
-151.7230399608221
 31
0.0
 12
-281.7499993090889
 22
-152.183823702378
 32
0.0
 13
-281.7499993090889
 23
-152.183823702378
 33
0.0
  0
MTEXT
  5
2FA
330
2F4
100
AcDbEntity
  8
1
 62
     3
100
AcDbMText
 10
-294.693037660955
 20
-150.333823702378
 30
0.0
 40
3.5
 41
0.0
 71
     7
 72
     1
  1
17,5
  7
CONVERTER_11
 11
0.9999999999970619
 21
2.424068405545306E-6
 31
0.0
 73
     1
 44
0.60024009603842
  0
ENDBLK
  5
2FC
330
2F4
100
AcDbEntity
  8
0
100
AcDbBlockEnd
  0
BLOCK
  5
306
330
2FF
100
AcDbEntity
  8
0
100
AcDbBlockBegin
  2
*D19
 70
     1
 10
0.0
 20
0.0
 30
0.0
  3
*D19
  1

  0
LINE
  5
300
330
2FF
100
AcDbEntity
  8
1
  6
Continuous
 62
     2
100
AcDbLine
 10
-299.2499993090888
 20
-160.183823702378
 30
0.0
 11
-277.4999993090887
 21
-160.183823702378
 31
0.0
  0
LINE
  5
301
330
2FF
100
AcDbEntity
  8
1
  6
Continuous
 62
     2
100
AcDbLine
 10
-277.4999993090887
 20
-140.9250000488189
 30
0.0
 11
-277.4999993090887
 21
-161.683823702378
 31
0.0
  0
LINE
  5
302
330
2FF
100
AcDbEntity
  8
1
  6
Continuous
 62
     2
100
AcDbLine
 10
-299.2499993090888
 20
-139.730221247789
 30
0.0
 11
-299.2499993090888
 21
-161.683823702378
 31
0.0
  0
SOLID
  5
303
330
2FF
100
AcDbEntity
  8
1
 62
     2
100
AcDbTrace
 10
-295.7499993090888
 20
-159.7230399608221
 30
0.0
 11
-295.7499993090888
 21
-160.6446074439339
 31
0.0
 12
-299.2499993090888
 22
-160.183823702378
 32
0.0
 13
-299.2499993090888
 23
-160.183823702378
 33
0.0
  0
SOLID
  5
304
330
2FF
100
AcDbEntity
  8
1
 62
     2
100
AcDbTrace
 10
-280.9999993090887
 20
-160.6446074439339
 30
0.0
 11
-280.9999993090887
 21
-159.7230399608221
 31
0.0
 12
-277.4999993090887
 22
-160.183823702378
 32
0.0
 13
-277.4999993090887
 23
-160.183823702378
 33
0.0
  0
MTEXT
  5
305
330
2FF
100
AcDbEntity
  8
1
 62
     3
100
AcDbMText
 10
-294.247692910956
 20
-158.333823702378
 30
0.0
 40
3.5
 41
0.0
 71
     7
 72
     1
  1
21,75
  7
CONVERTER_11
 11
0.9999999999970619
 21
2.424068405545306E-6
 31
0.0
 73
     1
 44
0.60024009603842
  0
ENDBLK
  5
307
330
2FF
100
AcDbEntity
  8
0
100
AcDbBlockEnd
  0
BLOCK
  5
311
330
30A
100
AcDbEntity
  8
0
100
AcDbBlockBegin
  2
*D20
 70
     1
 10
0.0
 20
0.0
 30
0.0
  3
*D20
  1

  0
LINE
  5
30B
330
30A
100
AcDbEntity
  8
1
  6
Continuous
 62
     2
100
AcDbLine
 10
-320.9999993090892
 20
-168.183823702378
 30
0.0
 11
-277.4999993090887
 21
-168.183823702378
 31
0.0
  0
LINE
  5
30C
330
30A
100
AcDbEntity
  8
1
  6
Continuous
 62
     2
100
AcDbLine
 10
-277.4999993090887
 20
-140.9250000488189
 30
0.0
 11
-277.4999993090887
 21
-169.683823702378
 31
0.0
  0
LINE
  5
30D
330
30A
100
AcDbEntity
  8
1
  6
Continuous
 62
     2
100
AcDbLine
 10
-320.9999993090892
 20
-144.4250000488165
 30
0.0
 11
-320.9999993090892
 21
-169.683823702378
 31
0.0
  0
SOLID
  5
30E
330
30A
100
AcDbEntity
  8
1
 62
     2
100
AcDbTrace
 10
-317.4999993090892
 20
-167.7230399608221
 30
0.0
 11
-317.4999993090892
 21
-168.6446074439339
 31
0.0
 12
-320.9999993090892
 22
-168.183823702378
 32
0.0
 13
-320.9999993090892
 23
-168.183823702378
 33
0.0
  0
SOLID
  5
30F
330
30A
100
AcDbEntity
  8
1
 62
     2
100
AcDbTrace
 10
-280.9999993090887
 20
-168.6446074439339
 30
0.0
 11
-280.9999993090887
 21
-167.7230399608221
 31
0.0
 12
-277.4999993090887
 22
-168.183823702378
 32
0.0
 13
-277.4999993090887
 23
-168.183823702378
 33
0.0
  0
MTEXT
  5
310
330
30A
100
AcDbEntity
  8
1
 62
     3
100
AcDbMText
 10
-305.620292092594
 20
-166.333823702378
 30
0.0
 40
3.5
 41
0.0
 71
     7
 72
     1
  1
43,5
  7
CONVERTER_11
 11
0.9999999999970619
 21
2.424068405545306E-6
 31
0.0
 73
     1
 44
0.60024009603842
  0
ENDBLK
  5
312
330
30A
100
AcDbEntity
  8
0
100
AcDbBlockEnd
  0
BLOCK
  5
31C
330
315
100
AcDbEntity
  8
0
100
AcDbBlockBegin
  2
*D21
 70
     1
 10
0.0
 20
0.0
 30
0.0
  3
*D21
  1

  0
LINE
  5
316
330
315
100
AcDbEntity
  8
1
  6
Continuous
 62
     2
100
AcDbLine
 10
-330.9999993090869
 20
-138.1250000488189
 30
0.0
 11
-330.9999993090869
 21
-93.57500004881715
 31
0.0
  0
LINE
  5
317
330
315
100
AcDbEntity
  8
1
  6
Continuous
 62
     2
100
AcDbLine
 10
-310.6499993090868
 20
-93.57500004881715
 30
0.0
 11
-332.4999993090869
 21
-93.57500004881715
 31
0.0
  0
LINE
  5
318
330
315
100
AcDbEntity
  8
1
  6
Continuous
 62
     2
100
AcDbLine
 10
-281.7499993090888
 20
-138.1250000488189
 30
0.0
 11
-332.4999993090869
 21
-138.1250000488189
 31
0.0
  0
SOLID
  5
319
330
315
100
AcDbEntity
  8
1
 62
     2
100
AcDbTrace
 10
-331.4607830506428
 20
-134.6250000488189
 30
0.0
 11
-330.539215567531
 21
-134.6250000488189
 31
0.0
 12
-330.9999993090869
 22
-138.1250000488189
 32
0.0
 13
-330.9999993090869
 23
-138.1250000488189
 33
0.0
  0
SOLID
  5
31A
330
315
100
AcDbEntity
  8
1
 62
     2
100
AcDbTrace
 10
-330.539215567531
 20
-97.07500004881715
 30
0.0
 11
-331.4607830506428
 21
-97.07500004881715
 31
0.0
 12
-330.9999993090869
 22
-93.57500004881715
 32
0.0
 13
-330.9999993090869
 23
-93.57500004881715
 33
0.0
  0
MTEXT
  5
31B
330
315
100
AcDbEntity
  8
1
 62
     3
100
AcDbMText
 10
-332.8499993090869
 20
-121.298049068954
 30
0.0
 40
3.5
 41
0.0
 71
     7
 72
     1
  1
44,55
  7
CONVERTER_11
 11
0.0
 21
1.0
 31
0.0
 73
     1
 44
0.60024009603842
  0
ENDBLK
  5
31D
330
315
100
AcDbEntity
  8
0
100
AcDbBlockEnd
  0
BLOCK
  5
327
330
320
100
AcDbEntity
  8
0
100
AcDbBlockBegin
  2
*D22
 70
     1
 10
0.0
 20
0.0
 30
0.0
  3
*D22
  1

  0
LINE
  5
321
330
320
100
AcDbEntity
  8
1
  6
Continuous
 62
     2
100
AcDbLine
 10
-338.9999993090869
 20
-144.4250000488167
 30
0.0
 11
-338.9999993090869
 21
-93.57500004881715
 31
0.0
  0
LINE
  5
322
330
320
100
AcDbEntity
  8
1
  6
Continuous
 62
     2
100
AcDbLine
 10
-310.6499993090868
 20
-93.57500004881715
 30
0.0
 11
-340.4999993090869
 21
-93.57500004881715
 31
0.0
  0
LINE
  5
323
330
320
100
AcDbEntity
  8
1
  6
Continuous
 62
     2
100
AcDbLine
 10
-317.2195829091013
 20
-144.4250000488167
 30
0.0
 11
-340.4999993090869
 21
-144.4250000488167
 31
0.0
  0
SOLID
  5
324
330
320
100
AcDbEntity
  8
1
 62
     2
100
AcDbTrace
 10
-339.4607830506428
 20
-140.9250000488167
 30
0.0
 11
-338.539215567531
 21
-140.9250000488167
 31
0.0
 12
-338.9999993090869
 22
-144.4250000488167
 32
0.0
 13
-338.9999993090869
 23
-144.4250000488167
 33
0.0
  0
SOLID
  5
325
330
320
100
AcDbEntity
  8
1
 62
     2
100
AcDbTrace
 10
-338.539215567531
 20
-97.07500004881715
 30
0.0
 11
-339.4607830506428
 21
-97.07500004881715
 31
0.0
 12
-338.9999993090869
 22
-93.57500004881715
 32
0.0
 13
-338.9999993090869
 23
-93.57500004881715
 33
0.0
  0
MTEXT
  5
326
330
320
100
AcDbEntity
  8
1
 62
     3
100
AcDbMText
 10
-340.8499993090869
 20
-126.186738024218
 30
0.0
 40
3.5
 41
0.0
 71
     7
 72
     1
  1
50,85
  7
CONVERTER_11
 11
0.0
 21
1.0
 31
0.0
 73
     1
 44
0.60024009603842
  0
ENDBLK
  5
328
330
320
100
AcDbEntity
  8
0
100
AcDbBlockEnd
  0
ENDSEC
  0
SECTION
  2
ENTITIES
  0
INSERT
  5
86
330
1F
100
AcDbEntity
  8
1
100
AcDbBlockReference
  2
1
 10
0.0
 20
0.0
 30
0.0
  0
ENDSEC
  0
SECTION
  2
OBJECTS
  0
DICTIONARY
  5
C
330
0
100
AcDbDictionary
281
     1
  3
ACAD_GROUP
350
D
  3
ACAD_LAYOUT
350
1A
  3
ACAD_MATERIAL
350
3B
  3
ACAD_MLEADERSTYLE
350
48B
  3
ACAD_MLINESTYLE
350
17
  3
ACAD_PLOTSETTINGS
350
19
  3
ACAD_PLOTSTYLENAME
350
E
  3
ACAD_TABLESTYLE
350
48A
  3
ACAD_VISUALSTYLE
350
2A
  0
DICTIONARY
  5
D
102
{ACAD_REACTORS
330
C
102
}
330
C
100
AcDbDictionary
281
     1
  0
DICTIONARY
  5
1A
102
{ACAD_REACTORS
330
C
102
}
330
C
100
AcDbDictionary
281
     1
  3
Layout1
350
1E
  3
Layout2
350
26
  3
Model
350
22
  0
DICTIONARY
  5
3B
102
{ACAD_REACTORS
330
C
102
}
330
C
100
AcDbDictionary
281
     1
  3
ByBlock
350
3D
  3
ByLayer
350
3C
  3
Global
350
3E
  0
DICTIONARY
  5
48B
102
{ACAD_REACTORS
330
C
102
}
330
C
100
AcDbDictionary
281
     1
  0
DICTIONARY
  5
17
102
{ACAD_REACTORS
330
C
102
}
330
C
100
AcDbDictionary
281
     1
  3
Standard
350
18
  0
DICTIONARY
  5
19
102
{ACAD_REACTORS
330
C
102
}
330
C
100
AcDbDictionary
281
     1
  0
ACDBDICTIONARYWDFLT
  5
E
102
{ACAD_REACTORS
330
C
102
}
330
C
100
AcDbDictionary
281
     1
  3
Normal
350
F
100
AcDbDictionaryWithDefault
340
F
  0
DICTIONARY
  5
48A
102
{ACAD_REACTORS
330
C
102
}
330
C
100
AcDbDictionary
281
     1
  0
DICTIONARY
  5
2A
102
{ACAD_REACTORS
330
C
102
}
330
C
100
AcDbDictionary
281
     1
  3
2dWireframe
350
2F
  3
3D Hidden
350
31
  3
3dWireframe
350
30
  3
Basic
350
32
  3
Brighten
350
36
  3
ColorChange
350
3A
  3
Conceptual
350
34
  3
Dim
350
35
  3
Facepattern
350
39
  3
Flat
350
2B
  3
FlatWithEdges
350
2C
  3
Gouraud
350
2D
  3
GouraudWithEdges
350
2E
  3
Linepattern
350
38
  3
Realistic
350
33
  3
Thicken
350
37
  0
LAYOUT
  5
1E
102
{ACAD_REACTORS
330
1A
102
}
330
1A
100
AcDbPlotSettings
  1

  2
none_device
  4

  6

 40
0.0
 41
0.0
 42
0.0
 43
0.0
 44
0.0
 45
0.0
 46
0.0
 47
0.0
 48
0.0
 49
0.0
140
0.0
141
0.0
142
1.0
143
1.0
 70
   688
 72
     0
 73
     0
 74
     5
  7

 75
    16
 76
     0
 77
     2
 78
   300
147
1.0
148
0.0
149
0.0
100
AcDbLayout
  1
Layout1
 70
     1
 71
     1
 10
0.0
 20
0.0
 11
12.0
 21
9.0
 12
0.0
 22
0.0
 32
0.0
 14
1.00000000000000E+20
 24
1.00000000000000E+20
 34
1.00000000000000E+20
 15
-1.00000000000000E+20
 25
-1.00000000000000E+20
 35
-1.00000000000000E+20
146
0.0
 13
0.0
 23
0.0
 33
0.0
 16
1.0
 26
0.0
 36
0.0
 17
0.0
 27
1.0
 37
0.0
 76
     0
330
1B
  0
LAYOUT
  5
26
102
{ACAD_REACTORS
330
1A
102
}
330
1A
100
AcDbPlotSettings
  1

  2
none_device
  4

  6

 40
0.0
 41
0.0
 42
0.0
 43
0.0
 44
0.0
 45
0.0
 46
0.0
 47
0.0
 48
0.0
 49
0.0
140
0.0
141
0.0
142
1.0
143
1.0
 70
   688
 72
     0
 73
     0
 74
     5
  7

 75
    16
 76
     0
 77
     2
 78
   300
147
1.0
148
0.0
149
0.0
100
AcDbLayout
  1
Layout2
 70
     1
 71
     2
 10
0.0
 20
0.0
 11
0.0
 21
0.0
 12
0.0
 22
0.0
 32
0.0
 14
0.0
 24
0.0
 34
0.0
 15
0.0
 25
0.0
 35
0.0
146
0.0
 13
0.0
 23
0.0
 33
0.0
 16
1.0
 26
0.0
 36
0.0
 17
0.0
 27
1.0
 37
0.0
 76
     0
330
23
  0
LAYOUT
  5
22
102
{ACAD_REACTORS
330
1A
102
}
330
1A
100
AcDbPlotSettings
  1

  2
none_device
  4

  6

 40
0.0
 41
0.0
 42
0.0
 43
0.0
 44
0.0
 45
0.0
 46
0.0
 47
0.0
 48
0.0
 49
0.0
140
0.0
141
0.0
142
1.0
143
1.0
 70
  1712
 72
     0
 73
     0
 74
     0
  7

 75
     0
 76
     0
 77
     2
 78
   300
147
1.0
148
0.0
149
0.0
100
AcDbLayout
  1
Model
 70
     1
 71
     0
 10
0.0
 20
0.0
 11
12.0
 21
9.0
 12
0.0
 22
0.0
 32
0.0
 14
-415.499999999989
 24
-267.0000000000051
 34
0.0
 15
-118.4999999999909
 25
-57.000000000005
 35
0.0
146
0.0
 13
0.0
 23
0.0
 33
0.0
 16
1.0
 26
0.0
 36
0.0
 17
0.0
 27
1.0
 37
0.0
 76
     0
330
1F
331
29
  0
MATERIAL
  5
3D
102
{ACAD_REACTORS
330
3B
102
}
102
{ACAD_XDICTIONARY
360
486
102
}
330
3B
100
AcDbMaterial
  1
ByBlock
  0
MATERIAL
  5
3C
102
{ACAD_REACTORS
330
3B
102
}
102
{ACAD_XDICTIONARY
360
484
102
}
330
3B
100
AcDbMaterial
  1
ByLayer
  0
MATERIAL
  5
3E
102
{ACAD_REACTORS
330
3B
102
}
102
{ACAD_XDICTIONARY
360
488
102
}
330
3B
100
AcDbMaterial
  1
Global
  0
MLINESTYLE
  5
18
102
{ACAD_REACTORS
330
17
102
}
330
17
100
AcDbMlineStyle
  2
Standard
 70
     0
  3

 62
   256
 51
90.0
 52
90.0
 71
     2
 49
0.5
 62
   256
  6
BYLAYER
 49
-0.5
 62
   256
  6
BYLAYER
  0
ACDBPLACEHOLDER
  5
F
102
{ACAD_REACTORS
330
E
102
}
330
E
  0
VISUALSTYLE
  5
2F
102
{ACAD_REACTORS
330
2A
102
}
102
{ACAD_XDICTIONARY
360
46C
102
}
330
2A
100
AcDbVisualStyle
  2
2dWireframe
 70
     4
 71
     0
 72
     2
 73
     0
 90
        0
 40
-0.6
 41
-30.0
 62
     5
 63
     7
421
 16777215
 74
     1
 91
        4
 64
     7
 65
   257
 75
     1
175
     1
 42
1.0
 92
        0
 66
   257
 43
1.0
 76
     1
 77
     6
 78
     2
 67
     7
 79
     5
170
     0
171
     0
290
     0
174
     0
 93
        1
 44
0.0
173
     0
291
     0
 45
0.0
1001
ACAD
1000
AcDbSavedByObjectVersion
1070
     0
  0
VISUALSTYLE
  5
31
102
{ACAD_REACTORS
330
2A
102
}
102
{ACAD_XDICTIONARY
360
470
102
}
330
2A
100
AcDbVisualStyle
  2
3D Hidden
 70
     6
 71
     1
 72
     2
 73
     2
 90
        0
 40
-0.6
 41
-30.0
 62
     5
 63
     7
421
 16777215
 74
     2
 91
        2
 64
     7
 65
   257
 75
     2
175
     1
 42
40.0
 92
        0
 66
   257
 43
1.0
 76
     1
 77
     6
 78
     2
 67
     7
 79
     3
170
     0
171
     0
290
     0
174
     0
 93
        1
 44
0.0
173
     0
291
     0
 45
0.0
1001
ACAD
1000
AcDbSavedByObjectVersion
1070
     0
  0
VISUALSTYLE
  5
30
102
{ACAD_REACTORS
330
2A
102
}
102
{ACAD_XDICTIONARY
360
46E
102
}
330
2A
100
AcDbVisualStyle
  2
3dWireframe
 70
     5
 71
     0
 72
     2
 73
     0
 90
        0
 40
-0.6
 41
-30.0
 62
     5
 63
     7
421
 16777215
 74
     1
 91
        4
 64
     7
 65
   257
 75
     1
175
     1
 42
1.0
 92
        0
 66
   257
 43
1.0
 76
     1
 77
     6
 78
     2
 67
     7
 79
     5
170
     0
171
     0
290
     0
174
     0
 93
        1
 44
0.0
173
     0
291
     0
 45
0.0
1001
ACAD
1000
AcDbSavedByObjectVersion
1070
     0
  0
VISUALSTYLE
  5
32
102
{ACAD_REACTORS
330
2A
102
}
102
{ACAD_XDICTIONARY
360
472
102
}
330
2A
100
AcDbVisualStyle
  2
Basic
 70
     7
 71
     1
 72
     0
 73
     1
 90
        0
 40
-0.6
 41
-30.0
 62
     5
 63
     7
421
 16777215
 74
     0
 91
        4
 64
     7
 65
   257
 75
     1
175
     1
 42
1.0
 92
        8
 66
     7
 43
1.0
 76
     1
 77
     6
 78
     2
 67
     7
 79
     5
170
     0
171
     0
290
     0
174
     0
 93
        1
 44
0.0
173
     0
291
     1
 45
0.0
1001
ACAD
1000
AcDbSavedByObjectVersion
1070
     0
  0
VISUALSTYLE
  5
36
102
{ACAD_REACTORS
330
2A
102
}
102
{ACAD_XDICTIONARY
360
47A
102
}
330
2A
100
AcDbVisualStyle
  2
Brighten
 70
    12
 71
     2
 72
     2
 73
     0
 90
        0
 40
-0.6
 41
-30.0
 62
     5
 63
     7
421
 16777215
 74
     1
 91
        4
 64
     7
 65
   257
 75
     1
175
     1
 42
1.0
 92
        8
 66
     7
 43
1.0
 76
     1
 77
     6
 78
     2
 67
     7
 79
     5
170
     0
171
     0
290
     0
174
     0
 93
        1
 44
50.0
173
     0
291
     1
 45
0.0
1001
ACAD
1000
AcDbSavedByObjectVersion
1070
     0
  0
VISUALSTYLE
  5
3A
102
{ACAD_REACTORS
330
2A
102
}
102
{ACAD_XDICTIONARY
360
482
102
}
330
2A
100
AcDbVisualStyle
  2
ColorChange
 70
    16
 71
     2
 72
     2
 73
     3
 90
        0
 40
-0.6
 41
-30.0
 62
     5
 63
     8
421
  8421504
 74
     1
 91
        4
 64
     7
 65
   257
 75
     1
175
     1
 42
1.0
 92
        8
 66
     8
424
  8421504
 43
1.0
 76
     1
 77
     6
 78
     2
 67
     7
 79
     5
170
     0
171
     0
290
     0
174
     0
 93
        1
 44
0.0
173
     0
291
     1
 45
0.0
1001
ACAD
1000
AcDbSavedByObjectVersion
1070
     0
  0
VISUALSTYLE
  5
34
102
{ACAD_REACTORS
330
2A
102
}
102
{ACAD_XDICTIONARY
360
476
102
}
330
2A
100
AcDbVisualStyle
  2
Conceptual
 70
     9
 71
     3
 72
     2
 73
     0
 90
        0
 40
-0.6
 41
-30.0
 62
     5
 63
     7
421
 16777215
 74
     2
 91
        2
 64
     7
 65
   257
 75
     1
175
     1
 42
40.0
 92
        8
 66
     7
 43
1.0
 76
     1
 77
     6
 78
     2
 67
     7
 79
     3
170
     0
171
     0
290
     0
174
     0
 93
        1
 44
0.0
173
     0
291
     0
 45
0.0
1001
ACAD
1000
AcDbSavedByObjectVersion
1070
     0
  0
VISUALSTYLE
  5
35
102
{ACAD_REACTORS
330
2A
102
}
102
{ACAD_XDICTIONARY
360
478
102
}
330
2A
100
AcDbVisualStyle
  2
Dim
 70
    11
 71
     2
 72
     2
 73
     0
 90
        0
 40
-0.6
 41
-30.0
 62
     5
 63
     7
421
 16777215
 74
     1
 91
        4
 64
     7
 65
   257
 75
     1
175
     1
 42
1.0
 92
        8
 66
     7
 43
1.0
 76
     1
 77
     6
 78
     2
 67
     7
 79
     5
170
     0
171
     0
290
     0
174
     0
 93
        1
 44
-50.0
173
     0
291
     1
 45
0.0
1001
ACAD
1000
AcDbSavedByObjectVersion
1070
     0
  0
VISUALSTYLE
  5
39
102
{ACAD_REACTORS
330
2A
102
}
102
{ACAD_XDICTIONARY
360
480
102
}
330
2A
100
AcDbVisualStyle
  2
Facepattern
 70
    15
 71
     2
 72
     2
 73
     0
 90
        0
 40
-0.6
 41
-30.0
 62
     5
 63
     7
421
 16777215
 74
     1
 91
        4
 64
     7
 65
   257
 75
     1
175
     1
 42
1.0
 92
        8
 66
     7
 43
1.0
 76
     1
 77
     6
 78
     2
 67
     7
 79
     5
170
     0
171
     0
290
     0
174
     0
 93
        1
 44
0.0
173
     0
291
     1
 45
0.0
1001
ACAD
1000
AcDbSavedByObjectVersion
1070
     0
  0
VISUALSTYLE
  5
2B
102
{ACAD_REACTORS
330
2A
102
}
102
{ACAD_XDICTIONARY
360
464
102
}
330
2A
100
AcDbVisualStyle
  2
Flat
 70
     0
 71
     2
 72
     1
 73
     1
 90
        2
 40
-0.6
 41
30.0
 62
     5
 63
     7
421
 16777215
 74
     0
 91
        4
 64
     7
 65
   257
 75
     1
175
     1
 42
1.0
 92
        8
 66
     7
 43
1.0
 76
     1
 77
     6
 78
     2
 67
     7
 79
     5
170
     0
171
     0
290
     0
174
     0
 93
       13
 44
0.0
173
     0
291
     1
 45
0.0
1001
ACAD
1000
AcDbSavedByObjectVersion
1070
     0
  0
VISUALSTYLE
  5
2C
102
{ACAD_REACTORS
330
2A
102
}
102
{ACAD_XDICTIONARY
360
466
102
}
330
2A
100
AcDbVisualStyle
  2
FlatWithEdges
 70
     1
 71
     2
 72
     1
 73
     1
 90
        2
 40
-0.6
 41
30.0
 62
     5
 63
     7
421
 16777215
 74
     1
 91
        4
 64
     7
 65
   257
 75
     1
175
     1
 42
1.0
 92
        0
 66
   257
 43
1.0
 76
     1
 77
     6
 78
     2
 67
     7
 79
     5
170
     0
171
     0
290
     0
174
     0
 93
       13
 44
0.0
173
     0
291
     1
 45
0.0
1001
ACAD
1000
AcDbSavedByObjectVersion
1070
     0
  0
VISUALSTYLE
  5
2D
102
{ACAD_REACTORS
330
2A
102
}
102
{ACAD_XDICTIONARY
360
468
102
}
330
2A
100
AcDbVisualStyle
  2
Gouraud
 70
     2
 71
     2
 72
     2
 73
     1
 90
        2
 40
-0.6
 41
30.0
 62
     5
 63
     7
421
 16777215
 74
     0
 91
        4
 64
     7
 65
   257
 75
     1
175
     1
 42
1.0
 92
        0
 66
     7
 43
1.0
 76
     1
 77
     6
 78
     2
 67
     7
 79
     5
170
     0
171
     0
290
     0
174
     0
 93
       13
 44
0.0
173
     0
291
     1
 45
0.0
1001
ACAD
1000
AcDbSavedByObjectVersion
1070
     0
  0
VISUALSTYLE
  5
2E
102
{ACAD_REACTORS
330
2A
102
}
102
{ACAD_XDICTIONARY
360
46A
102
}
330
2A
100
AcDbVisualStyle
  2
GouraudWithEdges
 70
     3
 71
     2
 72
     2
 73
     1
 90
        2
 40
-0.6
 41
30.0
 62
     5
 63
     7
421
 16777215
 74
     1
 91
        4
 64
     7
 65
   257
 75
     1
175
     1
 42
1.0
 92
        0
 66
   257
 43
1.0
 76
     1
 77
     6
 78
     2
 67
     7
 79
     5
170
     0
171
     0
290
     0
174
     0
 93
       13
 44
0.0
173
     0
291
     1
 45
0.0
1001
ACAD
1000
AcDbSavedByObjectVersion
1070
     0
  0
VISUALSTYLE
  5
38
102
{ACAD_REACTORS
330
2A
102
}
102
{ACAD_XDICTIONARY
360
47E
102
}
330
2A
100
AcDbVisualStyle
  2
Linepattern
 70
    14
 71
     2
 72
     2
 73
     0
 90
        0
 40
-0.6
 41
-30.0
 62
     5
 63
     7
421
 16777215
 74
     1
 91
        4
 64
     7
 65
   257
 75
     7
175
     7
 42
1.0
 92
        8
 66
     7
 43
1.0
 76
     1
 77
     6
 78
     2
 67
     7
 79
     5
170
     0
171
     0
290
     0
174
     0
 93
        1
 44
0.0
173
     0
291
     1
 45
0.0
1001
ACAD
1000
AcDbSavedByObjectVersion
1070
     0
  0
VISUALSTYLE
  5
33
102
{ACAD_REACTORS
330
2A
102
}
102
{ACAD_XDICTIONARY
360
474
102
}
330
2A
100
AcDbVisualStyle
  2
Realistic
 70
     8
 71
     2
 72
     2
 73
     0
 90
        0
 40
-0.6
 41
-30.0
 62
     5
 63
     7
421
 16777215
 74
     1
 91
        0
 64
     7
 65
   257
 75
     1
175
     1
 42
1.0
 92
        8
 66
     8
424
  7895160
 43
1.0
 76
     1
 77
     6
 78
     2
 67
     7
 79
     5
170
     0
171
     0
290
     0
174
     0
 93
       13
 44
0.0
173
     0
291
     0
 45
0.0
1001
ACAD
1000
AcDbSavedByObjectVersion
1070
     0
  0
VISUALSTYLE
  5
37
102
{ACAD_REACTORS
330
2A
102
}
102
{ACAD_XDICTIONARY
360
47C
102
}
330
2A
100
AcDbVisualStyle
  2
Thicken
 70
    13
 71
     2
 72
     2
 73
     0
 90
        0
 40
-0.6
 41
-30.0
 62
     5
 63
     7
421
 16777215
 74
     1
 91
        4
 64
     7
 65
   257
 75
     1
175
     1
 42
1.0
 92
       12
 66
     7
 43
1.0
 76
     1
 77
     6
 78
     2
 67
     7
 79
     5
170
     0
171
     0
290
     0
174
     0
 93
        1
 44
0.0
173
     0
291
     1
 45
0.0
1001
ACAD
1000
AcDbSavedByObjectVersion
1070
     0
  0
DICTIONARY
  5
486
330
3D
100
AcDbDictionary
280
     1
281
     1
  3
ACAD_XREC_ROUNDTRIP
360
487
  0
DICTIONARY
  5
484
330
3C
100
AcDbDictionary
280
     1
281
     1
  3
ACAD_XREC_ROUNDTRIP
360
485
  0
DICTIONARY
  5
488
330
3E
100
AcDbDictionary
280
     1
281
     1
  3
ACAD_XREC_ROUNDTRIP
360
489
  0
DICTIONARY
  5
46C
330
2F
100
AcDbDictionary
280
     1
281
     1
  3
ACAD_XREC_ROUNDTRIP
360
46D
  0
DICTIONARY
  5
470
330
31
100
AcDbDictionary
280
     1
281
     1
  3
ACAD_XREC_ROUNDTRIP
360
471
  0
DICTIONARY
  5
46E
330
30
100
AcDbDictionary
280
     1
281
     1
  3
ACAD_XREC_ROUNDTRIP
360
46F
  0
DICTIONARY
  5
472
330
32
100
AcDbDictionary
280
     1
281
     1
  3
ACAD_XREC_ROUNDTRIP
360
473
  0
DICTIONARY
  5
47A
330
36
100
AcDbDictionary
280
     1
281
     1
  3
ACAD_XREC_ROUNDTRIP
360
47B
  0
DICTIONARY
  5
482
330
3A
100
AcDbDictionary
280
     1
281
     1
  3
ACAD_XREC_ROUNDTRIP
360
483
  0
DICTIONARY
  5
476
330
34
100
AcDbDictionary
280
     1
281
     1
  3
ACAD_XREC_ROUNDTRIP
360
477
  0
DICTIONARY
  5
478
330
35
100
AcDbDictionary
280
     1
281
     1
  3
ACAD_XREC_ROUNDTRIP
360
479
  0
DICTIONARY
  5
480
330
39
100
AcDbDictionary
280
     1
281
     1
  3
ACAD_XREC_ROUNDTRIP
360
481
  0
DICTIONARY
  5
464
330
2B
100
AcDbDictionary
280
     1
281
     1
  3
ACAD_XREC_ROUNDTRIP
360
465
  0
DICTIONARY
  5
466
330
2C
100
AcDbDictionary
280
     1
281
     1
  3
ACAD_XREC_ROUNDTRIP
360
467
  0
DICTIONARY
  5
468
330
2D
100
AcDbDictionary
280
     1
281
     1
  3
ACAD_XREC_ROUNDTRIP
360
469
  0
DICTIONARY
  5
46A
330
2E
100
AcDbDictionary
280
     1
281
     1
  3
ACAD_XREC_ROUNDTRIP
360
46B
  0
DICTIONARY
  5
47E
330
38
100
AcDbDictionary
280
     1
281
     1
  3
ACAD_XREC_ROUNDTRIP
360
47F
  0
DICTIONARY
  5
474
330
33
100
AcDbDictionary
280
     1
281
     1
  3
ACAD_XREC_ROUNDTRIP
360
475
  0
DICTIONARY
  5
47C
330
37
100
AcDbDictionary
280
     1
281
     1
  3
ACAD_XREC_ROUNDTRIP
360
47D
  0
XRECORD
  5
487
102
{ACAD_REACTORS
330
486
102
}
330
486
100
AcDbXrecord
280
     1
102
MATERIAL
148
0.0
149
0.0
149
0.0
 93
        0
 94
      127
282
     0
 72
     1
 77
     1
171
     1
175
     1
179
     1
273
     0
  0
XRECORD
  5
485
102
{ACAD_REACTORS
330
484
102
}
330
484
100
AcDbXrecord
280
     1
102
MATERIAL
148
0.0
149
0.0
149
0.0
 93
        0
 94
      127
282
     0
 72
     1
 77
     1
171
     1
175
     1
179
     1
273
     0
  0
XRECORD
  5
489
102
{ACAD_REACTORS
330
488
102
}
330
488
100
AcDbXrecord
280
     1
102
MATERIAL
148
0.0
149
0.0
149
0.0
 93
        0
 94
      127
282
     0
 72
     1
 77
     1
171
     1
175
     1
179
     1
273
     0
  0
XRECORD
  5
46D
102
{ACAD_REACTORS
330
46C
102
}
330
46C
100
AcDbXrecord
280
     1
102
RTVSPropertyOp0
 70
     1
102
RTVSPropertyOp1
 70
     1
102
RTVSPropertyOp2
 70
     1
102
RTVSPropertyOp3
 70
     1
102
RTVSPropertyOp4
 70
     1
102
RTVSPropertyOp5
 70
     1
102
RTVSPropertyOp6
 70
     1
102
RTVSPropertyOp7
 70
     1
102
RTVSPropertyOp8
 70
     1
102
RTVSPropertyOp9
 70
     1
102
RTVSPropertyOp10
 70
     1
102
RTVSPropertyOp11
 70
     1
102
RTVSPropertyOp12
 70
     1
102
RTVSPropertyOp13
 70
     1
102
RTVSPropertyOp14
 70
     1
102
RTVSPropertyOp15
 70
     1
102
RTVSPropertyOp16
 70
     1
102
RTVSPropertyOp17
 70
     1
102
RTVSPropertyOp18
 70
     1
102
RTVSPropertyOp19
 70
     1
102
RTVSPropertyOp20
 70
     1
102
RTVSPropertyOp21
 70
     1
102
RTVSPropertyOp22
 70
     1
102
RTVSPropertyOp23
 70
     1
102
RTVSPropertyOp24
 70
     1
102
RTVSPropertyOp25
 70
     1
102
RTVSPropertyOp26
 70
     1
102
RTVSPropertyOp27
 70
     1
102
RTVSPropertyOp28
 70
     1
102
RTVSPropertyOp29
 70
     1
102
RTVSPropertyOp30
 70
     1
102
RTVSPropertyOp31
 70
     1
102
RTVSPropertyOp32
 70
     1
  0
XRECORD
  5
471
102
{ACAD_REACTORS
330
470
102
}
330
470
100
AcDbXrecord
280
     1
102
RTVSPropertyOp0
 70
     1
102
RTVSPropertyOp1
 70
     1
102
RTVSPropertyOp2
 70
     1
102
RTVSPropertyOp3
 70
     1
102
RTVSPropertyOp4
 70
     1
102
RTVSPropertyOp5
 70
     1
102
RTVSPropertyOp6
 70
     1
102
RTVSPropertyOp7
 70
     1
102
RTVSPropertyOp8
 70
     1
102
RTVSPropertyOp9
 70
     1
102
RTVSPropertyOp10
 70
     1
102
RTVSPropertyOp11
 70
     1
102
RTVSPropertyOp12
 70
     1
102
RTVSPropertyOp13
 70
     1
102
RTVSPropertyOp14
 70
     1
102
RTVSPropertyOp15
 70
     1
102
RTVSPropertyOp16
 70
     1
102
RTVSPropertyOp17
 70
     1
102
RTVSPropertyOp18
 70
     1
102
RTVSPropertyOp19
 70
     1
102
RTVSPropertyOp20
 70
     1
102
RTVSPropertyOp21
 70
     1
102
RTVSPropertyOp22
 70
     1
102
RTVSPropertyOp23
 70
     1
102
RTVSPropertyOp24
 70
     1
102
RTVSPropertyOp25
 70
     1
102
RTVSPropertyOp26
 70
     1
102
RTVSPropertyOp27
 70
     1
102
RTVSPropertyOp28
 70
     1
102
RTVSPropertyOp29
 70
     1
102
RTVSPropertyOp30
 70
     1
102
RTVSPropertyOp31
 70
     1
102
RTVSPropertyOp32
 70
     1
  0
XRECORD
  5
46F
102
{ACAD_REACTORS
330
46E
102
}
330
46E
100
AcDbXrecord
280
     1
102
RTVSPropertyOp0
 70
     1
102
RTVSPropertyOp1
 70
     1
102
RTVSPropertyOp2
 70
     1
102
RTVSPropertyOp3
 70
     1
102
RTVSPropertyOp4
 70
     1
102
RTVSPropertyOp5
 70
     1
102
RTVSPropertyOp6
 70
     1
102
RTVSPropertyOp7
 70
     1
102
RTVSPropertyOp8
 70
     1
102
RTVSPropertyOp9
 70
     1
102
RTVSPropertyOp10
 70
     1
102
RTVSPropertyOp11
 70
     1
102
RTVSPropertyOp12
 70
     1
102
RTVSPropertyOp13
 70
     1
102
RTVSPropertyOp14
 70
     1
102
RTVSPropertyOp15
 70
     1
102
RTVSPropertyOp16
 70
     1
102
RTVSPropertyOp17
 70
     1
102
RTVSPropertyOp18
 70
     1
102
RTVSPropertyOp19
 70
     1
102
RTVSPropertyOp20
 70
     1
102
RTVSPropertyOp21
 70
     1
102
RTVSPropertyOp22
 70
     1
102
RTVSPropertyOp23
 70
     1
102
RTVSPropertyOp24
 70
     1
102
RTVSPropertyOp25
 70
     1
102
RTVSPropertyOp26
 70
     1
102
RTVSPropertyOp27
 70
     1
102
RTVSPropertyOp28
 70
     1
102
RTVSPropertyOp29
 70
     1
102
RTVSPropertyOp30
 70
     1
102
RTVSPropertyOp31
 70
     1
102
RTVSPropertyOp32
 70
     1
  0
XRECORD
  5
473
102
{ACAD_REACTORS
330
472
102
}
330
472
100
AcDbXrecord
280
     1
102
RTVSPropertyOp0
 70
     1
102
RTVSPropertyOp1
 70
     1
102
RTVSPropertyOp2
 70
     1
102
RTVSPropertyOp3
 70
     1
102
RTVSPropertyOp4
 70
     1
102
RTVSPropertyOp5
 70
     1
102
RTVSPropertyOp6
 70
     1
102
RTVSPropertyOp7
 70
     1
102
RTVSPropertyOp8
 70
     1
102
RTVSPropertyOp9
 70
     1
102
RTVSPropertyOp10
 70
     1
102
RTVSPropertyOp11
 70
     1
102
RTVSPropertyOp12
 70
     1
102
RTVSPropertyOp13
 70
     1
102
RTVSPropertyOp14
 70
     1
102
RTVSPropertyOp15
 70
     1
102
RTVSPropertyOp16
 70
     1
102
RTVSPropertyOp17
 70
     1
102
RTVSPropertyOp18
 70
     1
102
RTVSPropertyOp19
 70
     1
102
RTVSPropertyOp20
 70
     1
102
RTVSPropertyOp21
 70
     1
102
RTVSPropertyOp22
 70
     1
102
RTVSPropertyOp23
 70
     1
102
RTVSPropertyOp24
 70
     1
102
RTVSPropertyOp25
 70
     1
102
RTVSPropertyOp26
 70
     1
102
RTVSPropertyOp27
 70
     1
102
RTVSPropertyOp28
 70
     1
102
RTVSPropertyOp29
 70
     1
102
RTVSPropertyOp30
 70
     1
102
RTVSPropertyOp31
 70
     1
102
RTVSPropertyOp32
 70
     1
  0
XRECORD
  5
47B
102
{ACAD_REACTORS
330
47A
102
}
330
47A
100
AcDbXrecord
280
     1
102
RTVSPropertyOp0
 70
     1
102
RTVSPropertyOp1
 70
     1
102
RTVSPropertyOp2
 70
     1
102
RTVSPropertyOp3
 70
     1
102
RTVSPropertyOp4
 70
     1
102
RTVSPropertyOp5
 70
     1
102
RTVSPropertyOp6
 70
     1
102
RTVSPropertyOp7
 70
     1
102
RTVSPropertyOp8
 70
     1
102
RTVSPropertyOp9
 70
     1
102
RTVSPropertyOp10
 70
     1
102
RTVSPropertyOp11
 70
     1
102
RTVSPropertyOp12
 70
     1
102
RTVSPropertyOp13
 70
     1
102
RTVSPropertyOp14
 70
     1
102
RTVSPropertyOp15
 70
     1
102
RTVSPropertyOp16
 70
     1
102
RTVSPropertyOp17
 70
     1
102
RTVSPropertyOp18
 70
     1
102
RTVSPropertyOp19
 70
     1
102
RTVSPropertyOp20
 70
     1
102
RTVSPropertyOp21
 70
     1
102
RTVSPropertyOp22
 70
     1
102
RTVSPropertyOp23
 70
     1
102
RTVSPropertyOp24
 70
     1
102
RTVSPropertyOp25
 70
     1
102
RTVSPropertyOp26
 70
     1
102
RTVSPropertyOp27
 70
     1
102
RTVSPropertyOp28
 70
     1
102
RTVSPropertyOp29
 70
     1
102
RTVSPropertyOp30
 70
     1
102
RTVSPropertyOp31
 70
     1
102
RTVSPropertyOp32
 70
     1
  0
XRECORD
  5
483
102
{ACAD_REACTORS
330
482
102
}
330
482
100
AcDbXrecord
280
     1
102
RTVSPropertyOp0
 70
     1
102
RTVSPropertyOp1
 70
     1
102
RTVSPropertyOp2
 70
     1
102
RTVSPropertyOp3
 70
     1
102
RTVSPropertyOp4
 70
     1
102
RTVSPropertyOp5
 70
     1
102
RTVSPropertyOp6
 70
     1
102
RTVSPropertyOp7
 70
     1
102
RTVSPropertyOp8
 70
     1
102
RTVSPropertyOp9
 70
     1
102
RTVSPropertyOp10
 70
     1
102
RTVSPropertyOp11
 70
     1
102
RTVSPropertyOp12
 70
     1
102
RTVSPropertyOp13
 70
     1
102
RTVSPropertyOp14
 70
     1
102
RTVSPropertyOp15
 70
     1
102
RTVSPropertyOp16
 70
     1
102
RTVSPropertyOp17
 70
     1
102
RTVSPropertyOp18
 70
     1
102
RTVSPropertyOp19
 70
     1
102
RTVSPropertyOp20
 70
     1
102
RTVSPropertyOp21
 70
     1
102
RTVSPropertyOp22
 70
     1
102
RTVSPropertyOp23
 70
     1
102
RTVSPropertyOp24
 70
     1
102
RTVSPropertyOp25
 70
     1
102
RTVSPropertyOp26
 70
     1
102
RTVSPropertyOp27
 70
     1
102
RTVSPropertyOp28
 70
     1
102
RTVSPropertyOp29
 70
     1
102
RTVSPropertyOp30
 70
     1
102
RTVSPropertyOp31
 70
     1
102
RTVSPropertyOp32
 70
     1
  0
XRECORD
  5
477
102
{ACAD_REACTORS
330
476
102
}
330
476
100
AcDbXrecord
280
     1
102
RTVSPropertyOp0
 70
     1
102
RTVSPropertyOp1
 70
     1
102
RTVSPropertyOp2
 70
     1
102
RTVSPropertyOp3
 70
     1
102
RTVSPropertyOp4
 70
     1
102
RTVSPropertyOp5
 70
     1
102
RTVSPropertyOp6
 70
     1
102
RTVSPropertyOp7
 70
     1
102
RTVSPropertyOp8
 70
     1
102
RTVSPropertyOp9
 70
     1
102
RTVSPropertyOp10
 70
     1
102
RTVSPropertyOp11
 70
     1
102
RTVSPropertyOp12
 70
     1
102
RTVSPropertyOp13
 70
     1
102
RTVSPropertyOp14
 70
     1
102
RTVSPropertyOp15
 70
     1
102
RTVSPropertyOp16
 70
     1
102
RTVSPropertyOp17
 70
     1
102
RTVSPropertyOp18
 70
     1
102
RTVSPropertyOp19
 70
     1
102
RTVSPropertyOp20
 70
     1
102
RTVSPropertyOp21
 70
     1
102
RTVSPropertyOp22
 70
     1
102
RTVSPropertyOp23
 70
     1
102
RTVSPropertyOp24
 70
     1
102
RTVSPropertyOp25
 70
     1
102
RTVSPropertyOp26
 70
     1
102
RTVSPropertyOp27
 70
     1
102
RTVSPropertyOp28
 70
     1
102
RTVSPropertyOp29
 70
     1
102
RTVSPropertyOp30
 70
     1
102
RTVSPropertyOp31
 70
     1
102
RTVSPropertyOp32
 70
     1
  0
XRECORD
  5
479
102
{ACAD_REACTORS
330
478
102
}
330
478
100
AcDbXrecord
280
     1
102
RTVSPropertyOp0
 70
     1
102
RTVSPropertyOp1
 70
     1
102
RTVSPropertyOp2
 70
     1
102
RTVSPropertyOp3
 70
     1
102
RTVSPropertyOp4
 70
     1
102
RTVSPropertyOp5
 70
     1
102
RTVSPropertyOp6
 70
     1
102
RTVSPropertyOp7
 70
     1
102
RTVSPropertyOp8
 70
     1
102
RTVSPropertyOp9
 70
     1
102
RTVSPropertyOp10
 70
     1
102
RTVSPropertyOp11
 70
     1
102
RTVSPropertyOp12
 70
     1
102
RTVSPropertyOp13
 70
     1
102
RTVSPropertyOp14
 70
     1
102
RTVSPropertyOp15
 70
     1
102
RTVSPropertyOp16
 70
     1
102
RTVSPropertyOp17
 70
     1
102
RTVSPropertyOp18
 70
     1
102
RTVSPropertyOp19
 70
     1
102
RTVSPropertyOp20
 70
     1
102
RTVSPropertyOp21
 70
     1
102
RTVSPropertyOp22
 70
     1
102
RTVSPropertyOp23
 70
     1
102
RTVSPropertyOp24
 70
     1
102
RTVSPropertyOp25
 70
     1
102
RTVSPropertyOp26
 70
     1
102
RTVSPropertyOp27
 70
     1
102
RTVSPropertyOp28
 70
     1
102
RTVSPropertyOp29
 70
     1
102
RTVSPropertyOp30
 70
     1
102
RTVSPropertyOp31
 70
     1
102
RTVSPropertyOp32
 70
     1
  0
XRECORD
  5
481
102
{ACAD_REACTORS
330
480
102
}
330
480
100
AcDbXrecord
280
     1
102
RTVSPropertyOp0
 70
     1
102
RTVSPropertyOp1
 70
     1
102
RTVSPropertyOp2
 70
     1
102
RTVSPropertyOp3
 70
     1
102
RTVSPropertyOp4
 70
     1
102
RTVSPropertyOp5
 70
     1
102
RTVSPropertyOp6
 70
     1
102
RTVSPropertyOp7
 70
     1
102
RTVSPropertyOp8
 70
     1
102
RTVSPropertyOp9
 70
     1
102
RTVSPropertyOp10
 70
     1
102
RTVSPropertyOp11
 70
     1
102
RTVSPropertyOp12
 70
     1
102
RTVSPropertyOp13
 70
     1
102
RTVSPropertyOp14
 70
     1
102
RTVSPropertyOp15
 70
     1
102
RTVSPropertyOp16
 70
     1
102
RTVSPropertyOp17
 70
     1
102
RTVSPropertyOp18
 70
     1
102
RTVSPropertyOp19
 70
     1
102
RTVSPropertyOp20
 70
     1
102
RTVSPropertyOp21
 70
     1
102
RTVSPropertyOp22
 70
     1
102
RTVSPropertyOp23
 70
     1
102
RTVSPropertyOp24
 70
     1
102
RTVSPropertyOp25
 70
     1
102
RTVSPropertyOp26
 70
     1
102
RTVSPropertyOp27
 70
     1
102
RTVSPropertyOp28
 70
     1
102
RTVSPropertyOp29
 70
     1
102
RTVSPropertyOp30
 70
     1
102
RTVSPropertyOp31
 70
     1
102
RTVSPropertyOp32
 70
     1
  0
XRECORD
  5
465
102
{ACAD_REACTORS
330
464
102
}
330
464
100
AcDbXrecord
280
     1
102
RTVSPropertyOp0
 70
     1
102
RTVSPropertyOp1
 70
     1
102
RTVSPropertyOp2
 70
     1
102
RTVSPropertyOp3
 70
     1
102
RTVSPropertyOp4
 70
     1
102
RTVSPropertyOp5
 70
     1
102
RTVSPropertyOp6
 70
     1
102
RTVSPropertyOp7
 70
     1
102
RTVSPropertyOp8
 70
     1
102
RTVSPropertyOp9
 70
     1
102
RTVSPropertyOp10
 70
     1
102
RTVSPropertyOp11
 70
     1
102
RTVSPropertyOp12
 70
     1
102
RTVSPropertyOp13
 70
     1
102
RTVSPropertyOp14
 70
     1
102
RTVSPropertyOp15
 70
     1
102
RTVSPropertyOp16
 70
     1
102
RTVSPropertyOp17
 70
     1
102
RTVSPropertyOp18
 70
     1
102
RTVSPropertyOp19
 70
     1
102
RTVSPropertyOp20
 70
     1
102
RTVSPropertyOp21
 70
     1
102
RTVSPropertyOp22
 70
     1
102
RTVSPropertyOp23
 70
     1
102
RTVSPropertyOp24
 70
     1
102
RTVSPropertyOp25
 70
     1
102
RTVSPropertyOp26
 70
     1
102
RTVSPropertyOp27
 70
     1
102
RTVSPropertyOp28
 70
     1
102
RTVSPropertyOp29
 70
     1
102
RTVSPropertyOp30
 70
     1
102
RTVSPropertyOp31
 70
     1
102
RTVSPropertyOp32
 70
     1
  0
XRECORD
  5
467
102
{ACAD_REACTORS
330
466
102
}
330
466
100
AcDbXrecord
280
     1
102
RTVSPropertyOp0
 70
     1
102
RTVSPropertyOp1
 70
     1
102
RTVSPropertyOp2
 70
     1
102
RTVSPropertyOp3
 70
     1
102
RTVSPropertyOp4
 70
     1
102
RTVSPropertyOp5
 70
     1
102
RTVSPropertyOp6
 70
     1
102
RTVSPropertyOp7
 70
     1
102
RTVSPropertyOp8
 70
     1
102
RTVSPropertyOp9
 70
     1
102
RTVSPropertyOp10
 70
     1
102
RTVSPropertyOp11
 70
     1
102
RTVSPropertyOp12
 70
     1
102
RTVSPropertyOp13
 70
     1
102
RTVSPropertyOp14
 70
     1
102
RTVSPropertyOp15
 70
     1
102
RTVSPropertyOp16
 70
     1
102
RTVSPropertyOp17
 70
     1
102
RTVSPropertyOp18
 70
     1
102
RTVSPropertyOp19
 70
     1
102
RTVSPropertyOp20
 70
     1
102
RTVSPropertyOp21
 70
     1
102
RTVSPropertyOp22
 70
     1
102
RTVSPropertyOp23
 70
     1
102
RTVSPropertyOp24
 70
     1
102
RTVSPropertyOp25
 70
     1
102
RTVSPropertyOp26
 70
     1
102
RTVSPropertyOp27
 70
     1
102
RTVSPropertyOp28
 70
     1
102
RTVSPropertyOp29
 70
     1
102
RTVSPropertyOp30
 70
     1
102
RTVSPropertyOp31
 70
     1
102
RTVSPropertyOp32
 70
     1
  0
XRECORD
  5
469
102
{ACAD_REACTORS
330
468
102
}
330
468
100
AcDbXrecord
280
     1
102
RTVSPropertyOp0
 70
     1
102
RTVSPropertyOp1
 70
     1
102
RTVSPropertyOp2
 70
     1
102
RTVSPropertyOp3
 70
     1
102
RTVSPropertyOp4
 70
     1
102
RTVSPropertyOp5
 70
     1
102
RTVSPropertyOp6
 70
     1
102
RTVSPropertyOp7
 70
     1
102
RTVSPropertyOp8
 70
     1
102
RTVSPropertyOp9
 70
     1
102
RTVSPropertyOp10
 70
     1
102
RTVSPropertyOp11
 70
     1
102
RTVSPropertyOp12
 70
     1
102
RTVSPropertyOp13
 70
     1
102
RTVSPropertyOp14
 70
     1
102
RTVSPropertyOp15
 70
     1
102
RTVSPropertyOp16
 70
     1
102
RTVSPropertyOp17
 70
     1
102
RTVSPropertyOp18
 70
     1
102
RTVSPropertyOp19
 70
     1
102
RTVSPropertyOp20
 70
     1
102
RTVSPropertyOp21
 70
     1
102
RTVSPropertyOp22
 70
     1
102
RTVSPropertyOp23
 70
     1
102
RTVSPropertyOp24
 70
     1
102
RTVSPropertyOp25
 70
     1
102
RTVSPropertyOp26
 70
     1
102
RTVSPropertyOp27
 70
     1
102
RTVSPropertyOp28
 70
     1
102
RTVSPropertyOp29
 70
     1
102
RTVSPropertyOp30
 70
     1
102
RTVSPropertyOp31
 70
     1
102
RTVSPropertyOp32
 70
     1
  0
XRECORD
  5
46B
102
{ACAD_REACTORS
330
46A
102
}
330
46A
100
AcDbXrecord
280
     1
102
RTVSPropertyOp0
 70
     1
102
RTVSPropertyOp1
 70
     1
102
RTVSPropertyOp2
 70
     1
102
RTVSPropertyOp3
 70
     1
102
RTVSPropertyOp4
 70
     1
102
RTVSPropertyOp5
 70
     1
102
RTVSPropertyOp6
 70
     1
102
RTVSPropertyOp7
 70
     1
102
RTVSPropertyOp8
 70
     1
102
RTVSPropertyOp9
 70
     1
102
RTVSPropertyOp10
 70
     1
102
RTVSPropertyOp11
 70
     1
102
RTVSPropertyOp12
 70
     1
102
RTVSPropertyOp13
 70
     1
102
RTVSPropertyOp14
 70
     1
102
RTVSPropertyOp15
 70
     1
102
RTVSPropertyOp16
 70
     1
102
RTVSPropertyOp17
 70
     1
102
RTVSPropertyOp18
 70
     1
102
RTVSPropertyOp19
 70
     1
102
RTVSPropertyOp20
 70
     1
102
RTVSPropertyOp21
 70
     1
102
RTVSPropertyOp22
 70
     1
102
RTVSPropertyOp23
 70
     1
102
RTVSPropertyOp24
 70
     1
102
RTVSPropertyOp25
 70
     1
102
RTVSPropertyOp26
 70
     1
102
RTVSPropertyOp27
 70
     1
102
RTVSPropertyOp28
 70
     1
102
RTVSPropertyOp29
 70
     1
102
RTVSPropertyOp30
 70
     1
102
RTVSPropertyOp31
 70
     1
102
RTVSPropertyOp32
 70
     1
  0
XRECORD
  5
47F
102
{ACAD_REACTORS
330
47E
102
}
330
47E
100
AcDbXrecord
280
     1
102
RTVSPropertyOp0
 70
     1
102
RTVSPropertyOp1
 70
     1
102
RTVSPropertyOp2
 70
     1
102
RTVSPropertyOp3
 70
     1
102
RTVSPropertyOp4
 70
     1
102
RTVSPropertyOp5
 70
     1
102
RTVSPropertyOp6
 70
     1
102
RTVSPropertyOp7
 70
     1
102
RTVSPropertyOp8
 70
     1
102
RTVSPropertyOp9
 70
     1
102
RTVSPropertyOp10
 70
     1
102
RTVSPropertyOp11
 70
     1
102
RTVSPropertyOp12
 70
     1
102
RTVSPropertyOp13
 70
     1
102
RTVSPropertyOp14
 70
     1
102
RTVSPropertyOp15
 70
     1
102
RTVSPropertyOp16
 70
     1
102
RTVSPropertyOp17
 70
     1
102
RTVSPropertyOp18
 70
     1
102
RTVSPropertyOp19
 70
     1
102
RTVSPropertyOp20
 70
     1
102
RTVSPropertyOp21
 70
     1
102
RTVSPropertyOp22
 70
     1
102
RTVSPropertyOp23
 70
     1
102
RTVSPropertyOp24
 70
     1
102
RTVSPropertyOp25
 70
     1
102
RTVSPropertyOp26
 70
     1
102
RTVSPropertyOp27
 70
     1
102
RTVSPropertyOp28
 70
     1
102
RTVSPropertyOp29
 70
     1
102
RTVSPropertyOp30
 70
     1
102
RTVSPropertyOp31
 70
     1
102
RTVSPropertyOp32
 70
     1
  0
XRECORD
  5
475
102
{ACAD_REACTORS
330
474
102
}
330
474
100
AcDbXrecord
280
     1
102
RTVSPropertyOp0
 70
     1
102
RTVSPropertyOp1
 70
     1
102
RTVSPropertyOp2
 70
     1
102
RTVSPropertyOp3
 70
     1
102
RTVSPropertyOp4
 70
     1
102
RTVSPropertyOp5
 70
     1
102
RTVSPropertyOp6
 70
     1
102
RTVSPropertyOp7
 70
     1
102
RTVSPropertyOp8
 70
     1
102
RTVSPropertyOp9
 70
     1
102
RTVSPropertyOp10
 70
     1
102
RTVSPropertyOp11
 70
     1
102
RTVSPropertyOp12
 70
     1
102
RTVSPropertyOp13
 70
     1
102
RTVSPropertyOp14
 70
     1
102
RTVSPropertyOp15
 70
     1
102
RTVSPropertyOp16
 70
     1
102
RTVSPropertyOp17
 70
     1
102
RTVSPropertyOp18
 70
     1
102
RTVSPropertyOp19
 70
     1
102
RTVSPropertyOp20
 70
     1
102
RTVSPropertyOp21
 70
     1
102
RTVSPropertyOp22
 70
     1
102
RTVSPropertyOp23
 70
     1
102
RTVSPropertyOp24
 70
     1
102
RTVSPropertyOp25
 70
     1
102
RTVSPropertyOp26
 70
     1
102
RTVSPropertyOp27
 70
     1
102
RTVSPropertyOp28
 70
     1
102
RTVSPropertyOp29
 70
     1
102
RTVSPropertyOp30
 70
     1
102
RTVSPropertyOp31
 70
     1
102
RTVSPropertyOp32
 70
     1
  0
XRECORD
  5
47D
102
{ACAD_REACTORS
330
47C
102
}
330
47C
100
AcDbXrecord
280
     1
102
RTVSPropertyOp0
 70
     1
102
RTVSPropertyOp1
 70
     1
102
RTVSPropertyOp2
 70
     1
102
RTVSPropertyOp3
 70
     1
102
RTVSPropertyOp4
 70
     1
102
RTVSPropertyOp5
 70
     1
102
RTVSPropertyOp6
 70
     1
102
RTVSPropertyOp7
 70
     1
102
RTVSPropertyOp8
 70
     1
102
RTVSPropertyOp9
 70
     1
102
RTVSPropertyOp10
 70
     1
102
RTVSPropertyOp11
 70
     1
102
RTVSPropertyOp12
 70
     1
102
RTVSPropertyOp13
 70
     1
102
RTVSPropertyOp14
 70
     1
102
RTVSPropertyOp15
 70
     1
102
RTVSPropertyOp16
 70
     1
102
RTVSPropertyOp17
 70
     1
102
RTVSPropertyOp18
 70
     1
102
RTVSPropertyOp19
 70
     1
102
RTVSPropertyOp20
 70
     1
102
RTVSPropertyOp21
 70
     1
102
RTVSPropertyOp22
 70
     1
102
RTVSPropertyOp23
 70
     1
102
RTVSPropertyOp24
 70
     1
102
RTVSPropertyOp25
 70
     1
102
RTVSPropertyOp26
 70
     1
102
RTVSPropertyOp27
 70
     1
102
RTVSPropertyOp28
 70
     1
102
RTVSPropertyOp29
 70
     1
102
RTVSPropertyOp30
 70
     1
102
RTVSPropertyOp31
 70
     1
102
RTVSPropertyOp32
 70
     1
  0
ENDSEC
  0
EOF
