  0
SECTION
  2
HEADER
  9
$ACADVER
  1
AC1018
  9
$ACADMAINTVER
 70
     0
  9
$DWGCODEPAGE
  3
ANSI_1252
  9
$INSBASE
 10
0.0
 20
0.0
 30
0.0
  9
$EXTMIN
 10
-1165.523283024837
 20
-1120.553319155915
 30
0.0
  9
$EXTMAX
 10
-868.5232830248385
 20
-910.5533191559146
 30
0.0
  9
$LIMMIN
 10
0.0
 20
0.0
  9
$LIMMAX
 10
12.0
 20
9.0
  9
$ORTHOMODE
 70
     0
  9
$REGENMODE
 70
     1
  9
$FILLMODE
 70
     1
  9
$QTEXTMODE
 70
     0
  9
$MIRRTEXT
 70
     1
  9
$LTSCALE
 40
1.0
  9
$ATTMODE
 70
     1
  9
$TEXTSIZE
 40
0.2
  9
$TRACEWID
 40
0.05
  9
$TEXTSTYLE
  7
Standard
  9
$CLAYER
  8
0
  9
$CELTYPE
  6
ByLayer
  9
$CECOLOR
 62
   256
  9
$CELTSCALE
 40
1.0
  9
$DISPSILH
 70
     0
  9
$DIMSCALE
 40
1.0
  9
$DIMASZ
 40
0.18
  9
$DIMEXO
 40
0.0625
  9
$DIMDLI
 40
0.38
  9
$DIMRND
 40
0.0
  9
$DIMDLE
 40
0.0
  9
$DIMEXE
 40
0.18
  9
$DIMTP
 40
0.0
  9
$DIMTM
 40
0.0
  9
$DIMTXT
 40
0.18
  9
$DIMCEN
 40
0.09
  9
$DIMTSZ
 40
0.0
  9
$DIMTOL
 70
     0
  9
$DIMLIM
 70
     0
  9
$DIMTIH
 70
     1
  9
$DIMTOH
 70
     1
  9
$DIMSE1
 70
     0
  9
$DIMSE2
 70
     0
  9
$DIMTAD
 70
     0
  9
$DIMZIN
 70
     0
  9
$DIMBLK
  1

  9
$DIMASO
 70
     1
  9
$DIMSHO
 70
     1
  9
$DIMPOST
  1

  9
$DIMAPOST
  1

  9
$DIMALT
 70
     0
  9
$DIMALTD
 70
     2
  9
$DIMALTF
 40
25.4
  9
$DIMLFAC
 40
1.0
  9
$DIMTOFL
 70
     0
  9
$DIMTVP
 40
0.0
  9
$DIMTIX
 70
     0
  9
$DIMSOXD
 70
     0
  9
$DIMSAH
 70
     0
  9
$DIMBLK1
  1

  9
$DIMBLK2
  1

  9
$DIMSTYLE
  2
Standard
  9
$DIMCLRD
 70
     0
  9
$DIMCLRE
 70
     0
  9
$DIMCLRT
 70
     0
  9
$DIMTFAC
 40
1.0
  9
$DIMGAP
 40
0.09
  9
$DIMJUST
 70
     0
  9
$DIMSD1
 70
     0
  9
$DIMSD2
 70
     0
  9
$DIMTOLJ
 70
     1
  9
$DIMTZIN
 70
     0
  9
$DIMALTZ
 70
     0
  9
$DIMALTTZ
 70
     0
  9
$DIMUPT
 70
     0
  9
$DIMDEC
 70
     4
  9
$DIMTDEC
 70
     4
  9
$DIMALTU
 70
     2
  9
$DIMALTTD
 70
     2
  9
$DIMTXSTY
  7
Standard
  9
$DIMAUNIT
 70
     0
  9
$DIMADEC
 70
     0
  9
$DIMALTRND
 40
0.0
  9
$DIMAZIN
 70
     0
  9
$DIMDSEP
 70
    46
  9
$DIMATFIT
 70
     3
  9
$DIMFRAC
 70
     0
  9
$DIMLDRBLK
  1

  9
$DIMLUNIT
 70
     2
  9
$DIMLWD
 70
    -2
  9
$DIMLWE
 70
    -2
  9
$DIMTMOVE
 70
     0
  9
$LUNITS
 70
     2
  9
$LUPREC
 70
     4
  9
$SKETCHINC
 40
0.1
  9
$FILLETRAD
 40
0.5
  9
$AUNITS
 70
     0
  9
$AUPREC
 70
     0
  9
$MENU
  1
.
  9
$ELEVATION
 40
0.0
  9
$PELEVATION
 40
0.0
  9
$THICKNESS
 40
0.0
  9
$LIMCHECK
 70
     0
  9
$CHAMFERA
 40
0.5
  9
$CHAMFERB
 40
0.5
  9
$CHAMFERC
 40
1.0
  9
$CHAMFERD
 40
0.0
  9
$SKPOLY
 70
     0
  9
$TDCREATE
 40
2458102.6266125
  9
$TDUCREATE
 40
2458102.584945833
  9
$TDUPDATE
 40
2458102.626614306
  9
$TDUUPDATE
 40
2458102.584947639
  9
$TDINDWG
 40
0.0000000116
  9
$TDUSRTIMER
 40
0.0000000116
  9
$USRTIMER
 70
     1
  9
$ANGBASE
 50
0.0
  9
$ANGDIR
 70
     0
  9
$PDMODE
 70
     0
  9
$PDSIZE
 40
0.0
  9
$PLINEWID
 40
0.0
  9
$SPLFRAME
 70
     0
  9
$SPLINETYPE
 70
     6
  9
$SPLINESEGS
 70
     8
  9
$HANDSEED
  5
251
  9
$SURFTAB1
 70
     6
  9
$SURFTAB2
 70
     6
  9
$SURFTYPE
 70
     6
  9
$SURFU
 70
     6
  9
$SURFV
 70
     6
  9
$UCSBASE
  2

  9
$UCSNAME
  2

  9
$UCSORG
 10
0.0
 20
0.0
 30
0.0
  9
$UCSXDIR
 10
1.0
 20
0.0
 30
0.0
  9
$UCSYDIR
 10
0.0
 20
1.0
 30
0.0
  9
$UCSORTHOREF
  2

  9
$UCSORTHOVIEW
 70
     0
  9
$UCSORGTOP
 10
0.0
 20
0.0
 30
0.0
  9
$UCSORGBOTTOM
 10
0.0
 20
0.0
 30
0.0
  9
$UCSORGLEFT
 10
0.0
 20
0.0
 30
0.0
  9
$UCSORGRIGHT
 10
0.0
 20
0.0
 30
0.0
  9
$UCSORGFRONT
 10
0.0
 20
0.0
 30
0.0
  9
$UCSORGBACK
 10
0.0
 20
0.0
 30
0.0
  9
$PUCSBASE
  2

  9
$PUCSNAME
  2

  9
$PUCSORG
 10
0.0
 20
0.0
 30
0.0
  9
$PUCSXDIR
 10
1.0
 20
0.0
 30
0.0
  9
$PUCSYDIR
 10
0.0
 20
1.0
 30
0.0
  9
$PUCSORTHOREF
  2

  9
$PUCSORTHOVIEW
 70
     0
  9
$PUCSORGTOP
 10
0.0
 20
0.0
 30
0.0
  9
$PUCSORGBOTTOM
 10
0.0
 20
0.0
 30
0.0
  9
$PUCSORGLEFT
 10
0.0
 20
0.0
 30
0.0
  9
$PUCSORGRIGHT
 10
0.0
 20
0.0
 30
0.0
  9
$PUCSORGFRONT
 10
0.0
 20
0.0
 30
0.0
  9
$PUCSORGBACK
 10
0.0
 20
0.0
 30
0.0
  9
$USERI1
 70
     0
  9
$USERI2
 70
     0
  9
$USERI3
 70
     0
  9
$USERI4
 70
     0
  9
$USERI5
 70
     0
  9
$USERR1
 40
18.1
  9
$USERR2
 40
0.0
  9
$USERR3
 40
0.0
  9
$USERR4
 40
0.0
  9
$USERR5
 40
0.0
  9
$WORLDVIEW
 70
     1
  9
$SHADEDGE
 70
     3
  9
$SHADEDIF
 70
    70
  9
$TILEMODE
 70
     1
  9
$MAXACTVP
 70
    64
  9
$PINSBASE
 10
0.0
 20
0.0
 30
0.0
  9
$PLIMCHECK
 70
     0
  9
$PEXTMIN
 10
1.00000000000000E+20
 20
1.00000000000000E+20
 30
1.00000000000000E+20
  9
$PEXTMAX
 10
-1.00000000000000E+20
 20
-1.00000000000000E+20
 30
-1.00000000000000E+20
  9
$PLIMMIN
 10
0.0
 20
0.0
  9
$PLIMMAX
 10
12.0
 20
9.0
  9
$UNITMODE
 70
     0
  9
$VISRETAIN
 70
     1
  9
$PLINEGEN
 70
     0
  9
$PSLTSCALE
 70
     1
  9
$TREEDEPTH
 70
  3020
  9
$CMLSTYLE
  2
Standard
  9
$CMLJUST
 70
     0
  9
$CMLSCALE
 40
1.0
  9
$PROXYGRAPHICS
 70
     1
  9
$MEASUREMENT
 70
     1
  9
$CELWEIGHT
370
    -1
  9
$ENDCAPS
280
     0
  9
$JOINSTYLE
280
     0
  9
$LWDISPLAY
290
     0
  9
$INSUNITS
 70
     4
  9
$HYPERLINKBASE
  1

  9
$STYLESHEET
  1

  9
$XEDIT
290
     1
  9
$CEPSNTYPE
380
     0
  9
$PSTYLEMODE
290
     1
  9
$FINGERPRINTGUID
  2
{D2CFC9DE-1008-491D-AF08-764240E5A75A}
  9
$VERSIONGUID
  2
{FAEB1C32-E019-11D5-929B-00C0DF256EC4}
  9
$EXTNAMES
290
     1
  9
$PSVPSCALE
 40
0.0
  9
$OLESTARTUP
290
     0
  9
$SORTENTS
280
   127
  9
$INDEXCTL
280
     0
  9
$HIDETEXT
280
     1
  9
$XCLIPFRAME
290
     0
  9
$HALOGAP
280
     0
  9
$OBSCOLOR
 70
   257
  9
$OBSLTYPE
280
     0
  9
$INTERSECTIONDISPLAY
280
     0
  9
$INTERSECTIONCOLOR
 70
   257
  9
$DIMASSOC
280
     2
  9
$PROJECTNAME
  1

  0
ENDSEC
  0
SECTION
  2
CLASSES
  0
CLASS
  1
ACDBDICTIONARYWDFLT
  2
AcDbDictionaryWithDefault
  3
ObjectDBX Classes
 90
        0
 91
        4
280
     0
281
     0
  0
CLASS
  1
VISUALSTYLE
  2
AcDbVisualStyle
  3
ObjectDBX Classes
 90
     4095
 91
        4
280
     0
281
     0
  0
CLASS
  1
MATERIAL
  2
AcDbMaterial
  3
ObjectDBX Classes
 90
     1153
 91
        4
280
     0
281
     0
  0
ENDSEC
  0
SECTION
  2
TABLES
  0
TABLE
  2
VPORT
  5
8
330
0
100
AcDbSymbolTable
 70
     1
  0
VPORT
  5
29
330
8
100
AcDbSymbolTableRecord
100
AcDbViewportTableRecord
  2
*Active
 70
     0
 10
0.0
 20
0.0
 11
1.0
 21
1.0
 12
-1017.023283024838
 22
-1015.553319155915
 13
0.0
 23
0.0
 14
0.5
 24
0.5
 15
0.5
 25
0.5
 16
0.0
 26
0.0
 36
1.0
 17
0.0
 27
0.0
 37
0.0
 40
231.0000000000005
 41
1.60267857142857
 42
50.0
 43
0.0
 44
0.0
 50
0.0
 51
0.0
 71
     0
 72
   100
 73
     1
 74
     3
 75
     0
 76
     0
 77
     0
 78
     0
281
     0
 65
     1
110
0.0
120
0.0
130
0.0
111
1.0
121
0.0
131
0.0
112
0.0
122
1.0
132
0.0
 79
     0
146
0.0
  0
ENDTAB
  0
TABLE
  2
LTYPE
  5
5
330
0
100
AcDbSymbolTable
 70
     8
  0
LTYPE
  5
14
330
5
100
AcDbSymbolTableRecord
100
AcDbLinetypeTableRecord
  2
ByBlock
 70
     0
  3

 72
    65
 73
     0
 40
0.0
  0
LTYPE
  5
15
330
5
100
AcDbSymbolTableRecord
100
AcDbLinetypeTableRecord
  2
ByLayer
 70
     0
  3

 72
    65
 73
     0
 40
0.0
  0
LTYPE
  5
16
330
5
100
AcDbSymbolTableRecord
100
AcDbLinetypeTableRecord
  2
Continuous
 70
     0
  3
Solid line
 72
    65
 73
     0
 40
0.0
  0
LTYPE
  5
3F
330
5
100
AcDbSymbolTableRecord
100
AcDbLinetypeTableRecord
  2
DASHED
 70
     0
  3
Dashed
 72
    65
 73
     2
 40
15.0
 49
7.0
 74
     0
 49
-8.0
 74
     0
  0
LTYPE
  5
40
330
5
100
AcDbSymbolTableRecord
100
AcDbLinetypeTableRecord
  2
DOTTED
 70
     0
  3
Dotted
 72
    65
 73
     2
 40
1.0
 49
0.0
 74
     0
 49
-1.0
 74
     0
  0
LTYPE
  5
41
330
5
100
AcDbSymbolTableRecord
100
AcDbLinetypeTableRecord
  2
DOT_CENTER
 70
     0
  3
Dot_Center
 72
    65
 73
     4
 40
14.0
 49
12.0
 74
     0
 49
-1.0
 74
     0
 49
0.0
 74
     0
 49
-1.0
 74
     0
  0
LTYPE
  5
42
330
5
100
AcDbSymbolTableRecord
100
AcDbLinetypeTableRecord
  2
LONG_DASHED
 70
     0
  3
Long_Dashed
 72
    65
 73
     2
 40
15.0
 49
10.0
 74
     0
 49
-5.0
 74
     0
  0
LTYPE
  5
43
330
5
100
AcDbSymbolTableRecord
100
AcDbLinetypeTableRecord
  2
DASH_CENTER
 70
     0
  3
Dash_Center
 72
    65
 73
     4
 40
14.0
 49
11.0
 74
     0
 49
-1.0
 74
     0
 49
1.0
 74
     0
 49
-1.0
 74
     0
  0
LTYPE
  5
44
330
5
100
AcDbSymbolTableRecord
100
AcDbLinetypeTableRecord
  2
PHANTOM
 70
     0
  3
Phantom
 72
    65
 73
     6
 40
13.0
 49
10.0
 74
     0
 49
-1.0
 74
     0
 49
0.0
 74
     0
 49
-1.0
 74
     0
 49
0.0
 74
     0
 49
-1.0
 74
     0
  0
LTYPE
  5
45
330
5
100
AcDbSymbolTableRecord
100
AcDbLinetypeTableRecord
  2
CENTER_DASH_DASH
 70
     0
  3
Center_Dash_Dash
 72
    65
 73
     6
 40
14.0
 49
9.0
 74
     0
 49
-1.0
 74
     0
 49
1.0
 74
     0
 49
-1.0
 74
     0
 49
1.0
 74
     0
 49
-1.0
 74
     0
  0
ENDTAB
  0
TABLE
  2
LAYER
  5
2
330
0
100
AcDbSymbolTable
 70
     2
  0
LAYER
  5
10
330
2
100
AcDbSymbolTableRecord
100
AcDbLayerTableRecord
  2
0
 70
     0
 62
     7
  6
Continuous
370
    -3
390
F
  0
LAYER
  5
46
330
2
100
AcDbSymbolTableRecord
100
AcDbLayerTableRecord
  2
1
 70
     0
 62
     7
  6
Continuous
370
    -3
390
F
  0
ENDTAB
  0
TABLE
  2
STYLE
  5
3
330
0
100
AcDbSymbolTable
 70
     5
  0
STYLE
  5
11
330
3
100
AcDbSymbolTableRecord
100
AcDbTextStyleTableRecord
  2
Standard
 70
     0
 40
0.0
 41
1.0
 50
0.0
 71
     0
 42
0.2
  3
txt
  4

  0
STYLE
  5
9A
330
3
100
AcDbSymbolTableRecord
100
AcDbTextStyleTableRecord
  2
CONVERTER_11
 70
     0
 40
0.0
 41
0.9
 50
0.0
 71
     0
 42
0.2
  3
txt.shx
  4

  0
STYLE
  5
1EC
330
3
100
AcDbSymbolTableRecord
100
AcDbTextStyleTableRecord
  2
CONVERTER_12
 70
     0
 40
0.0
 41
0.81
 50
0.0
 71
     0
 42
0.2
  3
txt.shx
  4

  0
STYLE
  5
202
330
3
100
AcDbSymbolTableRecord
100
AcDbTextStyleTableRecord
  2
CONVERTER_13
 70
     0
 40
0.0
 41
0.72
 50
0.0
 71
     0
 42
0.2
  3
txt.shx
  4

  0
STYLE
  5
205
330
3
100
AcDbSymbolTableRecord
100
AcDbTextStyleTableRecord
  2
CONVERTER_14
 70
     0
 40
0.0
 41
0.855
 50
0.0
 71
     0
 42
0.2
  3
txt.shx
  4

  0
ENDTAB
  0
TABLE
  2
VIEW
  5
6
330
0
100
AcDbSymbolTable
 70
     0
  0
ENDTAB
  0
TABLE
  2
UCS
  5
7
330
0
100
AcDbSymbolTable
 70
     0
  0
ENDTAB
  0
TABLE
  2
APPID
  5
9
330
0
100
AcDbSymbolTable
 70
     1
  0
APPID
  5
12
330
9
100
AcDbSymbolTableRecord
100
AcDbRegAppTableRecord
  2
ACAD
 70
     0
  0
ENDTAB
  0
TABLE
  2
DIMSTYLE
  5
A
330
0
100
AcDbSymbolTable
 70
     4
100
AcDbDimStyleTable
  0
DIMSTYLE
105
27
330
A
100
AcDbSymbolTableRecord
100
AcDbDimStyleTableRecord
  2
Standard
 70
     0
178
     0
340
11
  0
DIMSTYLE
105
B2
102
{ACAD_REACTORS
330
B3
102
}
330
A
100
AcDbSymbolTableRecord
100
AcDbDimStyleTableRecord
  2
ME10_DIM_10
 70
     0
 41
3.5
 42
0.0
 44
1.5
 73
     0
 74
     0
 77
     1
 78
     8
140
3.5
147
1.5
172
     1
173
     1
174
     1
175
     1
176
     2
177
     2
178
     3
340
9A
  0
DIMSTYLE
105
E3
102
{ACAD_REACTORS
330
E4
102
}
330
A
100
AcDbSymbolTableRecord
100
AcDbDimStyleTableRecord
  2
ME10_DIM_11
 70
     0
 41
3.5
 42
0.0
 44
2.0
 73
     0
 74
     0
 77
     1
 78
     8
140
3.5
147
2.0
172
     1
173
     1
174
     1
175
     1
176
     2
177
     2
178
     3
340
9A
  0
DIMSTYLE
105
EE
102
{ACAD_REACTORS
330
EF
102
}
330
A
100
AcDbSymbolTableRecord
100
AcDbDimStyleTableRecord
  2
ME10_DIM_12
 70
     0
 41
3.5
 42
0.0
 44
2.0
 73
     0
 74
     0
 77
     1
 78
     8
140
3.5
147
2.0
172
     1
173
     1
174
     1
175
     1
176
     2
177
     2
178
     3
340
9A
  0
ENDTAB
  0
TABLE
  2
BLOCK_RECORD
  5
1
330
0
100
AcDbSymbolTable
 70
    20
  0
BLOCK_RECORD
  5
1F
330
1
100
AcDbSymbolTableRecord
100
AcDbBlockTableRecord
  2
*Model_Space
340
22
  0
BLOCK_RECORD
  5
1B
330
1
100
AcDbSymbolTableRecord
100
AcDbBlockTableRecord
  2
*Paper_Space
340
1E
  0
BLOCK_RECORD
  5
23
330
1
100
AcDbSymbolTableRecord
100
AcDbBlockTableRecord
  2
*Paper_Space0
340
26
  0
BLOCK_RECORD
  5
47
330
1
100
AcDbSymbolTableRecord
100
AcDbBlockTableRecord
  2
D-OTTA_2_5-select__1
340
0
102
{BLKREFS
331
4B
102
}
  0
BLOCK_RECORD
  5
4A
330
1
100
AcDbSymbolTableRecord
100
AcDbBlockTableRecord
  2
AllgSicht1
340
0
102
{BLKREFS
331
7D
102
}
  0
BLOCK_RECORD
  5
4E
330
1
100
AcDbSymbolTableRecord
100
AcDbBlockTableRecord
  2
D-OTTA_2_5-select__2
340
0
102
{BLKREFS
331
52
102
}
  0
BLOCK_RECORD
  5
51
330
1
100
AcDbSymbolTableRecord
100
AcDbBlockTableRecord
  2
Drfsicht1
340
0
102
{BLKREFS
331
7E
102
}
  0
BLOCK_RECORD
  5
55
330
1
100
AcDbSymbolTableRecord
100
AcDbBlockTableRecord
  2
D-OTTA_2_5-select__3
340
0
102
{BLKREFS
331
59
102
}
  0
BLOCK_RECORD
  5
58
330
1
100
AcDbSymbolTableRecord
100
AcDbBlockTableRecord
  2
Rckans1
340
0
102
{BLKREFS
331
7F
102
}
  0
BLOCK_RECORD
  5
5C
330
1
100
AcDbSymbolTableRecord
100
AcDbBlockTableRecord
  2
D-OTTA_2_5-select__4
340
0
102
{BLKREFS
331
60
102
}
  0
BLOCK_RECORD
  5
5F
330
1
100
AcDbSymbolTableRecord
100
AcDbBlockTableRecord
  2
SA_Rechts1
340
0
102
{BLKREFS
331
80
102
}
  0
BLOCK_RECORD
  5
63
330
1
100
AcDbSymbolTableRecord
100
AcDbBlockTableRecord
  2
D-OTTA_2_5-select__5
340
0
102
{BLKREFS
331
67
102
}
  0
BLOCK_RECORD
  5
66
330
1
100
AcDbSymbolTableRecord
100
AcDbBlockTableRecord
  2
SA_links1
340
0
102
{BLKREFS
331
81
102
}
  0
BLOCK_RECORD
  5
6A
330
1
100
AcDbSymbolTableRecord
100
AcDbBlockTableRecord
  2
D-OTTA_2_5-select__6
340
0
102
{BLKREFS
331
6E
102
}
  0
BLOCK_RECORD
  5
6D
330
1
100
AcDbSymbolTableRecord
100
AcDbBlockTableRecord
  2
Vordans1
340
0
102
{BLKREFS
331
82
102
}
  0
BLOCK_RECORD
  5
71
330
1
100
AcDbSymbolTableRecord
100
AcDbBlockTableRecord
  2
_rahmen
340
0
102
{BLKREFS
331
78
102
}
  0
BLOCK_RECORD
  5
74
330
1
100
AcDbSymbolTableRecord
100
AcDbBlockTableRecord
  2
_punkt
340
0
102
{BLKREFS
331
79
102
}
  0
BLOCK_RECORD
  5
77
330
1
100
AcDbSymbolTableRecord
100
AcDbBlockTableRecord
  2
A4I_CS
340
0
102
{BLKREFS
331
83
102
}
  0
BLOCK_RECORD
  5
7C
330
1
100
AcDbSymbolTableRecord
100
AcDbBlockTableRecord
  2
1
340
0
102
{BLKREFS
331
86
102
}
  0
BLOCK_RECORD
  5
A7
330
1
100
AcDbSymbolTableRecord
100
AcDbBlockTableRecord
  2
*D17
340
0
  0
BLOCK_RECORD
  5
DA
330
1
100
AcDbSymbolTableRecord
100
AcDbBlockTableRecord
  2
*D18
340
0
  0
BLOCK_RECORD
  5
E5
330
1
100
AcDbSymbolTableRecord
100
AcDbBlockTableRecord
  2
*D19
340
0
  0
ENDTAB
  0
ENDSEC
  0
SECTION
  2
BLOCKS
  0
BLOCK
  5
20
330
1F
100
AcDbEntity
  8
0
100
AcDbBlockBegin
  2
*Model_Space
 70
     0
 10
0.0
 20
0.0
 30
0.0
  3
*Model_Space
  1

  0
ENDBLK
  5
21
330
1F
100
AcDbEntity
  8
0
100
AcDbBlockEnd
  0
BLOCK
  5
1C
330
1B
100
AcDbEntity
 67
     1
  8
0
100
AcDbBlockBegin
  2
*Paper_Space
 70
     0
 10
0.0
 20
0.0
 30
0.0
  3
*Paper_Space
  1

  0
ENDBLK
  5
1D
330
1B
100
AcDbEntity
 67
     1
  8
0
100
AcDbBlockEnd
  0
BLOCK
  5
24
330
23
100
AcDbEntity
  8
0
100
AcDbBlockBegin
  2
*Paper_Space0
 70
     0
 10
0.0
 20
0.0
 30
0.0
  3
*Paper_Space0
  1

  0
ENDBLK
  5
25
330
23
100
AcDbEntity
  8
0
100
AcDbBlockEnd
  0
BLOCK
  5
48
330
47
100
AcDbEntity
  8
0
100
AcDbBlockBegin
  2
D-OTTA_2_5-select__1
 70
     0
 10
-940.948552520376
 20
-1068.231638291182
 30
0.0
  3
D-OTTA_2_5-select__1
  1

  0
LINE
  5
87
330
47
100
AcDbEntity
  8
0
  6
Continuous
 62
     7
100
AcDbLine
 10
-912.4024864238008
 20
-1036.137880278362
 30
0.0
 11
-912.4024864238008
 21
-1035.098649793821
 31
0.0
  0
LINE
  5
88
330
47
100
AcDbEntity
  8
0
  6
Continuous
 62
     7
100
AcDbLine
 10
-913.1274864238009
 20
-1035.726518211565
 30
0.0
 11
-912.4024864238008
 21
-1035.098649793821
 31
0.0
  0
LINE
  5
89
330
47
100
AcDbEntity
  8
0
  6
Continuous
 62
     7
100
AcDbLine
 10
-931.097513552328
 20
-1030.539018211565
 30
0.0
 11
-931.097513552328
 21
-1031.578248696106
 31
0.0
  0
LINE
  5
8A
330
47
100
AcDbEntity
  8
0
  6
Continuous
 62
     7
100
AcDbLine
 10
-913.1274864238009
 20
-1036.765748696106
 30
0.0
 11
-913.1274864238009
 21
-1035.726518211565
 31
0.0
  0
LINE
  5
8B
330
47
100
AcDbEntity
  8
0
  6
Continuous
 62
     7
100
AcDbLine
 10
-913.1274864238009
 20
-1035.726518211565
 30
0.0
 11
-931.097513552328
 21
-1030.539018211565
 31
0.0
  0
LINE
  5
8C
330
47
100
AcDbEntity
  8
0
  6
Continuous
 62
     7
100
AcDbLine
 10
-912.4024864238008
 20
-1035.098649793821
 30
0.0
 11
-930.372513552328
 21
-1029.911149793821
 31
0.0
  0
LINE
  5
8D
330
47
100
AcDbEntity
  8
0
  6
Continuous
 62
     7
100
AcDbLine
 10
-903.2764474557529
 20
-1045.296998696106
 30
0.0
 11
-902.5514474557529
 21
-1044.669130278362
 31
0.0
  0
LINE
  5
8E
330
47
100
AcDbEntity
  8
0
  6
Continuous
 62
     7
100
AcDbLine
 10
-912.4024864238008
 20
-1036.137880278362
 30
0.0
 11
-913.1274864238009
 21
-1036.765748696106
 31
0.0
  0
LINE
  5
8F
330
47
100
AcDbEntity
  8
0
  6
Continuous
 62
     7
100
AcDbLine
 10
-903.2764474557529
 20
-1045.296998696106
 30
0.0
 11
-913.1274864238009
 21
-1036.765748696106
 31
0.0
  0
LINE
  5
90
330
47
100
AcDbEntity
  8
0
  6
Continuous
 62
     7
100
AcDbLine
 10
-902.5514474557529
 20
-1044.669130278362
 30
0.0
 11
-912.4024864238008
 21
-1036.137880278362
 31
0.0
  0
LINE
  5
91
330
47
100
AcDbEntity
  8
0
  6
Continuous
 62
     7
100
AcDbLine
 10
-940.948552520376
 20
-1034.421998696106
 30
0.0
 11
-940.948552520376
 21
-1057.356638291182
 31
0.0
  0
LINE
  5
92
330
47
100
AcDbEntity
  8
0
  6
Continuous
 62
     7
100
AcDbLine
 10
-940.948552520376
 20
-1034.421998696106
 30
0.0
 11
-940.223552520376
 21
-1033.794130278362
 31
0.0
  0
LINE
  5
93
330
47
100
AcDbEntity
  8
0
  6
Continuous
 62
     7
100
AcDbLine
 10
-931.097513552328
 20
-1031.578248696106
 30
0.0
 11
-940.948552520376
 21
-1034.421998696106
 31
0.0
  0
LINE
  5
94
330
47
100
AcDbEntity
  8
0
  6
Continuous
 62
     7
100
AcDbLine
 10
-931.097513552328
 20
-1031.159669750944
 30
0.0
 11
-940.223552520376
 21
-1033.794130278362
 31
0.0
  0
LINE
  5
95
330
47
100
AcDbEntity
  8
0
  6
Continuous
 62
     7
100
AcDbLine
 10
-931.097513552328
 20
-1030.539018211565
 30
0.0
 11
-930.372513552328
 21
-1029.911149793821
 31
0.0
  0
LINE
  5
96
330
47
100
AcDbEntity
  8
0
  6
Continuous
 62
     7
100
AcDbLine
 10
-903.2764474557529
 20
-1045.296998696106
 30
0.0
 11
-903.2764474557529
 21
-1068.231638291182
 31
0.0
  0
LINE
  5
97
330
47
100
AcDbEntity
  8
0
  6
Continuous
 62
     7
100
AcDbLine
 10
-903.2764474557529
 20
-1068.231638291182
 30
0.0
 11
-902.5514474557529
 21
-1067.603769873438
 31
0.0
  0
LINE
  5
98
330
47
100
AcDbEntity
  8
0
  6
Continuous
 62
     7
100
AcDbLine
 10
-902.5514474557529
 20
-1044.669130278362
 30
0.0
 11
-902.5514474557529
 21
-1067.603769873438
 31
0.0
  0
LINE
  5
99
330
47
100
AcDbEntity
  8
0
  6
Continuous
 62
     7
100
AcDbLine
 10
-940.948552520376
 20
-1057.356638291182
 30
0.0
 11
-903.2764474557529
 21
-1068.231638291182
 31
0.0
  0
ENDBLK
  5
49
330
47
100
AcDbEntity
  8
0
100
AcDbBlockEnd
  0
BLOCK
  5
4C
330
4A
100
AcDbEntity
  8
0
100
AcDbBlockBegin
  2
AllgSicht1
 70
     0
 10
-921.0000000000003
 20
-1047.0
 30
0.0
  3
AllgSicht1
  1

  0
INSERT
  5
4B
330
4A
100
AcDbEntity
  8
0
100
AcDbBlockReference
  2
D-OTTA_2_5-select__1
 10
-940.948552520376
 20
-1068.231638291182
 30
0.0
  0
MTEXT
  5
9B
330
4A
100
AcDbEntity
  8
1
 62
     6
100
AcDbMText
 10
-921.7499999999851
 20
-1073.231638311829
 30
0.0
 40
5.0
 41
0.0
 71
     2
 72
     1
  1
 
  7
CONVERTER_11
 73
     1
 44
1.32052821128451
  0
ENDBLK
  5
4D
330
4A
100
AcDbEntity
  8
0
100
AcDbBlockEnd
  0
BLOCK
  5
4F
330
4E
100
AcDbEntity
  8
0
100
AcDbBlockBegin
  2
D-OTTA_2_5-select__2
 70
     0
 10
-1065.725
 20
-1025.224999976128
 30
0.0
  3
D-OTTA_2_5-select__2
  1

  0
LINE
  5
9C
330
4E
100
AcDbEntity
  8
0
  6
Continuous
 62
     7
100
AcDbLine
 10
-1033.6
 20
-1023.774999976128
 30
0.0
 11
-1054.35
 21
-1023.774999976128
 31
0.0
  0
LINE
  5
9D
330
4E
100
AcDbEntity
  8
0
  6
Continuous
 62
     7
100
AcDbLine
 10
-1033.6
 20
-1025.224999976128
 30
0.0
 11
-1033.6
 21
-1023.774999976128
 31
0.0
  0
LINE
  5
9E
330
4E
100
AcDbEntity
  8
0
  6
Continuous
 62
     7
100
AcDbLine
 10
-1054.35
 20
-1025.224999976128
 30
0.0
 11
-1065.725
 21
-1025.224999976128
 31
0.0
  0
LINE
  5
9F
330
4E
100
AcDbEntity
  8
0
  6
Continuous
 62
     7
100
AcDbLine
 10
-1054.35
 20
-1025.224999976128
 30
0.0
 11
-1054.35
 21
-1023.774999976128
 31
0.0
  0
LINE
  5
A0
330
4E
100
AcDbEntity
  8
0
  6
Continuous
 62
     7
100
AcDbLine
 10
-1022.225
 20
-1025.224999976128
 30
0.0
 11
-1022.225
 21
-1023.774999976128
 31
0.0
  0
LINE
  5
A1
330
4E
100
AcDbEntity
  8
0
  6
Continuous
 62
     7
100
AcDbLine
 10
-1022.225
 20
-1025.224999976128
 30
0.0
 11
-1033.6
 21
-1025.224999976128
 31
0.0
  0
LINE
  5
A2
330
4E
100
AcDbEntity
  8
0
  6
Continuous
 62
     7
100
AcDbLine
 10
-1022.225
 20
-1023.774999976128
 30
0.0
 11
-1033.6
 21
-1023.774999976128
 31
0.0
  0
LINE
  5
A3
330
4E
100
AcDbEntity
  8
0
  6
Continuous
 62
     7
100
AcDbLine
 10
-1054.35
 20
-1023.774999976128
 30
0.0
 11
-1065.725
 21
-1023.774999976128
 31
0.0
  0
LINE
  5
A4
330
4E
100
AcDbEntity
  8
0
  6
Continuous
 62
     7
100
AcDbLine
 10
-1065.725
 20
-1025.224999976128
 30
0.0
 11
-1065.725
 21
-1023.774999976128
 31
0.0
  0
LINE
  5
A5
330
4E
100
AcDbEntity
  8
0
  6
Continuous
 62
     7
100
AcDbLine
 10
-1033.6
 20
-1025.224999976128
 30
0.0
 11
-1054.35
 21
-1025.224999976128
 31
0.0
  0
ENDBLK
  5
50
330
4E
100
AcDbEntity
  8
0
100
AcDbBlockEnd
  0
BLOCK
  5
53
330
51
100
AcDbEntity
  8
0
100
AcDbBlockBegin
  2
Drfsicht1
 70
     0
 10
-1043.975
 20
-1023.0
 30
0.0
  3
Drfsicht1
  1

  0
INSERT
  5
52
330
51
100
AcDbEntity
  8
0
100
AcDbBlockReference
  2
D-OTTA_2_5-select__2
 10
-1065.725
 20
-1025.224999976128
 30
0.0
  0
MTEXT
  5
A6
330
51
100
AcDbEntity
  8
1
 62
     6
100
AcDbMText
 10
-1043.975
 20
-1030.225000023812
 30
0.0
 40
5.0
 41
0.0
 71
     2
 72
     1
  1
 
  7
CONVERTER_11
 73
     1
 44
1.32052821128451
  0
DIMENSION
  5
B3
330
51
100
AcDbEntity
  8
1
100
AcDbDimension
  2
*D17
 10
-1075.725
 20
-1025.224999976128
 30
0.0
 11
-1079.15
 21
-1034.78877552844
 31
0.0
 70
    33
  1
<>
 71
     5
 42
-1.0
 53
90.0
  3
ME10_DIM_10
100
AcDbAlignedDimension
 13
-1065.725
 23
-1023.774999976128
 33
0.0
 14
-1065.725
 24
-1025.224999976128
 34
0.0
  0
ENDBLK
  5
54
330
51
100
AcDbEntity
  8
0
100
AcDbBlockEnd
  0
BLOCK
  5
56
330
55
100
AcDbEntity
  8
0
100
AcDbBlockBegin
  2
D-OTTA_2_5-select__3
 70
     0
 10
-968.7499999999999
 20
-991.1250000000001
 30
0.0
  3
D-OTTA_2_5-select__3
  1

  0
LINE
  5
B4
330
55
100
AcDbEntity
  8
0
  6
Continuous
 62
     7
100
AcDbLine
 10
-925.2499999999999
 20
-991.1250000000001
 30
0.0
 11
-968.7499999999999
 21
-991.1250000000001
 31
0.0
  0
LINE
  5
B5
330
55
100
AcDbEntity
  8
0
  6
Continuous
 62
     7
100
AcDbLine
 10
-968.7499999999999
 20
-964.6423593120321
 30
0.0
 11
-968.7499999999999
 21
-991.1250000000001
 31
0.0
  0
LINE
  5
B6
330
55
100
AcDbEntity
  8
0
  6
Continuous
 62
     7
100
AcDbLine
 10
-957.3749999999999
 20
-958.0750000000002
 30
0.0
 11
-957.3749999999999
 21
-956.8750000000001
 31
0.0
  0
LINE
  5
B7
330
55
100
AcDbEntity
  8
0
  6
Continuous
 62
     7
100
AcDbLine
 10
-968.7499999999999
 20
-964.6423593120321
 30
0.0
 11
-957.3749999999999
 21
-958.0750000000002
 31
0.0
  0
LINE
  5
B8
330
55
100
AcDbEntity
  8
0
  6
Continuous
 62
     7
100
AcDbLine
 10
-957.3749999999999
 20
-956.8750000000001
 30
0.0
 11
-936.6249999999999
 21
-956.8750000000001
 31
0.0
  0
LINE
  5
B9
330
55
100
AcDbEntity
  8
0
  6
Continuous
 62
     7
100
AcDbLine
 10
-936.6249999999999
 20
-956.8750000000001
 30
0.0
 11
-936.6249999999999
 21
-958.0750000000002
 31
0.0
  0
LINE
  5
BA
330
55
100
AcDbEntity
  8
0
  6
Continuous
 62
     7
100
AcDbLine
 10
-925.2499999999999
 20
-964.6423593120321
 30
0.0
 11
-925.2499999999999
 21
-991.1250000000001
 31
0.0
  0
LINE
  5
BB
330
55
100
AcDbEntity
  8
0
  6
Continuous
 62
     7
100
AcDbLine
 10
-936.6249999999999
 20
-958.0750000000002
 30
0.0
 11
-925.2499999999999
 21
-964.6423593120321
 31
0.0
  0
ENDBLK
  5
57
330
55
100
AcDbEntity
  8
0
100
AcDbBlockEnd
  0
BLOCK
  5
5A
330
58
100
AcDbEntity
  8
0
100
AcDbBlockBegin
  2
Rckans1
 70
     0
 10
-947.0
 20
-974.0000000000002
 30
0.0
  3
Rckans1
  1

  0
INSERT
  5
59
330
58
100
AcDbEntity
  8
0
100
AcDbBlockReference
  2
D-OTTA_2_5-select__3
 10
-968.7499999999999
 20
-991.1250000000001
 30
0.0
  0
MTEXT
  5
BC
330
58
100
AcDbEntity
  8
1
 62
     6
100
AcDbMText
 10
-947.0
 20
-996.125
 30
0.0
 40
5.0
 41
0.0
 71
     2
 72
     1
  1
 
  7
CONVERTER_11
 73
     1
 44
1.32052821128451
  0
ENDBLK
  5
5B
330
58
100
AcDbEntity
  8
0
100
AcDbBlockEnd
  0
BLOCK
  5
5D
330
5C
100
AcDbEntity
  8
0
100
AcDbBlockBegin
  2
D-OTTA_2_5-select__4
 70
     0
 10
-1115.224999976128
 20
-991.125
 30
0.0
  3
D-OTTA_2_5-select__4
  1

  0
LINE
  5
BD
330
5C
100
AcDbEntity
  8
0
  6
Continuous
 62
     7
100
AcDbLine
 10
-1115.224999976128
 20
-991.125
 30
0.0
 11
-1113.774999976128
 21
-991.125
 31
0.0
  0
LINE
  5
BE
330
5C
100
AcDbEntity
  8
0
  6
Continuous
 62
     7
100
AcDbLine
 10
-1113.774999976128
 20
-964.642359312032
 30
0.0
 11
-1113.774999976128
 21
-958.075
 31
0.0
  0
LINE
  5
BF
330
5C
100
AcDbEntity
  8
0
  6
Continuous
 62
     7
100
AcDbLine
 10
-1113.774999976128
 20
-964.642359312032
 30
0.0
 11
-1113.774999976128
 21
-991.125
 31
0.0
  0
LINE
  5
C0
330
5C
100
AcDbEntity
  8
0
  6
Continuous
 62
     7
100
AcDbLine
 10
-1113.774999976128
 20
-958.075
 30
0.0
 11
-1113.774999976128
 21
-956.875
 31
0.0
  0
LINE
  5
C1
330
5C
100
AcDbEntity
  8
0
  6
Continuous
 62
     7
100
AcDbLine
 10
-1115.224999976128
 20
-956.875
 30
0.0
 11
-1113.774999976128
 21
-956.875
 31
0.0
  0
LINE
  5
C2
330
5C
100
AcDbEntity
  8
0
  6
Continuous
 62
     7
100
AcDbLine
 10
-1115.224999976128
 20
-964.642359312032
 30
0.0
 11
-1113.774999976128
 21
-964.642359312032
 31
0.0
  0
LINE
  5
C3
330
5C
100
AcDbEntity
  8
0
  6
Continuous
 62
     7
100
AcDbLine
 10
-1115.224999976128
 20
-958.075
 30
0.0
 11
-1115.224999976128
 21
-956.875
 31
0.0
  0
LINE
  5
C4
330
5C
100
AcDbEntity
  8
0
  6
Continuous
 62
     7
100
AcDbLine
 10
-1115.224999976128
 20
-964.642359312032
 30
0.0
 11
-1115.224999976128
 21
-958.075
 31
0.0
  0
LINE
  5
C5
330
5C
100
AcDbEntity
  8
0
  6
Continuous
 62
     7
100
AcDbLine
 10
-1113.774999976128
 20
-958.075
 30
0.0
 11
-1115.224999976128
 21
-958.075
 31
0.0
  0
LINE
  5
C6
330
5C
100
AcDbEntity
  8
0
  6
Continuous
 62
     7
100
AcDbLine
 10
-1115.224999976128
 20
-964.642359312032
 30
0.0
 11
-1115.224999976128
 21
-991.125
 31
0.0
  0
ENDBLK
  5
5E
330
5C
100
AcDbEntity
  8
0
100
AcDbBlockEnd
  0
BLOCK
  5
61
330
5F
100
AcDbEntity
  8
0
100
AcDbBlockBegin
  2
SA_Rechts1
 70
     0
 10
-1113.0
 20
-974.0
 30
0.0
  3
SA_Rechts1
  1

  0
INSERT
  5
60
330
5F
100
AcDbEntity
  8
0
100
AcDbBlockReference
  2
D-OTTA_2_5-select__4
 10
-1115.224999976128
 20
-991.125
 30
0.0
  0
MTEXT
  5
C7
330
5F
100
AcDbEntity
  8
1
 62
     6
100
AcDbMText
 10
-1114.49999999997
 20
-996.125
 30
0.0
 40
5.0
 41
0.0
 71
     2
 72
     1
  1
 
  7
CONVERTER_11
 73
     1
 44
1.32052821128451
  0
ENDBLK
  5
62
330
5F
100
AcDbEntity
  8
0
100
AcDbBlockEnd
  0
BLOCK
  5
64
330
63
100
AcDbEntity
  8
0
100
AcDbBlockBegin
  2
D-OTTA_2_5-select__5
 70
     0
 10
-995.2250000239019
 20
-991.1250000000001
 30
0.0
  3
D-OTTA_2_5-select__5
  1

  0
LINE
  5
C8
330
63
100
AcDbEntity
  8
0
  6
Continuous
 62
     7
100
AcDbLine
 10
-995.2250000239019
 20
-958.0750000000002
 30
0.0
 11
-995.2250000239019
 21
-964.6423593120321
 31
0.0
  0
LINE
  5
C9
330
63
100
AcDbEntity
  8
0
  6
Continuous
 62
     7
100
AcDbLine
 10
-995.2250000239019
 20
-964.6423593120321
 30
0.0
 11
-995.2250000239019
 21
-991.1250000000001
 31
0.0
  0
LINE
  5
CA
330
63
100
AcDbEntity
  8
0
  6
Continuous
 62
     7
100
AcDbLine
 10
-993.7750000239018
 20
-956.8750000000001
 30
0.0
 11
-995.2250000239019
 21
-956.8750000000001
 31
0.0
  0
LINE
  5
CB
330
63
100
AcDbEntity
  8
0
  6
Continuous
 62
     7
100
AcDbLine
 10
-993.7750000239018
 20
-991.1250000000001
 30
0.0
 11
-995.2250000239019
 21
-991.1250000000001
 31
0.0
  0
LINE
  5
CC
330
63
100
AcDbEntity
  8
0
  6
Continuous
 62
     7
100
AcDbLine
 10
-995.2250000239019
 20
-956.8750000000001
 30
0.0
 11
-995.2250000239019
 21
-958.0750000000002
 31
0.0
  0
LINE
  5
CD
330
63
100
AcDbEntity
  8
0
  6
Continuous
 62
     7
100
AcDbLine
 10
-993.7750000239018
 20
-956.8750000000001
 30
0.0
 11
-993.7750000239018
 21
-958.0750000000002
 31
0.0
  0
LINE
  5
CE
330
63
100
AcDbEntity
  8
0
  6
Continuous
 62
     7
100
AcDbLine
 10
-993.7750000239018
 20
-958.0750000000002
 30
0.0
 11
-993.7750000239018
 21
-964.6423593120321
 31
0.0
  0
LINE
  5
CF
330
63
100
AcDbEntity
  8
0
  6
Continuous
 62
     7
100
AcDbLine
 10
-995.2250000239019
 20
-958.0750000000002
 30
0.0
 11
-993.7750000239018
 21
-958.0750000000002
 31
0.0
  0
LINE
  5
D0
330
63
100
AcDbEntity
  8
0
  6
Continuous
 62
     7
100
AcDbLine
 10
-993.7750000239018
 20
-964.6423593120321
 30
0.0
 11
-995.2250000239019
 21
-964.6423593120321
 31
0.0
  0
LINE
  5
D1
330
63
100
AcDbEntity
  8
0
  6
Continuous
 62
     7
100
AcDbLine
 10
-993.7750000239018
 20
-964.6423593120321
 30
0.0
 11
-993.7750000239018
 21
-991.1250000000001
 31
0.0
  0
ENDBLK
  5
65
330
63
100
AcDbEntity
  8
0
100
AcDbBlockEnd
  0
BLOCK
  5
68
330
66
100
AcDbEntity
  8
0
100
AcDbBlockBegin
  2
SA_links1
 70
     0
 10
-996.00000000003
 20
-974.0000000000002
 30
0.0
  3
SA_links1
  1

  0
INSERT
  5
67
330
66
100
AcDbEntity
  8
0
100
AcDbBlockReference
  2
D-OTTA_2_5-select__5
 10
-995.2250000239019
 20
-991.1250000000001
 30
0.0
  0
ENDBLK
  5
69
330
66
100
AcDbEntity
  8
0
100
AcDbBlockEnd
  0
BLOCK
  5
6B
330
6A
100
AcDbEntity
  8
0
100
AcDbBlockBegin
  2
D-OTTA_2_5-select__6
 70
     0
 10
-1065.725000023842
 20
-991.1250000000001
 30
0.0
  3
D-OTTA_2_5-select__6
  1

  0
LINE
  5
D2
330
6A
100
AcDbEntity
  8
0
  6
Continuous
 62
     7
100
AcDbLine
 10
-1065.725000023842
 20
-964.6423593120321
 30
0.0
 11
-1065.725000023842
 21
-991.1250000000001
 31
0.0
  0
LINE
  5
D3
330
6A
100
AcDbEntity
  8
0
  6
Continuous
 62
     7
100
AcDbLine
 10
-1054.350000023842
 20
-956.8750000000001
 30
0.0
 11
-1054.350000023842
 21
-958.0750000000002
 31
0.0
  0
LINE
  5
D4
330
6A
100
AcDbEntity
  8
0
  6
Continuous
 62
     7
100
AcDbLine
 10
-1054.350000023842
 20
-958.0750000000002
 30
0.0
 11
-1065.725000023842
 21
-964.6423593120321
 31
0.0
  0
LINE
  5
D5
330
6A
100
AcDbEntity
  8
0
  6
Continuous
 62
     7
100
AcDbLine
 10
-1033.600000023842
 20
-956.8750000000001
 30
0.0
 11
-1054.350000023842
 21
-956.8750000000001
 31
0.0
  0
LINE
  5
D6
330
6A
100
AcDbEntity
  8
0
  6
Continuous
 62
     7
100
AcDbLine
 10
-1033.600000023842
 20
-958.0750000000002
 30
0.0
 11
-1033.600000023842
 21
-956.8750000000001
 31
0.0
  0
LINE
  5
D7
330
6A
100
AcDbEntity
  8
0
  6
Continuous
 62
     7
100
AcDbLine
 10
-1065.725000023842
 20
-991.1250000000001
 30
0.0
 11
-1022.225000023842
 21
-991.1250000000001
 31
0.0
  0
LINE
  5
D8
330
6A
100
AcDbEntity
  8
0
  6
Continuous
 62
     7
100
AcDbLine
 10
-1022.225000023842
 20
-964.6423593120321
 30
0.0
 11
-1022.225000023842
 21
-991.1250000000001
 31
0.0
  0
LINE
  5
D9
330
6A
100
AcDbEntity
  8
0
  6
Continuous
 62
     7
100
AcDbLine
 10
-1022.225000023842
 20
-964.6423593120321
 30
0.0
 11
-1033.600000023842
 21
-958.0750000000002
 31
0.0
  0
ENDBLK
  5
6C
330
6A
100
AcDbEntity
  8
0
100
AcDbBlockEnd
  0
BLOCK
  5
6F
330
6D
100
AcDbEntity
  8
0
100
AcDbBlockBegin
  2
Vordans1
 70
     0
 10
-1043.975000023842
 20
-974.0000000000001
 30
0.0
  3
Vordans1
  1

  0
INSERT
  5
6E
330
6D
100
AcDbEntity
  8
0
100
AcDbBlockReference
  2
D-OTTA_2_5-select__6
 10
-1065.725000023842
 20
-991.1250000000001
 30
0.0
  0
DIMENSION
  5
E4
330
6D
100
AcDbEntity
  8
1
100
AcDbDimension
  2
*D18
 10
-1075.725
 20
-991.1250000000001
 30
0.0
 11
-1079.65
 21
-975.8198344401911
 31
0.0
 70
    32
  1
<>
 71
     5
 42
-1.0
 53
90.0
  3
ME10_DIM_11
100
AcDbAlignedDimension
 13
-1033.600000023842
 23
-956.8750000000001
 33
0.0
 14
-1022.225000023842
 24
-991.1250000000001
 34
0.0
 50
90.0
100
AcDbRotatedDimension
  0
DIMENSION
  5
EF
330
6D
100
AcDbEntity
  8
1
100
AcDbDimension
  2
*D19
 10
-1022.225000023842
 20
-1002.239882119
 30
0.0
 11
-1044.60675574438
 21
-998.3148821190001
 31
0.0
 70
    32
  1
<>
 71
     5
 42
-1.0
 53
0.00013888888889
  3
ME10_DIM_12
100
AcDbAlignedDimension
 13
-1065.725000023842
 23
-991.1250000000001
 33
0.0
 14
-1022.225000023842
 24
-991.1250000000001
 34
0.0
100
AcDbRotatedDimension
  0
ENDBLK
  5
70
330
6D
100
AcDbEntity
  8
0
100
AcDbBlockEnd
  0
BLOCK
  5
72
330
71
100
AcDbEntity
  8
0
100
AcDbBlockBegin
  2
_rahmen
 70
     0
 10
-873.5232830248375
 20
-1120.553319155915
 30
0.0
  3
_rahmen
  1

  0
LINE
  5
F0
330
71
100
AcDbEntity
  8
1
  6
Continuous
 62
     6
100
AcDbLine
 10
-1003.068087551588
 20
-1090.053319155915
 30
0.0
 11
-873.5232830248358
 21
-1090.053319155915
 31
0.0
  0
LINE
  5
F1
330
71
100
AcDbEntity
  8
1
  6
Continuous
 62
     7
100
AcDbLine
 10
-984.8680875515875
 20
-1111.303319155915
 30
0.0
 11
-966.6680875515876
 21
-1111.303319155915
 31
0.0
  0
LINE
  5
F2
330
71
100
AcDbEntity
  8
1
  6
Continuous
 62
     6
100
AcDbLine
 10
-984.8680875515875
 20
-1115.553319155915
 30
0.0
 11
-1003.068087551588
 21
-1115.553319155915
 31
0.0
  0
LINE
  5
F3
330
71
100
AcDbEntity
  8
1
  6
Continuous
 62
     7
100
AcDbLine
 10
-984.8680875515875
 20
-1111.303319155915
 30
0.0
 11
-984.8680875515875
 21
-1115.553319155915
 31
0.0
  0
LINE
  5
F4
330
71
100
AcDbEntity
  8
1
  6
Continuous
 62
     7
100
AcDbLine
 10
-966.6680875515876
 20
-1111.303319155915
 30
0.0
 11
-966.6680875515876
 21
-1115.553319155915
 31
0.0
  0
LINE
  5
F5
330
71
100
AcDbEntity
  8
1
  6
Continuous
 62
     7
100
AcDbLine
 10
-1003.068087551588
 20
-1111.303319155915
 30
0.0
 11
-1003.068087551588
 21
-1115.553319155915
 31
0.0
  0
LINE
  5
F6
330
71
100
AcDbEntity
  8
1
  6
Continuous
 62
     7
100
AcDbLine
 10
-1003.068087551588
 20
-1111.303319155915
 30
0.0
 11
-984.8680875515875
 21
-1111.303319155915
 31
0.0
  0
LINE
  5
F7
330
71
100
AcDbEntity
  8
1
  6
Continuous
 62
     2
100
AcDbLine
 10
-993.831432665025
 20
-1091.928319155915
 30
0.0
 11
-993.831432665025
 21
-1096.928319155915
 31
0.0
  0
LINE
  5
F8
330
71
100
AcDbEntity
  8
1
  6
Continuous
 62
     2
100
AcDbLine
 10
-993.831432665025
 20
-1096.928319155915
 30
0.0
 11
-998.831432665025
 21
-1095.678319155915
 31
0.0
  0
LINE
  5
F9
330
71
100
AcDbEntity
  8
1
  6
Continuous
 62
     2
100
AcDbLine
 10
-998.831432665025
 20
-1095.678319155915
 30
0.0
 11
-998.831432665025
 21
-1093.178319155915
 31
0.0
  0
LINE
  5
FA
330
71
100
AcDbEntity
  8
1
  6
Continuous
 62
     2
100
AcDbLine
 10
-998.831432665025
 20
-1093.178319155915
 30
0.0
 11
-993.831432665025
 21
-1091.928319155915
 31
0.0
  0
LINE
  5
FB
330
71
100
AcDbEntity
  8
1
  6
Continuous
 62
     6
100
AcDbLine
 10
-1125.523283024836
 20
-1115.553319155915
 30
0.0
 11
-1160.523283024836
 21
-1115.553319155915
 31
0.0
  0
LINE
  5
FC
330
71
100
AcDbEntity
  8
1
  6
Continuous
 62
     6
100
AcDbLine
 10
-873.5232830248358
 20
-1098.553319155915
 30
0.0
 11
-873.5232830248362
 21
-1107.053319155915
 31
0.0
  0
LINE
  5
FD
330
71
100
AcDbEntity
  8
1
  6
Continuous
 62
     6
100
AcDbLine
 10
-966.6680875515876
 20
-1115.553319155915
 30
0.0
 11
-967.0232830248375
 21
-1115.553319155915
 31
0.0
  0
LINE
  5
FE
330
71
100
AcDbEntity
  8
1
  6
Continuous
 62
     6
100
AcDbLine
 10
-1119.323283024838
 20
-1115.553319155915
 30
0.0
 11
-1125.523283024836
 21
-1115.553319155915
 31
0.0
  0
LINE
  5
FF
330
71
100
AcDbEntity
  8
1
  6
Continuous
 62
     7
100
AcDbLine
 10
-966.6680875515876
 20
-1098.553319155915
 30
0.0
 11
-966.6680875515876
 21
-1111.303319155915
 31
0.0
  0
LINE
  5
100
330
71
100
AcDbEntity
  8
1
  6
Continuous
 62
     7
100
AcDbLine
 10
-1003.068087551588
 20
-1098.553319155915
 30
0.0
 11
-1003.068087551588
 21
-1111.303319155915
 31
0.0
  0
LINE
  5
101
330
71
100
AcDbEntity
  8
1
  6
Continuous
 62
     6
100
AcDbLine
 10
-1017.023283024838
 20
-1115.553319155915
 30
0.0
 11
-1067.023283024838
 21
-1115.553319155915
 31
0.0
  0
LINE
  5
102
330
71
100
AcDbEntity
  8
1
  6
Continuous
 62
     6
100
AcDbLine
 10
-1119.323283024838
 20
-1115.553319155915
 30
0.0
 11
-1117.023283024837
 21
-1115.553319155915
 31
0.0
  0
LINE
  5
103
330
71
100
AcDbEntity
  8
1
  6
Continuous
 62
     6
100
AcDbLine
 10
-966.6680875515876
 20
-1115.553319155915
 30
0.0
 11
-917.0232830248375
 21
-1115.553319155915
 31
0.0
  0
LINE
  5
104
330
71
100
AcDbEntity
  8
1
  6
Continuous
 62
     6
100
AcDbLine
 10
-873.5232830248375
 20
-1115.553319155915
 30
0.0
 11
-873.5232830248362
 21
-1107.053319155915
 31
0.0
  0
LINE
  5
105
330
71
100
AcDbEntity
  8
1
  6
Continuous
 62
     2
100
AcDbLine
 10
-1165.523283024837
 20
-1115.553319155915
 30
0.0
 11
-1165.523283024837
 21
-1120.553319155915
 31
0.0
  0
LINE
  5
106
330
71
100
AcDbEntity
  8
1
  6
Continuous
 62
     2
100
AcDbLine
 10
-1160.523283024836
 20
-1115.553319155915
 30
0.0
 11
-1165.523283024837
 21
-1115.553319155915
 31
0.0
  0
LINE
  5
107
330
71
100
AcDbEntity
  8
1
  6
Continuous
 62
     2
100
AcDbLine
 10
-1160.523283024836
 20
-1120.553319155915
 30
0.0
 11
-1117.023283024837
 21
-1120.553319155915
 31
0.0
  0
LINE
  5
108
330
71
100
AcDbEntity
  8
1
  6
Continuous
 62
     2
100
AcDbLine
 10
-1160.523283024836
 20
-1115.553319155915
 30
0.0
 11
-1160.523283024836
 21
-1120.553319155915
 31
0.0
  0
LINE
  5
109
330
71
100
AcDbEntity
  8
1
  6
Continuous
 62
     2
100
AcDbLine
 10
-917.0232830248375
 20
-1120.553319155915
 30
0.0
 11
-967.0232830248375
 21
-1120.553319155915
 31
0.0
  0
LINE
  5
10A
330
71
100
AcDbEntity
  8
1
  6
Continuous
 62
     2
100
AcDbLine
 10
-917.0232830248375
 20
-1120.553319155915
 30
0.0
 11
-917.0232830248375
 21
-1115.553319155915
 31
0.0
  0
LINE
  5
10B
330
71
100
AcDbEntity
  8
1
  6
Continuous
 62
     2
100
AcDbLine
 10
-967.0232830248375
 20
-1120.553319155915
 30
0.0
 11
-967.0232830248375
 21
-1115.553319155915
 31
0.0
  0
LINE
  5
10C
330
71
100
AcDbEntity
  8
1
  6
Continuous
 62
     2
100
AcDbLine
 10
-1017.023283024838
 20
-1120.553319155915
 30
0.0
 11
-967.0232830248375
 21
-1120.553319155915
 31
0.0
  0
LINE
  5
10D
330
71
100
AcDbEntity
  8
1
  6
Continuous
 62
     2
100
AcDbLine
 10
-1017.023283024838
 20
-1120.553319155915
 30
0.0
 11
-1017.023283024838
 21
-1115.553319155915
 31
0.0
  0
LINE
  5
10E
330
71
100
AcDbEntity
  8
1
  6
Continuous
 62
     2
100
AcDbLine
 10
-1067.023283024838
 20
-1120.553319155915
 30
0.0
 11
-1017.023283024838
 21
-1120.553319155915
 31
0.0
  0
LINE
  5
10F
330
71
100
AcDbEntity
  8
1
  6
Continuous
 62
     2
100
AcDbLine
 10
-1067.023283024838
 20
-1120.553319155915
 30
0.0
 11
-1067.023283024838
 21
-1115.553319155915
 31
0.0
  0
LINE
  5
110
330
71
100
AcDbEntity
  8
1
  6
Continuous
 62
     2
100
AcDbLine
 10
-1117.023283024837
 20
-1120.553319155915
 30
0.0
 11
-1067.023283024838
 21
-1120.553319155915
 31
0.0
  0
LINE
  5
111
330
71
100
AcDbEntity
  8
1
  6
Continuous
 62
     2
100
AcDbLine
 10
-1117.023283024837
 20
-1120.553319155915
 30
0.0
 11
-1117.023283024837
 21
-1115.553319155915
 31
0.0
  0
LINE
  5
112
330
71
100
AcDbEntity
  8
1
  6
Continuous
 62
     6
100
AcDbLine
 10
-1160.523283024836
 20
-1065.553319155914
 30
0.0
 11
-1160.523283024836
 21
-1115.553319155915
 31
0.0
  0
LINE
  5
113
330
71
100
AcDbEntity
  8
1
  6
Continuous
 62
     2
100
AcDbLine
 10
-1165.523283024837
 20
-1065.553319155914
 30
0.0
 11
-1165.523283024837
 21
-1115.553319155915
 31
0.0
  0
LINE
  5
114
330
71
100
AcDbEntity
  8
1
  6
Continuous
 62
     2
100
AcDbLine
 10
-1165.523283024837
 20
-1065.553319155914
 30
0.0
 11
-1160.523283024836
 21
-1065.553319155914
 31
0.0
  0
LINE
  5
115
330
71
100
AcDbEntity
  8
1
  6
Continuous
 62
     6
100
AcDbLine
 10
-1160.523283024836
 20
-1015.553319155915
 30
0.0
 11
-1160.523283024836
 21
-1065.553319155914
 31
0.0
  0
LINE
  5
116
330
71
100
AcDbEntity
  8
1
  6
Continuous
 62
     2
100
AcDbLine
 10
-1165.523283024837
 20
-1015.553319155915
 30
0.0
 11
-1165.523283024837
 21
-1065.553319155914
 31
0.0
  0
LINE
  5
117
330
71
100
AcDbEntity
  8
1
  6
Continuous
 62
     2
100
AcDbLine
 10
-1165.523283024837
 20
-1015.553319155915
 30
0.0
 11
-1160.523283024836
 21
-1015.553319155915
 31
0.0
  0
LINE
  5
118
330
71
100
AcDbEntity
  8
1
  6
Continuous
 62
     6
100
AcDbLine
 10
-1160.523283024837
 20
-965.5533191559146
 30
0.0
 11
-1160.523283024836
 21
-1015.553319155915
 31
0.0
  0
LINE
  5
119
330
71
100
AcDbEntity
  8
1
  6
Continuous
 62
     2
100
AcDbLine
 10
-1165.523283024837
 20
-965.5533191559146
 30
0.0
 11
-1165.523283024837
 21
-1015.553319155915
 31
0.0
  0
LINE
  5
11A
330
71
100
AcDbEntity
  8
1
  6
Continuous
 62
     2
100
AcDbLine
 10
-1165.523283024837
 20
-965.5533191559146
 30
0.0
 11
-1160.523283024837
 21
-965.5533191559146
 31
0.0
  0
LINE
  5
11B
330
71
100
AcDbEntity
  8
1
  6
Continuous
 62
     6
100
AcDbLine
 10
-1160.523283024837
 20
-930.5533191559146
 30
0.0
 11
-1160.523283024837
 21
-965.5533191559146
 31
0.0
  0
LINE
  5
11C
330
71
100
AcDbEntity
  8
1
  6
Continuous
 62
     2
100
AcDbLine
 10
-1165.523283024837
 20
-910.5533191559146
 30
0.0
 11
-1165.523283024837
 21
-965.5533191559146
 31
0.0
  0
LINE
  5
11D
330
71
100
AcDbEntity
  8
1
  6
Continuous
 62
     2
100
AcDbLine
 10
-1165.523283024837
 20
-1120.553319155915
 30
0.0
 11
-1160.523283024836
 21
-1120.553319155915
 31
0.0
  0
LINE
  5
11E
330
71
100
AcDbEntity
  8
1
  6
Continuous
 62
     2
100
AcDbLine
 10
-1017.023283024838
 20
-910.5533191559146
 30
0.0
 11
-1017.023283024838
 21
-919.7620110006159
 31
0.0
  0
LINE
  5
11F
330
71
100
AcDbEntity
  8
1
  6
Continuous
 62
     2
100
AcDbLine
 10
-1017.023283024838
 20
-910.5533191559146
 30
0.0
 11
-1165.523283024837
 21
-910.5533191559146
 31
0.0
  0
LINE
  5
120
330
71
100
AcDbEntity
  8
1
  6
Continuous
 62
     2
100
AcDbLine
 10
-868.5232830248385
 20
-1115.553319155915
 30
0.0
 11
-868.5232830248385
 21
-1065.553319155914
 31
0.0
  0
LINE
  5
121
330
71
100
AcDbEntity
  8
1
  6
Continuous
 62
     2
100
AcDbLine
 10
-868.5232830248385
 20
-965.5533191559146
 30
0.0
 11
-868.5232830248385
 21
-910.5533191559146
 31
0.0
  0
LINE
  5
122
330
71
100
AcDbEntity
  8
1
  6
Continuous
 62
     6
100
AcDbLine
 10
-873.5232830248383
 20
-965.5533191559146
 30
0.0
 11
-873.5232830248385
 21
-930.5533191559146
 31
0.0
  0
LINE
  5
123
330
71
100
AcDbEntity
  8
1
  6
Continuous
 62
     2
100
AcDbLine
 10
-873.5232830248383
 20
-965.5533191559146
 30
0.0
 11
-868.5232830248385
 21
-965.5533191559146
 31
0.0
  0
LINE
  5
124
330
71
100
AcDbEntity
  8
1
  6
Continuous
 62
     2
100
AcDbLine
 10
-868.5232830248385
 20
-1015.553319155915
 30
0.0
 11
-868.5232830248385
 21
-965.5533191559146
 31
0.0
  0
LINE
  5
125
330
71
100
AcDbEntity
  8
1
  6
Continuous
 62
     6
100
AcDbLine
 10
-873.5232830248372
 20
-1015.553319155915
 30
0.0
 11
-873.5232830248383
 21
-965.5533191559146
 31
0.0
  0
LINE
  5
126
330
71
100
AcDbEntity
  8
1
  6
Continuous
 62
     2
100
AcDbLine
 10
-873.5232830248372
 20
-1015.553319155915
 30
0.0
 11
-868.5232830248385
 21
-1015.553319155915
 31
0.0
  0
LINE
  5
127
330
71
100
AcDbEntity
  8
1
  6
Continuous
 62
     2
100
AcDbLine
 10
-868.5232830248385
 20
-1065.553319155914
 30
0.0
 11
-868.5232830248385
 21
-1015.553319155915
 31
0.0
  0
LINE
  5
128
330
71
100
AcDbEntity
  8
1
  6
Continuous
 62
     6
100
AcDbLine
 10
-873.5232830248366
 20
-1065.553319155914
 30
0.0
 11
-873.5232830248372
 21
-1015.553319155915
 31
0.0
  0
LINE
  5
129
330
71
100
AcDbEntity
  8
1
  6
Continuous
 62
     2
100
AcDbLine
 10
-873.5232830248366
 20
-1065.553319155914
 30
0.0
 11
-868.5232830248385
 21
-1065.553319155914
 31
0.0
  0
LINE
  5
12A
330
71
100
AcDbEntity
  8
1
  6
Continuous
 62
     6
100
AcDbLine
 10
-873.5232830248385
 20
-930.5533191559146
 30
0.0
 11
-1160.523283024837
 21
-930.5533191559146
 31
0.0
  0
LINE
  5
12B
330
71
100
AcDbEntity
  8
1
  6
Continuous
 62
     2
100
AcDbLine
 10
-868.5232830248385
 20
-910.5533191559146
 30
0.0
 11
-1017.023283024838
 21
-910.5533191559146
 31
0.0
  0
LINE
  5
12C
330
71
100
AcDbEntity
  8
1
  6
Continuous
 62
     6
100
AcDbLine
 10
-873.5232830248358
 20
-1098.553319155915
 30
0.0
 11
-873.5232830248366
 21
-1065.553319155914
 31
0.0
  0
LINE
  5
12D
330
71
100
AcDbEntity
  8
1
  6
Continuous
 62
     2
100
AcDbLine
 10
-873.5232830248375
 20
-1120.553319155915
 30
0.0
 11
-917.0232830248375
 21
-1120.553319155915
 31
0.0
  0
LINE
  5
12E
330
71
100
AcDbEntity
  8
1
  6
Continuous
 62
     2
100
AcDbLine
 10
-868.5232830248385
 20
-1120.553319155915
 30
0.0
 11
-873.5232830248375
 21
-1120.553319155915
 31
0.0
  0
LINE
  5
12F
330
71
100
AcDbEntity
  8
1
  6
Continuous
 62
     2
100
AcDbLine
 10
-868.5232830248385
 20
-1120.553319155915
 30
0.0
 11
-868.5232830248385
 21
-1115.553319155915
 31
0.0
  0
LINE
  5
130
330
71
100
AcDbEntity
  8
1
  6
Continuous
 62
     6
100
AcDbLine
 10
-1003.068087551588
 20
-1098.553319155915
 30
0.0
 11
-966.6680875515876
 21
-1098.553319155915
 31
0.0
  0
LINE
  5
131
330
71
100
AcDbEntity
  8
1
  6
Continuous
 62
     2
100
AcDbLine
 10
-873.5232830248375
 20
-1115.553319155915
 30
0.0
 11
-873.5232830248375
 21
-1120.553319155915
 31
0.0
  0
LINE
  5
132
330
71
100
AcDbEntity
  8
1
  6
Continuous
 62
     2
100
AcDbLine
 10
-873.5232830248375
 20
-1115.553319155915
 30
0.0
 11
-868.5232830248385
 21
-1115.553319155915
 31
0.0
  0
LINE
  5
133
330
71
100
AcDbEntity
  8
1
  6
Continuous
 62
     6
100
AcDbLine
 10
-967.0232830248375
 20
-1115.553319155915
 30
0.0
 11
-984.8680875515875
 21
-1115.553319155915
 31
0.0
  0
LINE
  5
134
330
71
100
AcDbEntity
  8
1
  6
Continuous
 62
     6
100
AcDbLine
 10
-917.0232830248375
 20
-1115.553319155915
 30
0.0
 11
-873.5232830248375
 21
-1115.553319155915
 31
0.0
  0
LINE
  5
135
330
71
100
AcDbEntity
  8
1
  6
Continuous
 62
     6
100
AcDbLine
 10
-1067.023283024838
 20
-1115.553319155915
 30
0.0
 11
-1072.068087551588
 21
-1115.553319155915
 31
0.0
  0
LINE
  5
136
330
71
100
AcDbEntity
  8
1
  6
Continuous
 62
     6
100
AcDbLine
 10
-1017.023283024838
 20
-1115.553319155915
 30
0.0
 11
-1003.068087551588
 21
-1115.553319155915
 31
0.0
  0
LINE
  5
137
102
{ACAD_REACTORS
330
221
330
222
102
}
330
71
100
AcDbEntity
  8
0
  6
Continuous
 62
     2
100
AcDbLine
 10
-995.5534616094408
 20
-1103.480804399703
 30
0.0
 11
-995.5534616094408
 21
-1102.875269111196
 31
0.0
  0
LINE
  5
138
102
{ACAD_REACTORS
330
221
330
222
102
}
330
71
100
AcDbEntity
  8
0
  6
Continuous
 62
     2
100
AcDbLine
 10
-995.5534616094408
 20
-1106.280939006334
 30
0.0
 11
-995.5534616094408
 21
-1105.699087599639
 31
0.0
  0
LINE
  5
139
102
{ACAD_REACTORS
330
223
330
224
102
}
330
71
100
AcDbEntity
  8
0
  6
Continuous
 62
     2
100
AcDbLine
 10
-972.9239751739615
 20
-1105.991274938211
 30
0.0
 11
-972.9239751739615
 21
-1108.259819155898
 31
0.0
  0
LINE
  5
13A
102
{ACAD_REACTORS
330
223
330
224
102
}
330
71
100
AcDbEntity
  8
0
  6
Continuous
 62
     2
100
AcDbLine
 10
-974.3050289529491
 20
-1105.206009632088
 30
0.0
 11
-970.9200834343204
 21
-1105.206009632087
 31
0.0
  0
LINE
  5
13B
102
{ACAD_REACTORS
330
223
330
224
102
}
330
71
100
AcDbEntity
  8
0
  6
Continuous
 62
     2
100
AcDbLine
 10
-970.9200834343204
 20
-1105.991274938211
 30
0.0
 11
-970.9200834343204
 21
-1105.206009632087
 31
0.0
  0
LINE
  5
13C
102
{ACAD_REACTORS
330
223
330
224
102
}
330
71
100
AcDbEntity
  8
0
  6
Continuous
 62
     2
100
AcDbLine
 10
-971.7311824717938
 20
-1105.991274938211
 30
0.0
 11
-970.9200834343204
 21
-1105.991274938211
 31
0.0
  0
LINE
  5
13D
102
{ACAD_REACTORS
330
223
330
224
102
}
330
71
100
AcDbEntity
  8
0
  6
Continuous
 62
     2
100
AcDbLine
 10
-971.7311824717938
 20
-1108.259819155898
 30
0.0
 11
-971.7311824717938
 21
-1105.991274938211
 31
0.0
  0
LINE
  5
13E
102
{ACAD_REACTORS
330
223
330
224
102
}
330
71
100
AcDbEntity
  8
0
  6
Continuous
 62
     2
100
AcDbLine
 10
-972.9239751739615
 20
-1108.259819155898
 30
0.0
 11
-971.7311824717938
 21
-1108.259819155898
 31
0.0
  0
LINE
  5
13F
102
{ACAD_REACTORS
330
219
330
21A
102
}
330
71
100
AcDbEntity
  8
0
  6
Continuous
 62
     2
100
AcDbLine
 10
-973.620566112026
 20
-1101.846819155913
 30
0.0
 11
-975.0232903297754
 21
-1101.846819155913
 31
0.0
  0
LINE
  5
140
102
{ACAD_REACTORS
330
219
330
21A
102
}
330
71
100
AcDbEntity
  8
0
  6
Continuous
 62
     2
100
AcDbLine
 10
-973.620566112026
 20
-1101.846819155913
 30
0.0
 11
-973.0193985901342
 21
-1102.526642477468
 31
0.0
  0
LINE
  5
141
102
{ACAD_REACTORS
330
219
330
21A
102
}
330
71
100
AcDbEntity
  8
0
  6
Continuous
 62
     2
100
AcDbLine
 10
-973.0193985901342
 20
-1102.526642477468
 30
0.0
 11
-972.4182310682414
 21
-1101.846819155913
 31
0.0
  0
LINE
  5
142
102
{ACAD_REACTORS
330
219
330
21A
102
}
330
71
100
AcDbEntity
  8
0
  6
Continuous
 62
     2
100
AcDbLine
 10
-972.3180364812607
 20
-1103.319769685949
 30
0.0
 11
-971.0155068504941
 21
-1101.846819155913
 31
0.0
  0
LINE
  5
143
102
{ACAD_REACTORS
330
219
330
21A
102
}
330
71
100
AcDbEntity
  8
0
  6
Continuous
 62
     2
100
AcDbLine
 10
-972.3180364812607
 20
-1103.319769685949
 30
0.0
 11
-970.9200834343204
 21
-1104.900628679724
 31
0.0
  0
LINE
  5
144
102
{ACAD_REACTORS
330
219
330
21A
102
}
330
71
100
AcDbEntity
  8
0
  6
Continuous
 62
     2
100
AcDbLine
 10
-972.3228076520687
 20
-1104.900628679724
 30
0.0
 11
-970.9200834343204
 21
-1104.900628679724
 31
0.0
  0
LINE
  5
145
102
{ACAD_REACTORS
330
219
330
21A
102
}
330
71
100
AcDbEntity
  8
0
  6
Continuous
 62
     2
100
AcDbLine
 10
-973.0193985901342
 20
-1104.11289689443
 30
0.0
 11
-972.3228076520687
 21
-1104.900628679724
 31
0.0
  0
LINE
  5
146
102
{ACAD_REACTORS
330
217
330
218
102
}
330
71
100
AcDbEntity
  8
0
  6
Continuous
 62
     2
100
AcDbLine
 10
-976.4784974264179
 20
-1101.846819155913
 30
0.0
 11
-975.237993016165
 21
-1101.846819155913
 31
0.0
  0
LINE
  5
147
102
{ACAD_REACTORS
330
217
330
218
102
}
330
71
100
AcDbEntity
  8
0
  6
Continuous
 62
     2
100
AcDbLine
 10
-975.237993016165
 20
-1101.846819155913
 30
0.0
 11
-975.237993016165
 21
-1104.900628679724
 31
0.0
  0
LINE
  5
148
102
{ACAD_REACTORS
330
217
330
218
102
}
330
71
100
AcDbEntity
  8
0
  6
Continuous
 62
     2
100
AcDbLine
 10
-976.4784974264179
 20
-1104.900628679724
 30
0.0
 11
-976.4784974264179
 21
-1101.846819155913
 31
0.0
  0
LINE
  5
149
102
{ACAD_REACTORS
330
215
330
216
102
}
330
71
100
AcDbEntity
  8
0
  6
Continuous
 62
     2
100
AcDbLine
 10
-977.9468075089555
 20
-1107.038295346374
 30
0.0
 11
-977.6466422717631
 21
-1106.270480380387
 31
0.0
  0
LINE
  5
14A
102
{ACAD_REACTORS
330
215
330
216
102
}
330
71
100
AcDbEntity
  8
0
  6
Continuous
 62
     2
100
AcDbLine
 10
-978.4243431135764
 20
-1108.259819155898
 30
0.0
 11
-978.2128630601005
 21
-1107.71885861168
 31
0.0
  0
LINE
  5
14B
102
{ACAD_REACTORS
330
215
330
216
102
}
330
71
100
AcDbEntity
  8
0
  6
Continuous
 62
     2
100
AcDbLine
 10
-978.26689447689
 20
-1105.206009632087
 30
0.0
 11
-979.6648475238293
 21
-1108.259819155898
 31
0.0
  0
LINE
  5
14C
102
{ACAD_REACTORS
330
215
330
216
102
}
330
71
100
AcDbEntity
  8
0
  6
Continuous
 62
     2
100
AcDbLine
 10
-975.628437019697
 20
-1108.259819155898
 30
0.0
 11
-976.868941429951
 21
-1108.259819155898
 31
0.0
  0
LINE
  5
14D
102
{ACAD_REACTORS
330
215
330
216
102
}
330
71
100
AcDbEntity
  8
0
  6
Continuous
 62
     2
100
AcDbLine
 10
-978.2128630601005
 20
-1107.71885861168
 30
0.0
 11
-977.0804214834267
 21
-1107.71885861168
 31
0.0
  0
LINE
  5
14E
102
{ACAD_REACTORS
330
213
330
214
102
}
330
71
100
AcDbEntity
  8
0
  6
Continuous
 62
     2
100
AcDbLine
 10
-981.8223596630115
 20
-1105.991274938211
 30
0.0
 11
-981.0112606255369
 21
-1105.991274938211
 31
0.0
  0
LINE
  5
14F
102
{ACAD_REACTORS
330
213
330
214
102
}
330
71
100
AcDbEntity
  8
0
  6
Continuous
 62
     2
100
AcDbLine
 10
-979.0073688858979
 20
-1105.206009632087
 30
0.0
 11
-981.8223596630115
 21
-1105.206009632087
 31
0.0
  0
LINE
  5
150
102
{ACAD_REACTORS
330
213
330
214
102
}
330
71
100
AcDbEntity
  8
0
  6
Continuous
 62
     2
100
AcDbLine
 10
-979.0073688858979
 20
-1105.991274938211
 30
0.0
 11
-979.0073688858979
 21
-1105.206009632087
 31
0.0
  0
LINE
  5
151
102
{ACAD_REACTORS
330
213
330
214
102
}
330
71
100
AcDbEntity
  8
0
  6
Continuous
 62
     2
100
AcDbLine
 10
-979.8184679233705
 20
-1105.991274938211
 30
0.0
 11
-979.0073688858979
 21
-1105.991274938211
 31
0.0
  0
LINE
  5
152
102
{ACAD_REACTORS
330
213
330
214
102
}
330
71
100
AcDbEntity
  8
0
  6
Continuous
 62
     2
100
AcDbLine
 10
-979.8184679233705
 20
-1108.259819155898
 30
0.0
 11
-979.8184679233705
 21
-1105.991274938211
 31
0.0
  0
LINE
  5
153
102
{ACAD_REACTORS
330
211
330
212
102
}
330
71
100
AcDbEntity
  8
0
  6
Continuous
 62
     2
100
AcDbLine
 10
-979.1503530792725
 20
-1104.900628679724
 30
0.0
 11
-979.1503530792725
 21
-1103.591853169519
 31
0.0
  0
LINE
  5
154
102
{ACAD_REACTORS
330
211
330
212
102
}
330
71
100
AcDbEntity
  8
0
  6
Continuous
 62
     2
100
AcDbLine
 10
-980.3431457814389
 20
-1101.846819155913
 30
0.0
 11
-980.3431457814389
 21
-1104.900628679724
 31
0.0
  0
LINE
  5
155
102
{ACAD_REACTORS
330
211
330
212
102
}
330
71
100
AcDbEntity
  8
0
  6
Continuous
 62
     2
100
AcDbLine
 10
-979.1503530792725
 20
-1101.846819155913
 30
0.0
 11
-980.3431457814389
 21
-1101.846819155913
 31
0.0
  0
LINE
  5
156
102
{ACAD_REACTORS
330
211
330
212
102
}
330
71
100
AcDbEntity
  8
0
  6
Continuous
 62
     2
100
AcDbLine
 10
-977.9098486690184
 20
-1101.846819155913
 30
0.0
 11
-977.9098486690184
 21
-1103.155594666118
 31
0.0
  0
LINE
  5
157
102
{ACAD_REACTORS
330
20F
330
210
102
}
330
71
100
AcDbEntity
  8
0
  6
Continuous
 62
     2
100
AcDbLine
 10
-985.5915846018586
 20
-1105.206009632087
 30
0.0
 11
-985.5915846018586
 21
-1108.259819155898
 31
0.0
  0
LINE
  5
158
102
{ACAD_REACTORS
330
20F
330
210
102
}
330
71
100
AcDbEntity
  8
0
  6
Continuous
 62
     2
100
AcDbLine
 10
-984.398791899691
 20
-1105.206009632087
 30
0.0
 11
-985.5915846018586
 21
-1105.206009632087
 31
0.0
  0
LINE
  5
159
102
{ACAD_REACTORS
330
20F
330
210
102
}
330
71
100
AcDbEntity
  8
0
  6
Continuous
 62
     2
100
AcDbLine
 10
-983.1582874894382
 20
-1108.259819155898
 30
0.0
 11
-981.9654947872717
 21
-1108.259819155898
 31
0.0
  0
LINE
  5
15A
102
{ACAD_REACTORS
330
20F
330
210
102
}
330
71
100
AcDbEntity
  8
0
  6
Continuous
 62
     2
100
AcDbLine
 10
-985.5915846018586
 20
-1108.259819155898
 30
0.0
 11
-984.398791899691
 21
-1108.259819155898
 31
0.0
  0
LINE
  5
15B
102
{ACAD_REACTORS
330
21F
330
220
102
}
330
71
100
AcDbEntity
  8
0
  6
Continuous
 62
     2
100
AcDbLine
 10
-981.9176321482995
 20
-1103.024717115098
 30
0.0
 11
-981.9176321482995
 21
-1102.544832761356
 31
0.0
  0
LINE
  5
15C
102
{ACAD_REACTORS
330
21F
330
220
102
}
330
71
100
AcDbEntity
  8
0
  6
Continuous
 62
     2
100
AcDbLine
 10
-980.5817043218718
 20
-1103.024717115098
 30
0.0
 11
-981.9176321482995
 21
-1103.024717115098
 31
0.0
  0
LINE
  5
15D
102
{ACAD_REACTORS
330
21F
330
220
102
}
330
71
100
AcDbEntity
  8
0
  6
Continuous
 62
     2
100
AcDbLine
 10
-980.5817043218718
 20
-1103.72273072054
 30
0.0
 11
-980.5817043218718
 21
-1103.024717115098
 31
0.0
  0
LINE
  5
15E
102
{ACAD_REACTORS
330
21F
330
220
102
}
330
71
100
AcDbEntity
  8
0
  6
Continuous
 62
     2
100
AcDbLine
 10
-981.9176321482995
 20
-1103.72273072054
 30
0.0
 11
-980.5817043218718
 21
-1103.72273072054
 31
0.0
  0
LINE
  5
15F
102
{ACAD_REACTORS
330
20D
330
20E
102
}
330
71
100
AcDbEntity
  8
0
  6
Continuous
 62
     2
100
AcDbLine
 10
-985.4005868386264
 20
-1101.846819155913
 30
0.0
 11
-985.4005868386264
 21
-1104.900628679724
 31
0.0
  0
LINE
  5
160
102
{ACAD_REACTORS
330
20D
330
20E
102
}
330
71
100
AcDbEntity
  8
0
  6
Continuous
 62
     2
100
AcDbLine
 10
-985.4005868386264
 20
-1104.900628679724
 30
0.0
 11
-986.5933795407929
 21
-1104.900628679724
 31
0.0
  0
LINE
  5
161
102
{ACAD_REACTORS
330
20D
330
20E
102
}
330
71
100
AcDbEntity
  8
0
  6
Continuous
 62
     2
100
AcDbLine
 10
-986.5933795407929
 20
-1104.900628679724
 30
0.0
 11
-986.5933795407929
 21
-1103.76635657088
 31
0.0
  0
LINE
  5
162
102
{ACAD_REACTORS
330
20D
330
20E
102
}
330
71
100
AcDbEntity
  8
0
  6
Continuous
 62
     2
100
AcDbLine
 10
-987.6430371187002
 20
-1104.900628679724
 30
0.0
 11
-988.8358298208669
 21
-1104.900628679724
 31
0.0
  0
LINE
  5
163
102
{ACAD_REACTORS
330
20D
330
20E
102
}
330
71
100
AcDbEntity
  8
0
  6
Continuous
 62
     2
100
AcDbLine
 10
-988.8358298208669
 20
-1101.846819155913
 30
0.0
 11
-987.6430371187002
 21
-1101.846819155913
 31
0.0
  0
LINE
  5
164
102
{ACAD_REACTORS
330
20D
330
20E
102
}
330
71
100
AcDbEntity
  8
0
  6
Continuous
 62
     2
100
AcDbLine
 10
-987.6430371187002
 20
-1101.846819155913
 30
0.0
 11
-987.6430371187002
 21
-1102.915652489247
 31
0.0
  0
LINE
  5
165
102
{ACAD_REACTORS
330
20D
330
20E
102
}
330
71
100
AcDbEntity
  8
0
  6
Continuous
 62
     2
100
AcDbLine
 10
-987.6430371187002
 20
-1102.915652489247
 30
0.0
 11
-986.5933795407929
 21
-1102.915652489247
 31
0.0
  0
LINE
  5
166
102
{ACAD_REACTORS
330
21B
330
21C
102
}
330
71
100
AcDbEntity
  8
0
  6
Continuous
 62
     2
100
AcDbLine
 10
-990.7920098524205
 20
-1102.509925001353
 30
0.0
 11
-990.4747147908786
 21
-1102.509925001353
 31
0.0
  0
LINE
  5
167
102
{ACAD_REACTORS
330
21B
330
21C
102
}
330
71
100
AcDbEntity
  8
0
  6
Continuous
 62
     2
100
AcDbLine
 10
-990.7920098524205
 20
-1103.215652650695
 30
0.0
 11
-990.4747147908786
 21
-1103.215652650695
 31
0.0
  0
LINE
  5
168
102
{ACAD_REACTORS
330
21B
330
21C
102
}
330
71
100
AcDbEntity
  8
0
  6
Continuous
 62
     2
100
AcDbLine
 10
-992.0325142626746
 20
-1101.846819155913
 30
0.0
 11
-992.0325142626746
 21
-1104.900628679724
 31
0.0
  0
LINE
  5
169
102
{ACAD_REACTORS
330
21B
330
21C
102
}
330
71
100
AcDbEntity
  8
0
  6
Continuous
 62
     2
100
AcDbLine
 10
-992.0325142626746
 20
-1101.846819155913
 30
0.0
 11
-990.0332422646402
 21
-1101.846819155913
 31
0.0
  0
LINE
  5
16A
102
{ACAD_REACTORS
330
21B
330
21C
102
}
330
71
100
AcDbEntity
  8
0
  6
Continuous
 62
     2
100
AcDbLine
 10
-990.7920098524205
 20
-1103.95755043858
 30
0.0
 11
-990.0332422646402
 21
-1103.95755043858
 31
0.0
  0
LINE
  5
16B
102
{ACAD_REACTORS
330
221
330
222
102
}
330
71
100
AcDbEntity
  8
0
  6
Continuous
 62
     2
100
AcDbLine
 10
-998.1290102959713
 20
-1102.875091634548
 30
0.0
 11
-998.1290102959713
 21
-1107.231546677265
 31
0.0
  0
LINE
  5
16C
102
{ACAD_REACTORS
330
221
330
222
102
}
330
71
100
AcDbEntity
  8
0
  6
Continuous
 62
     2
100
AcDbLine
 10
-997.8132933728956
 20
-1102.559374711471
 30
0.0
 11
-996.337460111886
 21
-1102.559374711471
 31
0.0
  0
LINE
  5
16D
102
{ACAD_REACTORS
330
221
330
222
102
}
330
71
100
AcDbEntity
  8
0
  6
Continuous
 62
     2
100
AcDbLine
 10
-996.0217431888094
 20
-1103.479116253608
 30
0.0
 11
-996.0217431888094
 21
-1102.875091634548
 31
0.0
  0
LINE
  5
16E
102
{ACAD_REACTORS
330
221
330
222
102
}
330
71
100
AcDbEntity
  8
0
  6
Continuous
 62
     2
100
AcDbLine
 10
-996.0217431888094
 20
-1107.231546677265
 30
0.0
 11
-996.0217431888094
 21
-1105.700775745733
 31
0.0
  0
LINE
  5
16F
102
{ACAD_REACTORS
330
221
330
222
102
}
330
71
100
AcDbEntity
  8
0
  6
Continuous
 62
     2
100
AcDbLine
 10
-992.9338759589253
 20
-1108.259819155898
 30
0.0
 11
-998.4071880496422
 21
-1108.259819155898
 31
0.0
  0
LINE
  5
170
102
{ACAD_REACTORS
330
221
330
222
102
}
330
71
100
AcDbEntity
  8
0
  6
Continuous
 62
     2
100
AcDbLine
 10
-992.5096313435414
 20
-1102.271063771315
 30
0.0
 11
-992.5096313435414
 21
-1107.835574540515
 31
0.0
  0
LINE
  5
171
102
{ACAD_REACTORS
330
221
330
222
102
}
330
71
100
AcDbEntity
  8
0
  6
Continuous
 62
     2
100
AcDbLine
 10
-998.4071880496422
 20
-1101.846819155931
 30
0.0
 11
-992.9338759589253
 21
-1101.846819155931
 31
0.0
  0
LINE
  5
172
102
{ACAD_REACTORS
330
221
330
222
102
}
330
71
100
AcDbEntity
  8
0
  6
Continuous
 62
     2
100
AcDbLine
 10
-998.831432665025
 20
-1102.271063771315
 30
0.0
 11
-998.831432665025
 21
-1107.835574540515
 31
0.0
  0
LINE
  5
173
102
{ACAD_REACTORS
330
221
330
222
102
}
330
71
100
AcDbEntity
  8
0
  6
Continuous
 62
     2
100
AcDbLine
 10
-996.337460111886
 20
-1107.547263600342
 30
0.0
 11
-997.8132933728956
 21
-1107.547263600342
 31
0.0
  0
LINE
  5
174
102
{ACAD_REACTORS
330
21B
330
21C
102
}
330
71
100
AcDbEntity
  8
0
  6
Continuous
 62
     2
100
AcDbLine
 10
-990.7920098524205
 20
-1104.900628679724
 30
0.0
 11
-990.7920098524205
 21
-1103.95755043858
 31
0.0
  0
LINE
  5
175
102
{ACAD_REACTORS
330
21B
330
21C
102
}
330
71
100
AcDbEntity
  8
0
  6
Continuous
 62
     2
100
AcDbLine
 10
-992.0325142626746
 20
-1104.900628679724
 30
0.0
 11
-990.7920098524205
 21
-1104.900628679724
 31
0.0
  0
LINE
  5
176
102
{ACAD_REACTORS
330
21B
330
21C
102
}
330
71
100
AcDbEntity
  8
0
  6
Continuous
 62
     2
100
AcDbLine
 10
-990.7920098524205
 20
-1103.215652650695
 30
0.0
 11
-990.7920098524205
 21
-1102.509925001353
 31
0.0
  0
LINE
  5
177
102
{ACAD_REACTORS
330
20D
330
20E
102
}
330
71
100
AcDbEntity
  8
0
  6
Continuous
 62
     2
100
AcDbLine
 10
-988.8358298208669
 20
-1101.846819155913
 30
0.0
 11
-988.8358298208669
 21
-1104.900628679724
 31
0.0
  0
LINE
  5
178
102
{ACAD_REACTORS
330
20D
330
20E
102
}
330
71
100
AcDbEntity
  8
0
  6
Continuous
 62
     2
100
AcDbLine
 10
-987.6430371187002
 20
-1103.76635657088
 30
0.0
 11
-987.6430371187002
 21
-1104.900628679724
 31
0.0
  0
LINE
  5
179
102
{ACAD_REACTORS
330
20D
330
20E
102
}
330
71
100
AcDbEntity
  8
0
  6
Continuous
 62
     2
100
AcDbLine
 10
-986.5933795407929
 20
-1103.76635657088
 30
0.0
 11
-987.6430371187002
 21
-1103.76635657088
 31
0.0
  0
LINE
  5
17A
102
{ACAD_REACTORS
330
20D
330
20E
102
}
330
71
100
AcDbEntity
  8
0
  6
Continuous
 62
     2
100
AcDbLine
 10
-986.5933795407929
 20
-1101.846819155913
 30
0.0
 11
-985.4005868386264
 21
-1101.846819155913
 31
0.0
  0
LINE
  5
17B
102
{ACAD_REACTORS
330
20D
330
20E
102
}
330
71
100
AcDbEntity
  8
0
  6
Continuous
 62
     2
100
AcDbLine
 10
-986.5933795407929
 20
-1102.915652489247
 30
0.0
 11
-986.5933795407929
 21
-1101.846819155913
 31
0.0
  0
LINE
  5
17C
102
{ACAD_REACTORS
330
21F
330
220
102
}
330
71
100
AcDbEntity
  8
0
  6
Continuous
 62
     2
100
AcDbLine
 10
-980.5817043218718
 20
-1102.544832761356
 30
0.0
 11
-980.5817043218718
 21
-1101.846819155913
 31
0.0
  0
LINE
  5
17D
102
{ACAD_REACTORS
330
21F
330
220
102
}
330
71
100
AcDbEntity
  8
0
  6
Continuous
 62
     2
100
AcDbLine
 10
-983.7320240456528
 20
-1101.846819155913
 30
0.0
 11
-980.5817043218718
 21
-1101.846819155913
 31
0.0
  0
LINE
  5
17E
102
{ACAD_REACTORS
330
21F
330
220
102
}
330
71
100
AcDbEntity
  8
0
  6
Continuous
 62
     2
100
AcDbLine
 10
-983.7320240456528
 20
-1104.900628679724
 30
0.0
 11
-980.5817043218718
 21
-1104.900628679724
 31
0.0
  0
LINE
  5
17F
102
{ACAD_REACTORS
330
21F
330
220
102
}
330
71
100
AcDbEntity
  8
0
  6
Continuous
 62
     2
100
AcDbLine
 10
-980.5817043218718
 20
-1104.900628679724
 30
0.0
 11
-980.5817043218718
 21
-1104.202615074282
 31
0.0
  0
LINE
  5
180
102
{ACAD_REACTORS
330
21F
330
220
102
}
330
71
100
AcDbEntity
  8
0
  6
Continuous
 62
     2
100
AcDbLine
 10
-980.5817043218718
 20
-1104.202615074282
 30
0.0
 11
-981.9176321482995
 21
-1104.202615074282
 31
0.0
  0
LINE
  5
181
102
{ACAD_REACTORS
330
21F
330
220
102
}
330
71
100
AcDbEntity
  8
0
  6
Continuous
 62
     2
100
AcDbLine
 10
-981.9176321482995
 20
-1104.202615074282
 30
0.0
 11
-981.9176321482995
 21
-1103.72273072054
 31
0.0
  0
LINE
  5
182
102
{ACAD_REACTORS
330
21F
330
220
102
}
330
71
100
AcDbEntity
  8
0
  6
Continuous
 62
     2
100
AcDbLine
 10
-981.9176321482995
 20
-1102.544832761356
 30
0.0
 11
-980.5817043218718
 21
-1102.544832761356
 31
0.0
  0
LINE
  5
183
102
{ACAD_REACTORS
330
20F
330
210
102
}
330
71
100
AcDbEntity
  8
0
  6
Continuous
 62
     2
100
AcDbLine
 10
-984.398791899691
 20
-1108.259819155898
 30
0.0
 11
-984.398791899691
 21
-1106.951043645694
 31
0.0
  0
LINE
  5
184
102
{ACAD_REACTORS
330
20F
330
210
102
}
330
71
100
AcDbEntity
  8
0
  6
Continuous
 62
     2
100
AcDbLine
 10
-984.398791899691
 20
-1106.951043645694
 30
0.0
 11
-983.1582874894382
 21
-1108.259819155898
 31
0.0
  0
LINE
  5
185
102
{ACAD_REACTORS
330
20F
330
210
102
}
330
71
100
AcDbEntity
  8
0
  6
Continuous
 62
     2
100
AcDbLine
 10
-981.9654947872717
 20
-1108.259819155898
 30
0.0
 11
-981.9654947872717
 21
-1105.206009632087
 31
0.0
  0
LINE
  5
186
102
{ACAD_REACTORS
330
20F
330
210
102
}
330
71
100
AcDbEntity
  8
0
  6
Continuous
 62
     2
100
AcDbLine
 10
-981.9654947872717
 20
-1105.206009632087
 30
0.0
 11
-983.1582874894382
 21
-1105.206009632087
 31
0.0
  0
LINE
  5
187
102
{ACAD_REACTORS
330
20F
330
210
102
}
330
71
100
AcDbEntity
  8
0
  6
Continuous
 62
     2
100
AcDbLine
 10
-983.1582874894382
 20
-1105.206009632087
 30
0.0
 11
-983.1582874894382
 21
-1106.514785142292
 31
0.0
  0
LINE
  5
188
102
{ACAD_REACTORS
330
20F
330
210
102
}
330
71
100
AcDbEntity
  8
0
  6
Continuous
 62
     2
100
AcDbLine
 10
-983.1582874894382
 20
-1106.514785142292
 30
0.0
 11
-984.398791899691
 21
-1105.206009632087
 31
0.0
  0
LINE
  5
189
102
{ACAD_REACTORS
330
211
330
212
102
}
330
71
100
AcDbEntity
  8
0
  6
Continuous
 62
     2
100
AcDbLine
 10
-979.1503530792725
 20
-1103.591853169519
 30
0.0
 11
-977.9098486690184
 21
-1104.900628679724
 31
0.0
  0
LINE
  5
18A
102
{ACAD_REACTORS
330
211
330
212
102
}
330
71
100
AcDbEntity
  8
0
  6
Continuous
 62
     2
100
AcDbLine
 10
-977.9098486690184
 20
-1104.900628679724
 30
0.0
 11
-976.7170559668518
 21
-1104.900628679724
 31
0.0
  0
LINE
  5
18B
102
{ACAD_REACTORS
330
211
330
212
102
}
330
71
100
AcDbEntity
  8
0
  6
Continuous
 62
     2
100
AcDbLine
 10
-976.7170559668518
 20
-1104.900628679724
 30
0.0
 11
-976.7170559668518
 21
-1101.846819155913
 31
0.0
  0
LINE
  5
18C
102
{ACAD_REACTORS
330
211
330
212
102
}
330
71
100
AcDbEntity
  8
0
  6
Continuous
 62
     2
100
AcDbLine
 10
-976.7170559668518
 20
-1101.846819155913
 30
0.0
 11
-977.9098486690184
 21
-1101.846819155913
 31
0.0
  0
LINE
  5
18D
102
{ACAD_REACTORS
330
211
330
212
102
}
330
71
100
AcDbEntity
  8
0
  6
Continuous
 62
     2
100
AcDbLine
 10
-977.9098486690184
 20
-1103.155594666118
 30
0.0
 11
-979.1503530792725
 21
-1101.846819155913
 31
0.0
  0
LINE
  5
18E
102
{ACAD_REACTORS
330
211
330
212
102
}
330
71
100
AcDbEntity
  8
0
  6
Continuous
 62
     2
100
AcDbLine
 10
-980.3431457814389
 20
-1104.900628679724
 30
0.0
 11
-979.1503530792725
 21
-1104.900628679724
 31
0.0
  0
LINE
  5
18F
102
{ACAD_REACTORS
330
213
330
214
102
}
330
71
100
AcDbEntity
  8
0
  6
Continuous
 62
     2
100
AcDbLine
 10
-981.8223596630115
 20
-1105.206009632087
 30
0.0
 11
-981.8223596630115
 21
-1105.991274938211
 31
0.0
  0
LINE
  5
190
102
{ACAD_REACTORS
330
213
330
214
102
}
330
71
100
AcDbEntity
  8
0
  6
Continuous
 62
     2
100
AcDbLine
 10
-981.0112606255369
 20
-1105.991274938211
 30
0.0
 11
-981.0112606255369
 21
-1108.259819155898
 31
0.0
  0
LINE
  5
191
102
{ACAD_REACTORS
330
213
330
214
102
}
330
71
100
AcDbEntity
  8
0
  6
Continuous
 62
     2
100
AcDbLine
 10
-981.0112606255369
 20
-1108.259819155898
 30
0.0
 11
-979.8184679233705
 21
-1108.259819155898
 31
0.0
  0
LINE
  5
192
102
{ACAD_REACTORS
330
215
330
216
102
}
330
71
100
AcDbEntity
  8
0
  6
Continuous
 62
     2
100
AcDbLine
 10
-976.868941429951
 20
-1108.259819155898
 30
0.0
 11
-977.0804214834267
 21
-1107.71885861168
 31
0.0
  0
LINE
  5
193
102
{ACAD_REACTORS
330
215
330
216
102
}
330
71
100
AcDbEntity
  8
0
  6
Continuous
 62
     2
100
AcDbLine
 10
-977.0263900666373
 20
-1105.206009632087
 30
0.0
 11
-975.628437019697
 21
-1108.259819155898
 31
0.0
  0
LINE
  5
194
102
{ACAD_REACTORS
330
215
330
216
102
}
330
71
100
AcDbEntity
  8
0
  6
Continuous
 62
     2
100
AcDbLine
 10
-978.26689447689
 20
-1105.206009632087
 30
0.0
 11
-977.0263900666373
 21
-1105.206009632087
 31
0.0
  0
LINE
  5
195
102
{ACAD_REACTORS
330
215
330
216
102
}
330
71
100
AcDbEntity
  8
0
  6
Continuous
 62
     2
100
AcDbLine
 10
-979.6648475238293
 20
-1108.259819155898
 30
0.0
 11
-978.4243431135764
 21
-1108.259819155898
 31
0.0
  0
LINE
  5
196
102
{ACAD_REACTORS
330
215
330
216
102
}
330
71
100
AcDbEntity
  8
0
  6
Continuous
 62
     2
100
AcDbLine
 10
-977.9468075089555
 20
-1107.038295346374
 30
0.0
 11
-977.346477034573
 21
-1107.038295346374
 31
0.0
  0
LINE
  5
197
102
{ACAD_REACTORS
330
215
330
216
102
}
330
71
100
AcDbEntity
  8
0
  6
Continuous
 62
     2
100
AcDbLine
 10
-977.346477034573
 20
-1107.038295346374
 30
0.0
 11
-977.6466422717631
 21
-1106.270480380387
 31
0.0
  0
LINE
  5
198
102
{ACAD_REACTORS
330
217
330
218
102
}
330
71
100
AcDbEntity
  8
0
  6
Continuous
 62
     2
100
AcDbLine
 10
-975.237993016165
 20
-1104.900628679724
 30
0.0
 11
-976.4784974264179
 21
-1104.900628679724
 31
0.0
  0
LINE
  5
199
102
{ACAD_REACTORS
330
219
330
21A
102
}
330
71
100
AcDbEntity
  8
0
  6
Continuous
 62
     2
100
AcDbLine
 10
-973.7159895281999
 20
-1104.900628679724
 30
0.0
 11
-975.1187137459481
 21
-1104.900628679724
 31
0.0
  0
LINE
  5
19A
102
{ACAD_REACTORS
330
219
330
21A
102
}
330
71
100
AcDbEntity
  8
0
  6
Continuous
 62
     2
100
AcDbLine
 10
-973.7159895281999
 20
-1104.900628679724
 30
0.0
 11
-973.0193985901342
 21
-1104.11289689443
 31
0.0
  0
LINE
  5
19B
102
{ACAD_REACTORS
330
219
330
21A
102
}
330
71
100
AcDbEntity
  8
0
  6
Continuous
 62
     2
100
AcDbLine
 10
-972.4182310682414
 20
-1101.846819155913
 30
0.0
 11
-971.0155068504941
 21
-1101.846819155913
 31
0.0
  0
LINE
  5
19C
102
{ACAD_REACTORS
330
219
330
21A
102
}
330
71
100
AcDbEntity
  8
0
  6
Continuous
 62
     2
100
AcDbLine
 10
-975.0232903297754
 20
-1101.846819155913
 30
0.0
 11
-973.7207606990078
 21
-1103.319769685949
 31
0.0
  0
LINE
  5
19D
102
{ACAD_REACTORS
330
219
330
21A
102
}
330
71
100
AcDbEntity
  8
0
  6
Continuous
 62
     2
100
AcDbLine
 10
-975.1187137459481
 20
-1104.900628679724
 30
0.0
 11
-973.7207606990078
 21
-1103.319769685949
 31
0.0
  0
LINE
  5
19E
102
{ACAD_REACTORS
330
223
330
224
102
}
330
71
100
AcDbEntity
  8
0
  6
Continuous
 62
     2
100
AcDbLine
 10
-973.2579571305682
 20
-1107.212798747735
 30
0.0
 11
-973.2579571305682
 21
-1108.085315754538
 31
0.0
  0
LINE
  5
19F
102
{ACAD_REACTORS
330
223
330
224
102
}
330
71
100
AcDbEntity
  8
0
  6
Continuous
 62
     2
100
AcDbLine
 10
-974.0276144735296
 20
-1105.991274938211
 30
0.0
 11
-972.9239751739615
 21
-1105.991274938211
 31
0.0
  0
LINE
  5
1A0
102
{ACAD_REACTORS
330
225
330
226
102
}
330
71
100
AcDbEntity
  8
0
  6
Continuous
 62
     2
100
AcDbLine
 10
-989.3606586098201
 20
-1107.212798747734
 30
0.0
 11
-989.3606586098201
 21
-1108.085315754537
 31
0.0
  0
LINE
  5
1A1
102
{ACAD_REACTORS
330
225
330
226
102
}
330
71
100
AcDbEntity
  8
0
  6
Continuous
 62
     2
100
AcDbLine
 10
-989.3606586098201
 20
-1106.253030040251
 30
0.0
 11
-989.3606586098201
 21
-1105.380513033448
 31
0.0
  0
LINE
  5
1A2
330
71
100
AcDbEntity
  8
1
  6
Continuous
 62
     7
100
AcDbLine
 10
-873.5232830248362
 20
-1107.053319155915
 30
0.0
 11
-966.6680875515876
 21
-1107.053319155915
 31
0.0
  0
LINE
  5
1A3
330
71
100
AcDbEntity
  8
1
  6
Continuous
 62
     6
100
AcDbLine
 10
-1072.068087551588
 20
-1115.553319155915
 30
0.0
 11
-1117.023283024837
 21
-1115.553319155915
 31
0.0
  0
LINE
  5
1A4
330
71
100
AcDbEntity
  8
1
  6
Continuous
 62
     7
100
AcDbLine
 10
-882.441691306515
 20
-1090.053319155915
 30
0.0
 11
-882.441691306515
 21
-1098.553319155915
 31
0.0
  0
LINE
  5
1A5
330
71
100
AcDbEntity
  8
1
  6
Continuous
 62
     7
100
AcDbLine
 10
-908.9416913065146
 20
-1090.053319155915
 30
0.0
 11
-908.9416913065146
 21
-1098.553319155915
 31
0.0
  0
LINE
  5
1A6
330
71
100
AcDbEntity
  8
1
  6
Continuous
 62
     7
100
AcDbLine
 10
-966.6680875515876
 20
-1098.553319155915
 30
0.0
 11
-966.6680875515876
 21
-1090.053319155915
 31
0.0
  0
LINE
  5
1A7
330
71
100
AcDbEntity
  8
1
  6
Continuous
 62
     7
100
AcDbLine
 10
-1003.068087551588
 20
-1098.553319155915
 30
0.0
 11
-1003.068087551588
 21
-1090.053319155915
 31
0.0
  0
LINE
  5
1A8
330
71
100
AcDbEntity
  8
1
  6
Continuous
 62
     6
100
AcDbLine
 10
-966.6680875515876
 20
-1098.553319155915
 30
0.0
 11
-873.5232830248358
 21
-1098.553319155915
 31
0.0
  0
LINE
  5
1A9
330
71
100
AcDbEntity
  8
1
  6
Continuous
 62
     7
100
AcDbLine
 10
-938.7680875515875
 20
-1107.053319155915
 30
0.0
 11
-938.7680875515875
 21
-1098.553319155915
 31
0.0
  0
LINE
  5
1AA
330
71
100
AcDbEntity
  8
1
  6
PHANTOM
 62
     2
100
AcDbLine
 10
-987.581432665025
 20
-1094.428319155915
 30
0.0
 11
-993.081432665025
 21
-1094.428319155915
 31
0.0
  0
LINE
  5
1AB
330
71
100
AcDbEntity
  8
1
  6
PHANTOM
 62
     2
100
AcDbLine
 10
-990.331432665025
 20
-1091.678319155915
 30
0.0
 11
-990.331432665025
 21
-1097.178319155915
 31
0.0
  0
LINE
  5
1AC
330
71
100
AcDbEntity
  8
1
  6
DOT_CENTER
 62
     2
100
AcDbLine
 10
-999.081432665025
 20
-1094.428319155915
 30
0.0
 11
-993.581432665025
 21
-1094.428319155915
 31
0.0
  0
ARC
  5
1AD
102
{ACAD_REACTORS
330
225
330
226
102
}
330
71
100
AcDbEntity
  8
0
  6
Continuous
 62
     2
100
AcDbCircle
 10
-990.696586526938
 20
-1110.045595339249
 30
0.0
 40
4.852596863498158
100
AcDbArc
 50
74.02000874164733
 51
84.8418552303745
  0
ARC
  5
1AE
102
{ACAD_REACTORS
330
225
330
226
102
}
330
71
100
AcDbEntity
  8
0
  6
Continuous
 62
     2
100
AcDbCircle
 10
-990.1205459181842
 20
-1106.889834983365
 30
0.0
 40
0.9059297849858261
100
AcDbArc
 50
71.5519238818603
 51
113.3722778881271
  0
ARC
  5
1AF
102
{ACAD_REACTORS
330
225
330
226
102
}
330
71
100
AcDbEntity
  8
0
  6
Continuous
 62
     2
100
AcDbCircle
 10
-990.2769859508862
 20
-1106.937985823332
 30
0.0
 40
0.5115800601945569
100
AcDbArc
 50
208.5214732576381
 51
246.6277221118278
  0
ARC
  5
1B0
102
{ACAD_REACTORS
330
225
330
226
102
}
330
71
100
AcDbEntity
  8
0
  6
Continuous
 62
     2
100
AcDbCircle
 10
-990.1205459181842
 20
-1106.575993804622
 30
0.0
 40
0.9059297849848444
100
AcDbArc
 50
246.6277221118729
 51
288.4480761181807
  0
ARC
  5
1B1
102
{ACAD_REACTORS
330
225
330
226
102
}
330
71
100
AcDbEntity
  8
0
  6
Continuous
 62
     2
100
AcDbCircle
 10
-990.538713651845
 20
-1105.322448028584
 30
0.0
 40
2.227384008972611
100
AcDbArc
 50
288.4480761181346
 51
301.9309089499566
  0
ARC
  5
1B2
102
{ACAD_REACTORS
330
221
330
222
102
}
330
71
100
AcDbEntity
  8
0
  6
Continuous
 62
     2
100
AcDbCircle
 10
-995.7637873844518
 20
-1104.58994599967
 30
0.0
 40
0.9118481501447171
100
AcDbArc
 50
295.3740086781648
 51
64.62599132179845
  0
ARC
  5
1B3
102
{ACAD_REACTORS
330
221
330
222
102
}
330
71
100
AcDbEntity
  8
0
  6
Continuous
 62
     2
100
AcDbCircle
 10
-995.237744686364
 20
-1102.875269111196
 30
0.0
 40
0.3157169230762415
100
AcDbArc
 50
90.18896704254068
 51
180.0
  0
ARC
  5
1B4
102
{ACAD_REACTORS
330
223
330
224
102
}
330
71
100
AcDbEntity
  8
0
  6
Continuous
 62
     2
100
AcDbCircle
 10
-974.0276144735296
 20
-1106.945797945037
 30
0.0
 40
0.9545230068258661
100
AcDbArc
 50
90.0
 51
109.337143219422
  0
ARC
  5
1B5
102
{ACAD_REACTORS
330
223
330
224
102
}
330
71
100
AcDbEntity
  8
0
  6
Continuous
 62
     2
100
AcDbCircle
 10
-973.796927213552
 20
-1106.732914393993
 30
0.0
 40
0.9410597353348766
100
AcDbArc
 50
151.4785267423678
 51
208.5214732576808
  0
ARC
  5
1B6
102
{ACAD_REACTORS
330
223
330
224
102
}
330
71
100
AcDbEntity
  8
0
  6
Continuous
 62
     2
100
AcDbCircle
 10
-974.0178444389302
 20
-1106.575993804622
 30
0.0
 40
0.9059297849852503
100
AcDbArc
 50
246.6277221118135
 51
288.4480761180943
  0
ARC
  5
1B7
102
{ACAD_REACTORS
330
223
330
224
102
}
330
71
100
AcDbEntity
  8
0
  6
Continuous
 62
     2
100
AcDbCircle
 10
-974.4360121725921
 20
-1105.322448028585
 30
0.0
 40
2.227384008972396
100
AcDbArc
 50
288.4480761181364
 51
301.9309089499373
  0
ARC
  5
1B8
102
{ACAD_REACTORS
330
223
330
224
102
}
330
71
100
AcDbEntity
  8
0
  6
Continuous
 62
     2
100
AcDbCircle
 10
-974.5938850476849
 20
-1103.420233448737
 30
0.0
 40
4.852596863498941
100
AcDbArc
 50
275.1581447696365
 51
285.9799912583397
  0
ARC
  5
1B9
102
{ACAD_REACTORS
330
223
330
224
102
}
330
71
100
AcDbEntity
  8
0
  6
Continuous
 62
     2
100
AcDbCircle
 10
-974.3050289529491
 20
-1106.620124031958
 30
0.0
 40
1.639695123940421
100
AcDbArc
 50
195.0618917771015
 51
275.1581447696752
  0
ARC
  5
1BA
102
{ACAD_REACTORS
330
21B
330
21C
102
}
330
71
100
AcDbEntity
  8
0
  6
Continuous
 62
     2
100
AcDbCircle
 10
-990.0332422646402
 20
-1102.902184797247
 30
0.0
 40
1.055365641333083
100
AcDbArc
 50
270.0
 51
90.0
  0
ARC
  5
1BB
102
{ACAD_REACTORS
330
221
330
222
102
}
330
71
100
AcDbEntity
  8
0
  6
Continuous
 62
     2
100
AcDbCircle
 10
-997.8132933728956
 20
-1107.231546677265
 30
0.0
 40
0.3157169230756836
100
AcDbArc
 50
180.0
 51
270.0
  0
ARC
  5
1BC
102
{ACAD_REACTORS
330
221
330
222
102
}
330
71
100
AcDbEntity
  8
0
  6
Continuous
 62
     2
100
AcDbCircle
 10
-996.337460111886
 20
-1102.875091634548
 30
0.0
 40
0.315716923076593
100
AcDbArc
 50
0.0
 51
90.0
  0
ARC
  5
1BD
102
{ACAD_REACTORS
330
221
330
222
102
}
330
71
100
AcDbEntity
  8
0
  6
Continuous
 62
     2
100
AcDbCircle
 10
-996.337460111886
 20
-1103.479116253608
 30
0.0
 40
0.3157169230764803
100
AcDbArc
 50
295.194410648509
 51
0.0
  0
ARC
  5
1BE
102
{ACAD_REACTORS
330
221
330
222
102
}
330
71
100
AcDbEntity
  8
0
  6
Continuous
 62
     2
100
AcDbCircle
 10
-996.337460111886
 20
-1107.231546677265
 30
0.0
 40
0.3157169230769341
100
AcDbArc
 50
270.0
 51
0.0
  0
ARC
  5
1BF
102
{ACAD_REACTORS
330
221
330
222
102
}
330
71
100
AcDbEntity
  8
0
  6
Continuous
 62
     2
100
AcDbCircle
 10
-998.4071880496422
 20
-1102.271063771315
 30
0.0
 40
0.4242446153841684
100
AcDbArc
 50
90.0
 51
180.0
  0
ARC
  5
1C0
102
{ACAD_REACTORS
330
221
330
222
102
}
330
71
100
AcDbEntity
  8
0
  6
Continuous
 62
     2
100
AcDbCircle
 10
-992.9338759589253
 20
-1102.271063771315
 30
0.0
 40
0.424244615383941
100
AcDbArc
 50
0.0
 51
90.0
  0
ARC
  5
1C1
102
{ACAD_REACTORS
330
221
330
222
102
}
330
71
100
AcDbEntity
  8
0
  6
Continuous
 62
     2
100
AcDbCircle
 10
-992.9338759589253
 20
-1107.835574540515
 30
0.0
 40
0.4242446153830315
100
AcDbArc
 50
270.0
 51
0.0
  0
ARC
  5
1C2
102
{ACAD_REACTORS
330
21F
330
220
102
}
330
71
100
AcDbEntity
  8
0
  6
Continuous
 62
     2
100
AcDbCircle
 10
-983.7154920718338
 20
-1103.373723917819
 30
0.0
 40
0.7717997786796852
100
AcDbArc
 50
321.8795802028358
 51
38.12041979716419
  0
ARC
  5
1C3
102
{ACAD_REACTORS
330
21F
330
220
102
}
330
71
100
AcDbEntity
  8
0
  6
Continuous
 62
     2
100
AcDbCircle
 10
-983.5157520354876
 20
-1103.530455095939
 30
0.0
 40
0.5179085730137529
100
AcDbArc
 50
218.1204197971956
 51
321.8795802028121
  0
ARC
  5
1C4
102
{ACAD_REACTORS
330
21D
330
21E
102
}
330
71
100
AcDbEntity
  8
0
  6
Continuous
 62
     2
100
AcDbCircle
 10
-987.1957596244479
 20
-1106.732914393993
 30
0.0
 40
1.458034083651513
100
AcDbArc
 50
297.5481481757149
 51
62.45185182428927
  0
ARC
  5
1C5
102
{ACAD_REACTORS
330
21D
330
21E
102
}
330
71
100
AcDbEntity
  8
0
  6
Continuous
 62
     2
100
AcDbCircle
 10
-987.7576394081144
 20
-1106.732914393993
 30
0.0
 40
1.458034083651136
100
AcDbArc
 50
117.5481481756672
 51
242.4518518243287
  0
ARC
  5
1C6
102
{ACAD_REACTORS
330
21D
330
21E
102
}
330
71
100
AcDbEntity
  8
0
  6
Continuous
 62
     2
100
AcDbCircle
 10
-987.4766995162811
 20
-1107.271489404296
 30
0.0
 40
2.065479772208441
100
AcDbArc
 50
62.45185182430455
 51
117.5481481756675
  0
ARC
  5
1C7
102
{ACAD_REACTORS
330
21D
330
21E
102
}
330
71
100
AcDbEntity
  8
0
  6
Continuous
 62
     2
100
AcDbCircle
 10
-987.4766995162811
 20
-1106.19433938369
 30
0.0
 40
2.065479772207715
100
AcDbArc
 50
242.4518518243296
 51
297.5481481756984
  0
ARC
  5
1C8
102
{ACAD_REACTORS
330
21F
330
220
102
}
330
71
100
AcDbEntity
  8
0
  6
Continuous
 62
     2
100
AcDbCircle
 10
-983.3160119991413
 20
-1103.373723917819
 30
0.0
 40
0.7717997786796852
100
AcDbArc
 50
141.8795802028358
 51
218.1204197971642
  0
ARC
  5
1C9
102
{ACAD_REACTORS
330
21F
330
220
102
}
330
71
100
AcDbEntity
  8
0
  6
Continuous
 62
     2
100
AcDbCircle
 10
-983.5157520354876
 20
-1103.216992739698
 30
0.0
 40
0.517908573013281
100
AcDbArc
 50
38.12041979710871
 51
141.8795802028835
  0
ARC
  5
1CA
102
{ACAD_REACTORS
330
221
330
222
102
}
330
71
100
AcDbEntity
  8
0
  6
Continuous
 62
     2
100
AcDbCircle
 10
-998.4071880496422
 20
-1107.835574540515
 30
0.0
 40
0.4242446153828041
100
AcDbArc
 50
180.0
 51
270.0
  0
ARC
  5
1CB
102
{ACAD_REACTORS
330
221
330
222
102
}
330
71
100
AcDbEntity
  8
0
  6
Continuous
 62
     2
100
AcDbCircle
 10
-996.337460111886
 20
-1105.700775745733
 30
0.0
 40
0.315716923076593
100
AcDbArc
 50
0.0
 51
64.80558935147346
  0
ARC
  5
1CC
102
{ACAD_REACTORS
330
221
330
222
102
}
330
71
100
AcDbEntity
  8
0
  6
Continuous
 62
     2
100
AcDbCircle
 10
-995.814875664311
 20
-1104.58994599967
 30
0.0
 40
0.9118975235569838
100
AcDbArc
 50
115.1944106485489
 51
244.8055893514877
  0
ARC
  5
1CD
102
{ACAD_REACTORS
330
221
330
222
102
}
330
71
100
AcDbEntity
  8
0
  6
Continuous
 62
     2
100
AcDbCircle
 10
-997.8132933728956
 20
-1102.875091634548
 30
0.0
 40
0.3157169230769341
100
AcDbArc
 50
90.0
 51
180.0
  0
ARC
  5
1CE
102
{ACAD_REACTORS
330
21B
330
21C
102
}
330
71
100
AcDbEntity
  8
0
  6
Continuous
 62
     2
100
AcDbCircle
 10
-990.4747147908786
 20
-1102.862788826024
 30
0.0
 40
0.3528638246709761
100
AcDbArc
 50
270.0
 51
90.0
  0
ARC
  5
1CF
102
{ACAD_REACTORS
330
21F
330
220
102
}
330
71
100
AcDbEntity
  8
0
  6
Continuous
 62
     2
100
AcDbCircle
 10
-983.7320240456528
 20
-1103.373723917819
 30
0.0
 40
1.526904761906053
100
AcDbArc
 50
90.0
 51
270.0
  0
ARC
  5
1D0
102
{ACAD_REACTORS
330
223
330
224
102
}
330
71
100
AcDbEntity
  8
0
  6
Continuous
 62
     2
100
AcDbCircle
 10
-974.3050289529491
 20
-1106.845704756028
 30
0.0
 40
1.639695123940101
100
AcDbArc
 50
90.0
 51
164.9381082228985
  0
ARC
  5
1D1
102
{ACAD_REACTORS
330
223
330
224
102
}
330
71
100
AcDbEntity
  8
0
  6
Continuous
 62
     2
100
AcDbCircle
 10
-974.7241567964107
 20
-1106.732914393993
 30
0.0
 40
1.205656168392903
100
AcDbArc
 50
164.9381082229099
 51
195.0618917770901
  0
ARC
  5
1D2
102
{ACAD_REACTORS
330
223
330
224
102
}
330
71
100
AcDbEntity
  8
0
  6
Continuous
 62
     2
100
AcDbCircle
 10
-974.1742844716333
 20
-1106.937985823332
 30
0.0
 40
0.5115800601959901
100
AcDbArc
 50
208.5214732576668
 51
246.6277221118395
  0
ARC
  5
1D3
102
{ACAD_REACTORS
330
223
330
224
102
}
330
71
100
AcDbEntity
  8
0
  6
Continuous
 62
     2
100
AcDbCircle
 10
-974.1742844716333
 20
-1106.527842964654
 30
0.0
 40
0.5115800601946194
100
AcDbArc
 50
109.3371432194738
 51
151.4785267424451
  0
ARC
  5
1D4
102
{ACAD_REACTORS
330
221
330
222
102
}
330
71
100
AcDbEntity
  8
0
  6
Continuous
 62
     2
100
AcDbCircle
 10
-995.237744686364
 20
-1106.280939006334
 30
0.0
 40
0.3157169230768204
100
AcDbArc
 50
180.0
 51
269.8110329574592
  0
ARC
  5
1D5
102
{ACAD_REACTORS
330
221
330
222
102
}
330
71
100
AcDbEntity
  8
0
  6
Continuous
 62
     2
100
AcDbCircle
 10
-995.2321285510538
 20
-1104.578104058765
 30
0.0
 40
2.018561131933152
100
AcDbArc
 50
269.8110329575842
 51
90.18896704241578
  0
ARC
  5
1D6
102
{ACAD_REACTORS
330
221
330
222
102
}
330
71
100
AcDbEntity
  8
0
  6
Continuous
 62
     2
100
AcDbCircle
 10
-995.237744686364
 20
-1103.480804399703
 30
0.0
 40
0.3157169230768204
100
AcDbArc
 50
180.0
 51
244.6259913216126
  0
ARC
  5
1D7
102
{ACAD_REACTORS
330
221
330
222
102
}
330
71
100
AcDbEntity
  8
0
  6
Continuous
 62
     2
100
AcDbCircle
 10
-995.237744686364
 20
-1105.699087599639
 30
0.0
 40
0.3157169230768018
100
AcDbArc
 50
115.3740086783344
 51
180.0
  0
ARC
  5
1D8
102
{ACAD_REACTORS
330
225
330
226
102
}
330
71
100
AcDbEntity
  8
0
  6
Continuous
 62
     2
100
AcDbCircle
 10
-990.407730432202
 20
-1106.845704756028
 30
0.0
 40
1.639695123940224
100
AcDbArc
 50
84.84185523036146
 51
164.9381082228903
  0
ARC
  5
1D9
102
{ACAD_REACTORS
330
225
330
226
102
}
330
71
100
AcDbEntity
  8
0
  6
Continuous
 62
     2
100
AcDbCircle
 10
-990.8268582756648
 20
-1106.732914393993
 30
0.0
 40
1.205656168390927
100
AcDbArc
 50
164.9381082228846
 51
195.0618917771153
  0
ARC
  5
1DA
102
{ACAD_REACTORS
330
225
330
226
102
}
330
71
100
AcDbEntity
  8
0
  6
Continuous
 62
     2
100
AcDbCircle
 10
-990.407730432202
 20
-1106.620124031958
 30
0.0
 40
1.639695123939543
100
AcDbArc
 50
195.0618917771097
 51
275.1581447696385
  0
ARC
  5
1DB
102
{ACAD_REACTORS
330
225
330
226
102
}
330
71
100
AcDbEntity
  8
0
  6
Continuous
 62
     2
100
AcDbCircle
 10
-990.696586526938
 20
-1103.420233448737
 30
0.0
 40
4.852596863497943
100
AcDbArc
 50
275.1581447696255
 51
285.9799912583556
  0
ARC
  5
1DC
102
{ACAD_REACTORS
330
225
330
226
102
}
330
71
100
AcDbEntity
  8
0
  6
Continuous
 62
     2
100
AcDbCircle
 10
-989.8996286928059
 20
-1106.732914393993
 30
0.0
 40
0.9410597353335216
100
AcDbArc
 50
151.4785267422442
 51
208.521473257695
  0
ARC
  5
1DD
102
{ACAD_REACTORS
330
225
330
226
102
}
330
71
100
AcDbEntity
  8
0
  6
Continuous
 62
     2
100
AcDbCircle
 10
-990.2769859508862
 20
-1106.527842964654
 30
0.0
 40
0.5115800601943187
100
AcDbArc
 50
113.3722778882227
 51
151.4785267422724
  0
ARC
  5
1DE
102
{ACAD_REACTORS
330
225
330
226
102
}
330
71
100
AcDbEntity
  8
0
  6
Continuous
 62
     2
100
AcDbCircle
 10
-990.538713651845
 20
-1108.143380759401
 30
0.0
 40
2.227384008973646
100
AcDbArc
 50
58.06909105004343
 51
71.55192388186538
  0
ARC
  5
1DF
102
{ACAD_REACTORS
330
21D
330
21E
102
}
330
71
100
AcDbEntity
  8
0
  6
Continuous
 62
     2
100
AcDbCircle
 10
-987.4766995162811
 20
-1106.576183215872
 30
0.0
 40
0.517908573013102
100
AcDbArc
 50
38.12041979712424
 51
141.8795802028835
  0
ARC
  5
1E0
102
{ACAD_REACTORS
330
21D
330
21E
102
}
330
71
100
AcDbEntity
  8
0
  6
Continuous
 62
     2
100
AcDbCircle
 10
-987.276959479935
 20
-1106.732914393993
 30
0.0
 40
0.7717997786795062
100
AcDbArc
 50
141.8795802028254
 51
218.1204197971746
  0
ARC
  5
1E1
102
{ACAD_REACTORS
330
21D
330
21E
102
}
330
71
100
AcDbEntity
  8
0
  6
Continuous
 62
     2
100
AcDbCircle
 10
-987.4766995162811
 20
-1106.889645572113
 30
0.0
 40
0.5179085730137529
100
AcDbArc
 50
218.1204197971956
 51
321.8795802027966
  0
ARC
  5
1E2
102
{ACAD_REACTORS
330
21D
330
21E
102
}
330
71
100
AcDbEntity
  8
0
  6
Continuous
 62
     2
100
AcDbCircle
 10
-987.6764395526275
 20
-1106.732914393993
 30
0.0
 40
0.7717997786796852
100
AcDbArc
 50
321.8795802028358
 51
38.12041979716419
  0
CIRCLE
  5
1E3
330
71
100
AcDbEntity
  8
1
  6
Continuous
 62
     2
100
AcDbCircle
 10
-990.331432665025
 20
-1094.428319155915
 30
0.0
 40
2.5
  0
CIRCLE
  5
1E4
330
71
100
AcDbEntity
  8
1
  6
Continuous
 62
     2
100
AcDbCircle
 10
-990.331432665025
 20
-1094.428319155915
 30
0.0
 40
1.25
  0
CIRCLE
  5
1E5
102
{ACAD_REACTORS
330
221
330
222
102
}
330
71
100
AcDbEntity
  8
0
  6
Continuous
 62
     2
100
AcDbCircle
 10
-995.7876023991246
 20
-1104.58994599967
 30
0.0
 40
0.4709789327785074
  0
MTEXT
  5
1E6
330
71
100
AcDbEntity
  8
1
 62
     3
100
AcDbMText
 10
-1160.518215238766
 20
-928.7620110006158
 30
0.0
 40
1.8
 41
0.0
 71
     7
 72
     1
  3
Weitergabe sowie Vervielf\U+00e4ltigung dieses Dokuments, Verwertung und \PMitteilung seines Inhalts sind verboten, soweit nicht ausdr\U+00fccklich gestattet. \PZuwiderhandlungen verpflichten zu Schadenersatz. Alle Rechte f\U+00fcr den Fall\Pder Pat
  1
ent-, Gebrauchsmuster- oder Designeintragung vorbehalten.
  7
CONVERTER_11
 73
     1
 44
0.99639855942377
  0
MTEXT
  5
1E7
330
71
100
AcDbEntity
  8
1
 62
     3
100
AcDbMText
 10
-977.6651053999776
 20
-928.7620110006158
 30
0.0
 40
1.8
 41
0.0
 71
     7
 72
     1
  3
Transfer or duplication of this document as well as the utilisation or\Pcommunication of its content are not permitted unless express consent\Pis granted. Violations give rise to claims for damages. All rights reserved\Pin case of patent, utility mo
  1
del or design patent registrations.
  7
CONVERTER_11
 73
     1
 44
0.99639855942377
  0
TEXT
  5
1E8
330
71
100
AcDbEntity
  8
1
 62
     2
100
AcDbText
 10
-983.8680875515877
 20
-1114.312336370906
 30
0.0
 40
1.8
  1
of
 41
0.9
  7
CONVERTER_11
100
AcDbText
  0
TEXT
  5
1E9
330
71
100
AcDbEntity
  8
1
 62
     2
100
AcDbText
 10
-1002.068087551588
 20
-1114.312336370906
 30
0.0
 40
1.8
  1
page
 41
0.9
  7
CONVERTER_11
100
AcDbText
  0
TEXT
  5
1EA
330
71
100
AcDbEntity
  8
1
 62
     2
100
AcDbText
 10
-993.4218225812456
 20
-1114.352567809717
 30
0.0
 40
1.8
  1
1
 41
0.9
  7
CONVERTER_11
100
AcDbText
  0
TEXT
  5
1EB
330
71
100
AcDbEntity
  8
1
 62
     2
100
AcDbText
 10
-978.632778741774
 20
-1114.303319155915
 30
0.0
 40
1.8
  1
1
 41
0.9
  7
CONVERTER_11
100
AcDbText
  0
MTEXT
  5
1ED
330
71
100
AcDbEntity
  8
1
 62
     7
100
AcDbMText
 10
-920.095685288212
 20
-1112.303319155914
 30
0.0
 40
3.0
 41
0.0
 71
     5
 72
     1
  1
D-OTTA  2,5
  7
CONVERTER_12
 73
     1
 44
1.20048019207683
  0
MTEXT
  5
1EE
330
71
100
AcDbEntity
  8
1
 62
     2
100
AcDbMText
 10
-965.6680875515876
 20
-1108.053319155915
 30
0.0
 40
1.8
 41
0.0
 71
     1
 72
     1
  1
description
  7
CONVERTER_11
 73
     1
 44
1.20048019207683
  0
MTEXT
  5
1EF
330
71
100
AcDbEntity
  8
1
 62
     3
100
AcDbMText
 10
-976.8680875515877
 20
-1094.428319155915
 30
0.0
 40
2.5
 41
0.0
 71
     5
 72
     1
  1
DIN A4
  7
CONVERTER_11
 73
     1
 44
1.20048019207683
  0
MTEXT
  5
1F0
330
71
100
AcDbEntity
  8
1
 62
     7
100
AcDbMText
 10
-1163.023283024837
 20
-1093.053319155915
 30
0.0
 40
3.5
 41
0.0
 71
     5
 72
     1
  1
D
  7
CONVERTER_11
 73
     1
 44
1.20048019207683
  0
MTEXT
  5
1F1
330
71
100
AcDbEntity
  8
1
 62
     7
100
AcDbMText
 10
-1163.023283024837
 20
-1040.553319155915
 30
0.0
 40
3.5
 41
0.0
 71
     5
 72
     1
  1
C
  7
CONVERTER_11
 73
     1
 44
1.20048019207683
  0
MTEXT
  5
1F2
330
71
100
AcDbEntity
  8
1
 62
     7
100
AcDbMText
 10
-1163.023283024837
 20
-990.5533191559146
 30
0.0
 40
3.5
 41
0.0
 71
     5
 72
     1
  1
B
  7
CONVERTER_11
 73
     1
 44
1.20048019207683
  0
MTEXT
  5
1F3
330
71
100
AcDbEntity
  8
1
 62
     7
100
AcDbMText
 10
-1163.023283024837
 20
-938.0533191559146
 30
0.0
 40
3.5
 41
0.0
 71
     5
 72
     1
  1
A
  7
CONVERTER_11
 73
     1
 44
1.20048019207683
  0
MTEXT
  5
1F4
330
71
100
AcDbEntity
  8
1
 62
     7
100
AcDbMText
 10
-892.7732830248383
 20
-1118.053319155915
 30
0.0
 40
3.5
 41
0.0
 71
     5
 72
     1
  1
6
  7
CONVERTER_11
 73
     1
 44
1.20048019207683
  0
MTEXT
  5
1F5
330
71
100
AcDbEntity
  8
1
 62
     7
100
AcDbMText
 10
-942.0232830248375
 20
-1118.053319155915
 30
0.0
 40
3.5
 41
0.0
 71
     5
 72
     1
  1
5
  7
CONVERTER_11
 73
     1
 44
1.20048019207683
  0
MTEXT
  5
1F6
330
71
100
AcDbEntity
  8
1
 62
     7
100
AcDbMText
 10
-992.0232830248376
 20
-1118.053319155915
 30
0.0
 40
3.5
 41
0.0
 71
     5
 72
     1
  1
4
  7
CONVERTER_11
 73
     1
 44
1.20048019207683
  0
MTEXT
  5
1F7
330
71
100
AcDbEntity
  8
1
 62
     7
100
AcDbMText
 10
-1042.023283024837
 20
-1118.053319155915
 30
0.0
 40
3.5
 41
0.0
 71
     5
 72
     1
  1
3
  7
CONVERTER_11
 73
     1
 44
1.20048019207683
  0
MTEXT
  5
1F8
330
71
100
AcDbEntity
  8
1
 62
     7
100
AcDbMText
 10
-1092.023283024837
 20
-1118.053319155915
 30
0.0
 40
3.5
 41
0.0
 71
     5
 72
     1
  1
2
  7
CONVERTER_11
 73
     1
 44
1.20048019207683
  0
MTEXT
  5
1F9
330
71
100
AcDbEntity
  8
1
 62
     7
100
AcDbMText
 10
-1141.273283024837
 20
-1118.053319155915
 30
0.0
 40
3.5
 41
0.0
 71
     5
 72
     1
  1
1
  7
CONVERTER_11
 73
     1
 44
1.20048019207683
  0
MTEXT
  5
1FA
330
71
100
AcDbEntity
  8
1
 62
     7
100
AcDbMText
 10
-871.0232830248385
 20
-1093.053319155915
 30
0.0
 40
3.5
 41
0.0
 71
     5
 72
     1
  1
D
  7
CONVERTER_11
 73
     1
 44
1.20048019207683
  0
MTEXT
  5
1FB
330
71
100
AcDbEntity
  8
1
 62
     7
100
AcDbMText
 10
-871.0232830248385
 20
-990.5533191559126
 30
0.0
 40
3.5
 41
0.0
 71
     5
 72
     1
  1
B
  7
CONVERTER_11
 73
     1
 44
1.20048019207683
  0
MTEXT
  5
1FC
330
71
100
AcDbEntity
  8
1
 62
     7
100
AcDbMText
 10
-871.0232830248385
 20
-938.0533191559146
 30
0.0
 40
3.5
 41
0.0
 71
     5
 72
     1
  1
A
  7
CONVERTER_11
 73
     1
 44
1.20048019207683
  0
MTEXT
  5
1FD
330
71
100
AcDbEntity
  8
1
 62
     7
100
AcDbMText
 10
-871.0232830248385
 20
-1040.553319155913
 30
0.0
 40
3.5
 41
0.0
 71
     5
 72
     1
  1
C
  7
CONVERTER_11
 73
     1
 44
1.20048019207683
  0
MTEXT
  5
1FE
330
71
100
AcDbEntity
  8
1
 62
     2
100
AcDbMText
 10
-1037.506102276635
 20
-1102.803319155915
 30
0.0
 40
2.0
 41
0.0
 71
     5
 72
     1
  1
General Information\P- Simplified representation\P- Document excluded from change process\P- Linear dimensions [mm]
  7
CONVERTER_11
 73
     1
 44
1.20048019207683
  0
TEXT
  5
1FF
330
71
100
AcDbEntity
  8
1
 62
     7
100
AcDbText
 10
-965.1680875515879
 20
-1105.753319155915
 30
0.0
 40
2.5
  1
0790569
 41
0.81
  7
CONVERTER_12
100
AcDbText
  0
MTEXT
  5
200
330
71
100
AcDbEntity
  8
1
 62
     2
100
AcDbMText
 10
-965.5680875515875
 20
-1099.553319155915
 30
0.0
 40
1.8
 41
0.0
 71
     1
 72
     1
  1
ident.-No.
  7
CONVERTER_11
 73
     1
 44
1.20048019207683
  0
MTEXT
  5
201
330
71
100
AcDbEntity
  8
1
 62
     2
100
AcDbMText
 10
-881.3416913065148
 20
-1091.053319155915
 30
0.0
 40
1.8
 41
0.0
 71
     1
 72
     1
  1
scale
  7
CONVERTER_11
 73
     1
 44
1.20048019207683
  0
MTEXT
  5
203
330
71
100
AcDbEntity
  8
1
 62
     3
100
AcDbMText
 10
-877.9824871656753
 20
-1097.253319155914
 30
0.0
 40
2.5
 41
0.0
 71
     8
 72
     1
  1
1:1
  7
CONVERTER_13
 73
     1
 44
1.32052821128451
  0
TEXT
  5
204
330
71
100
AcDbEntity
  8
1
 62
     7
100
AcDbText
 10
-965.5680875515875
 20
-1097.253319155915
 30
0.0
 40
2.5
  1
00409273
 41
0.81
  7
CONVERTER_12
100
AcDbText
  0
MTEXT
  5
206
330
71
100
AcDbEntity
  8
1
 62
     2
100
AcDbMText
 10
-965.5680875515875
 20
-1091.053319155915
 30
0.0
 40
1.8
 41
0.0
 71
     1
 72
     1
  1
document-No. / RI
  7
CONVERTER_14
 73
     1
 44
1.32052821128451
  0
TEXT
  5
207
330
71
100
AcDbEntity
  8
1
 62
     3
100
AcDbText
 10
-937.7680875515875
 20
-1105.753319155915
 30
0.0
 40
2.5
  1
TECDOC 2D_Productdrawing
 41
0.81
  7
CONVERTER_12
100
AcDbText
  0
MTEXT
  5
208
330
71
100
AcDbEntity
  8
1
 62
     2
100
AcDbMText
 10
-937.7680875515875
 20
-1099.553319155915
 30
0.0
 40
1.8
 41
0.0
 71
     1
 72
     1
  1
document-type
  7
CONVERTER_11
 73
     1
 44
1.20048019207683
  0
MTEXT
  5
209
330
71
100
AcDbEntity
  8
1
 62
     2
100
AcDbMText
 10
-907.9416913065146
 20
-1091.053319155915
 30
0.0
 40
1.8
 41
0.0
 71
     1
 72
     1
  1
date
  7
CONVERTER_11
 73
     1
 44
1.32052821128451
  0
TEXT
  5
20A
330
71
100
AcDbEntity
  8
1
 62
     3
100
AcDbText
 10
-907.9416913065146
 20
-1097.253319155915
 30
0.0
 40
2.5
  1
14.12.2017
 41
0.81
  7
CONVERTER_12
100
AcDbText
  0
TEXT
  5
20B
330
71
100
AcDbEntity
  8
1
 62
     7
100
AcDbText
 10
-945.5381753325318
 20
-1097.253319155915
 30
0.0
 40
2.5
  1
01
 41
0.81
  7
CONVERTER_12
100
AcDbText
  0
TEXT
  5
20C
330
71
100
AcDbEntity
  8
1
 62
     7
100
AcDbText
 10
-947.6945398295737
 20
-1097.253319155915
 30
0.0
 40
2.5
  1
/
 41
0.9
  7
CONVERTER_11
100
AcDbText
  0
HATCH
  5
20D
330
71
100
AcDbEntity
  8
1
  6
Continuous
 62
     2
100
AcDbHatch
 10
0.0
 20
0.0
 30
0.0
210
0.0
220
0.0
230
1.0
  2
_USER
 70
     0
 71
     1
 91
        1
 92
        1
 93
       12
 72
     1
 10
-985.4005868386264
 20
-1104.900628679724
 11
-986.5933795407929
 21
-1104.900628679724
 72
     1
 10
-986.5933795407929
 20
-1104.900628679724
 11
-986.5933795407929
 21
-1103.76635657088
 72
     1
 10
-986.5933795407929
 20
-1103.76635657088
 11
-987.6430371187002
 21
-1103.76635657088
 72
     1
 10
-987.6430371187002
 20
-1103.76635657088
 11
-987.6430371187002
 21
-1104.900628679724
 72
     1
 10
-987.6430371187002
 20
-1104.900628679724
 11
-988.8358298208669
 21
-1104.900628679724
 72
     1
 10
-988.8358298208669
 20
-1104.900628679724
 11
-988.8358298208669
 21
-1101.846819155913
 72
     1
 10
-988.8358298208669
 20
-1101.846819155913
 11
-987.6430371187002
 21
-1101.846819155913
 72
     1
 10
-987.6430371187002
 20
-1101.846819155913
 11
-987.6430371187002
 21
-1102.915652489247
 72
     1
 10
-987.6430371187002
 20
-1102.915652489247
 11
-986.5933795407929
 21
-1102.915652489247
 72
     1
 10
-986.5933795407929
 20
-1102.915652489247
 11
-986.5933795407929
 21
-1101.846819155913
 72
     1
 10
-986.5933795407929
 20
-1101.846819155913
 11
-985.4005868386264
 21
-1101.846819155913
 72
     1
 10
-985.4005868386264
 20
-1101.846819155913
 11
-985.4005868386264
 21
-1104.900628679724
 97
       12
330
17A
330
17B
330
165
330
164
330
163
330
177
330
162
330
178
330
179
330
161
330
160
330
15F
 75
     1
 76
     0
 52
45.0
 41
0.1
 77
     0
 78
     1
 53
45.0
 43
0.0
 44
0.0
 45
-0.0707106781186548
 46
0.0707106781186548
 79
     0
 98
        1
 10
0.0
 20
0.0
  0
HATCH
  5
20E
330
71
100
AcDbEntity
  8
1
  6
Continuous
 62
     2
100
AcDbHatch
 10
0.0
 20
0.0
 30
0.0
210
0.0
220
0.0
230
1.0
  2
_USER
 70
     0
 71
     1
 91
        1
 92
        1
 93
       12
 72
     1
 10
-985.4005868386264
 20
-1104.900628679724
 11
-986.5933795407929
 21
-1104.900628679724
 72
     1
 10
-986.5933795407929
 20
-1104.900628679724
 11
-986.5933795407929
 21
-1103.76635657088
 72
     1
 10
-986.5933795407929
 20
-1103.76635657088
 11
-987.6430371187002
 21
-1103.76635657088
 72
     1
 10
-987.6430371187002
 20
-1103.76635657088
 11
-987.6430371187002
 21
-1104.900628679724
 72
     1
 10
-987.6430371187002
 20
-1104.900628679724
 11
-988.8358298208669
 21
-1104.900628679724
 72
     1
 10
-988.8358298208669
 20
-1104.900628679724
 11
-988.8358298208669
 21
-1101.846819155913
 72
     1
 10
-988.8358298208669
 20
-1101.846819155913
 11
-987.6430371187002
 21
-1101.846819155913
 72
     1
 10
-987.6430371187002
 20
-1101.846819155913
 11
-987.6430371187002
 21
-1102.915652489247
 72
     1
 10
-987.6430371187002
 20
-1102.915652489247
 11
-986.5933795407929
 21
-1102.915652489247
 72
     1
 10
-986.5933795407929
 20
-1102.915652489247
 11
-986.5933795407929
 21
-1101.846819155913
 72
     1
 10
-986.5933795407929
 20
-1101.846819155913
 11
-985.4005868386264
 21
-1101.846819155913
 72
     1
 10
-985.4005868386264
 20
-1101.846819155913
 11
-985.4005868386264
 21
-1104.900628679724
 97
       12
330
17A
330
17B
330
165
330
164
330
163
330
177
330
162
330
178
330
179
330
161
330
160
330
15F
 75
     1
 76
     0
 52
45.0
 41
0.1
 77
     0
 78
     1
 53
45.0
 43
0.0
 44
0.0
 45
-0.0707106781186548
 46
0.0707106781186548
 79
     0
 98
        1
 10
0.0
 20
0.0
  0
HATCH
  5
20F
330
71
100
AcDbEntity
  8
1
  6
Continuous
 62
     2
100
AcDbHatch
 10
0.0
 20
0.0
 30
0.0
210
0.0
220
0.0
230
1.0
  2
_USER
 70
     0
 71
     1
 91
        1
 92
        1
 93
       10
 72
     1
 10
-983.1582874894382
 20
-1106.514785142292
 11
-984.398791899691
 21
-1105.206009632087
 72
     1
 10
-984.398791899691
 20
-1105.206009632087
 11
-985.5915846018586
 21
-1105.206009632087
 72
     1
 10
-985.5915846018586
 20
-1105.206009632087
 11
-985.5915846018586
 21
-1108.259819155898
 72
     1
 10
-985.5915846018586
 20
-1108.259819155898
 11
-984.398791899691
 21
-1108.259819155898
 72
     1
 10
-984.398791899691
 20
-1108.259819155898
 11
-984.398791899691
 21
-1106.951043645694
 72
     1
 10
-984.398791899691
 20
-1106.951043645694
 11
-983.1582874894382
 21
-1108.259819155898
 72
     1
 10
-983.1582874894382
 20
-1108.259819155898
 11
-981.9654947872717
 21
-1108.259819155898
 72
     1
 10
-981.9654947872717
 20
-1108.259819155898
 11
-981.9654947872717
 21
-1105.206009632087
 72
     1
 10
-981.9654947872717
 20
-1105.206009632087
 11
-983.1582874894382
 21
-1105.206009632087
 72
     1
 10
-983.1582874894382
 20
-1105.206009632087
 11
-983.1582874894382
 21
-1106.514785142292
 97
       10
330
188
330
158
330
157
330
15A
330
183
330
184
330
159
330
185
330
186
330
187
 75
     1
 76
     0
 52
45.0
 41
0.1
 77
     0
 78
     1
 53
45.0
 43
0.0
 44
0.0
 45
-0.0707106781186548
 46
0.0707106781186548
 79
     0
 98
        1
 10
0.0
 20
0.0
  0
HATCH
  5
210
330
71
100
AcDbEntity
  8
1
  6
Continuous
 62
     2
100
AcDbHatch
 10
0.0
 20
0.0
 30
0.0
210
0.0
220
0.0
230
1.0
  2
_USER
 70
     0
 71
     1
 91
        1
 92
        1
 93
       10
 72
     1
 10
-983.1582874894382
 20
-1106.514785142292
 11
-984.398791899691
 21
-1105.206009632087
 72
     1
 10
-984.398791899691
 20
-1105.206009632087
 11
-985.5915846018586
 21
-1105.206009632087
 72
     1
 10
-985.5915846018586
 20
-1105.206009632087
 11
-985.5915846018586
 21
-1108.259819155898
 72
     1
 10
-985.5915846018586
 20
-1108.259819155898
 11
-984.398791899691
 21
-1108.259819155898
 72
     1
 10
-984.398791899691
 20
-1108.259819155898
 11
-984.398791899691
 21
-1106.951043645694
 72
     1
 10
-984.398791899691
 20
-1106.951043645694
 11
-983.1582874894382
 21
-1108.259819155898
 72
     1
 10
-983.1582874894382
 20
-1108.259819155898
 11
-981.9654947872717
 21
-1108.259819155898
 72
     1
 10
-981.9654947872717
 20
-1108.259819155898
 11
-981.9654947872717
 21
-1105.206009632087
 72
     1
 10
-981.9654947872717
 20
-1105.206009632087
 11
-983.1582874894382
 21
-1105.206009632087
 72
     1
 10
-983.1582874894382
 20
-1105.206009632087
 11
-983.1582874894382
 21
-1106.514785142292
 97
       10
330
188
330
158
330
157
330
15A
330
183
330
184
330
159
330
185
330
186
330
187
 75
     1
 76
     0
 52
45.0
 41
0.1
 77
     0
 78
     1
 53
45.0
 43
0.0
 44
0.0
 45
-0.0707106781186548
 46
0.0707106781186548
 79
     0
 98
        1
 10
0.0
 20
0.0
  0
HATCH
  5
211
330
71
100
AcDbEntity
  8
1
  6
Continuous
 62
     2
100
AcDbHatch
 10
0.0
 20
0.0
 30
0.0
210
0.0
220
0.0
230
1.0
  2
_USER
 70
     0
 71
     1
 91
        1
 92
        1
 93
       10
 72
     1
 10
-977.9098486690184
 20
-1103.155594666118
 11
-979.1503530792725
 21
-1101.846819155913
 72
     1
 10
-979.1503530792725
 20
-1101.846819155913
 11
-980.3431457814389
 21
-1101.846819155913
 72
     1
 10
-980.3431457814389
 20
-1101.846819155913
 11
-980.3431457814389
 21
-1104.900628679724
 72
     1
 10
-980.3431457814389
 20
-1104.900628679724
 11
-979.1503530792725
 21
-1104.900628679724
 72
     1
 10
-979.1503530792725
 20
-1104.900628679724
 11
-979.1503530792725
 21
-1103.591853169519
 72
     1
 10
-979.1503530792725
 20
-1103.591853169519
 11
-977.9098486690184
 21
-1104.900628679724
 72
     1
 10
-977.9098486690184
 20
-1104.900628679724
 11
-976.7170559668518
 21
-1104.900628679724
 72
     1
 10
-976.7170559668518
 20
-1104.900628679724
 11
-976.7170559668518
 21
-1101.846819155913
 72
     1
 10
-976.7170559668518
 20
-1101.846819155913
 11
-977.9098486690184
 21
-1101.846819155913
 72
     1
 10
-977.9098486690184
 20
-1101.846819155913
 11
-977.9098486690184
 21
-1103.155594666118
 97
       10
330
18D
330
155
330
154
330
18E
330
153
330
189
330
18A
330
18B
330
18C
330
156
 75
     1
 76
     0
 52
45.0
 41
0.1
 77
     0
 78
     1
 53
45.0
 43
0.0
 44
0.0
 45
-0.0707106781186548
 46
0.0707106781186548
 79
     0
 98
        1
 10
0.0
 20
0.0
  0
HATCH
  5
212
330
71
100
AcDbEntity
  8
1
  6
Continuous
 62
     2
100
AcDbHatch
 10
0.0
 20
0.0
 30
0.0
210
0.0
220
0.0
230
1.0
  2
_USER
 70
     0
 71
     1
 91
        1
 92
        1
 93
       10
 72
     1
 10
-977.9098486690184
 20
-1103.155594666118
 11
-979.1503530792725
 21
-1101.846819155913
 72
     1
 10
-979.1503530792725
 20
-1101.846819155913
 11
-980.3431457814389
 21
-1101.846819155913
 72
     1
 10
-980.3431457814389
 20
-1101.846819155913
 11
-980.3431457814389
 21
-1104.900628679724
 72
     1
 10
-980.3431457814389
 20
-1104.900628679724
 11
-979.1503530792725
 21
-1104.900628679724
 72
     1
 10
-979.1503530792725
 20
-1104.900628679724
 11
-979.1503530792725
 21
-1103.591853169519
 72
     1
 10
-979.1503530792725
 20
-1103.591853169519
 11
-977.9098486690184
 21
-1104.900628679724
 72
     1
 10
-977.9098486690184
 20
-1104.900628679724
 11
-976.7170559668518
 21
-1104.900628679724
 72
     1
 10
-976.7170559668518
 20
-1104.900628679724
 11
-976.7170559668518
 21
-1101.846819155913
 72
     1
 10
-976.7170559668518
 20
-1101.846819155913
 11
-977.9098486690184
 21
-1101.846819155913
 72
     1
 10
-977.9098486690184
 20
-1101.846819155913
 11
-977.9098486690184
 21
-1103.155594666118
 97
       10
330
18D
330
155
330
154
330
18E
330
153
330
189
330
18A
330
18B
330
18C
330
156
 75
     1
 76
     0
 52
45.0
 41
0.1
 77
     0
 78
     1
 53
45.0
 43
0.0
 44
0.0
 45
-0.0707106781186548
 46
0.0707106781186548
 79
     0
 98
        1
 10
0.0
 20
0.0
  0
HATCH
  5
213
330
71
100
AcDbEntity
  8
1
  6
Continuous
 62
     2
100
AcDbHatch
 10
0.0
 20
0.0
 30
0.0
210
0.0
220
0.0
230
1.0
  2
_USER
 70
     0
 71
     1
 91
        1
 92
        1
 93
        8
 72
     1
 10
-979.0073688858979
 20
-1105.206009632087
 11
-981.8223596630115
 21
-1105.206009632087
 72
     1
 10
-981.8223596630115
 20
-1105.206009632087
 11
-981.8223596630115
 21
-1105.991274938211
 72
     1
 10
-981.8223596630115
 20
-1105.991274938211
 11
-981.0112606255369
 21
-1105.991274938211
 72
     1
 10
-981.0112606255369
 20
-1105.991274938211
 11
-981.0112606255369
 21
-1108.259819155898
 72
     1
 10
-981.0112606255369
 20
-1108.259819155898
 11
-979.8184679233705
 21
-1108.259819155898
 72
     1
 10
-979.8184679233705
 20
-1108.259819155898
 11
-979.8184679233705
 21
-1105.991274938211
 72
     1
 10
-979.8184679233705
 20
-1105.991274938211
 11
-979.0073688858979
 21
-1105.991274938211
 72
     1
 10
-979.0073688858979
 20
-1105.991274938211
 11
-979.0073688858979
 21
-1105.206009632087
 97
        8
330
14F
330
18F
330
14E
330
190
330
191
330
152
330
151
330
150
 75
     1
 76
     0
 52
45.0
 41
0.1
 77
     0
 78
     1
 53
45.0
 43
0.0
 44
0.0
 45
-0.0707106781186548
 46
0.0707106781186548
 79
     0
 98
        1
 10
0.0
 20
0.0
  0
HATCH
  5
214
330
71
100
AcDbEntity
  8
1
  6
Continuous
 62
     2
100
AcDbHatch
 10
0.0
 20
0.0
 30
0.0
210
0.0
220
0.0
230
1.0
  2
_USER
 70
     0
 71
     1
 91
        1
 92
        1
 93
        8
 72
     1
 10
-979.0073688858979
 20
-1105.206009632087
 11
-981.8223596630115
 21
-1105.206009632087
 72
     1
 10
-981.8223596630115
 20
-1105.206009632087
 11
-981.8223596630115
 21
-1105.991274938211
 72
     1
 10
-981.8223596630115
 20
-1105.991274938211
 11
-981.0112606255369
 21
-1105.991274938211
 72
     1
 10
-981.0112606255369
 20
-1105.991274938211
 11
-981.0112606255369
 21
-1108.259819155898
 72
     1
 10
-981.0112606255369
 20
-1108.259819155898
 11
-979.8184679233705
 21
-1108.259819155898
 72
     1
 10
-979.8184679233705
 20
-1108.259819155898
 11
-979.8184679233705
 21
-1105.991274938211
 72
     1
 10
-979.8184679233705
 20
-1105.991274938211
 11
-979.0073688858979
 21
-1105.991274938211
 72
     1
 10
-979.0073688858979
 20
-1105.991274938211
 11
-979.0073688858979
 21
-1105.206009632087
 97
        8
330
14F
330
18F
330
14E
330
190
330
191
330
152
330
151
330
150
 75
     1
 76
     0
 52
45.0
 41
0.1
 77
     0
 78
     1
 53
45.0
 43
0.0
 44
0.0
 45
-0.0707106781186548
 46
0.0707106781186548
 79
     0
 98
        1
 10
0.0
 20
0.0
  0
HATCH
  5
215
330
71
100
AcDbEntity
  8
1
  6
Continuous
 62
     2
100
AcDbHatch
 10
0.0
 20
0.0
 30
0.0
210
0.0
220
0.0
230
1.0
  2
_USER
 70
     0
 71
     1
 91
        2
 92
        1
 93
        8
 72
     1
 10
-976.868941429951
 20
-1108.259819155898
 11
-977.0804214834267
 21
-1107.71885861168
 72
     1
 10
-977.0804214834267
 20
-1107.71885861168
 11
-978.2128630601005
 21
-1107.71885861168
 72
     1
 10
-978.2128630601005
 20
-1107.71885861168
 11
-978.4243431135764
 21
-1108.259819155898
 72
     1
 10
-978.4243431135764
 20
-1108.259819155898
 11
-979.6648475238293
 21
-1108.259819155898
 72
     1
 10
-979.6648475238293
 20
-1108.259819155898
 11
-978.26689447689
 21
-1105.206009632087
 72
     1
 10
-978.26689447689
 20
-1105.206009632087
 11
-977.0263900666373
 21
-1105.206009632087
 72
     1
 10
-977.0263900666373
 20
-1105.206009632087
 11
-975.628437019697
 21
-1108.259819155898
 72
     1
 10
-975.628437019697
 20
-1108.259819155898
 11
-976.868941429951
 21
-1108.259819155898
 97
        8
330
193
330
194
330
14B
330
195
330
14A
330
14D
330
192
330
14C
 92
       16
 93
        3
 72
     1
 10
-977.9468075089555
 20
-1107.038295346374
 11
-977.6466422717631
 21
-1106.270480380387
 72
     1
 10
-977.6466422717631
 20
-1106.270480380387
 11
-977.346477034573
 21
-1107.038295346374
 72
     1
 10
-977.346477034573
 20
-1107.038295346374
 11
-977.9468075089555
 21
-1107.038295346374
 97
        3
330
149
330
197
330
196
 75
     1
 76
     0
 52
45.0
 41
0.1
 77
     0
 78
     1
 53
45.0
 43
0.0
 44
0.0
 45
-0.0707106781186548
 46
0.0707106781186548
 79
     0
 98
        1
 10
0.0
 20
0.0
  0
HATCH
  5
216
330
71
100
AcDbEntity
  8
1
  6
Continuous
 62
     2
100
AcDbHatch
 10
0.0
 20
0.0
 30
0.0
210
0.0
220
0.0
230
1.0
  2
_USER
 70
     0
 71
     1
 91
        2
 92
        1
 93
        8
 72
     1
 10
-976.868941429951
 20
-1108.259819155898
 11
-977.0804214834267
 21
-1107.71885861168
 72
     1
 10
-977.0804214834267
 20
-1107.71885861168
 11
-978.2128630601005
 21
-1107.71885861168
 72
     1
 10
-978.2128630601005
 20
-1107.71885861168
 11
-978.4243431135764
 21
-1108.259819155898
 72
     1
 10
-978.4243431135764
 20
-1108.259819155898
 11
-979.6648475238293
 21
-1108.259819155898
 72
     1
 10
-979.6648475238293
 20
-1108.259819155898
 11
-978.26689447689
 21
-1105.206009632087
 72
     1
 10
-978.26689447689
 20
-1105.206009632087
 11
-977.0263900666373
 21
-1105.206009632087
 72
     1
 10
-977.0263900666373
 20
-1105.206009632087
 11
-975.628437019697
 21
-1108.259819155898
 72
     1
 10
-975.628437019697
 20
-1108.259819155898
 11
-976.868941429951
 21
-1108.259819155898
 97
        8
330
193
330
194
330
14B
330
195
330
14A
330
14D
330
192
330
14C
 92
       16
 93
        3
 72
     1
 10
-977.9468075089555
 20
-1107.038295346374
 11
-977.6466422717631
 21
-1106.270480380387
 72
     1
 10
-977.6466422717631
 20
-1106.270480380387
 11
-977.346477034573
 21
-1107.038295346374
 72
     1
 10
-977.346477034573
 20
-1107.038295346374
 11
-977.9468075089555
 21
-1107.038295346374
 97
        3
330
149
330
197
330
196
 75
     1
 76
     0
 52
45.0
 41
0.1
 77
     0
 78
     1
 53
45.0
 43
0.0
 44
0.0
 45
-0.0707106781186548
 46
0.0707106781186548
 79
     0
 98
        1
 10
0.0
 20
0.0
  0
HATCH
  5
217
330
71
100
AcDbEntity
  8
1
  6
Continuous
 62
     2
100
AcDbHatch
 10
0.0
 20
0.0
 30
0.0
210
0.0
220
0.0
230
1.0
  2
_USER
 70
     0
 71
     1
 91
        1
 92
        1
 93
        4
 72
     1
 10
-975.237993016165
 20
-1104.900628679724
 11
-976.4784974264179
 21
-1104.900628679724
 72
     1
 10
-976.4784974264179
 20
-1104.900628679724
 11
-976.4784974264179
 21
-1101.846819155913
 72
     1
 10
-976.4784974264179
 20
-1101.846819155913
 11
-975.237993016165
 21
-1101.846819155913
 72
     1
 10
-975.237993016165
 20
-1101.846819155913
 11
-975.237993016165
 21
-1104.900628679724
 97
        4
330
146
330
148
330
198
330
147
 75
     1
 76
     0
 52
45.0
 41
0.1
 77
     0
 78
     1
 53
45.0
 43
0.0
 44
0.0
 45
-0.0707106781186548
 46
0.0707106781186548
 79
     0
 98
        1
 10
0.0
 20
0.0
  0
HATCH
  5
218
330
71
100
AcDbEntity
  8
1
  6
Continuous
 62
     2
100
AcDbHatch
 10
0.0
 20
0.0
 30
0.0
210
0.0
220
0.0
230
1.0
  2
_USER
 70
     0
 71
     1
 91
        1
 92
        1
 93
        4
 72
     1
 10
-975.237993016165
 20
-1104.900628679724
 11
-976.4784974264179
 21
-1104.900628679724
 72
     1
 10
-976.4784974264179
 20
-1104.900628679724
 11
-976.4784974264179
 21
-1101.846819155913
 72
     1
 10
-976.4784974264179
 20
-1101.846819155913
 11
-975.237993016165
 21
-1101.846819155913
 72
     1
 10
-975.237993016165
 20
-1101.846819155913
 11
-975.237993016165
 21
-1104.900628679724
 97
        4
330
146
330
148
330
198
330
147
 75
     1
 76
     0
 52
45.0
 41
0.1
 77
     0
 78
     1
 53
45.0
 43
0.0
 44
0.0
 45
-0.0707106781186548
 46
0.0707106781186548
 79
     0
 98
        1
 10
0.0
 20
0.0
  0
HATCH
  5
219
330
71
100
AcDbEntity
  8
1
  6
Continuous
 62
     2
100
AcDbHatch
 10
0.0
 20
0.0
 30
0.0
210
0.0
220
0.0
230
1.0
  2
_USER
 70
     0
 71
     1
 91
        1
 92
        1
 93
       12
 72
     1
 10
-971.0155068504941
 20
-1101.846819155913
 11
-972.3180364812607
 21
-1103.319769685949
 72
     1
 10
-972.3180364812607
 20
-1103.319769685949
 11
-970.9200834343204
 21
-1104.900628679724
 72
     1
 10
-970.9200834343204
 20
-1104.900628679724
 11
-972.3228076520687
 21
-1104.900628679724
 72
     1
 10
-972.3228076520687
 20
-1104.900628679724
 11
-973.0193985901342
 21
-1104.11289689443
 72
     1
 10
-973.0193985901342
 20
-1104.11289689443
 11
-973.7159895281999
 21
-1104.900628679724
 72
     1
 10
-973.7159895281999
 20
-1104.900628679724
 11
-975.1187137459481
 21
-1104.900628679724
 72
     1
 10
-975.1187137459481
 20
-1104.900628679724
 11
-973.7207606990078
 21
-1103.319769685949
 72
     1
 10
-973.7207606990078
 20
-1103.319769685949
 11
-975.0232903297754
 21
-1101.846819155913
 72
     1
 10
-975.0232903297754
 20
-1101.846819155913
 11
-973.620566112026
 21
-1101.846819155913
 72
     1
 10
-973.620566112026
 20
-1101.846819155913
 11
-973.0193985901342
 21
-1102.526642477468
 72
     1
 10
-973.0193985901342
 20
-1102.526642477468
 11
-972.4182310682414
 21
-1101.846819155913
 72
     1
 10
-972.4182310682414
 20
-1101.846819155913
 11
-971.0155068504941
 21
-1101.846819155913
 97
       12
330
141
330
140
330
13F
330
19C
330
19D
330
199
330
19A
330
145
330
144
330
143
330
142
330
19B
 75
     1
 76
     0
 52
45.0
 41
0.1
 77
     0
 78
     1
 53
45.0
 43
0.0
 44
0.0
 45
-0.0707106781186548
 46
0.0707106781186548
 79
     0
 98
        1
 10
0.0
 20
0.0
  0
HATCH
  5
21A
330
71
100
AcDbEntity
  8
1
  6
Continuous
 62
     2
100
AcDbHatch
 10
0.0
 20
0.0
 30
0.0
210
0.0
220
0.0
230
1.0
  2
_USER
 70
     0
 71
     1
 91
        1
 92
        1
 93
       12
 72
     1
 10
-971.0155068504941
 20
-1101.846819155913
 11
-972.3180364812607
 21
-1103.319769685949
 72
     1
 10
-972.3180364812607
 20
-1103.319769685949
 11
-970.9200834343204
 21
-1104.900628679724
 72
     1
 10
-970.9200834343204
 20
-1104.900628679724
 11
-972.3228076520687
 21
-1104.900628679724
 72
     1
 10
-972.3228076520687
 20
-1104.900628679724
 11
-973.0193985901342
 21
-1104.11289689443
 72
     1
 10
-973.0193985901342
 20
-1104.11289689443
 11
-973.7159895281999
 21
-1104.900628679724
 72
     1
 10
-973.7159895281999
 20
-1104.900628679724
 11
-975.1187137459481
 21
-1104.900628679724
 72
     1
 10
-975.1187137459481
 20
-1104.900628679724
 11
-973.7207606990078
 21
-1103.319769685949
 72
     1
 10
-973.7207606990078
 20
-1103.319769685949
 11
-975.0232903297754
 21
-1101.846819155913
 72
     1
 10
-975.0232903297754
 20
-1101.846819155913
 11
-973.620566112026
 21
-1101.846819155913
 72
     1
 10
-973.620566112026
 20
-1101.846819155913
 11
-973.0193985901342
 21
-1102.526642477468
 72
     1
 10
-973.0193985901342
 20
-1102.526642477468
 11
-972.4182310682414
 21
-1101.846819155913
 72
     1
 10
-972.4182310682414
 20
-1101.846819155913
 11
-971.0155068504941
 21
-1101.846819155913
 97
       12
330
141
330
140
330
13F
330
19C
330
19D
330
199
330
19A
330
145
330
144
330
143
330
142
330
19B
 75
     1
 76
     0
 52
45.0
 41
0.1
 77
     0
 78
     1
 53
45.0
 43
0.0
 44
0.0
 45
-0.0707106781186548
 46
0.0707106781186548
 79
     0
 98
        1
 10
0.0
 20
0.0
  0
HATCH
  5
21B
330
71
100
AcDbEntity
  8
1
  6
Continuous
 62
     2
100
AcDbHatch
 10
0.0
 20
0.0
 30
0.0
210
0.0
220
0.0
230
1.0
  2
_USER
 70
     0
 71
     1
 91
        2
 92
        1
 93
        6
 72
     1
 10
-990.0332422646402
 20
-1103.95755043858
 11
-990.7920098524205
 21
-1103.95755043858
 72
     1
 10
-990.7920098524205
 20
-1103.95755043858
 11
-990.7920098524205
 21
-1104.900628679724
 72
     1
 10
-990.7920098524205
 20
-1104.900628679724
 11
-992.0325142626746
 21
-1104.900628679724
 72
     1
 10
-992.0325142626746
 20
-1104.900628679724
 11
-992.0325142626746
 21
-1101.846819155913
 72
     1
 10
-992.0325142626746
 20
-1101.846819155913
 11
-990.0332422646402
 21
-1101.846819155913
 72
     2
 10
-990.0332422646402
 20
-1102.902184797247
 40
1.055365641333083
 50
270.0
 51
450.0
 73
     0
 97
        6
330
169
330
168
330
175
330
174
330
16A
330
1BA
 92
       16
 93
        4
 72
     2
 10
-990.4747147908786
 20
-1102.862788826024
 40
0.3528638246709761
 50
270.0
 51
450.0
 73
     1
 72
     1
 10
-990.4747147908786
 20
-1102.509925001353
 11
-990.7920098524205
 21
-1102.509925001353
 72
     1
 10
-990.7920098524205
 20
-1102.509925001353
 11
-990.7920098524205
 21
-1103.215652650695
 72
     1
 10
-990.7920098524205
 20
-1103.215652650695
 11
-990.4747147908786
 21
-1103.215652650695
 97
        4
330
1CE
330
166
330
176
330
167
 75
     1
 76
     0
 52
45.0
 41
0.1
 77
     0
 78
     1
 53
45.0
 43
0.0
 44
0.0
 45
-0.0707106781186548
 46
0.0707106781186548
 79
     0
 98
        1
 10
0.0
 20
0.0
  0
HATCH
  5
21C
330
71
100
AcDbEntity
  8
1
  6
Continuous
 62
     2
100
AcDbHatch
 10
0.0
 20
0.0
 30
0.0
210
0.0
220
0.0
230
1.0
  2
_USER
 70
     0
 71
     1
 91
        2
 92
        1
 93
        6
 72
     1
 10
-990.0332422646402
 20
-1103.95755043858
 11
-990.7920098524205
 21
-1103.95755043858
 72
     1
 10
-990.7920098524205
 20
-1103.95755043858
 11
-990.7920098524205
 21
-1104.900628679724
 72
     1
 10
-990.7920098524205
 20
-1104.900628679724
 11
-992.0325142626746
 21
-1104.900628679724
 72
     1
 10
-992.0325142626746
 20
-1104.900628679724
 11
-992.0325142626746
 21
-1101.846819155913
 72
     1
 10
-992.0325142626746
 20
-1101.846819155913
 11
-990.0332422646402
 21
-1101.846819155913
 72
     2
 10
-990.0332422646402
 20
-1102.902184797247
 40
1.055365641333083
 50
270.0
 51
450.0
 73
     0
 97
        6
330
169
330
168
330
175
330
174
330
16A
330
1BA
 92
       16
 93
        4
 72
     2
 10
-990.4747147908786
 20
-1102.862788826024
 40
0.3528638246709761
 50
270.0
 51
450.0
 73
     1
 72
     1
 10
-990.4747147908786
 20
-1102.509925001353
 11
-990.7920098524205
 21
-1102.509925001353
 72
     1
 10
-990.7920098524205
 20
-1102.509925001353
 11
-990.7920098524205
 21
-1103.215652650695
 72
     1
 10
-990.7920098524205
 20
-1103.215652650695
 11
-990.4747147908786
 21
-1103.215652650695
 97
        4
330
1CE
330
166
330
176
330
167
 75
     1
 76
     0
 52
45.0
 41
0.1
 77
     0
 78
     1
 53
45.0
 43
0.0
 44
0.0
 45
-0.0707106781186548
 46
0.0707106781186548
 79
     0
 98
        1
 10
0.0
 20
0.0
  0
HATCH
  5
21D
330
71
100
AcDbEntity
  8
1
  6
Continuous
 62
     2
100
AcDbHatch
 10
0.0
 20
0.0
 30
0.0
210
0.0
220
0.0
230
1.0
  2
_USER
 70
     0
 71
     1
 91
        2
 92
        1
 93
        4
 72
     2
 10
-987.4766995162811
 20
-1107.271489404296
 40
2.065479772208441
 50
62.45185182430455
 51
117.5481481756675
 73
     1
 72
     2
 10
-987.7576394081144
 20
-1106.732914393993
 40
1.458034083651136
 50
117.5481481756672
 51
242.4518518243287
 73
     1
 72
     2
 10
-987.4766995162811
 20
-1106.19433938369
 40
2.065479772207715
 50
242.4518518243296
 51
297.5481481756984
 73
     1
 72
     2
 10
-987.1957596244479
 20
-1106.732914393993
 40
1.458034083651513
 50
297.5481481757149
 51
422.4518518242893
 73
     1
 97
        4
330
1C6
330
1C5
330
1C7
330
1C4
 92
       16
 93
        4
 72
     2
 10
-987.6764395526275
 20
-1106.732914393993
 40
0.7717997786796852
 50
321.8795802028358
 51
398.1204197971642
 73
     1
 72
     2
 10
-987.4766995162811
 20
-1106.576183215872
 40
0.517908573013102
 50
38.12041979712424
 51
141.8795802028835
 73
     1
 72
     2
 10
-987.276959479935
 20
-1106.732914393993
 40
0.7717997786795062
 50
141.8795802028254
 51
218.1204197971746
 73
     1
 72
     2
 10
-987.4766995162811
 20
-1106.889645572113
 40
0.5179085730137529
 50
218.1204197971956
 51
321.8795802027966
 73
     1
 97
        4
330
1E2
330
1DF
330
1E0
330
1E1
 75
     1
 76
     0
 52
45.0
 41
0.1
 77
     0
 78
     1
 53
45.0
 43
0.0
 44
0.0
 45
-0.0707106781186548
 46
0.0707106781186548
 79
     0
 98
        1
 10
0.0
 20
0.0
  0
HATCH
  5
21E
330
71
100
AcDbEntity
  8
1
  6
Continuous
 62
     2
100
AcDbHatch
 10
0.0
 20
0.0
 30
0.0
210
0.0
220
0.0
230
1.0
  2
_USER
 70
     0
 71
     1
 91
        2
 92
        1
 93
        4
 72
     2
 10
-987.4766995162811
 20
-1107.271489404296
 40
2.065479772208441
 50
62.45185182430455
 51
117.5481481756675
 73
     1
 72
     2
 10
-987.7576394081144
 20
-1106.732914393993
 40
1.458034083651136
 50
117.5481481756672
 51
242.4518518243287
 73
     1
 72
     2
 10
-987.4766995162811
 20
-1106.19433938369
 40
2.065479772207715
 50
242.4518518243296
 51
297.5481481756984
 73
     1
 72
     2
 10
-987.1957596244479
 20
-1106.732914393993
 40
1.458034083651513
 50
297.5481481757149
 51
422.4518518242893
 73
     1
 97
        4
330
1C6
330
1C5
330
1C7
330
1C4
 92
       16
 93
        4
 72
     2
 10
-987.6764395526275
 20
-1106.732914393993
 40
0.7717997786796852
 50
321.8795802028358
 51
398.1204197971642
 73
     1
 72
     2
 10
-987.4766995162811
 20
-1106.576183215872
 40
0.517908573013102
 50
38.12041979712424
 51
141.8795802028835
 73
     1
 72
     2
 10
-987.276959479935
 20
-1106.732914393993
 40
0.7717997786795062
 50
141.8795802028254
 51
218.1204197971746
 73
     1
 72
     2
 10
-987.4766995162811
 20
-1106.889645572113
 40
0.5179085730137529
 50
218.1204197971956
 51
321.8795802027966
 73
     1
 97
        4
330
1E2
330
1DF
330
1E0
330
1E1
 75
     1
 76
     0
 52
45.0
 41
0.1
 77
     0
 78
     1
 53
45.0
 43
0.0
 44
0.0
 45
-0.0707106781186548
 46
0.0707106781186548
 79
     0
 98
        1
 10
0.0
 20
0.0
  0
HATCH
  5
21F
330
71
100
AcDbEntity
  8
1
  6
Continuous
 62
     2
100
AcDbHatch
 10
0.0
 20
0.0
 30
0.0
210
0.0
220
0.0
230
1.0
  2
_USER
 70
     0
 71
     1
 91
        2
 92
        1
 93
       12
 72
     1
 10
-980.5817043218718
 20
-1102.544832761356
 11
-981.9176321482995
 21
-1102.544832761356
 72
     1
 10
-981.9176321482995
 20
-1102.544832761356
 11
-981.9176321482995
 21
-1103.024717115098
 72
     1
 10
-981.9176321482995
 20
-1103.024717115098
 11
-980.5817043218718
 21
-1103.024717115098
 72
     1
 10
-980.5817043218718
 20
-1103.024717115098
 11
-980.5817043218718
 21
-1103.72273072054
 72
     1
 10
-980.5817043218718
 20
-1103.72273072054
 11
-981.9176321482995
 21
-1103.72273072054
 72
     1
 10
-981.9176321482995
 20
-1103.72273072054
 11
-981.9176321482995
 21
-1104.202615074282
 72
     1
 10
-981.9176321482995
 20
-1104.202615074282
 11
-980.5817043218718
 21
-1104.202615074282
 72
     1
 10
-980.5817043218718
 20
-1104.202615074282
 11
-980.5817043218718
 21
-1104.900628679724
 72
     1
 10
-980.5817043218718
 20
-1104.900628679724
 11
-983.7320240456528
 21
-1104.900628679724
 72
     2
 10
-983.7320240456528
 20
-1103.373723917819
 40
1.526904761906053
 50
90.0
 51
270.0
 73
     0
 72
     1
 10
-983.7320240456528
 20
-1101.846819155913
 11
-980.5817043218718
 21
-1101.846819155913
 72
     1
 10
-980.5817043218718
 20
-1101.846819155913
 11
-980.5817043218718
 21
-1102.544832761356
 97
       12
330
17D
330
1CF
330
17E
330
17F
330
180
330
181
330
15E
330
15D
330
15C
330
15B
330
182
330
17C
 92
       16
 93
        4
 72
     2
 10
-983.5157520354876
 20
-1103.216992739698
 40
0.517908573013281
 50
38.12041979710871
 51
141.8795802028835
 73
     1
 72
     2
 10
-983.3160119991413
 20
-1103.373723917819
 40
0.7717997786796852
 50
141.8795802028358
 51
218.1204197971642
 73
     1
 72
     2
 10
-983.5157520354876
 20
-1103.530455095939
 40
0.5179085730137529
 50
218.1204197971956
 51
321.8795802028121
 73
     1
 72
     2
 10
-983.7154920718338
 20
-1103.373723917819
 40
0.7717997786796852
 50
321.8795802028358
 51
398.1204197971642
 73
     1
 97
        4
330
1C9
330
1C8
330
1C3
330
1C2
 75
     1
 76
     0
 52
45.0
 41
0.1
 77
     0
 78
     1
 53
45.0
 43
0.0
 44
0.0
 45
-0.0707106781186548
 46
0.0707106781186548
 79
     0
 98
        1
 10
0.0
 20
0.0
  0
HATCH
  5
220
330
71
100
AcDbEntity
  8
1
  6
Continuous
 62
     2
100
AcDbHatch
 10
0.0
 20
0.0
 30
0.0
210
0.0
220
0.0
230
1.0
  2
_USER
 70
     0
 71
     1
 91
        2
 92
        1
 93
       12
 72
     1
 10
-980.5817043218718
 20
-1102.544832761356
 11
-981.9176321482995
 21
-1102.544832761356
 72
     1
 10
-981.9176321482995
 20
-1102.544832761356
 11
-981.9176321482995
 21
-1103.024717115098
 72
     1
 10
-981.9176321482995
 20
-1103.024717115098
 11
-980.5817043218718
 21
-1103.024717115098
 72
     1
 10
-980.5817043218718
 20
-1103.024717115098
 11
-980.5817043218718
 21
-1103.72273072054
 72
     1
 10
-980.5817043218718
 20
-1103.72273072054
 11
-981.9176321482995
 21
-1103.72273072054
 72
     1
 10
-981.9176321482995
 20
-1103.72273072054
 11
-981.9176321482995
 21
-1104.202615074282
 72
     1
 10
-981.9176321482995
 20
-1104.202615074282
 11
-980.5817043218718
 21
-1104.202615074282
 72
     1
 10
-980.5817043218718
 20
-1104.202615074282
 11
-980.5817043218718
 21
-1104.900628679724
 72
     1
 10
-980.5817043218718
 20
-1104.900628679724
 11
-983.7320240456528
 21
-1104.900628679724
 72
     2
 10
-983.7320240456528
 20
-1103.373723917819
 40
1.526904761906053
 50
90.0
 51
270.0
 73
     0
 72
     1
 10
-983.7320240456528
 20
-1101.846819155913
 11
-980.5817043218718
 21
-1101.846819155913
 72
     1
 10
-980.5817043218718
 20
-1101.846819155913
 11
-980.5817043218718
 21
-1102.544832761356
 97
       12
330
17D
330
1CF
330
17E
330
17F
330
180
330
181
330
15E
330
15D
330
15C
330
15B
330
182
330
17C
 92
       16
 93
        4
 72
     2
 10
-983.5157520354876
 20
-1103.216992739698
 40
0.517908573013281
 50
38.12041979710871
 51
141.8795802028835
 73
     1
 72
     2
 10
-983.3160119991413
 20
-1103.373723917819
 40
0.7717997786796852
 50
141.8795802028358
 51
218.1204197971642
 73
     1
 72
     2
 10
-983.5157520354876
 20
-1103.530455095939
 40
0.5179085730137529
 50
218.1204197971956
 51
321.8795802028121
 73
     1
 72
     2
 10
-983.7154920718338
 20
-1103.373723917819
 40
0.7717997786796852
 50
321.8795802028358
 51
398.1204197971642
 73
     1
 97
        4
330
1C9
330
1C8
330
1C3
330
1C2
 75
     1
 76
     0
 52
45.0
 41
0.1
 77
     0
 78
     1
 53
45.0
 43
0.0
 44
0.0
 45
-0.0707106781186548
 46
0.0707106781186548
 79
     0
 98
        1
 10
0.0
 20
0.0
  0
HATCH
  5
221
330
71
100
AcDbEntity
  8
1
  6
Continuous
 62
     2
100
AcDbHatch
 10
0.0
 20
0.0
 30
0.0
210
0.0
220
0.0
230
1.0
  2
_USER
 70
     0
 71
     1
 91
        4
 92
        1
 93
        8
 72
     1
 10
-992.5096313435414
 20
-1102.271063771315
 11
-992.5096313435414
 21
-1107.835574540515
 72
     2
 10
-992.9338759589253
 20
-1107.835574540515
 40
0.4242446153830315
 50
0.0
 51
90.0
 73
     0
 72
     1
 10
-992.9338759589253
 20
-1108.259819155898
 11
-998.4071880496422
 21
-1108.259819155898
 72
     2
 10
-998.4071880496422
 20
-1107.835574540515
 40
0.4242446153828041
 50
90.0
 51
180.0
 73
     0
 72
     1
 10
-998.831432665025
 20
-1107.835574540515
 11
-998.831432665025
 21
-1102.271063771315
 72
     2
 10
-998.4071880496422
 20
-1102.271063771315
 40
0.4242446153841684
 50
180.0
 51
270.0
 73
     0
 72
     1
 10
-998.4071880496422
 20
-1101.846819155931
 11
-992.9338759589253
 21
-1101.846819155931
 72
     2
 10
-992.9338759589253
 20
-1102.271063771315
 40
0.424244615383941
 50
270.0
 51
360.0
 73
     0
 97
        8
330
171
330
1BF
330
172
330
1CA
330
16F
330
1C1
330
170
330
1C0
 92
       16
 93
        1
 72
     2
 10
-995.7876023991246
 20
-1104.58994599967
 40
0.4709789327785074
 50
0.0
 51
360.0
 73
     1
 97
        1
330
1E5
 92
       16
 93
        8
 72
     2
 10
-995.237744686364
 20
-1105.699087599639
 40
0.3157169230768018
 50
115.3740086783344
 51
180.0
 73
     1
 72
     1
 10
-995.5534616094408
 20
-1105.699087599639
 11
-995.5534616094408
 21
-1106.280939006334
 72
     2
 10
-995.237744686364
 20
-1106.280939006334
 40
0.3157169230768204
 50
180.0
 51
269.8110329574592
 73
     1
 72
     2
 10
-995.2321285510538
 20
-1104.578104058765
 40
2.018561131933152
 50
269.8110329575842
 51
450.1889670424158
 73
     1
 72
     2
 10
-995.237744686364
 20
-1102.875269111196
 40
0.3157169230762415
 50
90.18896704254068
 51
180.0
 73
     1
 72
     1
 10
-995.5534616094408
 20
-1102.875269111196
 11
-995.5534616094408
 21
-1103.480804399703
 72
     2
 10
-995.237744686364
 20
-1103.480804399703
 40
0.3157169230768204
 50
180.0
 51
244.6259913216126
 73
     1
 72
     2
 10
-995.7637873844518
 20
-1104.58994599967
 40
0.9118481501447171
 50
295.3740086782016
 51
424.6259913218352
 73
     0
 97
        8
330
1D7
330
138
330
1D4
330
1D5
330
1B3
330
137
330
1D6
330
1B2
 92
       16
 93
       12
 72
     2
 10
-997.8132933728956
 20
-1107.231546677265
 40
0.3157169230756836
 50
180.0
 51
270.0
 73
     1
 72
     1
 10
-997.8132933728956
 20
-1107.547263600342
 11
-996.337460111886
 21
-1107.547263600342
 72
     2
 10
-996.337460111886
 20
-1107.231546677265
 40
0.3157169230769341
 50
270.0
 51
360.0
 73
     1
 72
     1
 10
-996.0217431888094
 20
-1107.231546677265
 11
-996.0217431888094
 21
-1105.700775745733
 72
     2
 10
-996.337460111886
 20
-1105.700775745733
 40
0.315716923076593
 50
0.0
 51
64.80558935147346
 73
     1
 72
     2
 10
-995.814875664311
 20
-1104.58994599967
 40
0.9118975235569838
 50
115.1944106485123
 51
244.8055893514511
 73
     0
 72
     2
 10
-996.337460111886
 20
-1103.479116253608
 40
0.3157169230764803
 50
295.194410648509
 51
360.0
 73
     1
 72
     1
 10
-996.0217431888094
 20
-1103.479116253608
 11
-996.0217431888094
 21
-1102.875091634548
 72
     2
 10
-996.337460111886
 20
-1102.875091634548
 40
0.315716923076593
 50
0.0
 51
90.0
 73
     1
 72
     1
 10
-996.337460111886
 20
-1102.559374711471
 11
-997.8132933728956
 21
-1102.559374711471
 72
     2
 10
-997.8132933728956
 20
-1102.875091634548
 40
0.3157169230769341
 50
90.0
 51
180.0
 73
     1
 72
     1
 10
-998.1290102959713
 20
-1102.875091634548
 11
-998.1290102959713
 21
-1107.231546677265
 97
       12
330
1BB
330
173
330
1BE
330
16E
330
1CB
330
1CC
330
1BD
330
16D
330
1BC
330
16C
330
1CD
330
16B
 75
     1
 76
     0
 52
45.0
 41
0.1
 77
     0
 78
     1
 53
45.0
 43
0.0
 44
0.0
 45
-0.0707106781186548
 46
0.0707106781186548
 79
     0
 98
        1
 10
0.0
 20
0.0
  0
HATCH
  5
222
330
71
100
AcDbEntity
  8
1
  6
Continuous
 62
     2
100
AcDbHatch
 10
0.0
 20
0.0
 30
0.0
210
0.0
220
0.0
230
1.0
  2
_USER
 70
     0
 71
     1
 91
        4
 92
        1
 93
        8
 72
     1
 10
-992.5096313435414
 20
-1102.271063771315
 11
-992.5096313435414
 21
-1107.835574540515
 72
     2
 10
-992.9338759589253
 20
-1107.835574540515
 40
0.4242446153830315
 50
0.0
 51
90.0
 73
     0
 72
     1
 10
-992.9338759589253
 20
-1108.259819155898
 11
-998.4071880496422
 21
-1108.259819155898
 72
     2
 10
-998.4071880496422
 20
-1107.835574540515
 40
0.4242446153828041
 50
90.0
 51
180.0
 73
     0
 72
     1
 10
-998.831432665025
 20
-1107.835574540515
 11
-998.831432665025
 21
-1102.271063771315
 72
     2
 10
-998.4071880496422
 20
-1102.271063771315
 40
0.4242446153841684
 50
180.0
 51
270.0
 73
     0
 72
     1
 10
-998.4071880496422
 20
-1101.846819155931
 11
-992.9338759589253
 21
-1101.846819155931
 72
     2
 10
-992.9338759589253
 20
-1102.271063771315
 40
0.424244615383941
 50
270.0
 51
360.0
 73
     0
 97
        8
330
171
330
1BF
330
172
330
1CA
330
16F
330
1C1
330
170
330
1C0
 92
       16
 93
        1
 72
     2
 10
-995.7876023991246
 20
-1104.58994599967
 40
0.4709789327785074
 50
0.0
 51
360.0
 73
     1
 97
        1
330
1E5
 92
       16
 93
        8
 72
     2
 10
-995.237744686364
 20
-1105.699087599639
 40
0.3157169230768018
 50
115.3740086783344
 51
180.0
 73
     1
 72
     1
 10
-995.5534616094408
 20
-1105.699087599639
 11
-995.5534616094408
 21
-1106.280939006334
 72
     2
 10
-995.237744686364
 20
-1106.280939006334
 40
0.3157169230768204
 50
180.0
 51
269.8110329574592
 73
     1
 72
     2
 10
-995.2321285510538
 20
-1104.578104058765
 40
2.018561131933152
 50
269.8110329575842
 51
450.1889670424158
 73
     1
 72
     2
 10
-995.237744686364
 20
-1102.875269111196
 40
0.3157169230762415
 50
90.18896704254068
 51
180.0
 73
     1
 72
     1
 10
-995.5534616094408
 20
-1102.875269111196
 11
-995.5534616094408
 21
-1103.480804399703
 72
     2
 10
-995.237744686364
 20
-1103.480804399703
 40
0.3157169230768204
 50
180.0
 51
244.6259913216126
 73
     1
 72
     2
 10
-995.7637873844518
 20
-1104.58994599967
 40
0.9118481501447171
 50
295.3740086782016
 51
424.6259913218352
 73
     0
 97
        8
330
1D7
330
138
330
1D4
330
1D5
330
1B3
330
137
330
1D6
330
1B2
 92
       16
 93
       12
 72
     2
 10
-997.8132933728956
 20
-1107.231546677265
 40
0.3157169230756836
 50
180.0
 51
270.0
 73
     1
 72
     1
 10
-997.8132933728956
 20
-1107.547263600342
 11
-996.337460111886
 21
-1107.547263600342
 72
     2
 10
-996.337460111886
 20
-1107.231546677265
 40
0.3157169230769341
 50
270.0
 51
360.0
 73
     1
 72
     1
 10
-996.0217431888094
 20
-1107.231546677265
 11
-996.0217431888094
 21
-1105.700775745733
 72
     2
 10
-996.337460111886
 20
-1105.700775745733
 40
0.315716923076593
 50
0.0
 51
64.80558935147346
 73
     1
 72
     2
 10
-995.814875664311
 20
-1104.58994599967
 40
0.9118975235569838
 50
115.1944106485123
 51
244.8055893514511
 73
     0
 72
     2
 10
-996.337460111886
 20
-1103.479116253608
 40
0.3157169230764803
 50
295.194410648509
 51
360.0
 73
     1
 72
     1
 10
-996.0217431888094
 20
-1103.479116253608
 11
-996.0217431888094
 21
-1102.875091634548
 72
     2
 10
-996.337460111886
 20
-1102.875091634548
 40
0.315716923076593
 50
0.0
 51
90.0
 73
     1
 72
     1
 10
-996.337460111886
 20
-1102.559374711471
 11
-997.8132933728956
 21
-1102.559374711471
 72
     2
 10
-997.8132933728956
 20
-1102.875091634548
 40
0.3157169230769341
 50
90.0
 51
180.0
 73
     1
 72
     1
 10
-998.1290102959713
 20
-1102.875091634548
 11
-998.1290102959713
 21
-1107.231546677265
 97
       12
330
1BB
330
173
330
1BE
330
16E
330
1CB
330
1CC
330
1BD
330
16D
330
1BC
330
16C
330
1CD
330
16B
 75
     1
 76
     0
 52
45.0
 41
0.1
 77
     0
 78
     1
 53
45.0
 43
0.0
 44
0.0
 45
-0.0707106781186548
 46
0.0707106781186548
 79
     0
 98
        1
 10
0.0
 20
0.0
  0
HATCH
  5
223
330
71
100
AcDbEntity
  8
1
  6
Continuous
 62
     2
100
AcDbHatch
 10
0.0
 20
0.0
 30
0.0
210
0.0
220
0.0
230
1.0
  2
_USER
 70
     0
 71
     1
 91
        1
 92
        1
 93
       18
 72
     1
 10
-970.9200834343204
 20
-1105.991274938211
 11
-971.7311824717938
 21
-1105.991274938211
 72
     1
 10
-971.7311824717938
 20
-1105.991274938211
 11
-971.7311824717938
 21
-1108.259819155898
 72
     1
 10
-971.7311824717938
 20
-1108.259819155898
 11
-972.9239751739615
 21
-1108.259819155898
 72
     1
 10
-972.9239751739615
 20
-1108.259819155898
 11
-972.9239751739615
 21
-1105.991274938211
 72
     1
 10
-972.9239751739615
 20
-1105.991274938211
 11
-974.0276144735296
 21
-1105.991274938211
 72
     2
 10
-974.0276144735296
 20
-1106.945797945037
 40
0.9545230068258661
 50
90.0
 51
109.337143219422
 73
     1
 72
     2
 10
-974.1742844716333
 20
-1106.527842964654
 40
0.5115800601946194
 50
109.3371432194738
 51
151.4785267424451
 73
     1
 72
     2
 10
-973.796927213552
 20
-1106.732914393993
 40
0.9410597353348766
 50
151.4785267423678
 51
208.5214732576808
 73
     1
 72
     2
 10
-974.1742844716333
 20
-1106.937985823332
 40
0.5115800601959901
 50
208.5214732576668
 51
246.6277221118395
 73
     1
 72
     2
 10
-974.0178444389302
 20
-1106.575993804622
 40
0.9059297849852503
 50
246.6277221118135
 51
288.4480761180943
 73
     1
 72
     2
 10
-974.4360121725921
 20
-1105.322448028585
 40
2.227384008972396
 50
288.4480761181364
 51
301.9309089499373
 73
     1
 72
     1
 10
-973.2579571305682
 20
-1107.212798747735
 11
-973.2579571305682
 21
-1108.085315754538
 72
     2
 10
-974.5938850476849
 20
-1103.420233448737
 40
4.852596863498941
 50
74.02000874166028
 51
84.84185523036345
 73
     0
 72
     2
 10
-974.3050289529491
 20
-1106.620124031958
 40
1.639695123940421
 50
84.84185523032477
 51
164.9381082228985
 73
     0
 72
     2
 10
-974.7241567964107
 20
-1106.732914393993
 40
1.205656168392903
 50
164.9381082229099
 51
195.0618917770901
 73
     0
 72
     2
 10
-974.3050289529491
 20
-1106.845704756028
 40
1.639695123940101
 50
195.0618917771015
 51
270.0
 73
     0
 72
     1
 10
-974.3050289529491
 20
-1105.206009632088
 11
-970.9200834343204
 21
-1105.206009632087
 72
     1
 10
-970.9200834343204
 20
-1105.206009632087
 11
-970.9200834343204
 21
-1105.991274938211
 97
       18
330
13A
330
1D0
330
1D1
330
1B9
330
1B8
330
19E
330
1B7
330
1B6
330
1D2
330
1B5
330
1D3
330
1B4
330
19F
330
139
330
13E
330
13D
330
13C
330
13B
 75
     1
 76
     0
 52
45.0
 41
0.1
 77
     0
 78
     1
 53
45.0
 43
0.0
 44
0.0
 45
-0.0707106781186548
 46
0.0707106781186548
 79
     0
 98
        1
 10
0.0
 20
0.0
  0
HATCH
  5
224
330
71
100
AcDbEntity
  8
1
  6
Continuous
 62
     2
100
AcDbHatch
 10
0.0
 20
0.0
 30
0.0
210
0.0
220
0.0
230
1.0
  2
_USER
 70
     0
 71
     1
 91
        1
 92
        1
 93
       18
 72
     1
 10
-970.9200834343204
 20
-1105.991274938211
 11
-971.7311824717938
 21
-1105.991274938211
 72
     1
 10
-971.7311824717938
 20
-1105.991274938211
 11
-971.7311824717938
 21
-1108.259819155898
 72
     1
 10
-971.7311824717938
 20
-1108.259819155898
 11
-972.9239751739615
 21
-1108.259819155898
 72
     1
 10
-972.9239751739615
 20
-1108.259819155898
 11
-972.9239751739615
 21
-1105.991274938211
 72
     1
 10
-972.9239751739615
 20
-1105.991274938211
 11
-974.0276144735296
 21
-1105.991274938211
 72
     2
 10
-974.0276144735296
 20
-1106.945797945037
 40
0.9545230068258661
 50
90.0
 51
109.337143219422
 73
     1
 72
     2
 10
-974.1742844716333
 20
-1106.527842964654
 40
0.5115800601946194
 50
109.3371432194738
 51
151.4785267424451
 73
     1
 72
     2
 10
-973.796927213552
 20
-1106.732914393993
 40
0.9410597353348766
 50
151.4785267423678
 51
208.5214732576808
 73
     1
 72
     2
 10
-974.1742844716333
 20
-1106.937985823332
 40
0.5115800601959901
 50
208.5214732576668
 51
246.6277221118395
 73
     1
 72
     2
 10
-974.0178444389302
 20
-1106.575993804622
 40
0.9059297849852503
 50
246.6277221118135
 51
288.4480761180943
 73
     1
 72
     2
 10
-974.4360121725921
 20
-1105.322448028585
 40
2.227384008972396
 50
288.4480761181364
 51
301.9309089499373
 73
     1
 72
     1
 10
-973.2579571305682
 20
-1107.212798747735
 11
-973.2579571305682
 21
-1108.085315754538
 72
     2
 10
-974.5938850476849
 20
-1103.420233448737
 40
4.852596863498941
 50
74.02000874166028
 51
84.84185523036345
 73
     0
 72
     2
 10
-974.3050289529491
 20
-1106.620124031958
 40
1.639695123940421
 50
84.84185523032477
 51
164.9381082228985
 73
     0
 72
     2
 10
-974.7241567964107
 20
-1106.732914393993
 40
1.205656168392903
 50
164.9381082229099
 51
195.0618917770901
 73
     0
 72
     2
 10
-974.3050289529491
 20
-1106.845704756028
 40
1.639695123940101
 50
195.0618917771015
 51
270.0
 73
     0
 72
     1
 10
-974.3050289529491
 20
-1105.206009632088
 11
-970.9200834343204
 21
-1105.206009632087
 72
     1
 10
-970.9200834343204
 20
-1105.206009632087
 11
-970.9200834343204
 21
-1105.991274938211
 97
       18
330
13A
330
1D0
330
1D1
330
1B9
330
1B8
330
19E
330
1B7
330
1B6
330
1D2
330
1B5
330
1D3
330
1B4
330
19F
330
139
330
13E
330
13D
330
13C
330
13B
 75
     1
 76
     0
 52
45.0
 41
0.1
 77
     0
 78
     1
 53
45.0
 43
0.0
 44
0.0
 45
-0.0707106781186548
 46
0.0707106781186548
 79
     0
 98
        1
 10
0.0
 20
0.0
  0
HATCH
  5
225
330
71
100
AcDbEntity
  8
1
  6
Continuous
 62
     2
100
AcDbHatch
 10
0.0
 20
0.0
 30
0.0
210
0.0
220
0.0
230
1.0
  2
_USER
 70
     0
 71
     1
 91
        1
 92
        1
 93
       14
 72
     2
 10
-990.407730432202
 20
-1106.845704756028
 40
1.639695123940224
 50
84.84185523036146
 51
164.9381082228903
 73
     1
 72
     2
 10
-990.8268582756648
 20
-1106.732914393993
 40
1.205656168390927
 50
164.9381082228846
 51
195.0618917771153
 73
     1
 72
     2
 10
-990.407730432202
 20
-1106.620124031958
 40
1.639695123939543
 50
195.0618917771097
 51
275.1581447696385
 73
     1
 72
     2
 10
-990.696586526938
 20
-1103.420233448737
 40
4.852596863497943
 50
275.1581447696255
 51
285.9799912583556
 73
     1
 72
     1
 10
-989.3606586098201
 20
-1108.085315754537
 11
-989.3606586098201
 21
-1107.212798747734
 72
     2
 10
-990.538713651845
 20
-1105.322448028584
 40
2.227384008972611
 50
58.0690910500434
 51
71.5519238818654
 73
     0
 72
     2
 10
-990.1205459181842
 20
-1106.575993804622
 40
0.9059297849848444
 50
71.55192388181933
 51
113.3722778881271
 73
     0
 72
     2
 10
-990.2769859508862
 20
-1106.937985823332
 40
0.5115800601945569
 50
113.3722778881722
 51
151.4785267423619
 73
     0
 72
     2
 10
-989.8996286928059
 20
-1106.732914393993
 40
0.9410597353335216
 50
151.478526742305
 51
208.5214732577558
 73
     0
 72
     2
 10
-990.2769859508862
 20
-1106.527842964654
 40
0.5115800601943187
 50
208.5214732577276
 51
246.6277221117773
 73
     0
 72
     2
 10
-990.1205459181842
 20
-1106.889834983365
 40
0.9059297849858261
 50
246.6277221118729
 51
288.4480761181397
 73
     0
 72
     2
 10
-990.538713651845
 20
-1108.143380759401
 40
2.227384008973646
 50
288.4480761181346
 51
301.9309089499565
 73
     0
 72
     1
 10
-989.3606586098201
 20
-1106.253030040251
 11
-989.3606586098201
 21
-1105.380513033448
 72
     2
 10
-990.696586526938
 20
-1110.045595339249
 40
4.852596863498158
 50
74.02000874164733
 51
84.8418552303745
 73
     1
 97
       14
330
1D8
330
1D9
330
1DA
330
1DB
330
1A0
330
1B1
330
1B0
330
1AF
330
1DC
330
1DD
330
1AE
330
1DE
330
1A1
330
1AD
 75
     1
 76
     0
 52
45.0
 41
0.1
 77
     0
 78
     1
 53
45.0
 43
0.0
 44
0.0
 45
-0.0707106781186548
 46
0.0707106781186548
 79
     0
 98
        1
 10
0.0
 20
0.0
  0
HATCH
  5
226
330
71
100
AcDbEntity
  8
1
  6
Continuous
 62
     2
100
AcDbHatch
 10
0.0
 20
0.0
 30
0.0
210
0.0
220
0.0
230
1.0
  2
_USER
 70
     0
 71
     1
 91
        1
 92
        1
 93
       14
 72
     2
 10
-990.407730432202
 20
-1106.845704756028
 40
1.639695123940224
 50
84.84185523036146
 51
164.9381082228903
 73
     1
 72
     2
 10
-990.8268582756648
 20
-1106.732914393993
 40
1.205656168390927
 50
164.9381082228846
 51
195.0618917771153
 73
     1
 72
     2
 10
-990.407730432202
 20
-1106.620124031958
 40
1.639695123939543
 50
195.0618917771097
 51
275.1581447696385
 73
     1
 72
     2
 10
-990.696586526938
 20
-1103.420233448737
 40
4.852596863497943
 50
275.1581447696255
 51
285.9799912583556
 73
     1
 72
     1
 10
-989.3606586098201
 20
-1108.085315754537
 11
-989.3606586098201
 21
-1107.212798747734
 72
     2
 10
-990.538713651845
 20
-1105.322448028584
 40
2.227384008972611
 50
58.0690910500434
 51
71.5519238818654
 73
     0
 72
     2
 10
-990.1205459181842
 20
-1106.575993804622
 40
0.9059297849848444
 50
71.55192388181933
 51
113.3722778881271
 73
     0
 72
     2
 10
-990.2769859508862
 20
-1106.937985823332
 40
0.5115800601945569
 50
113.3722778881722
 51
151.4785267423619
 73
     0
 72
     2
 10
-989.8996286928059
 20
-1106.732914393993
 40
0.9410597353335216
 50
151.478526742305
 51
208.5214732577558
 73
     0
 72
     2
 10
-990.2769859508862
 20
-1106.527842964654
 40
0.5115800601943187
 50
208.5214732577276
 51
246.6277221117773
 73
     0
 72
     2
 10
-990.1205459181842
 20
-1106.889834983365
 40
0.9059297849858261
 50
246.6277221118729
 51
288.4480761181397
 73
     0
 72
     2
 10
-990.538713651845
 20
-1108.143380759401
 40
2.227384008973646
 50
288.4480761181346
 51
301.9309089499565
 73
     0
 72
     1
 10
-989.3606586098201
 20
-1106.253030040251
 11
-989.3606586098201
 21
-1105.380513033448
 72
     2
 10
-990.696586526938
 20
-1110.045595339249
 40
4.852596863498158
 50
74.02000874164733
 51
84.8418552303745
 73
     1
 97
       14
330
1D8
330
1D9
330
1DA
330
1DB
330
1A0
330
1B1
330
1B0
330
1AF
330
1DC
330
1DD
330
1AE
330
1DE
330
1A1
330
1AD
 75
     1
 76
     0
 52
45.0
 41
0.1
 77
     0
 78
     1
 53
45.0
 43
0.0
 44
0.0
 45
-0.0707106781186548
 46
0.0707106781186548
 79
     0
 98
        1
 10
0.0
 20
0.0
  0
ENDBLK
  5
73
330
71
100
AcDbEntity
  8
0
100
AcDbBlockEnd
  0
BLOCK
  5
75
330
74
100
AcDbEntity
  8
0
100
AcDbBlockBegin
  2
_punkt
 70
     0
 10
-873.5232830248375
 20
-1115.553319155915
 30
0.0
  3
_punkt
  1

  0
LINE
  5
227
330
74
100
AcDbEntity
  8
1
  6
Continuous
 62
     2
100
AcDbLine
 10
-873.5232830248375
 20
-1115.553319155915
 30
0.0
 11
-868.5232830248385
 21
-1115.553319155915
 31
0.0
  0
LINE
  5
228
330
74
100
AcDbEntity
  8
1
  6
Continuous
 62
     2
100
AcDbLine
 10
-873.5232830248375
 20
-1115.553319155915
 30
0.0
 11
-873.5232830248375
 21
-1120.553319155915
 31
0.0
  0
ENDBLK
  5
76
330
74
100
AcDbEntity
  8
0
100
AcDbBlockEnd
  0
BLOCK
  5
7A
330
77
100
AcDbEntity
  8
0
100
AcDbBlockBegin
  2
A4I_CS
 70
     0
 10
-873.5232830248375
 20
-1120.553319155915
 30
0.0
  3
A4I_CS
  1

  0
INSERT
  5
78
330
77
100
AcDbEntity
  8
1
100
AcDbBlockReference
  2
_rahmen
 10
-873.5232830248375
 20
-1120.553319155915
 30
0.0
  0
INSERT
  5
79
330
77
100
AcDbEntity
  8
1
100
AcDbBlockReference
  2
_punkt
 10
-873.5232830248375
 20
-1115.553319155915
 30
0.0
  0
ENDBLK
  5
7B
330
77
100
AcDbEntity
  8
0
100
AcDbBlockEnd
  0
BLOCK
  5
84
330
7C
100
AcDbEntity
  8
0
100
AcDbBlockBegin
  2
1
 70
     0
 10
0.0
 20
0.0
 30
0.0
  3
1
  1

  0
INSERT
  5
7D
330
7C
100
AcDbEntity
  8
0
100
AcDbBlockReference
  2
AllgSicht1
 10
-921.0000000000003
 20
-1047.0
 30
0.0
  0
INSERT
  5
7E
330
7C
100
AcDbEntity
  8
0
100
AcDbBlockReference
  2
Drfsicht1
 10
-1043.975
 20
-1023.0
 30
0.0
  0
INSERT
  5
7F
330
7C
100
AcDbEntity
  8
0
100
AcDbBlockReference
  2
Rckans1
 10
-947.0
 20
-974.0000000000002
 30
0.0
  0
INSERT
  5
80
330
7C
100
AcDbEntity
  8
0
100
AcDbBlockReference
  2
SA_Rechts1
 10
-1113.0
 20
-974.0
 30
0.0
  0
INSERT
  5
81
330
7C
100
AcDbEntity
  8
0
100
AcDbBlockReference
  2
SA_links1
 10
-996.00000000003
 20
-974.0000000000002
 30
0.0
  0
INSERT
  5
82
330
7C
100
AcDbEntity
  8
0
100
AcDbBlockReference
  2
Vordans1
 10
-1043.975000023842
 20
-974.0000000000001
 30
0.0
  0
INSERT
  5
83
330
7C
100
AcDbEntity
  8
0
100
AcDbBlockReference
  2
A4I_CS
 10
-873.5232830248375
 20
-1120.553319155915
 30
0.0
  0
ENDBLK
  5
85
330
7C
100
AcDbEntity
  8
0
100
AcDbBlockEnd
  0
BLOCK
  5
B0
330
A7
100
AcDbEntity
  8
0
100
AcDbBlockBegin
  2
*D17
 70
     1
 10
0.0
 20
0.0
 30
0.0
  3
*D17
  1

  0
LINE
  5
A8
330
A7
100
AcDbEntity
  8
1
  6
Continuous
 62
     2
100
AcDbLine
 10
-1075.725
 20
-1039.07627552844
 30
0.0
 11
-1075.725
 21
-1025.224999976128
 31
0.0
  0
LINE
  5
A9
330
A7
100
AcDbEntity
  8
1
  6
Continuous
 62
     2
100
AcDbLine
 10
-1075.725
 20
-1025.224999976128
 30
0.0
 11
-1075.725
 21
-1023.774999976128
 31
0.0
  0
LINE
  5
AA
330
A7
100
AcDbEntity
  8
1
  6
Continuous
 62
     2
100
AcDbLine
 10
-1075.725
 20
-1023.774999976128
 30
0.0
 11
-1075.725
 21
-1016.774999976128
 31
0.0
  0
LINE
  5
AB
330
A7
100
AcDbEntity
  8
1
  6
Continuous
 62
     2
100
AcDbLine
 10
-1065.725
 20
-1025.224999976128
 30
0.0
 11
-1077.225
 21
-1025.224999976128
 31
0.0
  0
LINE
  5
AC
330
A7
100
AcDbEntity
  8
1
  6
Continuous
 62
     2
100
AcDbLine
 10
-1065.725
 20
-1023.774999976128
 30
0.0
 11
-1077.225
 21
-1023.774999976128
 31
0.0
  0
SOLID
  5
AD
330
A7
100
AcDbEntity
  8
1
 62
     2
100
AcDbTrace
 10
-1075.264216258444
 20
-1028.724999976128
 30
0.0
 11
-1076.185783741556
 21
-1028.724999976128
 31
0.0
 12
-1075.725
 22
-1025.224999976128
 32
0.0
 13
-1075.725
 23
-1025.224999976128
 33
0.0
  0
SOLID
  5
AE
330
A7
100
AcDbEntity
  8
1
 62
     2
100
AcDbTrace
 10
-1076.185783741556
 20
-1020.274999976128
 30
0.0
 11
-1075.264216258444
 21
-1020.274999976128
 31
0.0
 12
-1075.725
 22
-1023.774999976128
 32
0.0
 13
-1075.725
 23
-1023.774999976128
 33
0.0
  0
MTEXT
  5
AF
330
A7
100
AcDbEntity
  8
1
 62
     3
100
AcDbMText
 10
-1077.575
 20
-1039.07627552844
 30
0.0
 40
3.5
 41
0.0
 71
     7
 72
     1
  1
1,45
  7
CONVERTER_11
 11
0.0
 21
1.0
 31
0.0
 73
     1
 44
0.60024009603842
  0
ENDBLK
  5
B1
330
A7
100
AcDbEntity
  8
0
100
AcDbBlockEnd
  0
BLOCK
  5
E1
330
DA
100
AcDbEntity
  8
0
100
AcDbBlockBegin
  2
*D18
 70
     1
 10
0.0
 20
0.0
 30
0.0
  3
*D18
  1

  0
LINE
  5
DB
330
DA
100
AcDbEntity
  8
1
  6
Continuous
 62
     2
100
AcDbLine
 10
-1075.725
 20
-991.1250000000001
 30
0.0
 11
-1075.725
 21
-956.8750000000001
 31
0.0
  0
LINE
  5
DC
330
DA
100
AcDbEntity
  8
1
  6
Continuous
 62
     2
100
AcDbLine
 10
-1022.225000023842
 20
-991.1250000000001
 30
0.0
 11
-1077.725
 21
-991.1250000000001
 31
0.0
  0
LINE
  5
DD
330
DA
100
AcDbEntity
  8
1
  6
Continuous
 62
     2
100
AcDbLine
 10
-1033.600000023842
 20
-956.8750000000001
 30
0.0
 11
-1077.725
 21
-956.8750000000001
 31
0.0
  0
SOLID
  5
DE
330
DA
100
AcDbEntity
  8
1
 62
     2
100
AcDbTrace
 10
-1076.185783741556
 20
-987.6250000000001
 30
0.0
 11
-1075.264216258444
 21
-987.6250000000001
 31
0.0
 12
-1075.725
 22
-991.1250000000001
 32
0.0
 13
-1075.725
 23
-991.1250000000001
 33
0.0
  0
SOLID
  5
DF
330
DA
100
AcDbEntity
  8
1
 62
     2
100
AcDbTrace
 10
-1075.264216258444
 20
-960.3750000000001
 30
0.0
 11
-1076.185783741556
 21
-960.3750000000001
 31
0.0
 12
-1075.725
 22
-956.8750000000001
 32
0.0
 13
-1075.725
 23
-956.8750000000001
 33
0.0
  0
MTEXT
  5
E0
330
DA
100
AcDbEntity
  8
1
 62
     3
100
AcDbMText
 10
-1078.075
 20
-982.2073344401912
 30
0.0
 40
3.5
 41
0.0
 71
     7
 72
     1
  1
34,25
  7
CONVERTER_11
 11
0.0
 21
1.0
 31
0.0
 73
     1
 44
0.60024009603842
  0
ENDBLK
  5
E2
330
DA
100
AcDbEntity
  8
0
100
AcDbBlockEnd
  0
BLOCK
  5
EC
330
E5
100
AcDbEntity
  8
0
100
AcDbBlockBegin
  2
*D19
 70
     1
 10
0.0
 20
0.0
 30
0.0
  3
*D19
  1

  0
LINE
  5
E6
330
E5
100
AcDbEntity
  8
1
  6
Continuous
 62
     2
100
AcDbLine
 10
-1022.225000023842
 20
-1002.239882119
 30
0.0
 11
-1065.725000023842
 21
-1002.239882119
 31
0.0
  0
LINE
  5
E7
330
E5
100
AcDbEntity
  8
1
  6
Continuous
 62
     2
100
AcDbLine
 10
-1022.225000023842
 20
-991.1250000000001
 30
0.0
 11
-1022.225000023842
 21
-1004.239882119
 31
0.0
  0
LINE
  5
E8
330
E5
100
AcDbEntity
  8
1
  6
Continuous
 62
     2
100
AcDbLine
 10
-1065.725000023842
 20
-991.1250000000001
 30
0.0
 11
-1065.725000023842
 21
-1004.239882119
 31
0.0
  0
SOLID
  5
E9
330
E5
100
AcDbEntity
  8
1
 62
     2
100
AcDbTrace
 10
-1025.725000023842
 20
-1002.700665860556
 30
0.0
 11
-1025.725000023842
 21
-1001.779098377444
 31
0.0
 12
-1022.225000023842
 22
-1002.239882119
 32
0.0
 13
-1022.225000023842
 23
-1002.239882119
 33
0.0
  0
SOLID
  5
EA
330
E5
100
AcDbEntity
  8
1
 62
     2
100
AcDbTrace
 10
-1062.225000023842
 20
-1001.779098377444
 30
0.0
 11
-1062.225000023842
 21
-1002.700665860556
 31
0.0
 12
-1065.725000023842
 22
-1002.239882119
 32
0.0
 13
-1065.725000023842
 23
-1002.239882119
 33
0.0
  0
MTEXT
  5
EB
330
E5
100
AcDbEntity
  8
1
 62
     3
100
AcDbMText
 10
-1049.41925574438
 20
-999.8898821190002
 30
0.0
 40
3.5
 41
0.0
 71
     7
 72
     1
  1
43,5
  7
CONVERTER_11
 11
0.9999999999970619
 21
2.424068405545306E-6
 31
0.0
 73
     1
 44
0.60024009603842
  0
ENDBLK
  5
ED
330
E5
100
AcDbEntity
  8
0
100
AcDbBlockEnd
  0
ENDSEC
  0
SECTION
  2
ENTITIES
  0
INSERT
  5
86
330
1F
100
AcDbEntity
  8
1
100
AcDbBlockReference
  2
1
 10
0.0
 20
0.0
 30
0.0
  0
ENDSEC
  0
SECTION
  2
OBJECTS
  0
DICTIONARY
  5
C
330
0
100
AcDbDictionary
281
     1
  3
ACAD_GROUP
350
D
  3
ACAD_LAYOUT
350
1A
  3
ACAD_MATERIAL
350
3B
  3
ACAD_MLEADERSTYLE
350
250
  3
ACAD_MLINESTYLE
350
17
  3
ACAD_PLOTSETTINGS
350
19
  3
ACAD_PLOTSTYLENAME
350
E
  3
ACAD_TABLESTYLE
350
24F
  3
ACAD_VISUALSTYLE
350
2A
  0
DICTIONARY
  5
D
102
{ACAD_REACTORS
330
C
102
}
330
C
100
AcDbDictionary
281
     1
  0
DICTIONARY
  5
1A
102
{ACAD_REACTORS
330
C
102
}
330
C
100
AcDbDictionary
281
     1
  3
Layout1
350
1E
  3
Layout2
350
26
  3
Model
350
22
  0
DICTIONARY
  5
3B
102
{ACAD_REACTORS
330
C
102
}
330
C
100
AcDbDictionary
281
     1
  3
ByBlock
350
3D
  3
ByLayer
350
3C
  3
Global
350
3E
  0
DICTIONARY
  5
250
102
{ACAD_REACTORS
330
C
102
}
330
C
100
AcDbDictionary
281
     1
  0
DICTIONARY
  5
17
102
{ACAD_REACTORS
330
C
102
}
330
C
100
AcDbDictionary
281
     1
  3
Standard
350
18
  0
DICTIONARY
  5
19
102
{ACAD_REACTORS
330
C
102
}
330
C
100
AcDbDictionary
281
     1
  0
ACDBDICTIONARYWDFLT
  5
E
102
{ACAD_REACTORS
330
C
102
}
330
C
100
AcDbDictionary
281
     1
  3
Normal
350
F
100
AcDbDictionaryWithDefault
340
F
  0
DICTIONARY
  5
24F
102
{ACAD_REACTORS
330
C
102
}
330
C
100
AcDbDictionary
281
     1
  0
DICTIONARY
  5
2A
102
{ACAD_REACTORS
330
C
102
}
330
C
100
AcDbDictionary
281
     1
  3
2dWireframe
350
2F
  3
3D Hidden
350
31
  3
3dWireframe
350
30
  3
Basic
350
32
  3
Brighten
350
36
  3
ColorChange
350
3A
  3
Conceptual
350
34
  3
Dim
350
35
  3
Facepattern
350
39
  3
Flat
350
2B
  3
FlatWithEdges
350
2C
  3
Gouraud
350
2D
  3
GouraudWithEdges
350
2E
  3
Linepattern
350
38
  3
Realistic
350
33
  3
Thicken
350
37
  0
LAYOUT
  5
1E
102
{ACAD_REACTORS
330
1A
102
}
330
1A
100
AcDbPlotSettings
  1

  2
none_device
  4

  6

 40
0.0
 41
0.0
 42
0.0
 43
0.0
 44
0.0
 45
0.0
 46
0.0
 47
0.0
 48
0.0
 49
0.0
140
0.0
141
0.0
142
1.0
143
1.0
 70
   688
 72
     0
 73
     0
 74
     5
  7

 75
    16
 76
     0
 77
     2
 78
   300
147
1.0
148
0.0
149
0.0
100
AcDbLayout
  1
Layout1
 70
     1
 71
     1
 10
0.0
 20
0.0
 11
12.0
 21
9.0
 12
0.0
 22
0.0
 32
0.0
 14
1.00000000000000E+20
 24
1.00000000000000E+20
 34
1.00000000000000E+20
 15
-1.00000000000000E+20
 25
-1.00000000000000E+20
 35
-1.00000000000000E+20
146
0.0
 13
0.0
 23
0.0
 33
0.0
 16
1.0
 26
0.0
 36
0.0
 17
0.0
 27
1.0
 37
0.0
 76
     0
330
1B
  0
LAYOUT
  5
26
102
{ACAD_REACTORS
330
1A
102
}
330
1A
100
AcDbPlotSettings
  1

  2
none_device
  4

  6

 40
0.0
 41
0.0
 42
0.0
 43
0.0
 44
0.0
 45
0.0
 46
0.0
 47
0.0
 48
0.0
 49
0.0
140
0.0
141
0.0
142
1.0
143
1.0
 70
   688
 72
     0
 73
     0
 74
     5
  7

 75
    16
 76
     0
 77
     2
 78
   300
147
1.0
148
0.0
149
0.0
100
AcDbLayout
  1
Layout2
 70
     1
 71
     2
 10
0.0
 20
0.0
 11
0.0
 21
0.0
 12
0.0
 22
0.0
 32
0.0
 14
0.0
 24
0.0
 34
0.0
 15
0.0
 25
0.0
 35
0.0
146
0.0
 13
0.0
 23
0.0
 33
0.0
 16
1.0
 26
0.0
 36
0.0
 17
0.0
 27
1.0
 37
0.0
 76
     0
330
23
  0
LAYOUT
  5
22
102
{ACAD_REACTORS
330
1A
102
}
330
1A
100
AcDbPlotSettings
  1

  2
none_device
  4

  6

 40
0.0
 41
0.0
 42
0.0
 43
0.0
 44
0.0
 45
0.0
 46
0.0
 47
0.0
 48
0.0
 49
0.0
140
0.0
141
0.0
142
1.0
143
1.0
 70
  1712
 72
     0
 73
     0
 74
     0
  7

 75
     0
 76
     0
 77
     2
 78
   300
147
1.0
148
0.0
149
0.0
100
AcDbLayout
  1
Model
 70
     1
 71
     0
 10
0.0
 20
0.0
 11
12.0
 21
9.0
 12
0.0
 22
0.0
 32
0.0
 14
-1165.523283024837
 24
-1120.553319155915
 34
0.0
 15
-868.5232830248385
 25
-910.5533191559146
 35
0.0
146
0.0
 13
0.0
 23
0.0
 33
0.0
 16
1.0
 26
0.0
 36
0.0
 17
0.0
 27
1.0
 37
0.0
 76
     0
330
1F
331
29
  0
MATERIAL
  5
3D
102
{ACAD_REACTORS
330
3B
102
}
102
{ACAD_XDICTIONARY
360
24B
102
}
330
3B
100
AcDbMaterial
  1
ByBlock
  0
MATERIAL
  5
3C
102
{ACAD_REACTORS
330
3B
102
}
102
{ACAD_XDICTIONARY
360
249
102
}
330
3B
100
AcDbMaterial
  1
ByLayer
  0
MATERIAL
  5
3E
102
{ACAD_REACTORS
330
3B
102
}
102
{ACAD_XDICTIONARY
360
24D
102
}
330
3B
100
AcDbMaterial
  1
Global
  0
MLINESTYLE
  5
18
102
{ACAD_REACTORS
330
17
102
}
330
17
100
AcDbMlineStyle
  2
Standard
 70
     0
  3

 62
   256
 51
90.0
 52
90.0
 71
     2
 49
0.5
 62
   256
  6
BYLAYER
 49
-0.5
 62
   256
  6
BYLAYER
  0
ACDBPLACEHOLDER
  5
F
102
{ACAD_REACTORS
330
E
102
}
330
E
  0
VISUALSTYLE
  5
2F
102
{ACAD_REACTORS
330
2A
102
}
102
{ACAD_XDICTIONARY
360
231
102
}
330
2A
100
AcDbVisualStyle
  2
2dWireframe
 70
     4
 71
     0
 72
     2
 73
     0
 90
        0
 40
-0.6
 41
-30.0
 62
     5
 63
     7
421
 16777215
 74
     1
 91
        4
 64
     7
 65
   257
 75
     1
175
     1
 42
1.0
 92
        0
 66
   257
 43
1.0
 76
     1
 77
     6
 78
     2
 67
     7
 79
     5
170
     0
171
     0
290
     0
174
     0
 93
        1
 44
0.0
173
     0
291
     0
 45
0.0
1001
ACAD
1000
AcDbSavedByObjectVersion
1070
     0
  0
VISUALSTYLE
  5
31
102
{ACAD_REACTORS
330
2A
102
}
102
{ACAD_XDICTIONARY
360
235
102
}
330
2A
100
AcDbVisualStyle
  2
3D Hidden
 70
     6
 71
     1
 72
     2
 73
     2
 90
        0
 40
-0.6
 41
-30.0
 62
     5
 63
     7
421
 16777215
 74
     2
 91
        2
 64
     7
 65
   257
 75
     2
175
     1
 42
40.0
 92
        0
 66
   257
 43
1.0
 76
     1
 77
     6
 78
     2
 67
     7
 79
     3
170
     0
171
     0
290
     0
174
     0
 93
        1
 44
0.0
173
     0
291
     0
 45
0.0
1001
ACAD
1000
AcDbSavedByObjectVersion
1070
     0
  0
VISUALSTYLE
  5
30
102
{ACAD_REACTORS
330
2A
102
}
102
{ACAD_XDICTIONARY
360
233
102
}
330
2A
100
AcDbVisualStyle
  2
3dWireframe
 70
     5
 71
     0
 72
     2
 73
     0
 90
        0
 40
-0.6
 41
-30.0
 62
     5
 63
     7
421
 16777215
 74
     1
 91
        4
 64
     7
 65
   257
 75
     1
175
     1
 42
1.0
 92
        0
 66
   257
 43
1.0
 76
     1
 77
     6
 78
     2
 67
     7
 79
     5
170
     0
171
     0
290
     0
174
     0
 93
        1
 44
0.0
173
     0
291
     0
 45
0.0
1001
ACAD
1000
AcDbSavedByObjectVersion
1070
     0
  0
VISUALSTYLE
  5
32
102
{ACAD_REACTORS
330
2A
102
}
102
{ACAD_XDICTIONARY
360
237
102
}
330
2A
100
AcDbVisualStyle
  2
Basic
 70
     7
 71
     1
 72
     0
 73
     1
 90
        0
 40
-0.6
 41
-30.0
 62
     5
 63
     7
421
 16777215
 74
     0
 91
        4
 64
     7
 65
   257
 75
     1
175
     1
 42
1.0
 92
        8
 66
     7
 43
1.0
 76
     1
 77
     6
 78
     2
 67
     7
 79
     5
170
     0
171
     0
290
     0
174
     0
 93
        1
 44
0.0
173
     0
291
     1
 45
0.0
1001
ACAD
1000
AcDbSavedByObjectVersion
1070
     0
  0
VISUALSTYLE
  5
36
102
{ACAD_REACTORS
330
2A
102
}
102
{ACAD_XDICTIONARY
360
23F
102
}
330
2A
100
AcDbVisualStyle
  2
Brighten
 70
    12
 71
     2
 72
     2
 73
     0
 90
        0
 40
-0.6
 41
-30.0
 62
     5
 63
     7
421
 16777215
 74
     1
 91
        4
 64
     7
 65
   257
 75
     1
175
     1
 42
1.0
 92
        8
 66
     7
 43
1.0
 76
     1
 77
     6
 78
     2
 67
     7
 79
     5
170
     0
171
     0
290
     0
174
     0
 93
        1
 44
50.0
173
     0
291
     1
 45
0.0
1001
ACAD
1000
AcDbSavedByObjectVersion
1070
     0
  0
VISUALSTYLE
  5
3A
102
{ACAD_REACTORS
330
2A
102
}
102
{ACAD_XDICTIONARY
360
247
102
}
330
2A
100
AcDbVisualStyle
  2
ColorChange
 70
    16
 71
     2
 72
     2
 73
     3
 90
        0
 40
-0.6
 41
-30.0
 62
     5
 63
     8
421
  8421504
 74
     1
 91
        4
 64
     7
 65
   257
 75
     1
175
     1
 42
1.0
 92
        8
 66
     8
424
  8421504
 43
1.0
 76
     1
 77
     6
 78
     2
 67
     7
 79
     5
170
     0
171
     0
290
     0
174
     0
 93
        1
 44
0.0
173
     0
291
     1
 45
0.0
1001
ACAD
1000
AcDbSavedByObjectVersion
1070
     0
  0
VISUALSTYLE
  5
34
102
{ACAD_REACTORS
330
2A
102
}
102
{ACAD_XDICTIONARY
360
23B
102
}
330
2A
100
AcDbVisualStyle
  2
Conceptual
 70
     9
 71
     3
 72
     2
 73
     0
 90
        0
 40
-0.6
 41
-30.0
 62
     5
 63
     7
421
 16777215
 74
     2
 91
        2
 64
     7
 65
   257
 75
     1
175
     1
 42
40.0
 92
        8
 66
     7
 43
1.0
 76
     1
 77
     6
 78
     2
 67
     7
 79
     3
170
     0
171
     0
290
     0
174
     0
 93
        1
 44
0.0
173
     0
291
     0
 45
0.0
1001
ACAD
1000
AcDbSavedByObjectVersion
1070
     0
  0
VISUALSTYLE
  5
35
102
{ACAD_REACTORS
330
2A
102
}
102
{ACAD_XDICTIONARY
360
23D
102
}
330
2A
100
AcDbVisualStyle
  2
Dim
 70
    11
 71
     2
 72
     2
 73
     0
 90
        0
 40
-0.6
 41
-30.0
 62
     5
 63
     7
421
 16777215
 74
     1
 91
        4
 64
     7
 65
   257
 75
     1
175
     1
 42
1.0
 92
        8
 66
     7
 43
1.0
 76
     1
 77
     6
 78
     2
 67
     7
 79
     5
170
     0
171
     0
290
     0
174
     0
 93
        1
 44
-50.0
173
     0
291
     1
 45
0.0
1001
ACAD
1000
AcDbSavedByObjectVersion
1070
     0
  0
VISUALSTYLE
  5
39
102
{ACAD_REACTORS
330
2A
102
}
102
{ACAD_XDICTIONARY
360
245
102
}
330
2A
100
AcDbVisualStyle
  2
Facepattern
 70
    15
 71
     2
 72
     2
 73
     0
 90
        0
 40
-0.6
 41
-30.0
 62
     5
 63
     7
421
 16777215
 74
     1
 91
        4
 64
     7
 65
   257
 75
     1
175
     1
 42
1.0
 92
        8
 66
     7
 43
1.0
 76
     1
 77
     6
 78
     2
 67
     7
 79
     5
170
     0
171
     0
290
     0
174
     0
 93
        1
 44
0.0
173
     0
291
     1
 45
0.0
1001
ACAD
1000
AcDbSavedByObjectVersion
1070
     0
  0
VISUALSTYLE
  5
2B
102
{ACAD_REACTORS
330
2A
102
}
102
{ACAD_XDICTIONARY
360
229
102
}
330
2A
100
AcDbVisualStyle
  2
Flat
 70
     0
 71
     2
 72
     1
 73
     1
 90
        2
 40
-0.6
 41
30.0
 62
     5
 63
     7
421
 16777215
 74
     0
 91
        4
 64
     7
 65
   257
 75
     1
175
     1
 42
1.0
 92
        8
 66
     7
 43
1.0
 76
     1
 77
     6
 78
     2
 67
     7
 79
     5
170
     0
171
     0
290
     0
174
     0
 93
       13
 44
0.0
173
     0
291
     1
 45
0.0
1001
ACAD
1000
AcDbSavedByObjectVersion
1070
     0
  0
VISUALSTYLE
  5
2C
102
{ACAD_REACTORS
330
2A
102
}
102
{ACAD_XDICTIONARY
360
22B
102
}
330
2A
100
AcDbVisualStyle
  2
FlatWithEdges
 70
     1
 71
     2
 72
     1
 73
     1
 90
        2
 40
-0.6
 41
30.0
 62
     5
 63
     7
421
 16777215
 74
     1
 91
        4
 64
     7
 65
   257
 75
     1
175
     1
 42
1.0
 92
        0
 66
   257
 43
1.0
 76
     1
 77
     6
 78
     2
 67
     7
 79
     5
170
     0
171
     0
290
     0
174
     0
 93
       13
 44
0.0
173
     0
291
     1
 45
0.0
1001
ACAD
1000
AcDbSavedByObjectVersion
1070
     0
  0
VISUALSTYLE
  5
2D
102
{ACAD_REACTORS
330
2A
102
}
102
{ACAD_XDICTIONARY
360
22D
102
}
330
2A
100
AcDbVisualStyle
  2
Gouraud
 70
     2
 71
     2
 72
     2
 73
     1
 90
        2
 40
-0.6
 41
30.0
 62
     5
 63
     7
421
 16777215
 74
     0
 91
        4
 64
     7
 65
   257
 75
     1
175
     1
 42
1.0
 92
        0
 66
     7
 43
1.0
 76
     1
 77
     6
 78
     2
 67
     7
 79
     5
170
     0
171
     0
290
     0
174
     0
 93
       13
 44
0.0
173
     0
291
     1
 45
0.0
1001
ACAD
1000
AcDbSavedByObjectVersion
1070
     0
  0
VISUALSTYLE
  5
2E
102
{ACAD_REACTORS
330
2A
102
}
102
{ACAD_XDICTIONARY
360
22F
102
}
330
2A
100
AcDbVisualStyle
  2
GouraudWithEdges
 70
     3
 71
     2
 72
     2
 73
     1
 90
        2
 40
-0.6
 41
30.0
 62
     5
 63
     7
421
 16777215
 74
     1
 91
        4
 64
     7
 65
   257
 75
     1
175
     1
 42
1.0
 92
        0
 66
   257
 43
1.0
 76
     1
 77
     6
 78
     2
 67
     7
 79
     5
170
     0
171
     0
290
     0
174
     0
 93
       13
 44
0.0
173
     0
291
     1
 45
0.0
1001
ACAD
1000
AcDbSavedByObjectVersion
1070
     0
  0
VISUALSTYLE
  5
38
102
{ACAD_REACTORS
330
2A
102
}
102
{ACAD_XDICTIONARY
360
243
102
}
330
2A
100
AcDbVisualStyle
  2
Linepattern
 70
    14
 71
     2
 72
     2
 73
     0
 90
        0
 40
-0.6
 41
-30.0
 62
     5
 63
     7
421
 16777215
 74
     1
 91
        4
 64
     7
 65
   257
 75
     7
175
     7
 42
1.0
 92
        8
 66
     7
 43
1.0
 76
     1
 77
     6
 78
     2
 67
     7
 79
     5
170
     0
171
     0
290
     0
174
     0
 93
        1
 44
0.0
173
     0
291
     1
 45
0.0
1001
ACAD
1000
AcDbSavedByObjectVersion
1070
     0
  0
VISUALSTYLE
  5
33
102
{ACAD_REACTORS
330
2A
102
}
102
{ACAD_XDICTIONARY
360
239
102
}
330
2A
100
AcDbVisualStyle
  2
Realistic
 70
     8
 71
     2
 72
     2
 73
     0
 90
        0
 40
-0.6
 41
-30.0
 62
     5
 63
     7
421
 16777215
 74
     1
 91
        0
 64
     7
 65
   257
 75
     1
175
     1
 42
1.0
 92
        8
 66
     8
424
  7895160
 43
1.0
 76
     1
 77
     6
 78
     2
 67
     7
 79
     5
170
     0
171
     0
290
     0
174
     0
 93
       13
 44
0.0
173
     0
291
     0
 45
0.0
1001
ACAD
1000
AcDbSavedByObjectVersion
1070
     0
  0
VISUALSTYLE
  5
37
102
{ACAD_REACTORS
330
2A
102
}
102
{ACAD_XDICTIONARY
360
241
102
}
330
2A
100
AcDbVisualStyle
  2
Thicken
 70
    13
 71
     2
 72
     2
 73
     0
 90
        0
 40
-0.6
 41
-30.0
 62
     5
 63
     7
421
 16777215
 74
     1
 91
        4
 64
     7
 65
   257
 75
     1
175
     1
 42
1.0
 92
       12
 66
     7
 43
1.0
 76
     1
 77
     6
 78
     2
 67
     7
 79
     5
170
     0
171
     0
290
     0
174
     0
 93
        1
 44
0.0
173
     0
291
     1
 45
0.0
1001
ACAD
1000
AcDbSavedByObjectVersion
1070
     0
  0
DICTIONARY
  5
24B
330
3D
100
AcDbDictionary
280
     1
281
     1
  3
ACAD_XREC_ROUNDTRIP
360
24C
  0
DICTIONARY
  5
249
330
3C
100
AcDbDictionary
280
     1
281
     1
  3
ACAD_XREC_ROUNDTRIP
360
24A
  0
DICTIONARY
  5
24D
330
3E
100
AcDbDictionary
280
     1
281
     1
  3
ACAD_XREC_ROUNDTRIP
360
24E
  0
DICTIONARY
  5
231
330
2F
100
AcDbDictionary
280
     1
281
     1
  3
ACAD_XREC_ROUNDTRIP
360
232
  0
DICTIONARY
  5
235
330
31
100
AcDbDictionary
280
     1
281
     1
  3
ACAD_XREC_ROUNDTRIP
360
236
  0
DICTIONARY
  5
233
330
30
100
AcDbDictionary
280
     1
281
     1
  3
ACAD_XREC_ROUNDTRIP
360
234
  0
DICTIONARY
  5
237
330
32
100
AcDbDictionary
280
     1
281
     1
  3
ACAD_XREC_ROUNDTRIP
360
238
  0
DICTIONARY
  5
23F
330
36
100
AcDbDictionary
280
     1
281
     1
  3
ACAD_XREC_ROUNDTRIP
360
240
  0
DICTIONARY
  5
247
330
3A
100
AcDbDictionary
280
     1
281
     1
  3
ACAD_XREC_ROUNDTRIP
360
248
  0
DICTIONARY
  5
23B
330
34
100
AcDbDictionary
280
     1
281
     1
  3
ACAD_XREC_ROUNDTRIP
360
23C
  0
DICTIONARY
  5
23D
330
35
100
AcDbDictionary
280
     1
281
     1
  3
ACAD_XREC_ROUNDTRIP
360
23E
  0
DICTIONARY
  5
245
330
39
100
AcDbDictionary
280
     1
281
     1
  3
ACAD_XREC_ROUNDTRIP
360
246
  0
DICTIONARY
  5
229
330
2B
100
AcDbDictionary
280
     1
281
     1
  3
ACAD_XREC_ROUNDTRIP
360
22A
  0
DICTIONARY
  5
22B
330
2C
100
AcDbDictionary
280
     1
281
     1
  3
ACAD_XREC_ROUNDTRIP
360
22C
  0
DICTIONARY
  5
22D
330
2D
100
AcDbDictionary
280
     1
281
     1
  3
ACAD_XREC_ROUNDTRIP
360
22E
  0
DICTIONARY
  5
22F
330
2E
100
AcDbDictionary
280
     1
281
     1
  3
ACAD_XREC_ROUNDTRIP
360
230
  0
DICTIONARY
  5
243
330
38
100
AcDbDictionary
280
     1
281
     1
  3
ACAD_XREC_ROUNDTRIP
360
244
  0
DICTIONARY
  5
239
330
33
100
AcDbDictionary
280
     1
281
     1
  3
ACAD_XREC_ROUNDTRIP
360
23A
  0
DICTIONARY
  5
241
330
37
100
AcDbDictionary
280
     1
281
     1
  3
ACAD_XREC_ROUNDTRIP
360
242
  0
XRECORD
  5
24C
102
{ACAD_REACTORS
330
24B
102
}
330
24B
100
AcDbXrecord
280
     1
102
MATERIAL
148
0.0
149
0.0
149
0.0
 93
        0
 94
      127
282
     0
 72
     1
 77
     1
171
     1
175
     1
179
     1
273
     0
  0
XRECORD
  5
24A
102
{ACAD_REACTORS
330
249
102
}
330
249
100
AcDbXrecord
280
     1
102
MATERIAL
148
0.0
149
0.0
149
0.0
 93
        0
 94
      127
282
     0
 72
     1
 77
     1
171
     1
175
     1
179
     1
273
     0
  0
XRECORD
  5
24E
102
{ACAD_REACTORS
330
24D
102
}
330
24D
100
AcDbXrecord
280
     1
102
MATERIAL
148
0.0
149
0.0
149
0.0
 93
        0
 94
      127
282
     0
 72
     1
 77
     1
171
     1
175
     1
179
     1
273
     0
  0
XRECORD
  5
232
102
{ACAD_REACTORS
330
231
102
}
330
231
100
AcDbXrecord
280
     1
102
RTVSPropertyOp0
 70
     1
102
RTVSPropertyOp1
 70
     1
102
RTVSPropertyOp2
 70
     1
102
RTVSPropertyOp3
 70
     1
102
RTVSPropertyOp4
 70
     1
102
RTVSPropertyOp5
 70
     1
102
RTVSPropertyOp6
 70
     1
102
RTVSPropertyOp7
 70
     1
102
RTVSPropertyOp8
 70
     1
102
RTVSPropertyOp9
 70
     1
102
RTVSPropertyOp10
 70
     1
102
RTVSPropertyOp11
 70
     1
102
RTVSPropertyOp12
 70
     1
102
RTVSPropertyOp13
 70
     1
102
RTVSPropertyOp14
 70
     1
102
RTVSPropertyOp15
 70
     1
102
RTVSPropertyOp16
 70
     1
102
RTVSPropertyOp17
 70
     1
102
RTVSPropertyOp18
 70
     1
102
RTVSPropertyOp19
 70
     1
102
RTVSPropertyOp20
 70
     1
102
RTVSPropertyOp21
 70
     1
102
RTVSPropertyOp22
 70
     1
102
RTVSPropertyOp23
 70
     1
102
RTVSPropertyOp24
 70
     1
102
RTVSPropertyOp25
 70
     1
102
RTVSPropertyOp26
 70
     1
102
RTVSPropertyOp27
 70
     1
102
RTVSPropertyOp28
 70
     1
102
RTVSPropertyOp29
 70
     1
102
RTVSPropertyOp30
 70
     1
102
RTVSPropertyOp31
 70
     1
102
RTVSPropertyOp32
 70
     1
  0
XRECORD
  5
236
102
{ACAD_REACTORS
330
235
102
}
330
235
100
AcDbXrecord
280
     1
102
RTVSPropertyOp0
 70
     1
102
RTVSPropertyOp1
 70
     1
102
RTVSPropertyOp2
 70
     1
102
RTVSPropertyOp3
 70
     1
102
RTVSPropertyOp4
 70
     1
102
RTVSPropertyOp5
 70
     1
102
RTVSPropertyOp6
 70
     1
102
RTVSPropertyOp7
 70
     1
102
RTVSPropertyOp8
 70
     1
102
RTVSPropertyOp9
 70
     1
102
RTVSPropertyOp10
 70
     1
102
RTVSPropertyOp11
 70
     1
102
RTVSPropertyOp12
 70
     1
102
RTVSPropertyOp13
 70
     1
102
RTVSPropertyOp14
 70
     1
102
RTVSPropertyOp15
 70
     1
102
RTVSPropertyOp16
 70
     1
102
RTVSPropertyOp17
 70
     1
102
RTVSPropertyOp18
 70
     1
102
RTVSPropertyOp19
 70
     1
102
RTVSPropertyOp20
 70
     1
102
RTVSPropertyOp21
 70
     1
102
RTVSPropertyOp22
 70
     1
102
RTVSPropertyOp23
 70
     1
102
RTVSPropertyOp24
 70
     1
102
RTVSPropertyOp25
 70
     1
102
RTVSPropertyOp26
 70
     1
102
RTVSPropertyOp27
 70
     1
102
RTVSPropertyOp28
 70
     1
102
RTVSPropertyOp29
 70
     1
102
RTVSPropertyOp30
 70
     1
102
RTVSPropertyOp31
 70
     1
102
RTVSPropertyOp32
 70
     1
  0
XRECORD
  5
234
102
{ACAD_REACTORS
330
233
102
}
330
233
100
AcDbXrecord
280
     1
102
RTVSPropertyOp0
 70
     1
102
RTVSPropertyOp1
 70
     1
102
RTVSPropertyOp2
 70
     1
102
RTVSPropertyOp3
 70
     1
102
RTVSPropertyOp4
 70
     1
102
RTVSPropertyOp5
 70
     1
102
RTVSPropertyOp6
 70
     1
102
RTVSPropertyOp7
 70
     1
102
RTVSPropertyOp8
 70
     1
102
RTVSPropertyOp9
 70
     1
102
RTVSPropertyOp10
 70
     1
102
RTVSPropertyOp11
 70
     1
102
RTVSPropertyOp12
 70
     1
102
RTVSPropertyOp13
 70
     1
102
RTVSPropertyOp14
 70
     1
102
RTVSPropertyOp15
 70
     1
102
RTVSPropertyOp16
 70
     1
102
RTVSPropertyOp17
 70
     1
102
RTVSPropertyOp18
 70
     1
102
RTVSPropertyOp19
 70
     1
102
RTVSPropertyOp20
 70
     1
102
RTVSPropertyOp21
 70
     1
102
RTVSPropertyOp22
 70
     1
102
RTVSPropertyOp23
 70
     1
102
RTVSPropertyOp24
 70
     1
102
RTVSPropertyOp25
 70
     1
102
RTVSPropertyOp26
 70
     1
102
RTVSPropertyOp27
 70
     1
102
RTVSPropertyOp28
 70
     1
102
RTVSPropertyOp29
 70
     1
102
RTVSPropertyOp30
 70
     1
102
RTVSPropertyOp31
 70
     1
102
RTVSPropertyOp32
 70
     1
  0
XRECORD
  5
238
102
{ACAD_REACTORS
330
237
102
}
330
237
100
AcDbXrecord
280
     1
102
RTVSPropertyOp0
 70
     1
102
RTVSPropertyOp1
 70
     1
102
RTVSPropertyOp2
 70
     1
102
RTVSPropertyOp3
 70
     1
102
RTVSPropertyOp4
 70
     1
102
RTVSPropertyOp5
 70
     1
102
RTVSPropertyOp6
 70
     1
102
RTVSPropertyOp7
 70
     1
102
RTVSPropertyOp8
 70
     1
102
RTVSPropertyOp9
 70
     1
102
RTVSPropertyOp10
 70
     1
102
RTVSPropertyOp11
 70
     1
102
RTVSPropertyOp12
 70
     1
102
RTVSPropertyOp13
 70
     1
102
RTVSPropertyOp14
 70
     1
102
RTVSPropertyOp15
 70
     1
102
RTVSPropertyOp16
 70
     1
102
RTVSPropertyOp17
 70
     1
102
RTVSPropertyOp18
 70
     1
102
RTVSPropertyOp19
 70
     1
102
RTVSPropertyOp20
 70
     1
102
RTVSPropertyOp21
 70
     1
102
RTVSPropertyOp22
 70
     1
102
RTVSPropertyOp23
 70
     1
102
RTVSPropertyOp24
 70
     1
102
RTVSPropertyOp25
 70
     1
102
RTVSPropertyOp26
 70
     1
102
RTVSPropertyOp27
 70
     1
102
RTVSPropertyOp28
 70
     1
102
RTVSPropertyOp29
 70
     1
102
RTVSPropertyOp30
 70
     1
102
RTVSPropertyOp31
 70
     1
102
RTVSPropertyOp32
 70
     1
  0
XRECORD
  5
240
102
{ACAD_REACTORS
330
23F
102
}
330
23F
100
AcDbXrecord
280
     1
102
RTVSPropertyOp0
 70
     1
102
RTVSPropertyOp1
 70
     1
102
RTVSPropertyOp2
 70
     1
102
RTVSPropertyOp3
 70
     1
102
RTVSPropertyOp4
 70
     1
102
RTVSPropertyOp5
 70
     1
102
RTVSPropertyOp6
 70
     1
102
RTVSPropertyOp7
 70
     1
102
RTVSPropertyOp8
 70
     1
102
RTVSPropertyOp9
 70
     1
102
RTVSPropertyOp10
 70
     1
102
RTVSPropertyOp11
 70
     1
102
RTVSPropertyOp12
 70
     1
102
RTVSPropertyOp13
 70
     1
102
RTVSPropertyOp14
 70
     1
102
RTVSPropertyOp15
 70
     1
102
RTVSPropertyOp16
 70
     1
102
RTVSPropertyOp17
 70
     1
102
RTVSPropertyOp18
 70
     1
102
RTVSPropertyOp19
 70
     1
102
RTVSPropertyOp20
 70
     1
102
RTVSPropertyOp21
 70
     1
102
RTVSPropertyOp22
 70
     1
102
RTVSPropertyOp23
 70
     1
102
RTVSPropertyOp24
 70
     1
102
RTVSPropertyOp25
 70
     1
102
RTVSPropertyOp26
 70
     1
102
RTVSPropertyOp27
 70
     1
102
RTVSPropertyOp28
 70
     1
102
RTVSPropertyOp29
 70
     1
102
RTVSPropertyOp30
 70
     1
102
RTVSPropertyOp31
 70
     1
102
RTVSPropertyOp32
 70
     1
  0
XRECORD
  5
248
102
{ACAD_REACTORS
330
247
102
}
330
247
100
AcDbXrecord
280
     1
102
RTVSPropertyOp0
 70
     1
102
RTVSPropertyOp1
 70
     1
102
RTVSPropertyOp2
 70
     1
102
RTVSPropertyOp3
 70
     1
102
RTVSPropertyOp4
 70
     1
102
RTVSPropertyOp5
 70
     1
102
RTVSPropertyOp6
 70
     1
102
RTVSPropertyOp7
 70
     1
102
RTVSPropertyOp8
 70
     1
102
RTVSPropertyOp9
 70
     1
102
RTVSPropertyOp10
 70
     1
102
RTVSPropertyOp11
 70
     1
102
RTVSPropertyOp12
 70
     1
102
RTVSPropertyOp13
 70
     1
102
RTVSPropertyOp14
 70
     1
102
RTVSPropertyOp15
 70
     1
102
RTVSPropertyOp16
 70
     1
102
RTVSPropertyOp17
 70
     1
102
RTVSPropertyOp18
 70
     1
102
RTVSPropertyOp19
 70
     1
102
RTVSPropertyOp20
 70
     1
102
RTVSPropertyOp21
 70
     1
102
RTVSPropertyOp22
 70
     1
102
RTVSPropertyOp23
 70
     1
102
RTVSPropertyOp24
 70
     1
102
RTVSPropertyOp25
 70
     1
102
RTVSPropertyOp26
 70
     1
102
RTVSPropertyOp27
 70
     1
102
RTVSPropertyOp28
 70
     1
102
RTVSPropertyOp29
 70
     1
102
RTVSPropertyOp30
 70
     1
102
RTVSPropertyOp31
 70
     1
102
RTVSPropertyOp32
 70
     1
  0
XRECORD
  5
23C
102
{ACAD_REACTORS
330
23B
102
}
330
23B
100
AcDbXrecord
280
     1
102
RTVSPropertyOp0
 70
     1
102
RTVSPropertyOp1
 70
     1
102
RTVSPropertyOp2
 70
     1
102
RTVSPropertyOp3
 70
     1
102
RTVSPropertyOp4
 70
     1
102
RTVSPropertyOp5
 70
     1
102
RTVSPropertyOp6
 70
     1
102
RTVSPropertyOp7
 70
     1
102
RTVSPropertyOp8
 70
     1
102
RTVSPropertyOp9
 70
     1
102
RTVSPropertyOp10
 70
     1
102
RTVSPropertyOp11
 70
     1
102
RTVSPropertyOp12
 70
     1
102
RTVSPropertyOp13
 70
     1
102
RTVSPropertyOp14
 70
     1
102
RTVSPropertyOp15
 70
     1
102
RTVSPropertyOp16
 70
     1
102
RTVSPropertyOp17
 70
     1
102
RTVSPropertyOp18
 70
     1
102
RTVSPropertyOp19
 70
     1
102
RTVSPropertyOp20
 70
     1
102
RTVSPropertyOp21
 70
     1
102
RTVSPropertyOp22
 70
     1
102
RTVSPropertyOp23
 70
     1
102
RTVSPropertyOp24
 70
     1
102
RTVSPropertyOp25
 70
     1
102
RTVSPropertyOp26
 70
     1
102
RTVSPropertyOp27
 70
     1
102
RTVSPropertyOp28
 70
     1
102
RTVSPropertyOp29
 70
     1
102
RTVSPropertyOp30
 70
     1
102
RTVSPropertyOp31
 70
     1
102
RTVSPropertyOp32
 70
     1
  0
XRECORD
  5
23E
102
{ACAD_REACTORS
330
23D
102
}
330
23D
100
AcDbXrecord
280
     1
102
RTVSPropertyOp0
 70
     1
102
RTVSPropertyOp1
 70
     1
102
RTVSPropertyOp2
 70
     1
102
RTVSPropertyOp3
 70
     1
102
RTVSPropertyOp4
 70
     1
102
RTVSPropertyOp5
 70
     1
102
RTVSPropertyOp6
 70
     1
102
RTVSPropertyOp7
 70
     1
102
RTVSPropertyOp8
 70
     1
102
RTVSPropertyOp9
 70
     1
102
RTVSPropertyOp10
 70
     1
102
RTVSPropertyOp11
 70
     1
102
RTVSPropertyOp12
 70
     1
102
RTVSPropertyOp13
 70
     1
102
RTVSPropertyOp14
 70
     1
102
RTVSPropertyOp15
 70
     1
102
RTVSPropertyOp16
 70
     1
102
RTVSPropertyOp17
 70
     1
102
RTVSPropertyOp18
 70
     1
102
RTVSPropertyOp19
 70
     1
102
RTVSPropertyOp20
 70
     1
102
RTVSPropertyOp21
 70
     1
102
RTVSPropertyOp22
 70
     1
102
RTVSPropertyOp23
 70
     1
102
RTVSPropertyOp24
 70
     1
102
RTVSPropertyOp25
 70
     1
102
RTVSPropertyOp26
 70
     1
102
RTVSPropertyOp27
 70
     1
102
RTVSPropertyOp28
 70
     1
102
RTVSPropertyOp29
 70
     1
102
RTVSPropertyOp30
 70
     1
102
RTVSPropertyOp31
 70
     1
102
RTVSPropertyOp32
 70
     1
  0
XRECORD
  5
246
102
{ACAD_REACTORS
330
245
102
}
330
245
100
AcDbXrecord
280
     1
102
RTVSPropertyOp0
 70
     1
102
RTVSPropertyOp1
 70
     1
102
RTVSPropertyOp2
 70
     1
102
RTVSPropertyOp3
 70
     1
102
RTVSPropertyOp4
 70
     1
102
RTVSPropertyOp5
 70
     1
102
RTVSPropertyOp6
 70
     1
102
RTVSPropertyOp7
 70
     1
102
RTVSPropertyOp8
 70
     1
102
RTVSPropertyOp9
 70
     1
102
RTVSPropertyOp10
 70
     1
102
RTVSPropertyOp11
 70
     1
102
RTVSPropertyOp12
 70
     1
102
RTVSPropertyOp13
 70
     1
102
RTVSPropertyOp14
 70
     1
102
RTVSPropertyOp15
 70
     1
102
RTVSPropertyOp16
 70
     1
102
RTVSPropertyOp17
 70
     1
102
RTVSPropertyOp18
 70
     1
102
RTVSPropertyOp19
 70
     1
102
RTVSPropertyOp20
 70
     1
102
RTVSPropertyOp21
 70
     1
102
RTVSPropertyOp22
 70
     1
102
RTVSPropertyOp23
 70
     1
102
RTVSPropertyOp24
 70
     1
102
RTVSPropertyOp25
 70
     1
102
RTVSPropertyOp26
 70
     1
102
RTVSPropertyOp27
 70
     1
102
RTVSPropertyOp28
 70
     1
102
RTVSPropertyOp29
 70
     1
102
RTVSPropertyOp30
 70
     1
102
RTVSPropertyOp31
 70
     1
102
RTVSPropertyOp32
 70
     1
  0
XRECORD
  5
22A
102
{ACAD_REACTORS
330
229
102
}
330
229
100
AcDbXrecord
280
     1
102
RTVSPropertyOp0
 70
     1
102
RTVSPropertyOp1
 70
     1
102
RTVSPropertyOp2
 70
     1
102
RTVSPropertyOp3
 70
     1
102
RTVSPropertyOp4
 70
     1
102
RTVSPropertyOp5
 70
     1
102
RTVSPropertyOp6
 70
     1
102
RTVSPropertyOp7
 70
     1
102
RTVSPropertyOp8
 70
     1
102
RTVSPropertyOp9
 70
     1
102
RTVSPropertyOp10
 70
     1
102
RTVSPropertyOp11
 70
     1
102
RTVSPropertyOp12
 70
     1
102
RTVSPropertyOp13
 70
     1
102
RTVSPropertyOp14
 70
     1
102
RTVSPropertyOp15
 70
     1
102
RTVSPropertyOp16
 70
     1
102
RTVSPropertyOp17
 70
     1
102
RTVSPropertyOp18
 70
     1
102
RTVSPropertyOp19
 70
     1
102
RTVSPropertyOp20
 70
     1
102
RTVSPropertyOp21
 70
     1
102
RTVSPropertyOp22
 70
     1
102
RTVSPropertyOp23
 70
     1
102
RTVSPropertyOp24
 70
     1
102
RTVSPropertyOp25
 70
     1
102
RTVSPropertyOp26
 70
     1
102
RTVSPropertyOp27
 70
     1
102
RTVSPropertyOp28
 70
     1
102
RTVSPropertyOp29
 70
     1
102
RTVSPropertyOp30
 70
     1
102
RTVSPropertyOp31
 70
     1
102
RTVSPropertyOp32
 70
     1
  0
XRECORD
  5
22C
102
{ACAD_REACTORS
330
22B
102
}
330
22B
100
AcDbXrecord
280
     1
102
RTVSPropertyOp0
 70
     1
102
RTVSPropertyOp1
 70
     1
102
RTVSPropertyOp2
 70
     1
102
RTVSPropertyOp3
 70
     1
102
RTVSPropertyOp4
 70
     1
102
RTVSPropertyOp5
 70
     1
102
RTVSPropertyOp6
 70
     1
102
RTVSPropertyOp7
 70
     1
102
RTVSPropertyOp8
 70
     1
102
RTVSPropertyOp9
 70
     1
102
RTVSPropertyOp10
 70
     1
102
RTVSPropertyOp11
 70
     1
102
RTVSPropertyOp12
 70
     1
102
RTVSPropertyOp13
 70
     1
102
RTVSPropertyOp14
 70
     1
102
RTVSPropertyOp15
 70
     1
102
RTVSPropertyOp16
 70
     1
102
RTVSPropertyOp17
 70
     1
102
RTVSPropertyOp18
 70
     1
102
RTVSPropertyOp19
 70
     1
102
RTVSPropertyOp20
 70
     1
102
RTVSPropertyOp21
 70
     1
102
RTVSPropertyOp22
 70
     1
102
RTVSPropertyOp23
 70
     1
102
RTVSPropertyOp24
 70
     1
102
RTVSPropertyOp25
 70
     1
102
RTVSPropertyOp26
 70
     1
102
RTVSPropertyOp27
 70
     1
102
RTVSPropertyOp28
 70
     1
102
RTVSPropertyOp29
 70
     1
102
RTVSPropertyOp30
 70
     1
102
RTVSPropertyOp31
 70
     1
102
RTVSPropertyOp32
 70
     1
  0
XRECORD
  5
22E
102
{ACAD_REACTORS
330
22D
102
}
330
22D
100
AcDbXrecord
280
     1
102
RTVSPropertyOp0
 70
     1
102
RTVSPropertyOp1
 70
     1
102
RTVSPropertyOp2
 70
     1
102
RTVSPropertyOp3
 70
     1
102
RTVSPropertyOp4
 70
     1
102
RTVSPropertyOp5
 70
     1
102
RTVSPropertyOp6
 70
     1
102
RTVSPropertyOp7
 70
     1
102
RTVSPropertyOp8
 70
     1
102
RTVSPropertyOp9
 70
     1
102
RTVSPropertyOp10
 70
     1
102
RTVSPropertyOp11
 70
     1
102
RTVSPropertyOp12
 70
     1
102
RTVSPropertyOp13
 70
     1
102
RTVSPropertyOp14
 70
     1
102
RTVSPropertyOp15
 70
     1
102
RTVSPropertyOp16
 70
     1
102
RTVSPropertyOp17
 70
     1
102
RTVSPropertyOp18
 70
     1
102
RTVSPropertyOp19
 70
     1
102
RTVSPropertyOp20
 70
     1
102
RTVSPropertyOp21
 70
     1
102
RTVSPropertyOp22
 70
     1
102
RTVSPropertyOp23
 70
     1
102
RTVSPropertyOp24
 70
     1
102
RTVSPropertyOp25
 70
     1
102
RTVSPropertyOp26
 70
     1
102
RTVSPropertyOp27
 70
     1
102
RTVSPropertyOp28
 70
     1
102
RTVSPropertyOp29
 70
     1
102
RTVSPropertyOp30
 70
     1
102
RTVSPropertyOp31
 70
     1
102
RTVSPropertyOp32
 70
     1
  0
XRECORD
  5
230
102
{ACAD_REACTORS
330
22F
102
}
330
22F
100
AcDbXrecord
280
     1
102
RTVSPropertyOp0
 70
     1
102
RTVSPropertyOp1
 70
     1
102
RTVSPropertyOp2
 70
     1
102
RTVSPropertyOp3
 70
     1
102
RTVSPropertyOp4
 70
     1
102
RTVSPropertyOp5
 70
     1
102
RTVSPropertyOp6
 70
     1
102
RTVSPropertyOp7
 70
     1
102
RTVSPropertyOp8
 70
     1
102
RTVSPropertyOp9
 70
     1
102
RTVSPropertyOp10
 70
     1
102
RTVSPropertyOp11
 70
     1
102
RTVSPropertyOp12
 70
     1
102
RTVSPropertyOp13
 70
     1
102
RTVSPropertyOp14
 70
     1
102
RTVSPropertyOp15
 70
     1
102
RTVSPropertyOp16
 70
     1
102
RTVSPropertyOp17
 70
     1
102
RTVSPropertyOp18
 70
     1
102
RTVSPropertyOp19
 70
     1
102
RTVSPropertyOp20
 70
     1
102
RTVSPropertyOp21
 70
     1
102
RTVSPropertyOp22
 70
     1
102
RTVSPropertyOp23
 70
     1
102
RTVSPropertyOp24
 70
     1
102
RTVSPropertyOp25
 70
     1
102
RTVSPropertyOp26
 70
     1
102
RTVSPropertyOp27
 70
     1
102
RTVSPropertyOp28
 70
     1
102
RTVSPropertyOp29
 70
     1
102
RTVSPropertyOp30
 70
     1
102
RTVSPropertyOp31
 70
     1
102
RTVSPropertyOp32
 70
     1
  0
XRECORD
  5
244
102
{ACAD_REACTORS
330
243
102
}
330
243
100
AcDbXrecord
280
     1
102
RTVSPropertyOp0
 70
     1
102
RTVSPropertyOp1
 70
     1
102
RTVSPropertyOp2
 70
     1
102
RTVSPropertyOp3
 70
     1
102
RTVSPropertyOp4
 70
     1
102
RTVSPropertyOp5
 70
     1
102
RTVSPropertyOp6
 70
     1
102
RTVSPropertyOp7
 70
     1
102
RTVSPropertyOp8
 70
     1
102
RTVSPropertyOp9
 70
     1
102
RTVSPropertyOp10
 70
     1
102
RTVSPropertyOp11
 70
     1
102
RTVSPropertyOp12
 70
     1
102
RTVSPropertyOp13
 70
     1
102
RTVSPropertyOp14
 70
     1
102
RTVSPropertyOp15
 70
     1
102
RTVSPropertyOp16
 70
     1
102
RTVSPropertyOp17
 70
     1
102
RTVSPropertyOp18
 70
     1
102
RTVSPropertyOp19
 70
     1
102
RTVSPropertyOp20
 70
     1
102
RTVSPropertyOp21
 70
     1
102
RTVSPropertyOp22
 70
     1
102
RTVSPropertyOp23
 70
     1
102
RTVSPropertyOp24
 70
     1
102
RTVSPropertyOp25
 70
     1
102
RTVSPropertyOp26
 70
     1
102
RTVSPropertyOp27
 70
     1
102
RTVSPropertyOp28
 70
     1
102
RTVSPropertyOp29
 70
     1
102
RTVSPropertyOp30
 70
     1
102
RTVSPropertyOp31
 70
     1
102
RTVSPropertyOp32
 70
     1
  0
XRECORD
  5
23A
102
{ACAD_REACTORS
330
239
102
}
330
239
100
AcDbXrecord
280
     1
102
RTVSPropertyOp0
 70
     1
102
RTVSPropertyOp1
 70
     1
102
RTVSPropertyOp2
 70
     1
102
RTVSPropertyOp3
 70
     1
102
RTVSPropertyOp4
 70
     1
102
RTVSPropertyOp5
 70
     1
102
RTVSPropertyOp6
 70
     1
102
RTVSPropertyOp7
 70
     1
102
RTVSPropertyOp8
 70
     1
102
RTVSPropertyOp9
 70
     1
102
RTVSPropertyOp10
 70
     1
102
RTVSPropertyOp11
 70
     1
102
RTVSPropertyOp12
 70
     1
102
RTVSPropertyOp13
 70
     1
102
RTVSPropertyOp14
 70
     1
102
RTVSPropertyOp15
 70
     1
102
RTVSPropertyOp16
 70
     1
102
RTVSPropertyOp17
 70
     1
102
RTVSPropertyOp18
 70
     1
102
RTVSPropertyOp19
 70
     1
102
RTVSPropertyOp20
 70
     1
102
RTVSPropertyOp21
 70
     1
102
RTVSPropertyOp22
 70
     1
102
RTVSPropertyOp23
 70
     1
102
RTVSPropertyOp24
 70
     1
102
RTVSPropertyOp25
 70
     1
102
RTVSPropertyOp26
 70
     1
102
RTVSPropertyOp27
 70
     1
102
RTVSPropertyOp28
 70
     1
102
RTVSPropertyOp29
 70
     1
102
RTVSPropertyOp30
 70
     1
102
RTVSPropertyOp31
 70
     1
102
RTVSPropertyOp32
 70
     1
  0
XRECORD
  5
242
102
{ACAD_REACTORS
330
241
102
}
330
241
100
AcDbXrecord
280
     1
102
RTVSPropertyOp0
 70
     1
102
RTVSPropertyOp1
 70
     1
102
RTVSPropertyOp2
 70
     1
102
RTVSPropertyOp3
 70
     1
102
RTVSPropertyOp4
 70
     1
102
RTVSPropertyOp5
 70
     1
102
RTVSPropertyOp6
 70
     1
102
RTVSPropertyOp7
 70
     1
102
RTVSPropertyOp8
 70
     1
102
RTVSPropertyOp9
 70
     1
102
RTVSPropertyOp10
 70
     1
102
RTVSPropertyOp11
 70
     1
102
RTVSPropertyOp12
 70
     1
102
RTVSPropertyOp13
 70
     1
102
RTVSPropertyOp14
 70
     1
102
RTVSPropertyOp15
 70
     1
102
RTVSPropertyOp16
 70
     1
102
RTVSPropertyOp17
 70
     1
102
RTVSPropertyOp18
 70
     1
102
RTVSPropertyOp19
 70
     1
102
RTVSPropertyOp20
 70
     1
102
RTVSPropertyOp21
 70
     1
102
RTVSPropertyOp22
 70
     1
102
RTVSPropertyOp23
 70
     1
102
RTVSPropertyOp24
 70
     1
102
RTVSPropertyOp25
 70
     1
102
RTVSPropertyOp26
 70
     1
102
RTVSPropertyOp27
 70
     1
102
RTVSPropertyOp28
 70
     1
102
RTVSPropertyOp29
 70
     1
102
RTVSPropertyOp30
 70
     1
102
RTVSPropertyOp31
 70
     1
102
RTVSPropertyOp32
 70
     1
  0
ENDSEC
  0
EOF
