  0
SECTION
  2
HEADER
  9
$ACADVER
  1
AC1018
  9
$ACADMAINTVER
 70
     0
  9
$DWGCODEPAGE
  3
ANSI_1252
  9
$INSBASE
 10
0.0
 20
0.0
 30
0.0
  9
$EXTMIN
 10
-83.50000000000153
 20
315.4452601746392
 30
0.0
  9
$EXTMAX
 10
213.4999999999965
 20
525.4452601746393
 30
0.0
  9
$LIMMIN
 10
0.0
 20
0.0
  9
$LIMMAX
 10
12.0
 20
9.0
  9
$ORTHOMODE
 70
     0
  9
$REGENMODE
 70
     1
  9
$FILLMODE
 70
     1
  9
$QTEXTMODE
 70
     0
  9
$MIRRTEXT
 70
     1
  9
$LTSCALE
 40
1.0
  9
$ATTMODE
 70
     1
  9
$TEXTSIZE
 40
0.2
  9
$TRACEWID
 40
0.05
  9
$TEXTSTYLE
  7
Standard
  9
$CLAYER
  8
0
  9
$CELTYPE
  6
ByLayer
  9
$CECOLOR
 62
   256
  9
$CELTSCALE
 40
1.0
  9
$DISPSILH
 70
     0
  9
$DIMSCALE
 40
1.0
  9
$DIMASZ
 40
0.18
  9
$DIMEXO
 40
0.0625
  9
$DIMDLI
 40
0.38
  9
$DIMRND
 40
0.0
  9
$DIMDLE
 40
0.0
  9
$DIMEXE
 40
0.18
  9
$DIMTP
 40
0.0
  9
$DIMTM
 40
0.0
  9
$DIMTXT
 40
0.18
  9
$DIMCEN
 40
0.09
  9
$DIMTSZ
 40
0.0
  9
$DIMTOL
 70
     0
  9
$DIMLIM
 70
     0
  9
$DIMTIH
 70
     1
  9
$DIMTOH
 70
     1
  9
$DIMSE1
 70
     0
  9
$DIMSE2
 70
     0
  9
$DIMTAD
 70
     0
  9
$DIMZIN
 70
     0
  9
$DIMBLK
  1

  9
$DIMASO
 70
     1
  9
$DIMSHO
 70
     1
  9
$DIMPOST
  1

  9
$DIMAPOST
  1

  9
$DIMALT
 70
     0
  9
$DIMALTD
 70
     2
  9
$DIMALTF
 40
25.4
  9
$DIMLFAC
 40
1.0
  9
$DIMTOFL
 70
     0
  9
$DIMTVP
 40
0.0
  9
$DIMTIX
 70
     0
  9
$DIMSOXD
 70
     0
  9
$DIMSAH
 70
     0
  9
$DIMBLK1
  1

  9
$DIMBLK2
  1

  9
$DIMSTYLE
  2
Standard
  9
$DIMCLRD
 70
     0
  9
$DIMCLRE
 70
     0
  9
$DIMCLRT
 70
     0
  9
$DIMTFAC
 40
1.0
  9
$DIMGAP
 40
0.09
  9
$DIMJUST
 70
     0
  9
$DIMSD1
 70
     0
  9
$DIMSD2
 70
     0
  9
$DIMTOLJ
 70
     1
  9
$DIMTZIN
 70
     0
  9
$DIMALTZ
 70
     0
  9
$DIMALTTZ
 70
     0
  9
$DIMUPT
 70
     0
  9
$DIMDEC
 70
     4
  9
$DIMTDEC
 70
     4
  9
$DIMALTU
 70
     2
  9
$DIMALTTD
 70
     2
  9
$DIMTXSTY
  7
Standard
  9
$DIMAUNIT
 70
     0
  9
$DIMADEC
 70
     0
  9
$DIMALTRND
 40
0.0
  9
$DIMAZIN
 70
     0
  9
$DIMDSEP
 70
    46
  9
$DIMATFIT
 70
     3
  9
$DIMFRAC
 70
     0
  9
$DIMLDRBLK
  1

  9
$DIMLUNIT
 70
     2
  9
$DIMLWD
 70
    -2
  9
$DIMLWE
 70
    -2
  9
$DIMTMOVE
 70
     0
  9
$LUNITS
 70
     2
  9
$LUPREC
 70
     4
  9
$SKETCHINC
 40
0.1
  9
$FILLETRAD
 40
0.5
  9
$AUNITS
 70
     0
  9
$AUPREC
 70
     0
  9
$MENU
  1
.
  9
$ELEVATION
 40
0.0
  9
$PELEVATION
 40
0.0
  9
$THICKNESS
 40
0.0
  9
$LIMCHECK
 70
     0
  9
$CHAMFERA
 40
0.5
  9
$CHAMFERB
 40
0.5
  9
$CHAMFERC
 40
1.0
  9
$CHAMFERD
 40
0.0
  9
$SKPOLY
 70
     0
  9
$TDCREATE
 40
2458102.627207072
  9
$TDUCREATE
 40
2458102.585540405
  9
$TDUPDATE
 40
2458102.627207616
  9
$TDUUPDATE
 40
2458102.585540949
  9
$TDINDWG
 40
0.0000000116
  9
$TDUSRTIMER
 40
0.0000000116
  9
$USRTIMER
 70
     1
  9
$ANGBASE
 50
0.0
  9
$ANGDIR
 70
     0
  9
$PDMODE
 70
     0
  9
$PDSIZE
 40
0.0
  9
$PLINEWID
 40
0.0
  9
$SPLFRAME
 70
     0
  9
$SPLINETYPE
 70
     6
  9
$SPLINESEGS
 70
     8
  9
$HANDSEED
  5
25F
  9
$SURFTAB1
 70
     6
  9
$SURFTAB2
 70
     6
  9
$SURFTYPE
 70
     6
  9
$SURFU
 70
     6
  9
$SURFV
 70
     6
  9
$UCSBASE
  2

  9
$UCSNAME
  2

  9
$UCSORG
 10
0.0
 20
0.0
 30
0.0
  9
$UCSXDIR
 10
1.0
 20
0.0
 30
0.0
  9
$UCSYDIR
 10
0.0
 20
1.0
 30
0.0
  9
$UCSORTHOREF
  2

  9
$UCSORTHOVIEW
 70
     0
  9
$UCSORGTOP
 10
0.0
 20
0.0
 30
0.0
  9
$UCSORGBOTTOM
 10
0.0
 20
0.0
 30
0.0
  9
$UCSORGLEFT
 10
0.0
 20
0.0
 30
0.0
  9
$UCSORGRIGHT
 10
0.0
 20
0.0
 30
0.0
  9
$UCSORGFRONT
 10
0.0
 20
0.0
 30
0.0
  9
$UCSORGBACK
 10
0.0
 20
0.0
 30
0.0
  9
$PUCSBASE
  2

  9
$PUCSNAME
  2

  9
$PUCSORG
 10
0.0
 20
0.0
 30
0.0
  9
$PUCSXDIR
 10
1.0
 20
0.0
 30
0.0
  9
$PUCSYDIR
 10
0.0
 20
1.0
 30
0.0
  9
$PUCSORTHOREF
  2

  9
$PUCSORTHOVIEW
 70
     0
  9
$PUCSORGTOP
 10
0.0
 20
0.0
 30
0.0
  9
$PUCSORGBOTTOM
 10
0.0
 20
0.0
 30
0.0
  9
$PUCSORGLEFT
 10
0.0
 20
0.0
 30
0.0
  9
$PUCSORGRIGHT
 10
0.0
 20
0.0
 30
0.0
  9
$PUCSORGFRONT
 10
0.0
 20
0.0
 30
0.0
  9
$PUCSORGBACK
 10
0.0
 20
0.0
 30
0.0
  9
$USERI1
 70
     0
  9
$USERI2
 70
     0
  9
$USERI3
 70
     0
  9
$USERI4
 70
     0
  9
$USERI5
 70
     0
  9
$USERR1
 40
18.1
  9
$USERR2
 40
0.0
  9
$USERR3
 40
0.0
  9
$USERR4
 40
0.0
  9
$USERR5
 40
0.0
  9
$WORLDVIEW
 70
     1
  9
$SHADEDGE
 70
     3
  9
$SHADEDIF
 70
    70
  9
$TILEMODE
 70
     1
  9
$MAXACTVP
 70
    64
  9
$PINSBASE
 10
0.0
 20
0.0
 30
0.0
  9
$PLIMCHECK
 70
     0
  9
$PEXTMIN
 10
1.00000000000000E+20
 20
1.00000000000000E+20
 30
1.00000000000000E+20
  9
$PEXTMAX
 10
-1.00000000000000E+20
 20
-1.00000000000000E+20
 30
-1.00000000000000E+20
  9
$PLIMMIN
 10
0.0
 20
0.0
  9
$PLIMMAX
 10
12.0
 20
9.0
  9
$UNITMODE
 70
     0
  9
$VISRETAIN
 70
     1
  9
$PLINEGEN
 70
     0
  9
$PSLTSCALE
 70
     1
  9
$TREEDEPTH
 70
  3020
  9
$CMLSTYLE
  2
Standard
  9
$CMLJUST
 70
     0
  9
$CMLSCALE
 40
1.0
  9
$PROXYGRAPHICS
 70
     1
  9
$MEASUREMENT
 70
     1
  9
$CELWEIGHT
370
    -1
  9
$ENDCAPS
280
     0
  9
$JOINSTYLE
280
     0
  9
$LWDISPLAY
290
     0
  9
$INSUNITS
 70
     4
  9
$HYPERLINKBASE
  1

  9
$STYLESHEET
  1

  9
$XEDIT
290
     1
  9
$CEPSNTYPE
380
     0
  9
$PSTYLEMODE
290
     1
  9
$FINGERPRINTGUID
  2
{C08D93D4-3D25-4230-B6E1-2248A00AD31D}
  9
$VERSIONGUID
  2
{FAEB1C32-E019-11D5-929B-00C0DF256EC4}
  9
$EXTNAMES
290
     1
  9
$PSVPSCALE
 40
0.0
  9
$OLESTARTUP
290
     0
  9
$SORTENTS
280
   127
  9
$INDEXCTL
280
     0
  9
$HIDETEXT
280
     1
  9
$XCLIPFRAME
290
     0
  9
$HALOGAP
280
     0
  9
$OBSCOLOR
 70
   257
  9
$OBSLTYPE
280
     0
  9
$INTERSECTIONDISPLAY
280
     0
  9
$INTERSECTIONCOLOR
 70
   257
  9
$DIMASSOC
280
     2
  9
$PROJECTNAME
  1

  0
ENDSEC
  0
SECTION
  2
CLASSES
  0
CLASS
  1
ACDBDICTIONARYWDFLT
  2
AcDbDictionaryWithDefault
  3
ObjectDBX Classes
 90
        0
 91
        4
280
     0
281
     0
  0
CLASS
  1
VISUALSTYLE
  2
AcDbVisualStyle
  3
ObjectDBX Classes
 90
     4095
 91
        4
280
     0
281
     0
  0
CLASS
  1
MATERIAL
  2
AcDbMaterial
  3
ObjectDBX Classes
 90
     1153
 91
        4
280
     0
281
     0
  0
ENDSEC
  0
SECTION
  2
TABLES
  0
TABLE
  2
VPORT
  5
8
330
0
100
AcDbSymbolTable
 70
     1
  0
VPORT
  5
29
330
8
100
AcDbSymbolTableRecord
100
AcDbViewportTableRecord
  2
*Active
 70
     0
 10
0.0
 20
0.0
 11
1.0
 21
1.0
 12
64.99999999999748
 22
420.4452601746393
 13
0.0
 23
0.0
 14
0.5
 24
0.5
 15
0.5
 25
0.5
 16
0.0
 26
0.0
 36
1.0
 17
0.0
 27
0.0
 37
0.0
 40
231.0000000000001
 41
1.60267857142857
 42
50.0
 43
0.0
 44
0.0
 50
0.0
 51
0.0
 71
     0
 72
   100
 73
     1
 74
     3
 75
     0
 76
     0
 77
     0
 78
     0
281
     0
 65
     1
110
0.0
120
0.0
130
0.0
111
1.0
121
0.0
131
0.0
112
0.0
122
1.0
132
0.0
 79
     0
146
0.0
  0
ENDTAB
  0
TABLE
  2
LTYPE
  5
5
330
0
100
AcDbSymbolTable
 70
     8
  0
LTYPE
  5
14
330
5
100
AcDbSymbolTableRecord
100
AcDbLinetypeTableRecord
  2
ByBlock
 70
     0
  3

 72
    65
 73
     0
 40
0.0
  0
LTYPE
  5
15
330
5
100
AcDbSymbolTableRecord
100
AcDbLinetypeTableRecord
  2
ByLayer
 70
     0
  3

 72
    65
 73
     0
 40
0.0
  0
LTYPE
  5
16
330
5
100
AcDbSymbolTableRecord
100
AcDbLinetypeTableRecord
  2
Continuous
 70
     0
  3
Solid line
 72
    65
 73
     0
 40
0.0
  0
LTYPE
  5
3F
330
5
100
AcDbSymbolTableRecord
100
AcDbLinetypeTableRecord
  2
DASHED
 70
     0
  3
Dashed
 72
    65
 73
     2
 40
15.0
 49
7.0
 74
     0
 49
-8.0
 74
     0
  0
LTYPE
  5
40
330
5
100
AcDbSymbolTableRecord
100
AcDbLinetypeTableRecord
  2
DOTTED
 70
     0
  3
Dotted
 72
    65
 73
     2
 40
1.0
 49
0.0
 74
     0
 49
-1.0
 74
     0
  0
LTYPE
  5
41
330
5
100
AcDbSymbolTableRecord
100
AcDbLinetypeTableRecord
  2
DOT_CENTER
 70
     0
  3
Dot_Center
 72
    65
 73
     4
 40
14.0
 49
12.0
 74
     0
 49
-1.0
 74
     0
 49
0.0
 74
     0
 49
-1.0
 74
     0
  0
LTYPE
  5
42
330
5
100
AcDbSymbolTableRecord
100
AcDbLinetypeTableRecord
  2
LONG_DASHED
 70
     0
  3
Long_Dashed
 72
    65
 73
     2
 40
15.0
 49
10.0
 74
     0
 49
-5.0
 74
     0
  0
LTYPE
  5
43
330
5
100
AcDbSymbolTableRecord
100
AcDbLinetypeTableRecord
  2
DASH_CENTER
 70
     0
  3
Dash_Center
 72
    65
 73
     4
 40
14.0
 49
11.0
 74
     0
 49
-1.0
 74
     0
 49
1.0
 74
     0
 49
-1.0
 74
     0
  0
LTYPE
  5
44
330
5
100
AcDbSymbolTableRecord
100
AcDbLinetypeTableRecord
  2
PHANTOM
 70
     0
  3
Phantom
 72
    65
 73
     6
 40
13.0
 49
10.0
 74
     0
 49
-1.0
 74
     0
 49
0.0
 74
     0
 49
-1.0
 74
     0
 49
0.0
 74
     0
 49
-1.0
 74
     0
  0
LTYPE
  5
45
330
5
100
AcDbSymbolTableRecord
100
AcDbLinetypeTableRecord
  2
CENTER_DASH_DASH
 70
     0
  3
Center_Dash_Dash
 72
    65
 73
     6
 40
14.0
 49
9.0
 74
     0
 49
-1.0
 74
     0
 49
1.0
 74
     0
 49
-1.0
 74
     0
 49
1.0
 74
     0
 49
-1.0
 74
     0
  0
ENDTAB
  0
TABLE
  2
LAYER
  5
2
330
0
100
AcDbSymbolTable
 70
     2
  0
LAYER
  5
10
330
2
100
AcDbSymbolTableRecord
100
AcDbLayerTableRecord
  2
0
 70
     0
 62
     7
  6
Continuous
370
    -3
390
F
  0
LAYER
  5
46
330
2
100
AcDbSymbolTableRecord
100
AcDbLayerTableRecord
  2
1
 70
     0
 62
     7
  6
Continuous
370
    -3
390
F
  0
ENDTAB
  0
TABLE
  2
STYLE
  5
3
330
0
100
AcDbSymbolTable
 70
     5
  0
STYLE
  5
11
330
3
100
AcDbSymbolTableRecord
100
AcDbTextStyleTableRecord
  2
Standard
 70
     0
 40
0.0
 41
1.0
 50
0.0
 71
     0
 42
0.2
  3
txt
  4

  0
STYLE
  5
9C
330
3
100
AcDbSymbolTableRecord
100
AcDbTextStyleTableRecord
  2
CONVERTER_11
 70
     0
 40
0.0
 41
0.9
 50
0.0
 71
     0
 42
0.2
  3
txt.shx
  4

  0
STYLE
  5
1F5
330
3
100
AcDbSymbolTableRecord
100
AcDbTextStyleTableRecord
  2
CONVERTER_12
 70
     0
 40
0.0
 41
0.81
 50
0.0
 71
     0
 42
0.2
  3
txt.shx
  4

  0
STYLE
  5
1FB
330
3
100
AcDbSymbolTableRecord
100
AcDbTextStyleTableRecord
  2
CONVERTER_13
 70
     0
 40
0.0
 41
0.855
 50
0.0
 71
     0
 42
0.2
  3
txt.shx
  4

  0
STYLE
  5
1FE
330
3
100
AcDbSymbolTableRecord
100
AcDbTextStyleTableRecord
  2
CONVERTER_14
 70
     0
 40
0.0
 41
0.72
 50
0.0
 71
     0
 42
0.2
  3
txt.shx
  4

  0
ENDTAB
  0
TABLE
  2
VIEW
  5
6
330
0
100
AcDbSymbolTable
 70
     0
  0
ENDTAB
  0
TABLE
  2
UCS
  5
7
330
0
100
AcDbSymbolTable
 70
     0
  0
ENDTAB
  0
TABLE
  2
APPID
  5
9
330
0
100
AcDbSymbolTable
 70
     1
  0
APPID
  5
12
330
9
100
AcDbSymbolTableRecord
100
AcDbRegAppTableRecord
  2
ACAD
 70
     0
  0
ENDTAB
  0
TABLE
  2
DIMSTYLE
  5
A
330
0
100
AcDbSymbolTable
 70
     4
100
AcDbDimStyleTable
  0
DIMSTYLE
105
27
330
A
100
AcDbSymbolTableRecord
100
AcDbDimStyleTableRecord
  2
Standard
 70
     0
178
     0
340
11
  0
DIMSTYLE
105
B4
102
{ACAD_REACTORS
330
B5
102
}
330
A
100
AcDbSymbolTableRecord
100
AcDbDimStyleTableRecord
  2
ME10_DIM_10
 70
     0
 41
3.5
 42
0.0
 44
1.5
 73
     0
 74
     0
 77
     1
 78
     8
140
3.5
147
1.5
172
     1
173
     1
174
     1
175
     1
176
     2
177
     2
178
     3
340
9C
  0
DIMSTYLE
105
F1
102
{ACAD_REACTORS
330
F2
102
}
330
A
100
AcDbSymbolTableRecord
100
AcDbDimStyleTableRecord
  2
ME10_DIM_11
 70
     0
 41
3.5
 42
0.0
 44
1.5
 73
     0
 74
     0
 77
     1
 78
     8
140
3.5
147
1.5
172
     1
173
     1
174
     1
175
     1
176
     2
177
     2
178
     3
340
9C
  0
DIMSTYLE
105
FC
102
{ACAD_REACTORS
330
FD
102
}
330
A
100
AcDbSymbolTableRecord
100
AcDbDimStyleTableRecord
  2
ME10_DIM_12
 70
     0
 41
3.5
 42
0.0
 44
2.0
 73
     0
 74
     0
 77
     1
 78
     8
140
3.5
147
2.0
172
     1
173
     1
174
     1
175
     1
176
     2
177
     2
178
     3
340
9C
  0
ENDTAB
  0
TABLE
  2
BLOCK_RECORD
  5
1
330
0
100
AcDbSymbolTable
 70
    20
  0
BLOCK_RECORD
  5
1F
330
1
100
AcDbSymbolTableRecord
100
AcDbBlockTableRecord
  2
*Model_Space
340
22
  0
BLOCK_RECORD
  5
1B
330
1
100
AcDbSymbolTableRecord
100
AcDbBlockTableRecord
  2
*Paper_Space
340
1E
  0
BLOCK_RECORD
  5
23
330
1
100
AcDbSymbolTableRecord
100
AcDbBlockTableRecord
  2
*Paper_Space0
340
26
  0
BLOCK_RECORD
  5
47
330
1
100
AcDbSymbolTableRecord
100
AcDbBlockTableRecord
  2
D-OTTA_25-select__1
340
0
102
{BLKREFS
331
4B
102
}
  0
BLOCK_RECORD
  5
4A
330
1
100
AcDbSymbolTableRecord
100
AcDbBlockTableRecord
  2
AllgSicht1
340
0
102
{BLKREFS
331
7D
102
}
  0
BLOCK_RECORD
  5
4E
330
1
100
AcDbSymbolTableRecord
100
AcDbBlockTableRecord
  2
D-OTTA_25-select__2
340
0
102
{BLKREFS
331
52
102
}
  0
BLOCK_RECORD
  5
51
330
1
100
AcDbSymbolTableRecord
100
AcDbBlockTableRecord
  2
Drfsicht1
340
0
102
{BLKREFS
331
7E
102
}
  0
BLOCK_RECORD
  5
55
330
1
100
AcDbSymbolTableRecord
100
AcDbBlockTableRecord
  2
D-OTTA_25-select__3
340
0
102
{BLKREFS
331
59
102
}
  0
BLOCK_RECORD
  5
58
330
1
100
AcDbSymbolTableRecord
100
AcDbBlockTableRecord
  2
Rckans1
340
0
102
{BLKREFS
331
7F
102
}
  0
BLOCK_RECORD
  5
5C
330
1
100
AcDbSymbolTableRecord
100
AcDbBlockTableRecord
  2
D-OTTA_25-select__4
340
0
102
{BLKREFS
331
60
102
}
  0
BLOCK_RECORD
  5
5F
330
1
100
AcDbSymbolTableRecord
100
AcDbBlockTableRecord
  2
SA_Links1
340
0
102
{BLKREFS
331
80
102
}
  0
BLOCK_RECORD
  5
63
330
1
100
AcDbSymbolTableRecord
100
AcDbBlockTableRecord
  2
D-OTTA_25-select__5
340
0
102
{BLKREFS
331
67
102
}
  0
BLOCK_RECORD
  5
66
330
1
100
AcDbSymbolTableRecord
100
AcDbBlockTableRecord
  2
SA_Rechts1
340
0
102
{BLKREFS
331
81
102
}
  0
BLOCK_RECORD
  5
6A
330
1
100
AcDbSymbolTableRecord
100
AcDbBlockTableRecord
  2
D-OTTA_25-select__6
340
0
102
{BLKREFS
331
6E
102
}
  0
BLOCK_RECORD
  5
6D
330
1
100
AcDbSymbolTableRecord
100
AcDbBlockTableRecord
  2
Vordans1
340
0
102
{BLKREFS
331
82
102
}
  0
BLOCK_RECORD
  5
71
330
1
100
AcDbSymbolTableRecord
100
AcDbBlockTableRecord
  2
_rahmen
340
0
102
{BLKREFS
331
78
102
}
  0
BLOCK_RECORD
  5
74
330
1
100
AcDbSymbolTableRecord
100
AcDbBlockTableRecord
  2
_punkt
340
0
102
{BLKREFS
331
79
102
}
  0
BLOCK_RECORD
  5
77
330
1
100
AcDbSymbolTableRecord
100
AcDbBlockTableRecord
  2
A4I_CS
340
0
102
{BLKREFS
331
83
102
}
  0
BLOCK_RECORD
  5
7C
330
1
100
AcDbSymbolTableRecord
100
AcDbBlockTableRecord
  2
1
340
0
102
{BLKREFS
331
86
102
}
  0
BLOCK_RECORD
  5
A9
330
1
100
AcDbSymbolTableRecord
100
AcDbBlockTableRecord
  2
*D17
340
0
  0
BLOCK_RECORD
  5
E8
330
1
100
AcDbSymbolTableRecord
100
AcDbBlockTableRecord
  2
*D18
340
0
  0
BLOCK_RECORD
  5
F3
330
1
100
AcDbSymbolTableRecord
100
AcDbBlockTableRecord
  2
*D19
340
0
  0
ENDTAB
  0
ENDSEC
  0
SECTION
  2
BLOCKS
  0
BLOCK
  5
20
330
1F
100
AcDbEntity
  8
0
100
AcDbBlockBegin
  2
*Model_Space
 70
     0
 10
0.0
 20
0.0
 30
0.0
  3
*Model_Space
  1

  0
ENDBLK
  5
21
330
1F
100
AcDbEntity
  8
0
100
AcDbBlockEnd
  0
BLOCK
  5
1C
330
1B
100
AcDbEntity
 67
     1
  8
0
100
AcDbBlockBegin
  2
*Paper_Space
 70
     0
 10
0.0
 20
0.0
 30
0.0
  3
*Paper_Space
  1

  0
ENDBLK
  5
1D
330
1B
100
AcDbEntity
 67
     1
  8
0
100
AcDbBlockEnd
  0
BLOCK
  5
24
330
23
100
AcDbEntity
  8
0
100
AcDbBlockBegin
  2
*Paper_Space0
 70
     0
 10
0.0
 20
0.0
 30
0.0
  3
*Paper_Space0
  1

  0
ENDBLK
  5
25
330
23
100
AcDbEntity
  8
0
100
AcDbBlockEnd
  0
BLOCK
  5
48
330
47
100
AcDbEntity
  8
0
100
AcDbBlockBegin
  2
D-OTTA_25-select__1
 70
     0
 10
119.5192378864628
 20
361.7672218286425
 30
0.0
  3
D-OTTA_25-select__1
  1

  0
LINE
  5
87
330
47
100
AcDbEntity
  8
0
  6
Continuous
 62
     7
100
AcDbLine
 10
169.8294198955483
 20
361.7672218286425
 30
0.0
 11
120.2505970995305
 21
376.0793951723354
 31
0.0
  0
LINE
  5
88
330
47
100
AcDbEntity
  8
0
  6
Continuous
 62
     7
100
AcDbLine
 10
171.4807621135291
 20
399.1114058230974
 30
0.0
 11
171.4807621135291
 21
362.6761610376599
 31
0.0
  0
LINE
  5
89
330
47
100
AcDbEntity
  8
0
  6
Continuous
 62
     7
100
AcDbLine
 10
120.2505970995305
 20
376.0793951723354
 30
0.0
 11
119.5192378864628
 21
378.1957762799306
 31
0.0
  0
LINE
  5
8A
330
47
100
AcDbEntity
  8
0
  6
Continuous
 62
     7
100
AcDbLine
 10
161.0884572681158
 20
409.8434566306663
 30
0.0
 11
162.0884572681158
 21
410.7094820344507
 31
0.0
  0
LINE
  5
8B
330
47
100
AcDbEntity
  8
0
  6
Continuous
 62
     7
100
AcDbLine
 10
119.5192378864628
 20
414.1114058230974
 30
0.0
 11
119.5192378864628
 21
378.1957762799306
 31
0.0
  0
LINE
  5
8C
330
47
100
AcDbEntity
  8
0
  6
Continuous
 62
     7
100
AcDbLine
 10
169.8294198955483
 20
361.7672218286425
 30
0.0
 11
171.4807621135291
 21
362.6761610376599
 31
0.0
  0
LINE
  5
8D
330
47
100
AcDbEntity
  8
0
  6
Continuous
 62
     7
100
AcDbLine
 10
130.911542731876
 20
419.7094820344507
 30
0.0
 11
162.0884572681158
 21
410.7094820344507
 31
0.0
  0
LINE
  5
8E
330
47
100
AcDbEntity
  8
0
  6
Continuous
 62
     7
100
AcDbLine
 10
129.911542731876
 20
418.8434566306663
 30
0.0
 11
161.0884572681158
 21
409.8434566306663
 31
0.0
  0
LINE
  5
8F
330
47
100
AcDbEntity
  8
0
  6
Continuous
 62
     7
100
AcDbLine
 10
161.0884572681158
 20
409.8434566306663
 30
0.0
 11
161.0884572681158
 21
408.1114058230974
 31
0.0
  0
LINE
  5
90
330
47
100
AcDbEntity
  8
0
  6
Continuous
 62
     7
100
AcDbLine
 10
119.5192378864628
 20
414.1114058230974
 30
0.0
 11
120.5192378864628
 21
414.9774312268818
 31
0.0
  0
LINE
  5
91
330
47
100
AcDbEntity
  8
0
  6
Continuous
 62
     7
100
AcDbLine
 10
120.5192378864628
 20
414.9774312268818
 30
0.0
 11
129.911542731876
 21
417.688756092287
 31
0.0
  0
LINE
  5
92
330
47
100
AcDbEntity
  8
0
  6
Continuous
 62
     7
100
AcDbLine
 10
129.911542731876
 20
417.1114058230974
 30
0.0
 11
129.911542731876
 21
418.8434566306663
 31
0.0
  0
LINE
  5
93
330
47
100
AcDbEntity
  8
0
  6
Continuous
 62
     7
100
AcDbLine
 10
119.5192378864628
 20
414.1114058230974
 30
0.0
 11
129.911542731876
 21
417.1114058230974
 31
0.0
  0
LINE
  5
94
330
47
100
AcDbEntity
  8
0
  6
Continuous
 62
     7
100
AcDbLine
 10
129.911542731876
 20
418.8434566306663
 30
0.0
 11
130.911542731876
 21
419.7094820344507
 31
0.0
  0
LINE
  5
95
330
47
100
AcDbEntity
  8
0
  6
Continuous
 62
     7
100
AcDbLine
 10
162.0884572681158
 20
408.9774312268818
 30
0.0
 11
161.0884572681158
 21
408.1114058230974
 31
0.0
  0
LINE
  5
96
330
47
100
AcDbEntity
  8
0
  6
Continuous
 62
     7
100
AcDbLine
 10
162.0884572681158
 20
410.7094820344507
 30
0.0
 11
162.0884572681158
 21
408.9774312268818
 31
0.0
  0
LINE
  5
97
330
47
100
AcDbEntity
  8
0
  6
Continuous
 62
     7
100
AcDbLine
 10
162.0884572681158
 20
408.9774312268818
 30
0.0
 11
172.4807621135291
 21
399.9774312268818
 31
0.0
  0
LINE
  5
98
330
47
100
AcDbEntity
  8
0
  6
Continuous
 62
     7
100
AcDbLine
 10
161.0884572681158
 20
408.1114058230974
 30
0.0
 11
171.4807621135291
 21
399.1114058230974
 31
0.0
  0
LINE
  5
99
330
47
100
AcDbEntity
  8
0
  6
Continuous
 62
     7
100
AcDbLine
 10
171.4807621135291
 20
399.1114058230974
 30
0.0
 11
172.4807621135291
 21
399.9774312268818
 31
0.0
  0
LINE
  5
9A
330
47
100
AcDbEntity
  8
0
  6
Continuous
 62
     7
100
AcDbLine
 10
172.4807621135291
 20
399.9774312268818
 30
0.0
 11
172.4807621135291
 21
363.5421864414444
 31
0.0
  0
LINE
  5
9B
330
47
100
AcDbEntity
  8
0
  6
Continuous
 62
     7
100
AcDbLine
 10
171.4807621135291
 20
362.6761610376599
 30
0.0
 11
172.4807621135291
 21
363.5421864414444
 31
0.0
  0
ENDBLK
  5
49
330
47
100
AcDbEntity
  8
0
100
AcDbBlockEnd
  0
BLOCK
  5
4C
330
4A
100
AcDbEntity
  8
0
100
AcDbBlockBegin
  2
AllgSicht1
 70
     0
 10
145.9999999999984
 20
392.0
 30
0.0
  3
AllgSicht1
  1

  0
INSERT
  5
4B
330
4A
100
AcDbEntity
  8
0
100
AcDbBlockReference
  2
D-OTTA_25-select__1
 10
119.5192378864628
 20
361.7672218286425
 30
0.0
  0
MTEXT
  5
9D
330
4A
100
AcDbEntity
  8
1
 62
     6
100
AcDbMText
 10
145.999999999998
 20
356.290520665206
 30
0.0
 40
5.0
 41
0.0
 71
     2
 72
     1
  1
 
  7
CONVERTER_11
 73
     1
 44
1.32052821128451
  0
ENDBLK
  5
4D
330
4A
100
AcDbEntity
  8
0
100
AcDbBlockEnd
  0
BLOCK
  5
4F
330
4E
100
AcDbEntity
  8
0
100
AcDbBlockBegin
  2
D-OTTA_25-select__2
 70
     0
 10
-1.00000000000001
 20
399.9999999999901
 30
0.0
  3
D-OTTA_25-select__2
  1

  0
LINE
  5
9E
330
4E
100
AcDbEntity
  8
0
  6
Continuous
 62
     7
100
AcDbLine
 10
10.99999999999999
 20
401.9999999999901
 30
0.0
 11
46.99999999999999
 21
401.9999999999901
 31
0.0
  0
LINE
  5
9F
330
4E
100
AcDbEntity
  8
0
  6
Continuous
 62
     7
100
AcDbLine
 10
10.99999999999999
 20
399.9999999999901
 30
0.0
 11
10.99999999999999
 21
401.9999999999901
 31
0.0
  0
LINE
  5
A0
330
4E
100
AcDbEntity
  8
0
  6
Continuous
 62
     7
100
AcDbLine
 10
10.99999999999999
 20
399.9999999999901
 30
0.0
 11
46.99999999999999
 21
399.9999999999901
 31
0.0
  0
LINE
  5
A1
330
4E
100
AcDbEntity
  8
0
  6
Continuous
 62
     7
100
AcDbLine
 10
46.99999999999999
 20
399.9999999999901
 30
0.0
 11
46.99999999999999
 21
401.9999999999901
 31
0.0
  0
LINE
  5
A2
330
4E
100
AcDbEntity
  8
0
  6
Continuous
 62
     7
100
AcDbLine
 10
46.99999999999999
 20
401.9999999999901
 30
0.0
 11
58.99999999999999
 21
401.9999999999901
 31
0.0
  0
LINE
  5
A3
330
4E
100
AcDbEntity
  8
0
  6
Continuous
 62
     7
100
AcDbLine
 10
46.99999999999999
 20
399.9999999999901
 30
0.0
 11
58.99999999999999
 21
399.9999999999901
 31
0.0
  0
LINE
  5
A4
330
4E
100
AcDbEntity
  8
0
  6
Continuous
 62
     7
100
AcDbLine
 10
58.99999999999999
 20
399.9999999999901
 30
0.0
 11
58.99999999999999
 21
401.9999999999901
 31
0.0
  0
LINE
  5
A5
330
4E
100
AcDbEntity
  8
0
  6
Continuous
 62
     7
100
AcDbLine
 10
-1.00000000000001
 20
399.9999999999901
 30
0.0
 11
-1.00000000000001
 21
401.9999999999901
 31
0.0
  0
LINE
  5
A6
330
4E
100
AcDbEntity
  8
0
  6
Continuous
 62
     7
100
AcDbLine
 10
-1.00000000000001
 20
399.9999999999901
 30
0.0
 11
10.99999999999999
 21
399.9999999999901
 31
0.0
  0
LINE
  5
A7
330
4E
100
AcDbEntity
  8
0
  6
Continuous
 62
     7
100
AcDbLine
 10
-1.00000000000001
 20
401.9999999999901
 30
0.0
 11
10.99999999999999
 21
401.9999999999901
 31
0.0
  0
ENDBLK
  5
50
330
4E
100
AcDbEntity
  8
0
100
AcDbBlockEnd
  0
BLOCK
  5
53
330
51
100
AcDbEntity
  8
0
100
AcDbBlockBegin
  2
Drfsicht1
 70
     0
 10
29.0
 20
400.9999999999951
 30
0.0
  3
Drfsicht1
  1

  0
INSERT
  5
52
330
51
100
AcDbEntity
  8
0
100
AcDbBlockReference
  2
D-OTTA_25-select__2
 10
-1.00000000000001
 20
399.9999999999901
 30
0.0
  0
MTEXT
  5
A8
330
51
100
AcDbEntity
  8
1
 62
     6
100
AcDbMText
 10
29.0
 20
394.999999999995
 30
0.0
 40
5.0
 41
0.0
 71
     2
 72
     1
  1
 
  7
CONVERTER_11
 73
     1
 44
1.32052821128451
  0
DIMENSION
  5
B5
330
51
100
AcDbEntity
  8
1
100
AcDbDimension
  2
*D17
 10
-11.00000000000001
 20
399.9999999999901
 30
0.0
 11
-14.25000000000001
 21
394.052570783182
 31
0.0
 70
    33
  1
<>
 71
     5
 42
-1.0
 53
90.0
  3
ME10_DIM_10
100
AcDbAlignedDimension
 13
-1.00000000000001
 23
401.9999999999901
 33
0.0
 14
-1.00000000000001
 24
399.9999999999901
 34
0.0
  0
ENDBLK
  5
54
330
51
100
AcDbEntity
  8
0
100
AcDbBlockEnd
  0
BLOCK
  5
56
330
55
100
AcDbEntity
  8
0
100
AcDbBlockBegin
  2
D-OTTA_25-select__3
 70
     0
 10
113.0
 20
436.9999996840725
 30
0.0
  3
D-OTTA_25-select__3
  1

  0
LINE
  5
B6
330
55
100
AcDbEntity
  8
0
  6
Continuous
 62
     7
100
AcDbLine
 10
125.0
 20
487.5999996840724
 30
0.0
 11
113.0
 21
480.671796453797
 31
0.0
  0
LINE
  5
B7
330
55
100
AcDbEntity
  8
0
  6
Continuous
 62
     7
100
AcDbLine
 10
114.9068057481508
 20
436.9999996840725
 30
0.0
 11
172.1554991229221
 21
436.9999996840725
 31
0.0
  0
LINE
  5
B8
330
55
100
AcDbEntity
  8
0
  6
Continuous
 62
     7
100
AcDbLine
 10
172.1554991229221
 20
436.9999996840725
 30
0.0
 11
173.0
 21
439.1999996840725
 31
0.0
  0
LINE
  5
B9
330
55
100
AcDbEntity
  8
0
  6
Continuous
 62
     7
100
AcDbLine
 10
173.0
 20
480.671796453797
 30
0.0
 11
173.0
 21
439.1999996840725
 31
0.0
  0
LINE
  5
BA
330
55
100
AcDbEntity
  8
0
  6
Continuous
 62
     7
100
AcDbLine
 10
114.9068057481508
 20
436.9999996840725
 30
0.0
 11
113.0
 21
438.5999996840725
 31
0.0
  0
LINE
  5
BB
330
55
100
AcDbEntity
  8
0
  6
Continuous
 62
     7
100
AcDbLine
 10
125.0
 20
489.5999996840724
 30
0.0
 11
125.0
 21
487.5999996840724
 31
0.0
  0
LINE
  5
BC
330
55
100
AcDbEntity
  8
0
  6
Continuous
 62
     7
100
AcDbLine
 10
161.0
 20
489.5999996840724
 30
0.0
 11
125.0
 21
489.5999996840724
 31
0.0
  0
LINE
  5
BD
330
55
100
AcDbEntity
  8
0
  6
Continuous
 62
     7
100
AcDbLine
 10
173.0
 20
480.671796453797
 30
0.0
 11
161.0
 21
487.5999996840724
 31
0.0
  0
LINE
  5
BE
330
55
100
AcDbEntity
  8
0
  6
Continuous
 62
     7
100
AcDbLine
 10
161.0
 20
487.5999996840724
 30
0.0
 11
161.0
 21
489.5999996840724
 31
0.0
  0
LINE
  5
BF
330
55
100
AcDbEntity
  8
0
  6
Continuous
 62
     7
100
AcDbLine
 10
113.0
 20
480.671796453797
 30
0.0
 11
113.0
 21
438.5999996840725
 31
0.0
  0
ENDBLK
  5
57
330
55
100
AcDbEntity
  8
0
100
AcDbBlockEnd
  0
BLOCK
  5
5A
330
58
100
AcDbEntity
  8
0
100
AcDbBlockBegin
  2
Rckans1
 70
     0
 10
143.0
 20
463.2999982833862
 30
0.0
  3
Rckans1
  1

  0
INSERT
  5
59
330
58
100
AcDbEntity
  8
0
100
AcDbBlockReference
  2
D-OTTA_25-select__3
 10
113.0
 20
436.9999996840725
 30
0.0
  0
MTEXT
  5
C0
330
58
100
AcDbEntity
  8
1
 62
     6
100
AcDbMText
 10
143.0
 20
432.0
 30
0.0
 40
5.0
 41
0.0
 71
     2
 72
     1
  1
 
  7
CONVERTER_11
 73
     1
 44
1.32052821128451
  0
ENDBLK
  5
5B
330
58
100
AcDbEntity
  8
0
100
AcDbBlockEnd
  0
BLOCK
  5
5D
330
5C
100
AcDbEntity
  8
0
100
AcDbBlockBegin
  2
D-OTTA_25-select__4
 70
     0
 10
89.00000000001373
 20
436.9999996840725
 30
0.0
  3
D-OTTA_25-select__4
  1

  0
LINE
  5
C1
330
5C
100
AcDbEntity
  8
0
  6
Continuous
 62
     7
100
AcDbLine
 10
89.00000000001373
 20
480.671796453797
 30
0.0
 11
89.00000000001373
 21
439.1999996840725
 31
0.0
  0
LINE
  5
C2
330
5C
100
AcDbEntity
  8
0
  6
Continuous
 62
     7
100
AcDbLine
 10
89.00000000001373
 20
487.5999996840724
 30
0.0
 11
91.00000000001373
 21
487.5999996840724
 31
0.0
  0
LINE
  5
C3
330
5C
100
AcDbEntity
  8
0
  6
Continuous
 62
     7
100
AcDbLine
 10
89.00000000001373
 20
480.671796453797
 30
0.0
 11
89.00000000001373
 21
487.5999996840724
 31
0.0
  0
LINE
  5
C4
330
5C
100
AcDbEntity
  8
0
  6
Continuous
 62
     7
100
AcDbLine
 10
89.00000000001373
 20
487.5999996840724
 30
0.0
 11
89.00000000001373
 21
489.5999996840724
 31
0.0
  0
LINE
  5
C5
330
5C
100
AcDbEntity
  8
0
  6
Continuous
 62
     7
100
AcDbLine
 10
91.00000000001373
 20
489.5999996840724
 30
0.0
 11
89.00000000001373
 21
489.5999996840724
 31
0.0
  0
LINE
  5
C6
330
5C
100
AcDbEntity
  8
0
  6
Continuous
 62
     7
100
AcDbLine
 10
91.00000000001373
 20
480.671796453797
 30
0.0
 11
89.00000000001373
 21
480.671796453797
 31
0.0
  0
LINE
  5
C7
330
5C
100
AcDbEntity
  8
0
  6
Continuous
 62
     7
100
AcDbLine
 10
91.00000000001373
 20
439.1999996840725
 30
0.0
 11
89.00000000001373
 21
439.1999996840725
 31
0.0
  0
LINE
  5
C8
330
5C
100
AcDbEntity
  8
0
  6
Continuous
 62
     7
100
AcDbLine
 10
91.00000000001373
 20
480.671796453797
 30
0.0
 11
91.00000000001373
 21
439.1999996840725
 31
0.0
  0
LINE
  5
C9
330
5C
100
AcDbEntity
  8
0
  6
Continuous
 62
     7
100
AcDbLine
 10
91.00000000001373
 20
480.671796453797
 30
0.0
 11
91.00000000001373
 21
487.5999996840724
 31
0.0
  0
LINE
  5
CA
330
5C
100
AcDbEntity
  8
0
  6
Continuous
 62
     7
100
AcDbLine
 10
91.00000000001373
 20
487.5999996840724
 30
0.0
 11
91.00000000001373
 21
489.5999996840724
 31
0.0
  0
LINE
  5
CB
330
5C
100
AcDbEntity
  8
0
  6
Continuous
 62
     7
100
AcDbLine
 10
89.00000000001373
 20
436.9999996840725
 30
0.0
 11
89.00000000001373
 21
439.1999996840725
 31
0.0
  0
LINE
  5
CC
330
5C
100
AcDbEntity
  8
0
  6
Continuous
 62
     7
100
AcDbLine
 10
89.00000000001373
 20
436.9999996840725
 30
0.0
 11
91.00000000001373
 21
436.9999996840725
 31
0.0
  0
LINE
  5
CD
330
5C
100
AcDbEntity
  8
0
  6
Continuous
 62
     7
100
AcDbLine
 10
91.00000000001373
 20
436.9999996840725
 30
0.0
 11
91.00000000001373
 21
439.1999996840725
 31
0.0
  0
ENDBLK
  5
5E
330
5C
100
AcDbEntity
  8
0
100
AcDbBlockEnd
  0
BLOCK
  5
61
330
5F
100
AcDbEntity
  8
0
100
AcDbBlockBegin
  2
SA_Links1
 70
     0
 10
90.00000000000873
 20
463.2999982833861
 30
0.0
  3
SA_Links1
  1

  0
INSERT
  5
60
330
5F
100
AcDbEntity
  8
0
100
AcDbBlockReference
  2
D-OTTA_25-select__4
 10
89.00000000001373
 20
436.9999996840725
 30
0.0
  0
MTEXT
  5
CE
330
5F
100
AcDbEntity
  8
1
 62
     6
100
AcDbMText
 10
90.00000000001
 20
432.0
 30
0.0
 40
5.0
 41
0.0
 71
     2
 72
     1
  1
 
  7
CONVERTER_11
 73
     1
 44
1.32052821128451
  0
ENDBLK
  5
62
330
5F
100
AcDbEntity
  8
0
100
AcDbBlockEnd
  0
BLOCK
  5
64
330
63
100
AcDbEntity
  8
0
100
AcDbBlockBegin
  2
D-OTTA_25-select__5
 70
     0
 10
-42.00000000000992
 20
436.9999996840725
 30
0.0
  3
D-OTTA_25-select__5
  1

  0
LINE
  5
CF
330
63
100
AcDbEntity
  8
0
  6
Continuous
 62
     7
100
AcDbLine
 10
-40.00000000000992
 20
480.671796453797
 30
0.0
 11
-40.00000000000992
 21
438.5999996840725
 31
0.0
  0
LINE
  5
D0
330
63
100
AcDbEntity
  8
0
  6
Continuous
 62
     7
100
AcDbLine
 10
-40.00000000000992
 20
487.5999996840724
 30
0.0
 11
-42.00000000000992
 21
487.5999996840724
 31
0.0
  0
LINE
  5
D1
330
63
100
AcDbEntity
  8
0
  6
Continuous
 62
     7
100
AcDbLine
 10
-40.00000000000992
 20
487.5999996840724
 30
0.0
 11
-40.00000000000992
 21
480.671796453797
 31
0.0
  0
LINE
  5
D2
330
63
100
AcDbEntity
  8
0
  6
Continuous
 62
     7
100
AcDbLine
 10
-40.00000000000992
 20
489.5999996840724
 30
0.0
 11
-40.00000000000992
 21
487.5999996840724
 31
0.0
  0
LINE
  5
D3
330
63
100
AcDbEntity
  8
0
  6
Continuous
 62
     7
100
AcDbLine
 10
-42.00000000000992
 20
480.671796453797
 30
0.0
 11
-40.00000000000992
 21
480.671796453797
 31
0.0
  0
LINE
  5
D4
330
63
100
AcDbEntity
  8
0
  6
Continuous
 62
     7
100
AcDbLine
 10
-42.00000000000992
 20
489.5999996840724
 30
0.0
 11
-40.00000000000992
 21
489.5999996840724
 31
0.0
  0
LINE
  5
D5
330
63
100
AcDbEntity
  8
0
  6
Continuous
 62
     7
100
AcDbLine
 10
-42.00000000000992
 20
489.5999996840724
 30
0.0
 11
-42.00000000000992
 21
487.5999996840724
 31
0.0
  0
LINE
  5
D6
330
63
100
AcDbEntity
  8
0
  6
Continuous
 62
     7
100
AcDbLine
 10
-42.00000000000992
 20
480.671796453797
 30
0.0
 11
-42.00000000000992
 21
438.5999996840725
 31
0.0
  0
LINE
  5
D7
330
63
100
AcDbEntity
  8
0
  6
Continuous
 62
     7
100
AcDbLine
 10
-42.00000000000992
 20
487.5999996840724
 30
0.0
 11
-42.00000000000992
 21
480.671796453797
 31
0.0
  0
LINE
  5
D8
330
63
100
AcDbEntity
  8
0
  6
Continuous
 62
     7
100
AcDbLine
 10
-42.00000000000992
 20
438.5999996840725
 30
0.0
 11
-40.00000000000992
 21
438.5999996840725
 31
0.0
  0
LINE
  5
D9
330
63
100
AcDbEntity
  8
0
  6
Continuous
 62
     7
100
AcDbLine
 10
-42.00000000000992
 20
436.9999996840725
 30
0.0
 11
-42.00000000000992
 21
438.5999996840725
 31
0.0
  0
LINE
  5
DA
330
63
100
AcDbEntity
  8
0
  6
Continuous
 62
     7
100
AcDbLine
 10
-40.00000000000992
 20
436.9999996840725
 30
0.0
 11
-42.00000000000992
 21
436.9999996840725
 31
0.0
  0
LINE
  5
DB
330
63
100
AcDbEntity
  8
0
  6
Continuous
 62
     7
100
AcDbLine
 10
-40.00000000000992
 20
436.9999996840725
 30
0.0
 11
-40.00000000000992
 21
438.5999996840725
 31
0.0
  0
ENDBLK
  5
65
330
63
100
AcDbEntity
  8
0
100
AcDbBlockEnd
  0
BLOCK
  5
68
330
66
100
AcDbEntity
  8
0
100
AcDbBlockBegin
  2
SA_Rechts1
 70
     0
 10
-41.00000000000492
 20
463.2999982833862
 30
0.0
  3
SA_Rechts1
  1

  0
INSERT
  5
67
330
66
100
AcDbEntity
  8
0
100
AcDbBlockReference
  2
D-OTTA_25-select__5
 10
-42.00000000000992
 20
436.9999996840725
 30
0.0
  0
MTEXT
  5
DC
330
66
100
AcDbEntity
  8
1
 62
     6
100
AcDbMText
 10
-41.000000000005
 20
432.0
 30
0.0
 40
5.0
 41
0.0
 71
     2
 72
     1
  1
 
  7
CONVERTER_11
 73
     1
 44
1.32052821128451
  0
ENDBLK
  5
69
330
66
100
AcDbEntity
  8
0
100
AcDbBlockEnd
  0
BLOCK
  5
6B
330
6A
100
AcDbEntity
  8
0
100
AcDbBlockBegin
  2
D-OTTA_25-select__6
 70
     0
 10
-0.99999999999987
 20
436.9999996840725
 30
0.0
  3
D-OTTA_25-select__6
  1

  0
LINE
  5
DD
330
6A
100
AcDbEntity
  8
0
  6
Continuous
 62
     7
100
AcDbLine
 10
47.00000000000013
 20
487.5999996840724
 30
0.0
 11
59.0000000000001
 21
480.671796453797
 31
0.0
  0
LINE
  5
DE
330
6A
100
AcDbEntity
  8
0
  6
Continuous
 62
     7
100
AcDbLine
 10
59.0000000000001
 20
480.671796453797
 30
0.0
 11
59.0000000000001
 21
438.5999996840725
 31
0.0
  0
LINE
  5
DF
330
6A
100
AcDbEntity
  8
0
  6
Continuous
 62
     7
100
AcDbLine
 10
47.00000000000013
 20
489.5999996840724
 30
0.0
 11
47.00000000000013
 21
487.5999996840724
 31
0.0
  0
LINE
  5
E0
330
6A
100
AcDbEntity
  8
0
  6
Continuous
 62
     7
100
AcDbLine
 10
11.00000000000013
 20
489.5999996840724
 30
0.0
 11
47.00000000000013
 21
489.5999996840724
 31
0.0
  0
LINE
  5
E1
330
6A
100
AcDbEntity
  8
0
  6
Continuous
 62
     7
100
AcDbLine
 10
-0.99999999999987
 20
480.671796453797
 30
0.0
 11
11.0000000000001
 21
487.5999996840724
 31
0.0
  0
LINE
  5
E2
330
6A
100
AcDbEntity
  8
0
  6
Continuous
 62
     7
100
AcDbLine
 10
11.0000000000001
 20
487.5999996840724
 30
0.0
 11
11.00000000000013
 21
489.5999996840724
 31
0.0
  0
LINE
  5
E3
330
6A
100
AcDbEntity
  8
0
  6
Continuous
 62
     7
100
AcDbLine
 10
-0.99999999999987
 20
480.671796453797
 30
0.0
 11
-0.99999999999987
 21
439.1999996840725
 31
0.0
  0
LINE
  5
E4
330
6A
100
AcDbEntity
  8
0
  6
Continuous
 62
     7
100
AcDbLine
 10
-0.15549912292195
 20
436.9999996840725
 30
0.0
 11
-0.99999999999987
 21
439.1999996840725
 31
0.0
  0
LINE
  5
E5
330
6A
100
AcDbEntity
  8
0
  6
Continuous
 62
     7
100
AcDbLine
 10
57.0931942518494
 20
436.9999996840725
 30
0.0
 11
-0.15549912292195
 21
436.9999996840725
 31
0.0
  0
LINE
  5
E6
330
6A
100
AcDbEntity
  8
0
  6
Continuous
 62
     7
100
AcDbLine
 10
57.0931942518494
 20
436.9999996840725
 30
0.0
 11
59.0000000000001
 21
438.5999996840725
 31
0.0
  0
ENDBLK
  5
6C
330
6A
100
AcDbEntity
  8
0
100
AcDbBlockEnd
  0
BLOCK
  5
6F
330
6D
100
AcDbEntity
  8
0
100
AcDbBlockBegin
  2
Vordans1
 70
     0
 10
29.00000000000014
 20
463.2999982833861
 30
0.0
  3
Vordans1
  1

  0
INSERT
  5
6E
330
6D
100
AcDbEntity
  8
0
100
AcDbBlockReference
  2
D-OTTA_25-select__6
 10
-0.99999999999987
 20
436.9999996840725
 30
0.0
  0
MTEXT
  5
E7
330
6D
100
AcDbEntity
  8
1
 62
     6
100
AcDbMText
 10
29.0
 20
432.0
 30
0.0
 40
5.0
 41
0.0
 71
     2
 72
     1
  1
 
  7
CONVERTER_11
 73
     1
 44
1.32052821128451
  0
DIMENSION
  5
F2
330
6D
100
AcDbEntity
  8
1
100
AcDbDimension
  2
*D18
 10
-10.99999999999994
 20
436.9999996840725
 30
0.0
 11
-14.42499999999994
 21
463.243069972776
 31
0.0
 70
    32
  1
<>
 71
     5
 42
-1.0
 53
90.0
  3
ME10_DIM_11
100
AcDbAlignedDimension
 13
11.00000000000013
 23
489.5999996840724
 33
0.0
 14
-0.15549912292195
 24
436.9999996840725
 34
0.0
 50
90.0
100
AcDbRotatedDimension
  0
DIMENSION
  5
FD
330
6D
100
AcDbEntity
  8
1
100
AcDbDimension
  2
*D19
 10
59.00000000000011
 20
422.712236314108
 30
0.0
 11
26.22779760144538
 21
426.462236314108
 31
0.0
 70
    32
  1
<>
 71
     5
 42
-1.0
 53
0.00013888888889
  3
ME10_DIM_12
100
AcDbAlignedDimension
 13
-0.99999999999987
 23
439.1999996840725
 33
0.0
 14
59.0000000000001
 24
438.5999996840725
 34
0.0
100
AcDbRotatedDimension
  0
ENDBLK
  5
70
330
6D
100
AcDbEntity
  8
0
100
AcDbBlockEnd
  0
BLOCK
  5
72
330
71
100
AcDbEntity
  8
0
100
AcDbBlockBegin
  2
_rahmen
 70
     0
 10
208.4999999999976
 20
315.4452601746392
 30
0.0
  3
_rahmen
  1

  0
LINE
  5
FE
330
71
100
AcDbEntity
  8
1
  6
DOT_CENTER
 62
     2
100
AcDbLine
 10
82.94185035981013
 20
341.5702601746392
 30
0.0
 11
88.44185035981013
 21
341.5702601746392
 31
0.0
  0
LINE
  5
FF
330
71
100
AcDbEntity
  8
1
  6
PHANTOM
 62
     2
100
AcDbLine
 10
91.69185035981013
 20
344.3202601746392
 30
0.0
 11
91.69185035981013
 21
338.8202601746392
 31
0.0
  0
LINE
  5
100
330
71
100
AcDbEntity
  8
1
  6
PHANTOM
 62
     2
100
AcDbLine
 10
94.44185035981013
 20
341.5702601746392
 30
0.0
 11
88.94185035981013
 21
341.5702601746392
 31
0.0
  0
LINE
  5
101
330
71
100
AcDbEntity
  8
1
  6
Continuous
 62
     7
100
AcDbLine
 10
143.2551954732475
 20
328.9452601746392
 30
0.0
 11
143.2551954732475
 21
337.4452601746393
 31
0.0
  0
LINE
  5
102
330
71
100
AcDbEntity
  8
1
  6
Continuous
 62
     6
100
AcDbLine
 10
115.3551954732475
 20
337.4452601746393
 30
0.0
 11
208.4999999999992
 21
337.4452601746393
 31
0.0
  0
LINE
  5
103
330
71
100
AcDbEntity
  8
1
  6
Continuous
 62
     7
100
AcDbLine
 10
78.95519547324753
 20
337.4452601746393
 30
0.0
 11
78.95519547324753
 21
345.9452601746393
 31
0.0
  0
LINE
  5
104
330
71
100
AcDbEntity
  8
1
  6
Continuous
 62
     7
100
AcDbLine
 10
115.3551954732475
 20
337.4452601746393
 30
0.0
 11
115.3551954732475
 21
345.9452601746393
 31
0.0
  0
LINE
  5
105
330
71
100
AcDbEntity
  8
1
  6
Continuous
 62
     7
100
AcDbLine
 10
173.0815917183204
 20
345.9452601746393
 30
0.0
 11
173.0815917183204
 21
337.4452601746393
 31
0.0
  0
LINE
  5
106
330
71
100
AcDbEntity
  8
1
  6
Continuous
 62
     7
100
AcDbLine
 10
199.58159171832
 20
345.9452601746393
 30
0.0
 11
199.58159171832
 21
337.4452601746393
 31
0.0
  0
LINE
  5
107
330
71
100
AcDbEntity
  8
1
  6
Continuous
 62
     6
100
AcDbLine
 10
9.95519547324756
 20
320.4452601746393
 30
0.0
 11
-35.00000000000244
 21
320.4452601746393
 31
0.0
  0
LINE
  5
108
330
71
100
AcDbEntity
  8
1
  6
Continuous
 62
     7
100
AcDbLine
 10
208.4999999999988
 20
328.9452601746393
 30
0.0
 11
115.3551954732475
 21
328.9452601746393
 31
0.0
  0
LINE
  5
109
102
{ACAD_REACTORS
330
21B
330
21C
102
}
330
71
100
AcDbEntity
  8
0
  6
Continuous
 62
     2
100
AcDbLine
 10
92.66262441501493
 20
329.7455492903026
 30
0.0
 11
92.66262441501493
 21
330.6180662971059
 31
0.0
  0
LINE
  5
10A
102
{ACAD_REACTORS
330
21B
330
21C
102
}
330
71
100
AcDbEntity
  8
0
  6
Continuous
 62
     2
100
AcDbLine
 10
92.66262441501493
 20
328.7857805828197
 30
0.0
 11
92.66262441501493
 21
327.9132635760165
 31
0.0
  0
LINE
  5
10B
102
{ACAD_REACTORS
330
21D
330
21E
102
}
330
71
100
AcDbEntity
  8
0
  6
Continuous
 62
     2
100
AcDbLine
 10
107.9956685513054
 20
330.0073043923431
 30
0.0
 11
109.0993078508735
 21
330.0073043923431
 31
0.0
  0
LINE
  5
10C
102
{ACAD_REACTORS
330
21D
330
21E
102
}
330
71
100
AcDbEntity
  8
0
  6
Continuous
 62
     2
100
AcDbLine
 10
108.7653258942669
 20
328.7857805828193
 30
0.0
 11
108.7653258942669
 21
327.9132635760159
 31
0.0
  0
LINE
  5
10D
102
{ACAD_REACTORS
330
227
330
228
102
}
330
71
100
AcDbEntity
  8
0
  6
Continuous
 62
     2
100
AcDbLine
 10
106.9045692788869
 20
331.0979506508299
 30
0.0
 11
108.3025223258272
 21
332.6788096446049
 31
0.0
  0
LINE
  5
10E
102
{ACAD_REACTORS
330
227
330
228
102
}
330
71
100
AcDbEntity
  8
0
  6
Continuous
 62
     2
100
AcDbLine
 10
106.9999926950598
 20
334.1517601746411
 30
0.0
 11
108.3025223258272
 21
332.6788096446049
 31
0.0
  0
LINE
  5
10F
102
{ACAD_REACTORS
330
227
330
228
102
}
330
71
100
AcDbEntity
  8
0
  6
Continuous
 62
     2
100
AcDbLine
 10
109.6050519565936
 20
334.1517601746411
 30
0.0
 11
111.0077761743409
 21
334.1517601746411
 31
0.0
  0
LINE
  5
110
102
{ACAD_REACTORS
330
227
330
228
102
}
330
71
100
AcDbEntity
  8
0
  6
Continuous
 62
     2
100
AcDbLine
 10
108.3072934966351
 20
331.0979506508299
 30
0.0
 11
109.0038844347008
 21
331.8856824361236
 31
0.0
  0
LINE
  5
111
102
{ACAD_REACTORS
330
227
330
228
102
}
330
71
100
AcDbEntity
  8
0
  6
Continuous
 62
     2
100
AcDbLine
 10
108.3072934966351
 20
331.0979506508299
 30
0.0
 11
106.9045692788869
 21
331.0979506508299
 31
0.0
  0
LINE
  5
112
102
{ACAD_REACTORS
330
229
330
22A
102
}
330
71
100
AcDbEntity
  8
0
  6
Continuous
 62
     2
100
AcDbLine
 10
106.7852900086701
 20
331.0979506508299
 30
0.0
 11
105.5447855984172
 21
331.0979506508299
 31
0.0
  0
LINE
  5
113
102
{ACAD_REACTORS
330
22B
330
22C
102
}
330
71
100
AcDbEntity
  8
0
  6
Continuous
 62
     2
100
AcDbLine
 10
104.676805990262
 20
328.9602839841801
 30
0.0
 11
104.3766407530719
 21
329.7280989501668
 31
0.0
  0
LINE
  5
114
102
{ACAD_REACTORS
330
22B
330
22C
102
}
330
71
100
AcDbEntity
  8
0
  6
Continuous
 62
     2
100
AcDbLine
 10
104.0764755158795
 20
328.9602839841801
 30
0.0
 11
104.676805990262
 21
328.9602839841801
 31
0.0
  0
LINE
  5
115
102
{ACAD_REACTORS
330
22B
330
22C
102
}
330
71
100
AcDbEntity
  8
0
  6
Continuous
 62
     2
100
AcDbLine
 10
102.3584355010057
 20
327.7387601746556
 30
0.0
 11
103.5989399112587
 21
327.7387601746556
 31
0.0
  0
LINE
  5
116
102
{ACAD_REACTORS
330
22B
330
22C
102
}
330
71
100
AcDbEntity
  8
0
  6
Continuous
 62
     2
100
AcDbLine
 10
103.7563885479451
 20
330.7925696984667
 30
0.0
 11
104.9968929581978
 21
330.7925696984667
 31
0.0
  0
LINE
  5
117
102
{ACAD_REACTORS
330
22B
330
22C
102
}
330
71
100
AcDbEntity
  8
0
  6
Continuous
 62
     2
100
AcDbLine
 10
104.9968929581978
 20
330.7925696984667
 30
0.0
 11
106.3948460051381
 21
327.7387601746556
 31
0.0
  0
LINE
  5
118
102
{ACAD_REACTORS
330
22B
330
22C
102
}
330
71
100
AcDbEntity
  8
0
  6
Continuous
 62
     2
100
AcDbLine
 10
105.1543415948841
 20
327.7387601746556
 30
0.0
 11
104.9428615414084
 21
328.2797207188735
 31
0.0
  0
LINE
  5
119
102
{ACAD_REACTORS
330
22D
330
22E
102
}
330
71
100
AcDbEntity
  8
0
  6
Continuous
 62
     2
100
AcDbLine
 10
101.0120223992981
 20
327.7387601746556
 30
0.0
 11
102.2048151014647
 21
327.7387601746556
 31
0.0
  0
LINE
  5
11A
102
{ACAD_REACTORS
330
22D
330
22E
102
}
330
71
100
AcDbEntity
  8
0
  6
Continuous
 62
     2
100
AcDbLine
 10
101.0120223992981
 20
330.0073043923431
 30
0.0
 11
101.0120223992981
 21
327.7387601746556
 31
0.0
  0
LINE
  5
11B
102
{ACAD_REACTORS
330
22D
330
22E
102
}
330
71
100
AcDbEntity
  8
0
  6
Continuous
 62
     2
100
AcDbLine
 10
100.2009233618235
 20
330.7925696984667
 30
0.0
 11
100.2009233618235
 21
330.0073043923431
 31
0.0
  0
LINE
  5
11C
102
{ACAD_REACTORS
330
22F
330
230
102
}
330
71
100
AcDbEntity
  8
0
  6
Continuous
 62
     2
100
AcDbLine
 10
101.6801372433961
 20
331.0979506508299
 30
0.0
 11
102.8729299455627
 21
331.0979506508299
 31
0.0
  0
LINE
  5
11D
102
{ACAD_REACTORS
330
22F
330
230
102
}
330
71
100
AcDbEntity
  8
0
  6
Continuous
 62
     2
100
AcDbLine
 10
104.1134343558167
 20
332.8429846644359
 30
0.0
 11
102.8729299455627
 21
334.1517601746411
 31
0.0
  0
LINE
  5
11E
102
{ACAD_REACTORS
330
22F
330
230
102
}
330
71
100
AcDbEntity
  8
0
  6
Continuous
 62
     2
100
AcDbLine
 10
105.3062270579833
 20
334.1517601746411
 30
0.0
 11
104.1134343558167
 21
334.1517601746411
 31
0.0
  0
LINE
  5
11F
102
{ACAD_REACTORS
330
22F
330
230
102
}
330
71
100
AcDbEntity
  8
0
  6
Continuous
 62
     2
100
AcDbLine
 10
105.3062270579833
 20
331.0979506508299
 30
0.0
 11
105.3062270579833
 21
334.1517601746411
 31
0.0
  0
LINE
  5
120
102
{ACAD_REACTORS
330
22F
330
230
102
}
330
71
100
AcDbEntity
  8
0
  6
Continuous
 62
     2
100
AcDbLine
 10
104.1134343558167
 20
331.0979506508299
 30
0.0
 11
105.3062270579833
 21
331.0979506508299
 31
0.0
  0
LINE
  5
121
102
{ACAD_REACTORS
330
22F
330
230
102
}
330
71
100
AcDbEntity
  8
0
  6
Continuous
 62
     2
100
AcDbLine
 10
102.8729299455627
 20
332.4067261610346
 30
0.0
 11
104.1134343558167
 21
331.0979506508299
 31
0.0
  0
LINE
  5
122
102
{ACAD_REACTORS
330
231
330
232
102
}
330
71
100
AcDbEntity
  8
0
  6
Continuous
 62
     2
100
AcDbLine
 10
98.86499553539693
 20
329.4837941882616
 30
0.0
 11
97.62449112514403
 21
330.7925696984667
 31
0.0
  0
LINE
  5
123
102
{ACAD_REACTORS
330
231
330
232
102
}
330
71
100
AcDbEntity
  8
0
  6
Continuous
 62
     2
100
AcDbLine
 10
98.86499553539693
 20
330.7925696984667
 30
0.0
 11
98.86499553539693
 21
329.4837941882616
 31
0.0
  0
LINE
  5
124
102
{ACAD_REACTORS
330
231
330
232
102
}
330
71
100
AcDbEntity
  8
0
  6
Continuous
 62
     2
100
AcDbLine
 10
100.0577882375633
 20
330.7925696984667
 30
0.0
 11
98.86499553539693
 21
330.7925696984667
 31
0.0
  0
LINE
  5
125
102
{ACAD_REACTORS
330
231
330
232
102
}
330
71
100
AcDbEntity
  8
0
  6
Continuous
 62
     2
100
AcDbLine
 10
100.0577882375633
 20
327.7387601746556
 30
0.0
 11
100.0577882375633
 21
330.7925696984667
 31
0.0
  0
LINE
  5
126
102
{ACAD_REACTORS
330
231
330
232
102
}
330
71
100
AcDbEntity
  8
0
  6
Continuous
 62
     2
100
AcDbLine
 10
97.62449112514403
 20
329.0475356848602
 30
0.0
 11
98.86499553539693
 21
327.7387601746556
 31
0.0
  0
LINE
  5
127
102
{ACAD_REACTORS
330
231
330
232
102
}
330
71
100
AcDbEntity
  8
0
  6
Continuous
 62
     2
100
AcDbLine
 10
97.62449112514403
 20
327.7387601746556
 30
0.0
 11
97.62449112514403
 21
329.0475356848602
 31
0.0
  0
LINE
  5
128
102
{ACAD_REACTORS
330
221
330
222
102
}
330
71
100
AcDbEntity
  8
0
  6
Continuous
 62
     2
100
AcDbLine
 10
100.1056508765356
 20
333.4537465691981
 30
0.0
 11
101.4415787029632
 21
333.4537465691981
 31
0.0
  0
LINE
  5
129
102
{ACAD_REACTORS
330
221
330
222
102
}
330
71
100
AcDbEntity
  8
0
  6
Continuous
 62
     2
100
AcDbLine
 10
100.1056508765356
 20
331.7959642562724
 30
0.0
 11
100.1056508765356
 21
332.2758486100141
 31
0.0
  0
LINE
  5
12A
102
{ACAD_REACTORS
330
221
330
222
102
}
330
71
100
AcDbEntity
  8
0
  6
Continuous
 62
     2
100
AcDbLine
 10
101.4415787029632
 20
331.7959642562724
 30
0.0
 11
100.1056508765356
 21
331.7959642562724
 31
0.0
  0
LINE
  5
12B
102
{ACAD_REACTORS
330
221
330
222
102
}
330
71
100
AcDbEntity
  8
0
  6
Continuous
 62
     2
100
AcDbLine
 10
101.4415787029632
 20
331.0979506508299
 30
0.0
 11
101.4415787029632
 21
331.7959642562724
 31
0.0
  0
LINE
  5
12C
102
{ACAD_REACTORS
330
221
330
222
102
}
330
71
100
AcDbEntity
  8
0
  6
Continuous
 62
     2
100
AcDbLine
 10
98.29125897918223
 20
331.0979506508299
 30
0.0
 11
101.4415787029632
 21
331.0979506508299
 31
0.0
  0
LINE
  5
12D
102
{ACAD_REACTORS
330
221
330
222
102
}
330
71
100
AcDbEntity
  8
0
  6
Continuous
 62
     2
100
AcDbLine
 10
98.29125897918223
 20
334.1517601746411
 30
0.0
 11
101.4415787029632
 21
334.1517601746411
 31
0.0
  0
LINE
  5
12E
102
{ACAD_REACTORS
330
221
330
222
102
}
330
71
100
AcDbEntity
  8
0
  6
Continuous
 62
     2
100
AcDbLine
 10
101.4415787029632
 20
333.4537465691981
 30
0.0
 11
101.4415787029632
 21
334.1517601746411
 31
0.0
  0
LINE
  5
12F
102
{ACAD_REACTORS
330
233
330
234
102
}
330
71
100
AcDbEntity
  8
0
  6
Continuous
 62
     2
100
AcDbLine
 10
95.42990348404223
 20
333.0829268413065
 30
0.0
 11
95.42990348404223
 21
334.1517601746411
 31
0.0
  0
LINE
  5
130
102
{ACAD_REACTORS
330
233
330
234
102
}
330
71
100
AcDbEntity
  8
0
  6
Continuous
 62
     2
100
AcDbLine
 10
95.42990348404223
 20
334.1517601746411
 30
0.0
 11
96.62269618620863
 21
334.1517601746411
 31
0.0
  0
LINE
  5
131
102
{ACAD_REACTORS
330
233
330
234
102
}
330
71
100
AcDbEntity
  8
0
  6
Continuous
 62
     2
100
AcDbLine
 10
95.42990348404223
 20
332.2322227596737
 30
0.0
 11
94.38024590613475
 21
332.2322227596737
 31
0.0
  0
LINE
  5
132
102
{ACAD_REACTORS
330
233
330
234
102
}
330
71
100
AcDbEntity
  8
0
  6
Continuous
 62
     2
100
AcDbLine
 10
94.38024590613475
 20
332.2322227596737
 30
0.0
 11
94.38024590613475
 21
331.0979506508299
 31
0.0
  0
LINE
  5
133
102
{ACAD_REACTORS
330
233
330
234
102
}
330
71
100
AcDbEntity
  8
0
  6
Continuous
 62
     2
100
AcDbLine
 10
93.18745320396815
 20
334.1517601746411
 30
0.0
 11
93.18745320396815
 21
331.0979506508299
 31
0.0
  0
LINE
  5
134
102
{ACAD_REACTORS
330
225
330
226
102
}
330
71
100
AcDbEntity
  8
0
  6
Continuous
 62
     2
100
AcDbLine
 10
91.23127317241455
 20
332.7829266798588
 30
0.0
 11
91.23127317241455
 21
333.488654329201
 31
0.0
  0
LINE
  5
135
102
{ACAD_REACTORS
330
225
330
226
102
}
330
71
100
AcDbEntity
  8
0
  6
Continuous
 62
     2
100
AcDbLine
 10
89.99076876216043
 20
331.0979506508299
 30
0.0
 11
91.23127317241455
 21
331.0979506508299
 31
0.0
  0
LINE
  5
136
102
{ACAD_REACTORS
330
225
330
226
102
}
330
71
100
AcDbEntity
  8
0
  6
Continuous
 62
     2
100
AcDbLine
 10
91.23127317241455
 20
331.0979506508299
 30
0.0
 11
91.23127317241455
 21
332.0410288919737
 31
0.0
  0
LINE
  5
137
102
{ACAD_REACTORS
330
21F
330
220
102
}
330
71
100
AcDbEntity
  8
0
  6
Continuous
 62
     2
100
AcDbLine
 10
85.68582291294905
 20
328.4513157302125
 30
0.0
 11
84.20998965193942
 21
328.4513157302125
 31
0.0
  0
LINE
  5
138
102
{ACAD_REACTORS
330
21F
330
220
102
}
330
71
100
AcDbEntity
  8
0
  6
Continuous
 62
     2
100
AcDbLine
 10
83.19185035981013
 20
333.7275155592391
 30
0.0
 11
83.19185035981013
 21
328.1630047900389
 31
0.0
  0
LINE
  5
139
102
{ACAD_REACTORS
330
21F
330
220
102
}
330
71
100
AcDbEntity
  8
0
  6
Continuous
 62
     2
100
AcDbLine
 10
83.61609497519294
 20
334.151760174623
 30
0.0
 11
89.08940706590974
 21
334.151760174623
 31
0.0
  0
LINE
  5
13A
102
{ACAD_REACTORS
330
21F
330
220
102
}
330
71
100
AcDbEntity
  8
0
  6
Continuous
 62
     2
100
AcDbLine
 10
89.51365168129362
 20
333.7275155592391
 30
0.0
 11
89.51365168129362
 21
328.1630047900389
 31
0.0
  0
LINE
  5
13B
102
{ACAD_REACTORS
330
21F
330
220
102
}
330
71
100
AcDbEntity
  8
0
  6
Continuous
 62
     2
100
AcDbLine
 10
89.08940706590974
 20
327.7387601746556
 30
0.0
 11
83.61609497519294
 21
327.7387601746556
 31
0.0
  0
LINE
  5
13C
102
{ACAD_REACTORS
330
21F
330
220
102
}
330
71
100
AcDbEntity
  8
0
  6
Continuous
 62
     2
100
AcDbLine
 10
86.00153983602564
 20
328.7670326532892
 30
0.0
 11
86.00153983602564
 21
330.2978035848208
 31
0.0
  0
LINE
  5
13D
102
{ACAD_REACTORS
330
21F
330
220
102
}
330
71
100
AcDbEntity
  8
0
  6
Continuous
 62
     2
100
AcDbLine
 10
86.00153983602564
 20
332.5194630769458
 30
0.0
 11
86.00153983602564
 21
333.1234876960064
 31
0.0
  0
LINE
  5
13E
102
{ACAD_REACTORS
330
21F
330
220
102
}
330
71
100
AcDbEntity
  8
0
  6
Continuous
 62
     2
100
AcDbLine
 10
84.20998965193942
 20
333.4392046190825
 30
0.0
 11
85.68582291294905
 21
333.4392046190825
 31
0.0
  0
LINE
  5
13F
102
{ACAD_REACTORS
330
21F
330
220
102
}
330
71
100
AcDbEntity
  8
0
  6
Continuous
 62
     2
100
AcDbLine
 10
83.89427272886374
 20
333.1234876960064
 30
0.0
 11
83.89427272886374
 21
328.7670326532892
 31
0.0
  0
LINE
  5
140
102
{ACAD_REACTORS
330
225
330
226
102
}
330
71
100
AcDbEntity
  8
0
  6
Continuous
 62
     2
100
AcDbLine
 10
91.23127317241455
 20
332.0410288919737
 30
0.0
 11
91.99004076019483
 21
332.0410288919737
 31
0.0
  0
LINE
  5
141
102
{ACAD_REACTORS
330
225
330
226
102
}
330
71
100
AcDbEntity
  8
0
  6
Continuous
 62
     2
100
AcDbLine
 10
89.99076876216043
 20
334.1517601746411
 30
0.0
 11
91.99004076019483
 21
334.1517601746411
 31
0.0
  0
LINE
  5
142
102
{ACAD_REACTORS
330
225
330
226
102
}
330
71
100
AcDbEntity
  8
0
  6
Continuous
 62
     2
100
AcDbLine
 10
89.99076876216043
 20
334.1517601746411
 30
0.0
 11
89.99076876216043
 21
331.0979506508299
 31
0.0
  0
LINE
  5
143
102
{ACAD_REACTORS
330
225
330
226
102
}
330
71
100
AcDbEntity
  8
0
  6
Continuous
 62
     2
100
AcDbLine
 10
91.23127317241455
 20
332.7829266798588
 30
0.0
 11
91.54856823395644
 21
332.7829266798588
 31
0.0
  0
LINE
  5
144
102
{ACAD_REACTORS
330
225
330
226
102
}
330
71
100
AcDbEntity
  8
0
  6
Continuous
 62
     2
100
AcDbLine
 10
91.23127317241455
 20
333.488654329201
 30
0.0
 11
91.54856823395644
 21
333.488654329201
 31
0.0
  0
LINE
  5
145
102
{ACAD_REACTORS
330
233
330
234
102
}
330
71
100
AcDbEntity
  8
0
  6
Continuous
 62
     2
100
AcDbLine
 10
94.38024590613475
 20
333.0829268413065
 30
0.0
 11
95.42990348404223
 21
333.0829268413065
 31
0.0
  0
LINE
  5
146
102
{ACAD_REACTORS
330
233
330
234
102
}
330
71
100
AcDbEntity
  8
0
  6
Continuous
 62
     2
100
AcDbLine
 10
94.38024590613475
 20
334.1517601746411
 30
0.0
 11
94.38024590613475
 21
333.0829268413065
 31
0.0
  0
LINE
  5
147
102
{ACAD_REACTORS
330
233
330
234
102
}
330
71
100
AcDbEntity
  8
0
  6
Continuous
 62
     2
100
AcDbLine
 10
93.18745320396815
 20
334.1517601746411
 30
0.0
 11
94.38024590613475
 21
334.1517601746411
 31
0.0
  0
LINE
  5
148
102
{ACAD_REACTORS
330
233
330
234
102
}
330
71
100
AcDbEntity
  8
0
  6
Continuous
 62
     2
100
AcDbLine
 10
94.38024590613475
 20
331.0979506508299
 30
0.0
 11
93.18745320396815
 21
331.0979506508299
 31
0.0
  0
LINE
  5
149
102
{ACAD_REACTORS
330
233
330
234
102
}
330
71
100
AcDbEntity
  8
0
  6
Continuous
 62
     2
100
AcDbLine
 10
95.42990348404223
 20
331.0979506508299
 30
0.0
 11
95.42990348404223
 21
332.2322227596737
 31
0.0
  0
LINE
  5
14A
102
{ACAD_REACTORS
330
233
330
234
102
}
330
71
100
AcDbEntity
  8
0
  6
Continuous
 62
     2
100
AcDbLine
 10
96.62269618620863
 20
331.0979506508299
 30
0.0
 11
95.42990348404223
 21
331.0979506508299
 31
0.0
  0
LINE
  5
14B
102
{ACAD_REACTORS
330
233
330
234
102
}
330
71
100
AcDbEntity
  8
0
  6
Continuous
 62
     2
100
AcDbLine
 10
96.62269618620863
 20
334.1517601746411
 30
0.0
 11
96.62269618620863
 21
331.0979506508299
 31
0.0
  0
LINE
  5
14C
102
{ACAD_REACTORS
330
221
330
222
102
}
330
71
100
AcDbEntity
  8
0
  6
Continuous
 62
     2
100
AcDbLine
 10
100.1056508765356
 20
332.2758486100141
 30
0.0
 11
101.4415787029632
 21
332.2758486100141
 31
0.0
  0
LINE
  5
14D
102
{ACAD_REACTORS
330
221
330
222
102
}
330
71
100
AcDbEntity
  8
0
  6
Continuous
 62
     2
100
AcDbLine
 10
101.4415787029632
 20
332.2758486100141
 30
0.0
 11
101.4415787029632
 21
332.9738622154564
 31
0.0
  0
LINE
  5
14E
102
{ACAD_REACTORS
330
221
330
222
102
}
330
71
100
AcDbEntity
  8
0
  6
Continuous
 62
     2
100
AcDbLine
 10
101.4415787029632
 20
332.9738622154564
 30
0.0
 11
100.1056508765356
 21
332.9738622154564
 31
0.0
  0
LINE
  5
14F
102
{ACAD_REACTORS
330
221
330
222
102
}
330
71
100
AcDbEntity
  8
0
  6
Continuous
 62
     2
100
AcDbLine
 10
100.1056508765356
 20
332.9738622154564
 30
0.0
 11
100.1056508765356
 21
333.4537465691981
 31
0.0
  0
LINE
  5
150
102
{ACAD_REACTORS
330
231
330
232
102
}
330
71
100
AcDbEntity
  8
0
  6
Continuous
 62
     2
100
AcDbLine
 10
96.43169842297644
 20
327.7387601746556
 30
0.0
 11
97.62449112514403
 21
327.7387601746556
 31
0.0
  0
LINE
  5
151
102
{ACAD_REACTORS
330
231
330
232
102
}
330
71
100
AcDbEntity
  8
0
  6
Continuous
 62
     2
100
AcDbLine
 10
98.86499553539693
 20
327.7387601746556
 30
0.0
 11
100.0577882375633
 21
327.7387601746556
 31
0.0
  0
LINE
  5
152
102
{ACAD_REACTORS
330
231
330
232
102
}
330
71
100
AcDbEntity
  8
0
  6
Continuous
 62
     2
100
AcDbLine
 10
97.62449112514403
 20
330.7925696984667
 30
0.0
 11
96.43169842297644
 21
330.7925696984667
 31
0.0
  0
LINE
  5
153
102
{ACAD_REACTORS
330
231
330
232
102
}
330
71
100
AcDbEntity
  8
0
  6
Continuous
 62
     2
100
AcDbLine
 10
96.43169842297644
 20
330.7925696984667
 30
0.0
 11
96.43169842297644
 21
327.7387601746556
 31
0.0
  0
LINE
  5
154
102
{ACAD_REACTORS
330
22F
330
230
102
}
330
71
100
AcDbEntity
  8
0
  6
Continuous
 62
     2
100
AcDbLine
 10
104.1134343558167
 20
334.1517601746411
 30
0.0
 11
104.1134343558167
 21
332.8429846644359
 31
0.0
  0
LINE
  5
155
102
{ACAD_REACTORS
330
22F
330
230
102
}
330
71
100
AcDbEntity
  8
0
  6
Continuous
 62
     2
100
AcDbLine
 10
102.8729299455627
 20
334.1517601746411
 30
0.0
 11
101.6801372433961
 21
334.1517601746411
 31
0.0
  0
LINE
  5
156
102
{ACAD_REACTORS
330
22F
330
230
102
}
330
71
100
AcDbEntity
  8
0
  6
Continuous
 62
     2
100
AcDbLine
 10
101.6801372433961
 20
334.1517601746411
 30
0.0
 11
101.6801372433961
 21
331.0979506508299
 31
0.0
  0
LINE
  5
157
102
{ACAD_REACTORS
330
22F
330
230
102
}
330
71
100
AcDbEntity
  8
0
  6
Continuous
 62
     2
100
AcDbLine
 10
102.8729299455627
 20
331.0979506508299
 30
0.0
 11
102.8729299455627
 21
332.4067261610346
 31
0.0
  0
LINE
  5
158
102
{ACAD_REACTORS
330
22D
330
22E
102
}
330
71
100
AcDbEntity
  8
0
  6
Continuous
 62
     2
100
AcDbLine
 10
102.2048151014647
 20
327.7387601746556
 30
0.0
 11
102.2048151014647
 21
330.0073043923431
 31
0.0
  0
LINE
  5
159
102
{ACAD_REACTORS
330
22D
330
22E
102
}
330
71
100
AcDbEntity
  8
0
  6
Continuous
 62
     2
100
AcDbLine
 10
102.2048151014647
 20
330.0073043923431
 30
0.0
 11
103.0159141389372
 21
330.0073043923431
 31
0.0
  0
LINE
  5
15A
102
{ACAD_REACTORS
330
22D
330
22E
102
}
330
71
100
AcDbEntity
  8
0
  6
Continuous
 62
     2
100
AcDbLine
 10
103.0159141389372
 20
330.0073043923431
 30
0.0
 11
103.0159141389372
 21
330.7925696984667
 31
0.0
  0
LINE
  5
15B
102
{ACAD_REACTORS
330
22D
330
22E
102
}
330
71
100
AcDbEntity
  8
0
  6
Continuous
 62
     2
100
AcDbLine
 10
103.0159141389372
 20
330.7925696984667
 30
0.0
 11
100.2009233618235
 21
330.7925696984667
 31
0.0
  0
LINE
  5
15C
102
{ACAD_REACTORS
330
22D
330
22E
102
}
330
71
100
AcDbEntity
  8
0
  6
Continuous
 62
     2
100
AcDbLine
 10
100.2009233618235
 20
330.0073043923431
 30
0.0
 11
101.0120223992981
 21
330.0073043923431
 31
0.0
  0
LINE
  5
15D
102
{ACAD_REACTORS
330
22B
330
22C
102
}
330
71
100
AcDbEntity
  8
0
  6
Continuous
 62
     2
100
AcDbLine
 10
103.8104199647345
 20
328.2797207188735
 30
0.0
 11
104.9428615414084
 21
328.2797207188735
 31
0.0
  0
LINE
  5
15E
102
{ACAD_REACTORS
330
22B
330
22C
102
}
330
71
100
AcDbEntity
  8
0
  6
Continuous
 62
     2
100
AcDbLine
 10
106.3948460051381
 20
327.7387601746556
 30
0.0
 11
105.1543415948841
 21
327.7387601746556
 31
0.0
  0
LINE
  5
15F
102
{ACAD_REACTORS
330
22B
330
22C
102
}
330
71
100
AcDbEntity
  8
0
  6
Continuous
 62
     2
100
AcDbLine
 10
103.7563885479451
 20
330.7925696984667
 30
0.0
 11
102.3584355010057
 21
327.7387601746556
 31
0.0
  0
LINE
  5
160
102
{ACAD_REACTORS
330
22B
330
22C
102
}
330
71
100
AcDbEntity
  8
0
  6
Continuous
 62
     2
100
AcDbLine
 10
103.5989399112587
 20
327.7387601746556
 30
0.0
 11
103.8104199647345
 21
328.2797207188735
 31
0.0
  0
LINE
  5
161
102
{ACAD_REACTORS
330
22B
330
22C
102
}
330
71
100
AcDbEntity
  8
0
  6
Continuous
 62
     2
100
AcDbLine
 10
104.0764755158795
 20
328.9602839841801
 30
0.0
 11
104.3766407530719
 21
329.7280989501668
 31
0.0
  0
LINE
  5
162
102
{ACAD_REACTORS
330
229
330
22A
102
}
330
71
100
AcDbEntity
  8
0
  6
Continuous
 62
     2
100
AcDbLine
 10
105.5447855984172
 20
331.0979506508299
 30
0.0
 11
105.5447855984172
 21
334.1517601746411
 31
0.0
  0
LINE
  5
163
102
{ACAD_REACTORS
330
229
330
22A
102
}
330
71
100
AcDbEntity
  8
0
  6
Continuous
 62
     2
100
AcDbLine
 10
106.7852900086701
 20
334.1517601746411
 30
0.0
 11
106.7852900086701
 21
331.0979506508299
 31
0.0
  0
LINE
  5
164
102
{ACAD_REACTORS
330
229
330
22A
102
}
330
71
100
AcDbEntity
  8
0
  6
Continuous
 62
     2
100
AcDbLine
 10
105.5447855984172
 20
334.1517601746411
 30
0.0
 11
106.7852900086701
 21
334.1517601746411
 31
0.0
  0
LINE
  5
165
102
{ACAD_REACTORS
330
227
330
228
102
}
330
71
100
AcDbEntity
  8
0
  6
Continuous
 62
     2
100
AcDbLine
 10
109.0038844347008
 20
331.8856824361236
 30
0.0
 11
109.7004753727663
 21
331.0979506508299
 31
0.0
  0
LINE
  5
166
102
{ACAD_REACTORS
330
227
330
228
102
}
330
71
100
AcDbEntity
  8
0
  6
Continuous
 62
     2
100
AcDbLine
 10
109.7004753727663
 20
331.0979506508299
 30
0.0
 11
111.1031995905146
 21
331.0979506508299
 31
0.0
  0
LINE
  5
167
102
{ACAD_REACTORS
330
227
330
228
102
}
330
71
100
AcDbEntity
  8
0
  6
Continuous
 62
     2
100
AcDbLine
 10
109.7052465435743
 20
332.6788096446049
 30
0.0
 11
111.1031995905146
 21
331.0979506508299
 31
0.0
  0
LINE
  5
168
102
{ACAD_REACTORS
330
227
330
228
102
}
330
71
100
AcDbEntity
  8
0
  6
Continuous
 62
     2
100
AcDbLine
 10
109.7052465435743
 20
332.6788096446049
 30
0.0
 11
111.0077761743409
 21
334.1517601746411
 31
0.0
  0
LINE
  5
169
102
{ACAD_REACTORS
330
227
330
228
102
}
330
71
100
AcDbEntity
  8
0
  6
Continuous
 62
     2
100
AcDbLine
 10
109.0038844347008
 20
333.4719368530856
 30
0.0
 11
109.6050519565936
 21
334.1517601746411
 31
0.0
  0
LINE
  5
16A
102
{ACAD_REACTORS
330
227
330
228
102
}
330
71
100
AcDbEntity
  8
0
  6
Continuous
 62
     2
100
AcDbLine
 10
108.402716912809
 20
334.1517601746411
 30
0.0
 11
109.0038844347008
 21
333.4719368530856
 31
0.0
  0
LINE
  5
16B
102
{ACAD_REACTORS
330
227
330
228
102
}
330
71
100
AcDbEntity
  8
0
  6
Continuous
 62
     2
100
AcDbLine
 10
108.402716912809
 20
334.1517601746411
 30
0.0
 11
106.9999926950598
 21
334.1517601746411
 31
0.0
  0
LINE
  5
16C
102
{ACAD_REACTORS
330
21D
330
21E
102
}
330
71
100
AcDbEntity
  8
0
  6
Continuous
 62
     2
100
AcDbLine
 10
109.0993078508735
 20
327.7387601746556
 30
0.0
 11
110.2921005530413
 21
327.7387601746556
 31
0.0
  0
LINE
  5
16D
102
{ACAD_REACTORS
330
21D
330
21E
102
}
330
71
100
AcDbEntity
  8
0
  6
Continuous
 62
     2
100
AcDbLine
 10
110.2921005530413
 20
327.7387601746556
 30
0.0
 11
110.2921005530413
 21
330.0073043923431
 31
0.0
  0
LINE
  5
16E
102
{ACAD_REACTORS
330
21D
330
21E
102
}
330
71
100
AcDbEntity
  8
0
  6
Continuous
 62
     2
100
AcDbLine
 10
110.2921005530413
 20
330.0073043923431
 30
0.0
 11
111.1031995905146
 21
330.0073043923431
 31
0.0
  0
LINE
  5
16F
102
{ACAD_REACTORS
330
21D
330
21E
102
}
330
71
100
AcDbEntity
  8
0
  6
Continuous
 62
     2
100
AcDbLine
 10
111.1031995905146
 20
330.0073043923431
 30
0.0
 11
111.1031995905146
 21
330.7925696984667
 31
0.0
  0
LINE
  5
170
102
{ACAD_REACTORS
330
21D
330
21E
102
}
330
71
100
AcDbEntity
  8
0
  6
Continuous
 62
     2
100
AcDbLine
 10
107.718254071886
 20
330.7925696984662
 30
0.0
 11
111.1031995905146
 21
330.7925696984667
 31
0.0
  0
LINE
  5
171
102
{ACAD_REACTORS
330
21D
330
21E
102
}
330
71
100
AcDbEntity
  8
0
  6
Continuous
 62
     2
100
AcDbLine
 10
109.0993078508735
 20
330.0073043923431
 30
0.0
 11
109.0993078508735
 21
327.7387601746556
 31
0.0
  0
LINE
  5
172
102
{ACAD_REACTORS
330
21F
330
220
102
}
330
71
100
AcDbEntity
  8
0
  6
Continuous
 62
     2
100
AcDbLine
 10
86.46982141539434
 20
329.7176403242202
 30
0.0
 11
86.46982141539434
 21
330.2994917309152
 31
0.0
  0
LINE
  5
173
102
{ACAD_REACTORS
330
21F
330
220
102
}
330
71
100
AcDbEntity
  8
0
  6
Continuous
 62
     2
100
AcDbLine
 10
86.46982141539434
 20
332.5177749308514
 30
0.0
 11
86.46982141539434
 21
333.1233102193583
 31
0.0
  0
LINE
  5
174
330
71
100
AcDbEntity
  8
1
  6
Continuous
 62
     6
100
AcDbLine
 10
64.99999999999756
 20
320.4452601746393
 30
0.0
 11
78.95519547324753
 21
320.4452601746392
 31
0.0
  0
LINE
  5
175
330
71
100
AcDbEntity
  8
1
  6
Continuous
 62
     6
100
AcDbLine
 10
14.99999999999733
 20
320.4452601746393
 30
0.0
 11
9.95519547324756
 21
320.4452601746393
 31
0.0
  0
LINE
  5
176
330
71
100
AcDbEntity
  8
1
  6
Continuous
 62
     6
100
AcDbLine
 10
164.9999999999975
 20
320.4452601746393
 30
0.0
 11
208.4999999999976
 21
320.4452601746393
 31
0.0
  0
LINE
  5
177
330
71
100
AcDbEntity
  8
1
  6
Continuous
 62
     6
100
AcDbLine
 10
114.9999999999975
 20
320.4452601746393
 30
0.0
 11
97.15519547324755
 21
320.4452601746393
 31
0.0
  0
LINE
  5
178
330
71
100
AcDbEntity
  8
1
  6
Continuous
 62
     2
100
AcDbLine
 10
208.4999999999976
 20
320.4452601746393
 30
0.0
 11
213.4999999999965
 21
320.4452601746393
 31
0.0
  0
LINE
  5
179
330
71
100
AcDbEntity
  8
1
  6
Continuous
 62
     2
100
AcDbLine
 10
208.4999999999976
 20
320.4452601746393
 30
0.0
 11
208.4999999999976
 21
315.4452601746392
 31
0.0
  0
LINE
  5
17A
330
71
100
AcDbEntity
  8
1
  6
Continuous
 62
     6
100
AcDbLine
 10
78.95519547324753
 20
337.4452601746393
 30
0.0
 11
115.3551954732475
 21
337.4452601746393
 31
0.0
  0
LINE
  5
17B
330
71
100
AcDbEntity
  8
1
  6
Continuous
 62
     2
100
AcDbLine
 10
213.4999999999965
 20
315.4452601746392
 30
0.0
 11
213.4999999999965
 21
320.4452601746393
 31
0.0
  0
LINE
  5
17C
330
71
100
AcDbEntity
  8
1
  6
Continuous
 62
     2
100
AcDbLine
 10
213.4999999999965
 20
315.4452601746392
 30
0.0
 11
208.4999999999976
 21
315.4452601746392
 31
0.0
  0
LINE
  5
17D
330
71
100
AcDbEntity
  8
1
  6
Continuous
 62
     2
100
AcDbLine
 10
208.4999999999976
 20
315.4452601746392
 30
0.0
 11
164.9999999999975
 21
315.4452601746392
 31
0.0
  0
LINE
  5
17E
330
71
100
AcDbEntity
  8
1
  6
Continuous
 62
     6
100
AcDbLine
 10
208.4999999999992
 20
337.4452601746393
 30
0.0
 11
208.4999999999984
 21
370.4452601746394
 31
0.0
  0
LINE
  5
17F
330
71
100
AcDbEntity
  8
1
  6
Continuous
 62
     2
100
AcDbLine
 10
213.4999999999965
 20
525.4452601746393
 30
0.0
 11
64.99999999999756
 21
525.4452601746393
 31
0.0
  0
LINE
  5
180
330
71
100
AcDbEntity
  8
1
  6
Continuous
 62
     6
100
AcDbLine
 10
208.4999999999965
 20
505.4452601746393
 30
0.0
 11
-78.50000000000153
 21
505.4452601746393
 31
0.0
  0
LINE
  5
181
330
71
100
AcDbEntity
  8
1
  6
Continuous
 62
     2
100
AcDbLine
 10
208.4999999999984
 20
370.4452601746394
 30
0.0
 11
213.4999999999965
 21
370.4452601746394
 31
0.0
  0
LINE
  5
182
330
71
100
AcDbEntity
  8
1
  6
Continuous
 62
     6
100
AcDbLine
 10
208.4999999999984
 20
370.4452601746394
 30
0.0
 11
208.499999999998
 21
420.4452601746392
 31
0.0
  0
LINE
  5
183
330
71
100
AcDbEntity
  8
1
  6
Continuous
 62
     2
100
AcDbLine
 10
213.4999999999965
 20
370.4452601746394
 30
0.0
 11
213.4999999999965
 21
420.4452601746392
 31
0.0
  0
LINE
  5
184
330
71
100
AcDbEntity
  8
1
  6
Continuous
 62
     2
100
AcDbLine
 10
208.499999999998
 20
420.4452601746392
 30
0.0
 11
213.4999999999965
 21
420.4452601746392
 31
0.0
  0
LINE
  5
185
330
71
100
AcDbEntity
  8
1
  6
Continuous
 62
     6
100
AcDbLine
 10
208.499999999998
 20
420.4452601746392
 30
0.0
 11
208.4999999999967
 21
470.4452601746393
 31
0.0
  0
LINE
  5
186
330
71
100
AcDbEntity
  8
1
  6
Continuous
 62
     2
100
AcDbLine
 10
213.4999999999965
 20
420.4452601746392
 30
0.0
 11
213.4999999999965
 21
470.4452601746393
 31
0.0
  0
LINE
  5
187
330
71
100
AcDbEntity
  8
1
  6
Continuous
 62
     2
100
AcDbLine
 10
208.4999999999967
 20
470.4452601746393
 30
0.0
 11
213.4999999999965
 21
470.4452601746393
 31
0.0
  0
LINE
  5
188
330
71
100
AcDbEntity
  8
1
  6
Continuous
 62
     6
100
AcDbLine
 10
208.4999999999967
 20
470.4452601746393
 30
0.0
 11
208.4999999999965
 21
505.4452601746393
 31
0.0
  0
LINE
  5
189
330
71
100
AcDbEntity
  8
1
  6
Continuous
 62
     2
100
AcDbLine
 10
213.4999999999965
 20
470.4452601746393
 30
0.0
 11
213.4999999999965
 21
525.4452601746393
 31
0.0
  0
LINE
  5
18A
330
71
100
AcDbEntity
  8
1
  6
Continuous
 62
     2
100
AcDbLine
 10
213.4999999999965
 20
320.4452601746393
 30
0.0
 11
213.4999999999965
 21
370.4452601746394
 31
0.0
  0
LINE
  5
18B
330
71
100
AcDbEntity
  8
1
  6
Continuous
 62
     2
100
AcDbLine
 10
64.99999999999756
 20
525.4452601746393
 30
0.0
 11
-83.50000000000153
 21
525.4452601746393
 31
0.0
  0
LINE
  5
18C
330
71
100
AcDbEntity
  8
1
  6
Continuous
 62
     2
100
AcDbLine
 10
64.99999999999756
 20
525.4452601746393
 30
0.0
 11
64.99999999999756
 21
516.236568329938
 31
0.0
  0
LINE
  5
18D
330
71
100
AcDbEntity
  8
1
  6
Continuous
 62
     2
100
AcDbLine
 10
-83.50000000000153
 20
315.4452601746392
 30
0.0
 11
-78.50000000000057
 21
315.4452601746392
 31
0.0
  0
LINE
  5
18E
330
71
100
AcDbEntity
  8
1
  6
Continuous
 62
     2
100
AcDbLine
 10
-83.50000000000153
 20
525.4452601746393
 30
0.0
 11
-83.50000000000153
 21
470.4452601746393
 31
0.0
  0
LINE
  5
18F
330
71
100
AcDbEntity
  8
1
  6
Continuous
 62
     6
100
AcDbLine
 10
-78.50000000000153
 20
505.4452601746393
 30
0.0
 11
-78.50000000000148
 21
470.4452601746393
 31
0.0
  0
LINE
  5
190
330
71
100
AcDbEntity
  8
1
  6
Continuous
 62
     2
100
AcDbLine
 10
-83.50000000000153
 20
470.4452601746393
 30
0.0
 11
-78.50000000000148
 21
470.4452601746393
 31
0.0
  0
LINE
  5
191
330
71
100
AcDbEntity
  8
1
  6
Continuous
 62
     2
100
AcDbLine
 10
-83.50000000000153
 20
470.4452601746393
 30
0.0
 11
-83.50000000000153
 21
420.4452601746392
 31
0.0
  0
LINE
  5
192
330
71
100
AcDbEntity
  8
1
  6
Continuous
 62
     6
100
AcDbLine
 10
-78.50000000000148
 20
470.4452601746393
 30
0.0
 11
-78.50000000000097
 21
420.4452601746392
 31
0.0
  0
LINE
  5
193
330
71
100
AcDbEntity
  8
1
  6
Continuous
 62
     2
100
AcDbLine
 10
-83.50000000000153
 20
420.4452601746392
 30
0.0
 11
-78.50000000000097
 21
420.4452601746392
 31
0.0
  0
LINE
  5
194
330
71
100
AcDbEntity
  8
1
  6
Continuous
 62
     2
100
AcDbLine
 10
-83.50000000000153
 20
420.4452601746392
 30
0.0
 11
-83.50000000000153
 21
370.4452601746394
 31
0.0
  0
LINE
  5
195
330
71
100
AcDbEntity
  8
1
  6
Continuous
 62
     6
100
AcDbLine
 10
-78.50000000000097
 20
420.4452601746392
 30
0.0
 11
-78.50000000000074
 21
370.4452601746394
 31
0.0
  0
LINE
  5
196
330
71
100
AcDbEntity
  8
1
  6
Continuous
 62
     2
100
AcDbLine
 10
-83.50000000000153
 20
370.4452601746394
 30
0.0
 11
-78.50000000000074
 21
370.4452601746394
 31
0.0
  0
LINE
  5
197
330
71
100
AcDbEntity
  8
1
  6
Continuous
 62
     2
100
AcDbLine
 10
-83.50000000000153
 20
370.4452601746394
 30
0.0
 11
-83.50000000000153
 21
320.4452601746393
 31
0.0
  0
LINE
  5
198
330
71
100
AcDbEntity
  8
1
  6
Continuous
 62
     6
100
AcDbLine
 10
-78.50000000000074
 20
370.4452601746394
 30
0.0
 11
-78.50000000000057
 21
320.4452601746393
 31
0.0
  0
LINE
  5
199
330
71
100
AcDbEntity
  8
1
  6
Continuous
 62
     2
100
AcDbLine
 10
-35.00000000000244
 20
315.4452601746392
 30
0.0
 11
-35.00000000000244
 21
320.4452601746393
 31
0.0
  0
LINE
  5
19A
330
71
100
AcDbEntity
  8
1
  6
Continuous
 62
     2
100
AcDbLine
 10
-35.00000000000244
 20
315.4452601746392
 30
0.0
 11
14.99999999999733
 21
315.4452601746392
 31
0.0
  0
LINE
  5
19B
330
71
100
AcDbEntity
  8
1
  6
Continuous
 62
     2
100
AcDbLine
 10
14.99999999999733
 20
315.4452601746392
 30
0.0
 11
14.99999999999733
 21
320.4452601746393
 31
0.0
  0
LINE
  5
19C
330
71
100
AcDbEntity
  8
1
  6
Continuous
 62
     2
100
AcDbLine
 10
14.99999999999733
 20
315.4452601746392
 30
0.0
 11
64.99999999999756
 21
315.4452601746392
 31
0.0
  0
LINE
  5
19D
330
71
100
AcDbEntity
  8
1
  6
Continuous
 62
     2
100
AcDbLine
 10
64.99999999999756
 20
315.4452601746392
 30
0.0
 11
64.99999999999756
 21
320.4452601746393
 31
0.0
  0
LINE
  5
19E
330
71
100
AcDbEntity
  8
1
  6
Continuous
 62
     2
100
AcDbLine
 10
64.99999999999756
 20
315.4452601746392
 30
0.0
 11
114.9999999999975
 21
315.4452601746392
 31
0.0
  0
LINE
  5
19F
330
71
100
AcDbEntity
  8
1
  6
Continuous
 62
     2
100
AcDbLine
 10
114.9999999999975
 20
315.4452601746392
 30
0.0
 11
114.9999999999975
 21
320.4452601746393
 31
0.0
  0
LINE
  5
1A0
330
71
100
AcDbEntity
  8
1
  6
Continuous
 62
     2
100
AcDbLine
 10
164.9999999999975
 20
315.4452601746392
 30
0.0
 11
164.9999999999975
 21
320.4452601746393
 31
0.0
  0
LINE
  5
1A1
330
71
100
AcDbEntity
  8
1
  6
Continuous
 62
     2
100
AcDbLine
 10
164.9999999999975
 20
315.4452601746392
 30
0.0
 11
114.9999999999975
 21
315.4452601746392
 31
0.0
  0
LINE
  5
1A2
330
71
100
AcDbEntity
  8
1
  6
Continuous
 62
     2
100
AcDbLine
 10
-78.50000000000057
 20
320.4452601746393
 30
0.0
 11
-78.50000000000057
 21
315.4452601746392
 31
0.0
  0
LINE
  5
1A3
330
71
100
AcDbEntity
  8
1
  6
Continuous
 62
     2
100
AcDbLine
 10
-78.50000000000057
 20
315.4452601746392
 30
0.0
 11
-35.00000000000244
 21
315.4452601746392
 31
0.0
  0
LINE
  5
1A4
330
71
100
AcDbEntity
  8
1
  6
Continuous
 62
     2
100
AcDbLine
 10
-78.50000000000057
 20
320.4452601746393
 30
0.0
 11
-83.50000000000153
 21
320.4452601746393
 31
0.0
  0
LINE
  5
1A5
330
71
100
AcDbEntity
  8
1
  6
Continuous
 62
     2
100
AcDbLine
 10
-83.50000000000153
 20
320.4452601746393
 30
0.0
 11
-83.50000000000153
 21
315.4452601746392
 31
0.0
  0
LINE
  5
1A6
330
71
100
AcDbEntity
  8
1
  6
Continuous
 62
     6
100
AcDbLine
 10
208.4999999999976
 20
320.4452601746393
 30
0.0
 11
208.4999999999988
 21
328.9452601746393
 31
0.0
  0
LINE
  5
1A7
330
71
100
AcDbEntity
  8
1
  6
Continuous
 62
     6
100
AcDbLine
 10
115.3551954732475
 20
320.4452601746392
 30
0.0
 11
164.9999999999975
 21
320.4452601746393
 31
0.0
  0
LINE
  5
1A8
330
71
100
AcDbEntity
  8
1
  6
Continuous
 62
     6
100
AcDbLine
 10
-37.30000000000268
 20
320.4452601746392
 30
0.0
 11
-35.00000000000244
 21
320.4452601746393
 31
0.0
  0
LINE
  5
1A9
330
71
100
AcDbEntity
  8
1
  6
Continuous
 62
     6
100
AcDbLine
 10
64.99999999999756
 20
320.4452601746393
 30
0.0
 11
14.99999999999733
 21
320.4452601746393
 31
0.0
  0
LINE
  5
1AA
330
71
100
AcDbEntity
  8
1
  6
Continuous
 62
     7
100
AcDbLine
 10
78.95519547324753
 20
337.4452601746393
 30
0.0
 11
78.95519547324753
 21
324.6952601746392
 31
0.0
  0
LINE
  5
1AB
330
71
100
AcDbEntity
  8
1
  6
Continuous
 62
     7
100
AcDbLine
 10
115.3551954732475
 20
337.4452601746393
 30
0.0
 11
115.3551954732475
 21
324.6952601746393
 31
0.0
  0
LINE
  5
1AC
330
71
100
AcDbEntity
  8
1
  6
Continuous
 62
     6
100
AcDbLine
 10
-37.30000000000268
 20
320.4452601746392
 30
0.0
 11
-43.50000000000068
 21
320.4452601746393
 31
0.0
  0
LINE
  5
1AD
330
71
100
AcDbEntity
  8
1
  6
Continuous
 62
     6
100
AcDbLine
 10
115.3551954732475
 20
320.4452601746392
 30
0.0
 11
114.9999999999975
 21
320.4452601746393
 31
0.0
  0
LINE
  5
1AE
330
71
100
AcDbEntity
  8
1
  6
Continuous
 62
     6
100
AcDbLine
 10
208.4999999999992
 20
337.4452601746393
 30
0.0
 11
208.4999999999988
 21
328.9452601746393
 31
0.0
  0
LINE
  5
1AF
330
71
100
AcDbEntity
  8
1
  6
Continuous
 62
     6
100
AcDbLine
 10
-43.50000000000068
 20
320.4452601746393
 30
0.0
 11
-78.50000000000057
 21
320.4452601746393
 31
0.0
  0
LINE
  5
1B0
330
71
100
AcDbEntity
  8
1
  6
Continuous
 62
     2
100
AcDbLine
 10
83.19185035981013
 20
342.8202601746392
 30
0.0
 11
88.19185035981013
 21
344.0702601746392
 31
0.0
  0
LINE
  5
1B1
330
71
100
AcDbEntity
  8
1
  6
Continuous
 62
     2
100
AcDbLine
 10
83.19185035981013
 20
340.3202601746392
 30
0.0
 11
83.19185035981013
 21
342.8202601746392
 31
0.0
  0
LINE
  5
1B2
330
71
100
AcDbEntity
  8
1
  6
Continuous
 62
     2
100
AcDbLine
 10
88.19185035981013
 20
339.0702601746392
 30
0.0
 11
83.19185035981013
 21
340.3202601746392
 31
0.0
  0
LINE
  5
1B3
330
71
100
AcDbEntity
  8
1
  6
Continuous
 62
     2
100
AcDbLine
 10
88.19185035981013
 20
344.0702601746392
 30
0.0
 11
88.19185035981013
 21
339.0702601746392
 31
0.0
  0
LINE
  5
1B4
330
71
100
AcDbEntity
  8
1
  6
Continuous
 62
     7
100
AcDbLine
 10
78.95519547324753
 20
324.6952601746392
 30
0.0
 11
97.15519547324755
 21
324.6952601746393
 31
0.0
  0
LINE
  5
1B5
330
71
100
AcDbEntity
  8
1
  6
Continuous
 62
     7
100
AcDbLine
 10
78.95519547324753
 20
324.6952601746392
 30
0.0
 11
78.95519547324753
 21
320.4452601746392
 31
0.0
  0
LINE
  5
1B6
330
71
100
AcDbEntity
  8
1
  6
Continuous
 62
     7
100
AcDbLine
 10
115.3551954732475
 20
324.6952601746393
 30
0.0
 11
115.3551954732475
 21
320.4452601746392
 31
0.0
  0
LINE
  5
1B7
330
71
100
AcDbEntity
  8
1
  6
Continuous
 62
     7
100
AcDbLine
 10
97.15519547324755
 20
324.6952601746393
 30
0.0
 11
97.15519547324755
 21
320.4452601746393
 31
0.0
  0
LINE
  5
1B8
330
71
100
AcDbEntity
  8
1
  6
Continuous
 62
     6
100
AcDbLine
 10
97.15519547324755
 20
320.4452601746393
 30
0.0
 11
78.95519547324753
 21
320.4452601746392
 31
0.0
  0
LINE
  5
1B9
330
71
100
AcDbEntity
  8
1
  6
Continuous
 62
     7
100
AcDbLine
 10
97.15519547324755
 20
324.6952601746393
 30
0.0
 11
115.3551954732475
 21
324.6952601746393
 31
0.0
  0
LINE
  5
1BA
330
71
100
AcDbEntity
  8
1
  6
Continuous
 62
     6
100
AcDbLine
 10
78.95519547324753
 20
345.9452601746393
 30
0.0
 11
208.4999999999992
 21
345.9452601746393
 31
0.0
  0
ARC
  5
1BB
102
{ACAD_REACTORS
330
223
330
224
102
}
330
71
100
AcDbEntity
  8
0
  6
Continuous
 62
     2
100
AcDbCircle
 10
94.34684347220752
 20
329.2656649365609
 30
0.0
 40
0.7717997786796947
100
AcDbArc
 50
321.8795802028417
 51
38.12041979715494
  0
ARC
  5
1BC
102
{ACAD_REACTORS
330
223
330
224
102
}
330
71
100
AcDbEntity
  8
0
  6
Continuous
 62
     2
100
AcDbCircle
 10
94.54658350855394
 20
329.1089337584409
 30
0.0
 40
0.5179085730137529
100
AcDbArc
 50
218.1204197971956
 51
321.8795802027985
  0
ARC
  5
1BD
102
{ACAD_REACTORS
330
223
330
224
102
}
330
71
100
AcDbEntity
  8
0
  6
Continuous
 62
     2
100
AcDbCircle
 10
94.74632354490004
 20
329.2656649365609
 30
0.0
 40
0.7717997786794808
100
AcDbArc
 50
141.8795802028346
 51
218.1204197971687
  0
ARC
  5
1BE
102
{ACAD_REACTORS
330
223
330
224
102
}
330
71
100
AcDbEntity
  8
0
  6
Continuous
 62
     2
100
AcDbCircle
 10
94.54658350855394
 20
329.4223961146814
 30
0.0
 40
0.5179085730132998
100
AcDbArc
 50
38.12041979714704
 51
141.8795802028588
  0
ARC
  5
1BF
102
{ACAD_REACTORS
330
21B
330
21C
102
}
330
71
100
AcDbEntity
  8
0
  6
Continuous
 62
     2
100
AcDbCircle
 10
91.48456937299005
 20
327.8551985711528
 30
0.0
 40
2.227384008973405
100
AcDbArc
 50
58.06909105003957
 51
71.55192388186653
  0
ARC
  5
1C0
102
{ACAD_REACTORS
330
21B
330
21C
102
}
330
71
100
AcDbEntity
  8
0
  6
Continuous
 62
     2
100
AcDbCircle
 10
91.74629707394882
 20
329.4707363658999
 30
0.0
 40
0.511580060194904
100
AcDbArc
 50
113.3722778881979
 51
151.4785267423044
  0
ARC
  5
1C1
102
{ACAD_REACTORS
330
21B
330
21C
102
}
330
71
100
AcDbEntity
  8
0
  6
Continuous
 62
     2
100
AcDbCircle
 10
92.12365433202913
 20
329.2656649365609
 30
0.0
 40
0.9410597353332545
100
AcDbArc
 50
151.4785267422669
 51
208.5214732577057
  0
ARC
  5
1C2
102
{ACAD_REACTORS
330
21B
330
21C
102
}
330
71
100
AcDbEntity
  8
0
  6
Continuous
 62
     2
100
AcDbCircle
 10
91.32669649789713
 20
332.5783458818173
 30
0.0
 40
4.852596863498166
100
AcDbArc
 50
275.1581447696249
 51
285.9799912583529
  0
ARC
  5
1C3
102
{ACAD_REACTORS
330
21B
330
21C
102
}
330
71
100
AcDbEntity
  8
0
  6
Continuous
 62
     2
100
AcDbCircle
 10
91.61555259263304
 20
329.3784552985957
 30
0.0
 40
1.639695123939395
100
AcDbArc
 50
195.0618917770906
 51
275.1581447696395
  0
ARC
  5
1C4
102
{ACAD_REACTORS
330
21B
330
21C
102
}
330
71
100
AcDbEntity
  8
0
  6
Continuous
 62
     2
100
AcDbCircle
 10
91.19642474917023
 20
329.2656649365609
 30
0.0
 40
1.205656168390944
100
AcDbArc
 50
164.9381082228765
 51
195.0618917770948
  0
ARC
  5
1C5
102
{ACAD_REACTORS
330
21B
330
21C
102
}
330
71
100
AcDbEntity
  8
0
  6
Continuous
 62
     2
100
AcDbCircle
 10
91.61555259263304
 20
329.152874574526
 30
0.0
 40
1.639695123940507
100
AcDbArc
 50
84.84185523036236
 51
164.9381082228864
  0
ARC
  5
1C6
102
{ACAD_REACTORS
330
21F
330
220
102
}
330
71
100
AcDbEntity
  8
0
  6
Continuous
 62
     2
100
AcDbCircle
 10
86.78553833847113
 20
330.2994917309152
 30
0.0
 40
0.3157169230766355
100
AcDbArc
 50
115.374008678343
 51
180.0
  0
ARC
  5
1C7
102
{ACAD_REACTORS
330
21F
330
220
102
}
330
71
100
AcDbEntity
  8
0
  6
Continuous
 62
     2
100
AcDbCircle
 10
86.78553833847113
 20
332.5177749308514
 30
0.0
 40
0.315716923076792
100
AcDbArc
 50
180.0
 51
244.6259913216437
  0
ARC
  5
1C8
102
{ACAD_REACTORS
330
21F
330
220
102
}
330
71
100
AcDbEntity
  8
0
  6
Continuous
 62
     2
100
AcDbCircle
 10
86.79115447378115
 20
331.4204752717891
 30
0.0
 40
2.018561131933266
100
AcDbArc
 50
269.8110329575858
 51
90.18896704241416
  0
ARC
  5
1C9
102
{ACAD_REACTORS
330
21F
330
220
102
}
330
71
100
AcDbEntity
  8
0
  6
Continuous
 62
     2
100
AcDbCircle
 10
86.78553833847113
 20
329.7176403242202
 30
0.0
 40
0.315716923076792
100
AcDbArc
 50
180.0
 51
269.8110329574542
  0
ARC
  5
1CA
102
{ACAD_REACTORS
330
21D
330
21E
102
}
330
71
100
AcDbEntity
  8
0
  6
Continuous
 62
     2
100
AcDbCircle
 10
107.8489985532017
 20
329.4707363658999
 30
0.0
 40
0.5115800601944096
100
AcDbArc
 50
109.3371432194838
 51
151.4785267424189
  0
ARC
  5
1CB
102
{ACAD_REACTORS
330
21D
330
21E
102
}
330
71
100
AcDbEntity
  8
0
  6
Continuous
 62
     2
100
AcDbCircle
 10
107.8489985532017
 20
329.0605935072224
 30
0.0
 40
0.5115800601960091
100
AcDbArc
 50
208.5214732576873
 51
246.6277221118464
  0
ARC
  5
1CC
102
{ACAD_REACTORS
330
21D
330
21E
102
}
330
71
100
AcDbEntity
  8
0
  6
Continuous
 62
     2
100
AcDbCircle
 10
107.2991262284243
 20
329.2656649365609
 30
0.0
 40
1.205656168392989
100
AcDbArc
 50
164.9381082229026
 51
195.0618917770948
  0
ARC
  5
1CD
102
{ACAD_REACTORS
330
21D
330
21E
102
}
330
71
100
AcDbEntity
  8
0
  6
Continuous
 62
     2
100
AcDbCircle
 10
107.718254071886
 20
329.152874574526
 30
0.0
 40
1.639695123940214
100
AcDbArc
 50
90.0
 51
164.9381082228956
  0
ARC
  5
1CE
102
{ACAD_REACTORS
330
221
330
222
102
}
330
71
100
AcDbEntity
  8
0
  6
Continuous
 62
     2
100
AcDbCircle
 10
98.29125897918223
 20
332.6248554127352
 30
0.0
 40
1.526904761905882
100
AcDbArc
 50
90.0
 51
270.0
  0
ARC
  5
1CF
102
{ACAD_REACTORS
330
225
330
226
102
}
330
71
100
AcDbEntity
  8
0
  6
Continuous
 62
     2
100
AcDbCircle
 10
91.54856823395644
 20
333.13579050453
 30
0.0
 40
0.3528638246712035
100
AcDbArc
 50
270.0
 51
90.0
  0
ARC
  5
1D0
102
{ACAD_REACTORS
330
21F
330
220
102
}
330
71
100
AcDbEntity
  8
0
  6
Continuous
 62
     2
100
AcDbCircle
 10
84.20998965193942
 20
333.1234876960064
 30
0.0
 40
0.3157169230760815
100
AcDbArc
 50
90.0
 51
180.0
  0
ARC
  5
1D1
102
{ACAD_REACTORS
330
21F
330
220
102
}
330
71
100
AcDbEntity
  8
0
  6
Continuous
 62
     2
100
AcDbCircle
 10
86.20840736052403
 20
331.4086333308836
 30
0.0
 40
0.9118975235575889
100
AcDbArc
 50
115.194410648529
 51
244.8055893514878
  0
ARC
  5
1D2
102
{ACAD_REACTORS
330
21F
330
220
102
}
330
71
100
AcDbEntity
  8
0
  6
Continuous
 62
     2
100
AcDbCircle
 10
85.68582291294905
 20
330.2978035848208
 30
0.0
 40
0.315716923076593
100
AcDbArc
 50
0.0
 51
64.80558935146027
  0
ARC
  5
1D3
102
{ACAD_REACTORS
330
21F
330
220
102
}
330
71
100
AcDbEntity
  8
0
  6
Continuous
 62
     2
100
AcDbCircle
 10
83.61609497519294
 20
328.1630047900389
 30
0.0
 40
0.4242446153828041
100
AcDbArc
 50
180.0
 51
270.0
  0
ARC
  5
1D4
102
{ACAD_REACTORS
330
221
330
222
102
}
330
71
100
AcDbEntity
  8
0
  6
Continuous
 62
     2
100
AcDbCircle
 10
98.50753098934743
 20
332.7815865908557
 30
0.0
 40
0.5179085730135266
100
AcDbArc
 50
38.12041979714334
 51
141.8795802028489
  0
ARC
  5
1D5
102
{ACAD_REACTORS
330
221
330
222
102
}
330
71
100
AcDbEntity
  8
0
  6
Continuous
 62
     2
100
AcDbCircle
 10
98.70727102569373
 20
332.6248554127352
 30
0.0
 40
0.7717997786796724
100
AcDbArc
 50
141.8795802028404
 51
218.1204197971562
  0
ARC
  5
1D6
102
{ACAD_REACTORS
330
223
330
224
102
}
330
71
100
AcDbEntity
  8
0
  6
Continuous
 62
     2
100
AcDbCircle
 10
94.54658350855394
 20
329.8042399468642
 30
0.0
 40
2.065479772208483
100
AcDbArc
 50
242.4518518243399
 51
297.5481481756875
  0
ARC
  5
1D7
102
{ACAD_REACTORS
330
223
330
224
102
}
330
71
100
AcDbEntity
  8
0
  6
Continuous
 62
     2
100
AcDbCircle
 10
94.54658350855394
 20
328.7270899262582
 30
0.0
 40
2.065479772208492
100
AcDbArc
 50
62.45185182430527
 51
117.5481481756675
  0
ARC
  5
1D8
102
{ACAD_REACTORS
330
223
330
224
102
}
330
71
100
AcDbEntity
  8
0
  6
Continuous
 62
     2
100
AcDbCircle
 10
94.26564361672064
 20
329.2656649365609
 30
0.0
 40
1.458034083651515
100
AcDbArc
 50
117.5481481756619
 51
242.451851824337
  0
ARC
  5
1D9
102
{ACAD_REACTORS
330
223
330
224
102
}
330
71
100
AcDbEntity
  8
0
  6
Continuous
 62
     2
100
AcDbCircle
 10
94.82752340038724
 20
329.2656649365609
 30
0.0
 40
1.458034083651977
100
AcDbArc
 50
297.5481481757016
 51
62.45185182429947
  0
ARC
  5
1DA
102
{ACAD_REACTORS
330
221
330
222
102
}
330
71
100
AcDbEntity
  8
0
  6
Continuous
 62
     2
100
AcDbCircle
 10
98.50753098934743
 20
332.4681242346148
 30
0.0
 40
0.5179085730134372
100
AcDbArc
 50
218.1204197971511
 51
321.8795802028566
  0
ARC
  5
1DB
102
{ACAD_REACTORS
330
221
330
222
102
}
330
71
100
AcDbEntity
  8
0
  6
Continuous
 62
     2
100
AcDbCircle
 10
98.30779095300124
 20
332.6248554127352
 30
0.0
 40
0.7717997786796373
100
AcDbArc
 50
321.8795802028437
 51
38.12041979715956
  0
ARC
  5
1DC
102
{ACAD_REACTORS
330
21F
330
220
102
}
330
71
100
AcDbEntity
  8
0
  6
Continuous
 62
     2
100
AcDbCircle
 10
89.08940706590974
 20
328.1630047900389
 30
0.0
 40
0.4242446153832589
100
AcDbArc
 50
270.0
 51
0.0
  0
ARC
  5
1DD
102
{ACAD_REACTORS
330
21F
330
220
102
}
330
71
100
AcDbEntity
  8
0
  6
Continuous
 62
     2
100
AcDbCircle
 10
89.08940706590974
 20
333.7275155592391
 30
0.0
 40
0.4242446153838841
100
AcDbArc
 50
0.0
 51
90.0
  0
ARC
  5
1DE
102
{ACAD_REACTORS
330
21F
330
220
102
}
330
71
100
AcDbEntity
  8
0
  6
Continuous
 62
     2
100
AcDbCircle
 10
83.61609497519294
 20
333.7275155592391
 30
0.0
 40
0.4242446153838841
100
AcDbArc
 50
90.0
 51
180.0
  0
ARC
  5
1DF
102
{ACAD_REACTORS
330
21F
330
220
102
}
330
71
100
AcDbEntity
  8
0
  6
Continuous
 62
     2
100
AcDbCircle
 10
85.68582291294905
 20
328.7670326532892
 30
0.0
 40
0.3157169230767067
100
AcDbArc
 50
270.0
 51
0.0
  0
ARC
  5
1E0
102
{ACAD_REACTORS
330
21F
330
220
102
}
330
71
100
AcDbEntity
  8
0
  6
Continuous
 62
     2
100
AcDbCircle
 10
85.68582291294905
 20
332.5194630769458
 30
0.0
 40
0.3157169230761203
100
AcDbArc
 50
295.1944106485397
 51
0.0
  0
ARC
  5
1E1
102
{ACAD_REACTORS
330
21F
330
220
102
}
330
71
100
AcDbEntity
  8
0
  6
Continuous
 62
     2
100
AcDbCircle
 10
85.68582291294905
 20
333.1234876960064
 30
0.0
 40
0.315716923076593
100
AcDbArc
 50
0.0
 51
90.0
  0
ARC
  5
1E2
102
{ACAD_REACTORS
330
21F
330
220
102
}
330
71
100
AcDbEntity
  8
0
  6
Continuous
 62
     2
100
AcDbCircle
 10
84.20998965193942
 20
328.7670326532892
 30
0.0
 40
0.3157169230756836
100
AcDbArc
 50
180.0
 51
270.0
  0
ARC
  5
1E3
102
{ACAD_REACTORS
330
225
330
226
102
}
330
71
100
AcDbEntity
  8
0
  6
Continuous
 62
     2
100
AcDbCircle
 10
91.99004076019483
 20
333.0963945333074
 30
0.0
 40
1.055365641333651
100
AcDbArc
 50
270.0
 51
90.0
  0
ARC
  5
1E4
102
{ACAD_REACTORS
330
21D
330
21E
102
}
330
71
100
AcDbEntity
  8
0
  6
Continuous
 62
     2
100
AcDbCircle
 10
107.718254071886
 20
329.3784552985957
 30
0.0
 40
1.639695123940517
100
AcDbArc
 50
195.0618917771006
 51
275.1581447696767
  0
ARC
  5
1E5
102
{ACAD_REACTORS
330
21D
330
21E
102
}
330
71
100
AcDbEntity
  8
0
  6
Continuous
 62
     2
100
AcDbCircle
 10
107.4293979771501
 20
332.5783458818173
 30
0.0
 40
4.852596863498833
100
AcDbArc
 50
275.1581447696374
 51
285.9799912583394
  0
ARC
  5
1E6
102
{ACAD_REACTORS
330
21D
330
21E
102
}
330
71
100
AcDbEntity
  8
0
  6
Continuous
 62
     2
100
AcDbCircle
 10
107.5872708522429
 20
330.676131301969
 30
0.0
 40
2.227384008972665
100
AcDbArc
 50
288.4480761181342
 51
301.9309089499428
  0
ARC
  5
1E7
102
{ACAD_REACTORS
330
21D
330
21E
102
}
330
71
100
AcDbEntity
  8
0
  6
Continuous
 62
     2
100
AcDbCircle
 10
108.0054385859048
 20
329.4225855259324
 30
0.0
 40
0.9059297849852744
100
AcDbArc
 50
246.6277221118191
 51
288.448076118084
  0
ARC
  5
1E8
102
{ACAD_REACTORS
330
21D
330
21E
102
}
330
71
100
AcDbEntity
  8
0
  6
Continuous
 62
     2
100
AcDbCircle
 10
108.2263558112831
 20
329.2656649365609
 30
0.0
 40
0.941059735334906
100
AcDbArc
 50
151.4785267423609
 51
208.5214732576695
  0
ARC
  5
1E9
102
{ACAD_REACTORS
330
21D
330
21E
102
}
330
71
100
AcDbEntity
  8
0
  6
Continuous
 62
     2
100
AcDbCircle
 10
107.9956685513054
 20
329.0527813855171
 30
0.0
 40
0.9545230068259798
100
AcDbArc
 50
90.0
 51
109.3371432194335
  0
ARC
  5
1EA
102
{ACAD_REACTORS
330
21F
330
220
102
}
330
71
100
AcDbEntity
  8
0
  6
Continuous
 62
     2
100
AcDbCircle
 10
86.78553833847113
 20
333.1233102193583
 30
0.0
 40
0.3157169230759573
100
AcDbArc
 50
90.188967042546
 51
180.0
  0
ARC
  5
1EB
102
{ACAD_REACTORS
330
21F
330
220
102
}
330
71
100
AcDbEntity
  8
0
  6
Continuous
 62
     2
100
AcDbCircle
 10
86.25949564038325
 20
331.4086333308836
 30
0.0
 40
0.9118481501443819
100
AcDbArc
 50
295.3740086781787
 51
64.62599132180748
  0
ARC
  5
1EC
102
{ACAD_REACTORS
330
21B
330
21C
102
}
330
71
100
AcDbEntity
  8
0
  6
Continuous
 62
     2
100
AcDbCircle
 10
91.48456937299005
 20
330.6761313019696
 30
0.0
 40
2.22738400897271
100
AcDbArc
 50
288.448076118133
 51
301.9309089499596
  0
ARC
  5
1ED
102
{ACAD_REACTORS
330
21B
330
21C
102
}
330
71
100
AcDbEntity
  8
0
  6
Continuous
 62
     2
100
AcDbCircle
 10
91.90273710665085
 20
329.4225855259324
 30
0.0
 40
0.9059297849849192
100
AcDbArc
 50
246.627722111871
 51
288.448076118159
  0
ARC
  5
1EE
102
{ACAD_REACTORS
330
21B
330
21C
102
}
330
71
100
AcDbEntity
  8
0
  6
Continuous
 62
     2
100
AcDbCircle
 10
91.74629707394882
 20
329.0605935072224
 30
0.0
 40
0.5115800601948034
100
AcDbArc
 50
208.5214732576956
 51
246.6277221118274
  0
ARC
  5
1EF
102
{ACAD_REACTORS
330
21B
330
21C
102
}
330
71
100
AcDbEntity
  8
0
  6
Continuous
 62
     2
100
AcDbCircle
 10
91.90273710665085
 20
329.1087443471893
 30
0.0
 40
0.9059297849853228
100
AcDbArc
 50
71.55192388185348
 51
113.372277888129
  0
ARC
  5
1F0
102
{ACAD_REACTORS
330
21B
330
21C
102
}
330
71
100
AcDbEntity
  8
0
  6
Continuous
 62
     2
100
AcDbCircle
 10
91.32669649789713
 20
325.952983991305
 30
0.0
 40
4.85259686349804
100
AcDbArc
 50
74.02000874164729
 51
84.84185523037502
  0
CIRCLE
  5
1F1
102
{ACAD_REACTORS
330
21F
330
220
102
}
330
71
100
AcDbEntity
  8
0
  6
Continuous
 62
     2
100
AcDbCircle
 10
86.23568062571044
 20
331.4086333308836
 30
0.0
 40
0.4709789327785074
  0
CIRCLE
  5
1F2
330
71
100
AcDbEntity
  8
1
  6
Continuous
 62
     2
100
AcDbCircle
 10
91.69185035981013
 20
341.5702601746392
 30
0.0
 40
1.249999999999915
  0
CIRCLE
  5
1F3
330
71
100
AcDbEntity
  8
1
  6
Continuous
 62
     2
100
AcDbCircle
 10
91.69185035981013
 20
341.5702601746392
 30
0.0
 40
2.5
  0
TEXT
  5
1F4
330
71
100
AcDbEntity
  8
1
 62
     7
100
AcDbText
 10
134.3287431952613
 20
338.7452601746392
 30
0.0
 40
2.5
  1
/
 41
0.9
  7
CONVERTER_11
100
AcDbText
  0
TEXT
  5
1F6
330
71
100
AcDbEntity
  8
1
 62
     7
100
AcDbText
 10
136.4851076923033
 20
338.7452601746392
 30
0.0
 40
2.5
  1
01
 41
0.81
  7
CONVERTER_12
100
AcDbText
  0
TEXT
  5
1F7
330
71
100
AcDbEntity
  8
1
 62
     3
100
AcDbText
 10
174.0815917183204
 20
338.7452601746392
 30
0.0
 40
2.5
  1
14.12.2017
 41
0.81
  7
CONVERTER_12
100
AcDbText
  0
MTEXT
  5
1F8
330
71
100
AcDbEntity
  8
1
 62
     2
100
AcDbMText
 10
174.0815917183204
 20
344.9452601746392
 30
0.0
 40
1.8
 41
0.0
 71
     1
 72
     1
  1
date
  7
CONVERTER_11
 73
     1
 44
1.32052821128451
  0
MTEXT
  5
1F9
330
71
100
AcDbEntity
  8
1
 62
     2
100
AcDbMText
 10
144.2551954732475
 20
336.4452601746392
 30
0.0
 40
1.8
 41
0.0
 71
     1
 72
     1
  1
document-type
  7
CONVERTER_11
 73
     1
 44
1.20048019207683
  0
TEXT
  5
1FA
330
71
100
AcDbEntity
  8
1
 62
     3
100
AcDbText
 10
144.2551954732475
 20
330.2452601746392
 30
0.0
 40
2.5
  1
TECDOC 2D_Productdrawing
 41
0.81
  7
CONVERTER_12
100
AcDbText
  0
MTEXT
  5
1FC
330
71
100
AcDbEntity
  8
1
 62
     2
100
AcDbMText
 10
116.4551954732475
 20
344.9452601746393
 30
0.0
 40
1.8
 41
0.0
 71
     1
 72
     1
  1
document-No. / RI
  7
CONVERTER_13
 73
     1
 44
1.32052821128451
  0
TEXT
  5
1FD
330
71
100
AcDbEntity
  8
1
 62
     7
100
AcDbText
 10
116.4551954732475
 20
338.7452601746392
 30
0.0
 40
2.5
  1
00345950
 41
0.81
  7
CONVERTER_12
100
AcDbText
  0
MTEXT
  5
1FF
330
71
100
AcDbEntity
  8
1
 62
     3
100
AcDbMText
 10
204.0407958591599
 20
338.7452601746394
 30
0.0
 40
2.5
 41
0.0
 71
     8
 72
     1
  1
1:1
  7
CONVERTER_14
 73
     1
 44
1.32052821128451
  0
MTEXT
  5
200
330
71
100
AcDbEntity
  8
1
 62
     2
100
AcDbMText
 10
200.6815917183203
 20
344.9452601746393
 30
0.0
 40
1.8
 41
0.0
 71
     1
 72
     1
  1
scale
  7
CONVERTER_11
 73
     1
 44
1.20048019207683
  0
MTEXT
  5
201
330
71
100
AcDbEntity
  8
1
 62
     2
100
AcDbMText
 10
116.4551954732475
 20
336.4452601746393
 30
0.0
 40
1.8
 41
0.0
 71
     1
 72
     1
  1
ident.-No.
  7
CONVERTER_11
 73
     1
 44
1.20048019207683
  0
TEXT
  5
202
330
71
100
AcDbEntity
  8
1
 62
     7
100
AcDbText
 10
116.8551954732473
 20
330.2452601746392
 30
0.0
 40
2.5
  1
0790514
 41
0.81
  7
CONVERTER_12
100
AcDbText
  0
MTEXT
  5
203
330
71
100
AcDbEntity
  8
1
 62
     2
100
AcDbMText
 10
44.51718074820002
 20
333.1952601746392
 30
0.0
 40
2.0
 41
0.0
 71
     5
 72
     1
  1
General Information\P- Simplified representation\P- Document excluded from change process\P- Linear dimensions [mm]
  7
CONVERTER_11
 73
     1
 44
1.20048019207683
  0
MTEXT
  5
204
330
71
100
AcDbEntity
  8
1
 62
     7
100
AcDbMText
 10
210.9999999999965
 20
395.4452601746413
 30
0.0
 40
3.5
 41
0.0
 71
     5
 72
     1
  1
C
  7
CONVERTER_11
 73
     1
 44
1.20048019207683
  0
MTEXT
  5
205
330
71
100
AcDbEntity
  8
1
 62
     7
100
AcDbMText
 10
210.9999999999965
 20
497.9452601746393
 30
0.0
 40
3.5
 41
0.0
 71
     5
 72
     1
  1
A
  7
CONVERTER_11
 73
     1
 44
1.20048019207683
  0
MTEXT
  5
206
330
71
100
AcDbEntity
  8
1
 62
     7
100
AcDbMText
 10
210.9999999999965
 20
445.4452601746413
 30
0.0
 40
3.5
 41
0.0
 71
     5
 72
     1
  1
B
  7
CONVERTER_11
 73
     1
 44
1.20048019207683
  0
MTEXT
  5
207
330
71
100
AcDbEntity
  8
1
 62
     7
100
AcDbMText
 10
210.9999999999965
 20
342.9452601746393
 30
0.0
 40
3.5
 41
0.0
 71
     5
 72
     1
  1
D
  7
CONVERTER_11
 73
     1
 44
1.20048019207683
  0
MTEXT
  5
208
330
71
100
AcDbEntity
  8
1
 62
     7
100
AcDbMText
 10
-59.25000000000205
 20
317.9452601746392
 30
0.0
 40
3.5
 41
0.0
 71
     5
 72
     1
  1
1
  7
CONVERTER_11
 73
     1
 44
1.20048019207683
  0
MTEXT
  5
209
330
71
100
AcDbEntity
  8
1
 62
     7
100
AcDbMText
 10
-10.00000000000244
 20
317.9452601746392
 30
0.0
 40
3.5
 41
0.0
 71
     5
 72
     1
  1
2
  7
CONVERTER_11
 73
     1
 44
1.20048019207683
  0
MTEXT
  5
20A
330
71
100
AcDbEntity
  8
1
 62
     7
100
AcDbMText
 10
39.99999999999756
 20
317.9452601746392
 30
0.0
 40
3.5
 41
0.0
 71
     5
 72
     1
  1
3
  7
CONVERTER_11
 73
     1
 44
1.20048019207683
  0
MTEXT
  5
20B
330
71
100
AcDbEntity
  8
1
 62
     7
100
AcDbMText
 10
89.99999999999744
 20
317.9452601746392
 30
0.0
 40
3.5
 41
0.0
 71
     5
 72
     1
  1
4
  7
CONVERTER_11
 73
     1
 44
1.20048019207683
  0
MTEXT
  5
20C
330
71
100
AcDbEntity
  8
1
 62
     7
100
AcDbMText
 10
139.9999999999975
 20
317.9452601746392
 30
0.0
 40
3.5
 41
0.0
 71
     5
 72
     1
  1
5
  7
CONVERTER_11
 73
     1
 44
1.20048019207683
  0
MTEXT
  5
20D
330
71
100
AcDbEntity
  8
1
 62
     7
100
AcDbMText
 10
189.2499999999967
 20
317.9452601746392
 30
0.0
 40
3.5
 41
0.0
 71
     5
 72
     1
  1
6
  7
CONVERTER_11
 73
     1
 44
1.20048019207683
  0
MTEXT
  5
20E
330
71
100
AcDbEntity
  8
1
 62
     7
100
AcDbMText
 10
-81.00000000000153
 20
497.9452601746393
 30
0.0
 40
3.5
 41
0.0
 71
     5
 72
     1
  1
A
  7
CONVERTER_11
 73
     1
 44
1.20048019207683
  0
MTEXT
  5
20F
330
71
100
AcDbEntity
  8
1
 62
     7
100
AcDbMText
 10
-81.00000000000153
 20
445.4452601746393
 30
0.0
 40
3.5
 41
0.0
 71
     5
 72
     1
  1
B
  7
CONVERTER_11
 73
     1
 44
1.20048019207683
  0
MTEXT
  5
210
330
71
100
AcDbEntity
  8
1
 62
     7
100
AcDbMText
 10
-81.00000000000153
 20
395.4452601746393
 30
0.0
 40
3.5
 41
0.0
 71
     5
 72
     1
  1
C
  7
CONVERTER_11
 73
     1
 44
1.20048019207683
  0
MTEXT
  5
211
330
71
100
AcDbEntity
  8
1
 62
     7
100
AcDbMText
 10
-81.00000000000153
 20
342.9452601746393
 30
0.0
 40
3.5
 41
0.0
 71
     5
 72
     1
  1
D
  7
CONVERTER_11
 73
     1
 44
1.20048019207683
  0
MTEXT
  5
212
330
71
100
AcDbEntity
  8
1
 62
     3
100
AcDbMText
 10
105.1551954732474
 20
341.5702601746393
 30
0.0
 40
2.5
 41
0.0
 71
     5
 72
     1
  1
DIN A4
  7
CONVERTER_11
 73
     1
 44
1.20048019207683
  0
MTEXT
  5
213
330
71
100
AcDbEntity
  8
1
 62
     2
100
AcDbMText
 10
116.3551954732475
 20
327.9452601746393
 30
0.0
 40
1.8
 41
0.0
 71
     1
 72
     1
  1
description
  7
CONVERTER_11
 73
     1
 44
1.20048019207683
  0
MTEXT
  5
214
330
71
100
AcDbEntity
  8
1
 62
     7
100
AcDbMText
 10
161.927597736623
 20
323.6952601746395
 30
0.0
 40
3.0
 41
0.0
 71
     5
 72
     1
  1
D-OTTA 25
  7
CONVERTER_12
 73
     1
 44
1.20048019207683
  0
TEXT
  5
215
330
71
100
AcDbEntity
  8
1
 62
     2
100
AcDbText
 10
103.390504283061
 20
321.6952601746392
 30
0.0
 40
1.8
  1
1
 41
0.9
  7
CONVERTER_11
100
AcDbText
  0
TEXT
  5
216
330
71
100
AcDbEntity
  8
1
 62
     2
100
AcDbText
 10
88.60146044358953
 20
321.6460115208373
 30
0.0
 40
1.8
  1
1
 41
0.9
  7
CONVERTER_11
100
AcDbText
  0
TEXT
  5
217
330
71
100
AcDbEntity
  8
1
 62
     2
100
AcDbText
 10
79.95519547324753
 20
321.6862429596476
 30
0.0
 40
1.8
  1
page
 41
0.9
  7
CONVERTER_11
100
AcDbText
  0
TEXT
  5
218
330
71
100
AcDbEntity
  8
1
 62
     2
100
AcDbText
 10
98.15519547324735
 20
321.6862429596477
 30
0.0
 40
1.8
  1
of
 41
0.9
  7
CONVERTER_11
100
AcDbText
  0
MTEXT
  5
219
330
71
100
AcDbEntity
  8
1
 62
     3
100
AcDbMText
 10
104.3581776248574
 20
507.2365683299381
 30
0.0
 40
1.8
 41
0.0
 71
     7
 72
     1
  3
Transfer or duplication of this document as well as the utilisation or\Pcommunication of its content are not permitted unless express consent\Pis granted. Violations give rise to claims for damages. All rights reserved\Pin case of patent, utility mo
  1
del or design patent registrations.
  7
CONVERTER_11
 73
     1
 44
0.99639855942377
  0
MTEXT
  5
21A
330
71
100
AcDbEntity
  8
1
 62
     3
100
AcDbMText
 10
-78.49493221393067
 20
507.2365683299381
 30
0.0
 40
1.8
 41
0.0
 71
     7
 72
     1
  3
Weitergabe sowie Vervielf\U+00e4ltigung dieses Dokuments, Verwertung und \PMitteilung seines Inhalts sind verboten, soweit nicht ausdr\U+00fccklich gestattet. \PZuwiderhandlungen verpflichten zu Schadenersatz. Alle Rechte f\U+00fcr den Fall\Pder Pat
  1
ent-, Gebrauchsmuster- oder Designeintragung vorbehalten.
  7
CONVERTER_11
 73
     1
 44
0.99639855942377
  0
HATCH
  5
21B
330
71
100
AcDbEntity
  8
1
  6
Continuous
 62
     2
100
AcDbHatch
 10
0.0
 20
0.0
 30
0.0
210
0.0
220
0.0
230
1.0
  2
_USER
 70
     0
 71
     1
 91
        1
 92
        1
 93
       14
 72
     2
 10
91.19642474917023
 20
329.2656649365609
 40
1.205656168390944
 50
164.9381082228765
 51
195.0618917770948
 73
     1
 72
     2
 10
91.61555259263304
 20
329.3784552985957
 40
1.639695123939395
 50
195.0618917770906
 51
275.1581447696395
 73
     1
 72
     2
 10
91.32669649789713
 20
332.5783458818173
 40
4.852596863498166
 50
275.1581447696249
 51
285.9799912583529
 73
     1
 72
     1
 10
92.66262441501493
 20
327.9132635760165
 11
92.66262441501493
 21
328.7857805828197
 72
     2
 10
91.48456937299005
 20
330.6761313019696
 40
2.22738400897271
 50
58.06909105004036
 51
71.55192388186698
 73
     0
 72
     2
 10
91.90273710665085
 20
329.4225855259324
 40
0.9059297849849192
 50
71.55192388184098
 51
113.372277888129
 73
     0
 72
     2
 10
91.74629707394882
 20
329.0605935072224
 40
0.5115800601948034
 50
113.3722778881726
 51
151.4785267423044
 73
     0
 72
     2
 10
92.12365433202913
 20
329.2656649365609
 40
0.9410597353332545
 50
151.4785267422943
 51
208.5214732577331
 73
     0
 72
     2
 10
91.74629707394882
 20
329.4707363658999
 40
0.511580060194904
 50
208.5214732576956
 51
246.6277221118021
 73
     0
 72
     2
 10
91.90273710665085
 20
329.1087443471893
 40
0.9059297849853228
 50
246.627722111871
 51
288.4480761181465
 73
     0
 72
     2
 10
91.48456937299005
 20
327.8551985711528
 40
2.227384008973405
 50
288.4480761181335
 51
301.9309089499604
 73
     0
 72
     1
 10
92.66262441501493
 20
329.7455492903026
 11
92.66262441501493
 21
330.6180662971059
 72
     2
 10
91.32669649789713
 20
325.952983991305
 40
4.85259686349804
 50
74.02000874164729
 51
84.84185523037502
 73
     1
 72
     2
 10
91.61555259263304
 20
329.152874574526
 40
1.639695123940507
 50
84.84185523036236
 51
164.9381082228864
 73
     1
 97
       14
330
1F0
330
109
330
1BF
330
1EF
330
1C0
330
1C1
330
1EE
330
1ED
330
1EC
330
10A
330
1C2
330
1C3
330
1C4
330
1C5
 75
     1
 76
     0
 52
45.0
 41
0.1
 77
     0
 78
     1
 53
45.0
 43
0.0
 44
0.0
 45
-0.0707106781186548
 46
0.0707106781186548
 79
     0
 98
        1
 10
0.0
 20
0.0
  0
HATCH
  5
21C
330
71
100
AcDbEntity
  8
1
  6
Continuous
 62
     2
100
AcDbHatch
 10
0.0
 20
0.0
 30
0.0
210
0.0
220
0.0
230
1.0
  2
_USER
 70
     0
 71
     1
 91
        1
 92
        1
 93
       14
 72
     2
 10
91.19642474917023
 20
329.2656649365609
 40
1.205656168390944
 50
164.9381082228765
 51
195.0618917770948
 73
     1
 72
     2
 10
91.61555259263304
 20
329.3784552985957
 40
1.639695123939395
 50
195.0618917770906
 51
275.1581447696395
 73
     1
 72
     2
 10
91.32669649789713
 20
332.5783458818173
 40
4.852596863498166
 50
275.1581447696249
 51
285.9799912583529
 73
     1
 72
     1
 10
92.66262441501493
 20
327.9132635760165
 11
92.66262441501493
 21
328.7857805828197
 72
     2
 10
91.48456937299005
 20
330.6761313019696
 40
2.22738400897271
 50
58.06909105004036
 51
71.55192388186698
 73
     0
 72
     2
 10
91.90273710665085
 20
329.4225855259324
 40
0.9059297849849192
 50
71.55192388184098
 51
113.372277888129
 73
     0
 72
     2
 10
91.74629707394882
 20
329.0605935072224
 40
0.5115800601948034
 50
113.3722778881726
 51
151.4785267423044
 73
     0
 72
     2
 10
92.12365433202913
 20
329.2656649365609
 40
0.9410597353332545
 50
151.4785267422943
 51
208.5214732577331
 73
     0
 72
     2
 10
91.74629707394882
 20
329.4707363658999
 40
0.511580060194904
 50
208.5214732576956
 51
246.6277221118021
 73
     0
 72
     2
 10
91.90273710665085
 20
329.1087443471893
 40
0.9059297849853228
 50
246.627722111871
 51
288.4480761181465
 73
     0
 72
     2
 10
91.48456937299005
 20
327.8551985711528
 40
2.227384008973405
 50
288.4480761181335
 51
301.9309089499604
 73
     0
 72
     1
 10
92.66262441501493
 20
329.7455492903026
 11
92.66262441501493
 21
330.6180662971059
 72
     2
 10
91.32669649789713
 20
325.952983991305
 40
4.85259686349804
 50
74.02000874164729
 51
84.84185523037502
 73
     1
 72
     2
 10
91.61555259263304
 20
329.152874574526
 40
1.639695123940507
 50
84.84185523036236
 51
164.9381082228864
 73
     1
 97
       14
330
1F0
330
109
330
1BF
330
1EF
330
1C0
330
1C1
330
1EE
330
1ED
330
1EC
330
10A
330
1C2
330
1C3
330
1C4
330
1C5
 75
     1
 76
     0
 52
45.0
 41
0.1
 77
     0
 78
     1
 53
45.0
 43
0.0
 44
0.0
 45
-0.0707106781186548
 46
0.0707106781186548
 79
     0
 98
        1
 10
0.0
 20
0.0
  0
HATCH
  5
21D
330
71
100
AcDbEntity
  8
1
  6
Continuous
 62
     2
100
AcDbHatch
 10
0.0
 20
0.0
 30
0.0
210
0.0
220
0.0
230
1.0
  2
_USER
 70
     0
 71
     1
 91
        1
 92
        1
 93
       18
 72
     2
 10
107.718254071886
 20
329.152874574526
 40
1.639695123940214
 50
90.0
 51
164.9381082228956
 73
     1
 72
     2
 10
107.2991262284243
 20
329.2656649365609
 40
1.205656168392989
 50
164.9381082229026
 51
195.0618917770948
 73
     1
 72
     2
 10
107.718254071886
 20
329.3784552985957
 40
1.639695123940517
 50
195.0618917771006
 51
275.1581447696767
 73
     1
 72
     2
 10
107.4293979771501
 20
332.5783458818173
 40
4.852596863498833
 50
275.1581447696374
 51
285.9799912583394
 73
     1
 72
     1
 10
108.7653258942669
 20
327.9132635760159
 11
108.7653258942669
 21
328.7857805828193
 72
     2
 10
107.5872708522429
 20
330.676131301969
 40
2.227384008972665
 50
58.06909105005724
 51
71.5519238818658
 73
     0
 72
     2
 10
108.0054385859048
 20
329.4225855259324
 40
0.9059297849852744
 50
71.55192388191598
 51
113.3722778881809
 73
     0
 72
     2
 10
107.8489985532017
 20
329.0605935072224
 40
0.5115800601960091
 50
113.3722778881536
 51
151.4785267423126
 73
     0
 72
     2
 10
108.2263558112831
 20
329.2656649365609
 40
0.941059735334906
 50
151.4785267423305
 51
208.5214732576391
 73
     0
 72
     2
 10
107.8489985532017
 20
329.4707363658999
 40
0.5115800601944096
 50
208.5214732575811
 51
250.6628567805162
 73
     0
 72
     2
 10
107.9956685513054
 20
329.0527813855171
 40
0.9545230068259798
 50
250.6628567805665
 51
270.0
 73
     0
 72
     1
 10
107.9956685513054
 20
330.0073043923431
 11
109.0993078508735
 21
330.0073043923431
 72
     1
 10
109.0993078508735
 20
330.0073043923431
 11
109.0993078508735
 21
327.7387601746556
 72
     1
 10
109.0993078508735
 20
327.7387601746556
 11
110.2921005530413
 21
327.7387601746556
 72
     1
 10
110.2921005530413
 20
327.7387601746556
 11
110.2921005530413
 21
330.0073043923431
 72
     1
 10
110.2921005530413
 20
330.0073043923431
 11
111.1031995905146
 21
330.0073043923431
 72
     1
 10
111.1031995905146
 20
330.0073043923431
 11
111.1031995905146
 21
330.7925696984667
 72
     1
 10
111.1031995905146
 20
330.7925696984667
 11
107.718254071886
 21
330.7925696984662
 97
       18
330
16F
330
16E
330
16D
330
16C
330
171
330
10B
330
1E9
330
1CA
330
1E8
330
1CB
330
1E7
330
1E6
330
10C
330
1E5
330
1E4
330
1CC
330
1CD
330
170
 75
     1
 76
     0
 52
45.0
 41
0.1
 77
     0
 78
     1
 53
45.0
 43
0.0
 44
0.0
 45
-0.0707106781186548
 46
0.0707106781186548
 79
     0
 98
        1
 10
0.0
 20
0.0
  0
HATCH
  5
21E
330
71
100
AcDbEntity
  8
1
  6
Continuous
 62
     2
100
AcDbHatch
 10
0.0
 20
0.0
 30
0.0
210
0.0
220
0.0
230
1.0
  2
_USER
 70
     0
 71
     1
 91
        1
 92
        1
 93
       18
 72
     2
 10
107.718254071886
 20
329.152874574526
 40
1.639695123940214
 50
90.0
 51
164.9381082228956
 73
     1
 72
     2
 10
107.2991262284243
 20
329.2656649365609
 40
1.205656168392989
 50
164.9381082229026
 51
195.0618917770948
 73
     1
 72
     2
 10
107.718254071886
 20
329.3784552985957
 40
1.639695123940517
 50
195.0618917771006
 51
275.1581447696767
 73
     1
 72
     2
 10
107.4293979771501
 20
332.5783458818173
 40
4.852596863498833
 50
275.1581447696374
 51
285.9799912583394
 73
     1
 72
     1
 10
108.7653258942669
 20
327.9132635760159
 11
108.7653258942669
 21
328.7857805828193
 72
     2
 10
107.5872708522429
 20
330.676131301969
 40
2.227384008972665
 50
58.06909105005724
 51
71.5519238818658
 73
     0
 72
     2
 10
108.0054385859048
 20
329.4225855259324
 40
0.9059297849852744
 50
71.55192388191598
 51
113.3722778881809
 73
     0
 72
     2
 10
107.8489985532017
 20
329.0605935072224
 40
0.5115800601960091
 50
113.3722778881536
 51
151.4785267423126
 73
     0
 72
     2
 10
108.2263558112831
 20
329.2656649365609
 40
0.941059735334906
 50
151.4785267423305
 51
208.5214732576391
 73
     0
 72
     2
 10
107.8489985532017
 20
329.4707363658999
 40
0.5115800601944096
 50
208.5214732575811
 51
250.6628567805162
 73
     0
 72
     2
 10
107.9956685513054
 20
329.0527813855171
 40
0.9545230068259798
 50
250.6628567805665
 51
270.0
 73
     0
 72
     1
 10
107.9956685513054
 20
330.0073043923431
 11
109.0993078508735
 21
330.0073043923431
 72
     1
 10
109.0993078508735
 20
330.0073043923431
 11
109.0993078508735
 21
327.7387601746556
 72
     1
 10
109.0993078508735
 20
327.7387601746556
 11
110.2921005530413
 21
327.7387601746556
 72
     1
 10
110.2921005530413
 20
327.7387601746556
 11
110.2921005530413
 21
330.0073043923431
 72
     1
 10
110.2921005530413
 20
330.0073043923431
 11
111.1031995905146
 21
330.0073043923431
 72
     1
 10
111.1031995905146
 20
330.0073043923431
 11
111.1031995905146
 21
330.7925696984667
 72
     1
 10
111.1031995905146
 20
330.7925696984667
 11
107.718254071886
 21
330.7925696984662
 97
       18
330
16F
330
16E
330
16D
330
16C
330
171
330
10B
330
1E9
330
1CA
330
1E8
330
1CB
330
1E7
330
1E6
330
10C
330
1E5
330
1E4
330
1CC
330
1CD
330
170
 75
     1
 76
     0
 52
45.0
 41
0.1
 77
     0
 78
     1
 53
45.0
 43
0.0
 44
0.0
 45
-0.0707106781186548
 46
0.0707106781186548
 79
     0
 98
        1
 10
0.0
 20
0.0
  0
HATCH
  5
21F
330
71
100
AcDbEntity
  8
1
  6
Continuous
 62
     2
100
AcDbHatch
 10
0.0
 20
0.0
 30
0.0
210
0.0
220
0.0
230
1.0
  2
_USER
 70
     0
 71
     1
 91
        4
 92
        1
 93
        8
 72
     2
 10
83.61609497519294
 20
333.7275155592391
 40
0.4242446153838841
 50
90.0
 51
180.0
 73
     1
 72
     1
 10
83.19185035981013
 20
333.7275155592391
 11
83.19185035981013
 21
328.1630047900389
 72
     2
 10
83.61609497519294
 20
328.1630047900389
 40
0.4242446153828041
 50
180.0
 51
270.0
 73
     1
 72
     1
 10
83.61609497519294
 20
327.7387601746556
 11
89.08940706590974
 21
327.7387601746556
 72
     2
 10
89.08940706590974
 20
328.1630047900389
 40
0.4242446153832589
 50
270.0
 51
360.0
 73
     1
 72
     1
 10
89.51365168129362
 20
328.1630047900389
 11
89.51365168129362
 21
333.7275155592391
 72
     2
 10
89.08940706590974
 20
333.7275155592391
 40
0.4242446153838841
 50
0.0
 51
90.0
 73
     1
 72
     1
 10
89.08940706590974
 20
334.151760174623
 11
83.61609497519294
 21
334.151760174623
 97
        8
330
1DD
330
13A
330
1DC
330
13B
330
1D3
330
138
330
1DE
330
139
 92
       16
 93
        1
 72
     2
 10
86.23568062571044
 20
331.4086333308836
 40
0.4709789327785074
 50
0.0
 51
360.0
 73
     1
 97
        1
330
1F1
 92
       16
 93
        8
 72
     2
 10
86.25949564038325
 20
331.4086333308836
 40
0.9118481501443819
 50
295.3740086781787
 51
424.6259913218075
 73
     1
 72
     2
 10
86.78553833847113
 20
332.5177749308514
 40
0.315716923076792
 50
115.3740086783563
 51
180.0
 73
     0
 72
     1
 10
86.46982141539434
 20
332.5177749308514
 11
86.46982141539434
 21
333.1233102193583
 72
     2
 10
86.78553833847113
 20
333.1233102193583
 40
0.3157169230759573
 50
180.0
 51
269.811032957454
 73
     0
 72
     2
 10
86.79115447378115
 20
331.4204752717891
 40
2.018561131933266
 50
269.8110329575858
 51
450.1889670424142
 73
     0
 72
     2
 10
86.78553833847113
 20
329.7176403242202
 40
0.315716923076792
 50
90.1889670425458
 51
180.0
 73
     0
 72
     1
 10
86.46982141539434
 20
329.7176403242202
 11
86.46982141539434
 21
330.2994917309152
 72
     2
 10
86.78553833847113
 20
330.2994917309152
 40
0.3157169230766355
 50
180.0
 51
244.625991321657
 73
     0
 97
        8
330
1EB
330
1C7
330
173
330
1EA
330
1C8
330
1C9
330
172
330
1C6
 92
       16
 93
       12
 72
     1
 10
84.20998965193942
 20
328.4513157302125
 11
85.68582291294905
 21
328.4513157302125
 72
     2
 10
85.68582291294905
 20
328.7670326532892
 40
0.3157169230767067
 50
270.0
 51
360.0
 73
     1
 72
     1
 10
86.00153983602564
 20
328.7670326532892
 11
86.00153983602564
 21
330.2978035848208
 72
     2
 10
85.68582291294905
 20
330.2978035848208
 40
0.315716923076593
 50
0.0
 51
64.80558935146027
 73
     1
 72
     2
 10
86.20840736052403
 20
331.4086333308836
 40
0.9118975235575889
 50
115.1944106485122
 51
244.805589351471
 73
     0
 72
     2
 10
85.68582291294905
 20
332.5194630769458
 40
0.3157169230761203
 50
295.1944106485397
 51
360.0
 73
     1
 72
     1
 10
86.00153983602564
 20
332.5194630769458
 11
86.00153983602564
 21
333.1234876960064
 72
     2
 10
85.68582291294905
 20
333.1234876960064
 40
0.315716923076593
 50
0.0
 51
90.0
 73
     1
 72
     1
 10
85.68582291294905
 20
333.4392046190825
 11
84.20998965193942
 21
333.4392046190825
 72
     2
 10
84.20998965193942
 20
333.1234876960064
 40
0.3157169230760815
 50
90.0
 51
180.0
 73
     1
 72
     1
 10
83.89427272886374
 20
333.1234876960064
 11
83.89427272886374
 21
328.7670326532892
 72
     2
 10
84.20998965193942
 20
328.7670326532892
 40
0.3157169230756836
 50
180.0
 51
270.0
 73
     1
 97
       12
330
13F
330
1D0
330
13E
330
1E1
330
13D
330
1E0
330
1D1
330
1D2
330
13C
330
1DF
330
137
330
1E2
 75
     1
 76
     0
 52
45.0
 41
0.1
 77
     0
 78
     1
 53
45.0
 43
0.0
 44
0.0
 45
-0.0707106781186548
 46
0.0707106781186548
 79
     0
 98
        1
 10
0.0
 20
0.0
  0
HATCH
  5
220
330
71
100
AcDbEntity
  8
1
  6
Continuous
 62
     2
100
AcDbHatch
 10
0.0
 20
0.0
 30
0.0
210
0.0
220
0.0
230
1.0
  2
_USER
 70
     0
 71
     1
 91
        4
 92
        1
 93
        8
 72
     2
 10
83.61609497519294
 20
333.7275155592391
 40
0.4242446153838841
 50
90.0
 51
180.0
 73
     1
 72
     1
 10
83.19185035981013
 20
333.7275155592391
 11
83.19185035981013
 21
328.1630047900389
 72
     2
 10
83.61609497519294
 20
328.1630047900389
 40
0.4242446153828041
 50
180.0
 51
270.0
 73
     1
 72
     1
 10
83.61609497519294
 20
327.7387601746556
 11
89.08940706590974
 21
327.7387601746556
 72
     2
 10
89.08940706590974
 20
328.1630047900389
 40
0.4242446153832589
 50
270.0
 51
360.0
 73
     1
 72
     1
 10
89.51365168129362
 20
328.1630047900389
 11
89.51365168129362
 21
333.7275155592391
 72
     2
 10
89.08940706590974
 20
333.7275155592391
 40
0.4242446153838841
 50
0.0
 51
90.0
 73
     1
 72
     1
 10
89.08940706590974
 20
334.151760174623
 11
83.61609497519294
 21
334.151760174623
 97
        8
330
1DD
330
13A
330
1DC
330
13B
330
1D3
330
138
330
1DE
330
139
 92
       16
 93
        1
 72
     2
 10
86.23568062571044
 20
331.4086333308836
 40
0.4709789327785074
 50
0.0
 51
360.0
 73
     1
 97
        1
330
1F1
 92
       16
 93
        8
 72
     2
 10
86.25949564038325
 20
331.4086333308836
 40
0.9118481501443819
 50
295.3740086781787
 51
424.6259913218075
 73
     1
 72
     2
 10
86.78553833847113
 20
332.5177749308514
 40
0.315716923076792
 50
115.3740086783563
 51
180.0
 73
     0
 72
     1
 10
86.46982141539434
 20
332.5177749308514
 11
86.46982141539434
 21
333.1233102193583
 72
     2
 10
86.78553833847113
 20
333.1233102193583
 40
0.3157169230759573
 50
180.0
 51
269.811032957454
 73
     0
 72
     2
 10
86.79115447378115
 20
331.4204752717891
 40
2.018561131933266
 50
269.8110329575858
 51
450.1889670424142
 73
     0
 72
     2
 10
86.78553833847113
 20
329.7176403242202
 40
0.315716923076792
 50
90.1889670425458
 51
180.0
 73
     0
 72
     1
 10
86.46982141539434
 20
329.7176403242202
 11
86.46982141539434
 21
330.2994917309152
 72
     2
 10
86.78553833847113
 20
330.2994917309152
 40
0.3157169230766355
 50
180.0
 51
244.625991321657
 73
     0
 97
        8
330
1EB
330
1C7
330
173
330
1EA
330
1C8
330
1C9
330
172
330
1C6
 92
       16
 93
       12
 72
     1
 10
84.20998965193942
 20
328.4513157302125
 11
85.68582291294905
 21
328.4513157302125
 72
     2
 10
85.68582291294905
 20
328.7670326532892
 40
0.3157169230767067
 50
270.0
 51
360.0
 73
     1
 72
     1
 10
86.00153983602564
 20
328.7670326532892
 11
86.00153983602564
 21
330.2978035848208
 72
     2
 10
85.68582291294905
 20
330.2978035848208
 40
0.315716923076593
 50
0.0
 51
64.80558935146027
 73
     1
 72
     2
 10
86.20840736052403
 20
331.4086333308836
 40
0.9118975235575889
 50
115.1944106485122
 51
244.805589351471
 73
     0
 72
     2
 10
85.68582291294905
 20
332.5194630769458
 40
0.3157169230761203
 50
295.1944106485397
 51
360.0
 73
     1
 72
     1
 10
86.00153983602564
 20
332.5194630769458
 11
86.00153983602564
 21
333.1234876960064
 72
     2
 10
85.68582291294905
 20
333.1234876960064
 40
0.315716923076593
 50
0.0
 51
90.0
 73
     1
 72
     1
 10
85.68582291294905
 20
333.4392046190825
 11
84.20998965193942
 21
333.4392046190825
 72
     2
 10
84.20998965193942
 20
333.1234876960064
 40
0.3157169230760815
 50
90.0
 51
180.0
 73
     1
 72
     1
 10
83.89427272886374
 20
333.1234876960064
 11
83.89427272886374
 21
328.7670326532892
 72
     2
 10
84.20998965193942
 20
328.7670326532892
 40
0.3157169230756836
 50
180.0
 51
270.0
 73
     1
 97
       12
330
13F
330
1D0
330
13E
330
1E1
330
13D
330
1E0
330
1D1
330
1D2
330
13C
330
1DF
330
137
330
1E2
 75
     1
 76
     0
 52
45.0
 41
0.1
 77
     0
 78
     1
 53
45.0
 43
0.0
 44
0.0
 45
-0.0707106781186548
 46
0.0707106781186548
 79
     0
 98
        1
 10
0.0
 20
0.0
  0
HATCH
  5
221
330
71
100
AcDbEntity
  8
1
  6
Continuous
 62
     2
100
AcDbHatch
 10
0.0
 20
0.0
 30
0.0
210
0.0
220
0.0
230
1.0
  2
_USER
 70
     0
 71
     1
 91
        2
 92
        1
 93
       12
 72
     2
 10
98.29125897918223
 20
332.6248554127352
 40
1.526904761905882
 50
90.0
 51
270.0
 73
     1
 72
     1
 10
98.29125897918223
 20
331.0979506508299
 11
101.4415787029632
 21
331.0979506508299
 72
     1
 10
101.4415787029632
 20
331.0979506508299
 11
101.4415787029632
 21
331.7959642562724
 72
     1
 10
101.4415787029632
 20
331.7959642562724
 11
100.1056508765356
 21
331.7959642562724
 72
     1
 10
100.1056508765356
 20
331.7959642562724
 11
100.1056508765356
 21
332.2758486100141
 72
     1
 10
100.1056508765356
 20
332.2758486100141
 11
101.4415787029632
 21
332.2758486100141
 72
     1
 10
101.4415787029632
 20
332.2758486100141
 11
101.4415787029632
 21
332.9738622154564
 72
     1
 10
101.4415787029632
 20
332.9738622154564
 11
100.1056508765356
 21
332.9738622154564
 72
     1
 10
100.1056508765356
 20
332.9738622154564
 11
100.1056508765356
 21
333.4537465691981
 72
     1
 10
100.1056508765356
 20
333.4537465691981
 11
101.4415787029632
 21
333.4537465691981
 72
     1
 10
101.4415787029632
 20
333.4537465691981
 11
101.4415787029632
 21
334.1517601746411
 72
     1
 10
101.4415787029632
 20
334.1517601746411
 11
98.29125897918223
 21
334.1517601746411
 97
       12
330
12E
330
128
330
14F
330
14E
330
14D
330
14C
330
129
330
12A
330
12B
330
12C
330
1CE
330
12D
 92
       16
 93
        4
 72
     2
 10
98.70727102569373
 20
332.6248554127352
 40
0.7717997786796724
 50
141.8795802028404
 51
218.1204197971562
 73
     1
 72
     2
 10
98.50753098934743
 20
332.4681242346148
 40
0.5179085730134372
 50
218.1204197971511
 51
321.8795802028566
 73
     1
 72
     2
 10
98.30779095300124
 20
332.6248554127352
 40
0.7717997786796373
 50
321.8795802028437
 51
398.1204197971596
 73
     1
 72
     2
 10
98.50753098934743
 20
332.7815865908557
 40
0.5179085730135266
 50
38.12041979714334
 51
141.8795802028489
 73
     1
 97
        4
330
1DB
330
1DA
330
1D5
330
1D4
 75
     1
 76
     0
 52
45.0
 41
0.1
 77
     0
 78
     1
 53
45.0
 43
0.0
 44
0.0
 45
-0.0707106781186548
 46
0.0707106781186548
 79
     0
 98
        1
 10
0.0
 20
0.0
  0
HATCH
  5
222
330
71
100
AcDbEntity
  8
1
  6
Continuous
 62
     2
100
AcDbHatch
 10
0.0
 20
0.0
 30
0.0
210
0.0
220
0.0
230
1.0
  2
_USER
 70
     0
 71
     1
 91
        2
 92
        1
 93
       12
 72
     2
 10
98.29125897918223
 20
332.6248554127352
 40
1.526904761905882
 50
90.0
 51
270.0
 73
     1
 72
     1
 10
98.29125897918223
 20
331.0979506508299
 11
101.4415787029632
 21
331.0979506508299
 72
     1
 10
101.4415787029632
 20
331.0979506508299
 11
101.4415787029632
 21
331.7959642562724
 72
     1
 10
101.4415787029632
 20
331.7959642562724
 11
100.1056508765356
 21
331.7959642562724
 72
     1
 10
100.1056508765356
 20
331.7959642562724
 11
100.1056508765356
 21
332.2758486100141
 72
     1
 10
100.1056508765356
 20
332.2758486100141
 11
101.4415787029632
 21
332.2758486100141
 72
     1
 10
101.4415787029632
 20
332.2758486100141
 11
101.4415787029632
 21
332.9738622154564
 72
     1
 10
101.4415787029632
 20
332.9738622154564
 11
100.1056508765356
 21
332.9738622154564
 72
     1
 10
100.1056508765356
 20
332.9738622154564
 11
100.1056508765356
 21
333.4537465691981
 72
     1
 10
100.1056508765356
 20
333.4537465691981
 11
101.4415787029632
 21
333.4537465691981
 72
     1
 10
101.4415787029632
 20
333.4537465691981
 11
101.4415787029632
 21
334.1517601746411
 72
     1
 10
101.4415787029632
 20
334.1517601746411
 11
98.29125897918223
 21
334.1517601746411
 97
       12
330
12E
330
128
330
14F
330
14E
330
14D
330
14C
330
129
330
12A
330
12B
330
12C
330
1CE
330
12D
 92
       16
 93
        4
 72
     2
 10
98.70727102569373
 20
332.6248554127352
 40
0.7717997786796724
 50
141.8795802028404
 51
218.1204197971562
 73
     1
 72
     2
 10
98.50753098934743
 20
332.4681242346148
 40
0.5179085730134372
 50
218.1204197971511
 51
321.8795802028566
 73
     1
 72
     2
 10
98.30779095300124
 20
332.6248554127352
 40
0.7717997786796373
 50
321.8795802028437
 51
398.1204197971596
 73
     1
 72
     2
 10
98.50753098934743
 20
332.7815865908557
 40
0.5179085730135266
 50
38.12041979714334
 51
141.8795802028489
 73
     1
 97
        4
330
1DB
330
1DA
330
1D5
330
1D4
 75
     1
 76
     0
 52
45.0
 41
0.1
 77
     0
 78
     1
 53
45.0
 43
0.0
 44
0.0
 45
-0.0707106781186548
 46
0.0707106781186548
 79
     0
 98
        1
 10
0.0
 20
0.0
  0
HATCH
  5
223
330
71
100
AcDbEntity
  8
1
  6
Continuous
 62
     2
100
AcDbHatch
 10
0.0
 20
0.0
 30
0.0
210
0.0
220
0.0
230
1.0
  2
_USER
 70
     0
 71
     1
 91
        2
 92
        1
 93
        4
 72
     2
 10
94.26564361672064
 20
329.2656649365609
 40
1.458034083651515
 50
117.5481481756619
 51
242.451851824337
 73
     1
 72
     2
 10
94.54658350855394
 20
329.8042399468642
 40
2.065479772208483
 50
242.4518518243399
 51
297.5481481756875
 73
     1
 72
     2
 10
94.82752340038724
 20
329.2656649365609
 40
1.458034083651977
 50
297.5481481757016
 51
422.4518518242994
 73
     1
 72
     2
 10
94.54658350855394
 20
328.7270899262582
 40
2.065479772208492
 50
62.45185182430527
 51
117.5481481756675
 73
     1
 97
        4
330
1D9
330
1D6
330
1D8
330
1D7
 92
       16
 93
        4
 72
     2
 10
94.54658350855394
 20
329.4223961146814
 40
0.5179085730132998
 50
38.12041979714704
 51
141.8795802028588
 73
     1
 72
     2
 10
94.74632354490004
 20
329.2656649365609
 40
0.7717997786794808
 50
141.8795802028346
 51
218.1204197971687
 73
     1
 72
     2
 10
94.54658350855394
 20
329.1089337584409
 40
0.5179085730137529
 50
218.1204197971956
 51
321.8795802027985
 73
     1
 72
     2
 10
94.34684347220752
 20
329.2656649365609
 40
0.7717997786796947
 50
321.8795802028417
 51
398.120419797155
 73
     1
 97
        4
330
1BC
330
1BD
330
1BE
330
1BB
 75
     1
 76
     0
 52
45.0
 41
0.1
 77
     0
 78
     1
 53
45.0
 43
0.0
 44
0.0
 45
-0.0707106781186548
 46
0.0707106781186548
 79
     0
 98
        1
 10
0.0
 20
0.0
  0
HATCH
  5
224
330
71
100
AcDbEntity
  8
1
  6
Continuous
 62
     2
100
AcDbHatch
 10
0.0
 20
0.0
 30
0.0
210
0.0
220
0.0
230
1.0
  2
_USER
 70
     0
 71
     1
 91
        2
 92
        1
 93
        4
 72
     2
 10
94.26564361672064
 20
329.2656649365609
 40
1.458034083651515
 50
117.5481481756619
 51
242.451851824337
 73
     1
 72
     2
 10
94.54658350855394
 20
329.8042399468642
 40
2.065479772208483
 50
242.4518518243399
 51
297.5481481756875
 73
     1
 72
     2
 10
94.82752340038724
 20
329.2656649365609
 40
1.458034083651977
 50
297.5481481757016
 51
422.4518518242994
 73
     1
 72
     2
 10
94.54658350855394
 20
328.7270899262582
 40
2.065479772208492
 50
62.45185182430527
 51
117.5481481756675
 73
     1
 97
        4
330
1D9
330
1D6
330
1D8
330
1D7
 92
       16
 93
        4
 72
     2
 10
94.54658350855394
 20
329.4223961146814
 40
0.5179085730132998
 50
38.12041979714704
 51
141.8795802028588
 73
     1
 72
     2
 10
94.74632354490004
 20
329.2656649365609
 40
0.7717997786794808
 50
141.8795802028346
 51
218.1204197971687
 73
     1
 72
     2
 10
94.54658350855394
 20
329.1089337584409
 40
0.5179085730137529
 50
218.1204197971956
 51
321.8795802027985
 73
     1
 72
     2
 10
94.34684347220752
 20
329.2656649365609
 40
0.7717997786796947
 50
321.8795802028417
 51
398.120419797155
 73
     1
 97
        4
330
1BC
330
1BD
330
1BE
330
1BB
 75
     1
 76
     0
 52
45.0
 41
0.1
 77
     0
 78
     1
 53
45.0
 43
0.0
 44
0.0
 45
-0.0707106781186548
 46
0.0707106781186548
 79
     0
 98
        1
 10
0.0
 20
0.0
  0
HATCH
  5
225
330
71
100
AcDbEntity
  8
1
  6
Continuous
 62
     2
100
AcDbHatch
 10
0.0
 20
0.0
 30
0.0
210
0.0
220
0.0
230
1.0
  2
_USER
 70
     0
 71
     1
 91
        2
 92
        1
 93
        6
 72
     1
 10
89.99076876216043
 20
334.1517601746411
 11
89.99076876216043
 21
331.0979506508299
 72
     1
 10
89.99076876216043
 20
331.0979506508299
 11
91.23127317241455
 21
331.0979506508299
 72
     1
 10
91.23127317241455
 20
331.0979506508299
 11
91.23127317241455
 21
332.0410288919737
 72
     1
 10
91.23127317241455
 20
332.0410288919737
 11
91.99004076019483
 21
332.0410288919737
 72
     2
 10
91.99004076019483
 20
333.0963945333074
 40
1.055365641333651
 50
270.0
 51
450.0
 73
     1
 72
     1
 10
91.99004076019483
 20
334.1517601746411
 11
89.99076876216043
 21
334.1517601746411
 97
        6
330
1E3
330
140
330
136
330
135
330
142
330
141
 92
       16
 93
        4
 72
     1
 10
91.54856823395644
 20
333.488654329201
 11
91.23127317241455
 21
333.488654329201
 72
     1
 10
91.23127317241455
 20
333.488654329201
 11
91.23127317241455
 21
332.7829266798588
 72
     1
 10
91.23127317241455
 20
332.7829266798588
 11
91.54856823395644
 21
332.7829266798588
 72
     2
 10
91.54856823395644
 20
333.13579050453
 40
0.3528638246712035
 50
270.0
 51
450.0
 73
     1
 97
        4
330
143
330
134
330
144
330
1CF
 75
     1
 76
     0
 52
45.0
 41
0.1
 77
     0
 78
     1
 53
45.0
 43
0.0
 44
0.0
 45
-0.0707106781186548
 46
0.0707106781186548
 79
     0
 98
        1
 10
0.0
 20
0.0
  0
HATCH
  5
226
330
71
100
AcDbEntity
  8
1
  6
Continuous
 62
     2
100
AcDbHatch
 10
0.0
 20
0.0
 30
0.0
210
0.0
220
0.0
230
1.0
  2
_USER
 70
     0
 71
     1
 91
        2
 92
        1
 93
        6
 72
     1
 10
89.99076876216043
 20
334.1517601746411
 11
89.99076876216043
 21
331.0979506508299
 72
     1
 10
89.99076876216043
 20
331.0979506508299
 11
91.23127317241455
 21
331.0979506508299
 72
     1
 10
91.23127317241455
 20
331.0979506508299
 11
91.23127317241455
 21
332.0410288919737
 72
     1
 10
91.23127317241455
 20
332.0410288919737
 11
91.99004076019483
 21
332.0410288919737
 72
     2
 10
91.99004076019483
 20
333.0963945333074
 40
1.055365641333651
 50
270.0
 51
450.0
 73
     1
 72
     1
 10
91.99004076019483
 20
334.1517601746411
 11
89.99076876216043
 21
334.1517601746411
 97
        6
330
1E3
330
140
330
136
330
135
330
142
330
141
 92
       16
 93
        4
 72
     1
 10
91.54856823395644
 20
333.488654329201
 11
91.23127317241455
 21
333.488654329201
 72
     1
 10
91.23127317241455
 20
333.488654329201
 11
91.23127317241455
 21
332.7829266798588
 72
     1
 10
91.23127317241455
 20
332.7829266798588
 11
91.54856823395644
 21
332.7829266798588
 72
     2
 10
91.54856823395644
 20
333.13579050453
 40
0.3528638246712035
 50
270.0
 51
450.0
 73
     1
 97
        4
330
143
330
134
330
144
330
1CF
 75
     1
 76
     0
 52
45.0
 41
0.1
 77
     0
 78
     1
 53
45.0
 43
0.0
 44
0.0
 45
-0.0707106781186548
 46
0.0707106781186548
 79
     0
 98
        1
 10
0.0
 20
0.0
  0
HATCH
  5
227
330
71
100
AcDbEntity
  8
1
  6
Continuous
 62
     2
100
AcDbHatch
 10
0.0
 20
0.0
 30
0.0
210
0.0
220
0.0
230
1.0
  2
_USER
 70
     0
 71
     1
 91
        1
 92
        1
 93
       12
 72
     1
 10
109.6050519565936
 20
334.1517601746411
 11
111.0077761743409
 21
334.1517601746411
 72
     1
 10
111.0077761743409
 20
334.1517601746411
 11
109.7052465435743
 21
332.6788096446049
 72
     1
 10
109.7052465435743
 20
332.6788096446049
 11
111.1031995905146
 21
331.0979506508299
 72
     1
 10
111.1031995905146
 20
331.0979506508299
 11
109.7004753727663
 21
331.0979506508299
 72
     1
 10
109.7004753727663
 20
331.0979506508299
 11
109.0038844347008
 21
331.8856824361236
 72
     1
 10
109.0038844347008
 20
331.8856824361236
 11
108.3072934966351
 21
331.0979506508299
 72
     1
 10
108.3072934966351
 20
331.0979506508299
 11
106.9045692788869
 21
331.0979506508299
 72
     1
 10
106.9045692788869
 20
331.0979506508299
 11
108.3025223258272
 21
332.6788096446049
 72
     1
 10
108.3025223258272
 20
332.6788096446049
 11
106.9999926950598
 21
334.1517601746411
 72
     1
 10
106.9999926950598
 20
334.1517601746411
 11
108.402716912809
 21
334.1517601746411
 72
     1
 10
108.402716912809
 20
334.1517601746411
 11
109.0038844347008
 21
333.4719368530856
 72
     1
 10
109.0038844347008
 20
333.4719368530856
 11
109.6050519565936
 21
334.1517601746411
 97
       12
330
10F
330
168
330
167
330
166
330
165
330
110
330
111
330
10D
330
10E
330
16B
330
16A
330
169
 75
     1
 76
     0
 52
45.0
 41
0.1
 77
     0
 78
     1
 53
45.0
 43
0.0
 44
0.0
 45
-0.0707106781186548
 46
0.0707106781186548
 79
     0
 98
        1
 10
0.0
 20
0.0
  0
HATCH
  5
228
330
71
100
AcDbEntity
  8
1
  6
Continuous
 62
     2
100
AcDbHatch
 10
0.0
 20
0.0
 30
0.0
210
0.0
220
0.0
230
1.0
  2
_USER
 70
     0
 71
     1
 91
        1
 92
        1
 93
       12
 72
     1
 10
109.6050519565936
 20
334.1517601746411
 11
111.0077761743409
 21
334.1517601746411
 72
     1
 10
111.0077761743409
 20
334.1517601746411
 11
109.7052465435743
 21
332.6788096446049
 72
     1
 10
109.7052465435743
 20
332.6788096446049
 11
111.1031995905146
 21
331.0979506508299
 72
     1
 10
111.1031995905146
 20
331.0979506508299
 11
109.7004753727663
 21
331.0979506508299
 72
     1
 10
109.7004753727663
 20
331.0979506508299
 11
109.0038844347008
 21
331.8856824361236
 72
     1
 10
109.0038844347008
 20
331.8856824361236
 11
108.3072934966351
 21
331.0979506508299
 72
     1
 10
108.3072934966351
 20
331.0979506508299
 11
106.9045692788869
 21
331.0979506508299
 72
     1
 10
106.9045692788869
 20
331.0979506508299
 11
108.3025223258272
 21
332.6788096446049
 72
     1
 10
108.3025223258272
 20
332.6788096446049
 11
106.9999926950598
 21
334.1517601746411
 72
     1
 10
106.9999926950598
 20
334.1517601746411
 11
108.402716912809
 21
334.1517601746411
 72
     1
 10
108.402716912809
 20
334.1517601746411
 11
109.0038844347008
 21
333.4719368530856
 72
     1
 10
109.0038844347008
 20
333.4719368530856
 11
109.6050519565936
 21
334.1517601746411
 97
       12
330
10F
330
168
330
167
330
166
330
165
330
110
330
111
330
10D
330
10E
330
16B
330
16A
330
169
 75
     1
 76
     0
 52
45.0
 41
0.1
 77
     0
 78
     1
 53
45.0
 43
0.0
 44
0.0
 45
-0.0707106781186548
 46
0.0707106781186548
 79
     0
 98
        1
 10
0.0
 20
0.0
  0
HATCH
  5
229
330
71
100
AcDbEntity
  8
1
  6
Continuous
 62
     2
100
AcDbHatch
 10
0.0
 20
0.0
 30
0.0
210
0.0
220
0.0
230
1.0
  2
_USER
 70
     0
 71
     1
 91
        1
 92
        1
 93
        4
 72
     1
 10
106.7852900086701
 20
334.1517601746411
 11
106.7852900086701
 21
331.0979506508299
 72
     1
 10
106.7852900086701
 20
331.0979506508299
 11
105.5447855984172
 21
331.0979506508299
 72
     1
 10
105.5447855984172
 20
331.0979506508299
 11
105.5447855984172
 21
334.1517601746411
 72
     1
 10
105.5447855984172
 20
334.1517601746411
 11
106.7852900086701
 21
334.1517601746411
 97
        4
330
163
330
112
330
162
330
164
 75
     1
 76
     0
 52
45.0
 41
0.1
 77
     0
 78
     1
 53
45.0
 43
0.0
 44
0.0
 45
-0.0707106781186548
 46
0.0707106781186548
 79
     0
 98
        1
 10
0.0
 20
0.0
  0
HATCH
  5
22A
330
71
100
AcDbEntity
  8
1
  6
Continuous
 62
     2
100
AcDbHatch
 10
0.0
 20
0.0
 30
0.0
210
0.0
220
0.0
230
1.0
  2
_USER
 70
     0
 71
     1
 91
        1
 92
        1
 93
        4
 72
     1
 10
106.7852900086701
 20
334.1517601746411
 11
106.7852900086701
 21
331.0979506508299
 72
     1
 10
106.7852900086701
 20
331.0979506508299
 11
105.5447855984172
 21
331.0979506508299
 72
     1
 10
105.5447855984172
 20
331.0979506508299
 11
105.5447855984172
 21
334.1517601746411
 72
     1
 10
105.5447855984172
 20
334.1517601746411
 11
106.7852900086701
 21
334.1517601746411
 97
        4
330
163
330
112
330
162
330
164
 75
     1
 76
     0
 52
45.0
 41
0.1
 77
     0
 78
     1
 53
45.0
 43
0.0
 44
0.0
 45
-0.0707106781186548
 46
0.0707106781186548
 79
     0
 98
        1
 10
0.0
 20
0.0
  0
HATCH
  5
22B
330
71
100
AcDbEntity
  8
1
  6
Continuous
 62
     2
100
AcDbHatch
 10
0.0
 20
0.0
 30
0.0
210
0.0
220
0.0
230
1.0
  2
_USER
 70
     0
 71
     1
 91
        2
 92
        1
 93
        8
 72
     1
 10
106.3948460051381
 20
327.7387601746556
 11
105.1543415948841
 21
327.7387601746556
 72
     1
 10
105.1543415948841
 20
327.7387601746556
 11
104.9428615414084
 21
328.2797207188735
 72
     1
 10
104.9428615414084
 20
328.2797207188735
 11
103.8104199647345
 21
328.2797207188735
 72
     1
 10
103.8104199647345
 20
328.2797207188735
 11
103.5989399112587
 21
327.7387601746556
 72
     1
 10
103.5989399112587
 20
327.7387601746556
 11
102.3584355010057
 21
327.7387601746556
 72
     1
 10
102.3584355010057
 20
327.7387601746556
 11
103.7563885479451
 21
330.7925696984667
 72
     1
 10
103.7563885479451
 20
330.7925696984667
 11
104.9968929581978
 21
330.7925696984667
 72
     1
 10
104.9968929581978
 20
330.7925696984667
 11
106.3948460051381
 21
327.7387601746556
 97
        8
330
15E
330
118
330
15D
330
160
330
115
330
15F
330
116
330
117
 92
       16
 93
        3
 72
     1
 10
104.0764755158795
 20
328.9602839841801
 11
104.676805990262
 21
328.9602839841801
 72
     1
 10
104.676805990262
 20
328.9602839841801
 11
104.3766407530719
 21
329.7280989501668
 72
     1
 10
104.3766407530719
 20
329.7280989501668
 11
104.0764755158795
 21
328.9602839841801
 97
        3
330
114
330
113
330
161
 75
     1
 76
     0
 52
45.0
 41
0.1
 77
     0
 78
     1
 53
45.0
 43
0.0
 44
0.0
 45
-0.0707106781186548
 46
0.0707106781186548
 79
     0
 98
        1
 10
0.0
 20
0.0
  0
HATCH
  5
22C
330
71
100
AcDbEntity
  8
1
  6
Continuous
 62
     2
100
AcDbHatch
 10
0.0
 20
0.0
 30
0.0
210
0.0
220
0.0
230
1.0
  2
_USER
 70
     0
 71
     1
 91
        2
 92
        1
 93
        8
 72
     1
 10
106.3948460051381
 20
327.7387601746556
 11
105.1543415948841
 21
327.7387601746556
 72
     1
 10
105.1543415948841
 20
327.7387601746556
 11
104.9428615414084
 21
328.2797207188735
 72
     1
 10
104.9428615414084
 20
328.2797207188735
 11
103.8104199647345
 21
328.2797207188735
 72
     1
 10
103.8104199647345
 20
328.2797207188735
 11
103.5989399112587
 21
327.7387601746556
 72
     1
 10
103.5989399112587
 20
327.7387601746556
 11
102.3584355010057
 21
327.7387601746556
 72
     1
 10
102.3584355010057
 20
327.7387601746556
 11
103.7563885479451
 21
330.7925696984667
 72
     1
 10
103.7563885479451
 20
330.7925696984667
 11
104.9968929581978
 21
330.7925696984667
 72
     1
 10
104.9968929581978
 20
330.7925696984667
 11
106.3948460051381
 21
327.7387601746556
 97
        8
330
15E
330
118
330
15D
330
160
330
115
330
15F
330
116
330
117
 92
       16
 93
        3
 72
     1
 10
104.0764755158795
 20
328.9602839841801
 11
104.676805990262
 21
328.9602839841801
 72
     1
 10
104.676805990262
 20
328.9602839841801
 11
104.3766407530719
 21
329.7280989501668
 72
     1
 10
104.3766407530719
 20
329.7280989501668
 11
104.0764755158795
 21
328.9602839841801
 97
        3
330
114
330
113
330
161
 75
     1
 76
     0
 52
45.0
 41
0.1
 77
     0
 78
     1
 53
45.0
 43
0.0
 44
0.0
 45
-0.0707106781186548
 46
0.0707106781186548
 79
     0
 98
        1
 10
0.0
 20
0.0
  0
HATCH
  5
22D
330
71
100
AcDbEntity
  8
1
  6
Continuous
 62
     2
100
AcDbHatch
 10
0.0
 20
0.0
 30
0.0
210
0.0
220
0.0
230
1.0
  2
_USER
 70
     0
 71
     1
 91
        1
 92
        1
 93
        8
 72
     1
 10
100.2009233618235
 20
330.7925696984667
 11
100.2009233618235
 21
330.0073043923431
 72
     1
 10
100.2009233618235
 20
330.0073043923431
 11
101.0120223992981
 21
330.0073043923431
 72
     1
 10
101.0120223992981
 20
330.0073043923431
 11
101.0120223992981
 21
327.7387601746556
 72
     1
 10
101.0120223992981
 20
327.7387601746556
 11
102.2048151014647
 21
327.7387601746556
 72
     1
 10
102.2048151014647
 20
327.7387601746556
 11
102.2048151014647
 21
330.0073043923431
 72
     1
 10
102.2048151014647
 20
330.0073043923431
 11
103.0159141389372
 21
330.0073043923431
 72
     1
 10
103.0159141389372
 20
330.0073043923431
 11
103.0159141389372
 21
330.7925696984667
 72
     1
 10
103.0159141389372
 20
330.7925696984667
 11
100.2009233618235
 21
330.7925696984667
 97
        8
330
15A
330
159
330
158
330
119
330
11A
330
15C
330
11B
330
15B
 75
     1
 76
     0
 52
45.0
 41
0.1
 77
     0
 78
     1
 53
45.0
 43
0.0
 44
0.0
 45
-0.0707106781186548
 46
0.0707106781186548
 79
     0
 98
        1
 10
0.0
 20
0.0
  0
HATCH
  5
22E
330
71
100
AcDbEntity
  8
1
  6
Continuous
 62
     2
100
AcDbHatch
 10
0.0
 20
0.0
 30
0.0
210
0.0
220
0.0
230
1.0
  2
_USER
 70
     0
 71
     1
 91
        1
 92
        1
 93
        8
 72
     1
 10
100.2009233618235
 20
330.7925696984667
 11
100.2009233618235
 21
330.0073043923431
 72
     1
 10
100.2009233618235
 20
330.0073043923431
 11
101.0120223992981
 21
330.0073043923431
 72
     1
 10
101.0120223992981
 20
330.0073043923431
 11
101.0120223992981
 21
327.7387601746556
 72
     1
 10
101.0120223992981
 20
327.7387601746556
 11
102.2048151014647
 21
327.7387601746556
 72
     1
 10
102.2048151014647
 20
327.7387601746556
 11
102.2048151014647
 21
330.0073043923431
 72
     1
 10
102.2048151014647
 20
330.0073043923431
 11
103.0159141389372
 21
330.0073043923431
 72
     1
 10
103.0159141389372
 20
330.0073043923431
 11
103.0159141389372
 21
330.7925696984667
 72
     1
 10
103.0159141389372
 20
330.7925696984667
 11
100.2009233618235
 21
330.7925696984667
 97
        8
330
15A
330
159
330
158
330
119
330
11A
330
15C
330
11B
330
15B
 75
     1
 76
     0
 52
45.0
 41
0.1
 77
     0
 78
     1
 53
45.0
 43
0.0
 44
0.0
 45
-0.0707106781186548
 46
0.0707106781186548
 79
     0
 98
        1
 10
0.0
 20
0.0
  0
HATCH
  5
22F
330
71
100
AcDbEntity
  8
1
  6
Continuous
 62
     2
100
AcDbHatch
 10
0.0
 20
0.0
 30
0.0
210
0.0
220
0.0
230
1.0
  2
_USER
 70
     0
 71
     1
 91
        1
 92
        1
 93
       10
 72
     1
 10
102.8729299455627
 20
334.1517601746411
 11
101.6801372433961
 21
334.1517601746411
 72
     1
 10
101.6801372433961
 20
334.1517601746411
 11
101.6801372433961
 21
331.0979506508299
 72
     1
 10
101.6801372433961
 20
331.0979506508299
 11
102.8729299455627
 21
331.0979506508299
 72
     1
 10
102.8729299455627
 20
331.0979506508299
 11
102.8729299455627
 21
332.4067261610346
 72
     1
 10
102.8729299455627
 20
332.4067261610346
 11
104.1134343558167
 21
331.0979506508299
 72
     1
 10
104.1134343558167
 20
331.0979506508299
 11
105.3062270579833
 21
331.0979506508299
 72
     1
 10
105.3062270579833
 20
331.0979506508299
 11
105.3062270579833
 21
334.1517601746411
 72
     1
 10
105.3062270579833
 20
334.1517601746411
 11
104.1134343558167
 21
334.1517601746411
 72
     1
 10
104.1134343558167
 20
334.1517601746411
 11
104.1134343558167
 21
332.8429846644359
 72
     1
 10
104.1134343558167
 20
332.8429846644359
 11
102.8729299455627
 21
334.1517601746411
 97
       10
330
154
330
11E
330
11F
330
120
330
121
330
157
330
11C
330
156
330
155
330
11D
 75
     1
 76
     0
 52
45.0
 41
0.1
 77
     0
 78
     1
 53
45.0
 43
0.0
 44
0.0
 45
-0.0707106781186548
 46
0.0707106781186548
 79
     0
 98
        1
 10
0.0
 20
0.0
  0
HATCH
  5
230
330
71
100
AcDbEntity
  8
1
  6
Continuous
 62
     2
100
AcDbHatch
 10
0.0
 20
0.0
 30
0.0
210
0.0
220
0.0
230
1.0
  2
_USER
 70
     0
 71
     1
 91
        1
 92
        1
 93
       10
 72
     1
 10
102.8729299455627
 20
334.1517601746411
 11
101.6801372433961
 21
334.1517601746411
 72
     1
 10
101.6801372433961
 20
334.1517601746411
 11
101.6801372433961
 21
331.0979506508299
 72
     1
 10
101.6801372433961
 20
331.0979506508299
 11
102.8729299455627
 21
331.0979506508299
 72
     1
 10
102.8729299455627
 20
331.0979506508299
 11
102.8729299455627
 21
332.4067261610346
 72
     1
 10
102.8729299455627
 20
332.4067261610346
 11
104.1134343558167
 21
331.0979506508299
 72
     1
 10
104.1134343558167
 20
331.0979506508299
 11
105.3062270579833
 21
331.0979506508299
 72
     1
 10
105.3062270579833
 20
331.0979506508299
 11
105.3062270579833
 21
334.1517601746411
 72
     1
 10
105.3062270579833
 20
334.1517601746411
 11
104.1134343558167
 21
334.1517601746411
 72
     1
 10
104.1134343558167
 20
334.1517601746411
 11
104.1134343558167
 21
332.8429846644359
 72
     1
 10
104.1134343558167
 20
332.8429846644359
 11
102.8729299455627
 21
334.1517601746411
 97
       10
330
154
330
11E
330
11F
330
120
330
121
330
157
330
11C
330
156
330
155
330
11D
 75
     1
 76
     0
 52
45.0
 41
0.1
 77
     0
 78
     1
 53
45.0
 43
0.0
 44
0.0
 45
-0.0707106781186548
 46
0.0707106781186548
 79
     0
 98
        1
 10
0.0
 20
0.0
  0
HATCH
  5
231
330
71
100
AcDbEntity
  8
1
  6
Continuous
 62
     2
100
AcDbHatch
 10
0.0
 20
0.0
 30
0.0
210
0.0
220
0.0
230
1.0
  2
_USER
 70
     0
 71
     1
 91
        1
 92
        1
 93
       10
 72
     1
 10
97.62449112514403
 20
330.7925696984667
 11
96.43169842297644
 21
330.7925696984667
 72
     1
 10
96.43169842297644
 20
330.7925696984667
 11
96.43169842297644
 21
327.7387601746556
 72
     1
 10
96.43169842297644
 20
327.7387601746556
 11
97.62449112514403
 21
327.7387601746556
 72
     1
 10
97.62449112514403
 20
327.7387601746556
 11
97.62449112514403
 21
329.0475356848602
 72
     1
 10
97.62449112514403
 20
329.0475356848602
 11
98.86499553539693
 21
327.7387601746556
 72
     1
 10
98.86499553539693
 20
327.7387601746556
 11
100.0577882375633
 21
327.7387601746556
 72
     1
 10
100.0577882375633
 20
327.7387601746556
 11
100.0577882375633
 21
330.7925696984667
 72
     1
 10
100.0577882375633
 20
330.7925696984667
 11
98.86499553539693
 21
330.7925696984667
 72
     1
 10
98.86499553539693
 20
330.7925696984667
 11
98.86499553539693
 21
329.4837941882616
 72
     1
 10
98.86499553539693
 20
329.4837941882616
 11
97.62449112514403
 21
330.7925696984667
 97
       10
330
123
330
124
330
125
330
151
330
126
330
127
330
150
330
153
330
152
330
122
 75
     1
 76
     0
 52
45.0
 41
0.1
 77
     0
 78
     1
 53
45.0
 43
0.0
 44
0.0
 45
-0.0707106781186548
 46
0.0707106781186548
 79
     0
 98
        1
 10
0.0
 20
0.0
  0
HATCH
  5
232
330
71
100
AcDbEntity
  8
1
  6
Continuous
 62
     2
100
AcDbHatch
 10
0.0
 20
0.0
 30
0.0
210
0.0
220
0.0
230
1.0
  2
_USER
 70
     0
 71
     1
 91
        1
 92
        1
 93
       10
 72
     1
 10
97.62449112514403
 20
330.7925696984667
 11
96.43169842297644
 21
330.7925696984667
 72
     1
 10
96.43169842297644
 20
330.7925696984667
 11
96.43169842297644
 21
327.7387601746556
 72
     1
 10
96.43169842297644
 20
327.7387601746556
 11
97.62449112514403
 21
327.7387601746556
 72
     1
 10
97.62449112514403
 20
327.7387601746556
 11
97.62449112514403
 21
329.0475356848602
 72
     1
 10
97.62449112514403
 20
329.0475356848602
 11
98.86499553539693
 21
327.7387601746556
 72
     1
 10
98.86499553539693
 20
327.7387601746556
 11
100.0577882375633
 21
327.7387601746556
 72
     1
 10
100.0577882375633
 20
327.7387601746556
 11
100.0577882375633
 21
330.7925696984667
 72
     1
 10
100.0577882375633
 20
330.7925696984667
 11
98.86499553539693
 21
330.7925696984667
 72
     1
 10
98.86499553539693
 20
330.7925696984667
 11
98.86499553539693
 21
329.4837941882616
 72
     1
 10
98.86499553539693
 20
329.4837941882616
 11
97.62449112514403
 21
330.7925696984667
 97
       10
330
123
330
124
330
125
330
151
330
126
330
127
330
150
330
153
330
152
330
122
 75
     1
 76
     0
 52
45.0
 41
0.1
 77
     0
 78
     1
 53
45.0
 43
0.0
 44
0.0
 45
-0.0707106781186548
 46
0.0707106781186548
 79
     0
 98
        1
 10
0.0
 20
0.0
  0
HATCH
  5
233
330
71
100
AcDbEntity
  8
1
  6
Continuous
 62
     2
100
AcDbHatch
 10
0.0
 20
0.0
 30
0.0
210
0.0
220
0.0
230
1.0
  2
_USER
 70
     0
 71
     1
 91
        1
 92
        1
 93
       12
 72
     1
 10
96.62269618620863
 20
334.1517601746411
 11
96.62269618620863
 21
331.0979506508299
 72
     1
 10
96.62269618620863
 20
331.0979506508299
 11
95.42990348404223
 21
331.0979506508299
 72
     1
 10
95.42990348404223
 20
331.0979506508299
 11
95.42990348404223
 21
332.2322227596737
 72
     1
 10
95.42990348404223
 20
332.2322227596737
 11
94.38024590613475
 21
332.2322227596737
 72
     1
 10
94.38024590613475
 20
332.2322227596737
 11
94.38024590613475
 21
331.0979506508299
 72
     1
 10
94.38024590613475
 20
331.0979506508299
 11
93.18745320396815
 21
331.0979506508299
 72
     1
 10
93.18745320396815
 20
331.0979506508299
 11
93.18745320396815
 21
334.1517601746411
 72
     1
 10
93.18745320396815
 20
334.1517601746411
 11
94.38024590613475
 21
334.1517601746411
 72
     1
 10
94.38024590613475
 20
334.1517601746411
 11
94.38024590613475
 21
333.0829268413065
 72
     1
 10
94.38024590613475
 20
333.0829268413065
 11
95.42990348404223
 21
333.0829268413065
 72
     1
 10
95.42990348404223
 20
333.0829268413065
 11
95.42990348404223
 21
334.1517601746411
 72
     1
 10
95.42990348404223
 20
334.1517601746411
 11
96.62269618620863
 21
334.1517601746411
 97
       12
330
14B
330
14A
330
149
330
131
330
132
330
148
330
133
330
147
330
146
330
145
330
12F
330
130
 75
     1
 76
     0
 52
45.0
 41
0.1
 77
     0
 78
     1
 53
45.0
 43
0.0
 44
0.0
 45
-0.0707106781186548
 46
0.0707106781186548
 79
     0
 98
        1
 10
0.0
 20
0.0
  0
HATCH
  5
234
330
71
100
AcDbEntity
  8
1
  6
Continuous
 62
     2
100
AcDbHatch
 10
0.0
 20
0.0
 30
0.0
210
0.0
220
0.0
230
1.0
  2
_USER
 70
     0
 71
     1
 91
        1
 92
        1
 93
       12
 72
     1
 10
96.62269618620863
 20
334.1517601746411
 11
96.62269618620863
 21
331.0979506508299
 72
     1
 10
96.62269618620863
 20
331.0979506508299
 11
95.42990348404223
 21
331.0979506508299
 72
     1
 10
95.42990348404223
 20
331.0979506508299
 11
95.42990348404223
 21
332.2322227596737
 72
     1
 10
95.42990348404223
 20
332.2322227596737
 11
94.38024590613475
 21
332.2322227596737
 72
     1
 10
94.38024590613475
 20
332.2322227596737
 11
94.38024590613475
 21
331.0979506508299
 72
     1
 10
94.38024590613475
 20
331.0979506508299
 11
93.18745320396815
 21
331.0979506508299
 72
     1
 10
93.18745320396815
 20
331.0979506508299
 11
93.18745320396815
 21
334.1517601746411
 72
     1
 10
93.18745320396815
 20
334.1517601746411
 11
94.38024590613475
 21
334.1517601746411
 72
     1
 10
94.38024590613475
 20
334.1517601746411
 11
94.38024590613475
 21
333.0829268413065
 72
     1
 10
94.38024590613475
 20
333.0829268413065
 11
95.42990348404223
 21
333.0829268413065
 72
     1
 10
95.42990348404223
 20
333.0829268413065
 11
95.42990348404223
 21
334.1517601746411
 72
     1
 10
95.42990348404223
 20
334.1517601746411
 11
96.62269618620863
 21
334.1517601746411
 97
       12
330
14B
330
14A
330
149
330
131
330
132
330
148
330
133
330
147
330
146
330
145
330
12F
330
130
 75
     1
 76
     0
 52
45.0
 41
0.1
 77
     0
 78
     1
 53
45.0
 43
0.0
 44
0.0
 45
-0.0707106781186548
 46
0.0707106781186548
 79
     0
 98
        1
 10
0.0
 20
0.0
  0
ENDBLK
  5
73
330
71
100
AcDbEntity
  8
0
100
AcDbBlockEnd
  0
BLOCK
  5
75
330
74
100
AcDbEntity
  8
0
100
AcDbBlockBegin
  2
_punkt
 70
     0
 10
208.4999999999976
 20
320.4452601746393
 30
0.0
  3
_punkt
  1

  0
LINE
  5
235
330
74
100
AcDbEntity
  8
1
  6
Continuous
 62
     2
100
AcDbLine
 10
208.4999999999976
 20
320.4452601746393
 30
0.0
 11
208.4999999999976
 21
315.4452601746392
 31
0.0
  0
LINE
  5
236
330
74
100
AcDbEntity
  8
1
  6
Continuous
 62
     2
100
AcDbLine
 10
208.4999999999976
 20
320.4452601746393
 30
0.0
 11
213.4999999999965
 21
320.4452601746393
 31
0.0
  0
ENDBLK
  5
76
330
74
100
AcDbEntity
  8
0
100
AcDbBlockEnd
  0
BLOCK
  5
7A
330
77
100
AcDbEntity
  8
0
100
AcDbBlockBegin
  2
A4I_CS
 70
     0
 10
208.4999999999976
 20
315.4452601746392
 30
0.0
  3
A4I_CS
  1

  0
INSERT
  5
78
330
77
100
AcDbEntity
  8
1
100
AcDbBlockReference
  2
_rahmen
 10
208.4999999999976
 20
315.4452601746392
 30
0.0
  0
INSERT
  5
79
330
77
100
AcDbEntity
  8
1
100
AcDbBlockReference
  2
_punkt
 10
208.4999999999976
 20
320.4452601746393
 30
0.0
  0
ENDBLK
  5
7B
330
77
100
AcDbEntity
  8
0
100
AcDbBlockEnd
  0
BLOCK
  5
84
330
7C
100
AcDbEntity
  8
0
100
AcDbBlockBegin
  2
1
 70
     0
 10
0.0
 20
0.0
 30
0.0
  3
1
  1

  0
INSERT
  5
7D
330
7C
100
AcDbEntity
  8
0
100
AcDbBlockReference
  2
AllgSicht1
 10
145.9999999999984
 20
392.0
 30
0.0
  0
INSERT
  5
7E
330
7C
100
AcDbEntity
  8
0
100
AcDbBlockReference
  2
Drfsicht1
 10
29.0
 20
400.9999999999951
 30
0.0
  0
INSERT
  5
7F
330
7C
100
AcDbEntity
  8
0
100
AcDbBlockReference
  2
Rckans1
 10
143.0
 20
463.2999982833862
 30
0.0
  0
INSERT
  5
80
330
7C
100
AcDbEntity
  8
0
100
AcDbBlockReference
  2
SA_Links1
 10
90.00000000000873
 20
463.2999982833861
 30
0.0
  0
INSERT
  5
81
330
7C
100
AcDbEntity
  8
0
100
AcDbBlockReference
  2
SA_Rechts1
 10
-41.00000000000492
 20
463.2999982833862
 30
0.0
  0
INSERT
  5
82
330
7C
100
AcDbEntity
  8
0
100
AcDbBlockReference
  2
Vordans1
 10
29.00000000000014
 20
463.2999982833861
 30
0.0
  0
INSERT
  5
83
330
7C
100
AcDbEntity
  8
0
100
AcDbBlockReference
  2
A4I_CS
 10
208.4999999999976
 20
315.4452601746392
 30
0.0
  0
ENDBLK
  5
85
330
7C
100
AcDbEntity
  8
0
100
AcDbBlockEnd
  0
BLOCK
  5
B2
330
A9
100
AcDbEntity
  8
0
100
AcDbBlockBegin
  2
*D17
 70
     1
 10
0.0
 20
0.0
 30
0.0
  3
*D17
  1

  0
LINE
  5
AA
330
A9
100
AcDbEntity
  8
1
  6
Continuous
 62
     2
100
AcDbLine
 10
-11.00000000000001
 20
401.9999999999901
 30
0.0
 11
-11.00000000000001
 21
408.9999999999901
 31
0.0
  0
LINE
  5
AB
330
A9
100
AcDbEntity
  8
1
  6
Continuous
 62
     2
100
AcDbLine
 10
-11.00000000000001
 20
399.9999999999901
 30
0.0
 11
-11.00000000000001
 21
401.9999999999901
 31
0.0
  0
LINE
  5
AC
330
A9
100
AcDbEntity
  8
1
  6
Continuous
 62
     2
100
AcDbLine
 10
-11.00000000000001
 20
392.9999999999901
 30
0.0
 11
-11.00000000000001
 21
399.9999999999901
 31
0.0
  0
LINE
  5
AD
330
A9
100
AcDbEntity
  8
1
  6
Continuous
 62
     2
100
AcDbLine
 10
-1.00000000000001
 20
401.9999999999901
 30
0.0
 11
-12.50000000000001
 21
401.9999999999901
 31
0.0
  0
LINE
  5
AE
330
A9
100
AcDbEntity
  8
1
  6
Continuous
 62
     2
100
AcDbLine
 10
-1.00000000000001
 20
399.9999999999901
 30
0.0
 11
-12.50000000000001
 21
399.9999999999901
 31
0.0
  0
SOLID
  5
AF
330
A9
100
AcDbEntity
  8
1
 62
     2
100
AcDbTrace
 10
-10.53921625844413
 20
396.4999999999901
 30
0.0
 11
-11.4607837415559
 21
396.4999999999901
 31
0.0
 12
-11.00000000000001
 22
399.9999999999901
 32
0.0
 13
-11.00000000000001
 23
399.9999999999901
 33
0.0
  0
SOLID
  5
B0
330
A9
100
AcDbEntity
  8
1
 62
     2
100
AcDbTrace
 10
-11.4607837415559
 20
405.4999999999901
 30
0.0
 11
-10.53921625844412
 21
405.4999999999901
 31
0.0
 12
-11.00000000000001
 22
401.9999999999901
 32
0.0
 13
-11.00000000000001
 23
401.9999999999901
 33
0.0
  0
MTEXT
  5
B1
330
A9
100
AcDbEntity
  8
1
 62
     3
100
AcDbMText
 10
-12.50000000000001
 20
393.002570783182
 30
0.0
 40
3.5
 41
0.0
 71
     7
 72
     1
  1
2
  7
CONVERTER_11
 11
0.0
 21
1.0
 31
0.0
 73
     1
 44
0.60024009603842
  0
ENDBLK
  5
B3
330
A9
100
AcDbEntity
  8
0
100
AcDbBlockEnd
  0
BLOCK
  5
EF
330
E8
100
AcDbEntity
  8
0
100
AcDbBlockBegin
  2
*D18
 70
     1
 10
0.0
 20
0.0
 30
0.0
  3
*D18
  1

  0
LINE
  5
E9
330
E8
100
AcDbEntity
  8
1
  6
Continuous
 62
     2
100
AcDbLine
 10
-10.99999999999994
 20
436.9999996840725
 30
0.0
 11
-10.99999999999994
 21
489.5999996840724
 31
0.0
  0
LINE
  5
EA
330
E8
100
AcDbEntity
  8
1
  6
Continuous
 62
     2
100
AcDbLine
 10
11.00000000000013
 20
489.5999996840724
 30
0.0
 11
-12.49999999999994
 21
489.5999996840724
 31
0.0
  0
LINE
  5
EB
330
E8
100
AcDbEntity
  8
1
  6
Continuous
 62
     2
100
AcDbLine
 10
-0.15549912292195
 20
436.9999996840725
 30
0.0
 11
-12.49999999999994
 21
436.9999996840725
 31
0.0
  0
SOLID
  5
EC
330
E8
100
AcDbEntity
  8
1
 62
     2
100
AcDbTrace
 10
-11.46078374155583
 20
440.4999996840725
 30
0.0
 11
-10.53921625844405
 21
440.4999996840725
 31
0.0
 12
-10.99999999999994
 22
436.9999996840725
 32
0.0
 13
-10.99999999999994
 23
436.9999996840725
 33
0.0
  0
SOLID
  5
ED
330
E8
100
AcDbEntity
  8
1
 62
     2
100
AcDbTrace
 10
-10.53921625844406
 20
486.0999996840724
 30
0.0
 11
-11.46078374155583
 21
486.0999996840724
 31
0.0
 12
-10.99999999999994
 22
489.5999996840724
 32
0.0
 13
-10.99999999999994
 23
489.5999996840724
 33
0.0
  0
MTEXT
  5
EE
330
E8
100
AcDbEntity
  8
1
 62
     3
100
AcDbMText
 10
-12.84999999999994
 20
458.430569972776
 30
0.0
 40
3.5
 41
0.0
 71
     7
 72
     1
  1
52,6
  7
CONVERTER_11
 11
0.0
 21
1.0
 31
0.0
 73
     1
 44
0.60024009603842
  0
ENDBLK
  5
F0
330
E8
100
AcDbEntity
  8
0
100
AcDbBlockEnd
  0
BLOCK
  5
FA
330
F3
100
AcDbEntity
  8
0
100
AcDbBlockBegin
  2
*D19
 70
     1
 10
0.0
 20
0.0
 30
0.0
  3
*D19
  1

  0
LINE
  5
F4
330
F3
100
AcDbEntity
  8
1
  6
Continuous
 62
     2
100
AcDbLine
 10
59.00000000000011
 20
422.712236314108
 30
0.0
 11
-0.99999999999987
 21
422.712236314108
 31
0.0
  0
LINE
  5
F5
330
F3
100
AcDbEntity
  8
1
  6
Continuous
 62
     2
100
AcDbLine
 10
-0.99999999999987
 20
439.1999996840725
 30
0.0
 11
-0.99999999999987
 21
420.712236314108
 31
0.0
  0
LINE
  5
F6
330
F3
100
AcDbEntity
  8
1
  6
Continuous
 62
     2
100
AcDbLine
 10
59.00000000000011
 20
438.5999996840724
 30
0.0
 11
59.00000000000011
 21
420.712236314108
 31
0.0
  0
SOLID
  5
F7
330
F3
100
AcDbEntity
  8
1
 62
     2
100
AcDbTrace
 10
55.50000000000011
 20
422.2514525725521
 30
0.0
 11
55.50000000000011
 21
423.1730200556639
 31
0.0
 12
59.00000000000011
 22
422.712236314108
 32
0.0
 13
59.00000000000011
 23
422.712236314108
 33
0.0
  0
SOLID
  5
F8
330
F3
100
AcDbEntity
  8
1
 62
     2
100
AcDbTrace
 10
2.50000000000013
 20
423.1730200556639
 30
0.0
 11
2.50000000000013
 21
422.2514525725521
 31
0.0
 12
-0.99999999999987
 22
422.712236314108
 32
0.0
 13
-0.99999999999987
 23
422.712236314108
 33
0.0
  0
MTEXT
  5
F9
330
F3
100
AcDbEntity
  8
1
 62
     3
100
AcDbMText
 10
23.60279760144538
 20
424.712236314108
 30
0.0
 40
3.5
 41
0.0
 71
     7
 72
     1
  1
60
  7
CONVERTER_11
 11
0.9999999999970619
 21
2.424068405545306E-6
 31
0.0
 73
     1
 44
0.60024009603842
  0
ENDBLK
  5
FB
330
F3
100
AcDbEntity
  8
0
100
AcDbBlockEnd
  0
ENDSEC
  0
SECTION
  2
ENTITIES
  0
INSERT
  5
86
330
1F
100
AcDbEntity
  8
1
100
AcDbBlockReference
  2
1
 10
0.0
 20
0.0
 30
0.0
  0
ENDSEC
  0
SECTION
  2
OBJECTS
  0
DICTIONARY
  5
C
330
0
100
AcDbDictionary
281
     1
  3
ACAD_GROUP
350
D
  3
ACAD_LAYOUT
350
1A
  3
ACAD_MATERIAL
350
3B
  3
ACAD_MLEADERSTYLE
350
25E
  3
ACAD_MLINESTYLE
350
17
  3
ACAD_PLOTSETTINGS
350
19
  3
ACAD_PLOTSTYLENAME
350
E
  3
ACAD_TABLESTYLE
350
25D
  3
ACAD_VISUALSTYLE
350
2A
  0
DICTIONARY
  5
D
102
{ACAD_REACTORS
330
C
102
}
330
C
100
AcDbDictionary
281
     1
  0
DICTIONARY
  5
1A
102
{ACAD_REACTORS
330
C
102
}
330
C
100
AcDbDictionary
281
     1
  3
Layout1
350
1E
  3
Layout2
350
26
  3
Model
350
22
  0
DICTIONARY
  5
3B
102
{ACAD_REACTORS
330
C
102
}
330
C
100
AcDbDictionary
281
     1
  3
ByBlock
350
3D
  3
ByLayer
350
3C
  3
Global
350
3E
  0
DICTIONARY
  5
25E
102
{ACAD_REACTORS
330
C
102
}
330
C
100
AcDbDictionary
281
     1
  0
DICTIONARY
  5
17
102
{ACAD_REACTORS
330
C
102
}
330
C
100
AcDbDictionary
281
     1
  3
Standard
350
18
  0
DICTIONARY
  5
19
102
{ACAD_REACTORS
330
C
102
}
330
C
100
AcDbDictionary
281
     1
  0
ACDBDICTIONARYWDFLT
  5
E
102
{ACAD_REACTORS
330
C
102
}
330
C
100
AcDbDictionary
281
     1
  3
Normal
350
F
100
AcDbDictionaryWithDefault
340
F
  0
DICTIONARY
  5
25D
102
{ACAD_REACTORS
330
C
102
}
330
C
100
AcDbDictionary
281
     1
  0
DICTIONARY
  5
2A
102
{ACAD_REACTORS
330
C
102
}
330
C
100
AcDbDictionary
281
     1
  3
2dWireframe
350
2F
  3
3D Hidden
350
31
  3
3dWireframe
350
30
  3
Basic
350
32
  3
Brighten
350
36
  3
ColorChange
350
3A
  3
Conceptual
350
34
  3
Dim
350
35
  3
Facepattern
350
39
  3
Flat
350
2B
  3
FlatWithEdges
350
2C
  3
Gouraud
350
2D
  3
GouraudWithEdges
350
2E
  3
Linepattern
350
38
  3
Realistic
350
33
  3
Thicken
350
37
  0
LAYOUT
  5
1E
102
{ACAD_REACTORS
330
1A
102
}
330
1A
100
AcDbPlotSettings
  1

  2
none_device
  4

  6

 40
0.0
 41
0.0
 42
0.0
 43
0.0
 44
0.0
 45
0.0
 46
0.0
 47
0.0
 48
0.0
 49
0.0
140
0.0
141
0.0
142
1.0
143
1.0
 70
   688
 72
     0
 73
     0
 74
     5
  7

 75
    16
 76
     0
 77
     2
 78
   300
147
1.0
148
0.0
149
0.0
100
AcDbLayout
  1
Layout1
 70
     1
 71
     1
 10
0.0
 20
0.0
 11
12.0
 21
9.0
 12
0.0
 22
0.0
 32
0.0
 14
1.00000000000000E+20
 24
1.00000000000000E+20
 34
1.00000000000000E+20
 15
-1.00000000000000E+20
 25
-1.00000000000000E+20
 35
-1.00000000000000E+20
146
0.0
 13
0.0
 23
0.0
 33
0.0
 16
1.0
 26
0.0
 36
0.0
 17
0.0
 27
1.0
 37
0.0
 76
     0
330
1B
  0
LAYOUT
  5
26
102
{ACAD_REACTORS
330
1A
102
}
330
1A
100
AcDbPlotSettings
  1

  2
none_device
  4

  6

 40
0.0
 41
0.0
 42
0.0
 43
0.0
 44
0.0
 45
0.0
 46
0.0
 47
0.0
 48
0.0
 49
0.0
140
0.0
141
0.0
142
1.0
143
1.0
 70
   688
 72
     0
 73
     0
 74
     5
  7

 75
    16
 76
     0
 77
     2
 78
   300
147
1.0
148
0.0
149
0.0
100
AcDbLayout
  1
Layout2
 70
     1
 71
     2
 10
0.0
 20
0.0
 11
0.0
 21
0.0
 12
0.0
 22
0.0
 32
0.0
 14
0.0
 24
0.0
 34
0.0
 15
0.0
 25
0.0
 35
0.0
146
0.0
 13
0.0
 23
0.0
 33
0.0
 16
1.0
 26
0.0
 36
0.0
 17
0.0
 27
1.0
 37
0.0
 76
     0
330
23
  0
LAYOUT
  5
22
102
{ACAD_REACTORS
330
1A
102
}
330
1A
100
AcDbPlotSettings
  1

  2
none_device
  4

  6

 40
0.0
 41
0.0
 42
0.0
 43
0.0
 44
0.0
 45
0.0
 46
0.0
 47
0.0
 48
0.0
 49
0.0
140
0.0
141
0.0
142
1.0
143
1.0
 70
  1712
 72
     0
 73
     0
 74
     0
  7

 75
     0
 76
     0
 77
     2
 78
   300
147
1.0
148
0.0
149
0.0
100
AcDbLayout
  1
Model
 70
     1
 71
     0
 10
0.0
 20
0.0
 11
12.0
 21
9.0
 12
0.0
 22
0.0
 32
0.0
 14
-83.50000000000153
 24
315.4452601746392
 34
0.0
 15
213.4999999999965
 25
525.4452601746393
 35
0.0
146
0.0
 13
0.0
 23
0.0
 33
0.0
 16
1.0
 26
0.0
 36
0.0
 17
0.0
 27
1.0
 37
0.0
 76
     0
330
1F
331
29
  0
MATERIAL
  5
3D
102
{ACAD_REACTORS
330
3B
102
}
102
{ACAD_XDICTIONARY
360
259
102
}
330
3B
100
AcDbMaterial
  1
ByBlock
  0
MATERIAL
  5
3C
102
{ACAD_REACTORS
330
3B
102
}
102
{ACAD_XDICTIONARY
360
257
102
}
330
3B
100
AcDbMaterial
  1
ByLayer
  0
MATERIAL
  5
3E
102
{ACAD_REACTORS
330
3B
102
}
102
{ACAD_XDICTIONARY
360
25B
102
}
330
3B
100
AcDbMaterial
  1
Global
  0
MLINESTYLE
  5
18
102
{ACAD_REACTORS
330
17
102
}
330
17
100
AcDbMlineStyle
  2
Standard
 70
     0
  3

 62
   256
 51
90.0
 52
90.0
 71
     2
 49
0.5
 62
   256
  6
BYLAYER
 49
-0.5
 62
   256
  6
BYLAYER
  0
ACDBPLACEHOLDER
  5
F
102
{ACAD_REACTORS
330
E
102
}
330
E
  0
VISUALSTYLE
  5
2F
102
{ACAD_REACTORS
330
2A
102
}
102
{ACAD_XDICTIONARY
360
23F
102
}
330
2A
100
AcDbVisualStyle
  2
2dWireframe
 70
     4
 71
     0
 72
     2
 73
     0
 90
        0
 40
-0.6
 41
-30.0
 62
     5
 63
     7
421
 16777215
 74
     1
 91
        4
 64
     7
 65
   257
 75
     1
175
     1
 42
1.0
 92
        0
 66
   257
 43
1.0
 76
     1
 77
     6
 78
     2
 67
     7
 79
     5
170
     0
171
     0
290
     0
174
     0
 93
        1
 44
0.0
173
     0
291
     0
 45
0.0
1001
ACAD
1000
AcDbSavedByObjectVersion
1070
     0
  0
VISUALSTYLE
  5
31
102
{ACAD_REACTORS
330
2A
102
}
102
{ACAD_XDICTIONARY
360
243
102
}
330
2A
100
AcDbVisualStyle
  2
3D Hidden
 70
     6
 71
     1
 72
     2
 73
     2
 90
        0
 40
-0.6
 41
-30.0
 62
     5
 63
     7
421
 16777215
 74
     2
 91
        2
 64
     7
 65
   257
 75
     2
175
     1
 42
40.0
 92
        0
 66
   257
 43
1.0
 76
     1
 77
     6
 78
     2
 67
     7
 79
     3
170
     0
171
     0
290
     0
174
     0
 93
        1
 44
0.0
173
     0
291
     0
 45
0.0
1001
ACAD
1000
AcDbSavedByObjectVersion
1070
     0
  0
VISUALSTYLE
  5
30
102
{ACAD_REACTORS
330
2A
102
}
102
{ACAD_XDICTIONARY
360
241
102
}
330
2A
100
AcDbVisualStyle
  2
3dWireframe
 70
     5
 71
     0
 72
     2
 73
     0
 90
        0
 40
-0.6
 41
-30.0
 62
     5
 63
     7
421
 16777215
 74
     1
 91
        4
 64
     7
 65
   257
 75
     1
175
     1
 42
1.0
 92
        0
 66
   257
 43
1.0
 76
     1
 77
     6
 78
     2
 67
     7
 79
     5
170
     0
171
     0
290
     0
174
     0
 93
        1
 44
0.0
173
     0
291
     0
 45
0.0
1001
ACAD
1000
AcDbSavedByObjectVersion
1070
     0
  0
VISUALSTYLE
  5
32
102
{ACAD_REACTORS
330
2A
102
}
102
{ACAD_XDICTIONARY
360
245
102
}
330
2A
100
AcDbVisualStyle
  2
Basic
 70
     7
 71
     1
 72
     0
 73
     1
 90
        0
 40
-0.6
 41
-30.0
 62
     5
 63
     7
421
 16777215
 74
     0
 91
        4
 64
     7
 65
   257
 75
     1
175
     1
 42
1.0
 92
        8
 66
     7
 43
1.0
 76
     1
 77
     6
 78
     2
 67
     7
 79
     5
170
     0
171
     0
290
     0
174
     0
 93
        1
 44
0.0
173
     0
291
     1
 45
0.0
1001
ACAD
1000
AcDbSavedByObjectVersion
1070
     0
  0
VISUALSTYLE
  5
36
102
{ACAD_REACTORS
330
2A
102
}
102
{ACAD_XDICTIONARY
360
24D
102
}
330
2A
100
AcDbVisualStyle
  2
Brighten
 70
    12
 71
     2
 72
     2
 73
     0
 90
        0
 40
-0.6
 41
-30.0
 62
     5
 63
     7
421
 16777215
 74
     1
 91
        4
 64
     7
 65
   257
 75
     1
175
     1
 42
1.0
 92
        8
 66
     7
 43
1.0
 76
     1
 77
     6
 78
     2
 67
     7
 79
     5
170
     0
171
     0
290
     0
174
     0
 93
        1
 44
50.0
173
     0
291
     1
 45
0.0
1001
ACAD
1000
AcDbSavedByObjectVersion
1070
     0
  0
VISUALSTYLE
  5
3A
102
{ACAD_REACTORS
330
2A
102
}
102
{ACAD_XDICTIONARY
360
255
102
}
330
2A
100
AcDbVisualStyle
  2
ColorChange
 70
    16
 71
     2
 72
     2
 73
     3
 90
        0
 40
-0.6
 41
-30.0
 62
     5
 63
     8
421
  8421504
 74
     1
 91
        4
 64
     7
 65
   257
 75
     1
175
     1
 42
1.0
 92
        8
 66
     8
424
  8421504
 43
1.0
 76
     1
 77
     6
 78
     2
 67
     7
 79
     5
170
     0
171
     0
290
     0
174
     0
 93
        1
 44
0.0
173
     0
291
     1
 45
0.0
1001
ACAD
1000
AcDbSavedByObjectVersion
1070
     0
  0
VISUALSTYLE
  5
34
102
{ACAD_REACTORS
330
2A
102
}
102
{ACAD_XDICTIONARY
360
249
102
}
330
2A
100
AcDbVisualStyle
  2
Conceptual
 70
     9
 71
     3
 72
     2
 73
     0
 90
        0
 40
-0.6
 41
-30.0
 62
     5
 63
     7
421
 16777215
 74
     2
 91
        2
 64
     7
 65
   257
 75
     1
175
     1
 42
40.0
 92
        8
 66
     7
 43
1.0
 76
     1
 77
     6
 78
     2
 67
     7
 79
     3
170
     0
171
     0
290
     0
174
     0
 93
        1
 44
0.0
173
     0
291
     0
 45
0.0
1001
ACAD
1000
AcDbSavedByObjectVersion
1070
     0
  0
VISUALSTYLE
  5
35
102
{ACAD_REACTORS
330
2A
102
}
102
{ACAD_XDICTIONARY
360
24B
102
}
330
2A
100
AcDbVisualStyle
  2
Dim
 70
    11
 71
     2
 72
     2
 73
     0
 90
        0
 40
-0.6
 41
-30.0
 62
     5
 63
     7
421
 16777215
 74
     1
 91
        4
 64
     7
 65
   257
 75
     1
175
     1
 42
1.0
 92
        8
 66
     7
 43
1.0
 76
     1
 77
     6
 78
     2
 67
     7
 79
     5
170
     0
171
     0
290
     0
174
     0
 93
        1
 44
-50.0
173
     0
291
     1
 45
0.0
1001
ACAD
1000
AcDbSavedByObjectVersion
1070
     0
  0
VISUALSTYLE
  5
39
102
{ACAD_REACTORS
330
2A
102
}
102
{ACAD_XDICTIONARY
360
253
102
}
330
2A
100
AcDbVisualStyle
  2
Facepattern
 70
    15
 71
     2
 72
     2
 73
     0
 90
        0
 40
-0.6
 41
-30.0
 62
     5
 63
     7
421
 16777215
 74
     1
 91
        4
 64
     7
 65
   257
 75
     1
175
     1
 42
1.0
 92
        8
 66
     7
 43
1.0
 76
     1
 77
     6
 78
     2
 67
     7
 79
     5
170
     0
171
     0
290
     0
174
     0
 93
        1
 44
0.0
173
     0
291
     1
 45
0.0
1001
ACAD
1000
AcDbSavedByObjectVersion
1070
     0
  0
VISUALSTYLE
  5
2B
102
{ACAD_REACTORS
330
2A
102
}
102
{ACAD_XDICTIONARY
360
237
102
}
330
2A
100
AcDbVisualStyle
  2
Flat
 70
     0
 71
     2
 72
     1
 73
     1
 90
        2
 40
-0.6
 41
30.0
 62
     5
 63
     7
421
 16777215
 74
     0
 91
        4
 64
     7
 65
   257
 75
     1
175
     1
 42
1.0
 92
        8
 66
     7
 43
1.0
 76
     1
 77
     6
 78
     2
 67
     7
 79
     5
170
     0
171
     0
290
     0
174
     0
 93
       13
 44
0.0
173
     0
291
     1
 45
0.0
1001
ACAD
1000
AcDbSavedByObjectVersion
1070
     0
  0
VISUALSTYLE
  5
2C
102
{ACAD_REACTORS
330
2A
102
}
102
{ACAD_XDICTIONARY
360
239
102
}
330
2A
100
AcDbVisualStyle
  2
FlatWithEdges
 70
     1
 71
     2
 72
     1
 73
     1
 90
        2
 40
-0.6
 41
30.0
 62
     5
 63
     7
421
 16777215
 74
     1
 91
        4
 64
     7
 65
   257
 75
     1
175
     1
 42
1.0
 92
        0
 66
   257
 43
1.0
 76
     1
 77
     6
 78
     2
 67
     7
 79
     5
170
     0
171
     0
290
     0
174
     0
 93
       13
 44
0.0
173
     0
291
     1
 45
0.0
1001
ACAD
1000
AcDbSavedByObjectVersion
1070
     0
  0
VISUALSTYLE
  5
2D
102
{ACAD_REACTORS
330
2A
102
}
102
{ACAD_XDICTIONARY
360
23B
102
}
330
2A
100
AcDbVisualStyle
  2
Gouraud
 70
     2
 71
     2
 72
     2
 73
     1
 90
        2
 40
-0.6
 41
30.0
 62
     5
 63
     7
421
 16777215
 74
     0
 91
        4
 64
     7
 65
   257
 75
     1
175
     1
 42
1.0
 92
        0
 66
     7
 43
1.0
 76
     1
 77
     6
 78
     2
 67
     7
 79
     5
170
     0
171
     0
290
     0
174
     0
 93
       13
 44
0.0
173
     0
291
     1
 45
0.0
1001
ACAD
1000
AcDbSavedByObjectVersion
1070
     0
  0
VISUALSTYLE
  5
2E
102
{ACAD_REACTORS
330
2A
102
}
102
{ACAD_XDICTIONARY
360
23D
102
}
330
2A
100
AcDbVisualStyle
  2
GouraudWithEdges
 70
     3
 71
     2
 72
     2
 73
     1
 90
        2
 40
-0.6
 41
30.0
 62
     5
 63
     7
421
 16777215
 74
     1
 91
        4
 64
     7
 65
   257
 75
     1
175
     1
 42
1.0
 92
        0
 66
   257
 43
1.0
 76
     1
 77
     6
 78
     2
 67
     7
 79
     5
170
     0
171
     0
290
     0
174
     0
 93
       13
 44
0.0
173
     0
291
     1
 45
0.0
1001
ACAD
1000
AcDbSavedByObjectVersion
1070
     0
  0
VISUALSTYLE
  5
38
102
{ACAD_REACTORS
330
2A
102
}
102
{ACAD_XDICTIONARY
360
251
102
}
330
2A
100
AcDbVisualStyle
  2
Linepattern
 70
    14
 71
     2
 72
     2
 73
     0
 90
        0
 40
-0.6
 41
-30.0
 62
     5
 63
     7
421
 16777215
 74
     1
 91
        4
 64
     7
 65
   257
 75
     7
175
     7
 42
1.0
 92
        8
 66
     7
 43
1.0
 76
     1
 77
     6
 78
     2
 67
     7
 79
     5
170
     0
171
     0
290
     0
174
     0
 93
        1
 44
0.0
173
     0
291
     1
 45
0.0
1001
ACAD
1000
AcDbSavedByObjectVersion
1070
     0
  0
VISUALSTYLE
  5
33
102
{ACAD_REACTORS
330
2A
102
}
102
{ACAD_XDICTIONARY
360
247
102
}
330
2A
100
AcDbVisualStyle
  2
Realistic
 70
     8
 71
     2
 72
     2
 73
     0
 90
        0
 40
-0.6
 41
-30.0
 62
     5
 63
     7
421
 16777215
 74
     1
 91
        0
 64
     7
 65
   257
 75
     1
175
     1
 42
1.0
 92
        8
 66
     8
424
  7895160
 43
1.0
 76
     1
 77
     6
 78
     2
 67
     7
 79
     5
170
     0
171
     0
290
     0
174
     0
 93
       13
 44
0.0
173
     0
291
     0
 45
0.0
1001
ACAD
1000
AcDbSavedByObjectVersion
1070
     0
  0
VISUALSTYLE
  5
37
102
{ACAD_REACTORS
330
2A
102
}
102
{ACAD_XDICTIONARY
360
24F
102
}
330
2A
100
AcDbVisualStyle
  2
Thicken
 70
    13
 71
     2
 72
     2
 73
     0
 90
        0
 40
-0.6
 41
-30.0
 62
     5
 63
     7
421
 16777215
 74
     1
 91
        4
 64
     7
 65
   257
 75
     1
175
     1
 42
1.0
 92
       12
 66
     7
 43
1.0
 76
     1
 77
     6
 78
     2
 67
     7
 79
     5
170
     0
171
     0
290
     0
174
     0
 93
        1
 44
0.0
173
     0
291
     1
 45
0.0
1001
ACAD
1000
AcDbSavedByObjectVersion
1070
     0
  0
DICTIONARY
  5
259
330
3D
100
AcDbDictionary
280
     1
281
     1
  3
ACAD_XREC_ROUNDTRIP
360
25A
  0
DICTIONARY
  5
257
330
3C
100
AcDbDictionary
280
     1
281
     1
  3
ACAD_XREC_ROUNDTRIP
360
258
  0
DICTIONARY
  5
25B
330
3E
100
AcDbDictionary
280
     1
281
     1
  3
ACAD_XREC_ROUNDTRIP
360
25C
  0
DICTIONARY
  5
23F
330
2F
100
AcDbDictionary
280
     1
281
     1
  3
ACAD_XREC_ROUNDTRIP
360
240
  0
DICTIONARY
  5
243
330
31
100
AcDbDictionary
280
     1
281
     1
  3
ACAD_XREC_ROUNDTRIP
360
244
  0
DICTIONARY
  5
241
330
30
100
AcDbDictionary
280
     1
281
     1
  3
ACAD_XREC_ROUNDTRIP
360
242
  0
DICTIONARY
  5
245
330
32
100
AcDbDictionary
280
     1
281
     1
  3
ACAD_XREC_ROUNDTRIP
360
246
  0
DICTIONARY
  5
24D
330
36
100
AcDbDictionary
280
     1
281
     1
  3
ACAD_XREC_ROUNDTRIP
360
24E
  0
DICTIONARY
  5
255
330
3A
100
AcDbDictionary
280
     1
281
     1
  3
ACAD_XREC_ROUNDTRIP
360
256
  0
DICTIONARY
  5
249
330
34
100
AcDbDictionary
280
     1
281
     1
  3
ACAD_XREC_ROUNDTRIP
360
24A
  0
DICTIONARY
  5
24B
330
35
100
AcDbDictionary
280
     1
281
     1
  3
ACAD_XREC_ROUNDTRIP
360
24C
  0
DICTIONARY
  5
253
330
39
100
AcDbDictionary
280
     1
281
     1
  3
ACAD_XREC_ROUNDTRIP
360
254
  0
DICTIONARY
  5
237
330
2B
100
AcDbDictionary
280
     1
281
     1
  3
ACAD_XREC_ROUNDTRIP
360
238
  0
DICTIONARY
  5
239
330
2C
100
AcDbDictionary
280
     1
281
     1
  3
ACAD_XREC_ROUNDTRIP
360
23A
  0
DICTIONARY
  5
23B
330
2D
100
AcDbDictionary
280
     1
281
     1
  3
ACAD_XREC_ROUNDTRIP
360
23C
  0
DICTIONARY
  5
23D
330
2E
100
AcDbDictionary
280
     1
281
     1
  3
ACAD_XREC_ROUNDTRIP
360
23E
  0
DICTIONARY
  5
251
330
38
100
AcDbDictionary
280
     1
281
     1
  3
ACAD_XREC_ROUNDTRIP
360
252
  0
DICTIONARY
  5
247
330
33
100
AcDbDictionary
280
     1
281
     1
  3
ACAD_XREC_ROUNDTRIP
360
248
  0
DICTIONARY
  5
24F
330
37
100
AcDbDictionary
280
     1
281
     1
  3
ACAD_XREC_ROUNDTRIP
360
250
  0
XRECORD
  5
25A
102
{ACAD_REACTORS
330
259
102
}
330
259
100
AcDbXrecord
280
     1
102
MATERIAL
148
0.0
149
0.0
149
0.0
 93
        0
 94
      127
282
     0
 72
     1
 77
     1
171
     1
175
     1
179
     1
273
     0
  0
XRECORD
  5
258
102
{ACAD_REACTORS
330
257
102
}
330
257
100
AcDbXrecord
280
     1
102
MATERIAL
148
0.0
149
0.0
149
0.0
 93
        0
 94
      127
282
     0
 72
     1
 77
     1
171
     1
175
     1
179
     1
273
     0
  0
XRECORD
  5
25C
102
{ACAD_REACTORS
330
25B
102
}
330
25B
100
AcDbXrecord
280
     1
102
MATERIAL
148
0.0
149
0.0
149
0.0
 93
        0
 94
      127
282
     0
 72
     1
 77
     1
171
     1
175
     1
179
     1
273
     0
  0
XRECORD
  5
240
102
{ACAD_REACTORS
330
23F
102
}
330
23F
100
AcDbXrecord
280
     1
102
RTVSPropertyOp0
 70
     1
102
RTVSPropertyOp1
 70
     1
102
RTVSPropertyOp2
 70
     1
102
RTVSPropertyOp3
 70
     1
102
RTVSPropertyOp4
 70
     1
102
RTVSPropertyOp5
 70
     1
102
RTVSPropertyOp6
 70
     1
102
RTVSPropertyOp7
 70
     1
102
RTVSPropertyOp8
 70
     1
102
RTVSPropertyOp9
 70
     1
102
RTVSPropertyOp10
 70
     1
102
RTVSPropertyOp11
 70
     1
102
RTVSPropertyOp12
 70
     1
102
RTVSPropertyOp13
 70
     1
102
RTVSPropertyOp14
 70
     1
102
RTVSPropertyOp15
 70
     1
102
RTVSPropertyOp16
 70
     1
102
RTVSPropertyOp17
 70
     1
102
RTVSPropertyOp18
 70
     1
102
RTVSPropertyOp19
 70
     1
102
RTVSPropertyOp20
 70
     1
102
RTVSPropertyOp21
 70
     1
102
RTVSPropertyOp22
 70
     1
102
RTVSPropertyOp23
 70
     1
102
RTVSPropertyOp24
 70
     1
102
RTVSPropertyOp25
 70
     1
102
RTVSPropertyOp26
 70
     1
102
RTVSPropertyOp27
 70
     1
102
RTVSPropertyOp28
 70
     1
102
RTVSPropertyOp29
 70
     1
102
RTVSPropertyOp30
 70
     1
102
RTVSPropertyOp31
 70
     1
102
RTVSPropertyOp32
 70
     1
  0
XRECORD
  5
244
102
{ACAD_REACTORS
330
243
102
}
330
243
100
AcDbXrecord
280
     1
102
RTVSPropertyOp0
 70
     1
102
RTVSPropertyOp1
 70
     1
102
RTVSPropertyOp2
 70
     1
102
RTVSPropertyOp3
 70
     1
102
RTVSPropertyOp4
 70
     1
102
RTVSPropertyOp5
 70
     1
102
RTVSPropertyOp6
 70
     1
102
RTVSPropertyOp7
 70
     1
102
RTVSPropertyOp8
 70
     1
102
RTVSPropertyOp9
 70
     1
102
RTVSPropertyOp10
 70
     1
102
RTVSPropertyOp11
 70
     1
102
RTVSPropertyOp12
 70
     1
102
RTVSPropertyOp13
 70
     1
102
RTVSPropertyOp14
 70
     1
102
RTVSPropertyOp15
 70
     1
102
RTVSPropertyOp16
 70
     1
102
RTVSPropertyOp17
 70
     1
102
RTVSPropertyOp18
 70
     1
102
RTVSPropertyOp19
 70
     1
102
RTVSPropertyOp20
 70
     1
102
RTVSPropertyOp21
 70
     1
102
RTVSPropertyOp22
 70
     1
102
RTVSPropertyOp23
 70
     1
102
RTVSPropertyOp24
 70
     1
102
RTVSPropertyOp25
 70
     1
102
RTVSPropertyOp26
 70
     1
102
RTVSPropertyOp27
 70
     1
102
RTVSPropertyOp28
 70
     1
102
RTVSPropertyOp29
 70
     1
102
RTVSPropertyOp30
 70
     1
102
RTVSPropertyOp31
 70
     1
102
RTVSPropertyOp32
 70
     1
  0
XRECORD
  5
242
102
{ACAD_REACTORS
330
241
102
}
330
241
100
AcDbXrecord
280
     1
102
RTVSPropertyOp0
 70
     1
102
RTVSPropertyOp1
 70
     1
102
RTVSPropertyOp2
 70
     1
102
RTVSPropertyOp3
 70
     1
102
RTVSPropertyOp4
 70
     1
102
RTVSPropertyOp5
 70
     1
102
RTVSPropertyOp6
 70
     1
102
RTVSPropertyOp7
 70
     1
102
RTVSPropertyOp8
 70
     1
102
RTVSPropertyOp9
 70
     1
102
RTVSPropertyOp10
 70
     1
102
RTVSPropertyOp11
 70
     1
102
RTVSPropertyOp12
 70
     1
102
RTVSPropertyOp13
 70
     1
102
RTVSPropertyOp14
 70
     1
102
RTVSPropertyOp15
 70
     1
102
RTVSPropertyOp16
 70
     1
102
RTVSPropertyOp17
 70
     1
102
RTVSPropertyOp18
 70
     1
102
RTVSPropertyOp19
 70
     1
102
RTVSPropertyOp20
 70
     1
102
RTVSPropertyOp21
 70
     1
102
RTVSPropertyOp22
 70
     1
102
RTVSPropertyOp23
 70
     1
102
RTVSPropertyOp24
 70
     1
102
RTVSPropertyOp25
 70
     1
102
RTVSPropertyOp26
 70
     1
102
RTVSPropertyOp27
 70
     1
102
RTVSPropertyOp28
 70
     1
102
RTVSPropertyOp29
 70
     1
102
RTVSPropertyOp30
 70
     1
102
RTVSPropertyOp31
 70
     1
102
RTVSPropertyOp32
 70
     1
  0
XRECORD
  5
246
102
{ACAD_REACTORS
330
245
102
}
330
245
100
AcDbXrecord
280
     1
102
RTVSPropertyOp0
 70
     1
102
RTVSPropertyOp1
 70
     1
102
RTVSPropertyOp2
 70
     1
102
RTVSPropertyOp3
 70
     1
102
RTVSPropertyOp4
 70
     1
102
RTVSPropertyOp5
 70
     1
102
RTVSPropertyOp6
 70
     1
102
RTVSPropertyOp7
 70
     1
102
RTVSPropertyOp8
 70
     1
102
RTVSPropertyOp9
 70
     1
102
RTVSPropertyOp10
 70
     1
102
RTVSPropertyOp11
 70
     1
102
RTVSPropertyOp12
 70
     1
102
RTVSPropertyOp13
 70
     1
102
RTVSPropertyOp14
 70
     1
102
RTVSPropertyOp15
 70
     1
102
RTVSPropertyOp16
 70
     1
102
RTVSPropertyOp17
 70
     1
102
RTVSPropertyOp18
 70
     1
102
RTVSPropertyOp19
 70
     1
102
RTVSPropertyOp20
 70
     1
102
RTVSPropertyOp21
 70
     1
102
RTVSPropertyOp22
 70
     1
102
RTVSPropertyOp23
 70
     1
102
RTVSPropertyOp24
 70
     1
102
RTVSPropertyOp25
 70
     1
102
RTVSPropertyOp26
 70
     1
102
RTVSPropertyOp27
 70
     1
102
RTVSPropertyOp28
 70
     1
102
RTVSPropertyOp29
 70
     1
102
RTVSPropertyOp30
 70
     1
102
RTVSPropertyOp31
 70
     1
102
RTVSPropertyOp32
 70
     1
  0
XRECORD
  5
24E
102
{ACAD_REACTORS
330
24D
102
}
330
24D
100
AcDbXrecord
280
     1
102
RTVSPropertyOp0
 70
     1
102
RTVSPropertyOp1
 70
     1
102
RTVSPropertyOp2
 70
     1
102
RTVSPropertyOp3
 70
     1
102
RTVSPropertyOp4
 70
     1
102
RTVSPropertyOp5
 70
     1
102
RTVSPropertyOp6
 70
     1
102
RTVSPropertyOp7
 70
     1
102
RTVSPropertyOp8
 70
     1
102
RTVSPropertyOp9
 70
     1
102
RTVSPropertyOp10
 70
     1
102
RTVSPropertyOp11
 70
     1
102
RTVSPropertyOp12
 70
     1
102
RTVSPropertyOp13
 70
     1
102
RTVSPropertyOp14
 70
     1
102
RTVSPropertyOp15
 70
     1
102
RTVSPropertyOp16
 70
     1
102
RTVSPropertyOp17
 70
     1
102
RTVSPropertyOp18
 70
     1
102
RTVSPropertyOp19
 70
     1
102
RTVSPropertyOp20
 70
     1
102
RTVSPropertyOp21
 70
     1
102
RTVSPropertyOp22
 70
     1
102
RTVSPropertyOp23
 70
     1
102
RTVSPropertyOp24
 70
     1
102
RTVSPropertyOp25
 70
     1
102
RTVSPropertyOp26
 70
     1
102
RTVSPropertyOp27
 70
     1
102
RTVSPropertyOp28
 70
     1
102
RTVSPropertyOp29
 70
     1
102
RTVSPropertyOp30
 70
     1
102
RTVSPropertyOp31
 70
     1
102
RTVSPropertyOp32
 70
     1
  0
XRECORD
  5
256
102
{ACAD_REACTORS
330
255
102
}
330
255
100
AcDbXrecord
280
     1
102
RTVSPropertyOp0
 70
     1
102
RTVSPropertyOp1
 70
     1
102
RTVSPropertyOp2
 70
     1
102
RTVSPropertyOp3
 70
     1
102
RTVSPropertyOp4
 70
     1
102
RTVSPropertyOp5
 70
     1
102
RTVSPropertyOp6
 70
     1
102
RTVSPropertyOp7
 70
     1
102
RTVSPropertyOp8
 70
     1
102
RTVSPropertyOp9
 70
     1
102
RTVSPropertyOp10
 70
     1
102
RTVSPropertyOp11
 70
     1
102
RTVSPropertyOp12
 70
     1
102
RTVSPropertyOp13
 70
     1
102
RTVSPropertyOp14
 70
     1
102
RTVSPropertyOp15
 70
     1
102
RTVSPropertyOp16
 70
     1
102
RTVSPropertyOp17
 70
     1
102
RTVSPropertyOp18
 70
     1
102
RTVSPropertyOp19
 70
     1
102
RTVSPropertyOp20
 70
     1
102
RTVSPropertyOp21
 70
     1
102
RTVSPropertyOp22
 70
     1
102
RTVSPropertyOp23
 70
     1
102
RTVSPropertyOp24
 70
     1
102
RTVSPropertyOp25
 70
     1
102
RTVSPropertyOp26
 70
     1
102
RTVSPropertyOp27
 70
     1
102
RTVSPropertyOp28
 70
     1
102
RTVSPropertyOp29
 70
     1
102
RTVSPropertyOp30
 70
     1
102
RTVSPropertyOp31
 70
     1
102
RTVSPropertyOp32
 70
     1
  0
XRECORD
  5
24A
102
{ACAD_REACTORS
330
249
102
}
330
249
100
AcDbXrecord
280
     1
102
RTVSPropertyOp0
 70
     1
102
RTVSPropertyOp1
 70
     1
102
RTVSPropertyOp2
 70
     1
102
RTVSPropertyOp3
 70
     1
102
RTVSPropertyOp4
 70
     1
102
RTVSPropertyOp5
 70
     1
102
RTVSPropertyOp6
 70
     1
102
RTVSPropertyOp7
 70
     1
102
RTVSPropertyOp8
 70
     1
102
RTVSPropertyOp9
 70
     1
102
RTVSPropertyOp10
 70
     1
102
RTVSPropertyOp11
 70
     1
102
RTVSPropertyOp12
 70
     1
102
RTVSPropertyOp13
 70
     1
102
RTVSPropertyOp14
 70
     1
102
RTVSPropertyOp15
 70
     1
102
RTVSPropertyOp16
 70
     1
102
RTVSPropertyOp17
 70
     1
102
RTVSPropertyOp18
 70
     1
102
RTVSPropertyOp19
 70
     1
102
RTVSPropertyOp20
 70
     1
102
RTVSPropertyOp21
 70
     1
102
RTVSPropertyOp22
 70
     1
102
RTVSPropertyOp23
 70
     1
102
RTVSPropertyOp24
 70
     1
102
RTVSPropertyOp25
 70
     1
102
RTVSPropertyOp26
 70
     1
102
RTVSPropertyOp27
 70
     1
102
RTVSPropertyOp28
 70
     1
102
RTVSPropertyOp29
 70
     1
102
RTVSPropertyOp30
 70
     1
102
RTVSPropertyOp31
 70
     1
102
RTVSPropertyOp32
 70
     1
  0
XRECORD
  5
24C
102
{ACAD_REACTORS
330
24B
102
}
330
24B
100
AcDbXrecord
280
     1
102
RTVSPropertyOp0
 70
     1
102
RTVSPropertyOp1
 70
     1
102
RTVSPropertyOp2
 70
     1
102
RTVSPropertyOp3
 70
     1
102
RTVSPropertyOp4
 70
     1
102
RTVSPropertyOp5
 70
     1
102
RTVSPropertyOp6
 70
     1
102
RTVSPropertyOp7
 70
     1
102
RTVSPropertyOp8
 70
     1
102
RTVSPropertyOp9
 70
     1
102
RTVSPropertyOp10
 70
     1
102
RTVSPropertyOp11
 70
     1
102
RTVSPropertyOp12
 70
     1
102
RTVSPropertyOp13
 70
     1
102
RTVSPropertyOp14
 70
     1
102
RTVSPropertyOp15
 70
     1
102
RTVSPropertyOp16
 70
     1
102
RTVSPropertyOp17
 70
     1
102
RTVSPropertyOp18
 70
     1
102
RTVSPropertyOp19
 70
     1
102
RTVSPropertyOp20
 70
     1
102
RTVSPropertyOp21
 70
     1
102
RTVSPropertyOp22
 70
     1
102
RTVSPropertyOp23
 70
     1
102
RTVSPropertyOp24
 70
     1
102
RTVSPropertyOp25
 70
     1
102
RTVSPropertyOp26
 70
     1
102
RTVSPropertyOp27
 70
     1
102
RTVSPropertyOp28
 70
     1
102
RTVSPropertyOp29
 70
     1
102
RTVSPropertyOp30
 70
     1
102
RTVSPropertyOp31
 70
     1
102
RTVSPropertyOp32
 70
     1
  0
XRECORD
  5
254
102
{ACAD_REACTORS
330
253
102
}
330
253
100
AcDbXrecord
280
     1
102
RTVSPropertyOp0
 70
     1
102
RTVSPropertyOp1
 70
     1
102
RTVSPropertyOp2
 70
     1
102
RTVSPropertyOp3
 70
     1
102
RTVSPropertyOp4
 70
     1
102
RTVSPropertyOp5
 70
     1
102
RTVSPropertyOp6
 70
     1
102
RTVSPropertyOp7
 70
     1
102
RTVSPropertyOp8
 70
     1
102
RTVSPropertyOp9
 70
     1
102
RTVSPropertyOp10
 70
     1
102
RTVSPropertyOp11
 70
     1
102
RTVSPropertyOp12
 70
     1
102
RTVSPropertyOp13
 70
     1
102
RTVSPropertyOp14
 70
     1
102
RTVSPropertyOp15
 70
     1
102
RTVSPropertyOp16
 70
     1
102
RTVSPropertyOp17
 70
     1
102
RTVSPropertyOp18
 70
     1
102
RTVSPropertyOp19
 70
     1
102
RTVSPropertyOp20
 70
     1
102
RTVSPropertyOp21
 70
     1
102
RTVSPropertyOp22
 70
     1
102
RTVSPropertyOp23
 70
     1
102
RTVSPropertyOp24
 70
     1
102
RTVSPropertyOp25
 70
     1
102
RTVSPropertyOp26
 70
     1
102
RTVSPropertyOp27
 70
     1
102
RTVSPropertyOp28
 70
     1
102
RTVSPropertyOp29
 70
     1
102
RTVSPropertyOp30
 70
     1
102
RTVSPropertyOp31
 70
     1
102
RTVSPropertyOp32
 70
     1
  0
XRECORD
  5
238
102
{ACAD_REACTORS
330
237
102
}
330
237
100
AcDbXrecord
280
     1
102
RTVSPropertyOp0
 70
     1
102
RTVSPropertyOp1
 70
     1
102
RTVSPropertyOp2
 70
     1
102
RTVSPropertyOp3
 70
     1
102
RTVSPropertyOp4
 70
     1
102
RTVSPropertyOp5
 70
     1
102
RTVSPropertyOp6
 70
     1
102
RTVSPropertyOp7
 70
     1
102
RTVSPropertyOp8
 70
     1
102
RTVSPropertyOp9
 70
     1
102
RTVSPropertyOp10
 70
     1
102
RTVSPropertyOp11
 70
     1
102
RTVSPropertyOp12
 70
     1
102
RTVSPropertyOp13
 70
     1
102
RTVSPropertyOp14
 70
     1
102
RTVSPropertyOp15
 70
     1
102
RTVSPropertyOp16
 70
     1
102
RTVSPropertyOp17
 70
     1
102
RTVSPropertyOp18
 70
     1
102
RTVSPropertyOp19
 70
     1
102
RTVSPropertyOp20
 70
     1
102
RTVSPropertyOp21
 70
     1
102
RTVSPropertyOp22
 70
     1
102
RTVSPropertyOp23
 70
     1
102
RTVSPropertyOp24
 70
     1
102
RTVSPropertyOp25
 70
     1
102
RTVSPropertyOp26
 70
     1
102
RTVSPropertyOp27
 70
     1
102
RTVSPropertyOp28
 70
     1
102
RTVSPropertyOp29
 70
     1
102
RTVSPropertyOp30
 70
     1
102
RTVSPropertyOp31
 70
     1
102
RTVSPropertyOp32
 70
     1
  0
XRECORD
  5
23A
102
{ACAD_REACTORS
330
239
102
}
330
239
100
AcDbXrecord
280
     1
102
RTVSPropertyOp0
 70
     1
102
RTVSPropertyOp1
 70
     1
102
RTVSPropertyOp2
 70
     1
102
RTVSPropertyOp3
 70
     1
102
RTVSPropertyOp4
 70
     1
102
RTVSPropertyOp5
 70
     1
102
RTVSPropertyOp6
 70
     1
102
RTVSPropertyOp7
 70
     1
102
RTVSPropertyOp8
 70
     1
102
RTVSPropertyOp9
 70
     1
102
RTVSPropertyOp10
 70
     1
102
RTVSPropertyOp11
 70
     1
102
RTVSPropertyOp12
 70
     1
102
RTVSPropertyOp13
 70
     1
102
RTVSPropertyOp14
 70
     1
102
RTVSPropertyOp15
 70
     1
102
RTVSPropertyOp16
 70
     1
102
RTVSPropertyOp17
 70
     1
102
RTVSPropertyOp18
 70
     1
102
RTVSPropertyOp19
 70
     1
102
RTVSPropertyOp20
 70
     1
102
RTVSPropertyOp21
 70
     1
102
RTVSPropertyOp22
 70
     1
102
RTVSPropertyOp23
 70
     1
102
RTVSPropertyOp24
 70
     1
102
RTVSPropertyOp25
 70
     1
102
RTVSPropertyOp26
 70
     1
102
RTVSPropertyOp27
 70
     1
102
RTVSPropertyOp28
 70
     1
102
RTVSPropertyOp29
 70
     1
102
RTVSPropertyOp30
 70
     1
102
RTVSPropertyOp31
 70
     1
102
RTVSPropertyOp32
 70
     1
  0
XRECORD
  5
23C
102
{ACAD_REACTORS
330
23B
102
}
330
23B
100
AcDbXrecord
280
     1
102
RTVSPropertyOp0
 70
     1
102
RTVSPropertyOp1
 70
     1
102
RTVSPropertyOp2
 70
     1
102
RTVSPropertyOp3
 70
     1
102
RTVSPropertyOp4
 70
     1
102
RTVSPropertyOp5
 70
     1
102
RTVSPropertyOp6
 70
     1
102
RTVSPropertyOp7
 70
     1
102
RTVSPropertyOp8
 70
     1
102
RTVSPropertyOp9
 70
     1
102
RTVSPropertyOp10
 70
     1
102
RTVSPropertyOp11
 70
     1
102
RTVSPropertyOp12
 70
     1
102
RTVSPropertyOp13
 70
     1
102
RTVSPropertyOp14
 70
     1
102
RTVSPropertyOp15
 70
     1
102
RTVSPropertyOp16
 70
     1
102
RTVSPropertyOp17
 70
     1
102
RTVSPropertyOp18
 70
     1
102
RTVSPropertyOp19
 70
     1
102
RTVSPropertyOp20
 70
     1
102
RTVSPropertyOp21
 70
     1
102
RTVSPropertyOp22
 70
     1
102
RTVSPropertyOp23
 70
     1
102
RTVSPropertyOp24
 70
     1
102
RTVSPropertyOp25
 70
     1
102
RTVSPropertyOp26
 70
     1
102
RTVSPropertyOp27
 70
     1
102
RTVSPropertyOp28
 70
     1
102
RTVSPropertyOp29
 70
     1
102
RTVSPropertyOp30
 70
     1
102
RTVSPropertyOp31
 70
     1
102
RTVSPropertyOp32
 70
     1
  0
XRECORD
  5
23E
102
{ACAD_REACTORS
330
23D
102
}
330
23D
100
AcDbXrecord
280
     1
102
RTVSPropertyOp0
 70
     1
102
RTVSPropertyOp1
 70
     1
102
RTVSPropertyOp2
 70
     1
102
RTVSPropertyOp3
 70
     1
102
RTVSPropertyOp4
 70
     1
102
RTVSPropertyOp5
 70
     1
102
RTVSPropertyOp6
 70
     1
102
RTVSPropertyOp7
 70
     1
102
RTVSPropertyOp8
 70
     1
102
RTVSPropertyOp9
 70
     1
102
RTVSPropertyOp10
 70
     1
102
RTVSPropertyOp11
 70
     1
102
RTVSPropertyOp12
 70
     1
102
RTVSPropertyOp13
 70
     1
102
RTVSPropertyOp14
 70
     1
102
RTVSPropertyOp15
 70
     1
102
RTVSPropertyOp16
 70
     1
102
RTVSPropertyOp17
 70
     1
102
RTVSPropertyOp18
 70
     1
102
RTVSPropertyOp19
 70
     1
102
RTVSPropertyOp20
 70
     1
102
RTVSPropertyOp21
 70
     1
102
RTVSPropertyOp22
 70
     1
102
RTVSPropertyOp23
 70
     1
102
RTVSPropertyOp24
 70
     1
102
RTVSPropertyOp25
 70
     1
102
RTVSPropertyOp26
 70
     1
102
RTVSPropertyOp27
 70
     1
102
RTVSPropertyOp28
 70
     1
102
RTVSPropertyOp29
 70
     1
102
RTVSPropertyOp30
 70
     1
102
RTVSPropertyOp31
 70
     1
102
RTVSPropertyOp32
 70
     1
  0
XRECORD
  5
252
102
{ACAD_REACTORS
330
251
102
}
330
251
100
AcDbXrecord
280
     1
102
RTVSPropertyOp0
 70
     1
102
RTVSPropertyOp1
 70
     1
102
RTVSPropertyOp2
 70
     1
102
RTVSPropertyOp3
 70
     1
102
RTVSPropertyOp4
 70
     1
102
RTVSPropertyOp5
 70
     1
102
RTVSPropertyOp6
 70
     1
102
RTVSPropertyOp7
 70
     1
102
RTVSPropertyOp8
 70
     1
102
RTVSPropertyOp9
 70
     1
102
RTVSPropertyOp10
 70
     1
102
RTVSPropertyOp11
 70
     1
102
RTVSPropertyOp12
 70
     1
102
RTVSPropertyOp13
 70
     1
102
RTVSPropertyOp14
 70
     1
102
RTVSPropertyOp15
 70
     1
102
RTVSPropertyOp16
 70
     1
102
RTVSPropertyOp17
 70
     1
102
RTVSPropertyOp18
 70
     1
102
RTVSPropertyOp19
 70
     1
102
RTVSPropertyOp20
 70
     1
102
RTVSPropertyOp21
 70
     1
102
RTVSPropertyOp22
 70
     1
102
RTVSPropertyOp23
 70
     1
102
RTVSPropertyOp24
 70
     1
102
RTVSPropertyOp25
 70
     1
102
RTVSPropertyOp26
 70
     1
102
RTVSPropertyOp27
 70
     1
102
RTVSPropertyOp28
 70
     1
102
RTVSPropertyOp29
 70
     1
102
RTVSPropertyOp30
 70
     1
102
RTVSPropertyOp31
 70
     1
102
RTVSPropertyOp32
 70
     1
  0
XRECORD
  5
248
102
{ACAD_REACTORS
330
247
102
}
330
247
100
AcDbXrecord
280
     1
102
RTVSPropertyOp0
 70
     1
102
RTVSPropertyOp1
 70
     1
102
RTVSPropertyOp2
 70
     1
102
RTVSPropertyOp3
 70
     1
102
RTVSPropertyOp4
 70
     1
102
RTVSPropertyOp5
 70
     1
102
RTVSPropertyOp6
 70
     1
102
RTVSPropertyOp7
 70
     1
102
RTVSPropertyOp8
 70
     1
102
RTVSPropertyOp9
 70
     1
102
RTVSPropertyOp10
 70
     1
102
RTVSPropertyOp11
 70
     1
102
RTVSPropertyOp12
 70
     1
102
RTVSPropertyOp13
 70
     1
102
RTVSPropertyOp14
 70
     1
102
RTVSPropertyOp15
 70
     1
102
RTVSPropertyOp16
 70
     1
102
RTVSPropertyOp17
 70
     1
102
RTVSPropertyOp18
 70
     1
102
RTVSPropertyOp19
 70
     1
102
RTVSPropertyOp20
 70
     1
102
RTVSPropertyOp21
 70
     1
102
RTVSPropertyOp22
 70
     1
102
RTVSPropertyOp23
 70
     1
102
RTVSPropertyOp24
 70
     1
102
RTVSPropertyOp25
 70
     1
102
RTVSPropertyOp26
 70
     1
102
RTVSPropertyOp27
 70
     1
102
RTVSPropertyOp28
 70
     1
102
RTVSPropertyOp29
 70
     1
102
RTVSPropertyOp30
 70
     1
102
RTVSPropertyOp31
 70
     1
102
RTVSPropertyOp32
 70
     1
  0
XRECORD
  5
250
102
{ACAD_REACTORS
330
24F
102
}
330
24F
100
AcDbXrecord
280
     1
102
RTVSPropertyOp0
 70
     1
102
RTVSPropertyOp1
 70
     1
102
RTVSPropertyOp2
 70
     1
102
RTVSPropertyOp3
 70
     1
102
RTVSPropertyOp4
 70
     1
102
RTVSPropertyOp5
 70
     1
102
RTVSPropertyOp6
 70
     1
102
RTVSPropertyOp7
 70
     1
102
RTVSPropertyOp8
 70
     1
102
RTVSPropertyOp9
 70
     1
102
RTVSPropertyOp10
 70
     1
102
RTVSPropertyOp11
 70
     1
102
RTVSPropertyOp12
 70
     1
102
RTVSPropertyOp13
 70
     1
102
RTVSPropertyOp14
 70
     1
102
RTVSPropertyOp15
 70
     1
102
RTVSPropertyOp16
 70
     1
102
RTVSPropertyOp17
 70
     1
102
RTVSPropertyOp18
 70
     1
102
RTVSPropertyOp19
 70
     1
102
RTVSPropertyOp20
 70
     1
102
RTVSPropertyOp21
 70
     1
102
RTVSPropertyOp22
 70
     1
102
RTVSPropertyOp23
 70
     1
102
RTVSPropertyOp24
 70
     1
102
RTVSPropertyOp25
 70
     1
102
RTVSPropertyOp26
 70
     1
102
RTVSPropertyOp27
 70
     1
102
RTVSPropertyOp28
 70
     1
102
RTVSPropertyOp29
 70
     1
102
RTVSPropertyOp30
 70
     1
102
RTVSPropertyOp31
 70
     1
102
RTVSPropertyOp32
 70
     1
  0
ENDSEC
  0
EOF
