  0
SECTION
  2
HEADER
  9
$ACADVER
  1
AC1018
  9
$ACADMAINTVER
 70
     0
  9
$DWGCODEPAGE
  3
ANSI_1252
  9
$INSBASE
 10
0.0
 20
0.0
 30
0.0
  9
$EXTMIN
 10
-218.5124998092692
 20
-1.0905191360963
 30
0.0
  9
$EXTMAX
 10
78.48750019072884
 20
208.9094808639038
 30
0.0
  9
$LIMMIN
 10
0.0
 20
0.0
  9
$LIMMAX
 10
12.0
 20
9.0
  9
$ORTHOMODE
 70
     0
  9
$REGENMODE
 70
     1
  9
$FILLMODE
 70
     1
  9
$QTEXTMODE
 70
     0
  9
$MIRRTEXT
 70
     1
  9
$LTSCALE
 40
1.0
  9
$ATTMODE
 70
     1
  9
$TEXTSIZE
 40
0.2
  9
$TRACEWID
 40
0.05
  9
$TEXTSTYLE
  7
Standard
  9
$CLAYER
  8
0
  9
$CELTYPE
  6
ByLayer
  9
$CECOLOR
 62
   256
  9
$CELTSCALE
 40
1.0
  9
$DISPSILH
 70
     0
  9
$DIMSCALE
 40
1.0
  9
$DIMASZ
 40
0.18
  9
$DIMEXO
 40
0.0625
  9
$DIMDLI
 40
0.38
  9
$DIMRND
 40
0.0
  9
$DIMDLE
 40
0.0
  9
$DIMEXE
 40
0.18
  9
$DIMTP
 40
0.0
  9
$DIMTM
 40
0.0
  9
$DIMTXT
 40
0.18
  9
$DIMCEN
 40
0.09
  9
$DIMTSZ
 40
0.0
  9
$DIMTOL
 70
     0
  9
$DIMLIM
 70
     0
  9
$DIMTIH
 70
     1
  9
$DIMTOH
 70
     1
  9
$DIMSE1
 70
     0
  9
$DIMSE2
 70
     0
  9
$DIMTAD
 70
     0
  9
$DIMZIN
 70
     0
  9
$DIMBLK
  1

  9
$DIMASO
 70
     1
  9
$DIMSHO
 70
     1
  9
$DIMPOST
  1

  9
$DIMAPOST
  1

  9
$DIMALT
 70
     0
  9
$DIMALTD
 70
     2
  9
$DIMALTF
 40
25.4
  9
$DIMLFAC
 40
1.0
  9
$DIMTOFL
 70
     0
  9
$DIMTVP
 40
0.0
  9
$DIMTIX
 70
     0
  9
$DIMSOXD
 70
     0
  9
$DIMSAH
 70
     0
  9
$DIMBLK1
  1

  9
$DIMBLK2
  1

  9
$DIMSTYLE
  2
Standard
  9
$DIMCLRD
 70
     0
  9
$DIMCLRE
 70
     0
  9
$DIMCLRT
 70
     0
  9
$DIMTFAC
 40
1.0
  9
$DIMGAP
 40
0.09
  9
$DIMJUST
 70
     0
  9
$DIMSD1
 70
     0
  9
$DIMSD2
 70
     0
  9
$DIMTOLJ
 70
     1
  9
$DIMTZIN
 70
     0
  9
$DIMALTZ
 70
     0
  9
$DIMALTTZ
 70
     0
  9
$DIMUPT
 70
     0
  9
$DIMDEC
 70
     4
  9
$DIMTDEC
 70
     4
  9
$DIMALTU
 70
     2
  9
$DIMALTTD
 70
     2
  9
$DIMTXSTY
  7
Standard
  9
$DIMAUNIT
 70
     0
  9
$DIMADEC
 70
     0
  9
$DIMALTRND
 40
0.0
  9
$DIMAZIN
 70
     0
  9
$DIMDSEP
 70
    46
  9
$DIMATFIT
 70
     3
  9
$DIMFRAC
 70
     0
  9
$DIMLDRBLK
  1

  9
$DIMLUNIT
 70
     2
  9
$DIMLWD
 70
    -2
  9
$DIMLWE
 70
    -2
  9
$DIMTMOVE
 70
     0
  9
$LUNITS
 70
     2
  9
$LUPREC
 70
     4
  9
$SKETCHINC
 40
0.1
  9
$FILLETRAD
 40
0.5
  9
$AUNITS
 70
     0
  9
$AUPREC
 70
     0
  9
$MENU
  1
.
  9
$ELEVATION
 40
0.0
  9
$PELEVATION
 40
0.0
  9
$THICKNESS
 40
0.0
  9
$LIMCHECK
 70
     0
  9
$CHAMFERA
 40
0.5
  9
$CHAMFERB
 40
0.5
  9
$CHAMFERC
 40
1.0
  9
$CHAMFERD
 40
0.0
  9
$SKPOLY
 70
     0
  9
$TDCREATE
 40
2458102.551001354
  9
$TDUCREATE
 40
2458102.509334688
  9
$TDUPDATE
 40
2458102.551001898
  9
$TDUUPDATE
 40
2458102.509335232
  9
$TDINDWG
 40
0.0000000116
  9
$TDUSRTIMER
 40
0.0000000116
  9
$USRTIMER
 70
     1
  9
$ANGBASE
 50
0.0
  9
$ANGDIR
 70
     0
  9
$PDMODE
 70
     0
  9
$PDSIZE
 40
0.0
  9
$PLINEWID
 40
0.0
  9
$SPLFRAME
 70
     0
  9
$SPLINETYPE
 70
     6
  9
$SPLINESEGS
 70
     8
  9
$HANDSEED
  5
437
  9
$SURFTAB1
 70
     6
  9
$SURFTAB2
 70
     6
  9
$SURFTYPE
 70
     6
  9
$SURFU
 70
     6
  9
$SURFV
 70
     6
  9
$UCSBASE
  2

  9
$UCSNAME
  2

  9
$UCSORG
 10
0.0
 20
0.0
 30
0.0
  9
$UCSXDIR
 10
1.0
 20
0.0
 30
0.0
  9
$UCSYDIR
 10
0.0
 20
1.0
 30
0.0
  9
$UCSORTHOREF
  2

  9
$UCSORTHOVIEW
 70
     0
  9
$UCSORGTOP
 10
0.0
 20
0.0
 30
0.0
  9
$UCSORGBOTTOM
 10
0.0
 20
0.0
 30
0.0
  9
$UCSORGLEFT
 10
0.0
 20
0.0
 30
0.0
  9
$UCSORGRIGHT
 10
0.0
 20
0.0
 30
0.0
  9
$UCSORGFRONT
 10
0.0
 20
0.0
 30
0.0
  9
$UCSORGBACK
 10
0.0
 20
0.0
 30
0.0
  9
$PUCSBASE
  2

  9
$PUCSNAME
  2

  9
$PUCSORG
 10
0.0
 20
0.0
 30
0.0
  9
$PUCSXDIR
 10
1.0
 20
0.0
 30
0.0
  9
$PUCSYDIR
 10
0.0
 20
1.0
 30
0.0
  9
$PUCSORTHOREF
  2

  9
$PUCSORTHOVIEW
 70
     0
  9
$PUCSORGTOP
 10
0.0
 20
0.0
 30
0.0
  9
$PUCSORGBOTTOM
 10
0.0
 20
0.0
 30
0.0
  9
$PUCSORGLEFT
 10
0.0
 20
0.0
 30
0.0
  9
$PUCSORGRIGHT
 10
0.0
 20
0.0
 30
0.0
  9
$PUCSORGFRONT
 10
0.0
 20
0.0
 30
0.0
  9
$PUCSORGBACK
 10
0.0
 20
0.0
 30
0.0
  9
$USERI1
 70
     0
  9
$USERI2
 70
     0
  9
$USERI3
 70
     0
  9
$USERI4
 70
     0
  9
$USERI5
 70
     0
  9
$USERR1
 40
18.1
  9
$USERR2
 40
0.0
  9
$USERR3
 40
0.0
  9
$USERR4
 40
0.0
  9
$USERR5
 40
0.0
  9
$WORLDVIEW
 70
     1
  9
$SHADEDGE
 70
     3
  9
$SHADEDIF
 70
    70
  9
$TILEMODE
 70
     1
  9
$MAXACTVP
 70
    64
  9
$PINSBASE
 10
0.0
 20
0.0
 30
0.0
  9
$PLIMCHECK
 70
     0
  9
$PEXTMIN
 10
1.00000000000000E+20
 20
1.00000000000000E+20
 30
1.00000000000000E+20
  9
$PEXTMAX
 10
-1.00000000000000E+20
 20
-1.00000000000000E+20
 30
-1.00000000000000E+20
  9
$PLIMMIN
 10
0.0
 20
0.0
  9
$PLIMMAX
 10
12.0
 20
9.0
  9
$UNITMODE
 70
     0
  9
$VISRETAIN
 70
     1
  9
$PLINEGEN
 70
     0
  9
$PSLTSCALE
 70
     1
  9
$TREEDEPTH
 70
  3020
  9
$CMLSTYLE
  2
Standard
  9
$CMLJUST
 70
     0
  9
$CMLSCALE
 40
1.0
  9
$PROXYGRAPHICS
 70
     1
  9
$MEASUREMENT
 70
     1
  9
$CELWEIGHT
370
    -1
  9
$ENDCAPS
280
     0
  9
$JOINSTYLE
280
     0
  9
$LWDISPLAY
290
     0
  9
$INSUNITS
 70
     4
  9
$HYPERLINKBASE
  1

  9
$STYLESHEET
  1

  9
$XEDIT
290
     1
  9
$CEPSNTYPE
380
     0
  9
$PSTYLEMODE
290
     1
  9
$FINGERPRINTGUID
  2
{059EF901-2B7A-4E60-BD9B-31C52197590F}
  9
$VERSIONGUID
  2
{FAEB1C32-E019-11D5-929B-00C0DF256EC4}
  9
$EXTNAMES
290
     1
  9
$PSVPSCALE
 40
0.0
  9
$OLESTARTUP
290
     0
  9
$SORTENTS
280
   127
  9
$INDEXCTL
280
     0
  9
$HIDETEXT
280
     1
  9
$XCLIPFRAME
290
     0
  9
$HALOGAP
280
     0
  9
$OBSCOLOR
 70
   257
  9
$OBSLTYPE
280
     0
  9
$INTERSECTIONDISPLAY
280
     0
  9
$INTERSECTIONCOLOR
 70
   257
  9
$DIMASSOC
280
     2
  9
$PROJECTNAME
  1

  0
ENDSEC
  0
SECTION
  2
CLASSES
  0
CLASS
  1
ACDBDICTIONARYWDFLT
  2
AcDbDictionaryWithDefault
  3
ObjectDBX Classes
 90
        0
 91
        4
280
     0
281
     0
  0
CLASS
  1
VISUALSTYLE
  2
AcDbVisualStyle
  3
ObjectDBX Classes
 90
     4095
 91
        4
280
     0
281
     0
  0
CLASS
  1
MATERIAL
  2
AcDbMaterial
  3
ObjectDBX Classes
 90
     1153
 91
        4
280
     0
281
     0
  0
ENDSEC
  0
SECTION
  2
TABLES
  0
TABLE
  2
VPORT
  5
8
330
0
100
AcDbSymbolTable
 70
     1
  0
VPORT
  5
29
330
8
100
AcDbSymbolTableRecord
100
AcDbViewportTableRecord
  2
*Active
 70
     0
 10
0.0
 20
0.0
 11
1.0
 21
1.0
 12
-70.01249980927018
 22
103.9094808639038
 13
0.0
 23
0.0
 14
0.5
 24
0.5
 15
0.5
 25
0.5
 16
0.0
 26
0.0
 36
1.0
 17
0.0
 27
0.0
 37
0.0
 40
231.0000000000001
 41
1.60267857142857
 42
50.0
 43
0.0
 44
0.0
 50
0.0
 51
0.0
 71
     0
 72
   100
 73
     1
 74
     3
 75
     0
 76
     0
 77
     0
 78
     0
281
     0
 65
     1
110
0.0
120
0.0
130
0.0
111
1.0
121
0.0
131
0.0
112
0.0
122
1.0
132
0.0
 79
     0
146
0.0
  0
ENDTAB
  0
TABLE
  2
LTYPE
  5
5
330
0
100
AcDbSymbolTable
 70
     8
  0
LTYPE
  5
14
330
5
100
AcDbSymbolTableRecord
100
AcDbLinetypeTableRecord
  2
ByBlock
 70
     0
  3

 72
    65
 73
     0
 40
0.0
  0
LTYPE
  5
15
330
5
100
AcDbSymbolTableRecord
100
AcDbLinetypeTableRecord
  2
ByLayer
 70
     0
  3

 72
    65
 73
     0
 40
0.0
  0
LTYPE
  5
16
330
5
100
AcDbSymbolTableRecord
100
AcDbLinetypeTableRecord
  2
Continuous
 70
     0
  3
Solid line
 72
    65
 73
     0
 40
0.0
  0
LTYPE
  5
3F
330
5
100
AcDbSymbolTableRecord
100
AcDbLinetypeTableRecord
  2
DASHED
 70
     0
  3
Dashed
 72
    65
 73
     2
 40
15.0
 49
7.0
 74
     0
 49
-8.0
 74
     0
  0
LTYPE
  5
40
330
5
100
AcDbSymbolTableRecord
100
AcDbLinetypeTableRecord
  2
DOTTED
 70
     0
  3
Dotted
 72
    65
 73
     2
 40
1.0
 49
0.0
 74
     0
 49
-1.0
 74
     0
  0
LTYPE
  5
41
330
5
100
AcDbSymbolTableRecord
100
AcDbLinetypeTableRecord
  2
DOT_CENTER
 70
     0
  3
Dot_Center
 72
    65
 73
     4
 40
14.0
 49
12.0
 74
     0
 49
-1.0
 74
     0
 49
0.0
 74
     0
 49
-1.0
 74
     0
  0
LTYPE
  5
42
330
5
100
AcDbSymbolTableRecord
100
AcDbLinetypeTableRecord
  2
LONG_DASHED
 70
     0
  3
Long_Dashed
 72
    65
 73
     2
 40
15.0
 49
10.0
 74
     0
 49
-5.0
 74
     0
  0
LTYPE
  5
43
330
5
100
AcDbSymbolTableRecord
100
AcDbLinetypeTableRecord
  2
DASH_CENTER
 70
     0
  3
Dash_Center
 72
    65
 73
     4
 40
14.0
 49
11.0
 74
     0
 49
-1.0
 74
     0
 49
1.0
 74
     0
 49
-1.0
 74
     0
  0
LTYPE
  5
44
330
5
100
AcDbSymbolTableRecord
100
AcDbLinetypeTableRecord
  2
PHANTOM
 70
     0
  3
Phantom
 72
    65
 73
     6
 40
13.0
 49
10.0
 74
     0
 49
-1.0
 74
     0
 49
0.0
 74
     0
 49
-1.0
 74
     0
 49
0.0
 74
     0
 49
-1.0
 74
     0
  0
LTYPE
  5
45
330
5
100
AcDbSymbolTableRecord
100
AcDbLinetypeTableRecord
  2
CENTER_DASH_DASH
 70
     0
  3
Center_Dash_Dash
 72
    65
 73
     6
 40
14.0
 49
9.0
 74
     0
 49
-1.0
 74
     0
 49
1.0
 74
     0
 49
-1.0
 74
     0
 49
1.0
 74
     0
 49
-1.0
 74
     0
  0
ENDTAB
  0
TABLE
  2
LAYER
  5
2
330
0
100
AcDbSymbolTable
 70
     2
  0
LAYER
  5
10
330
2
100
AcDbSymbolTableRecord
100
AcDbLayerTableRecord
  2
0
 70
     0
 62
     7
  6
Continuous
370
    -3
390
F
  0
LAYER
  5
46
330
2
100
AcDbSymbolTableRecord
100
AcDbLayerTableRecord
  2
1
 70
     0
 62
     7
  6
Continuous
370
    -3
390
F
  0
ENDTAB
  0
TABLE
  2
STYLE
  5
3
330
0
100
AcDbSymbolTable
 70
     5
  0
STYLE
  5
11
330
3
100
AcDbSymbolTableRecord
100
AcDbTextStyleTableRecord
  2
Standard
 70
     0
 40
0.0
 41
1.0
 50
0.0
 71
     0
 42
0.2
  3
txt
  4

  0
STYLE
  5
138
330
3
100
AcDbSymbolTableRecord
100
AcDbTextStyleTableRecord
  2
CONVERTER_11
 70
     0
 40
0.0
 41
0.9
 50
0.0
 71
     0
 42
0.2
  3
txt.shx
  4

  0
STYLE
  5
3D2
330
3
100
AcDbSymbolTableRecord
100
AcDbTextStyleTableRecord
  2
CONVERTER_12
 70
     0
 40
0.0
 41
0.81
 50
0.0
 71
     0
 42
0.2
  3
txt.shx
  4

  0
STYLE
  5
3E8
330
3
100
AcDbSymbolTableRecord
100
AcDbTextStyleTableRecord
  2
CONVERTER_13
 70
     0
 40
0.0
 41
0.72
 50
0.0
 71
     0
 42
0.2
  3
txt.shx
  4

  0
STYLE
  5
3EB
330
3
100
AcDbSymbolTableRecord
100
AcDbTextStyleTableRecord
  2
CONVERTER_14
 70
     0
 40
0.0
 41
0.855
 50
0.0
 71
     0
 42
0.2
  3
txt.shx
  4

  0
ENDTAB
  0
TABLE
  2
VIEW
  5
6
330
0
100
AcDbSymbolTable
 70
     0
  0
ENDTAB
  0
TABLE
  2
UCS
  5
7
330
0
100
AcDbSymbolTable
 70
     0
  0
ENDTAB
  0
TABLE
  2
APPID
  5
9
330
0
100
AcDbSymbolTable
 70
     1
  0
APPID
  5
12
330
9
100
AcDbSymbolTableRecord
100
AcDbRegAppTableRecord
  2
ACAD
 70
     0
  0
ENDTAB
  0
TABLE
  2
DIMSTYLE
  5
A
330
0
100
AcDbSymbolTable
 70
     7
100
AcDbDimStyleTable
  0
DIMSTYLE
105
27
330
A
100
AcDbSymbolTableRecord
100
AcDbDimStyleTableRecord
  2
Standard
 70
     0
178
     0
340
11
  0
DIMSTYLE
105
178
102
{ACAD_REACTORS
330
179
102
}
330
A
100
AcDbSymbolTableRecord
100
AcDbDimStyleTableRecord
  2
ME10_DIM_10
 70
     0
 41
3.5
 42
0.0
 44
1.5
 73
     0
 74
     0
 77
     1
 78
     8
140
3.5
147
1.5
172
     1
173
     1
174
     1
175
     1
176
     2
177
     2
178
     3
340
138
  0
DIMSTYLE
105
2A8
102
{ACAD_REACTORS
330
2A9
102
}
330
A
100
AcDbSymbolTableRecord
100
AcDbDimStyleTableRecord
  2
ME10_DIM_11
 70
     0
 41
3.5
 42
0.0
 44
2.0
 73
     0
 74
     0
 77
     1
 78
     8
140
3.5
147
2.0
172
     1
173
     1
174
     1
175
     1
176
     2
177
     2
178
     3
340
138
  0
DIMSTYLE
105
2B3
102
{ACAD_REACTORS
330
2B4
102
}
330
A
100
AcDbSymbolTableRecord
100
AcDbDimStyleTableRecord
  2
ME10_DIM_12
 70
     0
 41
3.5
 42
0.0
 44
2.0
 73
     0
 74
     0
 77
     1
 78
     8
140
3.5
147
2.0
172
     1
173
     1
174
     1
175
     1
176
     2
177
     2
178
     3
340
138
  0
DIMSTYLE
105
2BE
102
{ACAD_REACTORS
330
2BF
102
}
330
A
100
AcDbSymbolTableRecord
100
AcDbDimStyleTableRecord
  2
ME10_DIM_13
 70
     0
 41
3.5
 42
0.0
 44
2.0
 73
     0
 74
     0
 77
     1
 78
     8
140
3.5
147
2.0
172
     1
173
     1
174
     1
175
     1
176
     2
177
     2
178
     3
340
138
  0
DIMSTYLE
105
2C9
102
{ACAD_REACTORS
330
2CA
102
}
330
A
100
AcDbSymbolTableRecord
100
AcDbDimStyleTableRecord
  2
ME10_DIM_14
 70
     0
 41
3.5
 42
0.0
 44
1.5
 73
     0
 74
     0
 77
     1
 78
     8
140
3.5
147
1.5
172
     1
173
     1
174
     1
175
     1
176
     2
177
     2
178
     3
340
138
  0
DIMSTYLE
105
2D4
102
{ACAD_REACTORS
330
2D5
102
}
330
A
100
AcDbSymbolTableRecord
100
AcDbDimStyleTableRecord
  2
ME10_DIM_15
 70
     0
 41
3.5
 42
0.0
 44
1.5
 73
     0
 74
     0
 77
     1
 78
     8
140
3.5
147
1.5
172
     1
173
     1
174
     1
175
     1
176
     2
177
     2
178
     3
340
138
  0
ENDTAB
  0
TABLE
  2
BLOCK_RECORD
  5
1
330
0
100
AcDbSymbolTable
 70
    23
  0
BLOCK_RECORD
  5
1F
330
1
100
AcDbSymbolTableRecord
100
AcDbBlockTableRecord
  2
*Model_Space
340
22
  0
BLOCK_RECORD
  5
1B
330
1
100
AcDbSymbolTableRecord
100
AcDbBlockTableRecord
  2
*Paper_Space
340
1E
  0
BLOCK_RECORD
  5
23
330
1
100
AcDbSymbolTableRecord
100
AcDbBlockTableRecord
  2
*Paper_Space0
340
26
  0
BLOCK_RECORD
  5
47
330
1
100
AcDbSymbolTableRecord
100
AcDbBlockTableRecord
  2
OTTA_25-M6-select__1
340
0
102
{BLKREFS
331
4B
102
}
  0
BLOCK_RECORD
  5
4A
330
1
100
AcDbSymbolTableRecord
100
AcDbBlockTableRecord
  2
AllgSicht1
340
0
102
{BLKREFS
331
7D
102
}
  0
BLOCK_RECORD
  5
4E
330
1
100
AcDbSymbolTableRecord
100
AcDbBlockTableRecord
  2
OTTA_25-M6-select__2
340
0
102
{BLKREFS
331
52
102
}
  0
BLOCK_RECORD
  5
51
330
1
100
AcDbSymbolTableRecord
100
AcDbBlockTableRecord
  2
Drfsicht1
340
0
102
{BLKREFS
331
7E
102
}
  0
BLOCK_RECORD
  5
55
330
1
100
AcDbSymbolTableRecord
100
AcDbBlockTableRecord
  2
OTTA_25-M6-select__3
340
0
102
{BLKREFS
331
59
102
}
  0
BLOCK_RECORD
  5
58
330
1
100
AcDbSymbolTableRecord
100
AcDbBlockTableRecord
  2
Rckans1
340
0
102
{BLKREFS
331
7F
102
}
  0
BLOCK_RECORD
  5
5C
330
1
100
AcDbSymbolTableRecord
100
AcDbBlockTableRecord
  2
OTTA_25-M6-select__4
340
0
102
{BLKREFS
331
60
102
}
  0
BLOCK_RECORD
  5
5F
330
1
100
AcDbSymbolTableRecord
100
AcDbBlockTableRecord
  2
SA_Rechts1
340
0
102
{BLKREFS
331
80
102
}
  0
BLOCK_RECORD
  5
63
330
1
100
AcDbSymbolTableRecord
100
AcDbBlockTableRecord
  2
OTTA_25-M6-select__5
340
0
102
{BLKREFS
331
67
102
}
  0
BLOCK_RECORD
  5
66
330
1
100
AcDbSymbolTableRecord
100
AcDbBlockTableRecord
  2
SA_links1
340
0
102
{BLKREFS
331
81
102
}
  0
BLOCK_RECORD
  5
6A
330
1
100
AcDbSymbolTableRecord
100
AcDbBlockTableRecord
  2
OTTA_25-M6-select__6
340
0
102
{BLKREFS
331
6E
102
}
  0
BLOCK_RECORD
  5
6D
330
1
100
AcDbSymbolTableRecord
100
AcDbBlockTableRecord
  2
Vordans1
340
0
102
{BLKREFS
331
82
102
}
  0
BLOCK_RECORD
  5
71
330
1
100
AcDbSymbolTableRecord
100
AcDbBlockTableRecord
  2
_rahmen
340
0
102
{BLKREFS
331
78
102
}
  0
BLOCK_RECORD
  5
74
330
1
100
AcDbSymbolTableRecord
100
AcDbBlockTableRecord
  2
_punkt
340
0
102
{BLKREFS
331
79
102
}
  0
BLOCK_RECORD
  5
77
330
1
100
AcDbSymbolTableRecord
100
AcDbBlockTableRecord
  2
A4I_CS
340
0
102
{BLKREFS
331
83
102
}
  0
BLOCK_RECORD
  5
7C
330
1
100
AcDbSymbolTableRecord
100
AcDbBlockTableRecord
  2
1
340
0
102
{BLKREFS
331
86
102
}
  0
BLOCK_RECORD
  5
16E
330
1
100
AcDbSymbolTableRecord
100
AcDbBlockTableRecord
  2
*D17
340
0
  0
BLOCK_RECORD
  5
29F
330
1
100
AcDbSymbolTableRecord
100
AcDbBlockTableRecord
  2
*D18
340
0
  0
BLOCK_RECORD
  5
2AA
330
1
100
AcDbSymbolTableRecord
100
AcDbBlockTableRecord
  2
*D19
340
0
  0
BLOCK_RECORD
  5
2B5
330
1
100
AcDbSymbolTableRecord
100
AcDbBlockTableRecord
  2
*D20
340
0
  0
BLOCK_RECORD
  5
2C0
330
1
100
AcDbSymbolTableRecord
100
AcDbBlockTableRecord
  2
*D21
340
0
  0
BLOCK_RECORD
  5
2CB
330
1
100
AcDbSymbolTableRecord
100
AcDbBlockTableRecord
  2
*D22
340
0
  0
ENDTAB
  0
ENDSEC
  0
SECTION
  2
BLOCKS
  0
BLOCK
  5
20
330
1F
100
AcDbEntity
  8
0
100
AcDbBlockBegin
  2
*Model_Space
 70
     0
 10
0.0
 20
0.0
 30
0.0
  3
*Model_Space
  1

  0
ENDBLK
  5
21
330
1F
100
AcDbEntity
  8
0
100
AcDbBlockEnd
  0
BLOCK
  5
1C
330
1B
100
AcDbEntity
 67
     1
  8
0
100
AcDbBlockBegin
  2
*Paper_Space
 70
     0
 10
0.0
 20
0.0
 30
0.0
  3
*Paper_Space
  1

  0
ENDBLK
  5
1D
330
1B
100
AcDbEntity
 67
     1
  8
0
100
AcDbBlockEnd
  0
BLOCK
  5
24
330
23
100
AcDbEntity
  8
0
100
AcDbBlockBegin
  2
*Paper_Space0
 70
     0
 10
0.0
 20
0.0
 30
0.0
  3
*Paper_Space0
  1

  0
ENDBLK
  5
25
330
23
100
AcDbEntity
  8
0
100
AcDbBlockEnd
  0
BLOCK
  5
48
330
47
100
AcDbEntity
  8
0
100
AcDbBlockBegin
  2
OTTA_25-M6-select__1
 70
     0
 10
-0.49326192279931
 20
35.53895970192797
 30
0.0
  3
OTTA_25-M6-select__1
  1

  0
LINE
  5
87
330
47
100
AcDbEntity
  8
0
  6
Continuous
 62
     7
100
AcDbLine
 10
41.07595745885379
 20
88.91516268072603
 30
0.0
 11
9.899042922614
 21
97.91516268072603
 31
0.0
  0
LINE
  5
88
330
47
100
AcDbEntity
  8
0
  6
Continuous
 62
     7
100
AcDbLine
 10
40.85945110790757
 20
48.187866162479
 30
0.0
 11
51.468262304267
 21
45.12536616247898
 31
0.0
  0
LINE
  5
89
330
47
100
AcDbEntity
  8
0
  6
Continuous
 62
     7
100
AcDbLine
 10
24.7253978354035
 20
48.08222644166457
 30
0.0
 11
24.7253978354035
 21
45.31094514955433
 31
0.0
  0
LINE
  5
8A
330
47
100
AcDbEntity
  8
0
  6
Continuous
 62
     7
100
AcDbLine
 10
-0.49326192279931
 20
60.12536616247897
 30
0.0
 11
10.11554927355999
 21
57.06286616247899
 31
0.0
  0
LINE
  5
8B
330
47
100
AcDbEntity
  8
0
  6
Continuous
 62
     7
100
AcDbLine
 10
20.7590014860707
 20
46.86949413111285
 30
0.0
 11
20.1043478153629
 21
46.30254742159912
 31
0.0
  0
LINE
  5
8C
330
47
100
AcDbEntity
  8
0
  6
Continuous
 62
     7
100
AcDbLine
 10
19.47350857720949
 20
49.5983162801508
 30
0.0
 11
18.2735085772095
 21
48.55908579560946
 31
0.0
  0
LINE
  5
8D
330
47
100
AcDbEntity
  8
0
  6
Continuous
 62
     7
100
AcDbLine
 10
1.48227203219169
 20
51.17234903400054
 30
0.0
 11
-0.38757605626111
 21
49.55301308818271
 31
0.0
  0
LINE
  5
8E
330
47
100
AcDbEntity
  8
0
  6
Continuous
 62
     7
100
AcDbLine
 10
11.1892195982897
 20
51.56996965587054
 30
0.0
 11
10.32339537046829
 21
50.82014387936521
 31
0.0
  0
LINE
  5
8F
330
47
100
AcDbEntity
  8
0
  6
Continuous
 62
     2
100
AcDbLine
 10
1.59135730758028
 20
50.83839452779195
 30
0.0
 11
0.11295585984979
 21
49.5580613170657
 31
0.0
  0
LINE
  5
90
330
47
100
AcDbEntity
  8
0
  6
Continuous
 62
     2
100
AcDbLine
 10
10.69454911494739
 20
52.12814231120092
 30
0.0
 11
10.32339537046829
 21
51.80671373977234
 31
0.0
  0
LINE
  5
91
330
47
100
AcDbEntity
  8
0
  6
Continuous
 62
     7
100
AcDbLine
 10
2.38018708501438
 20
48.42346494295822
 30
0.0
 11
0.54596856174209
 21
46.83498510571239
 31
0.0
  0
LINE
  5
92
330
47
100
AcDbEntity
  8
0
  6
Continuous
 62
     2
100
AcDbLine
 10
1.54043346170819
 20
50.99429318360836
 30
0.0
 11
-0.06024922090701
 21
49.60806131706571
 31
0.0
  0
LINE
  5
93
330
47
100
AcDbEntity
  8
0
  6
Continuous
 62
     2
100
AcDbLine
 10
1.82892028271938
 20
50.11111739736883
 30
0.0
 11
0.54596856174209
 21
49.00004861517349
 31
0.0
  0
LINE
  5
94
330
47
100
AcDbEntity
  8
0
  6
Continuous
 62
     7
100
AcDbLine
 10
13.75282884323048
 20
50.81672157043876
 30
0.0
 11
11.12879899598798
 21
48.54424506243798
 31
0.0
  0
LINE
  5
95
330
47
100
AcDbEntity
  8
0
  6
Continuous
 62
     7
100
AcDbLine
 10
13.97313699063568
 20
50.72395822154281
 30
0.0
 11
10.32339537046849
 21
47.56318926122852
 31
0.0
  0
LINE
  5
96
330
47
100
AcDbEntity
  8
0
  6
Continuous
 62
     7
100
AcDbLine
 10
14.3899394569948
 20
49.88171466501307
 30
0.0
 11
11.21540153636639
 21
47.13248418047171
 31
0.0
  0
LINE
  5
97
330
47
100
AcDbEntity
  8
0
  6
Continuous
 62
     7
100
AcDbLine
 10
14.46493945699478
 20
49.73016021935075
 30
0.0
 11
11.2154015363663
 21
46.91597782952563
 31
0.0
  0
LINE
  5
98
330
47
100
AcDbEntity
  8
0
  6
Continuous
 62
     7
100
AcDbLine
 10
13.19129899598778
 20
50.97882127467056
 30
0.0
 11
11.12879899598789
 21
49.1926438793652
 31
0.0
  0
LINE
  5
99
330
47
100
AcDbEntity
  8
0
  6
Continuous
 62
     7
100
AcDbLine
 10
40.85945110790757
 20
48.187866162479
 30
0.0
 11
49.08445110790768
 21
55.31092510860613
 31
0.0
  0
LINE
  5
9A
330
47
100
AcDbEntity
  8
0
  6
Continuous
 62
     7
100
AcDbLine
 10
26.1240288625155
 20
61.62148544259401
 30
0.0
 11
34.34902886251538
 21
68.74454438872111
 31
0.0
  0
LINE
  5
9B
330
47
100
AcDbEntity
  8
0
  6
Continuous
 62
     7
100
AcDbLine
 10
38.94942027841779
 20
40.33879815255316
 30
0.0
 11
36.39942027841778
 21
38.13043337290282
 31
0.0
  0
LINE
  5
9C
330
47
100
AcDbEntity
  8
0
  6
Continuous
 62
     7
100
AcDbLine
 10
36.39942027841778
 20
38.56344607479505
 30
0.0
 11
34.3398654609164
 21
43.5747178982434
 31
0.0
  0
LINE
  5
9D
330
47
100
AcDbEntity
  8
0
  6
Continuous
 62
     7
100
AcDbLine
 10
35.44679233425489
 20
38.40543337290283
 30
0.0
 11
36.39942027841778
 21
38.13043337290282
 31
0.0
  0
LINE
  5
9E
330
47
100
AcDbEntity
  8
0
  6
Continuous
 62
     7
100
AcDbLine
 10
36.39942027841778
 20
38.13043337290282
 30
0.0
 11
36.39942027841778
 21
38.56344607479505
 31
0.0
  0
LINE
  5
9F
330
47
100
AcDbEntity
  8
0
  6
Continuous
 62
     7
100
AcDbLine
 10
41.07595745885379
 20
87.13548047594902
 30
0.0
 11
41.07595745885379
 21
88.91516268072603
 31
0.0
  0
LINE
  5
A0
330
47
100
AcDbEntity
  8
0
  6
Continuous
 62
     7
100
AcDbLine
 10
40.64294475696158
 20
39.27145877668726
 30
0.0
 11
40.12332951469088
 21
38.82145877668725
 31
0.0
  0
LINE
  5
A1
330
47
100
AcDbEntity
  8
0
  6
Continuous
 62
     7
100
AcDbLine
 10
38.57442027841779
 20
40.44705132802621
 30
0.0
 11
36.39942027841778
 21
38.56344607479505
 31
0.0
  0
LINE
  5
A2
330
47
100
AcDbEntity
  8
0
  6
Continuous
 62
     7
100
AcDbLine
 10
36.78829868520108
 20
62.44009023320493
 30
0.0
 11
36.78829868520108
 21
68.24246043856056
 31
0.0
  0
LINE
  5
A3
330
47
100
AcDbEntity
  8
0
  6
Continuous
 62
     7
100
AcDbLine
 10
34.34902886251538
 20
68.74454438872111
 30
0.0
 11
36.78829868520108
 21
68.04038784434425
 31
0.0
  0
LINE
  5
A4
330
47
100
AcDbEntity
  8
0
  6
Continuous
 62
     7
100
AcDbLine
 10
34.34902886251538
 20
68.74454438872111
 30
0.0
 11
34.34902886251538
 21
68.94661698293741
 31
0.0
  0
LINE
  5
A5
330
47
100
AcDbEntity
  8
0
  6
Continuous
 62
     7
100
AcDbLine
 10
35.49829139130409
 20
44.57794418236169
 30
0.0
 11
34.3398654609164
 21
43.5747178982434
 31
0.0
  0
LINE
  5
A6
330
47
100
AcDbEntity
  8
0
  6
Continuous
 62
     7
100
AcDbLine
 10
22.43670169626668
 20
68.31509023320484
 30
0.0
 11
22.43670169626668
 21
72.3854096309917
 31
0.0
  0
LINE
  5
A7
330
47
100
AcDbEntity
  8
0
  6
Continuous
 62
     7
100
AcDbLine
 10
22.43670169626668
 20
72.18333703677533
 30
0.0
 11
24.85097151895238
 21
71.48639737076334
 31
0.0
  0
LINE
  5
A8
330
47
100
AcDbEntity
  8
0
  6
Continuous
 62
     7
100
AcDbLine
 10
16.43670169626668
 20
68.31509023320484
 30
0.0
 11
16.43670169626668
 21
74.11746043856057
 31
0.0
  0
LINE
  5
A9
330
47
100
AcDbEntity
  8
0
  6
Continuous
 62
     7
100
AcDbLine
 10
21.53366108842909
 20
98.63751365730829
 30
0.0
 11
19.061863263904
 21
98.30635554184103
 31
0.0
  0
LINE
  5
AA
330
47
100
AcDbEntity
  8
0
  6
Continuous
 62
     7
100
AcDbLine
 10
17.3138098104032
 20
98.69332649449109
 30
0.0
 11
22.5334600237772
 21
99.39262702421435
 31
0.0
  0
LINE
  5
AB
330
47
100
AcDbEntity
  8
0
  6
Continuous
 62
     7
100
AcDbLine
 10
22.5334600237772
 20
99.39262702421435
 30
0.0
 11
22.5334600237772
 21
99.25579767070843
 31
0.0
  0
LINE
  5
AC
330
47
100
AcDbEntity
  8
0
  6
Continuous
 62
     7
100
AcDbLine
 10
-0.49326192279931
 20
93.13548047594898
 30
0.0
 11
8.53173807720069
 21
100.9513597451036
 31
0.0
  0
LINE
  5
AD
330
47
100
AcDbEntity
  8
0
  6
Continuous
 62
     7
100
AcDbLine
 10
2.03314971867529
 20
93.86479269659357
 30
0.0
 11
11.05814971867528
 21
101.6806719657482
 31
0.0
  0
LINE
  5
AE
330
47
100
AcDbEntity
  8
0
  6
Continuous
 62
     7
100
AcDbLine
 10
10.11554927356008
 20
66.24273544259401
 30
0.0
 11
24.85097151895229
 21
61.98898544259401
 31
0.0
  0
LINE
  5
AF
330
47
100
AcDbEntity
  8
0
  6
Continuous
 62
     7
100
AcDbLine
 10
10.11554927356008
 20
66.24273544259401
 30
0.0
 11
16.43670169626668
 21
71.71701402185148
 31
0.0
  0
LINE
  5
B0
330
47
100
AcDbEntity
  8
0
  6
Continuous
 62
     7
100
AcDbLine
 10
33.5588569540048
 20
40.61371271056629
 30
0.0
 11
34.29497854722158
 21
36.22645970192796
 31
0.0
  0
LINE
  5
B1
330
47
100
AcDbEntity
  8
0
  6
Continuous
 62
     7
100
AcDbLine
 10
9.899042922614
 20
97.91516268072603
 30
0.0
 11
9.899042922614
 21
96.13548047594898
 31
0.0
  0
LINE
  5
B2
330
47
100
AcDbEntity
  8
0
  6
Continuous
 62
     7
100
AcDbLine
 10
10.11554927355999
 20
57.06286616247899
 30
0.0
 11
10.11554927356008
 21
66.24273544259401
 31
0.0
  0
LINE
  5
B3
330
47
100
AcDbEntity
  8
0
  6
Continuous
 62
     7
100
AcDbLine
 10
22.99334702783469
 20
48.58222644166457
 30
0.0
 11
24.7253978354035
 21
48.08222644166457
 31
0.0
  0
LINE
  5
B4
330
47
100
AcDbEntity
  8
0
  6
Continuous
 62
     7
100
AcDbLine
 10
24.85097151895229
 20
61.98898544259401
 30
0.0
 11
24.85097151895229
 21
71.68846996497972
 31
0.0
  0
LINE
  5
B5
330
47
100
AcDbEntity
  8
0
  6
Continuous
 62
     7
100
AcDbLine
 10
22.99334702783469
 20
41.04780542873994
 30
0.0
 11
22.99334702783469
 21
48.58222644166457
 31
0.0
  0
LINE
  5
B6
330
47
100
AcDbEntity
  8
0
  6
Continuous
 62
     7
100
AcDbLine
 10
11.12879899598789
 20
49.1926438793652
 30
0.0
 11
10.32339537046829
 21
50.82014387936521
 31
0.0
  0
LINE
  5
B7
330
47
100
AcDbEntity
  8
0
  6
Continuous
 62
     7
100
AcDbLine
 10
11.12879899598798
 20
48.54424506243798
 30
0.0
 11
11.12879899598789
 21
49.1926438793652
 31
0.0
  0
LINE
  5
B8
330
47
100
AcDbEntity
  8
0
  6
Continuous
 62
     7
100
AcDbLine
 10
11.1894207742528
 20
51.55671373977235
 30
0.0
 11
13.95629807074718
 21
50.7579850637995
 31
0.0
  0
LINE
  5
B9
330
47
100
AcDbEntity
  8
0
  6
Continuous
 62
     7
100
AcDbLine
 10
10.1401509968691
 20
48.65531783998245
 30
0.0
 11
11.12879899598798
 21
48.54424506243798
 31
0.0
  0
LINE
  5
BA
330
47
100
AcDbEntity
  8
0
  6
Continuous
 62
     7
100
AcDbLine
 10
10.32339537046829
 20
50.82014387936521
 30
0.0
 11
10.32339537046829
 21
51.80671373977234
 31
0.0
  0
LINE
  5
BB
330
47
100
AcDbEntity
  8
0
  6
Continuous
 62
     7
100
AcDbLine
 10
10.32339537046849
 20
47.56318926122852
 30
0.0
 11
10.1401509968691
 21
48.65531783998245
 31
0.0
  0
LINE
  5
BC
330
47
100
AcDbEntity
  8
0
  6
Continuous
 62
     7
100
AcDbLine
 10
10.17617105182509
 20
43.188959701928
 30
0.0
 11
16.85117105182499
 21
48.96967927218908
 31
0.0
  0
LINE
  5
BD
330
47
100
AcDbEntity
  8
0
  6
Continuous
 62
     7
100
AcDbLine
 10
20.34750603457169
 20
41.8115939335866
 30
0.0
 11
22.99334702783469
 21
41.04780542873994
 31
0.0
  0
LINE
  5
BE
330
47
100
AcDbEntity
  8
0
  6
Continuous
 62
     7
100
AcDbLine
 10
19.89909851015759
 20
45.6920557910939
 30
0.0
 11
20.34750603457169
 21
41.8115939335866
 31
0.0
  0
LINE
  5
BF
330
47
100
AcDbEntity
  8
0
  6
Continuous
 62
     7
100
AcDbLine
 10
10.17617105182509
 20
43.188959701928
 30
0.0
 11
11.2154015363663
 21
46.91597782952563
 31
0.0
  0
LINE
  5
C0
330
47
100
AcDbEntity
  8
0
  6
Continuous
 62
     7
100
AcDbLine
 10
20.7590014860707
 20
49.22722644166459
 30
0.0
 11
20.7590014860707
 21
46.41264387936512
 31
0.0
  0
LINE
  5
C1
330
47
100
AcDbEntity
  8
0
  6
Continuous
 62
     7
100
AcDbLine
 10
19.07350857720948
 20
49.71378633398871
 30
0.0
 11
20.7590014860707
 21
49.22722644166459
 31
0.0
  0
LINE
  5
C2
330
47
100
AcDbEntity
  8
0
  6
Continuous
 62
     7
100
AcDbLine
 10
18.2735085772095
 20
48.55908579560946
 30
0.0
 11
19.07350857720948
 21
49.71378633398871
 31
0.0
  0
LINE
  5
C3
330
47
100
AcDbEntity
  8
0
  6
Continuous
 62
     7
100
AcDbLine
 10
14.50629807074719
 20
49.64658579560946
 30
0.0
 11
18.2735085772095
 21
48.55908579560946
 31
0.0
  0
LINE
  5
C4
330
47
100
AcDbEntity
  8
0
  6
Continuous
 62
     7
100
AcDbLine
 10
11.21540153636639
 20
47.13248418047171
 30
0.0
 11
10.32339537046849
 21
47.56318926122852
 31
0.0
  0
LINE
  5
C5
330
47
100
AcDbEntity
  8
0
  6
Continuous
 62
     7
100
AcDbLine
 10
13.95629807074718
 20
50.7579850637995
 30
0.0
 11
14.50629807074719
 21
49.64658579560946
 31
0.0
  0
LINE
  5
C6
330
47
100
AcDbEntity
  8
0
  6
Continuous
 62
     7
100
AcDbLine
 10
11.2154015363663
 20
46.91597782952563
 30
0.0
 11
11.21540153636639
 21
47.13248418047171
 31
0.0
  0
LINE
  5
C7
330
47
100
AcDbEntity
  8
0
  6
Continuous
 62
     7
100
AcDbLine
 10
24.85097151895229
 20
71.68846996497972
 30
0.0
 11
11.21973166338518
 21
75.62346996497973
 31
0.0
  0
LINE
  5
C8
330
47
100
AcDbEntity
  8
0
  6
Continuous
 62
     7
100
AcDbLine
 10
7.59033338707599
 20
93.36401344003725
 30
0.0
 11
7.98625723739048
 21
93.47830681081606
 31
0.0
  0
LINE
  5
C9
330
47
100
AcDbEntity
  8
0
  6
Continuous
 62
     7
100
AcDbLine
 10
7.73173807720059
 20
67.24842510860591
 30
0.0
 11
10.39054927356
 21
66.48089242863469
 31
0.0
  0
LINE
  5
CA
330
47
100
AcDbEntity
  8
0
  6
Continuous
 62
     7
100
AcDbLine
 10
7.98625723739048
 20
93.47830681081606
 30
0.0
 11
8.44958082841518
 21
92.54205681081606
 31
0.0
  0
LINE
  5
CB
330
47
100
AcDbEntity
  8
0
  6
Continuous
 62
     7
100
AcDbLine
 10
7.37263128113938
 20
95.4061682553044
 30
0.0
 11
9.899042922614
 21
97.59410491723817
 31
0.0
  0
LINE
  5
CC
330
47
100
AcDbEntity
  8
0
  6
Continuous
 62
     7
100
AcDbLine
 10
7.37263128113938
 20
95.4061682553044
 30
0.0
 11
9.899042922614
 21
96.13548047594898
 31
0.0
  0
LINE
  5
CD
330
47
100
AcDbEntity
  8
0
  6
Continuous
 62
     7
100
AcDbLine
 10
7.73173807720059
 20
67.24842510860591
 30
0.0
 11
7.73173807720059
 21
79.26445342561621
 31
0.0
  0
LINE
  5
CE
330
47
100
AcDbEntity
  8
0
  6
Continuous
 62
     7
100
AcDbLine
 10
7.37263128113938
 20
95.4061682553044
 30
0.0
 11
7.59033338707599
 21
93.36401344003725
 31
0.0
  0
LINE
  5
CF
330
47
100
AcDbEntity
  8
0
  6
Continuous
 62
     7
100
AcDbLine
 10
7.47588303039228
 20
94.43761512158764
 30
0.0
 11
3.70583082841509
 21
91.17265414108192
 31
0.0
  0
LINE
  5
D0
330
47
100
AcDbEntity
  8
0
  6
Continuous
 62
     7
100
AcDbLine
 10
3.63843108770489
 20
92.22319751186076
 30
0.0
 11
9.899042922614
 21
97.64504640412554
 31
0.0
  0
LINE
  5
D1
330
47
100
AcDbEntity
  8
0
  6
Continuous
 62
     7
100
AcDbLine
 10
8.53173807720069
 20
100.9513597451036
 30
0.0
 11
11.05814971867528
 21
101.6806719657482
 31
0.0
  0
LINE
  5
D2
330
47
100
AcDbEntity
  8
0
  6
Continuous
 62
     7
100
AcDbLine
 10
-0.49326192279931
 20
60.12536616247897
 30
0.0
 11
7.73173807720059
 21
67.24842510860591
 31
0.0
  0
LINE
  5
D3
330
47
100
AcDbEntity
  8
0
  6
Continuous
 62
     7
100
AcDbLine
 10
40.85945110790757
 20
57.36773544259404
 30
0.0
 11
49.08445110790768
 21
64.49079438872117
 31
0.0
  0
LINE
  5
D4
330
47
100
AcDbEntity
  8
0
  6
Continuous
 62
     7
100
AcDbLine
 10
51.468262304267
 20
41.56392336885631
 30
0.0
 11
60.49326230426698
 21
49.37980263801087
 31
0.0
  0
LINE
  5
D5
330
47
100
AcDbEntity
  8
0
  6
Continuous
 62
     7
100
AcDbLine
 10
42.52541955305259
 20
82.70520948055025
 30
0.0
 11
42.98874314407729
 21
83.37395948055023
 31
0.0
  0
LINE
  5
D6
330
47
100
AcDbEntity
  8
0
  6
Continuous
 62
     7
100
AcDbLine
 10
40.85945110790757
 20
57.36773544259404
 30
0.0
 11
40.85945110790757
 21
48.187866162479
 31
0.0
  0
LINE
  5
D7
330
47
100
AcDbEntity
  8
0
  6
Continuous
 62
     7
100
AcDbLine
 10
40.12332951469088
 20
38.21524099403814
 30
0.0
 11
40.64294475696178
 21
37.54562575176742
 31
0.0
  0
LINE
  5
D8
330
47
100
AcDbEntity
  8
0
  6
Continuous
 62
     7
100
AcDbLine
 10
35.44679233425489
 20
36.9938119647342
 30
0.0
 11
35.44679233425489
 21
38.40543337290283
 31
0.0
  0
LINE
  5
D9
330
47
100
AcDbEntity
  8
0
  6
Continuous
 62
     7
100
AcDbLine
 10
40.12332951469088
 20
38.82145877668725
 30
0.0
 11
40.12332951469088
 21
38.21524099403814
 31
0.0
  0
LINE
  5
DA
330
47
100
AcDbEntity
  8
0
  6
Continuous
 62
     7
100
AcDbLine
 10
40.6429447569615
 20
39.84991974576991
 30
0.0
 11
40.64294475696158
 21
38.81068926122858
 31
0.0
  0
LINE
  5
DB
330
47
100
AcDbEntity
  8
0
  6
Continuous
 62
     7
100
AcDbLine
 10
42.78829868520108
 20
62.44009023320493
 30
0.0
 11
42.78829868520108
 21
68.80091358956261
 31
0.0
  0
LINE
  5
DC
330
47
100
AcDbEntity
  8
0
  6
Continuous
 62
     7
100
AcDbLine
 10
42.98874314407729
 20
83.37395948055023
 30
0.0
 11
43.38466699439169
 21
83.03107936821378
 31
0.0
  0
LINE
  5
DD
330
47
100
AcDbEntity
  8
0
  6
Continuous
 62
     7
100
AcDbLine
 10
43.38466699439169
 20
83.03107936821378
 30
0.0
 11
43.60236910032839
 21
84.94754381401525
 31
0.0
  0
LINE
  5
DE
330
47
100
AcDbEntity
  8
0
  6
Continuous
 62
     7
100
AcDbLine
 10
41.07595745885379
 20
87.13548047594902
 30
0.0
 11
43.60236910032839
 21
84.94754381401525
 31
0.0
  0
LINE
  5
DF
330
47
100
AcDbEntity
  8
0
  6
Continuous
 62
     7
100
AcDbLine
 10
60.49326230426698
 20
49.37980263801087
 30
0.0
 11
60.49326230426698
 21
85.9513597451035
 31
0.0
  0
LINE
  5
E0
330
47
100
AcDbEntity
  8
0
  6
Continuous
 62
     7
100
AcDbLine
 10
51.468262304267
 20
67.94513555219893
 30
0.0
 11
59.69326230426719
 21
75.06819449832611
 31
0.0
  0
LINE
  5
E1
330
47
100
AcDbEntity
  8
0
  6
Continuous
 62
     7
100
AcDbLine
 10
59.69326230426719
 20
75.06819449832611
 30
0.0
 11
59.69326230426719
 21
52.24842510860615
 31
0.0
  0
LINE
  5
E2
330
47
100
AcDbEntity
  8
0
  6
Continuous
 62
     7
100
AcDbLine
 10
59.69326230426719
 20
52.24842510860615
 30
0.0
 11
51.468262304267
 21
45.12536616247898
 31
0.0
  0
LINE
  5
E3
330
47
100
AcDbEntity
  8
0
  6
Continuous
 62
     7
100
AcDbLine
 10
51.468262304267
 20
78.13548047594904
 30
0.0
 11
60.49326230426698
 21
85.9513597451035
 31
0.0
  0
LINE
  5
E4
330
47
100
AcDbEntity
  8
0
  6
Continuous
 62
     7
100
AcDbLine
 10
49.08445110790768
 20
64.49079438872117
 30
0.0
 11
49.08445110790768
 21
55.31092510860613
 31
0.0
  0
LINE
  5
E5
330
47
100
AcDbEntity
  8
0
  6
Continuous
 62
     7
100
AcDbLine
 10
49.08445110790768
 20
55.31092510860613
 30
0.0
 11
59.69326230426719
 21
52.24842510860615
 31
0.0
  0
LINE
  5
E6
330
47
100
AcDbEntity
  8
0
  6
Continuous
 62
     7
100
AcDbLine
 10
57.96685066279238
 20
88.1392964070373
 30
0.0
 11
56.3615692937629
 21
87.42451085283878
 31
0.0
  0
LINE
  5
E7
330
47
100
AcDbEntity
  8
0
  6
Continuous
 62
     7
100
AcDbLine
 10
57.96685066279238
 20
88.1392964070373
 30
0.0
 11
60.49326230426698
 21
85.9513597451035
 31
0.0
  0
LINE
  5
E8
330
47
100
AcDbEntity
  8
0
  6
Continuous
 62
     7
100
AcDbLine
 10
50.1009574588538
 20
96.73104194988059
 30
0.0
 11
18.92404292261398
 21
105.7310419498806
 31
0.0
  0
LINE
  5
E9
330
47
100
AcDbEntity
  8
0
  6
Continuous
 62
     7
100
AcDbLine
 10
41.07595745885379
 20
88.91516268072603
 30
0.0
 11
50.1009574588538
 21
96.73104194988059
 31
0.0
  0
LINE
  5
EA
330
47
100
AcDbEntity
  8
0
  6
Continuous
 62
     7
100
AcDbLine
 10
44.9730717758836
 20
69.82013555219896
 30
0.0
 11
39.75526871808239
 21
67.38596996497974
 31
0.0
  0
LINE
  5
EB
330
47
100
AcDbEntity
  8
0
  6
Continuous
 62
     7
100
AcDbLine
 10
40.64294475696178
 20
37.54562575176742
 30
0.0
 11
42.74893553628289
 21
36.76459232205065
 31
0.0
  0
LINE
  5
EC
330
47
100
AcDbEntity
  8
0
  6
Continuous
 62
     7
100
AcDbLine
 10
36.67654840762879
 20
35.53895970192797
 30
0.0
 11
36.67654840762879
 21
36.63881196473421
 31
0.0
  0
LINE
  5
ED
330
47
100
AcDbEntity
  8
0
  6
Continuous
 62
     7
100
AcDbLine
 10
47.26916955305259
 20
78.59700147134781
 30
0.0
 11
42.52541955305259
 21
82.70520948055025
 31
0.0
  0
LINE
  5
EE
330
47
100
AcDbEntity
  8
0
  6
Continuous
 62
     7
100
AcDbLine
 10
50.1009574588538
 20
94.9513597451035
 30
0.0
 11
50.1009574588538
 21
96.73104194988059
 31
0.0
  0
LINE
  5
EF
330
47
100
AcDbEntity
  8
0
  6
Continuous
 62
     7
100
AcDbLine
 10
37.66540679933749
 20
92.81832649449109
 30
0.0
 11
42.88505701271149
 21
93.51762702421435
 31
0.0
  0
LINE
  5
F0
330
47
100
AcDbEntity
  8
0
  6
Continuous
 62
     7
100
AcDbLine
 10
42.88505701271149
 20
93.51762702421435
 30
0.0
 11
42.88505701271149
 21
93.38079767070843
 31
0.0
  0
LINE
  5
F1
330
47
100
AcDbEntity
  8
0
  6
Continuous
 62
     7
100
AcDbLine
 10
42.78829868520108
 20
66.30833703677541
 30
0.0
 11
49.08445110790768
 21
64.49079438872117
 31
0.0
  0
LINE
  5
F2
330
47
100
AcDbEntity
  8
0
  6
Continuous
 62
     7
100
AcDbLine
 10
-0.49326192279931
 20
57.22026397107281
 30
0.0
 11
3.14404477309499
 21
46.08498510571248
 31
0.0
  0
LINE
  5
F3
330
47
100
AcDbEntity
  8
0
  6
Continuous
 62
     7
100
AcDbLine
 10
39.75526871808239
 20
67.38596996497974
 30
0.0
 11
26.1240288625155
 21
71.32096996497971
 31
0.0
  0
LINE
  5
F4
330
47
100
AcDbEntity
  8
0
  6
Continuous
 62
     7
100
AcDbLine
 10
26.1240288625155
 20
61.62148544259401
 30
0.0
 11
26.1240288625155
 21
71.32096996497971
 31
0.0
  0
LINE
  5
F5
330
47
100
AcDbEntity
  8
0
  6
Continuous
 62
     7
100
AcDbLine
 10
32.77732826016228
 20
42.98655305043901
 30
0.0
 11
33.5588569540048
 21
40.61371271056629
 31
0.0
  0
LINE
  5
F6
330
47
100
AcDbEntity
  8
0
  6
Continuous
 62
     7
100
AcDbLine
 10
-0.49326192279931
 20
60.12536616247897
 30
0.0
 11
-0.49326192279931
 21
57.22026397107281
 31
0.0
  0
LINE
  5
F7
330
47
100
AcDbEntity
  8
0
  6
Continuous
 62
     7
100
AcDbLine
 10
6.00192860558388
 20
81.07013555219896
 30
0.0
 11
-0.49326192279931
 21
82.94513555219893
 31
0.0
  0
LINE
  5
F8
330
47
100
AcDbEntity
  8
0
  6
Continuous
 62
     7
100
AcDbLine
 10
-0.49326192279931
 20
49.30004861517348
 30
0.0
 11
-0.49326192279931
 21
46.26895970192796
 31
0.0
  0
LINE
  5
F9
330
47
100
AcDbEntity
  8
0
  6
Continuous
 62
     7
100
AcDbLine
 10
0.54596856174209
 20
46.83498510571239
 30
0.0
 11
0.54596856174209
 21
49.00004861517349
 31
0.0
  0
LINE
  5
FA
330
47
100
AcDbEntity
  8
0
  6
Continuous
 62
     7
100
AcDbLine
 10
0.11295585984979
 20
49.5580613170657
 30
0.0
 11
-0.06024922090701
 21
49.60806131706571
 31
0.0
  0
LINE
  5
FB
330
47
100
AcDbEntity
  8
0
  6
Continuous
 62
     7
100
AcDbLine
 10
-0.49326192279931
 20
46.26895970192796
 30
0.0
 11
10.17617105182509
 21
43.188959701928
 31
0.0
  0
LINE
  5
FC
330
47
100
AcDbEntity
  8
0
  6
Continuous
 62
     7
100
AcDbLine
 10
3.14404477309499
 20
46.08498510571248
 30
0.0
 11
0.54596856174209
 21
46.83498510571239
 31
0.0
  0
LINE
  5
FD
330
47
100
AcDbEntity
  8
0
  6
Continuous
 62
     7
100
AcDbLine
 10
9.899042922614
 20
97.91516268072603
 30
0.0
 11
18.92404292261398
 21
105.7310419498806
 31
0.0
  0
LINE
  5
FE
330
47
100
AcDbEntity
  8
0
  6
Continuous
 62
     7
100
AcDbLine
 10
34.29497854722158
 20
36.22645970192796
 30
0.0
 11
36.67654840762879
 21
35.53895970192797
 31
0.0
  0
LINE
  5
FF
330
47
100
AcDbEntity
  8
0
  6
Continuous
 62
     7
100
AcDbLine
 10
12.52041002796179
 20
100.1853331866021
 30
0.0
 11
11.05814971867528
 21
101.6806719657482
 31
0.0
  0
LINE
  5
100
330
47
100
AcDbEntity
  8
0
  6
Continuous
 62
     7
100
AcDbLine
 10
22.99334702783469
 20
41.04780542873994
 30
0.0
 11
27.11834702783457
 21
44.62016021935074
 31
0.0
  0
LINE
  5
101
330
47
100
AcDbEntity
  8
0
  6
Continuous
 62
     7
100
AcDbLine
 10
47.33656929376289
 20
79.60863158368421
 30
0.0
 11
56.3615692937629
 21
87.42451085283878
 31
0.0
  0
LINE
  5
102
330
47
100
AcDbEntity
  8
0
  6
Continuous
 62
     7
100
AcDbLine
 10
39.21929233425487
 20
40.260892800511
 30
0.0
 11
35.44679233425489
 21
36.9938119647342
 31
0.0
  0
LINE
  5
103
330
47
100
AcDbEntity
  8
0
  6
Continuous
 62
     7
100
AcDbLine
 10
42.74893553628289
 20
36.76459232205065
 30
0.0
 11
51.468262304267
 21
41.56392336885631
 31
0.0
  0
LINE
  5
104
330
47
100
AcDbEntity
  8
0
  6
Continuous
 62
     7
100
AcDbLine
 10
40.64294475696158
 20
38.81068926122858
 30
0.0
 11
40.12332951469088
 21
38.82145877668725
 31
0.0
  0
LINE
  5
105
330
47
100
AcDbEntity
  8
0
  6
Continuous
 62
     7
100
AcDbLine
 10
36.67654840762879
 20
36.63881196473421
 30
0.0
 11
35.44679233425489
 21
36.9938119647342
 31
0.0
  0
LINE
  5
106
330
47
100
AcDbEntity
  8
0
  6
Continuous
 62
     7
100
AcDbLine
 10
40.44904840762879
 20
39.90589280051101
 30
0.0
 11
36.67654840762879
 21
36.63881196473421
 31
0.0
  0
LINE
  5
107
330
47
100
AcDbEntity
  8
0
  6
Continuous
 62
     7
100
AcDbLine
 10
36.67654840762879
 20
35.53895970192797
 30
0.0
 11
40.12332951469088
 21
38.52395970192801
 31
0.0
  0
LINE
  5
108
330
47
100
AcDbEntity
  8
0
  6
Continuous
 62
     7
100
AcDbLine
 10
48.94185066279249
 20
80.32341713788276
 30
0.0
 11
57.96685066279238
 21
88.1392964070373
 31
0.0
  0
LINE
  5
109
330
47
100
AcDbEntity
  8
0
  6
Continuous
 62
     7
100
AcDbLine
 10
11.21973166338518
 20
75.62346996497973
 30
0.0
 11
6.00192860558388
 21
81.07013555219896
 31
0.0
  0
LINE
  5
10A
330
47
100
AcDbEntity
  8
0
  6
Continuous
 62
     7
100
AcDbLine
 10
3.63843108770489
 20
92.22319751186076
 30
0.0
 11
2.03314971867529
 21
93.86479269659357
 31
0.0
  0
LINE
  5
10B
330
47
100
AcDbEntity
  8
0
  6
Continuous
 62
     7
100
AcDbLine
 10
3.70583082841509
 20
91.17265414108192
 30
0.0
 11
3.24250723739048
 21
92.10890414108191
 31
0.0
  0
LINE
  5
10C
330
47
100
AcDbEntity
  8
0
  6
Continuous
 62
     7
100
AcDbLine
 10
8.44958082841518
 20
92.54205681081606
 30
0.0
 11
3.70583082841509
 21
91.17265414108192
 31
0.0
  0
LINE
  5
10D
330
47
100
AcDbEntity
  8
0
  6
Continuous
 62
     7
100
AcDbLine
 10
26.1240288625155
 20
61.62148544259401
 30
0.0
 11
40.85945110790757
 21
57.36773544259404
 31
0.0
  0
LINE
  5
10E
330
47
100
AcDbEntity
  8
0
  6
Continuous
 62
     7
100
AcDbLine
 10
24.7253978354035
 20
45.31094514955433
 30
0.0
 11
32.77732826016228
 21
42.98655305043901
 31
0.0
  0
LINE
  5
10F
330
47
100
AcDbEntity
  8
0
  6
Continuous
 62
     7
100
AcDbLine
 10
34.3398654609164
 20
43.5747178982434
 30
0.0
 11
34.33979411439958
 21
45.30502373193977
 31
0.0
  0
LINE
  5
110
330
47
100
AcDbEntity
  8
0
  6
Continuous
 62
     7
100
AcDbLine
 10
3.24250723739048
 20
92.10890414108191
 30
0.0
 11
3.63843108770489
 21
92.22319751186076
 31
0.0
  0
LINE
  5
111
330
47
100
AcDbEntity
  8
0
  6
Continuous
 62
     7
100
AcDbLine
 10
-0.49326192279931
 20
93.13548047594898
 30
0.0
 11
-0.49326192279931
 21
82.94513555219893
 31
0.0
  0
LINE
  5
112
330
47
100
AcDbEntity
  8
0
  6
Continuous
 62
     7
100
AcDbLine
 10
-0.49326192279931
 20
93.13548047594898
 30
0.0
 11
2.03314971867529
 21
93.86479269659357
 31
0.0
  0
LINE
  5
113
330
47
100
AcDbEntity
  8
0
  6
Continuous
 62
     7
100
AcDbLine
 10
55.74380450573
 20
86.8895108528388
 30
0.0
 11
51.79190220635888
 21
90.31195863736833
 31
0.0
  0
LINE
  5
114
330
47
100
AcDbEntity
  8
0
  6
Continuous
 62
     7
100
AcDbLine
 10
43.38466699439169
 20
83.03107936821378
 30
0.0
 11
52.4096669943917
 21
90.84695863736835
 31
0.0
  0
LINE
  5
115
330
47
100
AcDbEntity
  8
0
  6
Continuous
 62
     7
100
AcDbLine
 10
37.0922406014453
 20
40.87491974576992
 30
0.0
 11
40.6429447569615
 21
39.84991974576991
 31
0.0
  0
LINE
  5
116
330
47
100
AcDbEntity
  8
0
  6
Continuous
 62
     7
100
AcDbLine
 10
36.28686964458859
 20
43.32014883338794
 30
0.0
 11
37.0922406014453
 21
40.87491974576992
 31
0.0
  0
LINE
  5
117
330
47
100
AcDbEntity
  8
0
  6
Continuous
 62
     7
100
AcDbLine
 10
51.468262304267
 20
41.56392336885631
 30
0.0
 11
51.468262304267
 21
45.12536616247898
 31
0.0
  0
LINE
  5
118
330
47
100
AcDbEntity
  8
0
  6
Continuous
 62
     7
100
AcDbLine
 10
51.468262304267
 20
67.94513555219893
 30
0.0
 11
44.9730717758836
 21
69.82013555219896
 31
0.0
  0
LINE
  5
119
330
47
100
AcDbEntity
  8
0
  6
Continuous
 62
     7
100
AcDbLine
 10
51.468262304267
 20
67.94513555219893
 30
0.0
 11
51.468262304267
 21
78.13548047594904
 31
0.0
  0
LINE
  5
11A
330
47
100
AcDbEntity
  8
0
  6
Continuous
 62
     7
100
AcDbLine
 10
48.94185066279249
 20
80.32341713788276
 30
0.0
 11
47.33656929376289
 21
79.60863158368421
 31
0.0
  0
LINE
  5
11B
330
47
100
AcDbEntity
  8
0
  6
Continuous
 62
     7
100
AcDbLine
 10
47.33656929376289
 20
79.60863158368421
 30
0.0
 11
47.7324931440773
 21
79.26575147134776
 31
0.0
  0
LINE
  5
11C
330
47
100
AcDbEntity
  8
0
  6
Continuous
 62
     7
100
AcDbLine
 10
47.7324931440773
 20
79.26575147134776
 30
0.0
 11
47.26916955305259
 21
78.59700147134781
 31
0.0
  0
LINE
  5
11D
330
47
100
AcDbEntity
  8
0
  6
Continuous
 62
     7
100
AcDbLine
 10
48.94185066279249
 20
80.32341713788276
 30
0.0
 11
51.468262304267
 21
78.13548047594904
 31
0.0
  0
LINE
  5
11E
330
47
100
AcDbEntity
  8
0
  6
Continuous
 62
     7
100
AcDbLine
 10
41.8852580773623
 20
92.76251365730812
 30
0.0
 11
39.4134602528394
 21
92.43135554184116
 31
0.0
  0
LINE
  5
11F
330
47
100
AcDbEntity
  8
0
  6
Continuous
 62
     7
100
AcDbLine
 10
43.60236910032839
 20
84.94754381401525
 30
0.0
 11
52.62736910032839
 21
92.76342308316974
 31
0.0
  0
LINE
  5
120
330
47
100
AcDbEntity
  8
0
  6
Continuous
 62
     7
100
AcDbLine
 10
52.4096669943917
 20
90.84695863736835
 30
0.0
 11
52.62736910032839
 21
92.76342308316974
 31
0.0
  0
LINE
  5
121
330
47
100
AcDbEntity
  8
0
  6
Continuous
 62
     7
100
AcDbLine
 10
43.14318434108549
 20
83.24020948055025
 30
0.0
 11
42.52541955305259
 21
82.70520948055025
 31
0.0
  0
LINE
  5
122
330
47
100
AcDbEntity
  8
0
  6
Continuous
 62
     7
100
AcDbLine
 10
50.1009574588538
 20
94.9513597451035
 30
0.0
 11
41.07595745885379
 21
87.13548047594902
 31
0.0
  0
LINE
  5
123
330
47
100
AcDbEntity
  8
0
  6
Continuous
 62
     7
100
AcDbLine
 10
50.1009574588538
 20
94.9513597451035
 30
0.0
 11
52.62736910032839
 21
92.76342308316974
 31
0.0
  0
SPLINE
  5
124
330
47
100
AcDbEntity
  8
0
  6
Continuous
 62
     7
100
AcDbSpline
210
0.0
220
0.0
230
1.0
 70
     8
 71
     3
 72
     9
 73
     5
 74
     3
 42
0.000000001
 43
0.0000000001
 44
0.00000001
 40
0.0
 40
0.0
 40
0.0
 40
0.0
 40
0.4697861522010632
 40
0.8712471595482509
 40
0.8712471595482509
 40
0.8712471595482509
 40
0.8712471595482509
 10
22.03477790762
 20
67.56509023320486
 30
0.0
 10
22.15086156737444
 20
67.67736520967513
 30
0.0
 10
22.3661457998426
 20
67.88558603256739
 30
0.0
 10
22.414445664064
 20
68.17960812019022
 30
0.0
 10
22.43670169626668
 20
68.31509023320484
 30
0.0
 11
22.03477790762
 21
67.56509023320486
 31
0.0
 11
22.33447840256969
 21
67.92686176905504
 31
0.0
 11
22.43670169626668
 21
68.31509023320484
 31
0.0
  0
SPLINE
  5
125
330
47
100
AcDbEntity
  8
0
  6
Continuous
 62
     7
100
AcDbSpline
210
0.0
220
0.0
230
1.0
 70
     8
 71
     3
 72
    17
 73
    13
 74
    11
 42
0.000000001
 43
0.0000000001
 44
0.00000001
 40
0.0
 40
0.0
 40
0.0
 40
0.0
 40
0.4014610005567861
 40
0.8712471548146078
 40
1.440286929418541
 40
2.105766036395396
 40
2.844663643742322
 40
3.622801011199131
 40
4.400938378432897
 40
5.139835984870729
 40
5.805315092454788
 40
6.374354872732373
 40
6.374354872732373
 40
6.374354872732373
 40
6.374354872732373
 10
16.43670169626668
 20
68.31509023320484
 30
0.0
 10
16.45956103323159
 20
68.18066880920225
 30
0.0
 10
16.5091701774866
 20
67.888948614704
 30
0.0
 10
16.8531362985241
 20
67.52376244631157
 30
0.0
 10
17.33389971080134
 20
67.22128735658757
 30
0.0
 10
17.95593105080891
 20
66.99163503465732
 30
0.0
 10
18.67094991274126
 20
66.84750830552703
 30
0.0
 10
19.43659019292134
 20
66.79863242114953
 30
0.0
 10
20.20288819649301
 20
66.84684351540322
 30
0.0
 10
20.91609381949793
 20
66.99403539827269
 30
0.0
 10
21.54379275395434
 20
67.21375121955504
 30
0.0
 10
21.87986746020263
 20
67.45423945533038
 30
0.0
 10
22.03477790762
 20
67.56509023320486
 30
0.0
 11
16.43670169626668
 21
68.31509023320484
 31
0.0
 11
16.53892498996369
 21
67.92686176905502
 31
0.0
 11
16.83862548491339
 21
67.56509023320484
 31
0.0
 11
17.31538191826328
 21
67.25443034420314
 31
0.0
 11
17.93670169626668
 21
67.01605212752818
 31
0.0
 11
18.6602447679671
 21
66.86620188005332
 31
0.0
 11
19.4367016962667
 21
66.81509023320484
 31
0.0
 11
20.21315862456628
 21
66.86620188005334
 31
0.0
 11
20.93670169626668
 21
67.01605212752818
 31
0.0
 11
21.5580214742701
 21
67.25443034420314
 31
0.0
 11
22.03477790762
 21
67.56509023320486
 31
0.0
  0
SPLINE
  5
126
330
47
100
AcDbEntity
  8
0
  6
Continuous
 62
     7
100
AcDbSpline
210
0.0
220
0.0
230
1.0
 70
     8
 71
     3
 72
    17
 73
    13
 74
    11
 42
0.000000001
 43
0.0000000001
 44
0.00000001
 40
0.0
 40
0.0
 40
0.0
 40
0.0
 40
0.4499708725382883
 40
0.9765228537807913
 40
1.614321600968207
 40
2.360212766604952
 40
3.188393834768563
 40
4.060556134073249
 40
4.932718433154898
 40
5.76089950040938
 40
6.506790666653316
 40
7.144589419514459
 40
7.144589419514459
 40
7.144589419514459
 40
7.144589419514459
 10
22.8554516962667
 20
99.97373140029973
 30
0.0
 10
22.82983018935699
 20
100.1243954133979
 30
0.0
 10
22.77422660809927
 20
100.4513651323786
 30
0.0
 10
22.38869791101963
 20
100.8606779608607
 30
0.0
 10
21.84984225399528
 20
101.1997021243791
 30
0.0
 10
21.15264879350327
 20
101.4571041015031
 30
0.0
 10
20.35123181923539
 20
101.6186461437062
 30
0.0
 10
19.49307667190203
 20
101.6734278639755
 30
0.0
 10
18.63418432619319
 20
101.6193912625674
 30
0.0
 10
17.83479969068573
 20
101.4544136934775
 30
0.0
 10
17.13125380112933
 20
101.2081488790387
 30
0.0
 10
16.75457006895254
 20
100.9386016469985
 30
0.0
 10
16.5809412760415
 20
100.8143564002997
 30
0.0
 11
22.8554516962667
 21
99.97373140029973
 31
0.0
 11
22.74087642124798
 21
100.4088708038677
 31
0.0
 11
22.40496211649184
 21
100.8143564002997
 31
0.0
 11
21.87059761411218
 21
101.1625543592225
 31
0.0
 11
21.17420169626669
 21
101.4297366104123
 31
0.0
 11
20.36323050340248
 21
101.5976937627904
 31
0.0
 11
19.49295169626669
 21
101.6549814002997
 31
0.0
 11
18.62267288913089
 21
101.5976937627904
 31
0.0
 11
17.81170169626673
 21
101.4297366104123
 31
0.0
 11
17.11530577842125
 21
101.1625543592225
 31
0.0
 11
16.5809412760415
 21
100.8143564002997
 31
0.0
  0
SPLINE
  5
127
330
47
100
AcDbEntity
  8
0
  6
Continuous
 62
     7
100
AcDbSpline
210
0.0
220
0.0
230
1.0
 70
     8
 71
     3
 72
    15
 73
    11
 74
     9
 42
0.000000001
 43
0.0000000001
 44
0.00000001
 40
0.0
 40
0.0
 40
0.0
 40
0.0
 40
0.1365579681580015
 40
0.2825721232359093
 40
0.433412969366733
 40
0.5831949397623782
 40
0.7262993389824003
 40
0.8589055648157449
 40
0.9804997352210263
 40
1.094872761441411
 40
1.094872761441411
 40
1.094872761441411
 40
1.094872761441411
 10
11.1894207742528
 20
51.55671373977235
 30
0.0
 10
11.18524873885155
 20
51.60231685315895
 30
0.0
 10
11.17661575365597
 20
51.69668094229138
 30
0.0
 10
11.11561385488627
 20
51.83030092092474
 30
0.0
 10
11.02652945987936
 20
51.95064394436406
 30
0.0
 10
10.91278790793588
 20
52.04731156973709
 30
0.0
 10
10.78482669302026
 20
52.11230087116376
 30
0.0
 10
10.65379520151791
 20
52.13840846475101
 30
0.0
 10
10.52729268865586
 20
52.1256510063351
 30
0.0
 10
10.46114361370117
 20
52.08121587516833
 30
0.0
 10
10.42908123700659
 20
52.05967821278158
 30
0.0
 11
11.1894207742528
 21
51.55671373977235
 31
0.0
 11
11.16963236325491
 21
51.69183034556978
 31
0.0
 11
11.11207678720039
 21
51.82602233118058
 31
0.0
 11
11.02201353329916
 21
51.94702469115302
 31
0.0
 11
10.90767492699423
 21
52.04377861580127
 31
0.0
 11
10.7795107184529
 21
52.1074402614312
 31
0.0
 11
10.64923501388519
 21
52.1321920845585
 31
0.0
 11
10.52875479346721
 21
52.11577074766849
 31
0.0
 11
10.42908123700659
 21
52.05967821278158
 31
0.0
  0
SPLINE
  5
128
330
47
100
AcDbEntity
  8
0
  6
Continuous
 62
     7
100
AcDbSpline
210
0.0
220
0.0
230
1.0
 70
     8
 71
     3
 72
     9
 73
     5
 74
     3
 42
0.000000001
 43
0.0000000001
 44
0.00000001
 40
0.0
 40
0.0
 40
0.0
 40
0.0
 40
0.1347351597551406
 40
0.280698468389839
 40
0.280698468389839
 40
0.280698468389839
 40
0.280698468389839
 10
10.42908123700659
 20
52.05967821278158
 30
0.0
 10
10.39868875330543
 20
52.0249767464915
 30
0.0
 10
10.33537104623179
 20
51.95268195906759
 30
0.0
 10
10.32749230785101
 20
51.85665026146093
 30
0.0
 10
10.32339537046829
 20
51.80671373977234
 30
0.0
 11
10.42908123700659
 21
52.05967821278158
 31
0.0
 11
10.35067691118934
 21
51.95010483304758
 31
0.0
 11
10.32339537046829
 21
51.80671373977234
 31
0.0
  0
SPLINE
  5
129
330
47
100
AcDbEntity
  8
0
  6
Continuous
 62
     7
100
AcDbSpline
210
0.0
220
0.0
230
1.0
 70
     8
 71
     3
 72
    11
 73
     7
 74
     5
 42
0.000000001
 43
0.0000000001
 44
0.00000001
 40
0.0
 40
0.0
 40
0.0
 40
0.0
 40
0.1565028818605821
 40
0.3179717652221136
 40
0.4881496749684595
 40
0.6688831447655834
 40
0.6688831447655834
 40
0.6688831447655834
 40
0.6688831447655834
 10
20.1043478153629
 20
46.30254742159912
 30
0.0
 10
20.06757863451508
 20
46.26504544107223
 30
0.0
 10
19.99287355917287
 20
46.18885149306202
 30
0.0
 10
19.92424488056387
 20
46.03835194254297
 30
0.0
 10
19.88816808179337
 20
45.8697098907667
 30
0.0
 10
19.89538268956023
 20
45.75244957071656
 30
0.0
 10
19.89909851015759
 20
45.6920557910939
 30
0.0
 11
20.1043478153629
 21
46.30254742159912
 31
0.0
 11
20.00130822846297
 21
46.18475100331747
 31
0.0
 11
19.93098636179109
 21
46.03939958002385
 31
0.0
 11
19.89641898063605
 21
45.87276939702508
 31
0.0
 11
19.89909851015759
 21
45.6920557910939
 31
0.0
  0
SPLINE
  5
12A
330
47
100
AcDbEntity
  8
0
  6
Continuous
 62
     7
100
AcDbSpline
210
0.0
220
0.0
230
1.0
 70
     8
 71
     3
 72
    11
 73
     7
 74
     5
 42
0.000000001
 43
0.0000000001
 44
0.00000001
 40
0.0
 40
0.0
 40
0.0
 40
0.0
 40
0.1871411907842905
 40
0.3630362754380796
 40
0.5295381944251563
 40
0.6906435563656315
 40
0.6906435563656315
 40
0.6906435563656315
 40
0.6906435563656315
 10
20.7590014860707
 20
46.41264387936512
 30
0.0
 10
20.69794087143972
 20
46.42672468002543
 30
0.0
 10
20.57948903060003
 20
46.45404009205463
 30
0.0
 10
20.40142447755528
 20
46.44509310708256
 30
0.0
 10
20.23695000106416
 20
46.39916388422075
 30
0.0
 10
20.14806045954558
 20
46.33439728761598
 30
0.0
 10
20.1043478153629
 20
46.30254742159912
 30
0.0
 11
20.7590014860707
 21
46.41264387936512
 31
0.0
 11
20.57485660378667
 21
46.44599785592645
 31
0.0
 11
20.39913363048424
 21
46.43821850753605
 31
0.0
 11
20.23986940985451
 21
46.38966134534212
 31
0.0
 11
20.1043478153629
 21
46.30254742159912
 31
0.0
  0
SPLINE
  5
12B
330
47
100
AcDbEntity
  8
0
  6
Continuous
 62
     7
100
AcDbSpline
210
0.0
220
0.0
230
1.0
 70
     8
 71
     3
 72
     9
 73
     5
 74
     3
 42
0.000000001
 43
0.0000000001
 44
0.00000001
 40
0.0
 40
0.0
 40
0.0
 40
0.0
 40
0.5265519791857245
 40
0.9765228585144033
 40
0.9765228585144033
 40
0.9765228585144033
 40
0.9765228585144033
 10
16.5809412760415
 20
100.8143564002997
 30
0.0
 10
16.45083084066907
 20
100.6885148641104
 30
0.0
 10
16.20953309468643
 20
100.4551340262433
 30
0.0
 10
16.15539699904162
 20
100.1255842687248
 30
0.0
 10
16.13045169626668
 20
99.97373140029973
 30
0.0
 11
16.5809412760415
 21
100.8143564002997
 31
0.0
 11
16.2450269712854
 21
100.4088708038676
 31
0.0
 11
16.13045169626668
 21
99.97373140029973
 31
0.0
  0
SPLINE
  5
12C
330
47
100
AcDbEntity
  8
0
  6
Continuous
 62
     7
100
AcDbSpline
210
0.0
220
0.0
230
1.0
 70
     8
 71
     3
 72
    17
 73
    13
 74
    11
 42
0.000000001
 43
0.0000000001
 44
0.00000001
 40
0.0
 40
0.0
 40
0.0
 40
0.0
 40
0.5237559111021542
 40
1.135303262989161
 40
1.823441109477877
 40
2.566534911486586
 40
3.336957724092991
 40
4.104417883617561
 40
4.838904049708639
 40
5.513667412805511
 40
6.108691829351188
 40
6.615479772629561
 40
6.615479772629561
 40
6.615479772629561
 40
6.615479772629561
 10
22.5334600237772
 20
99.39262702421435
 30
0.0
 10
22.40180507375891
 20
99.5084586040667
 30
0.0
 10
22.11642729069865
 20
99.75953731970762
 30
0.0
 10
21.55822253999113
 20
100.0169722017929
 30
0.0
 10
20.90669655070526
 20
100.2168864324977
 30
0.0
 10
20.17991833923239
 20
100.3351233538994
 30
0.0
 10
19.41888533196731
 20
100.3701853830699
 30
0.0
 10
18.661690574959
 20
100.318537552702
 30
0.0
 10
17.94595728950917
 20
100.1845934779966
 30
0.0
 10
17.31253253640932
 20
99.97058389367831
 30
0.0
 10
16.77672606034831
 20
99.70106425995556
 30
0.0
 10
16.51287572929387
 20
99.44293917722186
 30
0.0
 10
16.3915155370012
 20
99.32421234746138
 30
0.0
 11
22.5334600237772
 21
99.39262702421435
 31
0.0
 11
22.12526363512639
 21
99.72079765223286
 31
0.0
 11
21.57798170886709
 21
99.99369444099818
 31
0.0
 11
20.9205304059808
 21
100.1968974924129
 31
0.0
 11
20.18764900326939
 21
100.3196706426163
 31
0.0
 11
19.41806099739432
 21
100.3555260372485
 31
0.0
 11
18.6524300503164
 21
100.3025699494013
 31
0.0
 11
17.93121081204655
 21
100.1635996770108
 31
0.0
 11
17.29251050600519
 21
99.94595888628757
 31
0.0
 11
16.77007770343887
 21
99.66114662229317
 31
0.0
 11
16.3915155370012
 21
99.32421234746138
 31
0.0
  0
SPLINE
  5
12D
330
47
100
AcDbEntity
  8
0
  6
Continuous
 62
     7
100
AcDbSpline
210
0.0
220
0.0
230
1.0
 70
     8
 71
     3
 72
    19
 73
    15
 74
    13
 42
0.000000001
 43
0.0000000001
 44
0.00000001
 40
0.0
 40
0.0
 40
0.0
 40
0.0
 40
0.4499708771592792
 40
0.9765228548642293
 40
1.614321603096773
 40
2.360212770350977
 40
3.188393840955182
 40
4.06055614349102
 40
4.9327184460269
 40
5.760899516631161
 40
6.506790683885329
 40
7.144589432117839
 40
7.671141409822785
 40
8.12111228698205
 40
8.12111228698205
 40
8.12111228698205
 40
8.12111228698205
 10
16.13045169626668
 20
99.97373140029973
 30
0.0
 10
16.15607318384486
 20
99.82306742010616
 30
0.0
 10
16.21167672994369
 20
99.49609777789725
 30
0.0
 10
16.59720580612545
 20
99.08678426250704
 30
0.0
 10
17.13605952955256
 20
98.74776350680148
 30
0.0
 10
17.83326204770862
 20
98.4903456033337
 30
0.0
 10
18.6346398411374
 20
98.3288724541946
 30
0.0
 10
19.4929516962667
 20
98.27381521111516
 30
0.0
 10
20.35126355139602
 20
98.32887245419461
 30
0.0
 10
21.15264134482482
 20
98.49034560333371
 30
0.0
 10
21.8498438629809
 20
98.74776350680145
 30
0.0
 10
22.38869758640794
 20
99.0867842625071
 30
0.0
 10
22.77422666258969
 20
99.49609777789722
 30
0.0
 10
22.82983020868852
 20
99.82306742010617
 30
0.0
 10
22.8554516962667
 20
99.97373140029973
 30
0.0
 11
16.13045169626668
 21
99.97373140029973
 31
0.0
 11
16.24502697128541
 21
99.53859199673181
 31
0.0
 11
16.58094127604154
 21
99.13310640029972
 31
0.0
 11
17.11530577842126
 21
98.78490844137698
 31
0.0
 11
17.81170169626673
 21
98.51772619018713
 31
0.0
 11
18.6226728891309
 21
98.34976903780908
 31
0.0
 11
19.49295169626669
 21
98.29248140029972
 31
0.0
 11
20.36323050340252
 21
98.34976903780908
 31
0.0
 11
21.17420169626673
 21
98.51772619018715
 31
0.0
 11
21.87059761411218
 21
98.78490844137698
 31
0.0
 11
22.40496211649184
 21
99.13310640029974
 31
0.0
 11
22.74087642124798
 21
99.53859199673182
 31
0.0
 11
22.8554516962667
 21
99.97373140029973
 31
0.0
  0
SPLINE
  5
12E
330
47
100
AcDbEntity
  8
0
  6
Continuous
 62
     7
100
AcDbSpline
210
0.0
220
0.0
230
1.0
 70
     8
 71
     3
 72
    17
 73
    13
 74
    11
 42
0.000000001
 43
0.0000000001
 44
0.00000001
 40
0.0
 40
0.0
 40
0.0
 40
0.0
 40
0.40146100055675
 40
0.8712471548145913
 40
1.440286929418527
 40
2.105766036395391
 40
2.844663643742328
 40
3.62280101119913
 40
4.400938378432943
 40
5.139835984870781
 40
5.805315092454789
 40
6.374354872732371
 40
6.374354872732371
 40
6.374354872732371
 40
6.374354872732371
 10
36.78829868520108
 20
62.44009023320493
 30
0.0
 10
36.81115802216598
 20
62.30566880920234
 30
0.0
 10
36.860767166421
 20
62.01394861470412
 30
0.0
 10
37.20473328745846
 20
61.64876244631162
 30
0.0
 10
37.68549669973575
 20
61.34628735658771
 30
0.0
 10
38.3075280397433
 20
61.11663503465738
 30
0.0
 10
39.02254690167568
 20
60.97250830552715
 30
0.0
 10
39.78818718185575
 20
60.92363242114961
 30
0.0
 10
40.55448518542746
 20
60.97184351540332
 30
0.0
 10
41.26769080843236
 20
61.11903539827279
 30
0.0
 10
41.89538974288875
 20
61.33875121955512
 30
0.0
 10
42.23146444913704
 20
61.57923945533048
 30
0.0
 10
42.3863748965544
 20
61.69009023320495
 30
0.0
 11
36.78829868520108
 21
62.44009023320493
 31
0.0
 11
36.89052197889808
 21
62.05186176905514
 31
0.0
 11
37.19022247384778
 21
61.69009023320494
 31
0.0
 11
37.66697890719767
 21
61.37943034420324
 31
0.0
 11
38.28829868520108
 21
61.14105212752828
 31
0.0
 11
39.01184175690151
 21
60.99120188005342
 31
0.0
 11
39.7882986852011
 21
60.94009023320493
 31
0.0
 11
40.56475561350073
 21
60.99120188005342
 31
0.0
 11
41.28829868520114
 21
61.14105212752828
 31
0.0
 11
41.9096184632045
 21
61.37943034420324
 31
0.0
 11
42.3863748965544
 21
61.69009023320495
 31
0.0
  0
SPLINE
  5
12F
330
47
100
AcDbEntity
  8
0
  6
Continuous
 62
     7
100
AcDbSpline
210
0.0
220
0.0
230
1.0
 70
     8
 71
     3
 72
     9
 73
     5
 74
     3
 42
0.000000001
 43
0.0000000001
 44
0.00000001
 40
0.0
 40
0.0
 40
0.0
 40
0.0
 40
0.4697861522010655
 40
0.8712471595482445
 40
0.8712471595482445
 40
0.8712471595482445
 40
0.8712471595482445
 10
42.3863748965544
 20
61.69009023320495
 30
0.0
 10
42.50245855630883
 20
61.80236520967523
 30
0.0
 10
42.717742788777
 20
62.0105860325675
 30
0.0
 10
42.7660426529984
 20
62.3046081201903
 30
0.0
 10
42.78829868520108
 20
62.44009023320493
 30
0.0
 11
42.3863748965544
 21
61.69009023320495
 31
0.0
 11
42.68607539150409
 21
62.05186176905514
 31
0.0
 11
42.78829868520108
 21
62.44009023320493
 31
0.0
  0
SPLINE
  5
130
330
47
100
AcDbEntity
  8
0
  6
Continuous
 62
     7
100
AcDbSpline
210
0.0
220
0.0
230
1.0
 70
     8
 71
     3
 72
    19
 73
    15
 74
    13
 42
0.000000001
 43
0.0000000001
 44
0.00000001
 40
0.0
 40
0.0
 40
0.0
 40
0.0
 40
0.4499708771592501
 40
0.9765228548641707
 40
1.614321603096731
 40
2.360212770350929
 40
3.188393840955176
 40
4.060556143491062
 40
4.932718446026899
 40
5.760899516631101
 40
6.506790683885312
 40
7.144589432117859
 40
7.671141409822817
 40
8.121112286982077
 40
8.121112286982077
 40
8.121112286982077
 40
8.121112286982077
 10
43.20704868520099
 20
94.09873140029973
 30
0.0
 10
43.18142719762282
 20
94.24939538049324
 30
0.0
 10
43.12582365152404
 20
94.57636502270219
 30
0.0
 10
42.74029457534231
 20
94.98567853809243
 30
0.0
 10
42.20144085191522
 20
95.32469929379798
 30
0.0
 10
41.50423833375913
 20
95.58211719726575
 30
0.0
 10
40.70286054033032
 20
95.74359034640484
 30
0.0
 10
39.844548685201
 20
95.79864758948428
 30
0.0
 10
38.9862368300717
 20
95.74359034640484
 30
0.0
 10
38.18485903664293
 20
95.58211719726575
 30
0.0
 10
37.48765651848684
 20
95.32469929379798
 30
0.0
 10
36.94880279505975
 20
94.9856785380924
 30
0.0
 10
36.56327371887798
 20
94.57636502270222
 30
0.0
 10
36.50767017277918
 20
94.24939538049327
 30
0.0
 10
36.48204868520099
 20
94.09873140029973
 30
0.0
 11
43.20704868520099
 21
94.09873140029973
 31
0.0
 11
43.09247341018232
 21
94.53387080386763
 31
0.0
 11
42.75655910542623
 21
94.93935640029972
 31
0.0
 11
42.22219460304651
 21
95.28755435922247
 31
0.0
 11
41.52579868520103
 21
95.5547366104123
 31
0.0
 11
40.71482749233683
 21
95.72269376279039
 31
0.0
 11
39.84454868520099
 21
95.77998140029973
 31
0.0
 11
38.9742698780652
 21
95.72269376279037
 31
0.0
 11
38.16329868520104
 21
95.5547366104123
 31
0.0
 11
37.46690276735555
 21
95.28755435922247
 31
0.0
 11
36.93253826497583
 21
94.93935640029973
 31
0.0
 11
36.5966239602197
 21
94.53387080386763
 31
0.0
 11
36.48204868520099
 21
94.09873140029973
 31
0.0
  0
SPLINE
  5
131
330
47
100
AcDbEntity
  8
0
  6
Continuous
 62
     7
100
AcDbSpline
210
0.0
220
0.0
230
1.0
 70
     8
 71
     3
 72
    17
 73
    13
 74
    11
 42
0.000000001
 43
0.0000000001
 44
0.00000001
 40
0.0
 40
0.0
 40
0.0
 40
0.0
 40
0.5237559111021004
 40
1.135303262989085
 40
1.823441109477785
 40
2.566534911486471
 40
3.336957724092931
 40
4.104417883617556
 40
4.83890404970863
 40
5.513667412805458
 40
6.108691829351121
 40
6.615479772629559
 40
6.615479772629559
 40
6.615479772629559
 40
6.615479772629559
 10
42.88505701271149
 20
93.51762702421435
 30
0.0
 10
42.75340206269323
 20
93.6334586040667
 30
0.0
 10
42.46802427963297
 20
93.88453731970759
 30
0.0
 10
41.9098195289255
 20
94.1419722017929
 30
0.0
 10
41.25829353963963
 20
94.34188643249762
 30
0.0
 10
40.53151532816677
 20
94.4601233538994
 30
0.0
 10
39.77048232090166
 20
94.49518538306988
 30
0.0
 10
39.01328756389331
 20
94.44353755270208
 30
0.0
 10
38.29755427844349
 20
94.30959347799664
 30
0.0
 10
37.66412952534366
 20
94.09558389367825
 30
0.0
 10
37.12832304928265
 20
93.82606425995564
 30
0.0
 10
36.86447271822817
 20
93.56793917722183
 30
0.0
 10
36.74311252593549
 20
93.44921234746138
 30
0.0
 11
42.88505701271149
 21
93.51762702421435
 31
0.0
 11
42.47686062406073
 21
93.84579765223283
 31
0.0
 11
41.92957869780145
 21
94.11869444099815
 31
0.0
 11
41.27212739491517
 21
94.3218974924128
 31
0.0
 11
40.53924599220379
 21
94.44467064261627
 31
0.0
 11
39.76965798632867
 21
94.48052603724845
 31
0.0
 11
39.00402703925069
 21
94.42756994940137
 31
0.0
 11
38.28280780098085
 21
94.28859967701077
 31
0.0
 11
37.64410749493953
 21
94.07095888628757
 31
0.0
 11
37.12167469237321
 21
93.7861466222932
 31
0.0
 11
36.74311252593549
 21
93.44921234746138
 31
0.0
  0
SPLINE
  5
132
330
47
100
AcDbEntity
  8
0
  6
Continuous
 62
     7
100
AcDbSpline
210
0.0
220
0.0
230
1.0
 70
     8
 71
     3
 72
    13
 73
     9
 74
     7
 42
0.000000001
 43
0.0000000001
 44
0.00000001
 40
0.0
 40
0.0
 40
0.0
 40
0.0
 40
0.1172631642635514
 40
0.2419307378212853
 40
0.3712960139461115
 40
0.5017221147109283
 40
0.629373771144784
 40
0.7509434390752469
 40
0.7509434390752469
 40
0.7509434390752469
 40
0.7509434390752469
 10
0.545968561742086
 20
49.00004861517349
 30
0.0
 10
0.5428941874879013
 20
49.03919897769794
 30
0.0
 10
0.5365512974697858
 20
49.11997179267372
 30
0.0
 10
0.4906812643685908
 20
49.23661970698362
 30
0.0
 10
0.4224117848868576
 20
49.34582745771815
 30
0.0
 10
0.3328133646988041
 20
49.43976586332042
 30
0.0
 10
0.229411430156358
 20
49.51516889318532
 30
0.0
 10
0.1511376549975174
 20
49.54399836468204
 30
0.0
 10
0.1129558598497908
 20
49.5580613170657
 30
0.0
 11
0.545968561742086
 21
49.00004861517349
 31
0.0
 11
0.5312139002087077
 21
49.11637982321952
 31
0.0
 11
0.4879558598498406
 21
49.23330179064655
 31
0.0
 11
0.4191419960667595
 21
49.3428464273069
 31
0.0
 11
0.3294622107959881
 21
49.43754861517349
 31
0.0
 11
0.2250277639918261
 21
49.51095428351988
 31
0.0
 11
0.1129558598497908
 21
49.5580613170657
 31
0.0
  0
SPLINE
  5
133
330
47
100
AcDbEntity
  8
0
  6
Continuous
 62
     7
100
AcDbSpline
210
0.0
220
0.0
230
1.0
 70
     8
 71
     3
 72
    11
 73
     7
 74
     5
 42
0.000000001
 43
0.0000000001
 44
0.00000001
 40
0.0
 40
0.0
 40
0.0
 40
0.0
 40
0.0935705952109532
 40
0.1815181363976484
 40
0.2647690944696688
 40
0.3453217744507567
 40
0.3453217744507567
 40
0.3453217744507567
 40
0.3453217744507567
 10
-0.0602492209070107
 20
49.60806131706571
 30
0.0
 10
-0.0907795281633826
 20
49.61510171738223
 30
0.0
 10
-0.150005449310925
 20
49.62875941610237
 30
0.0
 10
-0.2390377249174269
 20
49.62428592702785
 30
0.0
 10
-0.321274960434168
 20
49.60132131256454
 30
0.0
 10
-0.3657197344381556
 20
49.5689380209956
 30
0.0
 10
-0.3875760562611106
 20
49.55301308818271
 30
0.0
 11
-0.0602492209070107
 21
49.60806131706571
 31
0.0
 11
-0.1523216620490935
 21
49.6247383053464
 31
0.0
 11
-0.2401831487003677
 21
49.6208486311512
 31
0.0
 11
-0.3198152590152468
 21
49.59657005005425
 31
0.0
 11
-0.3875760562611106
 21
49.55301308818271
 31
0.0
  0
SPLINE
  5
134
330
47
100
AcDbEntity
  8
0
  6
Continuous
 62
     7
100
AcDbSpline
210
0.0
220
0.0
230
1.0
 70
     8
 71
     3
 72
     9
 73
     5
 74
     3
 42
0.000000001
 43
0.0000000001
 44
0.00000001
 40
0.0
 40
0.0
 40
0.0
 40
0.0
 40
0.1347351597550913
 40
0.280698468389779
 40
0.280698468389779
 40
0.280698468389779
 40
0.280698468389779
 10
-0.3875760562611106
 20
49.55301308818271
 30
0.0
 10
-0.4179685399622363
 20
49.51831162189261
 30
0.0
 10
-0.4812862470358138
 20
49.44601683446871
 30
0.0
 10
-0.4891649854165872
 20
49.34998513686206
 30
0.0
 10
-0.4932619227993058
 20
49.30004861517348
 30
0.0
 11
-0.3875760562611106
 21
49.55301308818271
 31
0.0
 11
-0.4659803820782713
 21
49.44343970844871
 31
0.0
 11
-0.4932619227993058
 21
49.30004861517348
 31
0.0
  0
SPLINE
  5
135
330
47
100
AcDbEntity
  8
0
  6
Continuous
 62
     7
100
AcDbSpline
210
0.0
220
0.0
230
1.0
 70
     8
 71
     3
 72
    13
 73
     9
 74
     7
 42
0.000000001
 43
0.0000000001
 44
0.00000001
 40
0.0
 40
0.0
 40
0.0
 40
0.0
 40
0.474078817395655
 40
0.9606973516921535
 40
1.452101951356547
 40
1.940033122236616
 40
2.416597177715512
 40
2.875145083314734
 40
2.875145083314734
 40
2.875145083314734
 40
2.875145083314734
 10
36.28686964458859
 20
43.32014883338794
 30
0.0
 10
36.23012401268426
 20
43.46798518748237
 30
0.0
 10
36.11513177357353
 20
43.76756826508208
 30
0.0
 10
35.8548770139553
 20
44.17903338616753
 30
0.0
 10
35.53952219899585
 20
44.5542477122574
 30
0.0
 10
35.17312159912943
 20
44.87465260370409
 30
0.0
 10
34.77384195696601
 20
45.13643628682156
 30
0.0
 10
34.48260638629763
 20
45.2495543771175
 30
0.0
 10
34.33979411439958
 20
45.30502373193977
 30
0.0
 11
36.28686964458859
 21
43.32014883338794
 31
0.0
 11
36.10270606916655
 21
43.75699491959431
 31
0.0
 11
35.84704447204024
 21
44.17104171279914
 31
0.0
 11
35.52976348787851
 21
44.54628997611713
 31
0.0
 11
35.16312336924348
 21
44.86824005384118
 31
0.0
 11
34.76129116498805
 21
45.1244512563235
 31
0.0
 11
34.33979411439958
 21
45.30502373193977
 31
0.0
  0
SPLINE
  5
136
330
47
100
AcDbEntity
  8
0
  6
Continuous
 62
     7
100
AcDbSpline
210
0.0
220
0.0
230
1.0
 70
     8
 71
     3
 72
    17
 73
    13
 74
    11
 42
0.000000001
 43
0.0000000001
 44
0.00000001
 40
0.0
 40
0.0
 40
0.0
 40
0.0
 40
0.4499708725382709
 40
0.9765228537807693
 40
1.614321600968239
 40
2.360212766604985
 40
3.188393834768548
 40
4.060556134073228
 40
4.932718433154925
 40
5.760899500409442
 40
6.506790666653353
 40
7.144589419514448
 40
7.144589419514448
 40
7.144589419514448
 40
7.144589419514448
 10
36.48204868520099
 20
94.09873140029973
 30
0.0
 10
36.50767019211069
 20
93.94806738720156
 30
0.0
 10
36.56327377336841
 20
93.62109766822081
 30
0.0
 10
36.94880247044806
 20
93.21178483973874
 30
0.0
 10
37.48765812747245
 20
92.87276067622041
 30
0.0
 10
38.18485158796446
 20
92.61535869909638
 30
0.0
 10
38.9862685622323
 20
92.4538166568932
 30
0.0
 10
39.84442370956566
 20
92.39903493662396
 30
0.0
 10
40.70331605527453
 20
92.4530715380321
 30
0.0
 10
41.502700690782
 20
92.61804910712195
 30
0.0
 10
42.2062465803384
 20
92.86431392156074
 30
0.0
 10
42.58293031251515
 20
93.13386115360098
 30
0.0
 10
42.75655910542619
 20
93.25810640029974
 30
0.0
 11
36.48204868520099
 21
94.09873140029973
 31
0.0
 11
36.5966239602197
 21
93.66359199673181
 31
0.0
 11
36.93253826497583
 21
93.25810640029972
 31
0.0
 11
37.46690276735556
 21
92.909908441377
 31
0.0
 11
38.16329868520104
 21
92.64272619018715
 31
0.0
 11
38.9742698780652
 21
92.47476903780908
 31
0.0
 11
39.84454868520099
 21
92.41748140029974
 31
0.0
 11
40.71482749233683
 21
92.4747690378091
 31
0.0
 11
41.52579868520103
 21
92.64272619018715
 31
0.0
 11
42.22219460304647
 21
92.909908441377
 31
0.0
 11
42.75655910542619
 21
93.25810640029974
 31
0.0
  0
SPLINE
  5
137
330
47
100
AcDbEntity
  8
0
  6
Continuous
 62
     7
100
AcDbSpline
210
0.0
220
0.0
230
1.0
 70
     8
 71
     3
 72
     9
 73
     5
 74
     3
 42
0.000000001
 43
0.0000000001
 44
0.00000001
 40
0.0
 40
0.0
 40
0.0
 40
0.0
 40
0.5265519791857536
 40
0.9765228585144189
 40
0.9765228585144189
 40
0.9765228585144189
 40
0.9765228585144189
 10
42.75655910542619
 20
93.25810640029974
 30
0.0
 10
42.88666954079864
 20
93.38394793648905
 30
0.0
 10
43.1279672867813
 20
93.61732877435612
 30
0.0
 10
43.18210338242608
 20
93.94687853187463
 30
0.0
 10
43.20704868520099
 20
94.09873140029973
 30
0.0
 11
42.75655910542619
 21
93.25810640029974
 31
0.0
 11
43.09247341018232
 21
93.66359199673182
 31
0.0
 11
43.20704868520099
 21
94.09873140029973
 31
0.0
  0
ENDBLK
  5
49
330
47
100
AcDbEntity
  8
0
100
AcDbBlockEnd
  0
BLOCK
  5
4C
330
4A
100
AcDbEntity
  8
0
100
AcDbBlockBegin
  2
AllgSicht1
 70
     0
 10
30.00000000000159
 20
70.0
 30
0.0
  3
AllgSicht1
  1

  0
INSERT
  5
4B
330
4A
100
AcDbEntity
  8
0
100
AcDbBlockReference
  2
OTTA_25-M6-select__1
 10
-0.49326192279931
 20
35.53895970192797
 30
0.0
  0
MTEXT
  5
139
330
4A
100
AcDbEntity
  8
1
 62
     6
100
AcDbMText
 10
29.99999999999704
 20
26.26895970192777
 30
0.0
 40
5.0
 41
0.0
 71
     2
 72
     1
  1
 
  7
CONVERTER_11
 73
     1
 44
1.32052821128451
  0
ENDBLK
  5
4D
330
4A
100
AcDbEntity
  8
0
100
AcDbBlockEnd
  0
BLOCK
  5
4F
330
4E
100
AcDbEntity
  8
0
100
AcDbBlockBegin
  2
OTTA_25-M6-select__2
 70
     0
 10
-134.0250000000001
 20
53.87903039165421
 30
0.0
  3
OTTA_25-M6-select__2
  1

  0
LINE
  5
13A
330
4E
100
AcDbEntity
  8
1
  6
DOT_CENTER
 62
     2
100
AcDbLine
 10
-92.27500000000006
 20
65.9402803916542
 30
0.0
 11
-92.27500000000006
 21
58.54278039165421
 31
0.0
  0
LINE
  5
13B
330
4E
100
AcDbEntity
  8
1
  6
DOT_CENTER
 62
     2
100
AcDbLine
 10
-88.57625000000007
 20
62.24153039165421
 30
0.0
 11
-95.97375000000005
 21
62.24153039165421
 31
0.0
  0
LINE
  5
13C
330
4E
100
AcDbEntity
  8
1
  6
DOT_CENTER
 62
     2
100
AcDbLine
 10
-115.7750000000001
 20
65.94028039165418
 30
0.0
 11
-115.7750000000001
 21
58.54278039165423
 31
0.0
  0
LINE
  5
13D
330
4E
100
AcDbEntity
  8
1
  6
DOT_CENTER
 62
     2
100
AcDbLine
 10
-112.0762500000001
 20
62.24153039165421
 30
0.0
 11
-119.47375
 21
62.24153039165421
 31
0.0
  0
LINE
  5
13E
330
4E
100
AcDbEntity
  8
0
  6
Continuous
 62
     7
100
AcDbLine
 10
-134.0250000000001
 20
71.92903039165421
 30
0.0
 11
-134.0250000000001
 21
53.87903039165421
 31
0.0
  0
LINE
  5
13F
330
4E
100
AcDbEntity
  8
0
  6
Continuous
 62
     7
100
AcDbLine
 10
-124.9422488825784
 20
53.87903039165421
 30
0.0
 11
-129.1763053394683
 21
53.87903039165421
 31
0.0
  0
LINE
  5
140
330
4E
100
AcDbEntity
  8
0
  6
Continuous
 62
     7
100
AcDbLine
 10
-129.254131856353
 20
53.87903039165421
 30
0.0
 11
-131.1077511174217
 21
53.87903039165421
 31
0.0
  0
LINE
  5
141
330
4E
100
AcDbEntity
  8
0
  6
Continuous
 62
     7
100
AcDbLine
 10
-134.0250000000001
 20
53.87903039165421
 30
0.0
 11
-131.1077511174217
 21
53.87903039165421
 31
0.0
  0
LINE
  5
142
330
4E
100
AcDbEntity
  8
0
  6
Continuous
 62
     7
100
AcDbLine
 10
-124.9422488825784
 20
53.87903039165421
 30
0.0
 11
-122.025
 21
53.87903039165421
 31
0.0
  0
LINE
  5
143
330
4E
100
AcDbEntity
  8
0
  6
Continuous
 62
     7
100
AcDbLine
 10
-129.1763053394683
 20
53.87903039165421
 30
0.0
 11
-129.254131856353
 21
53.87903039165421
 31
0.0
  0
LINE
  5
144
330
4E
100
AcDbEntity
  8
0
  6
Continuous
 62
     7
100
AcDbLine
 10
-76.9422488825783
 20
53.87903039165421
 30
0.0
 11
-78.795868143647
 21
53.87903039165421
 31
0.0
  0
LINE
  5
145
330
4E
100
AcDbEntity
  8
0
  6
Continuous
 62
     7
100
AcDbLine
 10
-78.8736946605318
 20
53.87903039165421
 30
0.0
 11
-83.10775111742171
 21
53.87903039165421
 31
0.0
  0
LINE
  5
146
330
4E
100
AcDbEntity
  8
0
  6
Continuous
 62
     7
100
AcDbLine
 10
-78.795868143647
 20
53.87903039165421
 30
0.0
 11
-78.8736946605318
 21
53.87903039165421
 31
0.0
  0
LINE
  5
147
330
4E
100
AcDbEntity
  8
0
  6
Continuous
 62
     7
100
AcDbLine
 10
-76.9422488825783
 20
53.87903039165421
 30
0.0
 11
-74.0250000000001
 21
53.87903039165421
 31
0.0
  0
LINE
  5
148
330
4E
100
AcDbEntity
  8
0
  6
Continuous
 62
     7
100
AcDbLine
 10
-86.02500000000006
 20
53.87903039165421
 30
0.0
 11
-83.10775111742171
 21
53.87903039165421
 31
0.0
  0
LINE
  5
149
330
4E
100
AcDbEntity
  8
0
  6
Continuous
 62
     7
100
AcDbLine
 10
-86.02500000000006
 20
53.87903039165421
 30
0.0
 11
-122.025
 21
53.87903039165421
 31
0.0
  0
LINE
  5
14A
330
4E
100
AcDbEntity
  8
0
  6
Continuous
 62
     7
100
AcDbLine
 10
-95.03875185987482
 20
60.32630666920329
 30
0.0
 11
-90.35977627754914
 21
65.00528225152897
 31
0.0
  0
LINE
  5
14B
330
4E
100
AcDbEntity
  8
0
  6
Continuous
 62
     7
100
AcDbLine
 10
-89.51124814012528
 20
64.15675411410511
 30
0.0
 11
-94.19022372245097
 21
59.47777853177944
 31
0.0
  0
LINE
  5
14C
330
4E
100
AcDbEntity
  8
0
  6
Continuous
 62
     7
100
AcDbLine
 10
-76.9422488825783
 20
53.87903039165421
 30
0.0
 11
-76.9422488825784
 21
71.92903039165421
 31
0.0
  0
LINE
  5
14D
330
4E
100
AcDbEntity
  8
0
  6
Continuous
 62
     7
100
AcDbLine
 10
-83.10775111742171
 20
53.87903039165421
 30
0.0
 11
-83.10775111742171
 21
71.92903039165421
 31
0.0
  0
LINE
  5
14E
330
4E
100
AcDbEntity
  8
0
  6
Continuous
 62
     7
100
AcDbLine
 10
-86.02500000000006
 20
71.92903039165421
 30
0.0
 11
-83.10775111742171
 21
71.92903039165421
 31
0.0
  0
LINE
  5
14F
330
4E
100
AcDbEntity
  8
0
  6
Continuous
 62
     7
100
AcDbLine
 10
-86.02500000000006
 20
53.87903039165421
 30
0.0
 11
-86.02500000000006
 21
71.92903039165421
 31
0.0
  0
LINE
  5
150
330
4E
100
AcDbEntity
  8
0
  6
Continuous
 62
     7
100
AcDbLine
 10
-78.795868143647
 20
53.87903039165421
 30
0.0
 11
-78.795868143647
 21
71.92903039165421
 31
0.0
  0
LINE
  5
151
330
4E
100
AcDbEntity
  8
0
  6
Continuous
 62
     7
100
AcDbLine
 10
-76.9422488825784
 20
71.92903039165421
 30
0.0
 11
-78.795868143647
 21
71.92903039165421
 31
0.0
  0
LINE
  5
152
330
4E
100
AcDbEntity
  8
0
  6
Continuous
 62
     7
100
AcDbLine
 10
-78.8736946605318
 20
71.92903039165421
 30
0.0
 11
-78.8736946605318
 21
53.87903039165421
 31
0.0
  0
LINE
  5
153
330
4E
100
AcDbEntity
  8
0
  6
Continuous
 62
     7
100
AcDbLine
 10
-78.8736946605318
 20
71.92903039165421
 30
0.0
 11
-83.10775111742171
 21
71.92903039165421
 31
0.0
  0
LINE
  5
154
330
4E
100
AcDbEntity
  8
0
  6
Continuous
 62
     7
100
AcDbLine
 10
-78.795868143647
 20
71.92903039165421
 30
0.0
 11
-78.8736946605318
 21
71.92903039165421
 31
0.0
  0
LINE
  5
155
330
4E
100
AcDbEntity
  8
0
  6
Continuous
 62
     7
100
AcDbLine
 10
-76.9422488825784
 20
71.92903039165421
 30
0.0
 11
-74.0250000000001
 21
71.92903039165421
 31
0.0
  0
LINE
  5
156
330
4E
100
AcDbEntity
  8
0
  6
Continuous
 62
     7
100
AcDbLine
 10
-74.0250000000001
 20
53.87903039165421
 30
0.0
 11
-74.0250000000001
 21
71.92903039165421
 31
0.0
  0
LINE
  5
157
330
4E
100
AcDbEntity
  8
0
  6
Continuous
 62
     7
100
AcDbLine
 10
-124.9422488825784
 20
71.92903039165421
 30
0.0
 11
-129.1763053394683
 21
71.92903039165421
 31
0.0
  0
LINE
  5
158
330
4E
100
AcDbEntity
  8
0
  6
Continuous
 62
     7
100
AcDbLine
 10
-118.5387518598748
 20
60.32630666920329
 30
0.0
 11
-113.8597762775491
 21
65.00528225152898
 31
0.0
  0
LINE
  5
159
330
4E
100
AcDbEntity
  8
0
  6
Continuous
 62
     7
100
AcDbLine
 10
-131.1077511174217
 20
53.87903039165421
 30
0.0
 11
-131.1077511174217
 21
71.92903039165421
 31
0.0
  0
LINE
  5
15A
330
4E
100
AcDbEntity
  8
0
  6
Continuous
 62
     7
100
AcDbLine
 10
-124.9422488825784
 20
53.87903039165421
 30
0.0
 11
-124.9422488825784
 21
71.92903039165421
 31
0.0
  0
LINE
  5
15B
330
4E
100
AcDbEntity
  8
0
  6
Continuous
 62
     7
100
AcDbLine
 10
-129.254131856353
 20
53.87903039165421
 30
0.0
 11
-129.254131856353
 21
71.92903039165421
 31
0.0
  0
LINE
  5
15C
330
4E
100
AcDbEntity
  8
0
  6
Continuous
 62
     7
100
AcDbLine
 10
-129.1763053394683
 20
71.92903039165421
 30
0.0
 11
-129.1763053394683
 21
53.87903039165421
 31
0.0
  0
LINE
  5
15D
330
4E
100
AcDbEntity
  8
0
  6
Continuous
 62
     7
100
AcDbLine
 10
-134.0250000000001
 20
71.92903039165421
 30
0.0
 11
-131.1077511174217
 21
71.92903039165421
 31
0.0
  0
LINE
  5
15E
330
4E
100
AcDbEntity
  8
0
  6
Continuous
 62
     7
100
AcDbLine
 10
-124.9422488825784
 20
71.92903039165421
 30
0.0
 11
-122.025
 21
71.92903039165421
 31
0.0
  0
LINE
  5
15F
330
4E
100
AcDbEntity
  8
0
  6
Continuous
 62
     7
100
AcDbLine
 10
-129.254131856353
 20
71.92903039165421
 30
0.0
 11
-131.1077511174217
 21
71.92903039165421
 31
0.0
  0
LINE
  5
160
330
4E
100
AcDbEntity
  8
0
  6
Continuous
 62
     7
100
AcDbLine
 10
-129.1763053394683
 20
71.92903039165421
 30
0.0
 11
-129.254131856353
 21
71.92903039165421
 31
0.0
  0
LINE
  5
161
330
4E
100
AcDbEntity
  8
0
  6
Continuous
 62
     7
100
AcDbLine
 10
-122.025
 20
53.87903039165421
 30
0.0
 11
-122.025
 21
71.92903039165421
 31
0.0
  0
LINE
  5
162
330
4E
100
AcDbEntity
  8
0
  6
Continuous
 62
     7
100
AcDbLine
 10
-86.02500000000006
 20
71.92903039165421
 30
0.0
 11
-122.025
 21
71.92903039165421
 31
0.0
  0
LINE
  5
163
330
4E
100
AcDbEntity
  8
0
  6
Continuous
 62
     7
100
AcDbLine
 10
-113.0112481401253
 20
64.15675411410513
 30
0.0
 11
-117.690223722451
 21
59.47777853177944
 31
0.0
  0
ARC
  5
164
330
4E
100
AcDbEntity
  8
0
  6
Continuous
 62
     7
100
AcDbCircle
 10
-115.7750000000001
 20
62.24153039165421
 30
0.0
 40
3.362499999999981
100
AcDbArc
 50
235.278829460611
 51
34.72117053938907
  0
ARC
  5
165
330
4E
100
AcDbEntity
  8
0
  6
Continuous
 62
     7
100
AcDbCircle
 10
-92.27500000000006
 20
62.24153039165421
 30
0.0
 40
3.362499999999991
100
AcDbArc
 50
55.27882946061052
 51
214.7211705393895
  0
ARC
  5
166
330
4E
100
AcDbEntity
  8
0
  6
Continuous
 62
     7
100
AcDbCircle
 10
-92.27500000000006
 20
62.24153039165421
 30
0.0
 40
3.362499999999989
100
AcDbArc
 50
235.2788294606108
 51
0.0
  0
ARC
  5
167
330
4E
100
AcDbEntity
  8
0
  6
Continuous
 62
     7
100
AcDbCircle
 10
-92.27500000000006
 20
62.24153039165421
 30
0.0
 40
3.362500000000006
100
AcDbArc
 50
34.72117053938901
 51
55.27882946061052
  0
ARC
  5
168
330
4E
100
AcDbEntity
  8
0
  6
Continuous
 62
     7
100
AcDbCircle
 10
-92.27500000000006
 20
62.24153039165421
 30
0.0
 40
3.362500000000011
100
AcDbArc
 50
0.0
 51
34.72117053938901
  0
ARC
  5
169
330
4E
100
AcDbEntity
  8
0
  6
Continuous
 62
     7
100
AcDbCircle
 10
-92.27500000000006
 20
62.24153039165421
 30
0.0
 40
3.362499999999991
100
AcDbArc
 50
214.7211705393895
 51
235.2788294606108
  0
ARC
  5
16A
330
4E
100
AcDbEntity
  8
0
  6
Continuous
 62
     7
100
AcDbCircle
 10
-115.7750000000001
 20
62.24153039165421
 30
0.0
 40
3.362500000000051
100
AcDbArc
 50
55.27882946060947
 51
180.0
  0
ARC
  5
16B
330
4E
100
AcDbEntity
  8
0
  6
Continuous
 62
     7
100
AcDbCircle
 10
-115.7750000000001
 20
62.24153039165421
 30
0.0
 40
3.362499999999997
100
AcDbArc
 50
180.0
 51
214.7211705393902
  0
ARC
  5
16C
330
4E
100
AcDbEntity
  8
0
  6
Continuous
 62
     7
100
AcDbCircle
 10
-115.7750000000001
 20
62.24153039165421
 30
0.0
 40
3.362500000000026
100
AcDbArc
 50
34.72117053938907
 51
55.27882946060947
  0
ARC
  5
16D
330
4E
100
AcDbEntity
  8
0
  6
Continuous
 62
     7
100
AcDbCircle
 10
-115.7750000000001
 20
62.24153039165421
 30
0.0
 40
3.362499999999933
100
AcDbArc
 50
214.7211705393902
 51
235.278829460611
  0
ENDBLK
  5
50
330
4E
100
AcDbEntity
  8
0
100
AcDbBlockEnd
  0
BLOCK
  5
53
330
51
100
AcDbEntity
  8
0
100
AcDbBlockBegin
  2
Drfsicht1
 70
     0
 10
-104.0249999999999
 20
62.90403001018942
 30
0.0
  3
Drfsicht1
  1

  0
INSERT
  5
52
330
51
100
AcDbEntity
  8
0
100
AcDbBlockReference
  2
OTTA_25-M6-select__2
 10
-134.0250000000001
 20
53.87903039165421
 30
0.0
  0
DIMENSION
  5
179
330
51
100
AcDbEntity
  8
1
100
AcDbDimension
  2
*D17
 10
-144.0250000000001
 20
53.87903039165421
 30
0.0
 11
-147.4500000000001
 21
44.5401479838439
 31
0.0
 70
    32
  1
<>
 71
     5
 42
-1.0
 53
90.0
  3
ME10_DIM_10
100
AcDbAlignedDimension
 13
-134.0250000000001
 23
71.92903039165421
 33
0.0
 14
-134.0250000000001
 24
53.87903039165421
 34
0.0
 50
90.0
100
AcDbRotatedDimension
  0
ENDBLK
  5
54
330
51
100
AcDbEntity
  8
0
100
AcDbBlockEnd
  0
BLOCK
  5
56
330
55
100
AcDbEntity
  8
0
100
AcDbBlockBegin
  2
OTTA_25-M6-select__3
 70
     0
 10
-6.99999999999986
 20
116.4500017629396
 30
0.0
  3
OTTA_25-M6-select__3
  1

  0
LINE
  5
17A
330
55
100
AcDbEntity
  8
0
  6
Continuous
 62
     7
100
AcDbLine
 10
3.06821131329602
 20
119.8893694521351
 30
0.0
 11
-6.99999999999986
 21
128.3376018517366
 31
0.0
  0
LINE
  5
17B
330
55
100
AcDbEntity
  8
0
  6
Continuous
 62
     7
100
AcDbLine
 10
31.33000000000014
 20
125.3500017629396
 30
0.0
 11
30.40623956929674
 21
126.9500017629396
 31
0.0
  0
LINE
  5
17C
330
55
100
AcDbEntity
  8
0
  6
Continuous
 62
     7
100
AcDbLine
 10
41.00000000000014
 20
179.5500017629396
 30
0.0
 11
41.00000000000013
 21
177.4950017629396
 31
0.0
  0
LINE
  5
17D
330
55
100
AcDbEntity
  8
0
  6
Continuous
 62
     7
100
AcDbLine
 10
10.40000000000014
 20
119.8500017629396
 30
0.0
 11
12.77816905659065
 21
124.9500017629397
 31
0.0
  0
LINE
  5
17E
330
55
100
AcDbEntity
  8
0
  6
Continuous
 62
     7
100
AcDbLine
 10
23.88000000000017
 20
123.7500017629395
 30
0.0
 11
14.58243160353892
 21
123.7500017629395
 31
0.0
  0
LINE
  5
17F
330
55
100
AcDbEntity
  8
0
  6
Continuous
 62
     7
100
AcDbLine
 10
6.10000000000013
 20
121.3892322474809
 30
0.0
 11
6.10000000000013
 21
120.6892322474809
 31
0.0
  0
LINE
  5
180
330
55
100
AcDbEntity
  8
0
  6
Continuous
 62
     7
100
AcDbLine
 10
5.50000000000005
 20
121.5500017629396
 30
0.0
 11
6.10000000000013
 21
121.3892322474809
 31
0.0
  0
LINE
  5
181
330
55
100
AcDbEntity
  8
0
  6
Continuous
 62
     7
100
AcDbLine
 10
5.50000000000014
 20
122.7500017629396
 30
0.0
 11
5.50000000000005
 21
121.5500017629396
 31
0.0
  0
LINE
  5
182
330
55
100
AcDbEntity
  8
0
  6
Continuous
 62
     7
100
AcDbLine
 10
9.60000000000016
 20
122.7500017629396
 30
0.0
 11
5.50000000000014
 21
122.7500017629396
 31
0.0
  0
LINE
  5
183
330
55
100
AcDbEntity
  8
0
  6
Continuous
 62
     7
100
AcDbLine
 10
6.10000000000013
 20
120.6892322474809
 30
0.0
 11
5.49999999999991
 21
120.0892322474809
 31
0.0
  0
LINE
  5
184
330
55
100
AcDbEntity
  8
0
  6
Continuous
 62
     7
100
AcDbLine
 10
10.52996227747775
 20
125.3050521212539
 30
0.0
 11
9.60000000000016
 21
122.7500017629396
 31
0.0
  0
LINE
  5
185
330
55
100
AcDbEntity
  8
0
  6
Continuous
 62
     7
100
AcDbLine
 10
12.77816905659065
 20
124.9500017629397
 30
0.0
 11
12.77825144045192
 21
126.9479630584976
 31
0.0
  0
LINE
  5
186
330
55
100
AcDbEntity
  8
0
  6
Continuous
 62
     7
100
AcDbLine
 10
14.58243160353892
 20
123.7500017629395
 30
0.0
 11
13.68000000000018
 21
121.2705913096146
 31
0.0
  0
LINE
  5
187
330
55
100
AcDbEntity
  8
0
  6
Continuous
 62
     7
100
AcDbLine
 10
23.88000000000017
 20
126.9500017629396
 30
0.0
 11
23.88000000000017
 21
123.7500017629395
 31
0.0
  0
LINE
  5
188
330
55
100
AcDbEntity
  8
0
  6
Continuous
 62
     7
100
AcDbLine
 10
25.88000000000017
 20
118.2500017629396
 30
0.0
 11
25.88000000000017
 21
126.9500017629396
 31
0.0
  0
LINE
  5
189
330
55
100
AcDbEntity
  8
0
  6
Continuous
 62
     7
100
AcDbLine
 10
5.49999999999991
 20
120.0892322474809
 30
0.0
 11
3.06821131329602
 21
119.8893694521351
 31
0.0
  0
LINE
  5
18A
330
55
100
AcDbEntity
  8
0
  6
Continuous
 62
     7
100
AcDbLine
 10
53.00000000000014
 20
119.9500017629396
 30
0.0
 11
53.00000000000014
 21
116.4500017629396
 31
0.0
  0
LINE
  5
18B
330
55
100
AcDbEntity
  8
0
  6
Continuous
 62
     7
100
AcDbLine
 10
53.00000000000014
 20
116.4500017629396
 30
0.0
 11
40.68000000000009
 21
116.4500017629396
 31
0.0
  0
LINE
  5
18C
330
55
100
AcDbEntity
  8
0
  6
Continuous
 62
     7
100
AcDbLine
 10
28.93515401938677
 20
118.2500017629396
 30
0.0
 11
25.88000000000017
 21
118.2500017629396
 31
0.0
  0
LINE
  5
18D
330
55
100
AcDbEntity
  8
0
  6
Continuous
 62
     7
100
AcDbLine
 10
10.40000000000014
 20
119.3500017629396
 30
0.0
 11
10.40000000000014
 21
119.8500017629396
 31
0.0
  0
LINE
  5
18E
330
55
100
AcDbEntity
  8
0
  6
Continuous
 62
     7
100
AcDbLine
 10
11.50000000000014
 20
119.3500017629396
 30
0.0
 11
10.40000000000014
 21
119.3500017629396
 31
0.0
  0
LINE
  5
18F
330
55
100
AcDbEntity
  8
0
  6
Continuous
 62
     7
100
AcDbLine
 10
11.50000000000015
 20
117.7200017629396
 30
0.0
 11
11.50000000000014
 21
119.3500017629396
 31
0.0
  0
LINE
  5
190
330
55
100
AcDbEntity
  8
0
  6
Continuous
 62
     7
100
AcDbLine
 10
10.08000000000017
 20
117.7200017629396
 30
0.0
 11
11.50000000000015
 21
117.7200017629396
 31
0.0
  0
LINE
  5
191
330
55
100
AcDbEntity
  8
0
  6
Continuous
 62
     7
100
AcDbLine
 10
10.08000000000017
 20
116.4500017629396
 30
0.0
 11
10.08000000000017
 21
117.7200017629396
 31
0.0
  0
LINE
  5
192
330
55
100
AcDbEntity
  8
0
  6
Continuous
 62
     7
100
AcDbLine
 10
12.83000000000014
 20
116.4500017629396
 30
0.0
 11
10.08000000000017
 21
116.4500017629396
 31
0.0
  0
LINE
  5
193
330
55
100
AcDbEntity
  8
0
  6
Continuous
 62
     7
100
AcDbLine
 10
53.00000000000014
 20
170.5667985326641
 30
0.0
 11
50.08275111742184
 21
172.2510729603138
 31
0.0
  0
LINE
  5
194
330
55
100
AcDbEntity
  8
0
  6
Continuous
 62
     7
100
AcDbLine
 10
53.00000000000014
 20
170.5667985326641
 30
0.0
 11
53.00000000000014
 21
129.0954786984761
 31
0.0
  0
LINE
  5
195
330
55
100
AcDbEntity
  8
0
  6
Continuous
 62
     7
100
AcDbLine
 10
39.48000000000002
 20
121.3500017629396
 30
0.0
 11
40.50999999999998
 21
121.5500017629395
 31
0.0
  0
LINE
  5
196
330
55
100
AcDbEntity
  8
0
  6
Continuous
 62
     7
100
AcDbLine
 10
39.58000000000016
 20
123.7000017629396
 30
0.0
 11
40.51000000000015
 21
125.3108090139787
 31
0.0
  0
LINE
  5
197
330
55
100
AcDbEntity
  8
0
  6
Continuous
 62
     7
100
AcDbLine
 10
40.51000000000015
 20
125.3108090139787
 30
0.0
 11
40.51000000000015
 21
126.4500017629396
 31
0.0
  0
LINE
  5
198
330
55
100
AcDbEntity
  8
0
  6
Continuous
 62
     7
100
AcDbLine
 10
36.31508529610873
 20
126.4500017629396
 30
0.0
 11
35.68000000000015
 21
125.3500017629396
 31
0.0
  0
LINE
  5
199
330
55
100
AcDbEntity
  8
0
  6
Continuous
 62
     7
100
AcDbLine
 10
48.6863053394684
 20
170.6266666728355
 30
0.0
 11
48.22913185635311
 21
170.8906159063785
 31
0.0
  0
LINE
  5
19A
330
55
100
AcDbEntity
  8
0
  6
Continuous
 62
     7
100
AcDbLine
 10
48.15130533946841
 20
169.7000194907862
 30
0.0
 11
48.6863053394684
 21
170.6266666728355
 31
0.0
  0
LINE
  5
19B
330
55
100
AcDbEntity
  8
0
  6
Continuous
 62
     7
100
AcDbLine
 10
-6.99999999999986
 20
128.3376018517366
 30
0.0
 11
-6.99999999999986
 21
170.566798532664
 31
0.0
  0
LINE
  5
19C
330
55
100
AcDbEntity
  8
0
  6
Continuous
 62
     7
100
AcDbLine
 10
-4.08275111742147
 20
172.2510729603138
 30
0.0
 11
-6.99999999999986
 21
170.566798532664
 31
0.0
  0
LINE
  5
19D
330
55
100
AcDbEntity
  8
0
  6
Continuous
 62
     7
100
AcDbLine
 10
-4.08275111742147
 20
172.2510729603138
 30
0.0
 11
-2.22913185635292
 21
170.8906159063785
 31
0.0
  0
LINE
  5
19E
330
55
100
AcDbEntity
  8
0
  6
Continuous
 62
     7
100
AcDbLine
 10
-2.22913185635292
 20
170.8906159063785
 30
0.0
 11
-2.68630533946815
 21
170.6266666728355
 31
0.0
  0
LINE
  5
19F
330
55
100
AcDbEntity
  8
0
  6
Continuous
 62
     7
100
AcDbLine
 10
-2.68630533946815
 20
170.6266666728355
 30
0.0
 11
-2.15130533946813
 21
169.7000194907862
 31
0.0
  0
LINE
  5
1A0
330
55
100
AcDbEntity
  8
0
  6
Continuous
 62
     7
100
AcDbLine
 10
-2.15130533946813
 20
169.7000194907862
 30
0.0
 11
3.32630533946843
 21
172.8625194907862
 31
0.0
  0
LINE
  5
1A1
330
55
100
AcDbEntity
  8
0
  6
Continuous
 62
     7
100
AcDbLine
 10
3.32630533946843
 20
172.8625194907862
 30
0.0
 11
2.79130533946842
 21
173.7891666728356
 31
0.0
  0
LINE
  5
1A2
330
55
100
AcDbEntity
  8
0
  6
Continuous
 62
     7
100
AcDbLine
 10
2.79130533946842
 20
173.7891666728356
 30
0.0
 11
2.33413185635312
 21
173.5252174392926
 31
0.0
  0
LINE
  5
1A3
330
55
100
AcDbEntity
  8
0
  6
Continuous
 62
     7
100
AcDbLine
 10
2.33413185635312
 20
173.5252174392926
 30
0.0
 11
2.08275111742179
 21
175.8107273352897
 31
0.0
  0
LINE
  5
1A4
330
55
100
AcDbEntity
  8
0
  6
Continuous
 62
     7
100
AcDbLine
 10
5.00000000000014
 20
177.4950017629395
 30
0.0
 11
2.08275111742179
 21
175.8107273352897
 31
0.0
  0
LINE
  5
1A5
330
55
100
AcDbEntity
  8
0
  6
Continuous
 62
     7
100
AcDbLine
 10
53.00000000000014
 20
129.0954786984761
 30
0.0
 11
50.48762605742161
 21
122.1293375552038
 31
0.0
  0
LINE
  5
1A6
330
55
100
AcDbEntity
  8
0
  6
Continuous
 62
     7
100
AcDbLine
 10
40.72159237685013
 20
122.7500017629396
 30
0.0
 11
39.58000000000003
 21
122.9512952999494
 31
0.0
  0
LINE
  5
1A7
330
55
100
AcDbEntity
  8
0
  6
Continuous
 62
     7
100
AcDbLine
 10
39.58000000000003
 20
122.9512952999494
 30
0.0
 11
39.58000000000016
 21
123.7000017629396
 31
0.0
  0
LINE
  5
1A8
330
55
100
AcDbEntity
  8
0
  6
Continuous
 62
     7
100
AcDbLine
 10
51.16949788688851
 20
120.8241468198808
 30
0.0
 11
52.62940952255139
 21
120.4329646760841
 31
0.0
  0
LINE
  5
1A9
330
55
100
AcDbEntity
  8
0
  6
Continuous
 62
     7
100
AcDbLine
 10
43.91724888257846
 20
175.8107273352899
 30
0.0
 11
41.00000000000013
 21
177.4950017629396
 31
0.0
  0
LINE
  5
1AA
330
55
100
AcDbEntity
  8
0
  6
Continuous
 62
     7
100
AcDbLine
 10
43.91724888257846
 20
175.8107273352899
 30
0.0
 11
43.66586814364712
 21
173.5252174392926
 31
0.0
  0
LINE
  5
1AB
330
55
100
AcDbEntity
  8
0
  6
Continuous
 62
     7
100
AcDbLine
 10
43.66586814364712
 20
173.5252174392926
 30
0.0
 11
43.20869466053181
 21
173.7891666728356
 31
0.0
  0
LINE
  5
1AC
330
55
100
AcDbEntity
  8
0
  6
Continuous
 62
     7
100
AcDbLine
 10
43.20869466053181
 20
173.7891666728356
 30
0.0
 11
42.67369466053181
 21
172.8625194907862
 31
0.0
  0
LINE
  5
1AD
330
55
100
AcDbEntity
  8
0
  6
Continuous
 62
     7
100
AcDbLine
 10
35.68000000000015
 20
125.3500017629396
 30
0.0
 11
31.33000000000014
 21
125.3500017629396
 31
0.0
  0
LINE
  5
1AE
330
55
100
AcDbEntity
  8
0
  6
Continuous
 62
     7
100
AcDbLine
 10
42.67369466053181
 20
172.8625194907862
 30
0.0
 11
48.15130533946841
 21
169.7000194907862
 31
0.0
  0
LINE
  5
1AF
330
55
100
AcDbEntity
  8
0
  6
Continuous
 62
     7
100
AcDbLine
 10
48.22913185635311
 20
170.8906159063785
 30
0.0
 11
50.08275111742184
 21
172.2510729603138
 31
0.0
  0
LINE
  5
1B0
330
55
100
AcDbEntity
  8
0
  6
Continuous
 62
     7
100
AcDbLine
 10
40.68000000000009
 20
116.4500017629396
 30
0.0
 11
39.48000000000015
 21
121.1000017629396
 31
0.0
  0
LINE
  5
1B1
330
55
100
AcDbEntity
  8
0
  6
Continuous
 62
     7
100
AcDbLine
 10
39.48000000000015
 20
121.1000017629396
 30
0.0
 11
39.48000000000002
 21
121.3500017629396
 31
0.0
  0
LINE
  5
1B2
330
55
100
AcDbEntity
  8
0
  6
Continuous
 62
     7
100
AcDbLine
 10
40.50999999999998
 20
121.5500017629395
 30
0.0
 11
40.72159237685013
 21
122.7500017629396
 31
0.0
  0
LINE
  5
1B3
330
55
100
AcDbEntity
  8
0
  6
Continuous
 62
     7
100
AcDbLine
 10
39.51000000000015
 20
126.4500017629396
 30
0.0
 11
36.31508529610873
 21
126.4500017629396
 31
0.0
  0
LINE
  5
1B4
330
55
100
AcDbEntity
  8
0
  6
Continuous
 62
     7
100
AcDbLine
 10
5.00000000000014
 20
179.5500017629396
 30
0.0
 11
41.00000000000014
 21
179.5500017629396
 31
0.0
  0
LINE
  5
1B5
330
55
100
AcDbEntity
  8
0
  6
Continuous
 62
     7
100
AcDbLine
 10
25.88000000000017
 20
126.9500017629396
 30
0.0
 11
23.88000000000017
 21
126.9500017629396
 31
0.0
  0
LINE
  5
1B6
330
55
100
AcDbEntity
  8
0
  6
Continuous
 62
     7
100
AcDbLine
 10
30.40623956929674
 20
126.9500017629396
 30
0.0
 11
28.46000000000026
 21
126.9500017629396
 31
0.0
  0
LINE
  5
1B7
330
55
100
AcDbEntity
  8
0
  6
Continuous
 62
     7
100
AcDbLine
 10
5.00000000000014
 20
177.4950017629395
 30
0.0
 11
5.00000000000014
 21
179.5500017629396
 31
0.0
  0
LINE
  5
1B8
330
55
100
AcDbEntity
  8
0
  6
Continuous
 62
     7
100
AcDbLine
 10
13.68000000000018
 20
121.2705913096146
 30
0.0
 11
12.83000000000014
 21
116.4500017629396
 31
0.0
  0
LINE
  5
1B9
330
55
100
AcDbEntity
  8
0
  6
Continuous
 62
     7
100
AcDbLine
 10
29.45293042924104
 20
122.5813039841587
 30
0.0
 11
28.93515401938677
 21
118.2500017629396
 31
0.0
  0
LINE
  5
1BA
330
55
100
AcDbEntity
  8
0
  6
Continuous
 62
     7
100
AcDbLine
 10
28.46000000000026
 20
126.9500017629396
 30
0.0
 11
28.46000000000026
 21
123.7000017629395
 31
0.0
  0
ARC
  5
1BB
330
55
100
AcDbEntity
  8
0
  6
Continuous
 62
     7
100
AcDbCircle
 10
12.87919382944247
 20
124.4500017629396
 30
0.0
 40
2.500000000000184
100
AcDbArc
 50
92.31405820355273
 51
159.9999999999971
  0
ARC
  5
1BC
330
55
100
AcDbEntity
  8
0
  6
Continuous
 62
     7
100
AcDbCircle
 10
51.42831693199103
 20
121.7900726461699
 30
0.0
 40
0.9999999999999801
100
AcDbArc
 50
160.1679053064465
 51
255.0000000000006
  0
ARC
  5
1BD
330
55
100
AcDbEntity
  8
0
  6
Continuous
 62
     7
100
AcDbCircle
 10
28.46000000000015
 20
122.7000017629396
 30
0.0
 40
1.00000000000001
100
AcDbArc
 50
353.1830463422368
 51
89.99999999999369
  0
ARC
  5
1BE
330
55
100
AcDbEntity
  8
0
  6
Continuous
 62
     7
100
AcDbCircle
 10
52.50000000000014
 20
119.9500017629396
 30
0.0
 40
0.5
100
AcDbArc
 50
0.0
 51
74.99999999999994
  0
ARC
  5
1BF
330
55
100
AcDbEntity
  8
0
  6
Continuous
 62
     7
100
AcDbCircle
 10
40.01000000000015
 20
126.4500017629396
 30
0.0
 40
0.5
100
AcDbArc
 50
0.0
 51
180.0
  0
ENDBLK
  5
57
330
55
100
AcDbEntity
  8
0
100
AcDbBlockEnd
  0
BLOCK
  5
5A
330
58
100
AcDbEntity
  8
0
100
AcDbBlockBegin
  2
Rckans1
 70
     0
 10
23.0
 20
148.0000009999999
 30
0.0
  3
Rckans1
  1

  0
INSERT
  5
59
330
58
100
AcDbEntity
  8
0
100
AcDbBlockReference
  2
OTTA_25-M6-select__3
 10
-6.99999999999986
 20
116.4500017629396
 30
0.0
  0
MTEXT
  5
1C0
330
58
100
AcDbEntity
  8
1
 62
     6
100
AcDbMText
 10
23.0
 20
111.4500017629395
 30
0.0
 40
5.0
 41
0.0
 71
     2
 72
     1
  1
 
  7
CONVERTER_11
 73
     1
 44
1.32052821128451
  0
ENDBLK
  5
5B
330
58
100
AcDbEntity
  8
0
100
AcDbBlockEnd
  0
BLOCK
  5
5D
330
5C
100
AcDbEntity
  8
0
100
AcDbBlockBegin
  2
OTTA_25-M6-select__4
 70
     0
 10
-193.0249996185396
 20
116.4500017629395
 30
0.0
  3
OTTA_25-M6-select__4
  1

  0
LINE
  5
1C1
330
5C
100
AcDbEntity
  8
1
  6
DOT_CENTER
 62
     2
100
AcDbLine
 10
-184.7749996185396
 20
143.0500017629394
 30
0.0
 11
-184.7749996185396
 21
154.2500017629394
 31
0.0
  0
LINE
  5
1C2
330
5C
100
AcDbEntity
  8
0
  6
Continuous
 62
     7
100
AcDbLine
 10
-174.9749996185396
 20
119.3500017629394
 30
0.0
 11
-193.0249996185396
 21
119.3500017629394
 31
0.0
  0
LINE
  5
1C3
330
5C
100
AcDbEntity
  8
0
  6
Continuous
 62
     7
100
AcDbLine
 10
-174.9749996185396
 20
119.8500017629394
 30
0.0
 11
-193.0249996185396
 21
119.8500017629394
 31
0.0
  0
LINE
  5
1C4
330
5C
100
AcDbEntity
  8
0
  6
Continuous
 62
     7
100
AcDbLine
 10
-193.0249996185396
 20
119.889369452135
 30
0.0
 11
-174.9749996185396
 21
119.889369452135
 31
0.0
  0
LINE
  5
1C5
330
5C
100
AcDbEntity
  8
0
  6
Continuous
 62
     7
100
AcDbLine
 10
-174.9749996185396
 20
119.8500017629394
 30
0.0
 11
-174.9749996185396
 21
119.889369452135
 31
0.0
  0
LINE
  5
1C6
330
5C
100
AcDbEntity
  8
0
  6
Continuous
 62
     7
100
AcDbLine
 10
-193.0249996185396
 20
119.8500017629394
 30
0.0
 11
-193.0249996185396
 21
119.889369452135
 31
0.0
  0
LINE
  5
1C7
330
5C
100
AcDbEntity
  8
0
  6
Continuous
 62
     7
100
AcDbLine
 10
-193.0249996185396
 20
119.3500017629394
 30
0.0
 11
-193.0249996185396
 21
119.8500017629394
 31
0.0
  0
LINE
  5
1C8
330
5C
100
AcDbEntity
  8
0
  6
Continuous
 62
     7
100
AcDbLine
 10
-193.0249996185396
 20
158.8000017629394
 30
0.0
 11
-193.0249996185396
 21
170.5667985326639
 31
0.0
  0
LINE
  5
1C9
330
5C
100
AcDbEntity
  8
0
  6
Continuous
 62
     7
100
AcDbLine
 10
-193.0249996185396
 20
128.3376018517364
 30
0.0
 11
-193.0249996185396
 21
132.4500017629394
 31
0.0
  0
LINE
  5
1CA
330
5C
100
AcDbEntity
  8
0
  6
Continuous
 62
     7
100
AcDbLine
 10
-193.0249996185396
 20
172.2510729603137
 30
0.0
 11
-193.0249996185396
 21
170.5667985326639
 31
0.0
  0
LINE
  5
1CB
330
5C
100
AcDbEntity
  8
0
  6
Continuous
 62
     7
100
AcDbLine
 10
-193.0249996185396
 20
143.0500017629394
 30
0.0
 11
-193.0249996185396
 21
132.4500017629394
 31
0.0
  0
LINE
  5
1CC
330
5C
100
AcDbEntity
  8
0
  6
Continuous
 62
     7
100
AcDbLine
 10
-193.0249996185396
 20
158.8000017629394
 30
0.0
 11
-193.0249996185396
 21
154.2500017629394
 31
0.0
  0
LINE
  5
1CD
330
5C
100
AcDbEntity
  8
0
  6
Continuous
 62
     7
100
AcDbLine
 10
-187.7749996185396
 20
143.0500017629394
 30
0.0
 11
-181.7749996185396
 21
143.0500017629394
 31
0.0
  0
LINE
  5
1CE
330
5C
100
AcDbEntity
  8
0
  6
Continuous
 62
     7
100
AcDbLine
 10
-176.5749996185392
 20
132.4500017629394
 30
0.0
 11
-193.0249996185396
 21
132.4500017629394
 31
0.0
  0
LINE
  5
1CF
330
5C
100
AcDbEntity
  8
0
  6
Continuous
 62
     7
100
AcDbLine
 10
-193.0249996185396
 20
128.3376018517364
 30
0.0
 11
-174.9749996185396
 21
128.3376018517364
 31
0.0
  0
LINE
  5
1D0
330
5C
100
AcDbEntity
  8
0
  6
Continuous
 62
     7
100
AcDbLine
 10
-193.0249996185396
 20
143.0500017629394
 30
0.0
 11
-187.7749996185396
 21
143.0500017629394
 31
0.0
  0
LINE
  5
1D1
330
5C
100
AcDbEntity
  8
0
  6
Continuous
 62
     7
100
AcDbLine
 10
-181.7749996185396
 20
143.0500017629394
 30
0.0
 11
-176.5749996185393
 21
143.0500017629394
 31
0.0
  0
LINE
  5
1D2
330
5C
100
AcDbEntity
  8
0
  6
Continuous
 62
     7
100
AcDbLine
 10
-174.9749996185396
 20
116.4500017629395
 30
0.0
 11
-174.9749996185396
 21
117.7200017629394
 31
0.0
  0
LINE
  5
1D3
330
5C
100
AcDbEntity
  8
0
  6
Continuous
 62
     7
100
AcDbLine
 10
-174.9749996185396
 20
117.7200017629394
 30
0.0
 11
-174.9749996185396
 21
119.3500017629394
 31
0.0
  0
LINE
  5
1D4
330
5C
100
AcDbEntity
  8
0
  6
Continuous
 62
     7
100
AcDbLine
 10
-174.9749996185396
 20
119.3500017629394
 30
0.0
 11
-174.9749996185396
 21
119.8500017629394
 31
0.0
  0
LINE
  5
1D5
330
5C
100
AcDbEntity
  8
0
  6
Continuous
 62
     7
100
AcDbLine
 10
-193.0249996185396
 20
116.4500017629395
 30
0.0
 11
-174.9749996185396
 21
116.4500017629395
 31
0.0
  0
LINE
  5
1D6
330
5C
100
AcDbEntity
  8
0
  6
Continuous
 62
     7
100
AcDbLine
 10
-174.9749996185396
 20
117.7200017629394
 30
0.0
 11
-193.0249996185396
 21
117.7200017629394
 31
0.0
  0
LINE
  5
1D7
330
5C
100
AcDbEntity
  8
0
  6
Continuous
 62
     7
100
AcDbLine
 10
-193.0249996185396
 20
116.4500017629395
 30
0.0
 11
-193.0249996185396
 21
117.7200017629394
 31
0.0
  0
LINE
  5
1D8
330
5C
100
AcDbEntity
  8
0
  6
Continuous
 62
     7
100
AcDbLine
 10
-187.7749996185396
 20
154.2500017629394
 30
0.0
 11
-181.7749996185396
 21
154.2500017629394
 31
0.0
  0
LINE
  5
1D9
330
5C
100
AcDbEntity
  8
0
  6
Continuous
 62
     7
100
AcDbLine
 10
-193.0249996185396
 20
172.2510729603137
 30
0.0
 11
-174.9749996185396
 21
172.2510729603137
 31
0.0
  0
LINE
  5
1DA
330
5C
100
AcDbEntity
  8
0
  6
Continuous
 62
     7
100
AcDbLine
 10
-193.0249996185396
 20
170.5667985326639
 30
0.0
 11
-174.9749996185396
 21
170.5667985326639
 31
0.0
  0
LINE
  5
1DB
330
5C
100
AcDbEntity
  8
0
  6
Continuous
 62
     7
100
AcDbLine
 10
-174.9749996185396
 20
172.8625194907861
 30
0.0
 11
-193.0249996185396
 21
172.8625194907861
 31
0.0
  0
LINE
  5
1DC
330
5C
100
AcDbEntity
  8
0
  6
Continuous
 62
     7
100
AcDbLine
 10
-193.0249996185396
 20
175.8107273352897
 30
0.0
 11
-174.9749996185396
 21
175.8107273352896
 31
0.0
  0
LINE
  5
1DD
330
5C
100
AcDbEntity
  8
0
  6
Continuous
 62
     7
100
AcDbLine
 10
-193.0249996185396
 20
173.5252174392925
 30
0.0
 11
-174.9749996185396
 21
173.5252174392925
 31
0.0
  0
LINE
  5
1DE
330
5C
100
AcDbEntity
  8
0
  6
Continuous
 62
     7
100
AcDbLine
 10
-193.0249996185396
 20
173.5252174392925
 30
0.0
 11
-193.0249996185396
 21
175.8107273352897
 31
0.0
  0
LINE
  5
1DF
330
5C
100
AcDbEntity
  8
0
  6
Continuous
 62
     7
100
AcDbLine
 10
-193.0249996185396
 20
172.8625194907861
 30
0.0
 11
-193.0249996185396
 21
173.5252174392925
 31
0.0
  0
LINE
  5
1E0
330
5C
100
AcDbEntity
  8
0
  6
Continuous
 62
     7
100
AcDbLine
 10
-174.9749996185396
 20
172.8625194907861
 30
0.0
 11
-174.9749996185396
 21
173.5252174392925
 31
0.0
  0
LINE
  5
1E1
330
5C
100
AcDbEntity
  8
0
  6
Continuous
 62
     7
100
AcDbLine
 10
-174.9749996185396
 20
172.2510729603137
 30
0.0
 11
-174.9749996185396
 21
172.8625194907861
 31
0.0
  0
LINE
  5
1E2
330
5C
100
AcDbEntity
  8
0
  6
Continuous
 62
     7
100
AcDbLine
 10
-193.0249996185396
 20
172.2510729603137
 30
0.0
 11
-193.0249996185396
 21
172.8625194907861
 31
0.0
  0
LINE
  5
1E3
330
5C
100
AcDbEntity
  8
0
  6
Continuous
 62
     7
100
AcDbLine
 10
-174.9749996185396
 20
170.5667985326639
 30
0.0
 11
-174.9749996185396
 21
172.2510729603137
 31
0.0
  0
LINE
  5
1E4
330
5C
100
AcDbEntity
  8
0
  6
Continuous
 62
     7
100
AcDbLine
 10
-193.0249996185396
 20
158.8000017629394
 30
0.0
 11
-176.5749996185392
 21
158.8000017629394
 31
0.0
  0
LINE
  5
1E5
330
5C
100
AcDbEntity
  8
0
  6
Continuous
 62
     7
100
AcDbLine
 10
-174.9749996185396
 20
128.3376018517364
 30
0.0
 11
-174.9749996185396
 21
170.5667985326639
 31
0.0
  0
LINE
  5
1E6
330
5C
100
AcDbEntity
  8
0
  6
Continuous
 62
     7
100
AcDbLine
 10
-193.0249996185396
 20
154.2500017629394
 30
0.0
 11
-187.7749996185396
 21
154.2500017629394
 31
0.0
  0
LINE
  5
1E7
330
5C
100
AcDbEntity
  8
0
  6
Continuous
 62
     7
100
AcDbLine
 10
-181.7749996185396
 20
154.2500017629394
 30
0.0
 11
-176.5749996185393
 21
154.2500017629394
 31
0.0
  0
LINE
  5
1E8
330
5C
100
AcDbEntity
  8
0
  6
Continuous
 62
     7
100
AcDbLine
 10
-187.7749996185396
 20
143.0500017629394
 30
0.0
 11
-187.7749996185396
 21
154.2500017629394
 31
0.0
  0
LINE
  5
1E9
330
5C
100
AcDbEntity
  8
0
  6
Continuous
 62
     7
100
AcDbLine
 10
-193.0249996185396
 20
117.7200017629394
 30
0.0
 11
-193.0249996185396
 21
119.3500017629394
 31
0.0
  0
LINE
  5
1EA
330
5C
100
AcDbEntity
  8
0
  6
Continuous
 62
     7
100
AcDbLine
 10
-193.0249996185396
 20
119.889369452135
 30
0.0
 11
-193.0249996185396
 21
128.3376018517364
 31
0.0
  0
LINE
  5
1EB
330
5C
100
AcDbEntity
  8
0
  6
Continuous
 62
     7
100
AcDbLine
 10
-193.0249996185396
 20
143.0500017629394
 30
0.0
 11
-193.0249996185396
 21
154.2500017629394
 31
0.0
  0
LINE
  5
1EC
330
5C
100
AcDbEntity
  8
0
  6
Continuous
 62
     7
100
AcDbLine
 10
-174.9749996185396
 20
177.4950017629394
 30
0.0
 11
-193.0249996185396
 21
177.4950017629395
 31
0.0
  0
LINE
  5
1ED
330
5C
100
AcDbEntity
  8
0
  6
Continuous
 62
     7
100
AcDbLine
 10
-193.0249996185396
 20
177.4950017629395
 30
0.0
 11
-193.0249996185396
 21
175.8107273352897
 31
0.0
  0
LINE
  5
1EE
330
5C
100
AcDbEntity
  8
0
  6
Continuous
 62
     7
100
AcDbLine
 10
-193.0249996185396
 20
177.4950017629395
 30
0.0
 11
-193.0249996185396
 21
179.5500017629394
 31
0.0
  0
LINE
  5
1EF
330
5C
100
AcDbEntity
  8
0
  6
Continuous
 62
     7
100
AcDbLine
 10
-174.9749996185396
 20
177.4950017629394
 30
0.0
 11
-174.9749996185396
 21
179.5500017629394
 31
0.0
  0
LINE
  5
1F0
330
5C
100
AcDbEntity
  8
0
  6
Continuous
 62
     7
100
AcDbLine
 10
-193.0249996185396
 20
179.5500017629394
 30
0.0
 11
-174.9749996185396
 21
179.5500017629394
 31
0.0
  0
LINE
  5
1F1
330
5C
100
AcDbEntity
  8
0
  6
Continuous
 62
     7
100
AcDbLine
 10
-176.5749996185393
 20
154.2500017629394
 30
0.0
 11
-176.5749996185393
 21
143.0500017629394
 31
0.0
  0
LINE
  5
1F2
330
5C
100
AcDbEntity
  8
0
  6
Continuous
 62
     7
100
AcDbLine
 10
-174.9749996185396
 20
119.889369452135
 30
0.0
 11
-174.9749996185396
 21
128.3376018517364
 31
0.0
  0
LINE
  5
1F3
330
5C
100
AcDbEntity
  8
0
  6
Continuous
 62
     7
100
AcDbLine
 10
-176.5749996185393
 20
143.0500017629394
 30
0.0
 11
-176.5749996185392
 21
132.4500017629394
 31
0.0
  0
LINE
  5
1F4
330
5C
100
AcDbEntity
  8
0
  6
Continuous
 62
     7
100
AcDbLine
 10
-176.5749996185392
 20
158.8000017629394
 30
0.0
 11
-176.5749996185393
 21
154.2500017629394
 31
0.0
  0
LINE
  5
1F5
330
5C
100
AcDbEntity
  8
0
  6
Continuous
 62
     7
100
AcDbLine
 10
-181.7749996185396
 20
143.0500017629394
 30
0.0
 11
-181.7749996185396
 21
154.2500017629394
 31
0.0
  0
LINE
  5
1F6
330
5C
100
AcDbEntity
  8
0
  6
Continuous
 62
     7
100
AcDbLine
 10
-174.9749996185396
 20
173.5252174392925
 30
0.0
 11
-174.9749996185396
 21
175.8107273352896
 31
0.0
  0
LINE
  5
1F7
330
5C
100
AcDbEntity
  8
0
  6
Continuous
 62
     7
100
AcDbLine
 10
-174.9749996185396
 20
177.4950017629394
 30
0.0
 11
-174.9749996185396
 21
175.8107273352896
 31
0.0
  0
ENDBLK
  5
5E
330
5C
100
AcDbEntity
  8
0
100
AcDbBlockEnd
  0
BLOCK
  5
61
330
5F
100
AcDbEntity
  8
0
100
AcDbBlockBegin
  2
SA_Rechts1
 70
     0
 10
-184.0000000000044
 20
148.0000009999998
 30
0.0
  3
SA_Rechts1
  1

  0
INSERT
  5
60
330
5F
100
AcDbEntity
  8
0
100
AcDbBlockReference
  2
OTTA_25-M6-select__4
 10
-193.0249996185396
 20
116.4500017629395
 30
0.0
  0
MTEXT
  5
1F8
330
5F
100
AcDbEntity
  8
1
 62
     6
100
AcDbMText
 10
-184.0000000000049
 20
111.4500017629393
 30
0.0
 40
5.0
 41
0.0
 71
     2
 72
     1
  1
 
  7
CONVERTER_11
 73
     1
 44
1.32052821128451
  0
ENDBLK
  5
62
330
5F
100
AcDbEntity
  8
0
100
AcDbBlockEnd
  0
BLOCK
  5
64
330
63
100
AcDbEntity
  8
0
100
AcDbBlockBegin
  2
OTTA_25-M6-select__5
 70
     0
 10
-49.02500076292984
 20
116.4500020258797
 30
0.0
  3
OTTA_25-M6-select__5
  1

  0
LINE
  5
1F9
330
63
100
AcDbEntity
  8
1
  6
DOT_CENTER
 62
     2
100
AcDbLine
 10
-39.22500076293004
 20
143.0500020258797
 30
0.0
 11
-39.22500076293004
 21
154.2500020258797
 31
0.0
  0
LINE
  5
1FA
330
63
100
AcDbEntity
  8
0
  6
Continuous
 62
     2
100
AcDbLine
 10
-49.02500076292984
 20
119.9500020258797
 30
0.0
 11
-30.97500076292984
 21
119.9500020258797
 31
0.0
  0
LINE
  5
1FB
330
63
100
AcDbEntity
  8
0
  6
Continuous
 62
     7
100
AcDbLine
 10
-30.97500076292984
 20
170.5667987956042
 30
0.0
 11
-49.02500076292984
 21
170.5667987956043
 31
0.0
  0
LINE
  5
1FC
330
63
100
AcDbEntity
  8
0
  6
Continuous
 62
     7
100
AcDbLine
 10
-30.97500076292984
 20
177.4950020258797
 30
0.0
 11
-49.02500076292984
 21
177.4950020258798
 31
0.0
  0
LINE
  5
1FD
330
63
100
AcDbEntity
  8
0
  6
Continuous
 62
     7
100
AcDbLine
 10
-30.97500076292984
 20
175.8107275982299
 30
0.0
 11
-49.02500076292984
 21
175.81072759823
 31
0.0
  0
LINE
  5
1FE
330
63
100
AcDbEntity
  8
0
  6
Continuous
 62
     7
100
AcDbLine
 10
-30.97500076292984
 20
179.5500020258797
 30
0.0
 11
-49.02500076292984
 21
179.5500020258797
 31
0.0
  0
LINE
  5
1FF
330
63
100
AcDbEntity
  8
0
  6
Continuous
 62
     7
100
AcDbLine
 10
-49.02500076292984
 20
179.5500020258797
 30
0.0
 11
-49.02500076292984
 21
177.4950020258798
 31
0.0
  0
LINE
  5
200
330
63
100
AcDbEntity
  8
0
  6
Continuous
 62
     7
100
AcDbLine
 10
-30.97500076292984
 20
173.5252177022327
 30
0.0
 11
-49.02500076292984
 21
173.5252177022327
 31
0.0
  0
LINE
  5
201
330
63
100
AcDbEntity
  8
0
  6
Continuous
 62
     7
100
AcDbLine
 10
-49.02500076292984
 20
175.81072759823
 30
0.0
 11
-49.02500076292984
 21
173.5252177022327
 31
0.0
  0
LINE
  5
202
330
63
100
AcDbEntity
  8
0
  6
Continuous
 62
     7
100
AcDbLine
 10
-49.02500076292984
 20
175.81072759823
 30
0.0
 11
-49.02500076292984
 21
177.4950020258798
 31
0.0
  0
LINE
  5
203
330
63
100
AcDbEntity
  8
0
  6
Continuous
 62
     7
100
AcDbLine
 10
-49.02500076292984
 20
173.5252177022327
 30
0.0
 11
-49.02500076292984
 21
172.8625197537263
 31
0.0
  0
LINE
  5
204
330
63
100
AcDbEntity
  8
0
  6
Continuous
 62
     7
100
AcDbLine
 10
-49.02500076292984
 20
172.8625197537263
 30
0.0
 11
-30.97500076292984
 21
172.8625197537263
 31
0.0
  0
LINE
  5
205
330
63
100
AcDbEntity
  8
0
  6
Continuous
 62
     7
100
AcDbLine
 10
-30.97500076292984
 20
172.2510732232539
 30
0.0
 11
-49.02500076292984
 21
172.251073223254
 31
0.0
  0
LINE
  5
206
330
63
100
AcDbEntity
  8
0
  6
Continuous
 62
     7
100
AcDbLine
 10
-49.02500076292984
 20
170.5667987956043
 30
0.0
 11
-49.02500076292984
 21
129.0954789614163
 31
0.0
  0
LINE
  5
207
330
63
100
AcDbEntity
  8
0
  6
Continuous
 62
     7
100
AcDbLine
 10
-47.42500076292969
 20
158.8000020258797
 30
0.0
 11
-30.97500076292983
 21
158.8000020258797
 31
0.0
  0
LINE
  5
208
330
63
100
AcDbEntity
  8
0
  6
Continuous
 62
     7
100
AcDbLine
 10
-30.97500076292984
 20
129.0954789614163
 30
0.0
 11
-49.02500076292984
 21
129.0954789614163
 31
0.0
  0
LINE
  5
209
330
63
100
AcDbEntity
  8
0
  6
Continuous
 62
     2
100
AcDbLine
 10
-49.02500076292984
 20
120.824147082821
 30
0.0
 11
-47.5250007629297
 21
120.8241470828209
 31
0.0
  0
LINE
  5
20A
330
63
100
AcDbEntity
  8
0
  6
Continuous
 62
     2
100
AcDbLine
 10
-49.02500076292984
 20
122.129337818144
 30
0.0
 11
-47.52500076292971
 21
122.129337818144
 31
0.0
  0
LINE
  5
20B
330
63
100
AcDbEntity
  8
0
  6
Continuous
 62
     7
100
AcDbLine
 10
-49.02500076292984
 20
122.129337818144
 30
0.0
 11
-49.02500076292984
 21
120.824147082821
 31
0.0
  0
LINE
  5
20C
330
63
100
AcDbEntity
  8
0
  6
Continuous
 62
     7
100
AcDbLine
 10
-49.02500076292984
 20
172.251073223254
 30
0.0
 11
-49.02500076292984
 21
170.5667987956043
 31
0.0
  0
LINE
  5
20D
330
63
100
AcDbEntity
  8
0
  6
Continuous
 62
     7
100
AcDbLine
 10
-49.02500076292984
 20
129.0954789614163
 30
0.0
 11
-49.02500076292984
 21
122.129337818144
 31
0.0
  0
LINE
  5
20E
330
63
100
AcDbEntity
  8
0
  6
Continuous
 62
     7
100
AcDbLine
 10
-49.02500076292984
 20
120.824147082821
 30
0.0
 11
-49.02500076292984
 21
120.4329649390243
 31
0.0
  0
LINE
  5
20F
330
63
100
AcDbEntity
  8
0
  6
Continuous
 62
     7
100
AcDbLine
 10
-49.02500076292984
 20
172.8625197537263
 30
0.0
 11
-49.02500076292984
 21
172.251073223254
 31
0.0
  0
LINE
  5
210
330
63
100
AcDbEntity
  8
0
  6
Continuous
 62
     7
100
AcDbLine
 10
-36.22500076293004
 20
154.2500020258797
 30
0.0
 11
-42.22500076293004
 21
154.2500020258797
 31
0.0
  0
LINE
  5
211
330
63
100
AcDbEntity
  8
0
  6
Continuous
 62
     7
100
AcDbLine
 10
-36.22500076293004
 20
143.0500020258797
 30
0.0
 11
-42.22500076293004
 21
143.0500020258797
 31
0.0
  0
LINE
  5
212
330
63
100
AcDbEntity
  8
0
  6
Continuous
 62
     7
100
AcDbLine
 10
-30.97500076292983
 20
132.4500020258797
 30
0.0
 11
-47.42500076292969
 21
132.4500020258797
 31
0.0
  0
LINE
  5
213
330
63
100
AcDbEntity
  8
0
  6
Continuous
 62
     7
100
AcDbLine
 10
-42.22500076293004
 20
143.0500020258797
 30
0.0
 11
-47.42500076292979
 21
143.0500020258797
 31
0.0
  0
LINE
  5
214
330
63
100
AcDbEntity
  8
0
  6
Continuous
 62
     7
100
AcDbLine
 10
-30.97500076292984
 20
143.0500020258797
 30
0.0
 11
-36.22500076293004
 21
143.0500020258797
 31
0.0
  0
LINE
  5
215
330
63
100
AcDbEntity
  8
0
  6
Continuous
 62
     7
100
AcDbLine
 10
-42.22500076293004
 20
154.2500020258797
 30
0.0
 11
-47.42500076292981
 21
154.2500020258797
 31
0.0
  0
LINE
  5
216
330
63
100
AcDbEntity
  8
0
  6
Continuous
 62
     7
100
AcDbLine
 10
-30.97500076292984
 20
154.2500020258797
 30
0.0
 11
-36.22500076293004
 21
154.2500020258797
 31
0.0
  0
LINE
  5
217
330
63
100
AcDbEntity
  8
0
  6
Continuous
 62
     7
100
AcDbLine
 10
-30.97500076292984
 20
116.4500020258797
 30
0.0
 11
-49.02500076292984
 21
116.4500020258797
 31
0.0
  0
LINE
  5
218
330
63
100
AcDbEntity
  8
0
  6
Continuous
 62
     7
100
AcDbLine
 10
-42.22500076293004
 20
143.0500020258797
 30
0.0
 11
-42.22500076293004
 21
154.2500020258797
 31
0.0
  0
LINE
  5
219
330
63
100
AcDbEntity
  8
0
  6
Continuous
 62
     7
100
AcDbLine
 10
-47.42500076292979
 20
143.0500020258797
 30
0.0
 11
-47.42500076292981
 21
154.2500020258797
 31
0.0
  0
LINE
  5
21A
330
63
100
AcDbEntity
  8
0
  6
Continuous
 62
     7
100
AcDbLine
 10
-47.5250007629297
 20
120.8241470828209
 30
0.0
 11
-47.52500076292971
 21
122.129337818144
 31
0.0
  0
LINE
  5
21B
330
63
100
AcDbEntity
  8
0
  6
Continuous
 62
     7
100
AcDbLine
 10
-47.52500076292969
 20
120.4500020258797
 30
0.0
 11
-47.5250007629297
 21
120.8241470828209
 31
0.0
  0
LINE
  5
21C
330
63
100
AcDbEntity
  8
0
  6
Continuous
 62
     7
100
AcDbLine
 10
-47.52500076292969
 20
120.4329649390243
 30
0.0
 11
-47.52500076292969
 21
120.4500020258797
 31
0.0
  0
LINE
  5
21D
330
63
100
AcDbEntity
  8
0
  6
Continuous
 62
     7
100
AcDbLine
 10
-47.42500076292969
 20
132.4500020258797
 30
0.0
 11
-47.42500076292979
 21
143.0500020258797
 31
0.0
  0
LINE
  5
21E
330
63
100
AcDbEntity
  8
0
  6
Continuous
 62
     7
100
AcDbLine
 10
-47.42500076292981
 20
154.2500020258797
 30
0.0
 11
-47.42500076292969
 21
158.8000020258797
 31
0.0
  0
LINE
  5
21F
330
63
100
AcDbEntity
  8
0
  6
Continuous
 62
     7
100
AcDbLine
 10
-49.02500076292984
 20
119.9500020258797
 30
0.0
 11
-49.02500076292984
 21
116.4500020258797
 31
0.0
  0
LINE
  5
220
330
63
100
AcDbEntity
  8
0
  6
Continuous
 62
     7
100
AcDbLine
 10
-49.02500076292984
 20
120.4329649390243
 30
0.0
 11
-49.02500076292984
 21
119.9500020258797
 31
0.0
  0
LINE
  5
221
330
63
100
AcDbEntity
  8
0
  6
Continuous
 62
     7
100
AcDbLine
 10
-47.52500076292969
 20
120.4500020258797
 30
0.0
 11
-30.97500076292984
 21
120.4500020258797
 31
0.0
  0
LINE
  5
222
330
63
100
AcDbEntity
  8
0
  6
Continuous
 62
     2
100
AcDbLine
 10
-49.02500076292984
 20
120.4329649390243
 30
0.0
 11
-47.52500076292969
 21
120.4329649390243
 31
0.0
  0
LINE
  5
223
330
63
100
AcDbEntity
  8
0
  6
Continuous
 62
     7
100
AcDbLine
 10
-36.22500076293004
 20
143.0500020258797
 30
0.0
 11
-36.22500076293004
 21
154.2500020258797
 31
0.0
  0
LINE
  5
224
330
63
100
AcDbEntity
  8
0
  6
Continuous
 62
     7
100
AcDbLine
 10
-30.97500076292984
 20
143.0500020258797
 30
0.0
 11
-30.97500076292984
 21
154.2500020258797
 31
0.0
  0
LINE
  5
225
330
63
100
AcDbEntity
  8
0
  6
Continuous
 62
     7
100
AcDbLine
 10
-30.97500076292984
 20
170.5667987956042
 30
0.0
 11
-30.97500076292983
 21
158.8000020258797
 31
0.0
  0
LINE
  5
226
330
63
100
AcDbEntity
  8
0
  6
Continuous
 62
     7
100
AcDbLine
 10
-30.97500076292984
 20
120.4500020258797
 30
0.0
 11
-30.97500076292984
 21
119.9500020258797
 31
0.0
  0
LINE
  5
227
330
63
100
AcDbEntity
  8
0
  6
Continuous
 62
     7
100
AcDbLine
 10
-30.97500076292984
 20
119.9500020258797
 30
0.0
 11
-30.97500076292984
 21
116.4500020258797
 31
0.0
  0
LINE
  5
228
330
63
100
AcDbEntity
  8
0
  6
Continuous
 62
     7
100
AcDbLine
 10
-30.97500076292984
 20
179.5500020258797
 30
0.0
 11
-30.97500076292984
 21
177.4950020258797
 31
0.0
  0
LINE
  5
229
330
63
100
AcDbEntity
  8
0
  6
Continuous
 62
     7
100
AcDbLine
 10
-30.97500076292983
 20
132.4500020258797
 30
0.0
 11
-30.97500076292984
 21
143.0500020258797
 31
0.0
  0
LINE
  5
22A
330
63
100
AcDbEntity
  8
0
  6
Continuous
 62
     7
100
AcDbLine
 10
-30.97500076292983
 20
132.4500020258797
 30
0.0
 11
-30.97500076292984
 21
129.0954789614163
 31
0.0
  0
LINE
  5
22B
330
63
100
AcDbEntity
  8
0
  6
Continuous
 62
     7
100
AcDbLine
 10
-30.97500076292984
 20
129.0954789614163
 30
0.0
 11
-30.97500076292984
 21
120.4500020258797
 31
0.0
  0
LINE
  5
22C
330
63
100
AcDbEntity
  8
0
  6
Continuous
 62
     7
100
AcDbLine
 10
-30.97500076292984
 20
175.8107275982299
 30
0.0
 11
-30.97500076292984
 21
173.5252177022327
 31
0.0
  0
LINE
  5
22D
330
63
100
AcDbEntity
  8
0
  6
Continuous
 62
     7
100
AcDbLine
 10
-30.97500076292984
 20
173.5252177022327
 30
0.0
 11
-30.97500076292984
 21
172.8625197537263
 31
0.0
  0
LINE
  5
22E
330
63
100
AcDbEntity
  8
0
  6
Continuous
 62
     7
100
AcDbLine
 10
-30.97500076292984
 20
172.8625197537263
 30
0.0
 11
-30.97500076292984
 21
172.2510732232539
 31
0.0
  0
LINE
  5
22F
330
63
100
AcDbEntity
  8
0
  6
Continuous
 62
     7
100
AcDbLine
 10
-30.97500076292984
 20
175.8107275982299
 30
0.0
 11
-30.97500076292984
 21
177.4950020258797
 31
0.0
  0
LINE
  5
230
330
63
100
AcDbEntity
  8
0
  6
Continuous
 62
     7
100
AcDbLine
 10
-30.97500076292984
 20
154.2500020258797
 30
0.0
 11
-30.97500076292983
 21
158.8000020258797
 31
0.0
  0
LINE
  5
231
330
63
100
AcDbEntity
  8
0
  6
Continuous
 62
     7
100
AcDbLine
 10
-30.97500076292984
 20
172.2510732232539
 30
0.0
 11
-30.97500076292984
 21
170.5667987956042
 31
0.0
  0
ENDBLK
  5
65
330
63
100
AcDbEntity
  8
0
100
AcDbBlockEnd
  0
BLOCK
  5
68
330
66
100
AcDbEntity
  8
0
100
AcDbBlockBegin
  2
SA_links1
 70
     0
 10
-40.00000038146504
 20
148.00000126294
 30
0.0
  3
SA_links1
  1

  0
INSERT
  5
67
330
66
100
AcDbEntity
  8
0
100
AcDbBlockReference
  2
OTTA_25-M6-select__5
 10
-49.02500076292984
 20
116.4500020258797
 30
0.0
  0
ENDBLK
  5
69
330
66
100
AcDbEntity
  8
0
100
AcDbBlockEnd
  0
BLOCK
  5
6B
330
6A
100
AcDbEntity
  8
0
100
AcDbBlockBegin
  2
OTTA_25-M6-select__6
 70
     0
 10
-134.0250000000002
 20
116.4500015258797
 30
0.0
  3
OTTA_25-M6-select__6
  1

  0
LINE
  5
232
330
6A
100
AcDbEntity
  8
1
  6
DOT_CENTER
 62
     2
100
AcDbLine
 10
-115.7750000000002
 20
143.0500015258797
 30
0.0
 11
-115.7750000000002
 21
154.2500015258796
 31
0.0
  0
LINE
  5
233
330
6A
100
AcDbEntity
  8
1
  6
DOT_CENTER
 62
     2
100
AcDbLine
 10
-92.27500000000018
 20
143.0500015258797
 30
0.0
 11
-92.27500000000018
 21
154.2500015258796
 31
0.0
  0
LINE
  5
234
330
6A
100
AcDbEntity
  8
0
  6
Continuous
 62
     7
100
AcDbLine
 10
-84.09321131329601
 20
119.8893692150752
 30
0.0
 11
-74.02500000000009
 21
128.3376016146767
 31
0.0
  0
LINE
  5
235
330
6A
100
AcDbEntity
  8
0
  6
Continuous
 62
     7
100
AcDbLine
 10
-89.27500000000018
 20
143.0500015258797
 30
0.0
 11
-89.27500000000018
 21
154.2500015258796
 31
0.0
  0
LINE
  5
236
330
6A
100
AcDbEntity
  8
0
  6
Continuous
 62
     7
100
AcDbLine
 10
-91.42500000000013
 20
119.8500015258797
 30
0.0
 11
-93.80316905659063
 21
124.9500015258798
 31
0.0
  0
LINE
  5
237
330
6A
100
AcDbEntity
  8
0
  6
Continuous
 62
     7
100
AcDbLine
 10
-92.52500000000013
 20
119.3500015258797
 30
0.0
 11
-91.42500000000013
 21
119.3500015258797
 31
0.0
  0
LINE
  5
238
330
6A
100
AcDbEntity
  8
0
  6
Continuous
 62
     7
100
AcDbLine
 10
-91.42500000000013
 20
119.3500015258797
 30
0.0
 11
-91.42500000000013
 21
119.8500015258797
 31
0.0
  0
LINE
  5
239
330
6A
100
AcDbEntity
  8
0
  6
Continuous
 62
     7
100
AcDbLine
 10
-86.02500000000013
 20
177.4950015258797
 30
0.0
 11
-86.02500000000013
 21
179.5500015258797
 31
0.0
  0
LINE
  5
23A
330
6A
100
AcDbEntity
  8
0
  6
Continuous
 62
     7
100
AcDbLine
 10
-87.5500000000002
 20
154.2500015258796
 30
0.0
 11
-89.27500000000018
 21
154.2500015258796
 31
0.0
  0
LINE
  5
23B
330
6A
100
AcDbEntity
  8
0
  6
Continuous
 62
     7
100
AcDbLine
 10
-78.87369466053188
 20
169.7000192537263
 30
0.0
 11
-84.35130533946842
 21
172.8625192537263
 31
0.0
  0
LINE
  5
23C
330
6A
100
AcDbEntity
  8
0
  6
Continuous
 62
     7
100
AcDbLine
 10
-87.12500000000013
 20
120.689232010421
 30
0.0
 11
-86.52499999999989
 21
120.089232010421
 31
0.0
  0
LINE
  5
23D
330
6A
100
AcDbEntity
  8
0
  6
Continuous
 62
     7
100
AcDbLine
 10
-92.52500000000015
 20
117.7200015258797
 30
0.0
 11
-92.52500000000013
 21
119.3500015258797
 31
0.0
  0
LINE
  5
23E
330
6A
100
AcDbEntity
  8
0
  6
Continuous
 62
     7
100
AcDbLine
 10
-120.5000000000002
 20
154.2500015258796
 30
0.0
 11
-126.5250000000002
 21
158.8000015258797
 31
0.0
  0
LINE
  5
23F
330
6A
100
AcDbEntity
  8
0
  6
Continuous
 62
     7
100
AcDbLine
 10
-123.6986946605318
 20
172.8625192537263
 30
0.0
 11
-129.1763053394684
 21
169.7000192537263
 31
0.0
  0
LINE
  5
240
330
6A
100
AcDbEntity
  8
0
  6
Continuous
 62
     7
100
AcDbLine
 10
-120.6050000000002
 20
123.7000015258797
 30
0.0
 11
-121.5350000000001
 21
125.3108087769188
 31
0.0
  0
LINE
  5
241
330
6A
100
AcDbEntity
  8
0
  6
Continuous
 62
     7
100
AcDbLine
 10
-124.9422488825785
 20
175.8107270982299
 30
0.0
 11
-122.0250000000001
 21
177.4950015258796
 31
0.0
  0
LINE
  5
242
330
6A
100
AcDbEntity
  8
0
  6
Continuous
 62
     7
100
AcDbLine
 10
-109.4850000000002
 20
126.9500015258797
 30
0.0
 11
-109.4850000000002
 21
123.7000015258796
 31
0.0
  0
LINE
  5
243
330
6A
100
AcDbEntity
  8
0
  6
Continuous
 62
     7
100
AcDbLine
 10
-112.3550000000001
 20
125.3500015258797
 30
0.0
 11
-111.4312395692967
 21
126.9500015258797
 31
0.0
  0
LINE
  5
244
330
6A
100
AcDbEntity
  8
0
  6
Continuous
 62
     7
100
AcDbLine
 10
-117.3400852961087
 20
126.4500015258797
 30
0.0
 11
-116.7050000000002
 21
125.3500015258797
 31
0.0
  0
LINE
  5
245
330
6A
100
AcDbEntity
  8
0
  6
Continuous
 62
     7
100
AcDbLine
 10
-120.5350000000001
 20
126.4500015258797
 30
0.0
 11
-117.3400852961087
 21
126.4500015258797
 31
0.0
  0
LINE
  5
246
330
6A
100
AcDbEntity
  8
0
  6
Continuous
 62
     7
100
AcDbLine
 10
-120.605
 20
122.9512950628894
 30
0.0
 11
-120.6050000000002
 21
123.7000015258797
 31
0.0
  0
LINE
  5
247
330
6A
100
AcDbEntity
  8
0
  6
Continuous
 62
     7
100
AcDbLine
 10
-121.7465923768501
 20
122.7500015258797
 30
0.0
 11
-120.605
 21
122.9512950628894
 31
0.0
  0
LINE
  5
248
330
6A
100
AcDbEntity
  8
0
  6
Continuous
 62
     7
100
AcDbLine
 10
-111.4312395692967
 20
126.9500015258797
 30
0.0
 11
-109.4850000000002
 21
126.9500015258797
 31
0.0
  0
LINE
  5
249
330
6A
100
AcDbEntity
  8
0
  6
Continuous
 62
     7
100
AcDbLine
 10
-124.6908681436471
 20
173.5252172022327
 30
0.0
 11
-124.2336946605318
 21
173.7891664357757
 31
0.0
  0
LINE
  5
24A
330
6A
100
AcDbEntity
  8
0
  6
Continuous
 62
     7
100
AcDbLine
 10
-124.2336946605318
 20
173.7891664357757
 30
0.0
 11
-123.6986946605318
 21
172.8625192537263
 31
0.0
  0
LINE
  5
24B
330
6A
100
AcDbEntity
  8
0
  6
Continuous
 62
     7
100
AcDbLine
 10
-118.7750000000002
 20
143.0500015258797
 30
0.0
 11
-118.7750000000002
 21
154.2500015258796
 31
0.0
  0
LINE
  5
24C
330
6A
100
AcDbEntity
  8
0
  6
Continuous
 62
     7
100
AcDbLine
 10
-121.7750000000002
 20
132.4500015258797
 30
0.0
 11
-121.7750000000001
 21
143.0500015258797
 31
0.0
  0
LINE
  5
24D
330
6A
100
AcDbEntity
  8
0
  6
Continuous
 62
     7
100
AcDbLine
 10
-95.60743160353891
 20
123.7500015258796
 30
0.0
 11
-94.70500000000017
 21
121.2705910725547
 31
0.0
  0
LINE
  5
24E
330
6A
100
AcDbEntity
  8
0
  6
Continuous
 62
     7
100
AcDbLine
 10
-112.7750000000002
 20
143.0500015258797
 30
0.0
 11
-104.7600000000001
 21
143.0500015258797
 31
0.0
  0
LINE
  5
24F
330
6A
100
AcDbEntity
  8
0
  6
Continuous
 62
     7
100
AcDbLine
 10
-121.7750000000001
 20
143.0500015258797
 30
0.0
 11
-118.7750000000002
 21
143.0500015258797
 31
0.0
  0
LINE
  5
250
330
6A
100
AcDbEntity
  8
0
  6
Continuous
 62
     7
100
AcDbLine
 10
-118.7750000000002
 20
143.0500015258797
 30
0.0
 11
-112.7750000000002
 21
143.0500015258797
 31
0.0
  0
LINE
  5
251
330
6A
100
AcDbEntity
  8
0
  6
Continuous
 62
     7
100
AcDbLine
 10
-106.9050000000002
 20
126.9500015258797
 30
0.0
 11
-104.9050000000002
 21
126.9500015258797
 31
0.0
  0
LINE
  5
252
330
6A
100
AcDbEntity
  8
0
  6
Continuous
 62
     7
100
AcDbLine
 10
-104.7600000000001
 20
143.0500015258797
 30
0.0
 11
-104.7600000000001
 21
154.2500015258796
 31
0.0
  0
LINE
  5
253
330
6A
100
AcDbEntity
  8
0
  6
Continuous
 62
     7
100
AcDbLine
 10
-116.7050000000002
 20
125.3500015258797
 30
0.0
 11
-112.3550000000001
 21
125.3500015258797
 31
0.0
  0
LINE
  5
254
330
6A
100
AcDbEntity
  8
0
  6
Continuous
 62
     7
100
AcDbLine
 10
-120.505
 20
121.3500015258797
 30
0.0
 11
-121.535
 21
121.5500015258796
 31
0.0
  0
LINE
  5
255
330
6A
100
AcDbEntity
  8
0
  6
Continuous
 62
     7
100
AcDbLine
 10
-121.5350000000001
 20
125.3108087769188
 30
0.0
 11
-121.5350000000001
 21
126.4500015258797
 31
0.0
  0
LINE
  5
256
330
6A
100
AcDbEntity
  8
0
  6
Continuous
 62
     7
100
AcDbLine
 10
-121.535
 20
121.5500015258796
 30
0.0
 11
-121.7465923768501
 21
122.7500015258797
 31
0.0
  0
LINE
  5
257
330
6A
100
AcDbEntity
  8
0
  6
Continuous
 62
     7
100
AcDbLine
 10
-95.27500000000018
 20
143.0500015258797
 30
0.0
 11
-95.27500000000018
 21
154.2500015258796
 31
0.0
  0
LINE
  5
258
330
6A
100
AcDbEntity
  8
0
  6
Continuous
 62
     7
100
AcDbLine
 10
-112.7750000000002
 20
143.0500015258797
 30
0.0
 11
-112.7750000000002
 21
154.2500015258796
 31
0.0
  0
LINE
  5
259
330
6A
100
AcDbEntity
  8
0
  6
Continuous
 62
     7
100
AcDbLine
 10
-104.7600000000001
 20
154.2500015258796
 30
0.0
 11
-112.7750000000002
 21
154.2500015258796
 31
0.0
  0
LINE
  5
25A
330
6A
100
AcDbEntity
  8
0
  6
Continuous
 62
     7
100
AcDbLine
 10
-118.7750000000002
 20
154.2500015258796
 30
0.0
 11
-120.5000000000002
 21
154.2500015258796
 31
0.0
  0
LINE
  5
25B
330
6A
100
AcDbEntity
  8
0
  6
Continuous
 62
     7
100
AcDbLine
 10
-112.7750000000002
 20
154.2500015258796
 30
0.0
 11
-118.7750000000002
 21
154.2500015258796
 31
0.0
  0
LINE
  5
25C
330
6A
100
AcDbEntity
  8
0
  6
Continuous
 62
     7
100
AcDbLine
 10
-103.2900000000001
 20
143.0500015258797
 30
0.0
 11
-95.27500000000018
 21
143.0500015258797
 31
0.0
  0
LINE
  5
25D
330
6A
100
AcDbEntity
  8
0
  6
Continuous
 62
     7
100
AcDbLine
 10
-124.9422488825785
 20
175.8107270982299
 30
0.0
 11
-124.6908681436471
 21
173.5252172022327
 31
0.0
  0
LINE
  5
25E
330
6A
100
AcDbEntity
  8
0
  6
Continuous
 62
     7
100
AcDbLine
 10
-129.2541318563531
 20
170.8906156693186
 30
0.0
 11
-131.1077511174218
 21
172.2510727232539
 31
0.0
  0
LINE
  5
25F
330
6A
100
AcDbEntity
  8
0
  6
Continuous
 62
     7
100
AcDbLine
 10
-134.0250000000002
 20
129.0954784614162
 30
0.0
 11
-131.5126260574216
 21
122.1293373181439
 31
0.0
  0
LINE
  5
260
330
6A
100
AcDbEntity
  8
0
  6
Continuous
 62
     7
100
AcDbLine
 10
-86.27500000000025
 20
132.4500015258797
 30
0.0
 11
-74.02500000000009
 21
132.4500015258797
 31
0.0
  0
LINE
  5
261
330
6A
100
AcDbEntity
  8
0
  6
Continuous
 62
     7
100
AcDbLine
 10
-86.52500000000005
 20
121.5500015258797
 30
0.0
 11
-87.12500000000013
 21
121.389232010421
 31
0.0
  0
LINE
  5
262
330
6A
100
AcDbEntity
  8
0
  6
Continuous
 62
     7
100
AcDbLine
 10
-86.52500000000013
 20
122.7500015258796
 30
0.0
 11
-86.52500000000005
 21
121.5500015258797
 31
0.0
  0
LINE
  5
263
330
6A
100
AcDbEntity
  8
0
  6
Continuous
 62
     7
100
AcDbLine
 10
-90.62500000000014
 20
122.7500015258796
 30
0.0
 11
-86.52500000000013
 21
122.7500015258796
 31
0.0
  0
LINE
  5
264
330
6A
100
AcDbEntity
  8
0
  6
Continuous
 62
     7
100
AcDbLine
 10
-91.55496227747776
 20
125.305051884194
 30
0.0
 11
-90.62500000000014
 21
122.7500015258796
 31
0.0
  0
LINE
  5
265
330
6A
100
AcDbEntity
  8
0
  6
Continuous
 62
     7
100
AcDbLine
 10
-74.02500000000009
 20
128.3376016146767
 30
0.0
 11
-74.02500000000009
 21
132.4500015258797
 31
0.0
  0
LINE
  5
266
330
6A
100
AcDbEntity
  8
0
  6
Continuous
 62
     7
100
AcDbLine
 10
-134.0250000000002
 20
132.4500015258797
 30
0.0
 11
-121.7750000000002
 21
132.4500015258797
 31
0.0
  0
LINE
  5
267
330
6A
100
AcDbEntity
  8
0
  6
Continuous
 62
     7
100
AcDbLine
 10
-86.02500000000013
 20
177.4950015258797
 30
0.0
 11
-83.10775111742178
 21
175.8107270982299
 31
0.0
  0
LINE
  5
268
330
6A
100
AcDbEntity
  8
0
  6
Continuous
 62
     7
100
AcDbLine
 10
-83.35913185635312
 20
173.5252172022327
 30
0.0
 11
-83.10775111742178
 21
175.8107270982299
 31
0.0
  0
LINE
  5
269
330
6A
100
AcDbEntity
  8
0
  6
Continuous
 62
     7
100
AcDbLine
 10
-83.81630533946841
 20
173.7891664357757
 30
0.0
 11
-83.35913185635312
 21
173.5252172022327
 31
0.0
  0
LINE
  5
26A
330
6A
100
AcDbEntity
  8
0
  6
Continuous
 62
     7
100
AcDbLine
 10
-84.35130533946842
 20
172.8625192537263
 30
0.0
 11
-83.81630533946841
 21
173.7891664357757
 31
0.0
  0
LINE
  5
26B
330
6A
100
AcDbEntity
  8
0
  6
Continuous
 62
     7
100
AcDbLine
 10
-86.52499999999989
 20
120.089232010421
 30
0.0
 11
-84.09321131329601
 21
119.8893692150752
 31
0.0
  0
LINE
  5
26C
330
6A
100
AcDbEntity
  8
0
  6
Continuous
 62
     7
100
AcDbLine
 10
-91.10500000000016
 20
117.7200015258797
 30
0.0
 11
-92.52500000000015
 21
117.7200015258797
 31
0.0
  0
LINE
  5
26D
330
6A
100
AcDbEntity
  8
0
  6
Continuous
 62
     7
100
AcDbLine
 10
-131.5126260574216
 20
122.1293373181439
 30
0.0
 11
-129.8250000000005
 21
117.4500015258797
 31
0.0
  0
LINE
  5
26E
330
6A
100
AcDbEntity
  8
0
  6
Continuous
 62
     7
100
AcDbLine
 10
-93.85500000000015
 20
116.4500015258797
 30
0.0
 11
-91.10500000000016
 21
116.4500015258797
 31
0.0
  0
LINE
  5
26F
330
6A
100
AcDbEntity
  8
0
  6
Continuous
 62
     7
100
AcDbLine
 10
-134.0250000000002
 20
119.9500015258797
 30
0.0
 11
-134.0250000000002
 21
116.4500015258797
 31
0.0
  0
LINE
  5
270
330
6A
100
AcDbEntity
  8
0
  6
Continuous
 62
     7
100
AcDbLine
 10
-134.0250000000002
 20
116.4500015258797
 30
0.0
 11
-121.7050000000001
 21
116.4500015258797
 31
0.0
  0
LINE
  5
271
330
6A
100
AcDbEntity
  8
0
  6
Continuous
 62
     7
100
AcDbLine
 10
-121.7050000000001
 20
116.4500015258797
 30
0.0
 11
-120.5050000000001
 21
121.1000015258797
 31
0.0
  0
LINE
  5
272
330
6A
100
AcDbEntity
  8
0
  6
Continuous
 62
     7
100
AcDbLine
 10
-110.477930429241
 20
122.5813037470988
 30
0.0
 11
-109.9601540193868
 21
118.2500015258796
 31
0.0
  0
LINE
  5
273
330
6A
100
AcDbEntity
  8
0
  6
Continuous
 62
     7
100
AcDbLine
 10
-129.1763053394684
 20
169.7000192537263
 30
0.0
 11
-129.7113053394684
 21
170.6266664357756
 31
0.0
  0
LINE
  5
274
330
6A
100
AcDbEntity
  8
0
  6
Continuous
 62
     7
100
AcDbLine
 10
-93.80316905659063
 20
124.9500015258798
 30
0.0
 11
-93.80325144045192
 21
126.9479628214377
 31
0.0
  0
LINE
  5
275
330
6A
100
AcDbEntity
  8
0
  6
Continuous
 62
     7
100
AcDbLine
 10
-94.70500000000017
 20
121.2705910725547
 30
0.0
 11
-93.85500000000015
 21
116.4500015258797
 31
0.0
  0
LINE
  5
276
330
6A
100
AcDbEntity
  8
0
  6
Continuous
 62
     7
100
AcDbLine
 10
-120.5050000000001
 20
121.1000015258797
 30
0.0
 11
-120.505
 21
121.3500015258797
 31
0.0
  0
LINE
  5
277
330
6A
100
AcDbEntity
  8
0
  6
Continuous
 62
     7
100
AcDbLine
 10
-109.9601540193868
 20
118.2500015258796
 30
0.0
 11
-106.9050000000002
 21
118.2500015258796
 31
0.0
  0
LINE
  5
278
330
6A
100
AcDbEntity
  8
0
  6
Continuous
 62
     7
100
AcDbLine
 10
-106.9050000000002
 20
118.2500015258796
 30
0.0
 11
-106.9050000000002
 21
126.9500015258797
 31
0.0
  0
LINE
  5
279
330
6A
100
AcDbEntity
  8
0
  6
Continuous
 62
     7
100
AcDbLine
 10
-129.7113053394684
 20
170.6266664357756
 30
0.0
 11
-129.2541318563531
 21
170.8906156693186
 31
0.0
  0
LINE
  5
27A
330
6A
100
AcDbEntity
  8
0
  6
Continuous
 62
     7
100
AcDbLine
 10
-126.5250000000002
 20
158.8000015258797
 30
0.0
 11
-134.0250000000002
 21
158.8000015258797
 31
0.0
  0
LINE
  5
27B
330
6A
100
AcDbEntity
  8
0
  6
Continuous
 62
     7
100
AcDbLine
 10
-133.6544095225514
 20
120.4329644390242
 30
0.0
 11
-132.1944978868886
 21
120.8241465828208
 31
0.0
  0
LINE
  5
27C
330
6A
100
AcDbEntity
  8
0
  6
Continuous
 62
     7
100
AcDbLine
 10
-129.8250000000005
 20
117.4500015258797
 30
0.0
 11
-132.8250000000001
 21
117.4500015258797
 31
0.0
  0
LINE
  5
27D
330
6A
100
AcDbEntity
  8
0
  6
Continuous
 62
     7
100
AcDbLine
 10
-132.8250000000001
 20
117.4500015258797
 30
0.0
 11
-132.8250000000001
 21
119.9500015258797
 31
0.0
  0
LINE
  5
27E
330
6A
100
AcDbEntity
  8
0
  6
Continuous
 62
     7
100
AcDbLine
 10
-134.0250000000002
 20
170.5667982956041
 30
0.0
 11
-134.0250000000002
 21
158.8000015258797
 31
0.0
  0
LINE
  5
27F
330
6A
100
AcDbEntity
  8
0
  6
Continuous
 62
     7
100
AcDbLine
 10
-133.3250000000001
 20
120.4500015258797
 30
0.0
 11
-133.5250000000001
 21
120.4500015258797
 31
0.0
  0
LINE
  5
280
330
6A
100
AcDbEntity
  8
0
  6
Continuous
 62
     7
100
AcDbLine
 10
-134.0250000000002
 20
132.4500015258797
 30
0.0
 11
-134.0250000000002
 21
158.8000015258797
 31
0.0
  0
LINE
  5
281
330
6A
100
AcDbEntity
  8
0
  6
Continuous
 62
     7
100
AcDbLine
 10
-134.0250000000002
 20
132.4500015258797
 30
0.0
 11
-134.0250000000002
 21
129.0954784614162
 31
0.0
  0
LINE
  5
282
330
6A
100
AcDbEntity
  8
0
  6
Continuous
 62
     7
100
AcDbLine
 10
-134.0250000000002
 20
170.5667982956041
 30
0.0
 11
-131.1077511174218
 21
172.2510727232539
 31
0.0
  0
LINE
  5
283
330
6A
100
AcDbEntity
  8
0
  6
Continuous
 62
     7
100
AcDbLine
 10
-86.02500000000013
 20
179.5500015258797
 30
0.0
 11
-122.0250000000002
 21
179.5500015258797
 31
0.0
  0
LINE
  5
284
330
6A
100
AcDbEntity
  8
0
  6
Continuous
 62
     7
100
AcDbLine
 10
-76.94224888257838
 20
172.2510727232539
 30
0.0
 11
-74.02500000000009
 21
170.5667982956042
 31
0.0
  0
LINE
  5
285
330
6A
100
AcDbEntity
  8
0
  6
Continuous
 62
     7
100
AcDbLine
 10
-74.02500000000009
 20
158.8000015258797
 30
0.0
 11
-74.02500000000009
 21
170.5667982956042
 31
0.0
  0
LINE
  5
286
330
6A
100
AcDbEntity
  8
0
  6
Continuous
 62
     7
100
AcDbLine
 10
-89.27500000000018
 20
154.2500015258796
 30
0.0
 11
-95.27500000000018
 21
154.2500015258796
 31
0.0
  0
LINE
  5
287
330
6A
100
AcDbEntity
  8
0
  6
Continuous
 62
     7
100
AcDbLine
 10
-81.52500000000025
 20
158.8000015258797
 30
0.0
 11
-87.5500000000002
 21
154.2500015258796
 31
0.0
  0
LINE
  5
288
330
6A
100
AcDbEntity
  8
0
  6
Continuous
 62
     7
100
AcDbLine
 10
-95.27500000000018
 20
154.2500015258796
 30
0.0
 11
-103.2900000000001
 21
154.2500015258796
 31
0.0
  0
LINE
  5
289
330
6A
100
AcDbEntity
  8
0
  6
Continuous
 62
     7
100
AcDbLine
 10
-103.2900000000001
 20
143.0500015258797
 30
0.0
 11
-103.2900000000001
 21
154.2500015258796
 31
0.0
  0
LINE
  5
28A
330
6A
100
AcDbEntity
  8
0
  6
Continuous
 62
     7
100
AcDbLine
 10
-95.27500000000018
 20
143.0500015258797
 30
0.0
 11
-89.27500000000018
 21
143.0500015258797
 31
0.0
  0
LINE
  5
28B
330
6A
100
AcDbEntity
  8
0
  6
Continuous
 62
     7
100
AcDbLine
 10
-74.02500000000009
 20
158.8000015258797
 30
0.0
 11
-81.52500000000025
 21
158.8000015258797
 31
0.0
  0
LINE
  5
28C
330
6A
100
AcDbEntity
  8
0
  6
Continuous
 62
     7
100
AcDbLine
 10
-78.79586814364708
 20
170.8906156693186
 30
0.0
 11
-78.33869466053189
 21
170.6266664357756
 31
0.0
  0
LINE
  5
28D
330
6A
100
AcDbEntity
  8
0
  6
Continuous
 62
     7
100
AcDbLine
 10
-78.33869466053189
 20
170.6266664357756
 30
0.0
 11
-78.87369466053188
 21
169.7000192537263
 31
0.0
  0
LINE
  5
28E
330
6A
100
AcDbEntity
  8
0
  6
Continuous
 62
     7
100
AcDbLine
 10
-122.0250000000002
 20
179.5500015258797
 30
0.0
 11
-122.0250000000001
 21
177.4950015258796
 31
0.0
  0
LINE
  5
28F
330
6A
100
AcDbEntity
  8
0
  6
Continuous
 62
     7
100
AcDbLine
 10
-89.27500000000018
 20
143.0500015258797
 30
0.0
 11
-86.27500000000022
 21
143.0500015258797
 31
0.0
  0
LINE
  5
290
330
6A
100
AcDbEntity
  8
0
  6
Continuous
 62
     7
100
AcDbLine
 10
-104.9050000000002
 20
126.9500015258797
 30
0.0
 11
-104.9050000000002
 21
123.7500015258796
 31
0.0
  0
LINE
  5
291
330
6A
100
AcDbEntity
  8
0
  6
Continuous
 62
     7
100
AcDbLine
 10
-104.9050000000002
 20
123.7500015258796
 30
0.0
 11
-95.60743160353891
 21
123.7500015258796
 31
0.0
  0
LINE
  5
292
330
6A
100
AcDbEntity
  8
0
  6
Continuous
 62
     7
100
AcDbLine
 10
-74.02500000000009
 20
158.8000015258797
 30
0.0
 11
-74.02500000000009
 21
132.4500015258797
 31
0.0
  0
LINE
  5
293
330
6A
100
AcDbEntity
  8
0
  6
Continuous
 62
     7
100
AcDbLine
 10
-76.94224888257838
 20
172.2510727232539
 30
0.0
 11
-78.79586814364708
 21
170.8906156693186
 31
0.0
  0
LINE
  5
294
330
6A
100
AcDbEntity
  8
0
  6
Continuous
 62
     7
100
AcDbLine
 10
-86.27500000000022
 20
143.0500015258797
 30
0.0
 11
-86.27500000000025
 21
132.4500015258797
 31
0.0
  0
LINE
  5
295
330
6A
100
AcDbEntity
  8
0
  6
Continuous
 62
     7
100
AcDbLine
 10
-87.12500000000013
 20
121.389232010421
 30
0.0
 11
-87.12500000000013
 21
120.689232010421
 31
0.0
  0
LINE
  5
296
330
6A
100
AcDbEntity
  8
0
  6
Continuous
 62
     7
100
AcDbLine
 10
-91.10500000000016
 20
116.4500015258797
 30
0.0
 11
-91.10500000000016
 21
117.7200015258797
 31
0.0
  0
ARC
  5
297
330
6A
100
AcDbEntity
  8
0
  6
Continuous
 62
     7
100
AcDbCircle
 10
-93.90419382944246
 20
124.4500015258797
 30
0.0
 40
2.499999999999984
100
AcDbArc
 50
20.00000000000329
 51
87.68594179644737
  0
ARC
  5
298
330
6A
100
AcDbEntity
  8
0
  6
Continuous
 62
     7
100
AcDbCircle
 10
-121.0350000000001
 20
126.4500015258797
 30
0.0
 40
0.5
100
AcDbArc
 50
0.0
 51
180.0
  0
ARC
  5
299
330
6A
100
AcDbEntity
  8
0
  6
Continuous
 62
     7
100
AcDbCircle
 10
-109.4850000000001
 20
122.7000015258797
 30
0.0
 40
0.9999999999999005
100
AcDbArc
 50
90.0000000000057
 51
186.8169536577624
  0
ARC
  5
29A
330
6A
100
AcDbEntity
  8
0
  6
Continuous
 62
     7
100
AcDbCircle
 10
-133.3250000000001
 20
119.9500015258797
 30
0.0
 40
0.5
100
AcDbArc
 50
0.0
 51
90.0
  0
ARC
  5
29B
330
6A
100
AcDbEntity
  8
0
  6
Continuous
 62
     7
100
AcDbCircle
 10
-133.5250000000002
 20
119.9500015258797
 30
0.0
 40
0.499999999999952
100
AcDbArc
 50
104.9999999999926
 51
180.0
  0
ARC
  5
29C
330
6A
100
AcDbEntity
  8
0
  6
Continuous
 62
     7
100
AcDbCircle
 10
-133.5250000000002
 20
119.9500015258797
 30
0.0
 40
0.5
100
AcDbArc
 50
89.99999999998697
 51
104.9999999999926
  0
ARC
  5
29D
330
6A
100
AcDbEntity
  8
0
  6
Continuous
 62
     7
100
AcDbCircle
 10
-132.453316931991
 20
121.7900724091099
 30
0.0
 40
0.9999999999999937
100
AcDbArc
 50
284.9999999999929
 51
19.83209469355952
  0
ENDBLK
  5
6C
330
6A
100
AcDbEntity
  8
0
100
AcDbBlockEnd
  0
BLOCK
  5
6F
330
6D
100
AcDbEntity
  8
0
100
AcDbBlockBegin
  2
Vordans1
 70
     0
 10
-104.025
 20
148.00000076294
 30
0.0
  3
Vordans1
  1

  0
INSERT
  5
6E
330
6D
100
AcDbEntity
  8
0
100
AcDbBlockReference
  2
OTTA_25-M6-select__6
 10
-134.0250000000002
 20
116.4500015258797
 30
0.0
  0
LINE
  5
29E
330
6D
100
AcDbEntity
  8
1
  6
Continuous
 62
     2
100
AcDbLine
 10
-104.0250000000002
 20
125.613599818559
 30
0.0
 11
-104.0250000000002
 21
121.613599818559
 31
0.0
  0
DIMENSION
  5
2A9
330
6D
100
AcDbEntity
  8
1
100
AcDbDimension
  2
*D18
 10
-104.0250000000001
 20
107.7780630219578
 30
0.0
 11
-94.91116898846327
 21
111.7030630219578
 31
0.0
 70
    32
  1
<>
 71
     5
 42
-1.0
 53
0.00013888888889
  3
ME10_DIM_11
100
AcDbAlignedDimension
 13
-86.52500000000005
 23
121.5500015258797
 33
0.0
 14
-104.0250000000002
 24
121.613599818559
 34
0.0
100
AcDbRotatedDimension
  0
DIMENSION
  5
2B4
330
6D
100
AcDbEntity
  8
1
100
AcDbDimension
  2
*D19
 10
-104.0250000000002
 20
99.2254855998029
 30
0.0
 11
-89.09591231160147
 21
102.9754855998029
 31
0.0
 70
    32
  1
<>
 71
     5
 42
-1.0
 53
0.00013888888889
  3
ME10_DIM_12
100
AcDbAlignedDimension
 13
-74.02500000000009
 23
128.3376016146767
 33
0.0
 14
-104.0250000000002
 24
121.613599818559
 34
0.0
100
AcDbRotatedDimension
  0
DIMENSION
  5
2BF
330
6D
100
AcDbEntity
  8
1
100
AcDbDimension
  2
*D20
 10
-74.02500000000006
 20
90.74363101975237
 30
0.0
 11
-104.4845760625539
 21
94.49363101975237
 31
0.0
 70
    32
  1
<>
 71
     5
 42
-1.0
 53
0.00013888888889
  3
ME10_DIM_13
100
AcDbAlignedDimension
 13
-134.0250000000002
 23
116.4500015258797
 33
0.0
 14
-74.02500000000009
 24
128.3376016146767
 34
0.0
100
AcDbRotatedDimension
  0
DIMENSION
  5
2CA
330
6D
100
AcDbEntity
  8
1
100
AcDbDimension
  2
*D21
 10
-144.0250000000001
 20
122.7500015258797
 30
0.0
 11
-147.4500000000001
 21
154.9179587764381
 31
0.0
 70
    32
  1
<>
 71
     5
 42
-1.0
 53
90.0
  3
ME10_DIM_14
100
AcDbAlignedDimension
 13
-86.02500000000013
 23
179.5500015258797
 33
0.0
 14
-90.62500000000014
 24
122.7500015258796
 34
0.0
 50
90.0
100
AcDbRotatedDimension
  0
DIMENSION
  5
2D5
330
6D
100
AcDbEntity
  8
1
100
AcDbDimension
  2
*D22
 10
-152.0250000000001
 20
116.4500015258798
 30
0.0
 11
-155.4500000000001
 21
148.1545536827831
 31
0.0
 70
    32
  1
<>
 71
     5
 42
-1.0
 53
90.0
  3
ME10_DIM_15
100
AcDbAlignedDimension
 13
-122.0250000000002
 23
179.5500015258797
 33
0.0
 14
-121.7050000000001
 24
116.4500015258797
 34
0.0
 50
90.0
100
AcDbRotatedDimension
  0
ENDBLK
  5
70
330
6D
100
AcDbEntity
  8
0
100
AcDbBlockEnd
  0
BLOCK
  5
72
330
71
100
AcDbEntity
  8
0
100
AcDbBlockBegin
  2
_rahmen
 70
     0
 10
73.48750019072985
 20
-1.0905191360963
 30
0.0
  3
_rahmen
  1

  0
LINE
  5
2D6
330
71
100
AcDbEntity
  8
1
  6
Continuous
 62
     6
100
AcDbLine
 10
-56.05730433602017
 20
29.40948086390381
 30
0.0
 11
73.48750019073154
 21
29.40948086390381
 31
0.0
  0
LINE
  5
2D7
330
71
100
AcDbEntity
  8
1
  6
Continuous
 62
     7
100
AcDbLine
 10
-37.85730433602015
 20
8.15948086390381
 30
0.0
 11
-19.65730433602025
 21
8.15948086390381
 31
0.0
  0
LINE
  5
2D8
330
71
100
AcDbEntity
  8
1
  6
Continuous
 62
     6
100
AcDbLine
 10
-37.85730433602015
 20
3.90948086390381
 30
0.0
 11
-56.05730433602017
 21
3.9094808639037
 31
0.0
  0
LINE
  5
2D9
330
71
100
AcDbEntity
  8
1
  6
Continuous
 62
     7
100
AcDbLine
 10
-37.85730433602015
 20
8.15948086390381
 30
0.0
 11
-37.85730433602015
 21
3.90948086390381
 31
0.0
  0
LINE
  5
2DA
330
71
100
AcDbEntity
  8
1
  6
Continuous
 62
     7
100
AcDbLine
 10
-19.65730433602025
 20
8.15948086390381
 30
0.0
 11
-19.65730433602025
 21
3.9094808639037
 31
0.0
  0
LINE
  5
2DB
330
71
100
AcDbEntity
  8
1
  6
Continuous
 62
     7
100
AcDbLine
 10
-56.05730433602017
 20
8.1594808639037
 30
0.0
 11
-56.05730433602017
 21
3.9094808639037
 31
0.0
  0
LINE
  5
2DC
330
71
100
AcDbEntity
  8
1
  6
Continuous
 62
     7
100
AcDbLine
 10
-56.05730433602017
 20
8.1594808639037
 30
0.0
 11
-37.85730433602015
 21
8.15948086390381
 31
0.0
  0
LINE
  5
2DD
330
71
100
AcDbEntity
  8
1
  6
Continuous
 62
     2
100
AcDbLine
 10
-46.82064944945756
 20
27.53448086390372
 30
0.0
 11
-46.82064944945756
 21
22.53448086390372
 31
0.0
  0
LINE
  5
2DE
330
71
100
AcDbEntity
  8
1
  6
Continuous
 62
     2
100
AcDbLine
 10
-46.82064944945756
 20
22.53448086390372
 30
0.0
 11
-51.82064944945756
 21
23.78448086390372
 31
0.0
  0
LINE
  5
2DF
330
71
100
AcDbEntity
  8
1
  6
Continuous
 62
     2
100
AcDbLine
 10
-51.82064944945756
 20
23.78448086390372
 30
0.0
 11
-51.82064944945756
 21
26.28448086390372
 31
0.0
  0
LINE
  5
2E0
330
71
100
AcDbEntity
  8
1
  6
Continuous
 62
     2
100
AcDbLine
 10
-51.82064944945756
 20
26.28448086390372
 30
0.0
 11
-46.82064944945756
 21
27.53448086390372
 31
0.0
  0
LINE
  5
2E1
330
71
100
AcDbEntity
  8
1
  6
Continuous
 62
     6
100
AcDbLine
 10
-178.5124998092684
 20
3.90948086390381
 30
0.0
 11
-213.5124998092683
 21
3.90948086390381
 31
0.0
  0
LINE
  5
2E2
330
71
100
AcDbEntity
  8
1
  6
Continuous
 62
     6
100
AcDbLine
 10
73.48750019073154
 20
20.90948086390381
 30
0.0
 11
73.48750019073114
 21
12.40948086390381
 31
0.0
  0
LINE
  5
2E3
330
71
100
AcDbEntity
  8
1
  6
Continuous
 62
     6
100
AcDbLine
 10
-19.65730433602025
 20
3.9094808639037
 30
0.0
 11
-20.01249980927017
 21
3.90948086390381
 31
0.0
  0
LINE
  5
2E4
330
71
100
AcDbEntity
  8
1
  6
Continuous
 62
     6
100
AcDbLine
 10
-172.3124998092704
 20
3.9094808639037
 30
0.0
 11
-178.5124998092684
 21
3.90948086390381
 31
0.0
  0
LINE
  5
2E5
330
71
100
AcDbEntity
  8
1
  6
Continuous
 62
     7
100
AcDbLine
 10
-19.65730433602025
 20
20.90948086390381
 30
0.0
 11
-19.65730433602025
 21
8.15948086390381
 31
0.0
  0
LINE
  5
2E6
330
71
100
AcDbEntity
  8
1
  6
Continuous
 62
     7
100
AcDbLine
 10
-56.05730433602017
 20
20.90948086390381
 30
0.0
 11
-56.05730433602017
 21
8.1594808639037
 31
0.0
  0
LINE
  5
2E7
330
71
100
AcDbEntity
  8
1
  6
Continuous
 62
     6
100
AcDbLine
 10
-70.01249980927014
 20
3.90948086390381
 30
0.0
 11
-120.0124998092704
 21
3.90948086390381
 31
0.0
  0
LINE
  5
2E8
330
71
100
AcDbEntity
  8
1
  6
Continuous
 62
     6
100
AcDbLine
 10
-172.3124998092704
 20
3.9094808639037
 30
0.0
 11
-170.0124998092701
 21
3.90948086390381
 31
0.0
  0
LINE
  5
2E9
330
71
100
AcDbEntity
  8
1
  6
Continuous
 62
     6
100
AcDbLine
 10
-19.65730433602025
 20
3.9094808639037
 30
0.0
 11
29.98750019072983
 21
3.90948086390381
 31
0.0
  0
LINE
  5
2EA
330
71
100
AcDbEntity
  8
1
  6
Continuous
 62
     6
100
AcDbLine
 10
73.48750019072985
 20
3.90948086390381
 30
0.0
 11
73.48750019073114
 21
12.40948086390381
 31
0.0
  0
LINE
  5
2EB
330
71
100
AcDbEntity
  8
1
  6
Continuous
 62
     2
100
AcDbLine
 10
-218.5124998092692
 20
3.90948086390381
 30
0.0
 11
-218.5124998092692
 21
-1.0905191360963
 31
0.0
  0
LINE
  5
2EC
330
71
100
AcDbEntity
  8
1
  6
Continuous
 62
     2
100
AcDbLine
 10
-213.5124998092683
 20
3.90948086390381
 30
0.0
 11
-218.5124998092692
 21
3.90948086390381
 31
0.0
  0
LINE
  5
2ED
330
71
100
AcDbEntity
  8
1
  6
Continuous
 62
     2
100
AcDbLine
 10
-213.5124998092683
 20
-1.0905191360963
 30
0.0
 11
-170.0124998092701
 21
-1.0905191360963
 31
0.0
  0
LINE
  5
2EE
330
71
100
AcDbEntity
  8
1
  6
Continuous
 62
     2
100
AcDbLine
 10
-213.5124998092683
 20
3.90948086390381
 30
0.0
 11
-213.5124998092683
 21
-1.0905191360963
 31
0.0
  0
LINE
  5
2EF
330
71
100
AcDbEntity
  8
1
  6
Continuous
 62
     2
100
AcDbLine
 10
29.98750019072983
 20
-1.0905191360963
 30
0.0
 11
-20.01249980927017
 21
-1.0905191360963
 31
0.0
  0
LINE
  5
2F0
330
71
100
AcDbEntity
  8
1
  6
Continuous
 62
     2
100
AcDbLine
 10
29.98750019072983
 20
-1.0905191360963
 30
0.0
 11
29.98750019072983
 21
3.90948086390381
 31
0.0
  0
LINE
  5
2F1
330
71
100
AcDbEntity
  8
1
  6
Continuous
 62
     2
100
AcDbLine
 10
-20.01249980927017
 20
-1.0905191360963
 30
0.0
 11
-20.01249980927017
 21
3.90948086390381
 31
0.0
  0
LINE
  5
2F2
330
71
100
AcDbEntity
  8
1
  6
Continuous
 62
     2
100
AcDbLine
 10
-70.01249980927014
 20
-1.0905191360963
 30
0.0
 11
-20.01249980927017
 21
-1.0905191360963
 31
0.0
  0
LINE
  5
2F3
330
71
100
AcDbEntity
  8
1
  6
Continuous
 62
     2
100
AcDbLine
 10
-70.01249980927014
 20
-1.0905191360963
 30
0.0
 11
-70.01249980927014
 21
3.90948086390381
 31
0.0
  0
LINE
  5
2F4
330
71
100
AcDbEntity
  8
1
  6
Continuous
 62
     2
100
AcDbLine
 10
-120.0124998092704
 20
-1.0905191360963
 30
0.0
 11
-70.01249980927014
 21
-1.0905191360963
 31
0.0
  0
LINE
  5
2F5
330
71
100
AcDbEntity
  8
1
  6
Continuous
 62
     2
100
AcDbLine
 10
-120.0124998092704
 20
-1.0905191360963
 30
0.0
 11
-120.0124998092704
 21
3.90948086390381
 31
0.0
  0
LINE
  5
2F6
330
71
100
AcDbEntity
  8
1
  6
Continuous
 62
     2
100
AcDbLine
 10
-170.0124998092701
 20
-1.0905191360963
 30
0.0
 11
-120.0124998092704
 21
-1.0905191360963
 31
0.0
  0
LINE
  5
2F7
330
71
100
AcDbEntity
  8
1
  6
Continuous
 62
     2
100
AcDbLine
 10
-170.0124998092701
 20
-1.0905191360963
 30
0.0
 11
-170.0124998092701
 21
3.90948086390381
 31
0.0
  0
LINE
  5
2F8
330
71
100
AcDbEntity
  8
1
  6
Continuous
 62
     6
100
AcDbLine
 10
-213.5124998092684
 20
53.90948086390392
 30
0.0
 11
-213.5124998092683
 21
3.90948086390381
 31
0.0
  0
LINE
  5
2F9
330
71
100
AcDbEntity
  8
1
  6
Continuous
 62
     2
100
AcDbLine
 10
-218.5124998092692
 20
53.90948086390392
 30
0.0
 11
-218.5124998092692
 21
3.90948086390381
 31
0.0
  0
LINE
  5
2FA
330
71
100
AcDbEntity
  8
1
  6
Continuous
 62
     2
100
AcDbLine
 10
-218.5124998092692
 20
53.90948086390392
 30
0.0
 11
-213.5124998092684
 21
53.90948086390392
 31
0.0
  0
LINE
  5
2FB
330
71
100
AcDbEntity
  8
1
  6
Continuous
 62
     6
100
AcDbLine
 10
-213.5124998092687
 20
103.9094808639037
 30
0.0
 11
-213.5124998092684
 21
53.90948086390392
 31
0.0
  0
LINE
  5
2FC
330
71
100
AcDbEntity
  8
1
  6
Continuous
 62
     2
100
AcDbLine
 10
-218.5124998092692
 20
103.9094808639037
 30
0.0
 11
-218.5124998092692
 21
53.90948086390392
 31
0.0
  0
LINE
  5
2FD
330
71
100
AcDbEntity
  8
1
  6
Continuous
 62
     2
100
AcDbLine
 10
-218.5124998092692
 20
103.9094808639037
 30
0.0
 11
-213.5124998092687
 21
103.9094808639037
 31
0.0
  0
LINE
  5
2FE
330
71
100
AcDbEntity
  8
1
  6
Continuous
 62
     6
100
AcDbLine
 10
-213.5124998092692
 20
153.9094808639038
 30
0.0
 11
-213.5124998092687
 21
103.9094808639037
 31
0.0
  0
LINE
  5
2FF
330
71
100
AcDbEntity
  8
1
  6
Continuous
 62
     2
100
AcDbLine
 10
-218.5124998092692
 20
153.9094808639038
 30
0.0
 11
-218.5124998092692
 21
103.9094808639037
 31
0.0
  0
LINE
  5
300
330
71
100
AcDbEntity
  8
1
  6
Continuous
 62
     2
100
AcDbLine
 10
-218.5124998092692
 20
153.9094808639038
 30
0.0
 11
-213.5124998092692
 21
153.9094808639038
 31
0.0
  0
LINE
  5
301
330
71
100
AcDbEntity
  8
1
  6
Continuous
 62
     6
100
AcDbLine
 10
-213.5124998092692
 20
188.9094808639038
 30
0.0
 11
-213.5124998092692
 21
153.9094808639038
 31
0.0
  0
LINE
  5
302
330
71
100
AcDbEntity
  8
1
  6
Continuous
 62
     2
100
AcDbLine
 10
-218.5124998092692
 20
208.9094808639038
 30
0.0
 11
-218.5124998092692
 21
153.9094808639038
 31
0.0
  0
LINE
  5
303
330
71
100
AcDbEntity
  8
1
  6
Continuous
 62
     2
100
AcDbLine
 10
-218.5124998092692
 20
-1.0905191360963
 30
0.0
 11
-213.5124998092683
 21
-1.0905191360963
 31
0.0
  0
LINE
  5
304
330
71
100
AcDbEntity
  8
1
  6
Continuous
 62
     2
100
AcDbLine
 10
-70.01249980927014
 20
208.9094808639038
 30
0.0
 11
-70.01249980927014
 21
199.7007890192025
 31
0.0
  0
LINE
  5
305
330
71
100
AcDbEntity
  8
1
  6
Continuous
 62
     2
100
AcDbLine
 10
-70.01249980927014
 20
208.9094808639038
 30
0.0
 11
-218.5124998092692
 21
208.9094808639038
 31
0.0
  0
LINE
  5
306
330
71
100
AcDbEntity
  8
1
  6
Continuous
 62
     2
100
AcDbLine
 10
78.48750019072884
 20
3.90948086390381
 30
0.0
 11
78.48750019072884
 21
53.90948086390392
 31
0.0
  0
LINE
  5
307
330
71
100
AcDbEntity
  8
1
  6
Continuous
 62
     2
100
AcDbLine
 10
78.48750019072884
 20
153.9094808639038
 30
0.0
 11
78.48750019072884
 21
208.9094808639038
 31
0.0
  0
LINE
  5
308
330
71
100
AcDbEntity
  8
1
  6
Continuous
 62
     6
100
AcDbLine
 10
73.48750019072904
 20
153.9094808639038
 30
0.0
 11
73.48750019072884
 21
188.9094808639038
 31
0.0
  0
LINE
  5
309
330
71
100
AcDbEntity
  8
1
  6
Continuous
 62
     2
100
AcDbLine
 10
73.48750019072904
 20
153.9094808639038
 30
0.0
 11
78.48750019072884
 21
153.9094808639038
 31
0.0
  0
LINE
  5
30A
330
71
100
AcDbEntity
  8
1
  6
Continuous
 62
     2
100
AcDbLine
 10
78.48750019072884
 20
103.9094808639037
 30
0.0
 11
78.48750019072884
 21
153.9094808639038
 31
0.0
  0
LINE
  5
30B
330
71
100
AcDbEntity
  8
1
  6
Continuous
 62
     6
100
AcDbLine
 10
73.48750019073024
 20
103.9094808639037
 30
0.0
 11
73.48750019072904
 21
153.9094808639038
 31
0.0
  0
LINE
  5
30C
330
71
100
AcDbEntity
  8
1
  6
Continuous
 62
     2
100
AcDbLine
 10
73.48750019073024
 20
103.9094808639037
 30
0.0
 11
78.48750019072884
 21
103.9094808639037
 31
0.0
  0
LINE
  5
30D
330
71
100
AcDbEntity
  8
1
  6
Continuous
 62
     2
100
AcDbLine
 10
78.48750019072884
 20
53.90948086390392
 30
0.0
 11
78.48750019072884
 21
103.9094808639037
 31
0.0
  0
LINE
  5
30E
330
71
100
AcDbEntity
  8
1
  6
Continuous
 62
     6
100
AcDbLine
 10
73.48750019073074
 20
53.90948086390392
 30
0.0
 11
73.48750019073024
 21
103.9094808639037
 31
0.0
  0
LINE
  5
30F
330
71
100
AcDbEntity
  8
1
  6
Continuous
 62
     2
100
AcDbLine
 10
73.48750019073074
 20
53.90948086390392
 30
0.0
 11
78.48750019072884
 21
53.90948086390392
 31
0.0
  0
LINE
  5
310
330
71
100
AcDbEntity
  8
1
  6
Continuous
 62
     6
100
AcDbLine
 10
73.48750019072884
 20
188.9094808639038
 30
0.0
 11
-213.5124998092692
 21
188.9094808639038
 31
0.0
  0
LINE
  5
311
330
71
100
AcDbEntity
  8
1
  6
Continuous
 62
     2
100
AcDbLine
 10
78.48750019072884
 20
208.9094808639038
 30
0.0
 11
-70.01249980927014
 21
208.9094808639038
 31
0.0
  0
LINE
  5
312
330
71
100
AcDbEntity
  8
1
  6
Continuous
 62
     6
100
AcDbLine
 10
73.48750019073154
 20
20.90948086390381
 30
0.0
 11
73.48750019073074
 21
53.90948086390392
 31
0.0
  0
LINE
  5
313
330
71
100
AcDbEntity
  8
1
  6
Continuous
 62
     2
100
AcDbLine
 10
73.48750019072985
 20
-1.0905191360963
 30
0.0
 11
29.98750019072983
 21
-1.0905191360963
 31
0.0
  0
LINE
  5
314
330
71
100
AcDbEntity
  8
1
  6
Continuous
 62
     2
100
AcDbLine
 10
78.48750019072884
 20
-1.0905191360963
 30
0.0
 11
73.48750019072985
 21
-1.0905191360963
 31
0.0
  0
LINE
  5
315
330
71
100
AcDbEntity
  8
1
  6
Continuous
 62
     2
100
AcDbLine
 10
78.48750019072884
 20
-1.0905191360963
 30
0.0
 11
78.48750019072884
 21
3.90948086390381
 31
0.0
  0
LINE
  5
316
330
71
100
AcDbEntity
  8
1
  6
Continuous
 62
     6
100
AcDbLine
 10
-56.05730433602017
 20
20.90948086390381
 30
0.0
 11
-19.65730433602025
 21
20.90948086390381
 31
0.0
  0
LINE
  5
317
330
71
100
AcDbEntity
  8
1
  6
Continuous
 62
     2
100
AcDbLine
 10
73.48750019072985
 20
3.90948086390381
 30
0.0
 11
73.48750019072985
 21
-1.0905191360963
 31
0.0
  0
LINE
  5
318
330
71
100
AcDbEntity
  8
1
  6
Continuous
 62
     2
100
AcDbLine
 10
73.48750019072985
 20
3.90948086390381
 30
0.0
 11
78.48750019072884
 21
3.90948086390381
 31
0.0
  0
LINE
  5
319
330
71
100
AcDbEntity
  8
1
  6
Continuous
 62
     6
100
AcDbLine
 10
-20.01249980927017
 20
3.90948086390381
 30
0.0
 11
-37.85730433602015
 21
3.90948086390381
 31
0.0
  0
LINE
  5
31A
330
71
100
AcDbEntity
  8
1
  6
Continuous
 62
     6
100
AcDbLine
 10
29.98750019072983
 20
3.90948086390381
 30
0.0
 11
73.48750019072985
 21
3.90948086390381
 31
0.0
  0
LINE
  5
31B
330
71
100
AcDbEntity
  8
1
  6
Continuous
 62
     6
100
AcDbLine
 10
-120.0124998092704
 20
3.90948086390381
 30
0.0
 11
-125.0573043360201
 21
3.90948086390381
 31
0.0
  0
LINE
  5
31C
330
71
100
AcDbEntity
  8
1
  6
Continuous
 62
     6
100
AcDbLine
 10
-70.01249980927014
 20
3.90948086390381
 30
0.0
 11
-56.05730433602017
 21
3.9094808639037
 31
0.0
  0
LINE
  5
31D
102
{ACAD_REACTORS
330
407
330
408
102
}
330
71
100
AcDbEntity
  8
0
  6
Continuous
 62
     2
100
AcDbLine
 10
-48.54267839387336
 20
15.98199562011592
 30
0.0
 11
-48.54267839387336
 21
16.58753090862271
 31
0.0
  0
LINE
  5
31E
102
{ACAD_REACTORS
330
407
330
408
102
}
330
71
100
AcDbEntity
  8
0
  6
Continuous
 62
     2
100
AcDbLine
 10
-48.54267839387336
 20
13.18186101348462
 30
0.0
 11
-48.54267839387336
 21
13.7637124201797
 31
0.0
  0
LINE
  5
31F
102
{ACAD_REACTORS
330
409
330
40A
102
}
330
71
100
AcDbEntity
  8
0
  6
Continuous
 62
     2
100
AcDbLine
 10
-25.91319195839415
 20
13.47152508160761
 30
0.0
 11
-25.91319195839415
 21
11.20298086392012
 31
0.0
  0
LINE
  5
320
102
{ACAD_REACTORS
330
409
330
40A
102
}
330
71
100
AcDbEntity
  8
0
  6
Continuous
 62
     2
100
AcDbLine
 10
-27.29424573738174
 20
14.25679038773072
 30
0.0
 11
-23.90930021875306
 21
14.2567903877312
 31
0.0
  0
LINE
  5
321
102
{ACAD_REACTORS
330
409
330
40A
102
}
330
71
100
AcDbEntity
  8
0
  6
Continuous
 62
     2
100
AcDbLine
 10
-23.90930021875306
 20
13.47152508160761
 30
0.0
 11
-23.90930021875306
 21
14.2567903877312
 31
0.0
  0
LINE
  5
322
102
{ACAD_REACTORS
330
409
330
40A
102
}
330
71
100
AcDbEntity
  8
0
  6
Continuous
 62
     2
100
AcDbLine
 10
-24.72039925622644
 20
13.47152508160761
 30
0.0
 11
-23.90930021875306
 21
13.47152508160761
 31
0.0
  0
LINE
  5
323
102
{ACAD_REACTORS
330
409
330
40A
102
}
330
71
100
AcDbEntity
  8
0
  6
Continuous
 62
     2
100
AcDbLine
 10
-24.72039925622644
 20
11.20298086392012
 30
0.0
 11
-24.72039925622644
 21
13.47152508160761
 31
0.0
  0
LINE
  5
324
102
{ACAD_REACTORS
330
409
330
40A
102
}
330
71
100
AcDbEntity
  8
0
  6
Continuous
 62
     2
100
AcDbLine
 10
-25.91319195839415
 20
11.20298086392012
 30
0.0
 11
-24.72039925622644
 21
11.20298086392012
 31
0.0
  0
LINE
  5
325
102
{ACAD_REACTORS
330
3FF
330
400
102
}
330
71
100
AcDbEntity
  8
0
  6
Continuous
 62
     2
100
AcDbLine
 10
-26.60978289645865
 20
17.61598086390561
 30
0.0
 11
-28.01250711420795
 21
17.61598086390561
 31
0.0
  0
LINE
  5
326
102
{ACAD_REACTORS
330
3FF
330
400
102
}
330
71
100
AcDbEntity
  8
0
  6
Continuous
 62
     2
100
AcDbLine
 10
-26.60978289645865
 20
17.61598086390561
 30
0.0
 11
-26.00861537456686
 21
16.93615754235012
 31
0.0
  0
LINE
  5
327
102
{ACAD_REACTORS
330
3FF
330
400
102
}
330
71
100
AcDbEntity
  8
0
  6
Continuous
 62
     2
100
AcDbLine
 10
-26.00861537456686
 20
16.93615754235012
 30
0.0
 11
-25.40744785267407
 21
17.61598086390561
 31
0.0
  0
LINE
  5
328
102
{ACAD_REACTORS
330
3FF
330
400
102
}
330
71
100
AcDbEntity
  8
0
  6
Continuous
 62
     2
100
AcDbLine
 10
-25.30725326569336
 20
16.14303033386941
 30
0.0
 11
-24.00472363492685
 21
17.61598086390561
 31
0.0
  0
LINE
  5
329
102
{ACAD_REACTORS
330
3FF
330
400
102
}
330
71
100
AcDbEntity
  8
0
  6
Continuous
 62
     2
100
AcDbLine
 10
-25.30725326569336
 20
16.14303033386941
 30
0.0
 11
-23.90930021875306
 21
14.56217134009441
 31
0.0
  0
LINE
  5
32A
102
{ACAD_REACTORS
330
3FF
330
400
102
}
330
71
100
AcDbEntity
  8
0
  6
Continuous
 62
     2
100
AcDbLine
 10
-25.31202443650136
 20
14.56217134009441
 30
0.0
 11
-23.90930021875306
 21
14.56217134009441
 31
0.0
  0
LINE
  5
32B
102
{ACAD_REACTORS
330
3FF
330
400
102
}
330
71
100
AcDbEntity
  8
0
  6
Continuous
 62
     2
100
AcDbLine
 10
-26.00861537456686
 20
15.34990312538812
 30
0.0
 11
-25.31202443650136
 21
14.56217134009441
 31
0.0
  0
LINE
  5
32C
102
{ACAD_REACTORS
330
3FD
330
3FE
102
}
330
71
100
AcDbEntity
  8
0
  6
Continuous
 62
     2
100
AcDbLine
 10
-29.46771421085055
 20
17.61598086390561
 30
0.0
 11
-28.22720980059765
 21
17.61598086390561
 31
0.0
  0
LINE
  5
32D
102
{ACAD_REACTORS
330
3FD
330
3FE
102
}
330
71
100
AcDbEntity
  8
0
  6
Continuous
 62
     2
100
AcDbLine
 10
-28.22720980059765
 20
17.61598086390561
 30
0.0
 11
-28.22720980059765
 21
14.56217134009441
 31
0.0
  0
LINE
  5
32E
102
{ACAD_REACTORS
330
3FD
330
3FE
102
}
330
71
100
AcDbEntity
  8
0
  6
Continuous
 62
     2
100
AcDbLine
 10
-29.46771421085055
 20
14.56217134009441
 30
0.0
 11
-29.46771421085055
 21
17.61598086390561
 31
0.0
  0
LINE
  5
32F
102
{ACAD_REACTORS
330
3FB
330
3FC
102
}
330
71
100
AcDbEntity
  8
0
  6
Continuous
 62
     2
100
AcDbLine
 10
-30.93602429338816
 20
12.4245046734446
 30
0.0
 11
-30.63585905619576
 21
13.1923196394313
 31
0.0
  0
LINE
  5
330
102
{ACAD_REACTORS
330
3FB
330
3FC
102
}
330
71
100
AcDbEntity
  8
0
  6
Continuous
 62
     2
100
AcDbLine
 10
-31.41355989800897
 20
11.20298086392012
 30
0.0
 11
-31.20207984453316
 21
11.743941408138
 31
0.0
  0
LINE
  5
331
102
{ACAD_REACTORS
330
3FB
330
3FC
102
}
330
71
100
AcDbEntity
  8
0
  6
Continuous
 62
     2
100
AcDbLine
 10
-31.25611126132264
 20
14.2567903877312
 30
0.0
 11
-32.65406430826195
 21
11.20298086392012
 31
0.0
  0
LINE
  5
332
102
{ACAD_REACTORS
330
3FB
330
3FC
102
}
330
71
100
AcDbEntity
  8
0
  6
Continuous
 62
     2
100
AcDbLine
 10
-28.61765380412965
 20
11.20298086392012
 30
0.0
 11
-29.85815821438357
 21
11.20298086392012
 31
0.0
  0
LINE
  5
333
102
{ACAD_REACTORS
330
3FB
330
3FC
102
}
330
71
100
AcDbEntity
  8
0
  6
Continuous
 62
     2
100
AcDbLine
 10
-31.20207984453316
 20
11.743941408138
 30
0.0
 11
-30.06963826785935
 21
11.743941408138
 31
0.0
  0
LINE
  5
334
102
{ACAD_REACTORS
330
3F9
330
3FA
102
}
330
71
100
AcDbEntity
  8
0
  6
Continuous
 62
     2
100
AcDbLine
 10
-34.81157644744417
 20
13.47152508160761
 30
0.0
 11
-34.00047740996956
 21
13.47152508160761
 31
0.0
  0
LINE
  5
335
102
{ACAD_REACTORS
330
3F9
330
3FA
102
}
330
71
100
AcDbEntity
  8
0
  6
Continuous
 62
     2
100
AcDbLine
 10
-31.99658567033055
 20
14.2567903877312
 30
0.0
 11
-34.81157644744417
 21
14.2567903877312
 31
0.0
  0
LINE
  5
336
102
{ACAD_REACTORS
330
3F9
330
3FA
102
}
330
71
100
AcDbEntity
  8
0
  6
Continuous
 62
     2
100
AcDbLine
 10
-31.99658567033055
 20
13.47152508160761
 30
0.0
 11
-31.99658567033055
 21
14.2567903877312
 31
0.0
  0
LINE
  5
337
102
{ACAD_REACTORS
330
3F9
330
3FA
102
}
330
71
100
AcDbEntity
  8
0
  6
Continuous
 62
     2
100
AcDbLine
 10
-32.80768470780305
 20
13.47152508160761
 30
0.0
 11
-31.99658567033055
 21
13.47152508160761
 31
0.0
  0
LINE
  5
338
102
{ACAD_REACTORS
330
3F9
330
3FA
102
}
330
71
100
AcDbEntity
  8
0
  6
Continuous
 62
     2
100
AcDbLine
 10
-32.80768470780305
 20
11.20298086392012
 30
0.0
 11
-32.80768470780305
 21
13.47152508160761
 31
0.0
  0
LINE
  5
339
102
{ACAD_REACTORS
330
3F7
330
3F8
102
}
330
71
100
AcDbEntity
  8
0
  6
Continuous
 62
     2
100
AcDbLine
 10
-32.13956986370505
 20
14.56217134009441
 30
0.0
 11
-32.13956986370505
 21
15.87094685029911
 31
0.0
  0
LINE
  5
33A
102
{ACAD_REACTORS
330
3F7
330
3F8
102
}
330
71
100
AcDbEntity
  8
0
  6
Continuous
 62
     2
100
AcDbLine
 10
-33.33236256587156
 20
17.61598086390561
 30
0.0
 11
-33.33236256587156
 21
14.56217134009441
 31
0.0
  0
LINE
  5
33B
102
{ACAD_REACTORS
330
3F7
330
3F8
102
}
330
71
100
AcDbEntity
  8
0
  6
Continuous
 62
     2
100
AcDbLine
 10
-32.13956986370505
 20
17.61598086390561
 30
0.0
 11
-33.33236256587156
 21
17.61598086390561
 31
0.0
  0
LINE
  5
33C
102
{ACAD_REACTORS
330
3F7
330
3F8
102
}
330
71
100
AcDbEntity
  8
0
  6
Continuous
 62
     2
100
AcDbLine
 10
-30.89906545345104
 20
17.61598086390561
 30
0.0
 11
-30.89906545345104
 21
16.30720535370043
 31
0.0
  0
LINE
  5
33D
102
{ACAD_REACTORS
330
3F5
330
3F6
102
}
330
71
100
AcDbEntity
  8
0
  6
Continuous
 62
     2
100
AcDbLine
 10
-38.58080138629126
 20
14.2567903877312
 30
0.0
 11
-38.58080138629126
 21
11.20298086392012
 31
0.0
  0
LINE
  5
33E
102
{ACAD_REACTORS
330
3F5
330
3F6
102
}
330
71
100
AcDbEntity
  8
0
  6
Continuous
 62
     2
100
AcDbLine
 10
-37.38800868412366
 20
14.2567903877312
 30
0.0
 11
-38.58080138629126
 21
14.2567903877312
 31
0.0
  0
LINE
  5
33F
102
{ACAD_REACTORS
330
3F5
330
3F6
102
}
330
71
100
AcDbEntity
  8
0
  6
Continuous
 62
     2
100
AcDbLine
 10
-36.14750427387077
 20
11.20298086392012
 30
0.0
 11
-34.95471157170437
 21
11.20298086392012
 31
0.0
  0
LINE
  5
340
102
{ACAD_REACTORS
330
3F5
330
3F6
102
}
330
71
100
AcDbEntity
  8
0
  6
Continuous
 62
     2
100
AcDbLine
 10
-38.58080138629126
 20
11.20298086392012
 30
0.0
 11
-37.38800868412366
 21
11.20298086392012
 31
0.0
  0
LINE
  5
341
102
{ACAD_REACTORS
330
405
330
406
102
}
330
71
100
AcDbEntity
  8
0
  6
Continuous
 62
     2
100
AcDbLine
 10
-34.90684893273215
 20
16.43808290472092
 30
0.0
 11
-34.90684893273215
 21
16.91796725846263
 31
0.0
  0
LINE
  5
342
102
{ACAD_REACTORS
330
405
330
406
102
}
330
71
100
AcDbEntity
  8
0
  6
Continuous
 62
     2
100
AcDbLine
 10
-33.57092110630447
 20
16.43808290472092
 30
0.0
 11
-34.90684893273215
 21
16.43808290472092
 31
0.0
  0
LINE
  5
343
102
{ACAD_REACTORS
330
405
330
406
102
}
330
71
100
AcDbEntity
  8
0
  6
Continuous
 62
     2
100
AcDbLine
 10
-33.57092110630447
 20
15.74006929927862
 30
0.0
 11
-33.57092110630447
 21
16.43808290472092
 31
0.0
  0
LINE
  5
344
102
{ACAD_REACTORS
330
405
330
406
102
}
330
71
100
AcDbEntity
  8
0
  6
Continuous
 62
     2
100
AcDbLine
 10
-34.90684893273215
 20
15.74006929927862
 30
0.0
 11
-33.57092110630447
 21
15.74006929927862
 31
0.0
  0
LINE
  5
345
102
{ACAD_REACTORS
330
3F3
330
3F4
102
}
330
71
100
AcDbEntity
  8
0
  6
Continuous
 62
     2
100
AcDbLine
 10
-38.38980362305907
 20
17.61598086390561
 30
0.0
 11
-38.38980362305907
 21
14.56217134009441
 31
0.0
  0
LINE
  5
346
102
{ACAD_REACTORS
330
3F3
330
3F4
102
}
330
71
100
AcDbEntity
  8
0
  6
Continuous
 62
     2
100
AcDbLine
 10
-38.38980362305907
 20
14.56217134009441
 30
0.0
 11
-39.58259632522547
 21
14.56217134009441
 31
0.0
  0
LINE
  5
347
102
{ACAD_REACTORS
330
3F3
330
3F4
102
}
330
71
100
AcDbEntity
  8
0
  6
Continuous
 62
     2
100
AcDbLine
 10
-39.58259632522547
 20
14.56217134009441
 30
0.0
 11
-39.58259632522547
 21
15.69644344893823
 31
0.0
  0
LINE
  5
348
102
{ACAD_REACTORS
330
3F3
330
3F4
102
}
330
71
100
AcDbEntity
  8
0
  6
Continuous
 62
     2
100
AcDbLine
 10
-40.63225390313295
 20
14.56217134009441
 30
0.0
 11
-41.82504660529955
 21
14.56217134009441
 31
0.0
  0
LINE
  5
349
102
{ACAD_REACTORS
330
3F3
330
3F4
102
}
330
71
100
AcDbEntity
  8
0
  6
Continuous
 62
     2
100
AcDbLine
 10
-41.82504660529955
 20
17.61598086390561
 30
0.0
 11
-40.63225390313295
 21
17.61598086390561
 31
0.0
  0
LINE
  5
34A
102
{ACAD_REACTORS
330
3F3
330
3F4
102
}
330
71
100
AcDbEntity
  8
0
  6
Continuous
 62
     2
100
AcDbLine
 10
-40.63225390313295
 20
17.61598086390561
 30
0.0
 11
-40.63225390313295
 21
16.54714753057101
 31
0.0
  0
LINE
  5
34B
102
{ACAD_REACTORS
330
3F3
330
3F4
102
}
330
71
100
AcDbEntity
  8
0
  6
Continuous
 62
     2
100
AcDbLine
 10
-40.63225390313295
 20
16.54714753057101
 30
0.0
 11
-39.58259632522547
 21
16.54714753057101
 31
0.0
  0
LINE
  5
34C
102
{ACAD_REACTORS
330
401
330
402
102
}
330
71
100
AcDbEntity
  8
0
  6
Continuous
 62
     2
100
AcDbLine
 10
-43.78122663685315
 20
16.95287501846551
 30
0.0
 11
-43.46393157531125
 21
16.95287501846551
 31
0.0
  0
LINE
  5
34D
102
{ACAD_REACTORS
330
401
330
402
102
}
330
71
100
AcDbEntity
  8
0
  6
Continuous
 62
     2
100
AcDbLine
 10
-43.78122663685315
 20
16.2471473691233
 30
0.0
 11
-43.46393157531125
 21
16.2471473691233
 31
0.0
  0
LINE
  5
34E
102
{ACAD_REACTORS
330
401
330
402
102
}
330
71
100
AcDbEntity
  8
0
  6
Continuous
 62
     2
100
AcDbLine
 10
-45.02173104710727
 20
17.61598086390561
 30
0.0
 11
-45.02173104710727
 21
14.56217134009441
 31
0.0
  0
LINE
  5
34F
102
{ACAD_REACTORS
330
401
330
402
102
}
330
71
100
AcDbEntity
  8
0
  6
Continuous
 62
     2
100
AcDbLine
 10
-45.02173104710727
 20
17.61598086390561
 30
0.0
 11
-43.02245904907286
 21
17.61598086390561
 31
0.0
  0
LINE
  5
350
102
{ACAD_REACTORS
330
401
330
402
102
}
330
71
100
AcDbEntity
  8
0
  6
Continuous
 62
     2
100
AcDbLine
 10
-43.78122663685315
 20
15.50524958123822
 30
0.0
 11
-43.02245904907286
 21
15.50524958123822
 31
0.0
  0
LINE
  5
351
102
{ACAD_REACTORS
330
407
330
408
102
}
330
71
100
AcDbEntity
  8
0
  6
Continuous
 62
     2
100
AcDbLine
 10
-51.11822708040396
 20
16.58770838527082
 30
0.0
 11
-51.11822708040396
 21
12.23125334255371
 31
0.0
  0
LINE
  5
352
102
{ACAD_REACTORS
330
407
330
408
102
}
330
71
100
AcDbEntity
  8
0
  6
Continuous
 62
     2
100
AcDbLine
 10
-50.80251015732827
 20
16.90342530834701
 30
0.0
 11
-49.32667689631865
 21
16.90342530834701
 31
0.0
  0
LINE
  5
353
102
{ACAD_REACTORS
330
407
330
408
102
}
330
71
100
AcDbEntity
  8
0
  6
Continuous
 62
     2
100
AcDbLine
 10
-49.01095997324205
 20
15.98368376621031
 30
0.0
 11
-49.01095997324205
 21
16.58770838527082
 31
0.0
  0
LINE
  5
354
102
{ACAD_REACTORS
330
407
330
408
102
}
330
71
100
AcDbEntity
  8
0
  6
Continuous
 62
     2
100
AcDbLine
 10
-49.01095997324205
 20
12.23125334255371
 30
0.0
 11
-49.01095997324205
 21
13.76202427408532
 31
0.0
  0
LINE
  5
355
102
{ACAD_REACTORS
330
407
330
408
102
}
330
71
100
AcDbEntity
  8
0
  6
Continuous
 62
     2
100
AcDbLine
 10
-45.92309274335796
 20
11.20298086392012
 30
0.0
 11
-51.39640483407476
 21
11.20298086392012
 31
0.0
  0
LINE
  5
356
102
{ACAD_REACTORS
330
407
330
408
102
}
330
71
100
AcDbEntity
  8
0
  6
Continuous
 62
     2
100
AcDbLine
 10
-45.49884812797407
 20
17.19173624850362
 30
0.0
 11
-45.49884812797407
 21
11.62722547930341
 31
0.0
  0
LINE
  5
357
102
{ACAD_REACTORS
330
407
330
408
102
}
330
71
100
AcDbEntity
  8
0
  6
Continuous
 62
     2
100
AcDbLine
 10
-51.39640483407476
 20
17.61598086388742
 30
0.0
 11
-45.92309274335796
 21
17.61598086388742
 31
0.0
  0
LINE
  5
358
102
{ACAD_REACTORS
330
407
330
408
102
}
330
71
100
AcDbEntity
  8
0
  6
Continuous
 62
     2
100
AcDbLine
 10
-51.82064944945756
 20
17.19173624850362
 30
0.0
 11
-51.82064944945756
 21
11.62722547930341
 31
0.0
  0
LINE
  5
359
102
{ACAD_REACTORS
330
407
330
408
102
}
330
71
100
AcDbEntity
  8
0
  6
Continuous
 62
     2
100
AcDbLine
 10
-49.32667689631865
 20
11.91553641947701
 30
0.0
 11
-50.80251015732827
 21
11.91553641947701
 31
0.0
  0
LINE
  5
35A
102
{ACAD_REACTORS
330
401
330
402
102
}
330
71
100
AcDbEntity
  8
0
  6
Continuous
 62
     2
100
AcDbLine
 10
-43.78122663685315
 20
14.56217134009441
 30
0.0
 11
-43.78122663685315
 21
15.50524958123822
 31
0.0
  0
LINE
  5
35B
102
{ACAD_REACTORS
330
401
330
402
102
}
330
71
100
AcDbEntity
  8
0
  6
Continuous
 62
     2
100
AcDbLine
 10
-45.02173104710727
 20
14.56217134009441
 30
0.0
 11
-43.78122663685315
 21
14.56217134009441
 31
0.0
  0
LINE
  5
35C
102
{ACAD_REACTORS
330
401
330
402
102
}
330
71
100
AcDbEntity
  8
0
  6
Continuous
 62
     2
100
AcDbLine
 10
-43.78122663685315
 20
16.2471473691233
 30
0.0
 11
-43.78122663685315
 21
16.95287501846551
 31
0.0
  0
LINE
  5
35D
102
{ACAD_REACTORS
330
3F3
330
3F4
102
}
330
71
100
AcDbEntity
  8
0
  6
Continuous
 62
     2
100
AcDbLine
 10
-41.82504660529955
 20
17.61598086390561
 30
0.0
 11
-41.82504660529955
 21
14.56217134009441
 31
0.0
  0
LINE
  5
35E
102
{ACAD_REACTORS
330
3F3
330
3F4
102
}
330
71
100
AcDbEntity
  8
0
  6
Continuous
 62
     2
100
AcDbLine
 10
-40.63225390313295
 20
15.69644344893823
 30
0.0
 11
-40.63225390313295
 21
14.56217134009441
 31
0.0
  0
LINE
  5
35F
102
{ACAD_REACTORS
330
3F3
330
3F4
102
}
330
71
100
AcDbEntity
  8
0
  6
Continuous
 62
     2
100
AcDbLine
 10
-39.58259632522547
 20
15.69644344893823
 30
0.0
 11
-40.63225390313295
 21
15.69644344893823
 31
0.0
  0
LINE
  5
360
102
{ACAD_REACTORS
330
3F3
330
3F4
102
}
330
71
100
AcDbEntity
  8
0
  6
Continuous
 62
     2
100
AcDbLine
 10
-39.58259632522547
 20
17.61598086390561
 30
0.0
 11
-38.38980362305907
 21
17.61598086390561
 31
0.0
  0
LINE
  5
361
102
{ACAD_REACTORS
330
3F3
330
3F4
102
}
330
71
100
AcDbEntity
  8
0
  6
Continuous
 62
     2
100
AcDbLine
 10
-39.58259632522547
 20
16.54714753057101
 30
0.0
 11
-39.58259632522547
 21
17.61598086390561
 31
0.0
  0
LINE
  5
362
102
{ACAD_REACTORS
330
405
330
406
102
}
330
71
100
AcDbEntity
  8
0
  6
Continuous
 62
     2
100
AcDbLine
 10
-33.57092110630447
 20
16.91796725846263
 30
0.0
 11
-33.57092110630447
 21
17.61598086390561
 31
0.0
  0
LINE
  5
363
102
{ACAD_REACTORS
330
405
330
406
102
}
330
71
100
AcDbEntity
  8
0
  6
Continuous
 62
     2
100
AcDbLine
 10
-36.72124083008546
 20
17.61598086390561
 30
0.0
 11
-33.57092110630447
 21
17.61598086390561
 31
0.0
  0
LINE
  5
364
102
{ACAD_REACTORS
330
405
330
406
102
}
330
71
100
AcDbEntity
  8
0
  6
Continuous
 62
     2
100
AcDbLine
 10
-36.72124083008546
 20
14.56217134009441
 30
0.0
 11
-33.57092110630447
 21
14.56217134009441
 31
0.0
  0
LINE
  5
365
102
{ACAD_REACTORS
330
405
330
406
102
}
330
71
100
AcDbEntity
  8
0
  6
Continuous
 62
     2
100
AcDbLine
 10
-33.57092110630447
 20
14.56217134009441
 30
0.0
 11
-33.57092110630447
 21
15.26018494553691
 31
0.0
  0
LINE
  5
366
102
{ACAD_REACTORS
330
405
330
406
102
}
330
71
100
AcDbEntity
  8
0
  6
Continuous
 62
     2
100
AcDbLine
 10
-33.57092110630447
 20
15.26018494553691
 30
0.0
 11
-34.90684893273215
 21
15.26018494553691
 31
0.0
  0
LINE
  5
367
102
{ACAD_REACTORS
330
405
330
406
102
}
330
71
100
AcDbEntity
  8
0
  6
Continuous
 62
     2
100
AcDbLine
 10
-34.90684893273215
 20
15.26018494553691
 30
0.0
 11
-34.90684893273215
 21
15.74006929927862
 31
0.0
  0
LINE
  5
368
102
{ACAD_REACTORS
330
405
330
406
102
}
330
71
100
AcDbEntity
  8
0
  6
Continuous
 62
     2
100
AcDbLine
 10
-34.90684893273215
 20
16.91796725846263
 30
0.0
 11
-33.57092110630447
 21
16.91796725846263
 31
0.0
  0
LINE
  5
369
102
{ACAD_REACTORS
330
3F5
330
3F6
102
}
330
71
100
AcDbEntity
  8
0
  6
Continuous
 62
     2
100
AcDbLine
 10
-37.38800868412366
 20
11.20298086392012
 30
0.0
 11
-37.38800868412366
 21
12.5117563741247
 31
0.0
  0
LINE
  5
36A
102
{ACAD_REACTORS
330
3F5
330
3F6
102
}
330
71
100
AcDbEntity
  8
0
  6
Continuous
 62
     2
100
AcDbLine
 10
-37.38800868412366
 20
12.5117563741247
 30
0.0
 11
-36.14750427387077
 21
11.20298086392012
 31
0.0
  0
LINE
  5
36B
102
{ACAD_REACTORS
330
3F5
330
3F6
102
}
330
71
100
AcDbEntity
  8
0
  6
Continuous
 62
     2
100
AcDbLine
 10
-34.95471157170437
 20
11.20298086392012
 30
0.0
 11
-34.95471157170437
 21
14.2567903877312
 31
0.0
  0
LINE
  5
36C
102
{ACAD_REACTORS
330
3F5
330
3F6
102
}
330
71
100
AcDbEntity
  8
0
  6
Continuous
 62
     2
100
AcDbLine
 10
-34.95471157170437
 20
14.2567903877312
 30
0.0
 11
-36.14750427387077
 21
14.2567903877312
 31
0.0
  0
LINE
  5
36D
102
{ACAD_REACTORS
330
3F5
330
3F6
102
}
330
71
100
AcDbEntity
  8
0
  6
Continuous
 62
     2
100
AcDbLine
 10
-36.14750427387077
 20
14.2567903877312
 30
0.0
 11
-36.14750427387077
 21
12.94801487752611
 31
0.0
  0
LINE
  5
36E
102
{ACAD_REACTORS
330
3F5
330
3F6
102
}
330
71
100
AcDbEntity
  8
0
  6
Continuous
 62
     2
100
AcDbLine
 10
-36.14750427387077
 20
12.94801487752611
 30
0.0
 11
-37.38800868412366
 21
14.2567903877312
 31
0.0
  0
LINE
  5
36F
102
{ACAD_REACTORS
330
3F7
330
3F8
102
}
330
71
100
AcDbEntity
  8
0
  6
Continuous
 62
     2
100
AcDbLine
 10
-32.13956986370505
 20
15.87094685029911
 30
0.0
 11
-30.89906545345104
 21
14.56217134009441
 31
0.0
  0
LINE
  5
370
102
{ACAD_REACTORS
330
3F7
330
3F8
102
}
330
71
100
AcDbEntity
  8
0
  6
Continuous
 62
     2
100
AcDbLine
 10
-30.89906545345104
 20
14.56217134009441
 30
0.0
 11
-29.70627275128445
 21
14.56217134009441
 31
0.0
  0
LINE
  5
371
102
{ACAD_REACTORS
330
3F7
330
3F8
102
}
330
71
100
AcDbEntity
  8
0
  6
Continuous
 62
     2
100
AcDbLine
 10
-29.70627275128445
 20
14.56217134009441
 30
0.0
 11
-29.70627275128445
 21
17.61598086390561
 31
0.0
  0
LINE
  5
372
102
{ACAD_REACTORS
330
3F7
330
3F8
102
}
330
71
100
AcDbEntity
  8
0
  6
Continuous
 62
     2
100
AcDbLine
 10
-29.70627275128445
 20
17.61598086390561
 30
0.0
 11
-30.89906545345104
 21
17.61598086390561
 31
0.0
  0
LINE
  5
373
102
{ACAD_REACTORS
330
3F7
330
3F8
102
}
330
71
100
AcDbEntity
  8
0
  6
Continuous
 62
     2
100
AcDbLine
 10
-30.89906545345104
 20
16.30720535370043
 30
0.0
 11
-32.13956986370505
 21
17.61598086390561
 31
0.0
  0
LINE
  5
374
102
{ACAD_REACTORS
330
3F7
330
3F8
102
}
330
71
100
AcDbEntity
  8
0
  6
Continuous
 62
     2
100
AcDbLine
 10
-33.33236256587156
 20
14.56217134009441
 30
0.0
 11
-32.13956986370505
 21
14.56217134009441
 31
0.0
  0
LINE
  5
375
102
{ACAD_REACTORS
330
3F9
330
3FA
102
}
330
71
100
AcDbEntity
  8
0
  6
Continuous
 62
     2
100
AcDbLine
 10
-34.81157644744417
 20
14.2567903877312
 30
0.0
 11
-34.81157644744417
 21
13.47152508160761
 31
0.0
  0
LINE
  5
376
102
{ACAD_REACTORS
330
3F9
330
3FA
102
}
330
71
100
AcDbEntity
  8
0
  6
Continuous
 62
     2
100
AcDbLine
 10
-34.00047740996956
 20
13.47152508160761
 30
0.0
 11
-34.00047740996956
 21
11.20298086392012
 31
0.0
  0
LINE
  5
377
102
{ACAD_REACTORS
330
3F9
330
3FA
102
}
330
71
100
AcDbEntity
  8
0
  6
Continuous
 62
     2
100
AcDbLine
 10
-34.00047740996956
 20
11.20298086392012
 30
0.0
 11
-32.80768470780305
 21
11.20298086392012
 31
0.0
  0
LINE
  5
378
102
{ACAD_REACTORS
330
3FB
330
3FC
102
}
330
71
100
AcDbEntity
  8
0
  6
Continuous
 62
     2
100
AcDbLine
 10
-29.85815821438357
 20
11.20298086392012
 30
0.0
 11
-30.06963826785935
 21
11.743941408138
 31
0.0
  0
LINE
  5
379
102
{ACAD_REACTORS
330
3FB
330
3FC
102
}
330
71
100
AcDbEntity
  8
0
  6
Continuous
 62
     2
100
AcDbLine
 10
-30.01560685106995
 20
14.2567903877312
 30
0.0
 11
-28.61765380412965
 21
11.20298086392012
 31
0.0
  0
LINE
  5
37A
102
{ACAD_REACTORS
330
3FB
330
3FC
102
}
330
71
100
AcDbEntity
  8
0
  6
Continuous
 62
     2
100
AcDbLine
 10
-31.25611126132264
 20
14.2567903877312
 30
0.0
 11
-30.01560685106995
 21
14.2567903877312
 31
0.0
  0
LINE
  5
37B
102
{ACAD_REACTORS
330
3FB
330
3FC
102
}
330
71
100
AcDbEntity
  8
0
  6
Continuous
 62
     2
100
AcDbLine
 10
-32.65406430826195
 20
11.20298086392012
 30
0.0
 11
-31.41355989800897
 21
11.20298086392012
 31
0.0
  0
LINE
  5
37C
102
{ACAD_REACTORS
330
3FB
330
3FC
102
}
330
71
100
AcDbEntity
  8
0
  6
Continuous
 62
     2
100
AcDbLine
 10
-30.93602429338816
 20
12.4245046734446
 30
0.0
 11
-30.33569381900566
 21
12.4245046734446
 31
0.0
  0
LINE
  5
37D
102
{ACAD_REACTORS
330
3FB
330
3FC
102
}
330
71
100
AcDbEntity
  8
0
  6
Continuous
 62
     2
100
AcDbLine
 10
-30.33569381900566
 20
12.4245046734446
 30
0.0
 11
-30.63585905619576
 21
13.1923196394313
 31
0.0
  0
LINE
  5
37E
102
{ACAD_REACTORS
330
3FD
330
3FE
102
}
330
71
100
AcDbEntity
  8
0
  6
Continuous
 62
     2
100
AcDbLine
 10
-28.22720980059765
 20
14.56217134009441
 30
0.0
 11
-29.46771421085055
 21
14.56217134009441
 31
0.0
  0
LINE
  5
37F
102
{ACAD_REACTORS
330
3FF
330
400
102
}
330
71
100
AcDbEntity
  8
0
  6
Continuous
 62
     2
100
AcDbLine
 10
-26.70520631263256
 20
14.56217134009441
 30
0.0
 11
-28.10793053038077
 21
14.56217134009441
 31
0.0
  0
LINE
  5
380
102
{ACAD_REACTORS
330
3FF
330
400
102
}
330
71
100
AcDbEntity
  8
0
  6
Continuous
 62
     2
100
AcDbLine
 10
-26.70520631263256
 20
14.56217134009441
 30
0.0
 11
-26.00861537456686
 21
15.34990312538812
 31
0.0
  0
LINE
  5
381
102
{ACAD_REACTORS
330
3FF
330
400
102
}
330
71
100
AcDbEntity
  8
0
  6
Continuous
 62
     2
100
AcDbLine
 10
-25.40744785267407
 20
17.61598086390561
 30
0.0
 11
-24.00472363492685
 21
17.61598086390561
 31
0.0
  0
LINE
  5
382
102
{ACAD_REACTORS
330
3FF
330
400
102
}
330
71
100
AcDbEntity
  8
0
  6
Continuous
 62
     2
100
AcDbLine
 10
-28.01250711420795
 20
17.61598086390561
 30
0.0
 11
-26.70997748344047
 21
16.14303033386941
 31
0.0
  0
LINE
  5
383
102
{ACAD_REACTORS
330
3FF
330
400
102
}
330
71
100
AcDbEntity
  8
0
  6
Continuous
 62
     2
100
AcDbLine
 10
-28.10793053038077
 20
14.56217134009441
 30
0.0
 11
-26.70997748344047
 21
16.14303033386941
 31
0.0
  0
LINE
  5
384
102
{ACAD_REACTORS
330
409
330
40A
102
}
330
71
100
AcDbEntity
  8
0
  6
Continuous
 62
     2
100
AcDbLine
 10
-26.24717391500084
 20
12.25000127208372
 30
0.0
 11
-26.24717391500084
 21
11.3774842652804
 31
0.0
  0
LINE
  5
385
102
{ACAD_REACTORS
330
409
330
40A
102
}
330
71
100
AcDbEntity
  8
0
  6
Continuous
 62
     2
100
AcDbLine
 10
-27.01683125796225
 20
13.47152508160761
 30
0.0
 11
-25.91319195839415
 21
13.47152508160761
 31
0.0
  0
LINE
  5
386
102
{ACAD_REACTORS
330
40B
330
40C
102
}
330
71
100
AcDbEntity
  8
0
  6
Continuous
 62
     2
100
AcDbLine
 10
-42.34987539425276
 20
12.25000127208421
 30
0.0
 11
-42.34987539425276
 21
11.377484265281
 31
0.0
  0
LINE
  5
387
102
{ACAD_REACTORS
330
40B
330
40C
102
}
330
71
100
AcDbEntity
  8
0
  6
Continuous
 62
     2
100
AcDbLine
 10
-42.34987539425276
 20
13.20976997956711
 30
0.0
 11
-42.34987539425276
 21
14.08228698637041
 31
0.0
  0
LINE
  5
388
330
71
100
AcDbEntity
  8
1
  6
Continuous
 62
     7
100
AcDbLine
 10
73.48750019073114
 20
12.40948086390381
 30
0.0
 11
-19.65730433602025
 21
12.40948086390381
 31
0.0
  0
LINE
  5
389
330
71
100
AcDbEntity
  8
1
  6
Continuous
 62
     6
100
AcDbLine
 10
-125.0573043360201
 20
3.90948086390381
 30
0.0
 11
-170.0124998092701
 21
3.90948086390381
 31
0.0
  0
LINE
  5
38A
330
71
100
AcDbEntity
  8
1
  6
Continuous
 62
     7
100
AcDbLine
 10
64.56909190905233
 20
29.40948086390381
 30
0.0
 11
64.56909190905233
 21
20.90948086390381
 31
0.0
  0
LINE
  5
38B
330
71
100
AcDbEntity
  8
1
  6
Continuous
 62
     7
100
AcDbLine
 10
38.06909190905273
 20
29.40948086390381
 30
0.0
 11
38.06909190905273
 21
20.90948086390381
 31
0.0
  0
LINE
  5
38C
330
71
100
AcDbEntity
  8
1
  6
Continuous
 62
     7
100
AcDbLine
 10
-19.65730433602025
 20
20.90948086390381
 30
0.0
 11
-19.65730433602025
 21
29.40948086390381
 31
0.0
  0
LINE
  5
38D
330
71
100
AcDbEntity
  8
1
  6
Continuous
 62
     7
100
AcDbLine
 10
-56.05730433602017
 20
20.90948086390381
 30
0.0
 11
-56.05730433602017
 21
29.40948086390381
 31
0.0
  0
LINE
  5
38E
330
71
100
AcDbEntity
  8
1
  6
Continuous
 62
     6
100
AcDbLine
 10
-19.65730433602025
 20
20.90948086390381
 30
0.0
 11
73.48750019073154
 21
20.90948086390381
 31
0.0
  0
LINE
  5
38F
330
71
100
AcDbEntity
  8
1
  6
Continuous
 62
     7
100
AcDbLine
 10
8.24269566397984
 20
12.40948086390372
 30
0.0
 11
8.24269566397984
 21
20.90948086390381
 31
0.0
  0
LINE
  5
390
330
71
100
AcDbEntity
  8
1
  6
PHANTOM
 62
     2
100
AcDbLine
 10
-40.57064944945756
 20
25.03448086390372
 30
0.0
 11
-46.07064944945756
 21
25.03448086390372
 31
0.0
  0
LINE
  5
391
330
71
100
AcDbEntity
  8
1
  6
PHANTOM
 62
     2
100
AcDbLine
 10
-43.32064944945756
 20
27.78448086390372
 30
0.0
 11
-43.32064944945756
 21
22.28448086390372
 31
0.0
  0
LINE
  5
392
330
71
100
AcDbEntity
  8
1
  6
DOT_CENTER
 62
     2
100
AcDbLine
 10
-52.07064944945756
 20
25.03448086390372
 30
0.0
 11
-46.57064944945756
 21
25.03448086390372
 31
0.0
  0
ARC
  5
393
102
{ACAD_REACTORS
330
40B
330
40C
102
}
330
71
100
AcDbEntity
  8
0
  6
Continuous
 62
     2
100
AcDbCircle
 10
-43.68580331137056
 20
9.41720468056951
 30
0.0
 40
4.852596863498071
100
AcDbArc
 50
74.02000874164739
 51
84.84185523037506
  0
ARC
  5
394
102
{ACAD_REACTORS
330
40B
330
40C
102
}
330
71
100
AcDbEntity
  8
0
  6
Continuous
 62
     2
100
AcDbCircle
 10
-43.10976270261685
 20
12.57296503645381
 30
0.0
 40
0.9059297849853211
100
AcDbArc
 50
71.55192388185344
 51
113.3722778881286
  0
ARC
  5
395
102
{ACAD_REACTORS
330
40B
330
40C
102
}
330
71
100
AcDbEntity
  8
0
  6
Continuous
 62
     2
100
AcDbCircle
 10
-43.26620273531887
 20
12.52481419648692
 30
0.0
 40
0.5115800601948034
100
AcDbArc
 50
208.5214732576956
 51
246.6277221118283
  0
ARC
  5
396
102
{ACAD_REACTORS
330
40B
330
40C
102
}
330
71
100
AcDbEntity
  8
0
  6
Continuous
 62
     2
100
AcDbCircle
 10
-43.10976270261685
 20
12.88680621519691
 30
0.0
 40
0.9059297849849132
100
AcDbArc
 50
246.6277221118714
 51
288.4480761181586
  0
ARC
  5
397
102
{ACAD_REACTORS
330
40B
330
40C
102
}
330
71
100
AcDbEntity
  8
0
  6
Continuous
 62
     2
100
AcDbCircle
 10
-43.52793043627764
 20
14.1403519912341
 30
0.0
 40
2.227384008972737
100
AcDbArc
 50
288.4480761181328
 51
301.9309089499593
  0
ARC
  5
398
102
{ACAD_REACTORS
330
407
330
408
102
}
330
71
100
AcDbEntity
  8
0
  6
Continuous
 62
     2
100
AcDbCircle
 10
-48.75300416888445
 20
14.87285402014811
 30
0.0
 40
0.9118481501444603
100
AcDbArc
 50
295.3740086781769
 51
64.6259913218072
  0
ARC
  5
399
102
{ACAD_REACTORS
330
407
330
408
102
}
330
71
100
AcDbEntity
  8
0
  6
Continuous
 62
     2
100
AcDbCircle
 10
-48.22696147079657
 20
16.58753090862271
 30
0.0
 40
0.3157169230760746
100
AcDbArc
 50
90.18896704254722
 51
180.0
  0
ARC
  5
39A
102
{ACAD_REACTORS
330
409
330
40A
102
}
330
71
100
AcDbEntity
  8
0
  6
Continuous
 62
     2
100
AcDbCircle
 10
-27.01683125796225
 20
12.51700207478152
 30
0.0
 40
0.9545230068260899
100
AcDbArc
 50
90.0
 51
109.337143219432
  0
ARC
  5
39B
102
{ACAD_REACTORS
330
409
330
40A
102
}
330
71
100
AcDbEntity
  8
0
  6
Continuous
 62
     2
100
AcDbCircle
 10
-26.78614399798457
 20
12.7298856258254
 30
0.0
 40
0.9410597353348895
100
AcDbArc
 50
151.4785267423618
 51
208.5214732576697
  0
ARC
  5
39C
102
{ACAD_REACTORS
330
409
330
40A
102
}
330
71
100
AcDbEntity
  8
0
  6
Continuous
 62
     2
100
AcDbCircle
 10
-27.00706122336285
 20
12.88680621519691
 30
0.0
 40
0.9059297849852782
100
AcDbArc
 50
246.6277221118179
 51
288.4480761180813
  0
ARC
  5
39D
102
{ACAD_REACTORS
330
409
330
40A
102
}
330
71
100
AcDbEntity
  8
0
  6
Continuous
 62
     2
100
AcDbCircle
 10
-27.42522895702476
 20
14.1403519912335
 30
0.0
 40
2.227384008972746
100
AcDbArc
 50
288.4480761181335
 51
301.9309089499399
  0
ARC
  5
39E
102
{ACAD_REACTORS
330
409
330
40A
102
}
330
71
100
AcDbEntity
  8
0
  6
Continuous
 62
     2
100
AcDbCircle
 10
-27.58310183211756
 20
16.04256657108181
 30
0.0
 40
4.852596863498824
100
AcDbArc
 50
275.1581447696362
 51
285.9799912583387
  0
ARC
  5
39F
102
{ACAD_REACTORS
330
409
330
40A
102
}
330
71
100
AcDbEntity
  8
0
  6
Continuous
 62
     2
100
AcDbCircle
 10
-27.29424573738174
 20
12.84267598786022
 30
0.0
 40
1.639695123940456
100
AcDbArc
 50
195.0618917771012
 51
275.158144769676
  0
ARC
  5
3A0
102
{ACAD_REACTORS
330
401
330
402
102
}
330
71
100
AcDbEntity
  8
0
  6
Continuous
 62
     2
100
AcDbCircle
 10
-43.02245904907286
 20
16.56061522257193
 30
0.0
 40
1.05536564133371
100
AcDbArc
 50
270.0
 51
90.0
  0
ARC
  5
3A1
102
{ACAD_REACTORS
330
407
330
408
102
}
330
71
100
AcDbEntity
  8
0
  6
Continuous
 62
     2
100
AcDbCircle
 10
-50.80251015732827
 20
12.23125334255371
 30
0.0
 40
0.3157169230756907
100
AcDbArc
 50
180.0
 51
270.0
  0
ARC
  5
3A2
102
{ACAD_REACTORS
330
407
330
408
102
}
330
71
100
AcDbEntity
  8
0
  6
Continuous
 62
     2
100
AcDbCircle
 10
-49.32667689631865
 20
16.58770838527082
 30
0.0
 40
0.3157169230766002
100
AcDbArc
 50
0.0
 51
90.0
  0
ARC
  5
3A3
102
{ACAD_REACTORS
330
407
330
408
102
}
330
71
100
AcDbEntity
  8
0
  6
Continuous
 62
     2
100
AcDbCircle
 10
-49.32667689631865
 20
15.98368376621031
 30
0.0
 40
0.3157169230761233
100
AcDbArc
 50
295.1944106485409
 51
0.0
  0
ARC
  5
3A4
102
{ACAD_REACTORS
330
407
330
408
102
}
330
71
100
AcDbEntity
  8
0
  6
Continuous
 62
     2
100
AcDbCircle
 10
-49.32667689631865
 20
12.23125334255371
 30
0.0
 40
0.3157169230766996
100
AcDbArc
 50
270.0
 51
0.0
  0
ARC
  5
3A5
102
{ACAD_REACTORS
330
407
330
408
102
}
330
71
100
AcDbEntity
  8
0
  6
Continuous
 62
     2
100
AcDbCircle
 10
-51.39640483407476
 20
17.19173624850362
 30
0.0
 40
0.4242446153837989
100
AcDbArc
 50
90.0
 51
180.0
  0
ARC
  5
3A6
102
{ACAD_REACTORS
330
407
330
408
102
}
330
71
100
AcDbEntity
  8
0
  6
Continuous
 62
     2
100
AcDbCircle
 10
-45.92309274335796
 20
17.19173624850362
 30
0.0
 40
0.4242446153838912
100
AcDbArc
 50
0.0
 51
90.0
  0
ARC
  5
3A7
102
{ACAD_REACTORS
330
407
330
408
102
}
330
71
100
AcDbEntity
  8
0
  6
Continuous
 62
     2
100
AcDbCircle
 10
-45.92309274335796
 20
11.62722547930341
 30
0.0
 40
0.4242446153832908
100
AcDbArc
 50
270.0
 51
0.0
  0
ARC
  5
3A8
102
{ACAD_REACTORS
330
405
330
406
102
}
330
71
100
AcDbEntity
  8
0
  6
Continuous
 62
     2
100
AcDbCircle
 10
-36.70470885626645
 20
16.08907610199972
 30
0.0
 40
0.7717997786796351
100
AcDbArc
 50
321.879580202844
 51
38.12041979715956
  0
ARC
  5
3A9
102
{ACAD_REACTORS
330
405
330
406
102
}
330
71
100
AcDbEntity
  8
0
  6
Continuous
 62
     2
100
AcDbCircle
 10
-36.50496881992027
 20
15.9323449238793
 30
0.0
 40
0.5179085730134326
100
AcDbArc
 50
218.1204197971517
 51
321.879580202857
  0
ARC
  5
3AA
102
{ACAD_REACTORS
330
403
330
404
102
}
330
71
100
AcDbEntity
  8
0
  6
Continuous
 62
     2
100
AcDbCircle
 10
-40.18497640888046
 20
12.7298856258254
 30
0.0
 40
1.458034083652003
100
AcDbArc
 50
297.548148175701
 51
62.45185182429898
  0
ARC
  5
3AB
102
{ACAD_REACTORS
330
403
330
404
102
}
330
71
100
AcDbEntity
  8
0
  6
Continuous
 62
     2
100
AcDbCircle
 10
-40.74685619254706
 20
12.7298856258254
 30
0.0
 40
1.458034083651495
100
AcDbArc
 50
117.5481481756626
 51
242.4518518243373
  0
ARC
  5
3AC
102
{ACAD_REACTORS
330
403
330
404
102
}
330
71
100
AcDbEntity
  8
0
  6
Continuous
 62
     2
100
AcDbCircle
 10
-40.46591630071376
 20
12.19131061552261
 30
0.0
 40
2.065479772208566
100
AcDbArc
 50
62.45185182430634
 51
117.5481481756666
  0
ARC
  5
3AD
102
{ACAD_REACTORS
330
403
330
404
102
}
330
71
100
AcDbEntity
  8
0
  6
Continuous
 62
     2
100
AcDbCircle
 10
-40.46591630071376
 20
13.26846063612871
 30
0.0
 40
2.065479772208517
100
AcDbArc
 50
242.4518518243401
 51
297.548148175687
  0
ARC
  5
3AE
102
{ACAD_REACTORS
330
405
330
406
102
}
330
71
100
AcDbEntity
  8
0
  6
Continuous
 62
     2
100
AcDbCircle
 10
-36.30522878357397
 20
16.08907610199972
 30
0.0
 40
0.7717997786796668
100
AcDbArc
 50
141.8795802028401
 51
218.1204197971564
  0
ARC
  5
3AF
102
{ACAD_REACTORS
330
405
330
406
102
}
330
71
100
AcDbEntity
  8
0
  6
Continuous
 62
     2
100
AcDbCircle
 10
-36.50496881992027
 20
16.2458072801202
 30
0.0
 40
0.5179085730135321
100
AcDbArc
 50
38.12041979714286
 51
141.8795802028484
  0
ARC
  5
3B0
102
{ACAD_REACTORS
330
407
330
408
102
}
330
71
100
AcDbEntity
  8
0
  6
Continuous
 62
     2
100
AcDbCircle
 10
-51.39640483407476
 20
11.62722547930341
 30
0.0
 40
0.4242446153828041
100
AcDbArc
 50
180.0
 51
270.0
  0
ARC
  5
3B1
102
{ACAD_REACTORS
330
407
330
408
102
}
330
71
100
AcDbEntity
  8
0
  6
Continuous
 62
     2
100
AcDbCircle
 10
-49.32667689631865
 20
13.76202427408532
 30
0.0
 40
0.3157169230766002
100
AcDbArc
 50
0.0
 51
64.8055893514591
  0
ARC
  5
3B2
102
{ACAD_REACTORS
330
407
330
408
102
}
330
71
100
AcDbEntity
  8
0
  6
Continuous
 62
     2
100
AcDbCircle
 10
-48.80409244874366
 20
14.87285402014811
 30
0.0
 40
0.911897523557621
100
AcDbArc
 50
115.194410648528
 51
244.8055893514877
  0
ARC
  5
3B3
102
{ACAD_REACTORS
330
407
330
408
102
}
330
71
100
AcDbEntity
  8
0
  6
Continuous
 62
     2
100
AcDbCircle
 10
-50.80251015732827
 20
16.58770838527082
 30
0.0
 40
0.3157169230761916
100
AcDbArc
 50
90.0
 51
180.0
  0
ARC
  5
3B4
102
{ACAD_REACTORS
330
401
330
402
102
}
330
71
100
AcDbEntity
  8
0
  6
Continuous
 62
     2
100
AcDbCircle
 10
-43.46393157531125
 20
16.60001119379442
 30
0.0
 40
0.3528638246711182
100
AcDbArc
 50
270.0
 51
90.0
  0
ARC
  5
3B5
102
{ACAD_REACTORS
330
405
330
406
102
}
330
71
100
AcDbEntity
  8
0
  6
Continuous
 62
     2
100
AcDbCircle
 10
-36.72124083008546
 20
16.08907610199972
 30
0.0
 40
1.52690476190589
100
AcDbArc
 50
90.0
 51
270.0
  0
ARC
  5
3B6
102
{ACAD_REACTORS
330
409
330
40A
102
}
330
71
100
AcDbEntity
  8
0
  6
Continuous
 62
     2
100
AcDbCircle
 10
-27.29424573738174
 20
12.6170952637905
 30
0.0
 40
1.63969512394022
100
AcDbArc
 50
90.0
 51
164.9381082228947
  0
ARC
  5
3B7
102
{ACAD_REACTORS
330
409
330
40A
102
}
330
71
100
AcDbEntity
  8
0
  6
Continuous
 62
     2
100
AcDbCircle
 10
-27.71337358084335
 20
12.7298856258254
 30
0.0
 40
1.205656168393012
100
AcDbArc
 50
164.9381082229025
 51
195.0618917770957
  0
ARC
  5
3B8
102
{ACAD_REACTORS
330
409
330
40A
102
}
330
71
100
AcDbEntity
  8
0
  6
Continuous
 62
     2
100
AcDbCircle
 10
-27.16350125606596
 20
12.52481419648692
 30
0.0
 40
0.5115800601960195
100
AcDbArc
 50
208.5214732576879
 51
246.6277221118455
  0
ARC
  5
3B9
102
{ACAD_REACTORS
330
409
330
40A
102
}
330
71
100
AcDbEntity
  8
0
  6
Continuous
 62
     2
100
AcDbCircle
 10
-27.16350125606596
 20
12.9349570551644
 30
0.0
 40
0.5115800601944169
100
AcDbArc
 50
109.3371432194843
 51
151.4785267424214
  0
ARC
  5
3BA
102
{ACAD_REACTORS
330
407
330
408
102
}
330
71
100
AcDbEntity
  8
0
  6
Continuous
 62
     2
100
AcDbCircle
 10
-48.22696147079657
 20
13.18186101348462
 30
0.0
 40
0.315716923076792
100
AcDbArc
 50
180.0
 51
269.8110329574529
  0
ARC
  5
3BB
102
{ACAD_REACTORS
330
407
330
408
102
}
330
71
100
AcDbEntity
  8
0
  6
Continuous
 62
     2
100
AcDbCircle
 10
-48.22134533548655
 20
14.88469596105361
 30
0.0
 40
2.018561131933267
100
AcDbArc
 50
269.8110329575858
 51
90.18896704241416
  0
ARC
  5
3BC
102
{ACAD_REACTORS
330
407
330
408
102
}
330
71
100
AcDbEntity
  8
0
  6
Continuous
 62
     2
100
AcDbCircle
 10
-48.22696147079657
 20
15.98199562011592
 30
0.0
 40
0.315716923076792
100
AcDbArc
 50
180.0
 51
244.6259913216475
  0
ARC
  5
3BD
102
{ACAD_REACTORS
330
407
330
408
102
}
330
71
100
AcDbEntity
  8
0
  6
Continuous
 62
     2
100
AcDbCircle
 10
-48.22696147079657
 20
13.7637124201797
 30
0.0
 40
0.3157169230765328
100
AcDbArc
 50
115.3740086783519
 51
180.0
  0
ARC
  5
3BE
102
{ACAD_REACTORS
330
40B
330
40C
102
}
330
71
100
AcDbEntity
  8
0
  6
Continuous
 62
     2
100
AcDbCircle
 10
-43.39694721663466
 20
12.6170952637905
 30
0.0
 40
1.639695123940516
100
AcDbArc
 50
84.84185523036238
 51
164.9381082228861
  0
ARC
  5
3BF
102
{ACAD_REACTORS
330
40B
330
40C
102
}
330
71
100
AcDbEntity
  8
0
  6
Continuous
 62
     2
100
AcDbCircle
 10
-43.81607506009746
 20
12.7298856258254
 30
0.0
 40
1.205656168390939
100
AcDbArc
 50
164.938108222876
 51
195.0618917770946
  0
ARC
  5
3C0
102
{ACAD_REACTORS
330
40B
330
40C
102
}
330
71
100
AcDbEntity
  8
0
  6
Continuous
 62
     2
100
AcDbCircle
 10
-43.39694721663466
 20
12.84267598786022
 30
0.0
 40
1.63969512393938
100
AcDbArc
 50
195.0618917770896
 51
275.1581447696395
  0
ARC
  5
3C1
102
{ACAD_REACTORS
330
40B
330
40C
102
}
330
71
100
AcDbEntity
  8
0
  6
Continuous
 62
     2
100
AcDbCircle
 10
-43.68580331137056
 20
16.04256657108181
 30
0.0
 40
4.852596863498145
100
AcDbArc
 50
275.1581447696249
 51
285.9799912583529
  0
ARC
  5
3C2
102
{ACAD_REACTORS
330
40B
330
40C
102
}
330
71
100
AcDbEntity
  8
0
  6
Continuous
 62
     2
100
AcDbCircle
 10
-42.88884547723856
 20
12.7298856258254
 30
0.0
 40
0.9410597353332545
100
AcDbArc
 50
151.4785267422669
 51
208.5214732577053
  0
ARC
  5
3C3
102
{ACAD_REACTORS
330
40B
330
40C
102
}
330
71
100
AcDbEntity
  8
0
  6
Continuous
 62
     2
100
AcDbCircle
 10
-43.26620273531887
 20
12.9349570551644
 30
0.0
 40
0.5115800601948767
100
AcDbArc
 50
113.3722778881983
 51
151.4785267423044
  0
ARC
  5
3C4
102
{ACAD_REACTORS
330
40B
330
40C
102
}
330
71
100
AcDbEntity
  8
0
  6
Continuous
 62
     2
100
AcDbCircle
 10
-43.52793043627764
 20
11.31941926041722
 30
0.0
 40
2.227384008973474
100
AcDbArc
 50
58.06909105004068
 51
71.55192388186722
  0
ARC
  5
3C5
102
{ACAD_REACTORS
330
403
330
404
102
}
330
71
100
AcDbEntity
  8
0
  6
Continuous
 62
     2
100
AcDbCircle
 10
-40.46591630071376
 20
12.88661680394591
 30
0.0
 40
0.5179085730133021
100
AcDbArc
 50
38.12041979714734
 51
141.8795802028585
  0
ARC
  5
3C6
102
{ACAD_REACTORS
330
403
330
404
102
}
330
71
100
AcDbEntity
  8
0
  6
Continuous
 62
     2
100
AcDbCircle
 10
-40.26617626436766
 20
12.7298856258254
 30
0.0
 40
0.7717997786794665
100
AcDbArc
 50
141.879580202836
 51
218.1204197971687
  0
ARC
  5
3C7
102
{ACAD_REACTORS
330
403
330
404
102
}
330
71
100
AcDbEntity
  8
0
  6
Continuous
 62
     2
100
AcDbCircle
 10
-40.46591630071376
 20
12.57315444770541
 30
0.0
 40
0.5179085730137397
100
AcDbArc
 50
218.1204197971938
 51
321.8795802028004
  0
ARC
  5
3C8
102
{ACAD_REACTORS
330
403
330
404
102
}
330
71
100
AcDbEntity
  8
0
  6
Continuous
 62
     2
100
AcDbCircle
 10
-40.66565633706017
 20
12.7298856258254
 30
0.0
 40
0.7717997786796947
100
AcDbArc
 50
321.8795802028417
 51
38.12041979715359
  0
CIRCLE
  5
3C9
330
71
100
AcDbEntity
  8
1
  6
Continuous
 62
     2
100
AcDbCircle
 10
-43.32064944945756
 20
25.03448086390372
 30
0.0
 40
2.5
  0
CIRCLE
  5
3CA
330
71
100
AcDbEntity
  8
1
  6
Continuous
 62
     2
100
AcDbCircle
 10
-43.32064944945756
 20
25.03448086390372
 30
0.0
 40
1.249999999999915
  0
CIRCLE
  5
3CB
102
{ACAD_REACTORS
330
407
330
408
102
}
330
71
100
AcDbEntity
  8
0
  6
Continuous
 62
     2
100
AcDbCircle
 10
-48.77681918355725
 20
14.87285402014811
 30
0.0
 40
0.4709789327785074
  0
MTEXT
  5
3CC
330
71
100
AcDbEntity
  8
1
 62
     3
100
AcDbMText
 10
-213.5074320231984
 20
190.7007890192026
 30
0.0
 40
1.8
 41
0.0
 71
     7
 72
     1
  3
Weitergabe sowie Vervielf\U+00e4ltigung dieses Dokuments, Verwertung und \PMitteilung seines Inhalts sind verboten, soweit nicht ausdr\U+00fccklich gestattet. \PZuwiderhandlungen verpflichten zu Schadenersatz. Alle Rechte f\U+00fcr den Fall\Pder Pat
  1
ent-, Gebrauchsmuster- oder Designeintragung vorbehalten.
  7
CONVERTER_11
 73
     1
 44
0.99639855942377
  0
MTEXT
  5
3CD
330
71
100
AcDbEntity
  8
1
 62
     3
100
AcDbMText
 10
-30.65432218441026
 20
190.7007890192026
 30
0.0
 40
1.8
 41
0.0
 71
     7
 72
     1
  3
Transfer or duplication of this document as well as the utilisation or\Pcommunication of its content are not permitted unless express consent\Pis granted. Violations give rise to claims for damages. All rights reserved\Pin case of patent, utility mo
  1
del or design patent registrations.
  7
CONVERTER_11
 73
     1
 44
0.99639855942377
  0
TEXT
  5
3CE
330
71
100
AcDbEntity
  8
1
 62
     2
100
AcDbText
 10
-36.85730433602035
 20
5.15046364891219
 30
0.0
 40
1.8
  1
of
 41
0.9
  7
CONVERTER_11
100
AcDbText
  0
TEXT
  5
3CF
330
71
100
AcDbEntity
  8
1
 62
     2
100
AcDbText
 10
-55.05730433602017
 20
5.15046364891214
 30
0.0
 40
1.8
  1
page
 41
0.9
  7
CONVERTER_11
100
AcDbText
  0
TEXT
  5
3D0
330
71
100
AcDbEntity
  8
1
 62
     2
100
AcDbText
 10
-46.41103936567816
 20
5.1102322101018
 30
0.0
 40
1.8
  1
1
 41
0.9
  7
CONVERTER_11
100
AcDbText
  0
TEXT
  5
3D1
330
71
100
AcDbEntity
  8
1
 62
     2
100
AcDbText
 10
-31.62199552620666
 20
5.1594808639037
 30
0.0
 40
1.8
  1
1
 41
0.9
  7
CONVERTER_11
100
AcDbText
  0
MTEXT
  5
3D3
330
71
100
AcDbEntity
  8
1
 62
     7
100
AcDbMText
 10
26.91509792735533
 20
7.15948086390404
 30
0.0
 40
3.0
 41
0.0
 71
     5
 72
     1
  1
OTTA 25-M6
  7
CONVERTER_12
 73
     1
 44
1.20048019207683
  0
MTEXT
  5
3D4
330
71
100
AcDbEntity
  8
1
 62
     2
100
AcDbMText
 10
-18.65730433602025
 20
11.40948086390381
 30
0.0
 40
1.8
 41
0.0
 71
     1
 72
     1
  1
description
  7
CONVERTER_11
 73
     1
 44
1.20048019207683
  0
MTEXT
  5
3D5
330
71
100
AcDbEntity
  8
1
 62
     3
100
AcDbMText
 10
-29.85730433602026
 20
25.03448086390381
 30
0.0
 40
2.5
 41
0.0
 71
     5
 72
     1
  1
DIN A4
  7
CONVERTER_11
 73
     1
 44
1.20048019207683
  0
MTEXT
  5
3D6
330
71
100
AcDbEntity
  8
1
 62
     7
100
AcDbMText
 10
-216.0124998092692
 20
26.40948086390381
 30
0.0
 40
3.5
 41
0.0
 71
     5
 72
     1
  1
D
  7
CONVERTER_11
 73
     1
 44
1.20048019207683
  0
MTEXT
  5
3D7
330
71
100
AcDbEntity
  8
1
 62
     7
100
AcDbMText
 10
-216.0124998092692
 20
78.90948086390381
 30
0.0
 40
3.5
 41
0.0
 71
     5
 72
     1
  1
C
  7
CONVERTER_11
 73
     1
 44
1.20048019207683
  0
MTEXT
  5
3D8
330
71
100
AcDbEntity
  8
1
 62
     7
100
AcDbMText
 10
-216.0124998092692
 20
128.9094808639038
 30
0.0
 40
3.5
 41
0.0
 71
     5
 72
     1
  1
B
  7
CONVERTER_11
 73
     1
 44
1.20048019207683
  0
MTEXT
  5
3D9
330
71
100
AcDbEntity
  8
1
 62
     7
100
AcDbMText
 10
-216.0124998092692
 20
181.4094808639038
 30
0.0
 40
3.5
 41
0.0
 71
     5
 72
     1
  1
A
  7
CONVERTER_11
 73
     1
 44
1.20048019207683
  0
MTEXT
  5
3DA
330
71
100
AcDbEntity
  8
1
 62
     7
100
AcDbMText
 10
54.23750019072904
 20
1.4094808639037
 30
0.0
 40
3.5
 41
0.0
 71
     5
 72
     1
  1
6
  7
CONVERTER_11
 73
     1
 44
1.20048019207683
  0
MTEXT
  5
3DB
330
71
100
AcDbEntity
  8
1
 62
     7
100
AcDbMText
 10
4.98750019072983
 20
1.4094808639037
 30
0.0
 40
3.5
 41
0.0
 71
     5
 72
     1
  1
5
  7
CONVERTER_11
 73
     1
 44
1.20048019207683
  0
MTEXT
  5
3DC
330
71
100
AcDbEntity
  8
1
 62
     7
100
AcDbMText
 10
-45.01249980927025
 20
1.4094808639037
 30
0.0
 40
3.5
 41
0.0
 71
     5
 72
     1
  1
4
  7
CONVERTER_11
 73
     1
 44
1.20048019207683
  0
MTEXT
  5
3DD
330
71
100
AcDbEntity
  8
1
 62
     7
100
AcDbMText
 10
-95.01249980927014
 20
1.4094808639037
 30
0.0
 40
3.5
 41
0.0
 71
     5
 72
     1
  1
3
  7
CONVERTER_11
 73
     1
 44
1.20048019207683
  0
MTEXT
  5
3DE
330
71
100
AcDbEntity
  8
1
 62
     7
100
AcDbMText
 10
-145.0124998092701
 20
1.4094808639037
 30
0.0
 40
3.5
 41
0.0
 71
     5
 72
     1
  1
2
  7
CONVERTER_11
 73
     1
 44
1.20048019207683
  0
MTEXT
  5
3DF
330
71
100
AcDbEntity
  8
1
 62
     7
100
AcDbMText
 10
-194.2624998092697
 20
1.4094808639037
 30
0.0
 40
3.5
 41
0.0
 71
     5
 72
     1
  1
1
  7
CONVERTER_11
 73
     1
 44
1.20048019207683
  0
MTEXT
  5
3E0
330
71
100
AcDbEntity
  8
1
 62
     7
100
AcDbMText
 10
75.98750019072884
 20
26.40948086390381
 30
0.0
 40
3.5
 41
0.0
 71
     5
 72
     1
  1
D
  7
CONVERTER_11
 73
     1
 44
1.20048019207683
  0
MTEXT
  5
3E1
330
71
100
AcDbEntity
  8
1
 62
     7
100
AcDbMText
 10
75.98750019072884
 20
128.9094808639057
 30
0.0
 40
3.5
 41
0.0
 71
     5
 72
     1
  1
B
  7
CONVERTER_11
 73
     1
 44
1.20048019207683
  0
MTEXT
  5
3E2
330
71
100
AcDbEntity
  8
1
 62
     7
100
AcDbMText
 10
75.98750019072884
 20
181.4094808639038
 30
0.0
 40
3.5
 41
0.0
 71
     5
 72
     1
  1
A
  7
CONVERTER_11
 73
     1
 44
1.20048019207683
  0
MTEXT
  5
3E3
330
71
100
AcDbEntity
  8
1
 62
     7
100
AcDbMText
 10
75.98750019072884
 20
78.90948086390571
 30
0.0
 40
3.5
 41
0.0
 71
     5
 72
     1
  1
C
  7
CONVERTER_11
 73
     1
 44
1.20048019207683
  0
MTEXT
  5
3E4
330
71
100
AcDbEntity
  8
1
 62
     2
100
AcDbMText
 10
-90.49531906106768
 20
16.65948086390372
 30
0.0
 40
2.0
 41
0.0
 71
     5
 72
     1
  1
General Information\P- Simplified representation\P- Document excluded from change process\P- Linear dimensions [mm]
  7
CONVERTER_11
 73
     1
 44
1.20048019207683
  0
TEXT
  5
3E5
330
71
100
AcDbEntity
  8
1
 62
     7
100
AcDbText
 10
-18.15730433602045
 20
13.70948086390371
 30
0.0
 40
2.5
  1
0790491
 41
0.81
  7
CONVERTER_12
100
AcDbText
  0
MTEXT
  5
3E6
330
71
100
AcDbEntity
  8
1
 62
     2
100
AcDbMText
 10
-18.55730433602017
 20
19.90948086390381
 30
0.0
 40
1.8
 41
0.0
 71
     1
 72
     1
  1
ident.-No.
  7
CONVERTER_11
 73
     1
 44
1.20048019207683
  0
MTEXT
  5
3E7
330
71
100
AcDbEntity
  8
1
 62
     2
100
AcDbMText
 10
65.66909190905255
 20
28.40948086390381
 30
0.0
 40
1.8
 41
0.0
 71
     1
 72
     1
  1
scale
  7
CONVERTER_11
 73
     1
 44
1.20048019207683
  0
MTEXT
  5
3E9
330
71
100
AcDbEntity
  8
1
 62
     3
100
AcDbMText
 10
69.02829604989215
 20
22.20948086390391
 30
0.0
 40
2.5
 41
0.0
 71
     8
 72
     1
  1
1:1
  7
CONVERTER_13
 73
     1
 44
1.32052821128451
  0
TEXT
  5
3EA
330
71
100
AcDbEntity
  8
1
 62
     7
100
AcDbText
 10
-18.55730433602017
 20
22.20948086390371
 30
0.0
 40
2.5
  1
00448258
 41
0.81
  7
CONVERTER_12
100
AcDbText
  0
MTEXT
  5
3EC
330
71
100
AcDbEntity
  8
1
 62
     2
100
AcDbMText
 10
-18.55730433602017
 20
28.40948086390381
 30
0.0
 40
1.8
 41
0.0
 71
     1
 72
     1
  1
document-No. / RI
  7
CONVERTER_14
 73
     1
 44
1.32052821128451
  0
TEXT
  5
3ED
330
71
100
AcDbEntity
  8
1
 62
     3
100
AcDbText
 10
9.24269566397984
 20
13.70948086390371
 30
0.0
 40
2.5
  1
TECDOC 2D_Productdrawing
 41
0.81
  7
CONVERTER_12
100
AcDbText
  0
MTEXT
  5
3EE
330
71
100
AcDbEntity
  8
1
 62
     2
100
AcDbMText
 10
9.24269566397984
 20
19.90948086390372
 30
0.0
 40
1.8
 41
0.0
 71
     1
 72
     1
  1
document-type
  7
CONVERTER_11
 73
     1
 44
1.20048019207683
  0
MTEXT
  5
3EF
330
71
100
AcDbEntity
  8
1
 62
     2
100
AcDbMText
 10
39.06909190905273
 20
28.40948086390372
 30
0.0
 40
1.8
 41
0.0
 71
     1
 72
     1
  1
date
  7
CONVERTER_11
 73
     1
 44
1.32052821128451
  0
TEXT
  5
3F0
330
71
100
AcDbEntity
  8
1
 62
     3
100
AcDbText
 10
39.06909190905273
 20
22.20948086390371
 30
0.0
 40
2.5
  1
14.12.2017
 41
0.81
  7
CONVERTER_12
100
AcDbText
  0
TEXT
  5
3F1
330
71
100
AcDbEntity
  8
1
 62
     7
100
AcDbText
 10
1.47260788303564
 20
22.20948086390371
 30
0.0
 40
2.5
  1
01
 41
0.81
  7
CONVERTER_12
100
AcDbText
  0
TEXT
  5
3F2
330
71
100
AcDbEntity
  8
1
 62
     7
100
AcDbText
 10
-0.68375661400637
 20
22.20948086390371
 30
0.0
 40
2.5
  1
/
 41
0.9
  7
CONVERTER_11
100
AcDbText
  0
HATCH
  5
3F3
330
71
100
AcDbEntity
  8
1
  6
Continuous
 62
     2
100
AcDbHatch
 10
0.0
 20
0.0
 30
0.0
210
0.0
220
0.0
230
1.0
  2
_USER
 70
     0
 71
     1
 91
        1
 92
        1
 93
       12
 72
     1
 10
-38.38980362305907
 20
14.56217134009441
 11
-39.58259632522547
 21
14.56217134009441
 72
     1
 10
-39.58259632522547
 20
14.56217134009441
 11
-39.58259632522547
 21
15.69644344893823
 72
     1
 10
-39.58259632522547
 20
15.69644344893823
 11
-40.63225390313295
 21
15.69644344893823
 72
     1
 10
-40.63225390313295
 20
15.69644344893823
 11
-40.63225390313295
 21
14.56217134009441
 72
     1
 10
-40.63225390313295
 20
14.56217134009441
 11
-41.82504660529955
 21
14.56217134009441
 72
     1
 10
-41.82504660529955
 20
14.56217134009441
 11
-41.82504660529955
 21
17.61598086390561
 72
     1
 10
-41.82504660529955
 20
17.61598086390561
 11
-40.63225390313295
 21
17.61598086390561
 72
     1
 10
-40.63225390313295
 20
17.61598086390561
 11
-40.63225390313295
 21
16.54714753057101
 72
     1
 10
-40.63225390313295
 20
16.54714753057101
 11
-39.58259632522547
 21
16.54714753057101
 72
     1
 10
-39.58259632522547
 20
16.54714753057101
 11
-39.58259632522547
 21
17.61598086390561
 72
     1
 10
-39.58259632522547
 20
17.61598086390561
 11
-38.38980362305907
 21
17.61598086390561
 72
     1
 10
-38.38980362305907
 20
17.61598086390561
 11
-38.38980362305907
 21
14.56217134009441
 97
       12
330
360
330
361
330
34B
330
34A
330
349
330
35D
330
348
330
35E
330
35F
330
347
330
346
330
345
 75
     1
 76
     0
 52
45.0
 41
0.1
 77
     0
 78
     1
 53
45.0
 43
0.0
 44
0.0
 45
-0.0707106781186548
 46
0.0707106781186548
 79
     0
 98
        1
 10
0.0
 20
0.0
  0
HATCH
  5
3F4
330
71
100
AcDbEntity
  8
1
  6
Continuous
 62
     2
100
AcDbHatch
 10
0.0
 20
0.0
 30
0.0
210
0.0
220
0.0
230
1.0
  2
_USER
 70
     0
 71
     1
 91
        1
 92
        1
 93
       12
 72
     1
 10
-38.38980362305907
 20
14.56217134009441
 11
-39.58259632522547
 21
14.56217134009441
 72
     1
 10
-39.58259632522547
 20
14.56217134009441
 11
-39.58259632522547
 21
15.69644344893823
 72
     1
 10
-39.58259632522547
 20
15.69644344893823
 11
-40.63225390313295
 21
15.69644344893823
 72
     1
 10
-40.63225390313295
 20
15.69644344893823
 11
-40.63225390313295
 21
14.56217134009441
 72
     1
 10
-40.63225390313295
 20
14.56217134009441
 11
-41.82504660529955
 21
14.56217134009441
 72
     1
 10
-41.82504660529955
 20
14.56217134009441
 11
-41.82504660529955
 21
17.61598086390561
 72
     1
 10
-41.82504660529955
 20
17.61598086390561
 11
-40.63225390313295
 21
17.61598086390561
 72
     1
 10
-40.63225390313295
 20
17.61598086390561
 11
-40.63225390313295
 21
16.54714753057101
 72
     1
 10
-40.63225390313295
 20
16.54714753057101
 11
-39.58259632522547
 21
16.54714753057101
 72
     1
 10
-39.58259632522547
 20
16.54714753057101
 11
-39.58259632522547
 21
17.61598086390561
 72
     1
 10
-39.58259632522547
 20
17.61598086390561
 11
-38.38980362305907
 21
17.61598086390561
 72
     1
 10
-38.38980362305907
 20
17.61598086390561
 11
-38.38980362305907
 21
14.56217134009441
 97
       12
330
360
330
361
330
34B
330
34A
330
349
330
35D
330
348
330
35E
330
35F
330
347
330
346
330
345
 75
     1
 76
     0
 52
45.0
 41
0.1
 77
     0
 78
     1
 53
45.0
 43
0.0
 44
0.0
 45
-0.0707106781186548
 46
0.0707106781186548
 79
     0
 98
        1
 10
0.0
 20
0.0
  0
HATCH
  5
3F5
330
71
100
AcDbEntity
  8
1
  6
Continuous
 62
     2
100
AcDbHatch
 10
0.0
 20
0.0
 30
0.0
210
0.0
220
0.0
230
1.0
  2
_USER
 70
     0
 71
     1
 91
        1
 92
        1
 93
       10
 72
     1
 10
-36.14750427387077
 20
12.94801487752611
 11
-37.38800868412366
 21
14.2567903877312
 72
     1
 10
-37.38800868412366
 20
14.2567903877312
 11
-38.58080138629126
 21
14.2567903877312
 72
     1
 10
-38.58080138629126
 20
14.2567903877312
 11
-38.58080138629126
 21
11.20298086392012
 72
     1
 10
-38.58080138629126
 20
11.20298086392012
 11
-37.38800868412366
 21
11.20298086392012
 72
     1
 10
-37.38800868412366
 20
11.20298086392012
 11
-37.38800868412366
 21
12.5117563741247
 72
     1
 10
-37.38800868412366
 20
12.5117563741247
 11
-36.14750427387077
 21
11.20298086392012
 72
     1
 10
-36.14750427387077
 20
11.20298086392012
 11
-34.95471157170437
 21
11.20298086392012
 72
     1
 10
-34.95471157170437
 20
11.20298086392012
 11
-34.95471157170437
 21
14.2567903877312
 72
     1
 10
-34.95471157170437
 20
14.2567903877312
 11
-36.14750427387077
 21
14.2567903877312
 72
     1
 10
-36.14750427387077
 20
14.2567903877312
 11
-36.14750427387077
 21
12.94801487752611
 97
       10
330
36E
330
33E
330
33D
330
340
330
369
330
36A
330
33F
330
36B
330
36C
330
36D
 75
     1
 76
     0
 52
45.0
 41
0.1
 77
     0
 78
     1
 53
45.0
 43
0.0
 44
0.0
 45
-0.0707106781186548
 46
0.0707106781186548
 79
     0
 98
        1
 10
0.0
 20
0.0
  0
HATCH
  5
3F6
330
71
100
AcDbEntity
  8
1
  6
Continuous
 62
     2
100
AcDbHatch
 10
0.0
 20
0.0
 30
0.0
210
0.0
220
0.0
230
1.0
  2
_USER
 70
     0
 71
     1
 91
        1
 92
        1
 93
       10
 72
     1
 10
-36.14750427387077
 20
12.94801487752611
 11
-37.38800868412366
 21
14.2567903877312
 72
     1
 10
-37.38800868412366
 20
14.2567903877312
 11
-38.58080138629126
 21
14.2567903877312
 72
     1
 10
-38.58080138629126
 20
14.2567903877312
 11
-38.58080138629126
 21
11.20298086392012
 72
     1
 10
-38.58080138629126
 20
11.20298086392012
 11
-37.38800868412366
 21
11.20298086392012
 72
     1
 10
-37.38800868412366
 20
11.20298086392012
 11
-37.38800868412366
 21
12.5117563741247
 72
     1
 10
-37.38800868412366
 20
12.5117563741247
 11
-36.14750427387077
 21
11.20298086392012
 72
     1
 10
-36.14750427387077
 20
11.20298086392012
 11
-34.95471157170437
 21
11.20298086392012
 72
     1
 10
-34.95471157170437
 20
11.20298086392012
 11
-34.95471157170437
 21
14.2567903877312
 72
     1
 10
-34.95471157170437
 20
14.2567903877312
 11
-36.14750427387077
 21
14.2567903877312
 72
     1
 10
-36.14750427387077
 20
14.2567903877312
 11
-36.14750427387077
 21
12.94801487752611
 97
       10
330
36E
330
33E
330
33D
330
340
330
369
330
36A
330
33F
330
36B
330
36C
330
36D
 75
     1
 76
     0
 52
45.0
 41
0.1
 77
     0
 78
     1
 53
45.0
 43
0.0
 44
0.0
 45
-0.0707106781186548
 46
0.0707106781186548
 79
     0
 98
        1
 10
0.0
 20
0.0
  0
HATCH
  5
3F7
330
71
100
AcDbEntity
  8
1
  6
Continuous
 62
     2
100
AcDbHatch
 10
0.0
 20
0.0
 30
0.0
210
0.0
220
0.0
230
1.0
  2
_USER
 70
     0
 71
     1
 91
        1
 92
        1
 93
       10
 72
     1
 10
-30.89906545345104
 20
16.30720535370043
 11
-32.13956986370505
 21
17.61598086390561
 72
     1
 10
-32.13956986370505
 20
17.61598086390561
 11
-33.33236256587156
 21
17.61598086390561
 72
     1
 10
-33.33236256587156
 20
17.61598086390561
 11
-33.33236256587156
 21
14.56217134009441
 72
     1
 10
-33.33236256587156
 20
14.56217134009441
 11
-32.13956986370505
 21
14.56217134009441
 72
     1
 10
-32.13956986370505
 20
14.56217134009441
 11
-32.13956986370505
 21
15.87094685029911
 72
     1
 10
-32.13956986370505
 20
15.87094685029911
 11
-30.89906545345104
 21
14.56217134009441
 72
     1
 10
-30.89906545345104
 20
14.56217134009441
 11
-29.70627275128445
 21
14.56217134009441
 72
     1
 10
-29.70627275128445
 20
14.56217134009441
 11
-29.70627275128445
 21
17.61598086390561
 72
     1
 10
-29.70627275128445
 20
17.61598086390561
 11
-30.89906545345104
 21
17.61598086390561
 72
     1
 10
-30.89906545345104
 20
17.61598086390561
 11
-30.89906545345104
 21
16.30720535370043
 97
       10
330
373
330
33B
330
33A
330
374
330
339
330
36F
330
370
330
371
330
372
330
33C
 75
     1
 76
     0
 52
45.0
 41
0.1
 77
     0
 78
     1
 53
45.0
 43
0.0
 44
0.0
 45
-0.0707106781186548
 46
0.0707106781186548
 79
     0
 98
        1
 10
0.0
 20
0.0
  0
HATCH
  5
3F8
330
71
100
AcDbEntity
  8
1
  6
Continuous
 62
     2
100
AcDbHatch
 10
0.0
 20
0.0
 30
0.0
210
0.0
220
0.0
230
1.0
  2
_USER
 70
     0
 71
     1
 91
        1
 92
        1
 93
       10
 72
     1
 10
-30.89906545345104
 20
16.30720535370043
 11
-32.13956986370505
 21
17.61598086390561
 72
     1
 10
-32.13956986370505
 20
17.61598086390561
 11
-33.33236256587156
 21
17.61598086390561
 72
     1
 10
-33.33236256587156
 20
17.61598086390561
 11
-33.33236256587156
 21
14.56217134009441
 72
     1
 10
-33.33236256587156
 20
14.56217134009441
 11
-32.13956986370505
 21
14.56217134009441
 72
     1
 10
-32.13956986370505
 20
14.56217134009441
 11
-32.13956986370505
 21
15.87094685029911
 72
     1
 10
-32.13956986370505
 20
15.87094685029911
 11
-30.89906545345104
 21
14.56217134009441
 72
     1
 10
-30.89906545345104
 20
14.56217134009441
 11
-29.70627275128445
 21
14.56217134009441
 72
     1
 10
-29.70627275128445
 20
14.56217134009441
 11
-29.70627275128445
 21
17.61598086390561
 72
     1
 10
-29.70627275128445
 20
17.61598086390561
 11
-30.89906545345104
 21
17.61598086390561
 72
     1
 10
-30.89906545345104
 20
17.61598086390561
 11
-30.89906545345104
 21
16.30720535370043
 97
       10
330
373
330
33B
330
33A
330
374
330
339
330
36F
330
370
330
371
330
372
330
33C
 75
     1
 76
     0
 52
45.0
 41
0.1
 77
     0
 78
     1
 53
45.0
 43
0.0
 44
0.0
 45
-0.0707106781186548
 46
0.0707106781186548
 79
     0
 98
        1
 10
0.0
 20
0.0
  0
HATCH
  5
3F9
330
71
100
AcDbEntity
  8
1
  6
Continuous
 62
     2
100
AcDbHatch
 10
0.0
 20
0.0
 30
0.0
210
0.0
220
0.0
230
1.0
  2
_USER
 70
     0
 71
     1
 91
        1
 92
        1
 93
        8
 72
     1
 10
-31.99658567033055
 20
14.2567903877312
 11
-34.81157644744417
 21
14.2567903877312
 72
     1
 10
-34.81157644744417
 20
14.2567903877312
 11
-34.81157644744417
 21
13.47152508160761
 72
     1
 10
-34.81157644744417
 20
13.47152508160761
 11
-34.00047740996956
 21
13.47152508160761
 72
     1
 10
-34.00047740996956
 20
13.47152508160761
 11
-34.00047740996956
 21
11.20298086392012
 72
     1
 10
-34.00047740996956
 20
11.20298086392012
 11
-32.80768470780305
 21
11.20298086392012
 72
     1
 10
-32.80768470780305
 20
11.20298086392012
 11
-32.80768470780305
 21
13.47152508160761
 72
     1
 10
-32.80768470780305
 20
13.47152508160761
 11
-31.99658567033055
 21
13.47152508160761
 72
     1
 10
-31.99658567033055
 20
13.47152508160761
 11
-31.99658567033055
 21
14.2567903877312
 97
        8
330
335
330
375
330
334
330
376
330
377
330
338
330
337
330
336
 75
     1
 76
     0
 52
45.0
 41
0.1
 77
     0
 78
     1
 53
45.0
 43
0.0
 44
0.0
 45
-0.0707106781186548
 46
0.0707106781186548
 79
     0
 98
        1
 10
0.0
 20
0.0
  0
HATCH
  5
3FA
330
71
100
AcDbEntity
  8
1
  6
Continuous
 62
     2
100
AcDbHatch
 10
0.0
 20
0.0
 30
0.0
210
0.0
220
0.0
230
1.0
  2
_USER
 70
     0
 71
     1
 91
        1
 92
        1
 93
        8
 72
     1
 10
-31.99658567033055
 20
14.2567903877312
 11
-34.81157644744417
 21
14.2567903877312
 72
     1
 10
-34.81157644744417
 20
14.2567903877312
 11
-34.81157644744417
 21
13.47152508160761
 72
     1
 10
-34.81157644744417
 20
13.47152508160761
 11
-34.00047740996956
 21
13.47152508160761
 72
     1
 10
-34.00047740996956
 20
13.47152508160761
 11
-34.00047740996956
 21
11.20298086392012
 72
     1
 10
-34.00047740996956
 20
11.20298086392012
 11
-32.80768470780305
 21
11.20298086392012
 72
     1
 10
-32.80768470780305
 20
11.20298086392012
 11
-32.80768470780305
 21
13.47152508160761
 72
     1
 10
-32.80768470780305
 20
13.47152508160761
 11
-31.99658567033055
 21
13.47152508160761
 72
     1
 10
-31.99658567033055
 20
13.47152508160761
 11
-31.99658567033055
 21
14.2567903877312
 97
        8
330
335
330
375
330
334
330
376
330
377
330
338
330
337
330
336
 75
     1
 76
     0
 52
45.0
 41
0.1
 77
     0
 78
     1
 53
45.0
 43
0.0
 44
0.0
 45
-0.0707106781186548
 46
0.0707106781186548
 79
     0
 98
        1
 10
0.0
 20
0.0
  0
HATCH
  5
3FB
330
71
100
AcDbEntity
  8
1
  6
Continuous
 62
     2
100
AcDbHatch
 10
0.0
 20
0.0
 30
0.0
210
0.0
220
0.0
230
1.0
  2
_USER
 70
     0
 71
     1
 91
        2
 92
        1
 93
        8
 72
     1
 10
-29.85815821438357
 20
11.20298086392012
 11
-30.06963826785935
 21
11.743941408138
 72
     1
 10
-30.06963826785935
 20
11.743941408138
 11
-31.20207984453316
 21
11.743941408138
 72
     1
 10
-31.20207984453316
 20
11.743941408138
 11
-31.41355989800897
 21
11.20298086392012
 72
     1
 10
-31.41355989800897
 20
11.20298086392012
 11
-32.65406430826195
 21
11.20298086392012
 72
     1
 10
-32.65406430826195
 20
11.20298086392012
 11
-31.25611126132264
 21
14.2567903877312
 72
     1
 10
-31.25611126132264
 20
14.2567903877312
 11
-30.01560685106995
 21
14.2567903877312
 72
     1
 10
-30.01560685106995
 20
14.2567903877312
 11
-28.61765380412965
 21
11.20298086392012
 72
     1
 10
-28.61765380412965
 20
11.20298086392012
 11
-29.85815821438357
 21
11.20298086392012
 97
        8
330
379
330
37A
330
331
330
37B
330
330
330
333
330
378
330
332
 92
       16
 93
        3
 72
     1
 10
-30.93602429338816
 20
12.4245046734446
 11
-30.63585905619576
 21
13.1923196394313
 72
     1
 10
-30.63585905619576
 20
13.1923196394313
 11
-30.33569381900566
 21
12.4245046734446
 72
     1
 10
-30.33569381900566
 20
12.4245046734446
 11
-30.93602429338816
 21
12.4245046734446
 97
        3
330
32F
330
37D
330
37C
 75
     1
 76
     0
 52
45.0
 41
0.1
 77
     0
 78
     1
 53
45.0
 43
0.0
 44
0.0
 45
-0.0707106781186548
 46
0.0707106781186548
 79
     0
 98
        1
 10
0.0
 20
0.0
  0
HATCH
  5
3FC
330
71
100
AcDbEntity
  8
1
  6
Continuous
 62
     2
100
AcDbHatch
 10
0.0
 20
0.0
 30
0.0
210
0.0
220
0.0
230
1.0
  2
_USER
 70
     0
 71
     1
 91
        2
 92
        1
 93
        8
 72
     1
 10
-29.85815821438357
 20
11.20298086392012
 11
-30.06963826785935
 21
11.743941408138
 72
     1
 10
-30.06963826785935
 20
11.743941408138
 11
-31.20207984453316
 21
11.743941408138
 72
     1
 10
-31.20207984453316
 20
11.743941408138
 11
-31.41355989800897
 21
11.20298086392012
 72
     1
 10
-31.41355989800897
 20
11.20298086392012
 11
-32.65406430826195
 21
11.20298086392012
 72
     1
 10
-32.65406430826195
 20
11.20298086392012
 11
-31.25611126132264
 21
14.2567903877312
 72
     1
 10
-31.25611126132264
 20
14.2567903877312
 11
-30.01560685106995
 21
14.2567903877312
 72
     1
 10
-30.01560685106995
 20
14.2567903877312
 11
-28.61765380412965
 21
11.20298086392012
 72
     1
 10
-28.61765380412965
 20
11.20298086392012
 11
-29.85815821438357
 21
11.20298086392012
 97
        8
330
379
330
37A
330
331
330
37B
330
330
330
333
330
378
330
332
 92
       16
 93
        3
 72
     1
 10
-30.93602429338816
 20
12.4245046734446
 11
-30.63585905619576
 21
13.1923196394313
 72
     1
 10
-30.63585905619576
 20
13.1923196394313
 11
-30.33569381900566
 21
12.4245046734446
 72
     1
 10
-30.33569381900566
 20
12.4245046734446
 11
-30.93602429338816
 21
12.4245046734446
 97
        3
330
32F
330
37D
330
37C
 75
     1
 76
     0
 52
45.0
 41
0.1
 77
     0
 78
     1
 53
45.0
 43
0.0
 44
0.0
 45
-0.0707106781186548
 46
0.0707106781186548
 79
     0
 98
        1
 10
0.0
 20
0.0
  0
HATCH
  5
3FD
330
71
100
AcDbEntity
  8
1
  6
Continuous
 62
     2
100
AcDbHatch
 10
0.0
 20
0.0
 30
0.0
210
0.0
220
0.0
230
1.0
  2
_USER
 70
     0
 71
     1
 91
        1
 92
        1
 93
        4
 72
     1
 10
-28.22720980059765
 20
14.56217134009441
 11
-29.46771421085055
 21
14.56217134009441
 72
     1
 10
-29.46771421085055
 20
14.56217134009441
 11
-29.46771421085055
 21
17.61598086390561
 72
     1
 10
-29.46771421085055
 20
17.61598086390561
 11
-28.22720980059765
 21
17.61598086390561
 72
     1
 10
-28.22720980059765
 20
17.61598086390561
 11
-28.22720980059765
 21
14.56217134009441
 97
        4
330
32C
330
32E
330
37E
330
32D
 75
     1
 76
     0
 52
45.0
 41
0.1
 77
     0
 78
     1
 53
45.0
 43
0.0
 44
0.0
 45
-0.0707106781186548
 46
0.0707106781186548
 79
     0
 98
        1
 10
0.0
 20
0.0
  0
HATCH
  5
3FE
330
71
100
AcDbEntity
  8
1
  6
Continuous
 62
     2
100
AcDbHatch
 10
0.0
 20
0.0
 30
0.0
210
0.0
220
0.0
230
1.0
  2
_USER
 70
     0
 71
     1
 91
        1
 92
        1
 93
        4
 72
     1
 10
-28.22720980059765
 20
14.56217134009441
 11
-29.46771421085055
 21
14.56217134009441
 72
     1
 10
-29.46771421085055
 20
14.56217134009441
 11
-29.46771421085055
 21
17.61598086390561
 72
     1
 10
-29.46771421085055
 20
17.61598086390561
 11
-28.22720980059765
 21
17.61598086390561
 72
     1
 10
-28.22720980059765
 20
17.61598086390561
 11
-28.22720980059765
 21
14.56217134009441
 97
        4
330
32C
330
32E
330
37E
330
32D
 75
     1
 76
     0
 52
45.0
 41
0.1
 77
     0
 78
     1
 53
45.0
 43
0.0
 44
0.0
 45
-0.0707106781186548
 46
0.0707106781186548
 79
     0
 98
        1
 10
0.0
 20
0.0
  0
HATCH
  5
3FF
330
71
100
AcDbEntity
  8
1
  6
Continuous
 62
     2
100
AcDbHatch
 10
0.0
 20
0.0
 30
0.0
210
0.0
220
0.0
230
1.0
  2
_USER
 70
     0
 71
     1
 91
        1
 92
        1
 93
       12
 72
     1
 10
-24.00472363492685
 20
17.61598086390561
 11
-25.30725326569336
 21
16.14303033386941
 72
     1
 10
-25.30725326569336
 20
16.14303033386941
 11
-23.90930021875306
 21
14.56217134009441
 72
     1
 10
-23.90930021875306
 20
14.56217134009441
 11
-25.31202443650136
 21
14.56217134009441
 72
     1
 10
-25.31202443650136
 20
14.56217134009441
 11
-26.00861537456686
 21
15.34990312538812
 72
     1
 10
-26.00861537456686
 20
15.34990312538812
 11
-26.70520631263256
 21
14.56217134009441
 72
     1
 10
-26.70520631263256
 20
14.56217134009441
 11
-28.10793053038077
 21
14.56217134009441
 72
     1
 10
-28.10793053038077
 20
14.56217134009441
 11
-26.70997748344047
 21
16.14303033386941
 72
     1
 10
-26.70997748344047
 20
16.14303033386941
 11
-28.01250711420795
 21
17.61598086390561
 72
     1
 10
-28.01250711420795
 20
17.61598086390561
 11
-26.60978289645865
 21
17.61598086390561
 72
     1
 10
-26.60978289645865
 20
17.61598086390561
 11
-26.00861537456686
 21
16.93615754235012
 72
     1
 10
-26.00861537456686
 20
16.93615754235012
 11
-25.40744785267407
 21
17.61598086390561
 72
     1
 10
-25.40744785267407
 20
17.61598086390561
 11
-24.00472363492685
 21
17.61598086390561
 97
       12
330
327
330
326
330
325
330
382
330
383
330
37F
330
380
330
32B
330
32A
330
329
330
328
330
381
 75
     1
 76
     0
 52
45.0
 41
0.1
 77
     0
 78
     1
 53
45.0
 43
0.0
 44
0.0
 45
-0.0707106781186548
 46
0.0707106781186548
 79
     0
 98
        1
 10
0.0
 20
0.0
  0
HATCH
  5
400
330
71
100
AcDbEntity
  8
1
  6
Continuous
 62
     2
100
AcDbHatch
 10
0.0
 20
0.0
 30
0.0
210
0.0
220
0.0
230
1.0
  2
_USER
 70
     0
 71
     1
 91
        1
 92
        1
 93
       12
 72
     1
 10
-24.00472363492685
 20
17.61598086390561
 11
-25.30725326569336
 21
16.14303033386941
 72
     1
 10
-25.30725326569336
 20
16.14303033386941
 11
-23.90930021875306
 21
14.56217134009441
 72
     1
 10
-23.90930021875306
 20
14.56217134009441
 11
-25.31202443650136
 21
14.56217134009441
 72
     1
 10
-25.31202443650136
 20
14.56217134009441
 11
-26.00861537456686
 21
15.34990312538812
 72
     1
 10
-26.00861537456686
 20
15.34990312538812
 11
-26.70520631263256
 21
14.56217134009441
 72
     1
 10
-26.70520631263256
 20
14.56217134009441
 11
-28.10793053038077
 21
14.56217134009441
 72
     1
 10
-28.10793053038077
 20
14.56217134009441
 11
-26.70997748344047
 21
16.14303033386941
 72
     1
 10
-26.70997748344047
 20
16.14303033386941
 11
-28.01250711420795
 21
17.61598086390561
 72
     1
 10
-28.01250711420795
 20
17.61598086390561
 11
-26.60978289645865
 21
17.61598086390561
 72
     1
 10
-26.60978289645865
 20
17.61598086390561
 11
-26.00861537456686
 21
16.93615754235012
 72
     1
 10
-26.00861537456686
 20
16.93615754235012
 11
-25.40744785267407
 21
17.61598086390561
 72
     1
 10
-25.40744785267407
 20
17.61598086390561
 11
-24.00472363492685
 21
17.61598086390561
 97
       12
330
327
330
326
330
325
330
382
330
383
330
37F
330
380
330
32B
330
32A
330
329
330
328
330
381
 75
     1
 76
     0
 52
45.0
 41
0.1
 77
     0
 78
     1
 53
45.0
 43
0.0
 44
0.0
 45
-0.0707106781186548
 46
0.0707106781186548
 79
     0
 98
        1
 10
0.0
 20
0.0
  0
HATCH
  5
401
330
71
100
AcDbEntity
  8
1
  6
Continuous
 62
     2
100
AcDbHatch
 10
0.0
 20
0.0
 30
0.0
210
0.0
220
0.0
230
1.0
  2
_USER
 70
     0
 71
     1
 91
        2
 92
        1
 93
        6
 72
     1
 10
-43.02245904907286
 20
15.50524958123822
 11
-43.78122663685315
 21
15.50524958123822
 72
     1
 10
-43.78122663685315
 20
15.50524958123822
 11
-43.78122663685315
 21
14.56217134009441
 72
     1
 10
-43.78122663685315
 20
14.56217134009441
 11
-45.02173104710727
 21
14.56217134009441
 72
     1
 10
-45.02173104710727
 20
14.56217134009441
 11
-45.02173104710727
 21
17.61598086390561
 72
     1
 10
-45.02173104710727
 20
17.61598086390561
 11
-43.02245904907286
 21
17.61598086390561
 72
     2
 10
-43.02245904907286
 20
16.56061522257193
 40
1.05536564133371
 50
270.0
 51
450.0
 73
     0
 97
        6
330
34F
330
34E
330
35B
330
35A
330
350
330
3A0
 92
       16
 93
        4
 72
     2
 10
-43.46393157531125
 20
16.60001119379442
 40
0.3528638246711182
 50
270.0
 51
450.0
 73
     1
 72
     1
 10
-43.46393157531125
 20
16.95287501846551
 11
-43.78122663685315
 21
16.95287501846551
 72
     1
 10
-43.78122663685315
 20
16.95287501846551
 11
-43.78122663685315
 21
16.2471473691233
 72
     1
 10
-43.78122663685315
 20
16.2471473691233
 11
-43.46393157531125
 21
16.2471473691233
 97
        4
330
3B4
330
34C
330
35C
330
34D
 75
     1
 76
     0
 52
45.0
 41
0.1
 77
     0
 78
     1
 53
45.0
 43
0.0
 44
0.0
 45
-0.0707106781186548
 46
0.0707106781186548
 79
     0
 98
        1
 10
0.0
 20
0.0
  0
HATCH
  5
402
330
71
100
AcDbEntity
  8
1
  6
Continuous
 62
     2
100
AcDbHatch
 10
0.0
 20
0.0
 30
0.0
210
0.0
220
0.0
230
1.0
  2
_USER
 70
     0
 71
     1
 91
        2
 92
        1
 93
        6
 72
     1
 10
-43.02245904907286
 20
15.50524958123822
 11
-43.78122663685315
 21
15.50524958123822
 72
     1
 10
-43.78122663685315
 20
15.50524958123822
 11
-43.78122663685315
 21
14.56217134009441
 72
     1
 10
-43.78122663685315
 20
14.56217134009441
 11
-45.02173104710727
 21
14.56217134009441
 72
     1
 10
-45.02173104710727
 20
14.56217134009441
 11
-45.02173104710727
 21
17.61598086390561
 72
     1
 10
-45.02173104710727
 20
17.61598086390561
 11
-43.02245904907286
 21
17.61598086390561
 72
     2
 10
-43.02245904907286
 20
16.56061522257193
 40
1.05536564133371
 50
270.0
 51
450.0
 73
     0
 97
        6
330
34F
330
34E
330
35B
330
35A
330
350
330
3A0
 92
       16
 93
        4
 72
     2
 10
-43.46393157531125
 20
16.60001119379442
 40
0.3528638246711182
 50
270.0
 51
450.0
 73
     1
 72
     1
 10
-43.46393157531125
 20
16.95287501846551
 11
-43.78122663685315
 21
16.95287501846551
 72
     1
 10
-43.78122663685315
 20
16.95287501846551
 11
-43.78122663685315
 21
16.2471473691233
 72
     1
 10
-43.78122663685315
 20
16.2471473691233
 11
-43.46393157531125
 21
16.2471473691233
 97
        4
330
3B4
330
34C
330
35C
330
34D
 75
     1
 76
     0
 52
45.0
 41
0.1
 77
     0
 78
     1
 53
45.0
 43
0.0
 44
0.0
 45
-0.0707106781186548
 46
0.0707106781186548
 79
     0
 98
        1
 10
0.0
 20
0.0
  0
HATCH
  5
403
330
71
100
AcDbEntity
  8
1
  6
Continuous
 62
     2
100
AcDbHatch
 10
0.0
 20
0.0
 30
0.0
210
0.0
220
0.0
230
1.0
  2
_USER
 70
     0
 71
     1
 91
        2
 92
        1
 93
        4
 72
     2
 10
-40.46591630071376
 20
12.19131061552261
 40
2.065479772208566
 50
62.45185182430634
 51
117.5481481756666
 73
     1
 72
     2
 10
-40.74685619254706
 20
12.7298856258254
 40
1.458034083651495
 50
117.5481481756626
 51
242.4518518243373
 73
     1
 72
     2
 10
-40.46591630071376
 20
13.26846063612871
 40
2.065479772208517
 50
242.4518518243401
 51
297.548148175687
 73
     1
 72
     2
 10
-40.18497640888046
 20
12.7298856258254
 40
1.458034083652003
 50
297.548148175701
 51
422.451851824299
 73
     1
 97
        4
330
3AC
330
3AB
330
3AD
330
3AA
 92
       16
 93
        4
 72
     2
 10
-40.66565633706017
 20
12.7298856258254
 40
0.7717997786796947
 50
321.8795802028417
 51
398.1204197971536
 73
     1
 72
     2
 10
-40.46591630071376
 20
12.88661680394591
 40
0.5179085730133021
 50
38.12041979714734
 51
141.8795802028585
 73
     1
 72
     2
 10
-40.26617626436766
 20
12.7298856258254
 40
0.7717997786794665
 50
141.879580202836
 51
218.1204197971687
 73
     1
 72
     2
 10
-40.46591630071376
 20
12.57315444770541
 40
0.5179085730137397
 50
218.1204197971938
 51
321.8795802028004
 73
     1
 97
        4
330
3C8
330
3C5
330
3C6
330
3C7
 75
     1
 76
     0
 52
45.0
 41
0.1
 77
     0
 78
     1
 53
45.0
 43
0.0
 44
0.0
 45
-0.0707106781186548
 46
0.0707106781186548
 79
     0
 98
        1
 10
0.0
 20
0.0
  0
HATCH
  5
404
330
71
100
AcDbEntity
  8
1
  6
Continuous
 62
     2
100
AcDbHatch
 10
0.0
 20
0.0
 30
0.0
210
0.0
220
0.0
230
1.0
  2
_USER
 70
     0
 71
     1
 91
        2
 92
        1
 93
        4
 72
     2
 10
-40.46591630071376
 20
12.19131061552261
 40
2.065479772208566
 50
62.45185182430634
 51
117.5481481756666
 73
     1
 72
     2
 10
-40.74685619254706
 20
12.7298856258254
 40
1.458034083651495
 50
117.5481481756626
 51
242.4518518243373
 73
     1
 72
     2
 10
-40.46591630071376
 20
13.26846063612871
 40
2.065479772208517
 50
242.4518518243401
 51
297.548148175687
 73
     1
 72
     2
 10
-40.18497640888046
 20
12.7298856258254
 40
1.458034083652003
 50
297.548148175701
 51
422.451851824299
 73
     1
 97
        4
330
3AC
330
3AB
330
3AD
330
3AA
 92
       16
 93
        4
 72
     2
 10
-40.66565633706017
 20
12.7298856258254
 40
0.7717997786796947
 50
321.8795802028417
 51
398.1204197971536
 73
     1
 72
     2
 10
-40.46591630071376
 20
12.88661680394591
 40
0.5179085730133021
 50
38.12041979714734
 51
141.8795802028585
 73
     1
 72
     2
 10
-40.26617626436766
 20
12.7298856258254
 40
0.7717997786794665
 50
141.879580202836
 51
218.1204197971687
 73
     1
 72
     2
 10
-40.46591630071376
 20
12.57315444770541
 40
0.5179085730137397
 50
218.1204197971938
 51
321.8795802028004
 73
     1
 97
        4
330
3C8
330
3C5
330
3C6
330
3C7
 75
     1
 76
     0
 52
45.0
 41
0.1
 77
     0
 78
     1
 53
45.0
 43
0.0
 44
0.0
 45
-0.0707106781186548
 46
0.0707106781186548
 79
     0
 98
        1
 10
0.0
 20
0.0
  0
HATCH
  5
405
330
71
100
AcDbEntity
  8
1
  6
Continuous
 62
     2
100
AcDbHatch
 10
0.0
 20
0.0
 30
0.0
210
0.0
220
0.0
230
1.0
  2
_USER
 70
     0
 71
     1
 91
        2
 92
        1
 93
       12
 72
     1
 10
-33.57092110630447
 20
16.91796725846263
 11
-34.90684893273215
 21
16.91796725846263
 72
     1
 10
-34.90684893273215
 20
16.91796725846263
 11
-34.90684893273215
 21
16.43808290472092
 72
     1
 10
-34.90684893273215
 20
16.43808290472092
 11
-33.57092110630447
 21
16.43808290472092
 72
     1
 10
-33.57092110630447
 20
16.43808290472092
 11
-33.57092110630447
 21
15.74006929927862
 72
     1
 10
-33.57092110630447
 20
15.74006929927862
 11
-34.90684893273215
 21
15.74006929927862
 72
     1
 10
-34.90684893273215
 20
15.74006929927862
 11
-34.90684893273215
 21
15.26018494553691
 72
     1
 10
-34.90684893273215
 20
15.26018494553691
 11
-33.57092110630447
 21
15.26018494553691
 72
     1
 10
-33.57092110630447
 20
15.26018494553691
 11
-33.57092110630447
 21
14.56217134009441
 72
     1
 10
-33.57092110630447
 20
14.56217134009441
 11
-36.72124083008546
 21
14.56217134009441
 72
     2
 10
-36.72124083008546
 20
16.08907610199972
 40
1.52690476190589
 50
90.0
 51
270.0
 73
     0
 72
     1
 10
-36.72124083008546
 20
17.61598086390561
 11
-33.57092110630447
 21
17.61598086390561
 72
     1
 10
-33.57092110630447
 20
17.61598086390561
 11
-33.57092110630447
 21
16.91796725846263
 97
       12
330
363
330
3B5
330
364
330
365
330
366
330
367
330
344
330
343
330
342
330
341
330
368
330
362
 92
       16
 93
        4
 72
     2
 10
-36.50496881992027
 20
16.2458072801202
 40
0.5179085730135321
 50
38.12041979714286
 51
141.8795802028484
 73
     1
 72
     2
 10
-36.30522878357397
 20
16.08907610199972
 40
0.7717997786796668
 50
141.8795802028401
 51
218.1204197971564
 73
     1
 72
     2
 10
-36.50496881992027
 20
15.9323449238793
 40
0.5179085730134326
 50
218.1204197971517
 51
321.879580202857
 73
     1
 72
     2
 10
-36.70470885626645
 20
16.08907610199972
 40
0.7717997786796351
 50
321.879580202844
 51
398.1204197971596
 73
     1
 97
        4
330
3AF
330
3AE
330
3A9
330
3A8
 75
     1
 76
     0
 52
45.0
 41
0.1
 77
     0
 78
     1
 53
45.0
 43
0.0
 44
0.0
 45
-0.0707106781186548
 46
0.0707106781186548
 79
     0
 98
        1
 10
0.0
 20
0.0
  0
HATCH
  5
406
330
71
100
AcDbEntity
  8
1
  6
Continuous
 62
     2
100
AcDbHatch
 10
0.0
 20
0.0
 30
0.0
210
0.0
220
0.0
230
1.0
  2
_USER
 70
     0
 71
     1
 91
        2
 92
        1
 93
       12
 72
     1
 10
-33.57092110630447
 20
16.91796725846263
 11
-34.90684893273215
 21
16.91796725846263
 72
     1
 10
-34.90684893273215
 20
16.91796725846263
 11
-34.90684893273215
 21
16.43808290472092
 72
     1
 10
-34.90684893273215
 20
16.43808290472092
 11
-33.57092110630447
 21
16.43808290472092
 72
     1
 10
-33.57092110630447
 20
16.43808290472092
 11
-33.57092110630447
 21
15.74006929927862
 72
     1
 10
-33.57092110630447
 20
15.74006929927862
 11
-34.90684893273215
 21
15.74006929927862
 72
     1
 10
-34.90684893273215
 20
15.74006929927862
 11
-34.90684893273215
 21
15.26018494553691
 72
     1
 10
-34.90684893273215
 20
15.26018494553691
 11
-33.57092110630447
 21
15.26018494553691
 72
     1
 10
-33.57092110630447
 20
15.26018494553691
 11
-33.57092110630447
 21
14.56217134009441
 72
     1
 10
-33.57092110630447
 20
14.56217134009441
 11
-36.72124083008546
 21
14.56217134009441
 72
     2
 10
-36.72124083008546
 20
16.08907610199972
 40
1.52690476190589
 50
90.0
 51
270.0
 73
     0
 72
     1
 10
-36.72124083008546
 20
17.61598086390561
 11
-33.57092110630447
 21
17.61598086390561
 72
     1
 10
-33.57092110630447
 20
17.61598086390561
 11
-33.57092110630447
 21
16.91796725846263
 97
       12
330
363
330
3B5
330
364
330
365
330
366
330
367
330
344
330
343
330
342
330
341
330
368
330
362
 92
       16
 93
        4
 72
     2
 10
-36.50496881992027
 20
16.2458072801202
 40
0.5179085730135321
 50
38.12041979714286
 51
141.8795802028484
 73
     1
 72
     2
 10
-36.30522878357397
 20
16.08907610199972
 40
0.7717997786796668
 50
141.8795802028401
 51
218.1204197971564
 73
     1
 72
     2
 10
-36.50496881992027
 20
15.9323449238793
 40
0.5179085730134326
 50
218.1204197971517
 51
321.879580202857
 73
     1
 72
     2
 10
-36.70470885626645
 20
16.08907610199972
 40
0.7717997786796351
 50
321.879580202844
 51
398.1204197971596
 73
     1
 97
        4
330
3AF
330
3AE
330
3A9
330
3A8
 75
     1
 76
     0
 52
45.0
 41
0.1
 77
     0
 78
     1
 53
45.0
 43
0.0
 44
0.0
 45
-0.0707106781186548
 46
0.0707106781186548
 79
     0
 98
        1
 10
0.0
 20
0.0
  0
HATCH
  5
407
330
71
100
AcDbEntity
  8
1
  6
Continuous
 62
     2
100
AcDbHatch
 10
0.0
 20
0.0
 30
0.0
210
0.0
220
0.0
230
1.0
  2
_USER
 70
     0
 71
     1
 91
        4
 92
        1
 93
        8
 72
     1
 10
-45.49884812797407
 20
17.19173624850362
 11
-45.49884812797407
 21
11.62722547930341
 72
     2
 10
-45.92309274335796
 20
11.62722547930341
 40
0.4242446153832908
 50
0.0
 51
90.0
 73
     0
 72
     1
 10
-45.92309274335796
 20
11.20298086392012
 11
-51.39640483407476
 21
11.20298086392012
 72
     2
 10
-51.39640483407476
 20
11.62722547930341
 40
0.4242446153828041
 50
90.0
 51
180.0
 73
     0
 72
     1
 10
-51.82064944945756
 20
11.62722547930341
 11
-51.82064944945756
 21
17.19173624850362
 72
     2
 10
-51.39640483407476
 20
17.19173624850362
 40
0.4242446153837989
 50
180.0
 51
270.0
 73
     0
 72
     1
 10
-51.39640483407476
 20
17.61598086388742
 11
-45.92309274335796
 21
17.61598086388742
 72
     2
 10
-45.92309274335796
 20
17.19173624850362
 40
0.4242446153838912
 50
270.0
 51
360.0
 73
     0
 97
        8
330
357
330
3A5
330
358
330
3B0
330
355
330
3A7
330
356
330
3A6
 92
       16
 93
        1
 72
     2
 10
-48.77681918355725
 20
14.87285402014811
 40
0.4709789327785074
 50
0.0
 51
360.0
 73
     1
 97
        1
330
3CB
 92
       16
 93
        8
 72
     2
 10
-48.22696147079657
 20
13.7637124201797
 40
0.3157169230765328
 50
115.3740086783519
 51
180.0
 73
     1
 72
     1
 10
-48.54267839387336
 20
13.7637124201797
 11
-48.54267839387336
 21
13.18186101348462
 72
     2
 10
-48.22696147079657
 20
13.18186101348462
 40
0.315716923076792
 50
180.0
 51
269.8110329574529
 73
     1
 72
     2
 10
-48.22134533548655
 20
14.88469596105361
 40
2.018561131933267
 50
269.8110329575858
 51
450.1889670424142
 73
     1
 72
     2
 10
-48.22696147079657
 20
16.58753090862271
 40
0.3157169230760746
 50
90.18896704254722
 51
180.0
 73
     1
 72
     1
 10
-48.54267839387336
 20
16.58753090862271
 11
-48.54267839387336
 21
15.98199562011592
 72
     2
 10
-48.22696147079657
 20
15.98199562011592
 40
0.315716923076792
 50
180.0
 51
244.6259913216475
 73
     1
 72
     2
 10
-48.75300416888445
 20
14.87285402014811
 40
0.9118481501444603
 50
295.3740086781928
 51
424.6259913218231
 73
     0
 97
        8
330
3BD
330
31E
330
3BA
330
3BB
330
399
330
31D
330
3BC
330
398
 92
       16
 93
       12
 72
     2
 10
-50.80251015732827
 20
12.23125334255371
 40
0.3157169230756907
 50
180.0
 51
270.0
 73
     1
 72
     1
 10
-50.80251015732827
 20
11.91553641947701
 11
-49.32667689631865
 21
11.91553641947701
 72
     2
 10
-49.32667689631865
 20
12.23125334255371
 40
0.3157169230766996
 50
270.0
 51
360.0
 73
     1
 72
     1
 10
-49.01095997324205
 20
12.23125334255371
 11
-49.01095997324205
 21
13.76202427408532
 72
     2
 10
-49.32667689631865
 20
13.76202427408532
 40
0.3157169230766002
 50
0.0
 51
64.8055893514591
 73
     1
 72
     2
 10
-48.80409244874366
 20
14.87285402014811
 40
0.911897523557621
 50
115.1944106485123
 51
244.805589351472
 73
     0
 72
     2
 10
-49.32667689631865
 20
15.98368376621031
 40
0.3157169230761233
 50
295.1944106485409
 51
360.0
 73
     1
 72
     1
 10
-49.01095997324205
 20
15.98368376621031
 11
-49.01095997324205
 21
16.58770838527082
 72
     2
 10
-49.32667689631865
 20
16.58770838527082
 40
0.3157169230766002
 50
0.0
 51
90.0
 73
     1
 72
     1
 10
-49.32667689631865
 20
16.90342530834701
 11
-50.80251015732827
 21
16.90342530834701
 72
     2
 10
-50.80251015732827
 20
16.58770838527082
 40
0.3157169230761916
 50
90.0
 51
180.0
 73
     1
 72
     1
 10
-51.11822708040396
 20
16.58770838527082
 11
-51.11822708040396
 21
12.23125334255371
 97
       12
330
3A1
330
359
330
3A4
330
354
330
3B1
330
3B2
330
3A3
330
353
330
3A2
330
352
330
3B3
330
351
 75
     1
 76
     0
 52
45.0
 41
0.1
 77
     0
 78
     1
 53
45.0
 43
0.0
 44
0.0
 45
-0.0707106781186548
 46
0.0707106781186548
 79
     0
 98
        1
 10
0.0
 20
0.0
  0
HATCH
  5
408
330
71
100
AcDbEntity
  8
1
  6
Continuous
 62
     2
100
AcDbHatch
 10
0.0
 20
0.0
 30
0.0
210
0.0
220
0.0
230
1.0
  2
_USER
 70
     0
 71
     1
 91
        4
 92
        1
 93
        8
 72
     1
 10
-45.49884812797407
 20
17.19173624850362
 11
-45.49884812797407
 21
11.62722547930341
 72
     2
 10
-45.92309274335796
 20
11.62722547930341
 40
0.4242446153832908
 50
0.0
 51
90.0
 73
     0
 72
     1
 10
-45.92309274335796
 20
11.20298086392012
 11
-51.39640483407476
 21
11.20298086392012
 72
     2
 10
-51.39640483407476
 20
11.62722547930341
 40
0.4242446153828041
 50
90.0
 51
180.0
 73
     0
 72
     1
 10
-51.82064944945756
 20
11.62722547930341
 11
-51.82064944945756
 21
17.19173624850362
 72
     2
 10
-51.39640483407476
 20
17.19173624850362
 40
0.4242446153837989
 50
180.0
 51
270.0
 73
     0
 72
     1
 10
-51.39640483407476
 20
17.61598086388742
 11
-45.92309274335796
 21
17.61598086388742
 72
     2
 10
-45.92309274335796
 20
17.19173624850362
 40
0.4242446153838912
 50
270.0
 51
360.0
 73
     0
 97
        8
330
357
330
3A5
330
358
330
3B0
330
355
330
3A7
330
356
330
3A6
 92
       16
 93
        1
 72
     2
 10
-48.77681918355725
 20
14.87285402014811
 40
0.4709789327785074
 50
0.0
 51
360.0
 73
     1
 97
        1
330
3CB
 92
       16
 93
        8
 72
     2
 10
-48.22696147079657
 20
13.7637124201797
 40
0.3157169230765328
 50
115.3740086783519
 51
180.0
 73
     1
 72
     1
 10
-48.54267839387336
 20
13.7637124201797
 11
-48.54267839387336
 21
13.18186101348462
 72
     2
 10
-48.22696147079657
 20
13.18186101348462
 40
0.315716923076792
 50
180.0
 51
269.8110329574529
 73
     1
 72
     2
 10
-48.22134533548655
 20
14.88469596105361
 40
2.018561131933267
 50
269.8110329575858
 51
450.1889670424142
 73
     1
 72
     2
 10
-48.22696147079657
 20
16.58753090862271
 40
0.3157169230760746
 50
90.18896704254722
 51
180.0
 73
     1
 72
     1
 10
-48.54267839387336
 20
16.58753090862271
 11
-48.54267839387336
 21
15.98199562011592
 72
     2
 10
-48.22696147079657
 20
15.98199562011592
 40
0.315716923076792
 50
180.0
 51
244.6259913216475
 73
     1
 72
     2
 10
-48.75300416888445
 20
14.87285402014811
 40
0.9118481501444603
 50
295.3740086781928
 51
424.6259913218231
 73
     0
 97
        8
330
3BD
330
31E
330
3BA
330
3BB
330
399
330
31D
330
3BC
330
398
 92
       16
 93
       12
 72
     2
 10
-50.80251015732827
 20
12.23125334255371
 40
0.3157169230756907
 50
180.0
 51
270.0
 73
     1
 72
     1
 10
-50.80251015732827
 20
11.91553641947701
 11
-49.32667689631865
 21
11.91553641947701
 72
     2
 10
-49.32667689631865
 20
12.23125334255371
 40
0.3157169230766996
 50
270.0
 51
360.0
 73
     1
 72
     1
 10
-49.01095997324205
 20
12.23125334255371
 11
-49.01095997324205
 21
13.76202427408532
 72
     2
 10
-49.32667689631865
 20
13.76202427408532
 40
0.3157169230766002
 50
0.0
 51
64.8055893514591
 73
     1
 72
     2
 10
-48.80409244874366
 20
14.87285402014811
 40
0.911897523557621
 50
115.1944106485123
 51
244.805589351472
 73
     0
 72
     2
 10
-49.32667689631865
 20
15.98368376621031
 40
0.3157169230761233
 50
295.1944106485409
 51
360.0
 73
     1
 72
     1
 10
-49.01095997324205
 20
15.98368376621031
 11
-49.01095997324205
 21
16.58770838527082
 72
     2
 10
-49.32667689631865
 20
16.58770838527082
 40
0.3157169230766002
 50
0.0
 51
90.0
 73
     1
 72
     1
 10
-49.32667689631865
 20
16.90342530834701
 11
-50.80251015732827
 21
16.90342530834701
 72
     2
 10
-50.80251015732827
 20
16.58770838527082
 40
0.3157169230761916
 50
90.0
 51
180.0
 73
     1
 72
     1
 10
-51.11822708040396
 20
16.58770838527082
 11
-51.11822708040396
 21
12.23125334255371
 97
       12
330
3A1
330
359
330
3A4
330
354
330
3B1
330
3B2
330
3A3
330
353
330
3A2
330
352
330
3B3
330
351
 75
     1
 76
     0
 52
45.0
 41
0.1
 77
     0
 78
     1
 53
45.0
 43
0.0
 44
0.0
 45
-0.0707106781186548
 46
0.0707106781186548
 79
     0
 98
        1
 10
0.0
 20
0.0
  0
HATCH
  5
409
330
71
100
AcDbEntity
  8
1
  6
Continuous
 62
     2
100
AcDbHatch
 10
0.0
 20
0.0
 30
0.0
210
0.0
220
0.0
230
1.0
  2
_USER
 70
     0
 71
     1
 91
        1
 92
        1
 93
       18
 72
     1
 10
-23.90930021875306
 20
13.47152508160761
 11
-24.72039925622644
 21
13.47152508160761
 72
     1
 10
-24.72039925622644
 20
13.47152508160761
 11
-24.72039925622644
 21
11.20298086392012
 72
     1
 10
-24.72039925622644
 20
11.20298086392012
 11
-25.91319195839415
 21
11.20298086392012
 72
     1
 10
-25.91319195839415
 20
11.20298086392012
 11
-25.91319195839415
 21
13.47152508160761
 72
     1
 10
-25.91319195839415
 20
13.47152508160761
 11
-27.01683125796225
 21
13.47152508160761
 72
     2
 10
-27.01683125796225
 20
12.51700207478152
 40
0.9545230068260899
 50
90.0
 51
109.337143219432
 73
     1
 72
     2
 10
-27.16350125606596
 20
12.9349570551644
 40
0.5115800601944169
 50
109.3371432194843
 51
151.4785267424214
 73
     1
 72
     2
 10
-26.78614399798457
 20
12.7298856258254
 40
0.9410597353348895
 50
151.4785267423618
 51
208.5214732576697
 73
     1
 72
     2
 10
-27.16350125606596
 20
12.52481419648692
 40
0.5115800601960195
 50
208.5214732576879
 51
246.6277221118455
 73
     1
 72
     2
 10
-27.00706122336285
 20
12.88680621519691
 40
0.9059297849852782
 50
246.6277221118179
 51
288.4480761180813
 73
     1
 72
     2
 10
-27.42522895702476
 20
14.1403519912335
 40
2.227384008972746
 50
288.4480761181335
 51
301.9309089499399
 73
     1
 72
     1
 10
-26.24717391500084
 20
12.25000127208372
 11
-26.24717391500084
 21
11.3774842652804
 72
     2
 10
-27.58310183211756
 20
16.04256657108181
 40
4.852596863498824
 50
74.02000874166134
 51
84.84185523036375
 73
     0
 72
     2
 10
-27.29424573738174
 20
12.84267598786022
 40
1.639695123940456
 50
84.84185523032401
 51
164.9381082228988
 73
     0
 72
     2
 10
-27.71337358084335
 20
12.7298856258254
 40
1.205656168393012
 50
164.9381082229043
 51
195.0618917770975
 73
     0
 72
     2
 10
-27.29424573738174
 20
12.6170952637905
 40
1.63969512394022
 50
195.0618917771053
 51
270.0
 73
     0
 72
     1
 10
-27.29424573738174
 20
14.25679038773072
 11
-23.90930021875306
 21
14.2567903877312
 72
     1
 10
-23.90930021875306
 20
14.2567903877312
 11
-23.90930021875306
 21
13.47152508160761
 97
       18
330
320
330
3B6
330
3B7
330
39F
330
39E
330
384
330
39D
330
39C
330
3B8
330
39B
330
3B9
330
39A
330
385
330
31F
330
324
330
323
330
322
330
321
 75
     1
 76
     0
 52
45.0
 41
0.1
 77
     0
 78
     1
 53
45.0
 43
0.0
 44
0.0
 45
-0.0707106781186548
 46
0.0707106781186548
 79
     0
 98
        1
 10
0.0
 20
0.0
  0
HATCH
  5
40A
330
71
100
AcDbEntity
  8
1
  6
Continuous
 62
     2
100
AcDbHatch
 10
0.0
 20
0.0
 30
0.0
210
0.0
220
0.0
230
1.0
  2
_USER
 70
     0
 71
     1
 91
        1
 92
        1
 93
       18
 72
     1
 10
-23.90930021875306
 20
13.47152508160761
 11
-24.72039925622644
 21
13.47152508160761
 72
     1
 10
-24.72039925622644
 20
13.47152508160761
 11
-24.72039925622644
 21
11.20298086392012
 72
     1
 10
-24.72039925622644
 20
11.20298086392012
 11
-25.91319195839415
 21
11.20298086392012
 72
     1
 10
-25.91319195839415
 20
11.20298086392012
 11
-25.91319195839415
 21
13.47152508160761
 72
     1
 10
-25.91319195839415
 20
13.47152508160761
 11
-27.01683125796225
 21
13.47152508160761
 72
     2
 10
-27.01683125796225
 20
12.51700207478152
 40
0.9545230068260899
 50
90.0
 51
109.337143219432
 73
     1
 72
     2
 10
-27.16350125606596
 20
12.9349570551644
 40
0.5115800601944169
 50
109.3371432194843
 51
151.4785267424214
 73
     1
 72
     2
 10
-26.78614399798457
 20
12.7298856258254
 40
0.9410597353348895
 50
151.4785267423618
 51
208.5214732576697
 73
     1
 72
     2
 10
-27.16350125606596
 20
12.52481419648692
 40
0.5115800601960195
 50
208.5214732576879
 51
246.6277221118455
 73
     1
 72
     2
 10
-27.00706122336285
 20
12.88680621519691
 40
0.9059297849852782
 50
246.6277221118179
 51
288.4480761180813
 73
     1
 72
     2
 10
-27.42522895702476
 20
14.1403519912335
 40
2.227384008972746
 50
288.4480761181335
 51
301.9309089499399
 73
     1
 72
     1
 10
-26.24717391500084
 20
12.25000127208372
 11
-26.24717391500084
 21
11.3774842652804
 72
     2
 10
-27.58310183211756
 20
16.04256657108181
 40
4.852596863498824
 50
74.02000874166134
 51
84.84185523036375
 73
     0
 72
     2
 10
-27.29424573738174
 20
12.84267598786022
 40
1.639695123940456
 50
84.84185523032401
 51
164.9381082228988
 73
     0
 72
     2
 10
-27.71337358084335
 20
12.7298856258254
 40
1.205656168393012
 50
164.9381082229043
 51
195.0618917770975
 73
     0
 72
     2
 10
-27.29424573738174
 20
12.6170952637905
 40
1.63969512394022
 50
195.0618917771053
 51
270.0
 73
     0
 72
     1
 10
-27.29424573738174
 20
14.25679038773072
 11
-23.90930021875306
 21
14.2567903877312
 72
     1
 10
-23.90930021875306
 20
14.2567903877312
 11
-23.90930021875306
 21
13.47152508160761
 97
       18
330
320
330
3B6
330
3B7
330
39F
330
39E
330
384
330
39D
330
39C
330
3B8
330
39B
330
3B9
330
39A
330
385
330
31F
330
324
330
323
330
322
330
321
 75
     1
 76
     0
 52
45.0
 41
0.1
 77
     0
 78
     1
 53
45.0
 43
0.0
 44
0.0
 45
-0.0707106781186548
 46
0.0707106781186548
 79
     0
 98
        1
 10
0.0
 20
0.0
  0
HATCH
  5
40B
330
71
100
AcDbEntity
  8
1
  6
Continuous
 62
     2
100
AcDbHatch
 10
0.0
 20
0.0
 30
0.0
210
0.0
220
0.0
230
1.0
  2
_USER
 70
     0
 71
     1
 91
        1
 92
        1
 93
       14
 72
     2
 10
-43.39694721663466
 20
12.6170952637905
 40
1.639695123940516
 50
84.84185523036238
 51
164.9381082228861
 73
     1
 72
     2
 10
-43.81607506009746
 20
12.7298856258254
 40
1.205656168390939
 50
164.938108222876
 51
195.0618917770946
 73
     1
 72
     2
 10
-43.39694721663466
 20
12.84267598786022
 40
1.63969512393938
 50
195.0618917770896
 51
275.1581447696395
 73
     1
 72
     2
 10
-43.68580331137056
 20
16.04256657108181
 40
4.852596863498145
 50
275.1581447696249
 51
285.9799912583529
 73
     1
 72
     1
 10
-42.34987539425276
 20
11.377484265281
 11
-42.34987539425276
 21
12.25000127208421
 72
     2
 10
-43.52793043627764
 20
14.1403519912341
 40
2.227384008972737
 50
58.06909105004065
 51
71.55192388186722
 73
     0
 72
     2
 10
-43.10976270261685
 20
12.88680621519691
 40
0.9059297849849132
 50
71.55192388184143
 51
113.3722778881286
 73
     0
 72
     2
 10
-43.26620273531887
 20
12.52481419648692
 40
0.5115800601948034
 50
113.3722778881717
 51
151.4785267423044
 73
     0
 72
     2
 10
-42.88884547723856
 20
12.7298856258254
 40
0.9410597353332545
 50
151.4785267422947
 51
208.5214732577331
 73
     0
 72
     2
 10
-43.26620273531887
 20
12.9349570551644
 40
0.5115800601948767
 50
208.5214732576956
 51
246.6277221118017
 73
     0
 72
     2
 10
-43.10976270261685
 20
12.57296503645381
 40
0.9059297849853211
 50
246.6277221118714
 51
288.4480761181466
 73
     0
 72
     2
 10
-43.52793043627764
 20
11.31941926041722
 40
2.227384008973474
 50
288.4480761181328
 51
301.9309089499593
 73
     0
 72
     1
 10
-42.34987539425276
 20
13.20976997956711
 11
-42.34987539425276
 21
14.08228698637041
 72
     2
 10
-43.68580331137056
 20
9.417204680569512
 40
4.852596863498071
 50
74.02000874164739
 51
84.84185523037506
 73
     1
 97
       14
330
3BE
330
3BF
330
3C0
330
3C1
330
386
330
397
330
396
330
395
330
3C2
330
3C3
330
394
330
3C4
330
387
330
393
 75
     1
 76
     0
 52
45.0
 41
0.1
 77
     0
 78
     1
 53
45.0
 43
0.0
 44
0.0
 45
-0.0707106781186548
 46
0.0707106781186548
 79
     0
 98
        1
 10
0.0
 20
0.0
  0
HATCH
  5
40C
330
71
100
AcDbEntity
  8
1
  6
Continuous
 62
     2
100
AcDbHatch
 10
0.0
 20
0.0
 30
0.0
210
0.0
220
0.0
230
1.0
  2
_USER
 70
     0
 71
     1
 91
        1
 92
        1
 93
       14
 72
     2
 10
-43.39694721663466
 20
12.6170952637905
 40
1.639695123940516
 50
84.84185523036238
 51
164.9381082228861
 73
     1
 72
     2
 10
-43.81607506009746
 20
12.7298856258254
 40
1.205656168390939
 50
164.938108222876
 51
195.0618917770946
 73
     1
 72
     2
 10
-43.39694721663466
 20
12.84267598786022
 40
1.63969512393938
 50
195.0618917770896
 51
275.1581447696395
 73
     1
 72
     2
 10
-43.68580331137056
 20
16.04256657108181
 40
4.852596863498145
 50
275.1581447696249
 51
285.9799912583529
 73
     1
 72
     1
 10
-42.34987539425276
 20
11.377484265281
 11
-42.34987539425276
 21
12.25000127208421
 72
     2
 10
-43.52793043627764
 20
14.1403519912341
 40
2.227384008972737
 50
58.06909105004065
 51
71.55192388186722
 73
     0
 72
     2
 10
-43.10976270261685
 20
12.88680621519691
 40
0.9059297849849132
 50
71.55192388184143
 51
113.3722778881286
 73
     0
 72
     2
 10
-43.26620273531887
 20
12.52481419648692
 40
0.5115800601948034
 50
113.3722778881717
 51
151.4785267423044
 73
     0
 72
     2
 10
-42.88884547723856
 20
12.7298856258254
 40
0.9410597353332545
 50
151.4785267422947
 51
208.5214732577331
 73
     0
 72
     2
 10
-43.26620273531887
 20
12.9349570551644
 40
0.5115800601948767
 50
208.5214732576956
 51
246.6277221118017
 73
     0
 72
     2
 10
-43.10976270261685
 20
12.57296503645381
 40
0.9059297849853211
 50
246.6277221118714
 51
288.4480761181466
 73
     0
 72
     2
 10
-43.52793043627764
 20
11.31941926041722
 40
2.227384008973474
 50
288.4480761181328
 51
301.9309089499593
 73
     0
 72
     1
 10
-42.34987539425276
 20
13.20976997956711
 11
-42.34987539425276
 21
14.08228698637041
 72
     2
 10
-43.68580331137056
 20
9.417204680569512
 40
4.852596863498071
 50
74.02000874164739
 51
84.84185523037506
 73
     1
 97
       14
330
3BE
330
3BF
330
3C0
330
3C1
330
386
330
397
330
396
330
395
330
3C2
330
3C3
330
394
330
3C4
330
387
330
393
 75
     1
 76
     0
 52
45.0
 41
0.1
 77
     0
 78
     1
 53
45.0
 43
0.0
 44
0.0
 45
-0.0707106781186548
 46
0.0707106781186548
 79
     0
 98
        1
 10
0.0
 20
0.0
  0
ENDBLK
  5
73
330
71
100
AcDbEntity
  8
0
100
AcDbBlockEnd
  0
BLOCK
  5
75
330
74
100
AcDbEntity
  8
0
100
AcDbBlockBegin
  2
_punkt
 70
     0
 10
73.48750019072985
 20
3.90948086390381
 30
0.0
  3
_punkt
  1

  0
LINE
  5
40D
330
74
100
AcDbEntity
  8
1
  6
Continuous
 62
     2
100
AcDbLine
 10
73.48750019072985
 20
3.90948086390381
 30
0.0
 11
78.48750019072884
 21
3.90948086390381
 31
0.0
  0
LINE
  5
40E
330
74
100
AcDbEntity
  8
1
  6
Continuous
 62
     2
100
AcDbLine
 10
73.48750019072985
 20
3.90948086390381
 30
0.0
 11
73.48750019072985
 21
-1.0905191360963
 31
0.0
  0
ENDBLK
  5
76
330
74
100
AcDbEntity
  8
0
100
AcDbBlockEnd
  0
BLOCK
  5
7A
330
77
100
AcDbEntity
  8
0
100
AcDbBlockBegin
  2
A4I_CS
 70
     0
 10
73.48750019072985
 20
-1.0905191360963
 30
0.0
  3
A4I_CS
  1

  0
INSERT
  5
78
330
77
100
AcDbEntity
  8
1
100
AcDbBlockReference
  2
_rahmen
 10
73.48750019072985
 20
-1.0905191360963
 30
0.0
  0
INSERT
  5
79
330
77
100
AcDbEntity
  8
1
100
AcDbBlockReference
  2
_punkt
 10
73.48750019072985
 20
3.90948086390381
 30
0.0
  0
ENDBLK
  5
7B
330
77
100
AcDbEntity
  8
0
100
AcDbBlockEnd
  0
BLOCK
  5
84
330
7C
100
AcDbEntity
  8
0
100
AcDbBlockBegin
  2
1
 70
     0
 10
0.0
 20
0.0
 30
0.0
  3
1
  1

  0
INSERT
  5
7D
330
7C
100
AcDbEntity
  8
0
100
AcDbBlockReference
  2
AllgSicht1
 10
30.00000000000159
 20
70.0
 30
0.0
  0
INSERT
  5
7E
330
7C
100
AcDbEntity
  8
0
100
AcDbBlockReference
  2
Drfsicht1
 10
-104.0249999999999
 20
62.90403001018942
 30
0.0
  0
INSERT
  5
7F
330
7C
100
AcDbEntity
  8
0
100
AcDbBlockReference
  2
Rckans1
 10
23.0
 20
148.0000009999999
 30
0.0
  0
INSERT
  5
80
330
7C
100
AcDbEntity
  8
0
100
AcDbBlockReference
  2
SA_Rechts1
 10
-184.0000000000044
 20
148.0000009999998
 30
0.0
  0
INSERT
  5
81
330
7C
100
AcDbEntity
  8
0
100
AcDbBlockReference
  2
SA_links1
 10
-40.00000038146504
 20
148.00000126294
 30
0.0
  0
INSERT
  5
82
330
7C
100
AcDbEntity
  8
0
100
AcDbBlockReference
  2
Vordans1
 10
-104.025
 20
148.00000076294
 30
0.0
  0
INSERT
  5
83
330
7C
100
AcDbEntity
  8
0
100
AcDbBlockReference
  2
A4I_CS
 10
73.48750019072985
 20
-1.0905191360963
 30
0.0
  0
ENDBLK
  5
85
330
7C
100
AcDbEntity
  8
0
100
AcDbBlockEnd
  0
BLOCK
  5
176
330
16E
100
AcDbEntity
  8
0
100
AcDbBlockBegin
  2
*D17
 70
     1
 10
0.0
 20
0.0
 30
0.0
  3
*D17
  1

  0
LINE
  5
16F
330
16E
100
AcDbEntity
  8
1
  6
Continuous
 62
     2
100
AcDbLine
 10
-144.0250000000001
 20
53.87903039165421
 30
0.0
 11
-144.0250000000001
 21
71.92903039165421
 31
0.0
  0
LINE
  5
170
330
16E
100
AcDbEntity
  8
1
  6
Continuous
 62
     2
100
AcDbLine
 10
-144.0250000000001
 20
38.6776479838439
 30
0.0
 11
-144.0250000000001
 21
53.87903039165421
 31
0.0
  0
LINE
  5
171
330
16E
100
AcDbEntity
  8
1
  6
Continuous
 62
     2
100
AcDbLine
 10
-134.0250000000001
 20
71.92903039165421
 30
0.0
 11
-145.5250000000001
 21
71.92903039165421
 31
0.0
  0
LINE
  5
172
330
16E
100
AcDbEntity
  8
1
  6
Continuous
 62
     2
100
AcDbLine
 10
-134.0250000000001
 20
53.87903039165421
 30
0.0
 11
-145.5250000000001
 21
53.87903039165421
 31
0.0
  0
SOLID
  5
173
330
16E
100
AcDbEntity
  8
1
 62
     2
100
AcDbTrace
 10
-144.485783741556
 20
57.37903039165421
 30
0.0
 11
-143.5642162584442
 21
57.37903039165421
 31
0.0
 12
-144.0250000000001
 22
53.87903039165421
 32
0.0
 13
-144.0250000000001
 23
53.87903039165421
 33
0.0
  0
SOLID
  5
174
330
16E
100
AcDbEntity
  8
1
 62
     2
100
AcDbTrace
 10
-143.5642162584442
 20
68.42903039165421
 30
0.0
 11
-144.485783741556
 21
68.42903039165421
 31
0.0
 12
-144.0250000000001
 22
71.92903039165421
 32
0.0
 13
-144.0250000000001
 23
71.92903039165421
 33
0.0
  0
MTEXT
  5
175
330
16E
100
AcDbEntity
  8
1
 62
     3
100
AcDbMText
 10
-145.8750000000001
 20
38.6776479838439
 30
0.0
 40
3.5
 41
0.0
 71
     7
 72
     1
  1
18,05
  7
CONVERTER_11
 11
0.0
 21
1.0
 31
0.0
 73
     1
 44
0.60024009603842
  0
ENDBLK
  5
177
330
16E
100
AcDbEntity
  8
0
100
AcDbBlockEnd
  0
BLOCK
  5
2A6
330
29F
100
AcDbEntity
  8
0
100
AcDbBlockBegin
  2
*D18
 70
     1
 10
0.0
 20
0.0
 30
0.0
  3
*D18
  1

  0
LINE
  5
2A0
330
29F
100
AcDbEntity
  8
1
  6
Continuous
 62
     2
100
AcDbLine
 10
-104.0250000000001
 20
107.7780630219578
 30
0.0
 11
-86.52500000000003
 21
107.7780630219578
 31
0.0
  0
LINE
  5
2A1
330
29F
100
AcDbEntity
  8
1
  6
Continuous
 62
     2
100
AcDbLine
 10
-86.52500000000003
 20
121.5500015258797
 30
0.0
 11
-86.52500000000003
 21
105.7780630219578
 31
0.0
  0
LINE
  5
2A2
330
29F
100
AcDbEntity
  8
1
  6
Continuous
 62
     2
100
AcDbLine
 10
-104.0250000000001
 20
121.613599818559
 30
0.0
 11
-104.0250000000001
 21
105.7780630219578
 31
0.0
  0
SOLID
  5
2A3
330
29F
100
AcDbEntity
  8
1
 62
     2
100
AcDbTrace
 10
-100.5250000000001
 20
108.2388467635137
 30
0.0
 11
-100.5250000000001
 21
107.3172792804019
 31
0.0
 12
-104.0250000000001
 22
107.7780630219578
 32
0.0
 13
-104.0250000000001
 23
107.7780630219578
 33
0.0
  0
SOLID
  5
2A4
330
29F
100
AcDbEntity
  8
1
 62
     2
100
AcDbTrace
 10
-90.02500000000003
 20
107.3172792804019
 30
0.0
 11
-90.02500000000003
 21
108.2388467635137
 31
0.0
 12
-86.52500000000003
 22
107.7780630219578
 32
0.0
 13
-86.52500000000003
 23
107.7780630219578
 33
0.0
  0
MTEXT
  5
2A5
330
29F
100
AcDbEntity
  8
1
 62
     3
100
AcDbMText
 10
-99.19866898846328
 20
110.1280630219578
 30
0.0
 40
3.5
 41
0.0
 71
     7
 72
     1
  1
17,5
  7
CONVERTER_11
 11
0.9999999999970619
 21
2.424068405545306E-6
 31
0.0
 73
     1
 44
0.60024009603842
  0
ENDBLK
  5
2A7
330
29F
100
AcDbEntity
  8
0
100
AcDbBlockEnd
  0
BLOCK
  5
2B1
330
2AA
100
AcDbEntity
  8
0
100
AcDbBlockBegin
  2
*D19
 70
     1
 10
0.0
 20
0.0
 30
0.0
  3
*D19
  1

  0
LINE
  5
2AB
330
2AA
100
AcDbEntity
  8
1
  6
Continuous
 62
     2
100
AcDbLine
 10
-104.0250000000002
 20
99.2254855998029
 30
0.0
 11
-74.0250000000001
 21
99.2254855998029
 31
0.0
  0
LINE
  5
2AC
330
2AA
100
AcDbEntity
  8
1
  6
Continuous
 62
     2
100
AcDbLine
 10
-74.0250000000001
 20
128.3376016146766
 30
0.0
 11
-74.0250000000001
 21
97.2254855998029
 31
0.0
  0
LINE
  5
2AD
330
2AA
100
AcDbEntity
  8
1
  6
Continuous
 62
     2
100
AcDbLine
 10
-104.0250000000002
 20
121.6135998185589
 30
0.0
 11
-104.0250000000002
 21
97.2254855998029
 31
0.0
  0
SOLID
  5
2AE
330
2AA
100
AcDbEntity
  8
1
 62
     2
100
AcDbTrace
 10
-100.5250000000002
 20
99.68626934135878
 30
0.0
 11
-100.5250000000002
 21
98.76470185824701
 31
0.0
 12
-104.0250000000002
 22
99.2254855998029
 32
0.0
 13
-104.0250000000002
 23
99.2254855998029
 33
0.0
  0
SOLID
  5
2AF
330
2AA
100
AcDbEntity
  8
1
 62
     2
100
AcDbTrace
 10
-77.5250000000001
 20
98.76470185824701
 30
0.0
 11
-77.5250000000001
 21
99.68626934135878
 31
0.0
 12
-74.0250000000001
 22
99.2254855998029
 32
0.0
 13
-74.0250000000001
 23
99.2254855998029
 33
0.0
  0
MTEXT
  5
2B0
330
2AA
100
AcDbEntity
  8
1
 62
     3
100
AcDbMText
 10
-91.72091231160147
 20
101.2254855998029
 30
0.0
 40
3.5
 41
0.0
 71
     7
 72
     1
  1
30
  7
CONVERTER_11
 11
0.9999999999970619
 21
2.424068405545306E-6
 31
0.0
 73
     1
 44
0.60024009603842
  0
ENDBLK
  5
2B2
330
2AA
100
AcDbEntity
  8
0
100
AcDbBlockEnd
  0
BLOCK
  5
2BC
330
2B5
100
AcDbEntity
  8
0
100
AcDbBlockBegin
  2
*D20
 70
     1
 10
0.0
 20
0.0
 30
0.0
  3
*D20
  1

  0
LINE
  5
2B6
330
2B5
100
AcDbEntity
  8
1
  6
Continuous
 62
     2
100
AcDbLine
 10
-74.02500000000006
 20
90.74363101975237
 30
0.0
 11
-134.0250000000001
 21
90.74363101975237
 31
0.0
  0
LINE
  5
2B7
330
2B5
100
AcDbEntity
  8
1
  6
Continuous
 62
     2
100
AcDbLine
 10
-134.0250000000001
 20
116.4500015258797
 30
0.0
 11
-134.0250000000001
 21
88.74363101975237
 31
0.0
  0
LINE
  5
2B8
330
2B5
100
AcDbEntity
  8
1
  6
Continuous
 62
     2
100
AcDbLine
 10
-74.02500000000006
 20
128.3376016146767
 30
0.0
 11
-74.02500000000006
 21
88.74363101975237
 31
0.0
  0
SOLID
  5
2B9
330
2B5
100
AcDbEntity
  8
1
 62
     2
100
AcDbTrace
 10
-77.52500000000006
 20
90.28284727819648
 30
0.0
 11
-77.52500000000006
 21
91.20441476130826
 31
0.0
 12
-74.02500000000006
 22
90.74363101975237
 32
0.0
 13
-74.02500000000006
 23
90.74363101975237
 33
0.0
  0
SOLID
  5
2BA
330
2B5
100
AcDbEntity
  8
1
 62
     2
100
AcDbTrace
 10
-130.5250000000001
 20
91.20441476130826
 30
0.0
 11
-130.5250000000001
 21
90.28284727819648
 31
0.0
 12
-134.0250000000001
 22
90.74363101975237
 32
0.0
 13
-134.0250000000001
 23
90.74363101975237
 33
0.0
  0
MTEXT
  5
2BB
330
2B5
100
AcDbEntity
  8
1
 62
     3
100
AcDbMText
 10
-107.1095760625539
 20
92.74363101975237
 30
0.0
 40
3.5
 41
0.0
 71
     7
 72
     1
  1
60
  7
CONVERTER_11
 11
0.9999999999970619
 21
2.424068405545306E-6
 31
0.0
 73
     1
 44
0.60024009603842
  0
ENDBLK
  5
2BD
330
2B5
100
AcDbEntity
  8
0
100
AcDbBlockEnd
  0
BLOCK
  5
2C7
330
2C0
100
AcDbEntity
  8
0
100
AcDbBlockBegin
  2
*D21
 70
     1
 10
0.0
 20
0.0
 30
0.0
  3
*D21
  1

  0
LINE
  5
2C1
330
2C0
100
AcDbEntity
  8
1
  6
Continuous
 62
     2
100
AcDbLine
 10
-144.0250000000001
 20
122.7500015258797
 30
0.0
 11
-144.0250000000001
 21
179.5500015258797
 31
0.0
  0
LINE
  5
2C2
330
2C0
100
AcDbEntity
  8
1
  6
Continuous
 62
     2
100
AcDbLine
 10
-86.02500000000016
 20
179.5500015258797
 30
0.0
 11
-145.5250000000001
 21
179.5500015258797
 31
0.0
  0
LINE
  5
2C3
330
2C0
100
AcDbEntity
  8
1
  6
Continuous
 62
     2
100
AcDbLine
 10
-90.62500000000017
 20
122.7500015258797
 30
0.0
 11
-145.5250000000001
 21
122.7500015258797
 31
0.0
  0
SOLID
  5
2C4
330
2C0
100
AcDbEntity
  8
1
 62
     2
100
AcDbTrace
 10
-144.485783741556
 20
126.2500015258797
 30
0.0
 11
-143.5642162584442
 21
126.2500015258797
 31
0.0
 12
-144.0250000000001
 22
122.7500015258797
 32
0.0
 13
-144.0250000000001
 23
122.7500015258797
 33
0.0
  0
SOLID
  5
2C5
330
2C0
100
AcDbEntity
  8
1
 62
     2
100
AcDbTrace
 10
-143.5642162584442
 20
176.0500015258797
 30
0.0
 11
-144.485783741556
 21
176.0500015258797
 31
0.0
 12
-144.0250000000001
 22
179.5500015258797
 32
0.0
 13
-144.0250000000001
 23
179.5500015258797
 33
0.0
  0
MTEXT
  5
2C6
330
2C0
100
AcDbEntity
  8
1
 62
     3
100
AcDbMText
 10
-145.8750000000001
 20
150.1054587764381
 30
0.0
 40
3.5
 41
0.0
 71
     7
 72
     1
  1
56,8
  7
CONVERTER_11
 11
0.0
 21
1.0
 31
0.0
 73
     1
 44
0.60024009603842
  0
ENDBLK
  5
2C8
330
2C0
100
AcDbEntity
  8
0
100
AcDbBlockEnd
  0
BLOCK
  5
2D2
330
2CB
100
AcDbEntity
  8
0
100
AcDbBlockBegin
  2
*D22
 70
     1
 10
0.0
 20
0.0
 30
0.0
  3
*D22
  1

  0
LINE
  5
2CC
330
2CB
100
AcDbEntity
  8
1
  6
Continuous
 62
     2
100
AcDbLine
 10
-152.0250000000001
 20
116.4500015258798
 30
0.0
 11
-152.0250000000001
 21
179.5500015258798
 31
0.0
  0
LINE
  5
2CD
330
2CB
100
AcDbEntity
  8
1
  6
Continuous
 62
     2
100
AcDbLine
 10
-122.0250000000001
 20
179.5500015258798
 30
0.0
 11
-153.5250000000001
 21
179.5500015258798
 31
0.0
  0
LINE
  5
2CE
330
2CB
100
AcDbEntity
  8
1
  6
Continuous
 62
     2
100
AcDbLine
 10
-121.7050000000001
 20
116.4500015258798
 30
0.0
 11
-153.5250000000001
 21
116.4500015258798
 31
0.0
  0
SOLID
  5
2CF
330
2CB
100
AcDbEntity
  8
1
 62
     2
100
AcDbTrace
 10
-152.485783741556
 20
119.9500015258798
 30
0.0
 11
-151.5642162584442
 21
119.9500015258798
 31
0.0
 12
-152.0250000000001
 22
116.4500015258798
 32
0.0
 13
-152.0250000000001
 23
116.4500015258798
 33
0.0
  0
SOLID
  5
2D0
330
2CB
100
AcDbEntity
  8
1
 62
     2
100
AcDbTrace
 10
-151.5642162584442
 20
176.0500015258798
 30
0.0
 11
-152.485783741556
 21
176.0500015258798
 31
0.0
 12
-152.0250000000001
 22
179.5500015258798
 32
0.0
 13
-152.0250000000001
 23
179.5500015258798
 33
0.0
  0
MTEXT
  5
2D1
330
2CB
100
AcDbEntity
  8
1
 62
     3
100
AcDbMText
 10
-153.8750000000001
 20
143.8670536827831
 30
0.0
 40
3.5
 41
0.0
 71
     7
 72
     1
  1
63,1
  7
CONVERTER_11
 11
0.0
 21
1.0
 31
0.0
 73
     1
 44
0.60024009603842
  0
ENDBLK
  5
2D3
330
2CB
100
AcDbEntity
  8
0
100
AcDbBlockEnd
  0
ENDSEC
  0
SECTION
  2
ENTITIES
  0
INSERT
  5
86
330
1F
100
AcDbEntity
  8
1
100
AcDbBlockReference
  2
1
 10
0.0
 20
0.0
 30
0.0
  0
ENDSEC
  0
SECTION
  2
OBJECTS
  0
DICTIONARY
  5
C
330
0
100
AcDbDictionary
281
     1
  3
ACAD_GROUP
350
D
  3
ACAD_LAYOUT
350
1A
  3
ACAD_MATERIAL
350
3B
  3
ACAD_MLEADERSTYLE
350
436
  3
ACAD_MLINESTYLE
350
17
  3
ACAD_PLOTSETTINGS
350
19
  3
ACAD_PLOTSTYLENAME
350
E
  3
ACAD_TABLESTYLE
350
435
  3
ACAD_VISUALSTYLE
350
2A
  0
DICTIONARY
  5
D
102
{ACAD_REACTORS
330
C
102
}
330
C
100
AcDbDictionary
281
     1
  0
DICTIONARY
  5
1A
102
{ACAD_REACTORS
330
C
102
}
330
C
100
AcDbDictionary
281
     1
  3
Layout1
350
1E
  3
Layout2
350
26
  3
Model
350
22
  0
DICTIONARY
  5
3B
102
{ACAD_REACTORS
330
C
102
}
330
C
100
AcDbDictionary
281
     1
  3
ByBlock
350
3D
  3
ByLayer
350
3C
  3
Global
350
3E
  0
DICTIONARY
  5
436
102
{ACAD_REACTORS
330
C
102
}
330
C
100
AcDbDictionary
281
     1
  0
DICTIONARY
  5
17
102
{ACAD_REACTORS
330
C
102
}
330
C
100
AcDbDictionary
281
     1
  3
Standard
350
18
  0
DICTIONARY
  5
19
102
{ACAD_REACTORS
330
C
102
}
330
C
100
AcDbDictionary
281
     1
  0
ACDBDICTIONARYWDFLT
  5
E
102
{ACAD_REACTORS
330
C
102
}
330
C
100
AcDbDictionary
281
     1
  3
Normal
350
F
100
AcDbDictionaryWithDefault
340
F
  0
DICTIONARY
  5
435
102
{ACAD_REACTORS
330
C
102
}
330
C
100
AcDbDictionary
281
     1
  0
DICTIONARY
  5
2A
102
{ACAD_REACTORS
330
C
102
}
330
C
100
AcDbDictionary
281
     1
  3
2dWireframe
350
2F
  3
3D Hidden
350
31
  3
3dWireframe
350
30
  3
Basic
350
32
  3
Brighten
350
36
  3
ColorChange
350
3A
  3
Conceptual
350
34
  3
Dim
350
35
  3
Facepattern
350
39
  3
Flat
350
2B
  3
FlatWithEdges
350
2C
  3
Gouraud
350
2D
  3
GouraudWithEdges
350
2E
  3
Linepattern
350
38
  3
Realistic
350
33
  3
Thicken
350
37
  0
LAYOUT
  5
1E
102
{ACAD_REACTORS
330
1A
102
}
330
1A
100
AcDbPlotSettings
  1

  2
none_device
  4

  6

 40
0.0
 41
0.0
 42
0.0
 43
0.0
 44
0.0
 45
0.0
 46
0.0
 47
0.0
 48
0.0
 49
0.0
140
0.0
141
0.0
142
1.0
143
1.0
 70
   688
 72
     0
 73
     0
 74
     5
  7

 75
    16
 76
     0
 77
     2
 78
   300
147
1.0
148
0.0
149
0.0
100
AcDbLayout
  1
Layout1
 70
     1
 71
     1
 10
0.0
 20
0.0
 11
12.0
 21
9.0
 12
0.0
 22
0.0
 32
0.0
 14
1.00000000000000E+20
 24
1.00000000000000E+20
 34
1.00000000000000E+20
 15
-1.00000000000000E+20
 25
-1.00000000000000E+20
 35
-1.00000000000000E+20
146
0.0
 13
0.0
 23
0.0
 33
0.0
 16
1.0
 26
0.0
 36
0.0
 17
0.0
 27
1.0
 37
0.0
 76
     0
330
1B
  0
LAYOUT
  5
26
102
{ACAD_REACTORS
330
1A
102
}
330
1A
100
AcDbPlotSettings
  1

  2
none_device
  4

  6

 40
0.0
 41
0.0
 42
0.0
 43
0.0
 44
0.0
 45
0.0
 46
0.0
 47
0.0
 48
0.0
 49
0.0
140
0.0
141
0.0
142
1.0
143
1.0
 70
   688
 72
     0
 73
     0
 74
     5
  7

 75
    16
 76
     0
 77
     2
 78
   300
147
1.0
148
0.0
149
0.0
100
AcDbLayout
  1
Layout2
 70
     1
 71
     2
 10
0.0
 20
0.0
 11
0.0
 21
0.0
 12
0.0
 22
0.0
 32
0.0
 14
0.0
 24
0.0
 34
0.0
 15
0.0
 25
0.0
 35
0.0
146
0.0
 13
0.0
 23
0.0
 33
0.0
 16
1.0
 26
0.0
 36
0.0
 17
0.0
 27
1.0
 37
0.0
 76
     0
330
23
  0
LAYOUT
  5
22
102
{ACAD_REACTORS
330
1A
102
}
330
1A
100
AcDbPlotSettings
  1

  2
none_device
  4

  6

 40
0.0
 41
0.0
 42
0.0
 43
0.0
 44
0.0
 45
0.0
 46
0.0
 47
0.0
 48
0.0
 49
0.0
140
0.0
141
0.0
142
1.0
143
1.0
 70
  1712
 72
     0
 73
     0
 74
     0
  7

 75
     0
 76
     0
 77
     2
 78
   300
147
1.0
148
0.0
149
0.0
100
AcDbLayout
  1
Model
 70
     1
 71
     0
 10
0.0
 20
0.0
 11
12.0
 21
9.0
 12
0.0
 22
0.0
 32
0.0
 14
-218.5124998092692
 24
-1.0905191360963
 34
0.0
 15
78.48750019072884
 25
208.9094808639038
 35
0.0
146
0.0
 13
0.0
 23
0.0
 33
0.0
 16
1.0
 26
0.0
 36
0.0
 17
0.0
 27
1.0
 37
0.0
 76
     0
330
1F
331
29
  0
MATERIAL
  5
3D
102
{ACAD_REACTORS
330
3B
102
}
102
{ACAD_XDICTIONARY
360
431
102
}
330
3B
100
AcDbMaterial
  1
ByBlock
  0
MATERIAL
  5
3C
102
{ACAD_REACTORS
330
3B
102
}
102
{ACAD_XDICTIONARY
360
42F
102
}
330
3B
100
AcDbMaterial
  1
ByLayer
  0
MATERIAL
  5
3E
102
{ACAD_REACTORS
330
3B
102
}
102
{ACAD_XDICTIONARY
360
433
102
}
330
3B
100
AcDbMaterial
  1
Global
  0
MLINESTYLE
  5
18
102
{ACAD_REACTORS
330
17
102
}
330
17
100
AcDbMlineStyle
  2
Standard
 70
     0
  3

 62
   256
 51
90.0
 52
90.0
 71
     2
 49
0.5
 62
   256
  6
BYLAYER
 49
-0.5
 62
   256
  6
BYLAYER
  0
ACDBPLACEHOLDER
  5
F
102
{ACAD_REACTORS
330
E
102
}
330
E
  0
VISUALSTYLE
  5
2F
102
{ACAD_REACTORS
330
2A
102
}
102
{ACAD_XDICTIONARY
360
417
102
}
330
2A
100
AcDbVisualStyle
  2
2dWireframe
 70
     4
 71
     0
 72
     2
 73
     0
 90
        0
 40
-0.6
 41
-30.0
 62
     5
 63
     7
421
 16777215
 74
     1
 91
        4
 64
     7
 65
   257
 75
     1
175
     1
 42
1.0
 92
        0
 66
   257
 43
1.0
 76
     1
 77
     6
 78
     2
 67
     7
 79
     5
170
     0
171
     0
290
     0
174
     0
 93
        1
 44
0.0
173
     0
291
     0
 45
0.0
1001
ACAD
1000
AcDbSavedByObjectVersion
1070
     0
  0
VISUALSTYLE
  5
31
102
{ACAD_REACTORS
330
2A
102
}
102
{ACAD_XDICTIONARY
360
41B
102
}
330
2A
100
AcDbVisualStyle
  2
3D Hidden
 70
     6
 71
     1
 72
     2
 73
     2
 90
        0
 40
-0.6
 41
-30.0
 62
     5
 63
     7
421
 16777215
 74
     2
 91
        2
 64
     7
 65
   257
 75
     2
175
     1
 42
40.0
 92
        0
 66
   257
 43
1.0
 76
     1
 77
     6
 78
     2
 67
     7
 79
     3
170
     0
171
     0
290
     0
174
     0
 93
        1
 44
0.0
173
     0
291
     0
 45
0.0
1001
ACAD
1000
AcDbSavedByObjectVersion
1070
     0
  0
VISUALSTYLE
  5
30
102
{ACAD_REACTORS
330
2A
102
}
102
{ACAD_XDICTIONARY
360
419
102
}
330
2A
100
AcDbVisualStyle
  2
3dWireframe
 70
     5
 71
     0
 72
     2
 73
     0
 90
        0
 40
-0.6
 41
-30.0
 62
     5
 63
     7
421
 16777215
 74
     1
 91
        4
 64
     7
 65
   257
 75
     1
175
     1
 42
1.0
 92
        0
 66
   257
 43
1.0
 76
     1
 77
     6
 78
     2
 67
     7
 79
     5
170
     0
171
     0
290
     0
174
     0
 93
        1
 44
0.0
173
     0
291
     0
 45
0.0
1001
ACAD
1000
AcDbSavedByObjectVersion
1070
     0
  0
VISUALSTYLE
  5
32
102
{ACAD_REACTORS
330
2A
102
}
102
{ACAD_XDICTIONARY
360
41D
102
}
330
2A
100
AcDbVisualStyle
  2
Basic
 70
     7
 71
     1
 72
     0
 73
     1
 90
        0
 40
-0.6
 41
-30.0
 62
     5
 63
     7
421
 16777215
 74
     0
 91
        4
 64
     7
 65
   257
 75
     1
175
     1
 42
1.0
 92
        8
 66
     7
 43
1.0
 76
     1
 77
     6
 78
     2
 67
     7
 79
     5
170
     0
171
     0
290
     0
174
     0
 93
        1
 44
0.0
173
     0
291
     1
 45
0.0
1001
ACAD
1000
AcDbSavedByObjectVersion
1070
     0
  0
VISUALSTYLE
  5
36
102
{ACAD_REACTORS
330
2A
102
}
102
{ACAD_XDICTIONARY
360
425
102
}
330
2A
100
AcDbVisualStyle
  2
Brighten
 70
    12
 71
     2
 72
     2
 73
     0
 90
        0
 40
-0.6
 41
-30.0
 62
     5
 63
     7
421
 16777215
 74
     1
 91
        4
 64
     7
 65
   257
 75
     1
175
     1
 42
1.0
 92
        8
 66
     7
 43
1.0
 76
     1
 77
     6
 78
     2
 67
     7
 79
     5
170
     0
171
     0
290
     0
174
     0
 93
        1
 44
50.0
173
     0
291
     1
 45
0.0
1001
ACAD
1000
AcDbSavedByObjectVersion
1070
     0
  0
VISUALSTYLE
  5
3A
102
{ACAD_REACTORS
330
2A
102
}
102
{ACAD_XDICTIONARY
360
42D
102
}
330
2A
100
AcDbVisualStyle
  2
ColorChange
 70
    16
 71
     2
 72
     2
 73
     3
 90
        0
 40
-0.6
 41
-30.0
 62
     5
 63
     8
421
  8421504
 74
     1
 91
        4
 64
     7
 65
   257
 75
     1
175
     1
 42
1.0
 92
        8
 66
     8
424
  8421504
 43
1.0
 76
     1
 77
     6
 78
     2
 67
     7
 79
     5
170
     0
171
     0
290
     0
174
     0
 93
        1
 44
0.0
173
     0
291
     1
 45
0.0
1001
ACAD
1000
AcDbSavedByObjectVersion
1070
     0
  0
VISUALSTYLE
  5
34
102
{ACAD_REACTORS
330
2A
102
}
102
{ACAD_XDICTIONARY
360
421
102
}
330
2A
100
AcDbVisualStyle
  2
Conceptual
 70
     9
 71
     3
 72
     2
 73
     0
 90
        0
 40
-0.6
 41
-30.0
 62
     5
 63
     7
421
 16777215
 74
     2
 91
        2
 64
     7
 65
   257
 75
     1
175
     1
 42
40.0
 92
        8
 66
     7
 43
1.0
 76
     1
 77
     6
 78
     2
 67
     7
 79
     3
170
     0
171
     0
290
     0
174
     0
 93
        1
 44
0.0
173
     0
291
     0
 45
0.0
1001
ACAD
1000
AcDbSavedByObjectVersion
1070
     0
  0
VISUALSTYLE
  5
35
102
{ACAD_REACTORS
330
2A
102
}
102
{ACAD_XDICTIONARY
360
423
102
}
330
2A
100
AcDbVisualStyle
  2
Dim
 70
    11
 71
     2
 72
     2
 73
     0
 90
        0
 40
-0.6
 41
-30.0
 62
     5
 63
     7
421
 16777215
 74
     1
 91
        4
 64
     7
 65
   257
 75
     1
175
     1
 42
1.0
 92
        8
 66
     7
 43
1.0
 76
     1
 77
     6
 78
     2
 67
     7
 79
     5
170
     0
171
     0
290
     0
174
     0
 93
        1
 44
-50.0
173
     0
291
     1
 45
0.0
1001
ACAD
1000
AcDbSavedByObjectVersion
1070
     0
  0
VISUALSTYLE
  5
39
102
{ACAD_REACTORS
330
2A
102
}
102
{ACAD_XDICTIONARY
360
42B
102
}
330
2A
100
AcDbVisualStyle
  2
Facepattern
 70
    15
 71
     2
 72
     2
 73
     0
 90
        0
 40
-0.6
 41
-30.0
 62
     5
 63
     7
421
 16777215
 74
     1
 91
        4
 64
     7
 65
   257
 75
     1
175
     1
 42
1.0
 92
        8
 66
     7
 43
1.0
 76
     1
 77
     6
 78
     2
 67
     7
 79
     5
170
     0
171
     0
290
     0
174
     0
 93
        1
 44
0.0
173
     0
291
     1
 45
0.0
1001
ACAD
1000
AcDbSavedByObjectVersion
1070
     0
  0
VISUALSTYLE
  5
2B
102
{ACAD_REACTORS
330
2A
102
}
102
{ACAD_XDICTIONARY
360
40F
102
}
330
2A
100
AcDbVisualStyle
  2
Flat
 70
     0
 71
     2
 72
     1
 73
     1
 90
        2
 40
-0.6
 41
30.0
 62
     5
 63
     7
421
 16777215
 74
     0
 91
        4
 64
     7
 65
   257
 75
     1
175
     1
 42
1.0
 92
        8
 66
     7
 43
1.0
 76
     1
 77
     6
 78
     2
 67
     7
 79
     5
170
     0
171
     0
290
     0
174
     0
 93
       13
 44
0.0
173
     0
291
     1
 45
0.0
1001
ACAD
1000
AcDbSavedByObjectVersion
1070
     0
  0
VISUALSTYLE
  5
2C
102
{ACAD_REACTORS
330
2A
102
}
102
{ACAD_XDICTIONARY
360
411
102
}
330
2A
100
AcDbVisualStyle
  2
FlatWithEdges
 70
     1
 71
     2
 72
     1
 73
     1
 90
        2
 40
-0.6
 41
30.0
 62
     5
 63
     7
421
 16777215
 74
     1
 91
        4
 64
     7
 65
   257
 75
     1
175
     1
 42
1.0
 92
        0
 66
   257
 43
1.0
 76
     1
 77
     6
 78
     2
 67
     7
 79
     5
170
     0
171
     0
290
     0
174
     0
 93
       13
 44
0.0
173
     0
291
     1
 45
0.0
1001
ACAD
1000
AcDbSavedByObjectVersion
1070
     0
  0
VISUALSTYLE
  5
2D
102
{ACAD_REACTORS
330
2A
102
}
102
{ACAD_XDICTIONARY
360
413
102
}
330
2A
100
AcDbVisualStyle
  2
Gouraud
 70
     2
 71
     2
 72
     2
 73
     1
 90
        2
 40
-0.6
 41
30.0
 62
     5
 63
     7
421
 16777215
 74
     0
 91
        4
 64
     7
 65
   257
 75
     1
175
     1
 42
1.0
 92
        0
 66
     7
 43
1.0
 76
     1
 77
     6
 78
     2
 67
     7
 79
     5
170
     0
171
     0
290
     0
174
     0
 93
       13
 44
0.0
173
     0
291
     1
 45
0.0
1001
ACAD
1000
AcDbSavedByObjectVersion
1070
     0
  0
VISUALSTYLE
  5
2E
102
{ACAD_REACTORS
330
2A
102
}
102
{ACAD_XDICTIONARY
360
415
102
}
330
2A
100
AcDbVisualStyle
  2
GouraudWithEdges
 70
     3
 71
     2
 72
     2
 73
     1
 90
        2
 40
-0.6
 41
30.0
 62
     5
 63
     7
421
 16777215
 74
     1
 91
        4
 64
     7
 65
   257
 75
     1
175
     1
 42
1.0
 92
        0
 66
   257
 43
1.0
 76
     1
 77
     6
 78
     2
 67
     7
 79
     5
170
     0
171
     0
290
     0
174
     0
 93
       13
 44
0.0
173
     0
291
     1
 45
0.0
1001
ACAD
1000
AcDbSavedByObjectVersion
1070
     0
  0
VISUALSTYLE
  5
38
102
{ACAD_REACTORS
330
2A
102
}
102
{ACAD_XDICTIONARY
360
429
102
}
330
2A
100
AcDbVisualStyle
  2
Linepattern
 70
    14
 71
     2
 72
     2
 73
     0
 90
        0
 40
-0.6
 41
-30.0
 62
     5
 63
     7
421
 16777215
 74
     1
 91
        4
 64
     7
 65
   257
 75
     7
175
     7
 42
1.0
 92
        8
 66
     7
 43
1.0
 76
     1
 77
     6
 78
     2
 67
     7
 79
     5
170
     0
171
     0
290
     0
174
     0
 93
        1
 44
0.0
173
     0
291
     1
 45
0.0
1001
ACAD
1000
AcDbSavedByObjectVersion
1070
     0
  0
VISUALSTYLE
  5
33
102
{ACAD_REACTORS
330
2A
102
}
102
{ACAD_XDICTIONARY
360
41F
102
}
330
2A
100
AcDbVisualStyle
  2
Realistic
 70
     8
 71
     2
 72
     2
 73
     0
 90
        0
 40
-0.6
 41
-30.0
 62
     5
 63
     7
421
 16777215
 74
     1
 91
        0
 64
     7
 65
   257
 75
     1
175
     1
 42
1.0
 92
        8
 66
     8
424
  7895160
 43
1.0
 76
     1
 77
     6
 78
     2
 67
     7
 79
     5
170
     0
171
     0
290
     0
174
     0
 93
       13
 44
0.0
173
     0
291
     0
 45
0.0
1001
ACAD
1000
AcDbSavedByObjectVersion
1070
     0
  0
VISUALSTYLE
  5
37
102
{ACAD_REACTORS
330
2A
102
}
102
{ACAD_XDICTIONARY
360
427
102
}
330
2A
100
AcDbVisualStyle
  2
Thicken
 70
    13
 71
     2
 72
     2
 73
     0
 90
        0
 40
-0.6
 41
-30.0
 62
     5
 63
     7
421
 16777215
 74
     1
 91
        4
 64
     7
 65
   257
 75
     1
175
     1
 42
1.0
 92
       12
 66
     7
 43
1.0
 76
     1
 77
     6
 78
     2
 67
     7
 79
     5
170
     0
171
     0
290
     0
174
     0
 93
        1
 44
0.0
173
     0
291
     1
 45
0.0
1001
ACAD
1000
AcDbSavedByObjectVersion
1070
     0
  0
DICTIONARY
  5
431
330
3D
100
AcDbDictionary
280
     1
281
     1
  3
ACAD_XREC_ROUNDTRIP
360
432
  0
DICTIONARY
  5
42F
330
3C
100
AcDbDictionary
280
     1
281
     1
  3
ACAD_XREC_ROUNDTRIP
360
430
  0
DICTIONARY
  5
433
330
3E
100
AcDbDictionary
280
     1
281
     1
  3
ACAD_XREC_ROUNDTRIP
360
434
  0
DICTIONARY
  5
417
330
2F
100
AcDbDictionary
280
     1
281
     1
  3
ACAD_XREC_ROUNDTRIP
360
418
  0
DICTIONARY
  5
41B
330
31
100
AcDbDictionary
280
     1
281
     1
  3
ACAD_XREC_ROUNDTRIP
360
41C
  0
DICTIONARY
  5
419
330
30
100
AcDbDictionary
280
     1
281
     1
  3
ACAD_XREC_ROUNDTRIP
360
41A
  0
DICTIONARY
  5
41D
330
32
100
AcDbDictionary
280
     1
281
     1
  3
ACAD_XREC_ROUNDTRIP
360
41E
  0
DICTIONARY
  5
425
330
36
100
AcDbDictionary
280
     1
281
     1
  3
ACAD_XREC_ROUNDTRIP
360
426
  0
DICTIONARY
  5
42D
330
3A
100
AcDbDictionary
280
     1
281
     1
  3
ACAD_XREC_ROUNDTRIP
360
42E
  0
DICTIONARY
  5
421
330
34
100
AcDbDictionary
280
     1
281
     1
  3
ACAD_XREC_ROUNDTRIP
360
422
  0
DICTIONARY
  5
423
330
35
100
AcDbDictionary
280
     1
281
     1
  3
ACAD_XREC_ROUNDTRIP
360
424
  0
DICTIONARY
  5
42B
330
39
100
AcDbDictionary
280
     1
281
     1
  3
ACAD_XREC_ROUNDTRIP
360
42C
  0
DICTIONARY
  5
40F
330
2B
100
AcDbDictionary
280
     1
281
     1
  3
ACAD_XREC_ROUNDTRIP
360
410
  0
DICTIONARY
  5
411
330
2C
100
AcDbDictionary
280
     1
281
     1
  3
ACAD_XREC_ROUNDTRIP
360
412
  0
DICTIONARY
  5
413
330
2D
100
AcDbDictionary
280
     1
281
     1
  3
ACAD_XREC_ROUNDTRIP
360
414
  0
DICTIONARY
  5
415
330
2E
100
AcDbDictionary
280
     1
281
     1
  3
ACAD_XREC_ROUNDTRIP
360
416
  0
DICTIONARY
  5
429
330
38
100
AcDbDictionary
280
     1
281
     1
  3
ACAD_XREC_ROUNDTRIP
360
42A
  0
DICTIONARY
  5
41F
330
33
100
AcDbDictionary
280
     1
281
     1
  3
ACAD_XREC_ROUNDTRIP
360
420
  0
DICTIONARY
  5
427
330
37
100
AcDbDictionary
280
     1
281
     1
  3
ACAD_XREC_ROUNDTRIP
360
428
  0
XRECORD
  5
432
102
{ACAD_REACTORS
330
431
102
}
330
431
100
AcDbXrecord
280
     1
102
MATERIAL
148
0.0
149
0.0
149
0.0
 93
        0
 94
      127
282
     0
 72
     1
 77
     1
171
     1
175
     1
179
     1
273
     0
  0
XRECORD
  5
430
102
{ACAD_REACTORS
330
42F
102
}
330
42F
100
AcDbXrecord
280
     1
102
MATERIAL
148
0.0
149
0.0
149
0.0
 93
        0
 94
      127
282
     0
 72
     1
 77
     1
171
     1
175
     1
179
     1
273
     0
  0
XRECORD
  5
434
102
{ACAD_REACTORS
330
433
102
}
330
433
100
AcDbXrecord
280
     1
102
MATERIAL
148
0.0
149
0.0
149
0.0
 93
        0
 94
      127
282
     0
 72
     1
 77
     1
171
     1
175
     1
179
     1
273
     0
  0
XRECORD
  5
418
102
{ACAD_REACTORS
330
417
102
}
330
417
100
AcDbXrecord
280
     1
102
RTVSPropertyOp0
 70
     1
102
RTVSPropertyOp1
 70
     1
102
RTVSPropertyOp2
 70
     1
102
RTVSPropertyOp3
 70
     1
102
RTVSPropertyOp4
 70
     1
102
RTVSPropertyOp5
 70
     1
102
RTVSPropertyOp6
 70
     1
102
RTVSPropertyOp7
 70
     1
102
RTVSPropertyOp8
 70
     1
102
RTVSPropertyOp9
 70
     1
102
RTVSPropertyOp10
 70
     1
102
RTVSPropertyOp11
 70
     1
102
RTVSPropertyOp12
 70
     1
102
RTVSPropertyOp13
 70
     1
102
RTVSPropertyOp14
 70
     1
102
RTVSPropertyOp15
 70
     1
102
RTVSPropertyOp16
 70
     1
102
RTVSPropertyOp17
 70
     1
102
RTVSPropertyOp18
 70
     1
102
RTVSPropertyOp19
 70
     1
102
RTVSPropertyOp20
 70
     1
102
RTVSPropertyOp21
 70
     1
102
RTVSPropertyOp22
 70
     1
102
RTVSPropertyOp23
 70
     1
102
RTVSPropertyOp24
 70
     1
102
RTVSPropertyOp25
 70
     1
102
RTVSPropertyOp26
 70
     1
102
RTVSPropertyOp27
 70
     1
102
RTVSPropertyOp28
 70
     1
102
RTVSPropertyOp29
 70
     1
102
RTVSPropertyOp30
 70
     1
102
RTVSPropertyOp31
 70
     1
102
RTVSPropertyOp32
 70
     1
  0
XRECORD
  5
41C
102
{ACAD_REACTORS
330
41B
102
}
330
41B
100
AcDbXrecord
280
     1
102
RTVSPropertyOp0
 70
     1
102
RTVSPropertyOp1
 70
     1
102
RTVSPropertyOp2
 70
     1
102
RTVSPropertyOp3
 70
     1
102
RTVSPropertyOp4
 70
     1
102
RTVSPropertyOp5
 70
     1
102
RTVSPropertyOp6
 70
     1
102
RTVSPropertyOp7
 70
     1
102
RTVSPropertyOp8
 70
     1
102
RTVSPropertyOp9
 70
     1
102
RTVSPropertyOp10
 70
     1
102
RTVSPropertyOp11
 70
     1
102
RTVSPropertyOp12
 70
     1
102
RTVSPropertyOp13
 70
     1
102
RTVSPropertyOp14
 70
     1
102
RTVSPropertyOp15
 70
     1
102
RTVSPropertyOp16
 70
     1
102
RTVSPropertyOp17
 70
     1
102
RTVSPropertyOp18
 70
     1
102
RTVSPropertyOp19
 70
     1
102
RTVSPropertyOp20
 70
     1
102
RTVSPropertyOp21
 70
     1
102
RTVSPropertyOp22
 70
     1
102
RTVSPropertyOp23
 70
     1
102
RTVSPropertyOp24
 70
     1
102
RTVSPropertyOp25
 70
     1
102
RTVSPropertyOp26
 70
     1
102
RTVSPropertyOp27
 70
     1
102
RTVSPropertyOp28
 70
     1
102
RTVSPropertyOp29
 70
     1
102
RTVSPropertyOp30
 70
     1
102
RTVSPropertyOp31
 70
     1
102
RTVSPropertyOp32
 70
     1
  0
XRECORD
  5
41A
102
{ACAD_REACTORS
330
419
102
}
330
419
100
AcDbXrecord
280
     1
102
RTVSPropertyOp0
 70
     1
102
RTVSPropertyOp1
 70
     1
102
RTVSPropertyOp2
 70
     1
102
RTVSPropertyOp3
 70
     1
102
RTVSPropertyOp4
 70
     1
102
RTVSPropertyOp5
 70
     1
102
RTVSPropertyOp6
 70
     1
102
RTVSPropertyOp7
 70
     1
102
RTVSPropertyOp8
 70
     1
102
RTVSPropertyOp9
 70
     1
102
RTVSPropertyOp10
 70
     1
102
RTVSPropertyOp11
 70
     1
102
RTVSPropertyOp12
 70
     1
102
RTVSPropertyOp13
 70
     1
102
RTVSPropertyOp14
 70
     1
102
RTVSPropertyOp15
 70
     1
102
RTVSPropertyOp16
 70
     1
102
RTVSPropertyOp17
 70
     1
102
RTVSPropertyOp18
 70
     1
102
RTVSPropertyOp19
 70
     1
102
RTVSPropertyOp20
 70
     1
102
RTVSPropertyOp21
 70
     1
102
RTVSPropertyOp22
 70
     1
102
RTVSPropertyOp23
 70
     1
102
RTVSPropertyOp24
 70
     1
102
RTVSPropertyOp25
 70
     1
102
RTVSPropertyOp26
 70
     1
102
RTVSPropertyOp27
 70
     1
102
RTVSPropertyOp28
 70
     1
102
RTVSPropertyOp29
 70
     1
102
RTVSPropertyOp30
 70
     1
102
RTVSPropertyOp31
 70
     1
102
RTVSPropertyOp32
 70
     1
  0
XRECORD
  5
41E
102
{ACAD_REACTORS
330
41D
102
}
330
41D
100
AcDbXrecord
280
     1
102
RTVSPropertyOp0
 70
     1
102
RTVSPropertyOp1
 70
     1
102
RTVSPropertyOp2
 70
     1
102
RTVSPropertyOp3
 70
     1
102
RTVSPropertyOp4
 70
     1
102
RTVSPropertyOp5
 70
     1
102
RTVSPropertyOp6
 70
     1
102
RTVSPropertyOp7
 70
     1
102
RTVSPropertyOp8
 70
     1
102
RTVSPropertyOp9
 70
     1
102
RTVSPropertyOp10
 70
     1
102
RTVSPropertyOp11
 70
     1
102
RTVSPropertyOp12
 70
     1
102
RTVSPropertyOp13
 70
     1
102
RTVSPropertyOp14
 70
     1
102
RTVSPropertyOp15
 70
     1
102
RTVSPropertyOp16
 70
     1
102
RTVSPropertyOp17
 70
     1
102
RTVSPropertyOp18
 70
     1
102
RTVSPropertyOp19
 70
     1
102
RTVSPropertyOp20
 70
     1
102
RTVSPropertyOp21
 70
     1
102
RTVSPropertyOp22
 70
     1
102
RTVSPropertyOp23
 70
     1
102
RTVSPropertyOp24
 70
     1
102
RTVSPropertyOp25
 70
     1
102
RTVSPropertyOp26
 70
     1
102
RTVSPropertyOp27
 70
     1
102
RTVSPropertyOp28
 70
     1
102
RTVSPropertyOp29
 70
     1
102
RTVSPropertyOp30
 70
     1
102
RTVSPropertyOp31
 70
     1
102
RTVSPropertyOp32
 70
     1
  0
XRECORD
  5
426
102
{ACAD_REACTORS
330
425
102
}
330
425
100
AcDbXrecord
280
     1
102
RTVSPropertyOp0
 70
     1
102
RTVSPropertyOp1
 70
     1
102
RTVSPropertyOp2
 70
     1
102
RTVSPropertyOp3
 70
     1
102
RTVSPropertyOp4
 70
     1
102
RTVSPropertyOp5
 70
     1
102
RTVSPropertyOp6
 70
     1
102
RTVSPropertyOp7
 70
     1
102
RTVSPropertyOp8
 70
     1
102
RTVSPropertyOp9
 70
     1
102
RTVSPropertyOp10
 70
     1
102
RTVSPropertyOp11
 70
     1
102
RTVSPropertyOp12
 70
     1
102
RTVSPropertyOp13
 70
     1
102
RTVSPropertyOp14
 70
     1
102
RTVSPropertyOp15
 70
     1
102
RTVSPropertyOp16
 70
     1
102
RTVSPropertyOp17
 70
     1
102
RTVSPropertyOp18
 70
     1
102
RTVSPropertyOp19
 70
     1
102
RTVSPropertyOp20
 70
     1
102
RTVSPropertyOp21
 70
     1
102
RTVSPropertyOp22
 70
     1
102
RTVSPropertyOp23
 70
     1
102
RTVSPropertyOp24
 70
     1
102
RTVSPropertyOp25
 70
     1
102
RTVSPropertyOp26
 70
     1
102
RTVSPropertyOp27
 70
     1
102
RTVSPropertyOp28
 70
     1
102
RTVSPropertyOp29
 70
     1
102
RTVSPropertyOp30
 70
     1
102
RTVSPropertyOp31
 70
     1
102
RTVSPropertyOp32
 70
     1
  0
XRECORD
  5
42E
102
{ACAD_REACTORS
330
42D
102
}
330
42D
100
AcDbXrecord
280
     1
102
RTVSPropertyOp0
 70
     1
102
RTVSPropertyOp1
 70
     1
102
RTVSPropertyOp2
 70
     1
102
RTVSPropertyOp3
 70
     1
102
RTVSPropertyOp4
 70
     1
102
RTVSPropertyOp5
 70
     1
102
RTVSPropertyOp6
 70
     1
102
RTVSPropertyOp7
 70
     1
102
RTVSPropertyOp8
 70
     1
102
RTVSPropertyOp9
 70
     1
102
RTVSPropertyOp10
 70
     1
102
RTVSPropertyOp11
 70
     1
102
RTVSPropertyOp12
 70
     1
102
RTVSPropertyOp13
 70
     1
102
RTVSPropertyOp14
 70
     1
102
RTVSPropertyOp15
 70
     1
102
RTVSPropertyOp16
 70
     1
102
RTVSPropertyOp17
 70
     1
102
RTVSPropertyOp18
 70
     1
102
RTVSPropertyOp19
 70
     1
102
RTVSPropertyOp20
 70
     1
102
RTVSPropertyOp21
 70
     1
102
RTVSPropertyOp22
 70
     1
102
RTVSPropertyOp23
 70
     1
102
RTVSPropertyOp24
 70
     1
102
RTVSPropertyOp25
 70
     1
102
RTVSPropertyOp26
 70
     1
102
RTVSPropertyOp27
 70
     1
102
RTVSPropertyOp28
 70
     1
102
RTVSPropertyOp29
 70
     1
102
RTVSPropertyOp30
 70
     1
102
RTVSPropertyOp31
 70
     1
102
RTVSPropertyOp32
 70
     1
  0
XRECORD
  5
422
102
{ACAD_REACTORS
330
421
102
}
330
421
100
AcDbXrecord
280
     1
102
RTVSPropertyOp0
 70
     1
102
RTVSPropertyOp1
 70
     1
102
RTVSPropertyOp2
 70
     1
102
RTVSPropertyOp3
 70
     1
102
RTVSPropertyOp4
 70
     1
102
RTVSPropertyOp5
 70
     1
102
RTVSPropertyOp6
 70
     1
102
RTVSPropertyOp7
 70
     1
102
RTVSPropertyOp8
 70
     1
102
RTVSPropertyOp9
 70
     1
102
RTVSPropertyOp10
 70
     1
102
RTVSPropertyOp11
 70
     1
102
RTVSPropertyOp12
 70
     1
102
RTVSPropertyOp13
 70
     1
102
RTVSPropertyOp14
 70
     1
102
RTVSPropertyOp15
 70
     1
102
RTVSPropertyOp16
 70
     1
102
RTVSPropertyOp17
 70
     1
102
RTVSPropertyOp18
 70
     1
102
RTVSPropertyOp19
 70
     1
102
RTVSPropertyOp20
 70
     1
102
RTVSPropertyOp21
 70
     1
102
RTVSPropertyOp22
 70
     1
102
RTVSPropertyOp23
 70
     1
102
RTVSPropertyOp24
 70
     1
102
RTVSPropertyOp25
 70
     1
102
RTVSPropertyOp26
 70
     1
102
RTVSPropertyOp27
 70
     1
102
RTVSPropertyOp28
 70
     1
102
RTVSPropertyOp29
 70
     1
102
RTVSPropertyOp30
 70
     1
102
RTVSPropertyOp31
 70
     1
102
RTVSPropertyOp32
 70
     1
  0
XRECORD
  5
424
102
{ACAD_REACTORS
330
423
102
}
330
423
100
AcDbXrecord
280
     1
102
RTVSPropertyOp0
 70
     1
102
RTVSPropertyOp1
 70
     1
102
RTVSPropertyOp2
 70
     1
102
RTVSPropertyOp3
 70
     1
102
RTVSPropertyOp4
 70
     1
102
RTVSPropertyOp5
 70
     1
102
RTVSPropertyOp6
 70
     1
102
RTVSPropertyOp7
 70
     1
102
RTVSPropertyOp8
 70
     1
102
RTVSPropertyOp9
 70
     1
102
RTVSPropertyOp10
 70
     1
102
RTVSPropertyOp11
 70
     1
102
RTVSPropertyOp12
 70
     1
102
RTVSPropertyOp13
 70
     1
102
RTVSPropertyOp14
 70
     1
102
RTVSPropertyOp15
 70
     1
102
RTVSPropertyOp16
 70
     1
102
RTVSPropertyOp17
 70
     1
102
RTVSPropertyOp18
 70
     1
102
RTVSPropertyOp19
 70
     1
102
RTVSPropertyOp20
 70
     1
102
RTVSPropertyOp21
 70
     1
102
RTVSPropertyOp22
 70
     1
102
RTVSPropertyOp23
 70
     1
102
RTVSPropertyOp24
 70
     1
102
RTVSPropertyOp25
 70
     1
102
RTVSPropertyOp26
 70
     1
102
RTVSPropertyOp27
 70
     1
102
RTVSPropertyOp28
 70
     1
102
RTVSPropertyOp29
 70
     1
102
RTVSPropertyOp30
 70
     1
102
RTVSPropertyOp31
 70
     1
102
RTVSPropertyOp32
 70
     1
  0
XRECORD
  5
42C
102
{ACAD_REACTORS
330
42B
102
}
330
42B
100
AcDbXrecord
280
     1
102
RTVSPropertyOp0
 70
     1
102
RTVSPropertyOp1
 70
     1
102
RTVSPropertyOp2
 70
     1
102
RTVSPropertyOp3
 70
     1
102
RTVSPropertyOp4
 70
     1
102
RTVSPropertyOp5
 70
     1
102
RTVSPropertyOp6
 70
     1
102
RTVSPropertyOp7
 70
     1
102
RTVSPropertyOp8
 70
     1
102
RTVSPropertyOp9
 70
     1
102
RTVSPropertyOp10
 70
     1
102
RTVSPropertyOp11
 70
     1
102
RTVSPropertyOp12
 70
     1
102
RTVSPropertyOp13
 70
     1
102
RTVSPropertyOp14
 70
     1
102
RTVSPropertyOp15
 70
     1
102
RTVSPropertyOp16
 70
     1
102
RTVSPropertyOp17
 70
     1
102
RTVSPropertyOp18
 70
     1
102
RTVSPropertyOp19
 70
     1
102
RTVSPropertyOp20
 70
     1
102
RTVSPropertyOp21
 70
     1
102
RTVSPropertyOp22
 70
     1
102
RTVSPropertyOp23
 70
     1
102
RTVSPropertyOp24
 70
     1
102
RTVSPropertyOp25
 70
     1
102
RTVSPropertyOp26
 70
     1
102
RTVSPropertyOp27
 70
     1
102
RTVSPropertyOp28
 70
     1
102
RTVSPropertyOp29
 70
     1
102
RTVSPropertyOp30
 70
     1
102
RTVSPropertyOp31
 70
     1
102
RTVSPropertyOp32
 70
     1
  0
XRECORD
  5
410
102
{ACAD_REACTORS
330
40F
102
}
330
40F
100
AcDbXrecord
280
     1
102
RTVSPropertyOp0
 70
     1
102
RTVSPropertyOp1
 70
     1
102
RTVSPropertyOp2
 70
     1
102
RTVSPropertyOp3
 70
     1
102
RTVSPropertyOp4
 70
     1
102
RTVSPropertyOp5
 70
     1
102
RTVSPropertyOp6
 70
     1
102
RTVSPropertyOp7
 70
     1
102
RTVSPropertyOp8
 70
     1
102
RTVSPropertyOp9
 70
     1
102
RTVSPropertyOp10
 70
     1
102
RTVSPropertyOp11
 70
     1
102
RTVSPropertyOp12
 70
     1
102
RTVSPropertyOp13
 70
     1
102
RTVSPropertyOp14
 70
     1
102
RTVSPropertyOp15
 70
     1
102
RTVSPropertyOp16
 70
     1
102
RTVSPropertyOp17
 70
     1
102
RTVSPropertyOp18
 70
     1
102
RTVSPropertyOp19
 70
     1
102
RTVSPropertyOp20
 70
     1
102
RTVSPropertyOp21
 70
     1
102
RTVSPropertyOp22
 70
     1
102
RTVSPropertyOp23
 70
     1
102
RTVSPropertyOp24
 70
     1
102
RTVSPropertyOp25
 70
     1
102
RTVSPropertyOp26
 70
     1
102
RTVSPropertyOp27
 70
     1
102
RTVSPropertyOp28
 70
     1
102
RTVSPropertyOp29
 70
     1
102
RTVSPropertyOp30
 70
     1
102
RTVSPropertyOp31
 70
     1
102
RTVSPropertyOp32
 70
     1
  0
XRECORD
  5
412
102
{ACAD_REACTORS
330
411
102
}
330
411
100
AcDbXrecord
280
     1
102
RTVSPropertyOp0
 70
     1
102
RTVSPropertyOp1
 70
     1
102
RTVSPropertyOp2
 70
     1
102
RTVSPropertyOp3
 70
     1
102
RTVSPropertyOp4
 70
     1
102
RTVSPropertyOp5
 70
     1
102
RTVSPropertyOp6
 70
     1
102
RTVSPropertyOp7
 70
     1
102
RTVSPropertyOp8
 70
     1
102
RTVSPropertyOp9
 70
     1
102
RTVSPropertyOp10
 70
     1
102
RTVSPropertyOp11
 70
     1
102
RTVSPropertyOp12
 70
     1
102
RTVSPropertyOp13
 70
     1
102
RTVSPropertyOp14
 70
     1
102
RTVSPropertyOp15
 70
     1
102
RTVSPropertyOp16
 70
     1
102
RTVSPropertyOp17
 70
     1
102
RTVSPropertyOp18
 70
     1
102
RTVSPropertyOp19
 70
     1
102
RTVSPropertyOp20
 70
     1
102
RTVSPropertyOp21
 70
     1
102
RTVSPropertyOp22
 70
     1
102
RTVSPropertyOp23
 70
     1
102
RTVSPropertyOp24
 70
     1
102
RTVSPropertyOp25
 70
     1
102
RTVSPropertyOp26
 70
     1
102
RTVSPropertyOp27
 70
     1
102
RTVSPropertyOp28
 70
     1
102
RTVSPropertyOp29
 70
     1
102
RTVSPropertyOp30
 70
     1
102
RTVSPropertyOp31
 70
     1
102
RTVSPropertyOp32
 70
     1
  0
XRECORD
  5
414
102
{ACAD_REACTORS
330
413
102
}
330
413
100
AcDbXrecord
280
     1
102
RTVSPropertyOp0
 70
     1
102
RTVSPropertyOp1
 70
     1
102
RTVSPropertyOp2
 70
     1
102
RTVSPropertyOp3
 70
     1
102
RTVSPropertyOp4
 70
     1
102
RTVSPropertyOp5
 70
     1
102
RTVSPropertyOp6
 70
     1
102
RTVSPropertyOp7
 70
     1
102
RTVSPropertyOp8
 70
     1
102
RTVSPropertyOp9
 70
     1
102
RTVSPropertyOp10
 70
     1
102
RTVSPropertyOp11
 70
     1
102
RTVSPropertyOp12
 70
     1
102
RTVSPropertyOp13
 70
     1
102
RTVSPropertyOp14
 70
     1
102
RTVSPropertyOp15
 70
     1
102
RTVSPropertyOp16
 70
     1
102
RTVSPropertyOp17
 70
     1
102
RTVSPropertyOp18
 70
     1
102
RTVSPropertyOp19
 70
     1
102
RTVSPropertyOp20
 70
     1
102
RTVSPropertyOp21
 70
     1
102
RTVSPropertyOp22
 70
     1
102
RTVSPropertyOp23
 70
     1
102
RTVSPropertyOp24
 70
     1
102
RTVSPropertyOp25
 70
     1
102
RTVSPropertyOp26
 70
     1
102
RTVSPropertyOp27
 70
     1
102
RTVSPropertyOp28
 70
     1
102
RTVSPropertyOp29
 70
     1
102
RTVSPropertyOp30
 70
     1
102
RTVSPropertyOp31
 70
     1
102
RTVSPropertyOp32
 70
     1
  0
XRECORD
  5
416
102
{ACAD_REACTORS
330
415
102
}
330
415
100
AcDbXrecord
280
     1
102
RTVSPropertyOp0
 70
     1
102
RTVSPropertyOp1
 70
     1
102
RTVSPropertyOp2
 70
     1
102
RTVSPropertyOp3
 70
     1
102
RTVSPropertyOp4
 70
     1
102
RTVSPropertyOp5
 70
     1
102
RTVSPropertyOp6
 70
     1
102
RTVSPropertyOp7
 70
     1
102
RTVSPropertyOp8
 70
     1
102
RTVSPropertyOp9
 70
     1
102
RTVSPropertyOp10
 70
     1
102
RTVSPropertyOp11
 70
     1
102
RTVSPropertyOp12
 70
     1
102
RTVSPropertyOp13
 70
     1
102
RTVSPropertyOp14
 70
     1
102
RTVSPropertyOp15
 70
     1
102
RTVSPropertyOp16
 70
     1
102
RTVSPropertyOp17
 70
     1
102
RTVSPropertyOp18
 70
     1
102
RTVSPropertyOp19
 70
     1
102
RTVSPropertyOp20
 70
     1
102
RTVSPropertyOp21
 70
     1
102
RTVSPropertyOp22
 70
     1
102
RTVSPropertyOp23
 70
     1
102
RTVSPropertyOp24
 70
     1
102
RTVSPropertyOp25
 70
     1
102
RTVSPropertyOp26
 70
     1
102
RTVSPropertyOp27
 70
     1
102
RTVSPropertyOp28
 70
     1
102
RTVSPropertyOp29
 70
     1
102
RTVSPropertyOp30
 70
     1
102
RTVSPropertyOp31
 70
     1
102
RTVSPropertyOp32
 70
     1
  0
XRECORD
  5
42A
102
{ACAD_REACTORS
330
429
102
}
330
429
100
AcDbXrecord
280
     1
102
RTVSPropertyOp0
 70
     1
102
RTVSPropertyOp1
 70
     1
102
RTVSPropertyOp2
 70
     1
102
RTVSPropertyOp3
 70
     1
102
RTVSPropertyOp4
 70
     1
102
RTVSPropertyOp5
 70
     1
102
RTVSPropertyOp6
 70
     1
102
RTVSPropertyOp7
 70
     1
102
RTVSPropertyOp8
 70
     1
102
RTVSPropertyOp9
 70
     1
102
RTVSPropertyOp10
 70
     1
102
RTVSPropertyOp11
 70
     1
102
RTVSPropertyOp12
 70
     1
102
RTVSPropertyOp13
 70
     1
102
RTVSPropertyOp14
 70
     1
102
RTVSPropertyOp15
 70
     1
102
RTVSPropertyOp16
 70
     1
102
RTVSPropertyOp17
 70
     1
102
RTVSPropertyOp18
 70
     1
102
RTVSPropertyOp19
 70
     1
102
RTVSPropertyOp20
 70
     1
102
RTVSPropertyOp21
 70
     1
102
RTVSPropertyOp22
 70
     1
102
RTVSPropertyOp23
 70
     1
102
RTVSPropertyOp24
 70
     1
102
RTVSPropertyOp25
 70
     1
102
RTVSPropertyOp26
 70
     1
102
RTVSPropertyOp27
 70
     1
102
RTVSPropertyOp28
 70
     1
102
RTVSPropertyOp29
 70
     1
102
RTVSPropertyOp30
 70
     1
102
RTVSPropertyOp31
 70
     1
102
RTVSPropertyOp32
 70
     1
  0
XRECORD
  5
420
102
{ACAD_REACTORS
330
41F
102
}
330
41F
100
AcDbXrecord
280
     1
102
RTVSPropertyOp0
 70
     1
102
RTVSPropertyOp1
 70
     1
102
RTVSPropertyOp2
 70
     1
102
RTVSPropertyOp3
 70
     1
102
RTVSPropertyOp4
 70
     1
102
RTVSPropertyOp5
 70
     1
102
RTVSPropertyOp6
 70
     1
102
RTVSPropertyOp7
 70
     1
102
RTVSPropertyOp8
 70
     1
102
RTVSPropertyOp9
 70
     1
102
RTVSPropertyOp10
 70
     1
102
RTVSPropertyOp11
 70
     1
102
RTVSPropertyOp12
 70
     1
102
RTVSPropertyOp13
 70
     1
102
RTVSPropertyOp14
 70
     1
102
RTVSPropertyOp15
 70
     1
102
RTVSPropertyOp16
 70
     1
102
RTVSPropertyOp17
 70
     1
102
RTVSPropertyOp18
 70
     1
102
RTVSPropertyOp19
 70
     1
102
RTVSPropertyOp20
 70
     1
102
RTVSPropertyOp21
 70
     1
102
RTVSPropertyOp22
 70
     1
102
RTVSPropertyOp23
 70
     1
102
RTVSPropertyOp24
 70
     1
102
RTVSPropertyOp25
 70
     1
102
RTVSPropertyOp26
 70
     1
102
RTVSPropertyOp27
 70
     1
102
RTVSPropertyOp28
 70
     1
102
RTVSPropertyOp29
 70
     1
102
RTVSPropertyOp30
 70
     1
102
RTVSPropertyOp31
 70
     1
102
RTVSPropertyOp32
 70
     1
  0
XRECORD
  5
428
102
{ACAD_REACTORS
330
427
102
}
330
427
100
AcDbXrecord
280
     1
102
RTVSPropertyOp0
 70
     1
102
RTVSPropertyOp1
 70
     1
102
RTVSPropertyOp2
 70
     1
102
RTVSPropertyOp3
 70
     1
102
RTVSPropertyOp4
 70
     1
102
RTVSPropertyOp5
 70
     1
102
RTVSPropertyOp6
 70
     1
102
RTVSPropertyOp7
 70
     1
102
RTVSPropertyOp8
 70
     1
102
RTVSPropertyOp9
 70
     1
102
RTVSPropertyOp10
 70
     1
102
RTVSPropertyOp11
 70
     1
102
RTVSPropertyOp12
 70
     1
102
RTVSPropertyOp13
 70
     1
102
RTVSPropertyOp14
 70
     1
102
RTVSPropertyOp15
 70
     1
102
RTVSPropertyOp16
 70
     1
102
RTVSPropertyOp17
 70
     1
102
RTVSPropertyOp18
 70
     1
102
RTVSPropertyOp19
 70
     1
102
RTVSPropertyOp20
 70
     1
102
RTVSPropertyOp21
 70
     1
102
RTVSPropertyOp22
 70
     1
102
RTVSPropertyOp23
 70
     1
102
RTVSPropertyOp24
 70
     1
102
RTVSPropertyOp25
 70
     1
102
RTVSPropertyOp26
 70
     1
102
RTVSPropertyOp27
 70
     1
102
RTVSPropertyOp28
 70
     1
102
RTVSPropertyOp29
 70
     1
102
RTVSPropertyOp30
 70
     1
102
RTVSPropertyOp31
 70
     1
102
RTVSPropertyOp32
 70
     1
  0
ENDSEC
  0
EOF
