  0
SECTION
  2
HEADER
  9
$ACADVER
  1
AC1018
  9
$ACADMAINTVER
 70
     0
  9
$DWGCODEPAGE
  3
ANSI_1252
  9
$INSBASE
 10
0.0
 20
0.0
 30
0.0
  9
$EXTMIN
 10
-239.7658686571179
 20
-1.68046576755268
 30
0.0
  9
$EXTMAX
 10
57.23413134288015
 20
208.3195342324474
 30
0.0
  9
$LIMMIN
 10
0.0
 20
0.0
  9
$LIMMAX
 10
12.0
 20
9.0
  9
$ORTHOMODE
 70
     0
  9
$REGENMODE
 70
     1
  9
$FILLMODE
 70
     1
  9
$QTEXTMODE
 70
     0
  9
$MIRRTEXT
 70
     1
  9
$LTSCALE
 40
1.0
  9
$ATTMODE
 70
     1
  9
$TEXTSIZE
 40
0.2
  9
$TRACEWID
 40
0.05
  9
$TEXTSTYLE
  7
Standard
  9
$CLAYER
  8
0
  9
$CELTYPE
  6
ByLayer
  9
$CECOLOR
 62
   256
  9
$CELTSCALE
 40
1.0
  9
$DISPSILH
 70
     0
  9
$DIMSCALE
 40
1.0
  9
$DIMASZ
 40
0.18
  9
$DIMEXO
 40
0.0625
  9
$DIMDLI
 40
0.38
  9
$DIMRND
 40
0.0
  9
$DIMDLE
 40
0.0
  9
$DIMEXE
 40
0.18
  9
$DIMTP
 40
0.0
  9
$DIMTM
 40
0.0
  9
$DIMTXT
 40
0.18
  9
$DIMCEN
 40
0.09
  9
$DIMTSZ
 40
0.0
  9
$DIMTOL
 70
     0
  9
$DIMLIM
 70
     0
  9
$DIMTIH
 70
     1
  9
$DIMTOH
 70
     1
  9
$DIMSE1
 70
     0
  9
$DIMSE2
 70
     0
  9
$DIMTAD
 70
     0
  9
$DIMZIN
 70
     0
  9
$DIMBLK
  1

  9
$DIMASO
 70
     1
  9
$DIMSHO
 70
     1
  9
$DIMPOST
  1

  9
$DIMAPOST
  1

  9
$DIMALT
 70
     0
  9
$DIMALTD
 70
     2
  9
$DIMALTF
 40
25.4
  9
$DIMLFAC
 40
1.0
  9
$DIMTOFL
 70
     0
  9
$DIMTVP
 40
0.0
  9
$DIMTIX
 70
     0
  9
$DIMSOXD
 70
     0
  9
$DIMSAH
 70
     0
  9
$DIMBLK1
  1

  9
$DIMBLK2
  1

  9
$DIMSTYLE
  2
Standard
  9
$DIMCLRD
 70
     0
  9
$DIMCLRE
 70
     0
  9
$DIMCLRT
 70
     0
  9
$DIMTFAC
 40
1.0
  9
$DIMGAP
 40
0.09
  9
$DIMJUST
 70
     0
  9
$DIMSD1
 70
     0
  9
$DIMSD2
 70
     0
  9
$DIMTOLJ
 70
     1
  9
$DIMTZIN
 70
     0
  9
$DIMALTZ
 70
     0
  9
$DIMALTTZ
 70
     0
  9
$DIMUPT
 70
     0
  9
$DIMDEC
 70
     4
  9
$DIMTDEC
 70
     4
  9
$DIMALTU
 70
     2
  9
$DIMALTTD
 70
     2
  9
$DIMTXSTY
  7
Standard
  9
$DIMAUNIT
 70
     0
  9
$DIMADEC
 70
     0
  9
$DIMALTRND
 40
0.0
  9
$DIMAZIN
 70
     0
  9
$DIMDSEP
 70
    46
  9
$DIMATFIT
 70
     3
  9
$DIMFRAC
 70
     0
  9
$DIMLDRBLK
  1

  9
$DIMLUNIT
 70
     2
  9
$DIMLWD
 70
    -2
  9
$DIMLWE
 70
    -2
  9
$DIMTMOVE
 70
     0
  9
$LUNITS
 70
     2
  9
$LUPREC
 70
     4
  9
$SKETCHINC
 40
0.1
  9
$FILLETRAD
 40
0.5
  9
$AUNITS
 70
     0
  9
$AUPREC
 70
     0
  9
$MENU
  1
.
  9
$ELEVATION
 40
0.0
  9
$PELEVATION
 40
0.0
  9
$THICKNESS
 40
0.0
  9
$LIMCHECK
 70
     0
  9
$CHAMFERA
 40
0.5
  9
$CHAMFERB
 40
0.5
  9
$CHAMFERC
 40
1.0
  9
$CHAMFERD
 40
0.0
  9
$SKPOLY
 70
     0
  9
$TDCREATE
 40
2458102.606452697
  9
$TDUCREATE
 40
2458102.56478603
  9
$TDUPDATE
 40
2458102.606453241
  9
$TDUUPDATE
 40
2458102.564786574
  9
$TDINDWG
 40
0.0000000116
  9
$TDUSRTIMER
 40
0.0000000116
  9
$USRTIMER
 70
     1
  9
$ANGBASE
 50
0.0
  9
$ANGDIR
 70
     0
  9
$PDMODE
 70
     0
  9
$PDSIZE
 40
0.0
  9
$PLINEWID
 40
0.0
  9
$SPLFRAME
 70
     0
  9
$SPLINETYPE
 70
     6
  9
$SPLINESEGS
 70
     8
  9
$HANDSEED
  5
43A
  9
$SURFTAB1
 70
     6
  9
$SURFTAB2
 70
     6
  9
$SURFTYPE
 70
     6
  9
$SURFU
 70
     6
  9
$SURFV
 70
     6
  9
$UCSBASE
  2

  9
$UCSNAME
  2

  9
$UCSORG
 10
0.0
 20
0.0
 30
0.0
  9
$UCSXDIR
 10
1.0
 20
0.0
 30
0.0
  9
$UCSYDIR
 10
0.0
 20
1.0
 30
0.0
  9
$UCSORTHOREF
  2

  9
$UCSORTHOVIEW
 70
     0
  9
$UCSORGTOP
 10
0.0
 20
0.0
 30
0.0
  9
$UCSORGBOTTOM
 10
0.0
 20
0.0
 30
0.0
  9
$UCSORGLEFT
 10
0.0
 20
0.0
 30
0.0
  9
$UCSORGRIGHT
 10
0.0
 20
0.0
 30
0.0
  9
$UCSORGFRONT
 10
0.0
 20
0.0
 30
0.0
  9
$UCSORGBACK
 10
0.0
 20
0.0
 30
0.0
  9
$PUCSBASE
  2

  9
$PUCSNAME
  2

  9
$PUCSORG
 10
0.0
 20
0.0
 30
0.0
  9
$PUCSXDIR
 10
1.0
 20
0.0
 30
0.0
  9
$PUCSYDIR
 10
0.0
 20
1.0
 30
0.0
  9
$PUCSORTHOREF
  2

  9
$PUCSORTHOVIEW
 70
     0
  9
$PUCSORGTOP
 10
0.0
 20
0.0
 30
0.0
  9
$PUCSORGBOTTOM
 10
0.0
 20
0.0
 30
0.0
  9
$PUCSORGLEFT
 10
0.0
 20
0.0
 30
0.0
  9
$PUCSORGRIGHT
 10
0.0
 20
0.0
 30
0.0
  9
$PUCSORGFRONT
 10
0.0
 20
0.0
 30
0.0
  9
$PUCSORGBACK
 10
0.0
 20
0.0
 30
0.0
  9
$USERI1
 70
     0
  9
$USERI2
 70
     0
  9
$USERI3
 70
     0
  9
$USERI4
 70
     0
  9
$USERI5
 70
     0
  9
$USERR1
 40
18.1
  9
$USERR2
 40
0.0
  9
$USERR3
 40
0.0
  9
$USERR4
 40
0.0
  9
$USERR5
 40
0.0
  9
$WORLDVIEW
 70
     1
  9
$SHADEDGE
 70
     3
  9
$SHADEDIF
 70
    70
  9
$TILEMODE
 70
     1
  9
$MAXACTVP
 70
    64
  9
$PINSBASE
 10
0.0
 20
0.0
 30
0.0
  9
$PLIMCHECK
 70
     0
  9
$PEXTMIN
 10
1.00000000000000E+20
 20
1.00000000000000E+20
 30
1.00000000000000E+20
  9
$PEXTMAX
 10
-1.00000000000000E+20
 20
-1.00000000000000E+20
 30
-1.00000000000000E+20
  9
$PLIMMIN
 10
0.0
 20
0.0
  9
$PLIMMAX
 10
12.0
 20
9.0
  9
$UNITMODE
 70
     0
  9
$VISRETAIN
 70
     1
  9
$PLINEGEN
 70
     0
  9
$PSLTSCALE
 70
     1
  9
$TREEDEPTH
 70
  3020
  9
$CMLSTYLE
  2
Standard
  9
$CMLJUST
 70
     0
  9
$CMLSCALE
 40
1.0
  9
$PROXYGRAPHICS
 70
     1
  9
$MEASUREMENT
 70
     1
  9
$CELWEIGHT
370
    -1
  9
$ENDCAPS
280
     0
  9
$JOINSTYLE
280
     0
  9
$LWDISPLAY
290
     0
  9
$INSUNITS
 70
     4
  9
$HYPERLINKBASE
  1

  9
$STYLESHEET
  1

  9
$XEDIT
290
     1
  9
$CEPSNTYPE
380
     0
  9
$PSTYLEMODE
290
     1
  9
$FINGERPRINTGUID
  2
{59AE909E-41C6-476D-B6D7-F44DB71A0CB0}
  9
$VERSIONGUID
  2
{FAEB1C32-E019-11D5-929B-00C0DF256EC4}
  9
$EXTNAMES
290
     1
  9
$PSVPSCALE
 40
0.0
  9
$OLESTARTUP
290
     0
  9
$SORTENTS
280
   127
  9
$INDEXCTL
280
     0
  9
$HIDETEXT
280
     1
  9
$XCLIPFRAME
290
     0
  9
$HALOGAP
280
     0
  9
$OBSCOLOR
 70
   257
  9
$OBSLTYPE
280
     0
  9
$INTERSECTIONDISPLAY
280
     0
  9
$INTERSECTIONCOLOR
 70
   257
  9
$DIMASSOC
280
     2
  9
$PROJECTNAME
  1

  0
ENDSEC
  0
SECTION
  2
CLASSES
  0
CLASS
  1
ACDBDICTIONARYWDFLT
  2
AcDbDictionaryWithDefault
  3
ObjectDBX Classes
 90
        0
 91
        4
280
     0
281
     0
  0
CLASS
  1
VISUALSTYLE
  2
AcDbVisualStyle
  3
ObjectDBX Classes
 90
     4095
 91
        4
280
     0
281
     0
  0
CLASS
  1
MATERIAL
  2
AcDbMaterial
  3
ObjectDBX Classes
 90
     1153
 91
        4
280
     0
281
     0
  0
ENDSEC
  0
SECTION
  2
TABLES
  0
TABLE
  2
VPORT
  5
8
330
0
100
AcDbSymbolTable
 70
     1
  0
VPORT
  5
29
330
8
100
AcDbSymbolTableRecord
100
AcDbViewportTableRecord
  2
*Active
 70
     0
 10
0.0
 20
0.0
 11
1.0
 21
1.0
 12
-91.26586865711887
 22
103.3195342324474
 13
0.0
 23
0.0
 14
0.5
 24
0.5
 15
0.5
 25
0.5
 16
0.0
 26
0.0
 36
1.0
 17
0.0
 27
0.0
 37
0.0
 40
231.0000000000001
 41
1.60267857142857
 42
50.0
 43
0.0
 44
0.0
 50
0.0
 51
0.0
 71
     0
 72
   100
 73
     1
 74
     3
 75
     0
 76
     0
 77
     0
 78
     0
281
     0
 65
     1
110
0.0
120
0.0
130
0.0
111
1.0
121
0.0
131
0.0
112
0.0
122
1.0
132
0.0
 79
     0
146
0.0
  0
ENDTAB
  0
TABLE
  2
LTYPE
  5
5
330
0
100
AcDbSymbolTable
 70
     8
  0
LTYPE
  5
14
330
5
100
AcDbSymbolTableRecord
100
AcDbLinetypeTableRecord
  2
ByBlock
 70
     0
  3

 72
    65
 73
     0
 40
0.0
  0
LTYPE
  5
15
330
5
100
AcDbSymbolTableRecord
100
AcDbLinetypeTableRecord
  2
ByLayer
 70
     0
  3

 72
    65
 73
     0
 40
0.0
  0
LTYPE
  5
16
330
5
100
AcDbSymbolTableRecord
100
AcDbLinetypeTableRecord
  2
Continuous
 70
     0
  3
Solid line
 72
    65
 73
     0
 40
0.0
  0
LTYPE
  5
3F
330
5
100
AcDbSymbolTableRecord
100
AcDbLinetypeTableRecord
  2
DASHED
 70
     0
  3
Dashed
 72
    65
 73
     2
 40
15.0
 49
7.0
 74
     0
 49
-8.0
 74
     0
  0
LTYPE
  5
40
330
5
100
AcDbSymbolTableRecord
100
AcDbLinetypeTableRecord
  2
DOTTED
 70
     0
  3
Dotted
 72
    65
 73
     2
 40
1.0
 49
0.0
 74
     0
 49
-1.0
 74
     0
  0
LTYPE
  5
41
330
5
100
AcDbSymbolTableRecord
100
AcDbLinetypeTableRecord
  2
DOT_CENTER
 70
     0
  3
Dot_Center
 72
    65
 73
     4
 40
14.0
 49
12.0
 74
     0
 49
-1.0
 74
     0
 49
0.0
 74
     0
 49
-1.0
 74
     0
  0
LTYPE
  5
42
330
5
100
AcDbSymbolTableRecord
100
AcDbLinetypeTableRecord
  2
LONG_DASHED
 70
     0
  3
Long_Dashed
 72
    65
 73
     2
 40
15.0
 49
10.0
 74
     0
 49
-5.0
 74
     0
  0
LTYPE
  5
43
330
5
100
AcDbSymbolTableRecord
100
AcDbLinetypeTableRecord
  2
DASH_CENTER
 70
     0
  3
Dash_Center
 72
    65
 73
     4
 40
14.0
 49
11.0
 74
     0
 49
-1.0
 74
     0
 49
1.0
 74
     0
 49
-1.0
 74
     0
  0
LTYPE
  5
44
330
5
100
AcDbSymbolTableRecord
100
AcDbLinetypeTableRecord
  2
PHANTOM
 70
     0
  3
Phantom
 72
    65
 73
     6
 40
13.0
 49
10.0
 74
     0
 49
-1.0
 74
     0
 49
0.0
 74
     0
 49
-1.0
 74
     0
 49
0.0
 74
     0
 49
-1.0
 74
     0
  0
LTYPE
  5
45
330
5
100
AcDbSymbolTableRecord
100
AcDbLinetypeTableRecord
  2
CENTER_DASH_DASH
 70
     0
  3
Center_Dash_Dash
 72
    65
 73
     6
 40
14.0
 49
9.0
 74
     0
 49
-1.0
 74
     0
 49
1.0
 74
     0
 49
-1.0
 74
     0
 49
1.0
 74
     0
 49
-1.0
 74
     0
  0
ENDTAB
  0
TABLE
  2
LAYER
  5
2
330
0
100
AcDbSymbolTable
 70
     2
  0
LAYER
  5
10
330
2
100
AcDbSymbolTableRecord
100
AcDbLayerTableRecord
  2
0
 70
     0
 62
     7
  6
Continuous
370
    -3
390
F
  0
LAYER
  5
46
330
2
100
AcDbSymbolTableRecord
100
AcDbLayerTableRecord
  2
1
 70
     0
 62
     7
  6
Continuous
370
    -3
390
F
  0
ENDTAB
  0
TABLE
  2
STYLE
  5
3
330
0
100
AcDbSymbolTable
 70
     5
  0
STYLE
  5
11
330
3
100
AcDbSymbolTableRecord
100
AcDbTextStyleTableRecord
  2
Standard
 70
     0
 40
0.0
 41
1.0
 50
0.0
 71
     0
 42
0.2
  3
txt
  4

  0
STYLE
  5
138
330
3
100
AcDbSymbolTableRecord
100
AcDbTextStyleTableRecord
  2
CONVERTER_11
 70
     0
 40
0.0
 41
0.9
 50
0.0
 71
     0
 42
0.2
  3
txt.shx
  4

  0
STYLE
  5
3D5
330
3
100
AcDbSymbolTableRecord
100
AcDbTextStyleTableRecord
  2
CONVERTER_12
 70
     0
 40
0.0
 41
0.81
 50
0.0
 71
     0
 42
0.2
  3
txt.shx
  4

  0
STYLE
  5
3EB
330
3
100
AcDbSymbolTableRecord
100
AcDbTextStyleTableRecord
  2
CONVERTER_13
 70
     0
 40
0.0
 41
0.72
 50
0.0
 71
     0
 42
0.2
  3
txt.shx
  4

  0
STYLE
  5
3EE
330
3
100
AcDbSymbolTableRecord
100
AcDbTextStyleTableRecord
  2
CONVERTER_14
 70
     0
 40
0.0
 41
0.855
 50
0.0
 71
     0
 42
0.2
  3
txt.shx
  4

  0
ENDTAB
  0
TABLE
  2
VIEW
  5
6
330
0
100
AcDbSymbolTable
 70
     0
  0
ENDTAB
  0
TABLE
  2
UCS
  5
7
330
0
100
AcDbSymbolTable
 70
     0
  0
ENDTAB
  0
TABLE
  2
APPID
  5
9
330
0
100
AcDbSymbolTable
 70
     1
  0
APPID
  5
12
330
9
100
AcDbSymbolTableRecord
100
AcDbRegAppTableRecord
  2
ACAD
 70
     0
  0
ENDTAB
  0
TABLE
  2
DIMSTYLE
  5
A
330
0
100
AcDbSymbolTable
 70
     7
100
AcDbDimStyleTable
  0
DIMSTYLE
105
27
330
A
100
AcDbSymbolTableRecord
100
AcDbDimStyleTableRecord
  2
Standard
 70
     0
178
     0
340
11
  0
DIMSTYLE
105
179
102
{ACAD_REACTORS
330
17A
102
}
330
A
100
AcDbSymbolTableRecord
100
AcDbDimStyleTableRecord
  2
ME10_DIM_10
 70
     0
 41
3.5
 42
0.0
 44
1.5
 73
     0
 74
     0
 77
     1
 78
     8
140
3.5
147
1.5
172
     1
173
     1
174
     1
175
     1
176
     2
177
     2
178
     3
340
138
  0
DIMSTYLE
105
2AB
102
{ACAD_REACTORS
330
2AC
102
}
330
A
100
AcDbSymbolTableRecord
100
AcDbDimStyleTableRecord
  2
ME10_DIM_11
 70
     0
 41
3.5
 42
0.0
 44
1.5
 73
     0
 74
     0
 77
     1
 78
     8
140
3.5
147
1.5
172
     1
173
     1
174
     1
175
     1
176
     2
177
     2
178
     3
340
138
  0
DIMSTYLE
105
2B6
102
{ACAD_REACTORS
330
2B7
102
}
330
A
100
AcDbSymbolTableRecord
100
AcDbDimStyleTableRecord
  2
ME10_DIM_12
 70
     0
 41
3.5
 42
0.0
 44
1.5
 73
     0
 74
     0
 77
     1
 78
     8
140
3.5
147
1.5
172
     1
173
     1
174
     1
175
     1
176
     2
177
     2
178
     3
340
138
  0
DIMSTYLE
105
2C1
102
{ACAD_REACTORS
330
2C2
102
}
330
A
100
AcDbSymbolTableRecord
100
AcDbDimStyleTableRecord
  2
ME10_DIM_13
 70
     0
 41
3.5
 42
0.0
 44
1.5
 73
     0
 74
     0
 77
     1
 78
     8
140
3.5
147
1.5
172
     1
173
     1
174
     1
175
     1
176
     2
177
     2
178
     3
340
138
  0
DIMSTYLE
105
2CC
102
{ACAD_REACTORS
330
2CD
102
}
330
A
100
AcDbSymbolTableRecord
100
AcDbDimStyleTableRecord
  2
ME10_DIM_14
 70
     0
 41
3.5
 42
0.0
 44
2.0
 73
     0
 74
     0
 77
     1
 78
     8
140
3.5
147
2.0
172
     1
173
     1
174
     1
175
     1
176
     2
177
     2
178
     3
340
138
  0
DIMSTYLE
105
2D7
102
{ACAD_REACTORS
330
2D8
102
}
330
A
100
AcDbSymbolTableRecord
100
AcDbDimStyleTableRecord
  2
ME10_DIM_15
 70
     0
 41
3.5
 42
0.0
 44
2.0
 73
     0
 74
     0
 77
     1
 78
     8
140
3.5
147
2.0
172
     1
173
     1
174
     1
175
     1
176
     2
177
     2
178
     3
340
138
  0
ENDTAB
  0
TABLE
  2
BLOCK_RECORD
  5
1
330
0
100
AcDbSymbolTable
 70
    23
  0
BLOCK_RECORD
  5
1F
330
1
100
AcDbSymbolTableRecord
100
AcDbBlockTableRecord
  2
*Model_Space
340
22
  0
BLOCK_RECORD
  5
1B
330
1
100
AcDbSymbolTableRecord
100
AcDbBlockTableRecord
  2
*Paper_Space
340
1E
  0
BLOCK_RECORD
  5
23
330
1
100
AcDbSymbolTableRecord
100
AcDbBlockTableRecord
  2
*Paper_Space0
340
26
  0
BLOCK_RECORD
  5
47
330
1
100
AcDbSymbolTableRecord
100
AcDbBlockTableRecord
  2
OTTA_25-M5-select__1
340
0
102
{BLKREFS
331
4B
102
}
  0
BLOCK_RECORD
  5
4A
330
1
100
AcDbSymbolTableRecord
100
AcDbBlockTableRecord
  2
AllgSicht1
340
0
102
{BLKREFS
331
7D
102
}
  0
BLOCK_RECORD
  5
4E
330
1
100
AcDbSymbolTableRecord
100
AcDbBlockTableRecord
  2
OTTA_25-M5-select__2
340
0
102
{BLKREFS
331
52
102
}
  0
BLOCK_RECORD
  5
51
330
1
100
AcDbSymbolTableRecord
100
AcDbBlockTableRecord
  2
Drfsicht1
340
0
102
{BLKREFS
331
7E
102
}
  0
BLOCK_RECORD
  5
55
330
1
100
AcDbSymbolTableRecord
100
AcDbBlockTableRecord
  2
OTTA_25-M5-select__3
340
0
102
{BLKREFS
331
59
102
}
  0
BLOCK_RECORD
  5
58
330
1
100
AcDbSymbolTableRecord
100
AcDbBlockTableRecord
  2
Rckans1
340
0
102
{BLKREFS
331
7F
102
}
  0
BLOCK_RECORD
  5
5C
330
1
100
AcDbSymbolTableRecord
100
AcDbBlockTableRecord
  2
OTTA_25-M5-select__4
340
0
102
{BLKREFS
331
60
102
}
  0
BLOCK_RECORD
  5
5F
330
1
100
AcDbSymbolTableRecord
100
AcDbBlockTableRecord
  2
SA_Links1
340
0
102
{BLKREFS
331
80
102
}
  0
BLOCK_RECORD
  5
63
330
1
100
AcDbSymbolTableRecord
100
AcDbBlockTableRecord
  2
OTTA_25-M5-select__5
340
0
102
{BLKREFS
331
67
102
}
  0
BLOCK_RECORD
  5
66
330
1
100
AcDbSymbolTableRecord
100
AcDbBlockTableRecord
  2
SA_Rechts1
340
0
102
{BLKREFS
331
81
102
}
  0
BLOCK_RECORD
  5
6A
330
1
100
AcDbSymbolTableRecord
100
AcDbBlockTableRecord
  2
OTTA_25-M5-select__6
340
0
102
{BLKREFS
331
6E
102
}
  0
BLOCK_RECORD
  5
6D
330
1
100
AcDbSymbolTableRecord
100
AcDbBlockTableRecord
  2
Vordans1
340
0
102
{BLKREFS
331
82
102
}
  0
BLOCK_RECORD
  5
71
330
1
100
AcDbSymbolTableRecord
100
AcDbBlockTableRecord
  2
_rahmen
340
0
102
{BLKREFS
331
78
102
}
  0
BLOCK_RECORD
  5
74
330
1
100
AcDbSymbolTableRecord
100
AcDbBlockTableRecord
  2
_punkt
340
0
102
{BLKREFS
331
79
102
}
  0
BLOCK_RECORD
  5
77
330
1
100
AcDbSymbolTableRecord
100
AcDbBlockTableRecord
  2
A4I_CS
340
0
102
{BLKREFS
331
83
102
}
  0
BLOCK_RECORD
  5
7C
330
1
100
AcDbSymbolTableRecord
100
AcDbBlockTableRecord
  2
1
340
0
102
{BLKREFS
331
86
102
}
  0
BLOCK_RECORD
  5
16F
330
1
100
AcDbSymbolTableRecord
100
AcDbBlockTableRecord
  2
*D17
340
0
  0
BLOCK_RECORD
  5
2A2
330
1
100
AcDbSymbolTableRecord
100
AcDbBlockTableRecord
  2
*D18
340
0
  0
BLOCK_RECORD
  5
2AD
330
1
100
AcDbSymbolTableRecord
100
AcDbBlockTableRecord
  2
*D19
340
0
  0
BLOCK_RECORD
  5
2B8
330
1
100
AcDbSymbolTableRecord
100
AcDbBlockTableRecord
  2
*D20
340
0
  0
BLOCK_RECORD
  5
2C3
330
1
100
AcDbSymbolTableRecord
100
AcDbBlockTableRecord
  2
*D21
340
0
  0
BLOCK_RECORD
  5
2CE
330
1
100
AcDbSymbolTableRecord
100
AcDbBlockTableRecord
  2
*D22
340
0
  0
ENDTAB
  0
ENDSEC
  0
SECTION
  2
BLOCKS
  0
BLOCK
  5
20
330
1F
100
AcDbEntity
  8
0
100
AcDbBlockBegin
  2
*Model_Space
 70
     0
 10
0.0
 20
0.0
 30
0.0
  3
*Model_Space
  1

  0
ENDBLK
  5
21
330
1F
100
AcDbEntity
  8
0
100
AcDbBlockEnd
  0
BLOCK
  5
1C
330
1B
100
AcDbEntity
 67
     1
  8
0
100
AcDbBlockBegin
  2
*Paper_Space
 70
     0
 10
0.0
 20
0.0
 30
0.0
  3
*Paper_Space
  1

  0
ENDBLK
  5
1D
330
1B
100
AcDbEntity
 67
     1
  8
0
100
AcDbBlockEnd
  0
BLOCK
  5
24
330
23
100
AcDbEntity
  8
0
100
AcDbBlockBegin
  2
*Paper_Space0
 70
     0
 10
0.0
 20
0.0
 30
0.0
  3
*Paper_Space0
  1

  0
ENDBLK
  5
25
330
23
100
AcDbEntity
  8
0
100
AcDbBlockEnd
  0
BLOCK
  5
48
330
47
100
AcDbEntity
  8
0
100
AcDbBlockBegin
  2
OTTA_25-M5-select__1
 70
     0
 10
-28.49326192279363
 20
40.5389597019491
 30
0.0
  3
OTTA_25-M5-select__1
  1

  0
LINE
  5
87
330
47
100
AcDbEntity
  8
0
  6
Continuous
 62
     7
100
AcDbLine
 10
22.10095745885936
 20
101.7310419499019
 30
0.0
 11
-9.07595707738044
 21
110.7310419499016
 31
0.0
  0
LINE
  5
88
330
47
100
AcDbEntity
  8
0
  6
Continuous
 62
     7
100
AcDbLine
 10
15.38466699439739
 20
88.0310793682351
 30
0.0
 11
24.40966699439738
 21
95.84695863738966
 31
0.0
  0
LINE
  5
89
330
47
100
AcDbEntity
  8
0
  6
Continuous
 62
     7
100
AcDbLine
 10
20.9418506627981
 20
85.32341713790413
 30
0.0
 11
23.4682623042727
 21
83.1354804759704
 31
0.0
  0
LINE
  5
8A
330
47
100
AcDbEntity
  8
0
  6
Continuous
 62
     7
100
AcDbLine
 10
23.46826230427278
 20
72.9451355522203
 30
0.0
 11
23.4682623042727
 21
83.1354804759704
 31
0.0
  0
LINE
  5
8B
330
47
100
AcDbEntity
  8
0
  6
Continuous
 62
     7
100
AcDbLine
 10
23.46826230427278
 20
72.9451355522203
 30
0.0
 11
16.9730717758894
 21
74.82013555222026
 31
0.0
  0
LINE
  5
8C
330
47
100
AcDbEntity
  8
0
  6
Continuous
 62
     7
100
AcDbLine
 10
23.46826230427303
 20
46.5639233688776
 30
0.0
 11
23.468262304273
 21
50.12536616250027
 31
0.0
  0
LINE
  5
8D
330
47
100
AcDbEntity
  8
0
  6
Continuous
 62
     7
100
AcDbLine
 10
9.09224060145137
 20
45.87491974579106
 30
0.0
 11
12.64294475696757
 21
44.84991974579111
 31
0.0
  0
LINE
  5
8E
330
47
100
AcDbEntity
  8
0
  6
Continuous
 62
     7
100
AcDbLine
 10
8.2868696445945
 20
48.32014883340922
 30
0.0
 11
9.09224060145137
 21
45.87491974579106
 31
0.0
  0
LINE
  5
8F
330
47
100
AcDbEntity
  8
0
  6
Continuous
 62
     7
100
AcDbLine
 10
20.9418506627981
 20
85.32341713790413
 30
0.0
 11
19.33656929376855
 21
84.60863158370555
 31
0.0
  0
LINE
  5
90
330
47
100
AcDbEntity
  8
0
  6
Continuous
 62
     7
100
AcDbLine
 10
19.33656929376855
 20
84.60863158370555
 30
0.0
 11
19.73249314408295
 21
84.26575147136911
 31
0.0
  0
LINE
  5
91
330
47
100
AcDbEntity
  8
0
  6
Continuous
 62
     7
100
AcDbLine
 10
19.73249314408295
 20
84.26575147136911
 30
0.0
 11
19.26916955305826
 21
83.59700147136914
 31
0.0
  0
LINE
  5
92
330
47
100
AcDbEntity
  8
0
  6
Continuous
 62
     7
100
AcDbLine
 10
15.60236910033402
 20
89.94754381403658
 30
0.0
 11
24.62736910033401
 21
97.76342308319106
 31
0.0
  0
LINE
  5
93
330
47
100
AcDbEntity
  8
0
  6
Continuous
 62
     7
100
AcDbLine
 10
22.10095745885938
 20
99.95135974512482
 30
0.0
 11
24.62736910033401
 21
97.76342308319106
 31
0.0
  0
LINE
  5
94
330
47
100
AcDbEntity
  8
0
  6
Continuous
 62
     7
100
AcDbLine
 10
24.40966699439738
 20
95.84695863738966
 30
0.0
 11
24.62736910033401
 21
97.76342308319106
 31
0.0
  0
LINE
  5
95
330
47
100
AcDbEntity
  8
0
  6
Continuous
 62
     7
100
AcDbLine
 10
14.88505701271708
 20
98.51762702423561
 30
0.0
 11
14.88505701271708
 21
98.38079767072969
 31
0.0
  0
LINE
  5
96
330
47
100
AcDbEntity
  8
0
  6
Continuous
 62
     7
100
AcDbLine
 10
9.66540679934312
 20
97.81832649451232
 30
0.0
 11
14.88505701271708
 21
98.51762702423561
 31
0.0
  0
LINE
  5
97
330
47
100
AcDbEntity
  8
0
  6
Continuous
 62
     7
100
AcDbLine
 10
13.88525807736923
 20
97.76251365732959
 30
0.0
 11
11.41346025284372
 21
97.43135554186227
 31
0.0
  0
LINE
  5
98
330
47
100
AcDbEntity
  8
0
  6
Continuous
 62
     7
100
AcDbLine
 10
27.74380450573563
 20
91.88951085286013
 30
0.0
 11
23.79190220636448
 21
95.31195863738961
 31
0.0
  0
LINE
  5
99
330
47
100
AcDbEntity
  8
0
  6
Continuous
 62
     7
100
AcDbLine
 10
14.28829868520691
 20
71.452674604094
 30
0.0
 11
21.08445110791357
 21
69.4907943887424
 31
0.0
  0
LINE
  5
9A
330
47
100
AcDbEntity
  8
0
  6
Continuous
 62
     7
100
AcDbLine
 10
13.07595745885938
 20
92.13548047597034
 30
0.0
 11
13.07595745885936
 21
93.91516268074734
 31
0.0
  0
LINE
  5
9B
330
47
100
AcDbEntity
  8
0
  6
Continuous
 62
     7
100
AcDbLine
 10
8.39942027842385
 20
43.56344607481618
 30
0.0
 11
6.33986546092235
 21
48.57471789826454
 31
0.0
  0
LINE
  5
9C
330
47
100
AcDbEntity
  8
0
  6
Continuous
 62
     7
100
AcDbLine
 10
7.44679233426098
 20
43.40543337292397
 30
0.0
 11
8.39942027842385
 21
43.13043337292396
 31
0.0
  0
LINE
  5
9D
330
47
100
AcDbEntity
  8
0
  6
Continuous
 62
     7
100
AcDbLine
 10
8.39942027842385
 20
43.13043337292396
 30
0.0
 11
8.39942027842385
 21
43.56344607481618
 31
0.0
  0
LINE
  5
9E
330
47
100
AcDbEntity
  8
0
  6
Continuous
 62
     7
100
AcDbLine
 10
-1.87597113747867
 20
66.62148544261511
 30
0.0
 11
6.34902886252127
 21
73.74454438874221
 31
0.0
  0
LINE
  5
9F
330
47
100
AcDbEntity
  8
0
  6
Continuous
 62
     7
100
AcDbLine
 10
-17.88445072643403
 20
71.24273544261497
 30
0.0
 11
-11.06329830372748
 21
77.15002672376463
 31
0.0
  0
LINE
  5
A0
330
47
100
AcDbEntity
  8
0
  6
Continuous
 62
     7
100
AcDbLine
 10
-16.78026833660898
 20
80.62346996500074
 30
0.0
 11
-21.99807139441034
 21
86.07013555221991
 31
0.0
  0
LINE
  5
A1
330
47
100
AcDbEntity
  8
0
  6
Continuous
 62
     7
100
AcDbLine
 10
-1.87597113747867
 20
66.62148544261511
 30
0.0
 11
12.85945110791346
 21
62.36773544261526
 31
0.0
  0
LINE
  5
A2
330
47
100
AcDbEntity
  8
0
  6
Continuous
 62
     7
100
AcDbLine
 10
-3.27460216459043
 20
50.31094514957538
 30
0.0
 11
4.77732826016835
 21
47.98655305046013
 31
0.0
  0
LINE
  5
A3
330
47
100
AcDbEntity
  8
0
  6
Continuous
 62
     7
100
AcDbLine
 10
6.33986546092235
 20
48.57471789826454
 30
0.0
 11
6.33979411440562
 21
50.30502373196089
 31
0.0
  0
LINE
  5
A4
330
47
100
AcDbEntity
  8
0
  6
Continuous
 62
     7
100
AcDbLine
 10
7.49829139131009
 20
49.57794418238282
 30
0.0
 11
6.33986546092235
 21
48.57471789826454
 31
0.0
  0
LINE
  5
A5
330
47
100
AcDbEntity
  8
0
  6
Continuous
 62
     7
100
AcDbLine
 10
-19.55041917157919
 20
97.54205681083707
 30
0.0
 11
-24.29416917157919
 21
96.17265414110288
 31
0.0
  0
LINE
  5
A6
330
47
100
AcDbEntity
  8
0
  6
Continuous
 62
     7
100
AcDbLine
 10
-20.26826192279341
 20
72.24842510862676
 30
0.0
 11
-17.60945072643415
 21
71.4808924286556
 31
0.0
  0
LINE
  5
A7
330
47
100
AcDbEntity
  8
0
  6
Continuous
 62
     7
100
AcDbLine
 10
6.34902886252127
 20
73.74454438874221
 30
0.0
 11
9.28829868520691
 21
72.896050277068
 31
0.0
  0
LINE
  5
A8
330
47
100
AcDbEntity
  8
0
  6
Continuous
 62
     7
100
AcDbLine
 10
6.34902886252127
 20
73.74454438874221
 30
0.0
 11
6.34902886252125
 21
73.94661698295856
 31
0.0
  0
LINE
  5
A9
330
47
100
AcDbEntity
  8
0
  6
Continuous
 62
     7
100
AcDbLine
 10
-11.06329830372744
 20
73.31509023322583
 30
0.0
 11
-11.06329830372749
 21
78.97312287128418
 31
0.0
  0
LINE
  5
AA
330
47
100
AcDbEntity
  8
0
  6
Continuous
 62
     7
100
AcDbLine
 10
-20.26826192279341
 20
72.24842510862676
 30
0.0
 11
-20.26826192279354
 21
84.26445342563709
 31
0.0
  0
LINE
  5
AB
330
47
100
AcDbEntity
  8
0
  6
Continuous
 62
     7
100
AcDbLine
 10
-7.24099851392326
 20
51.86949413113382
 30
0.0
 11
-7.89565218463109
 21
51.30254742162013
 31
0.0
  0
LINE
  5
AC
330
47
100
AcDbEntity
  8
0
  6
Continuous
 62
     7
100
AcDbLine
 10
-6.06329830372745
 20
73.31509023322586
 30
0.0
 11
-6.06329830372748
 21
77.52974719831015
 31
0.0
  0
LINE
  5
AD
330
47
100
AcDbEntity
  8
0
  6
Continuous
 62
     7
100
AcDbLine
 10
-6.06329830372749
 20
77.32767460409373
 30
0.0
 11
-3.14902848104182
 21
76.48639737078439
 31
0.0
  0
LINE
  5
AE
330
47
100
AcDbEntity
  8
0
  6
Continuous
 62
     7
100
AcDbLine
 10
-24.75749276260386
 20
97.10890414110288
 30
0.0
 11
-24.36156891228939
 21
97.22319751188172
 31
0.0
  0
LINE
  5
AF
330
47
100
AcDbEntity
  8
0
  6
Continuous
 62
     7
100
AcDbLine
 10
-24.29416917157919
 20
96.17265414110288
 30
0.0
 11
-24.75749276260386
 21
97.10890414110288
 31
0.0
  0
LINE
  5
B0
330
47
100
AcDbEntity
  8
0
  6
Continuous
 62
     7
100
AcDbLine
 10
-24.36156891228939
 20
97.22319751188172
 30
0.0
 11
-25.96685028131901
 21
98.86479269661451
 31
0.0
  0
LINE
  5
B1
330
47
100
AcDbEntity
  8
0
  6
Continuous
 62
     7
100
AcDbLine
 10
-28.49326192279322
 20
51.26895970194877
 30
0.0
 11
-17.82382894816887
 21
48.18895970194892
 31
0.0
  0
LINE
  5
B2
330
47
100
AcDbEntity
  8
0
  6
Continuous
 62
     7
100
AcDbLine
 10
-24.85595522689886
 20
51.08498510573332
 30
0.0
 11
-27.45403143825187
 21
51.83498510573322
 31
0.0
  0
LINE
  5
B3
330
47
100
AcDbEntity
  8
0
  6
Continuous
 62
     7
100
AcDbLine
 10
-28.49326192279363
 20
98.1354804759699
 30
0.0
 11
-25.96685028131901
 21
98.86479269661451
 31
0.0
  0
LINE
  5
B4
330
47
100
AcDbEntity
  8
0
  6
Continuous
 62
     7
100
AcDbLine
 10
-21.99807139441034
 20
86.07013555221991
 30
0.0
 11
-28.49326192279355
 21
87.94513555221981
 31
0.0
  0
LINE
  5
B5
330
47
100
AcDbEntity
  8
0
  6
Continuous
 62
     7
100
AcDbLine
 10
-28.49326192279334
 20
65.12536616249982
 30
0.0
 11
-17.88445072643402
 21
62.06286616249993
 31
0.0
  0
LINE
  5
B6
330
47
100
AcDbEntity
  8
0
  6
Continuous
 62
     7
100
AcDbLine
 10
-28.49326192279334
 20
65.12536616249982
 30
0.0
 11
-28.49326192279332
 21
62.22026397109364
 31
0.0
  0
LINE
  5
B7
330
47
100
AcDbEntity
  8
0
  6
Continuous
 62
     7
100
AcDbLine
 10
-28.49326192279325
 20
54.30004861519431
 30
0.0
 11
-28.49326192279322
 21
51.26895970194877
 31
0.0
  0
LINE
  5
B8
330
47
100
AcDbEntity
  8
0
  6
Continuous
 62
     7
100
AcDbLine
 10
-28.49326192279363
 20
98.1354804759699
 30
0.0
 11
-28.49326192279355
 21
87.94513555221981
 31
0.0
  0
LINE
  5
B9
330
47
100
AcDbEntity
  8
0
  6
Continuous
 62
     7
100
AcDbLine
 10
-28.49326192279332
 20
62.22026397109364
 30
0.0
 11
-24.85595522689886
 21
51.08498510573332
 31
0.0
  0
LINE
  5
BA
330
47
100
AcDbEntity
  8
0
  6
Continuous
 62
     7
100
AcDbLine
 10
-25.61981291497958
 20
53.42346494297902
 30
0.0
 11
-27.45403143825187
 21
51.83498510573322
 31
0.0
  0
LINE
  5
BB
330
47
100
AcDbEntity
  8
0
  6
Continuous
 62
     7
100
AcDbLine
 10
-27.45403143825187
 20
51.83498510573322
 30
0.0
 11
-27.45403143825189
 21
54.00004861519432
 31
0.0
  0
LINE
  5
BC
330
47
100
AcDbEntity
  8
0
  6
Continuous
 62
     2
100
AcDbLine
 10
-26.17107971727459
 20
55.11111739738963
 30
0.0
 11
-27.45403143825189
 21
54.00004861519432
 31
0.0
  0
LINE
  5
BD
330
47
100
AcDbEntity
  8
0
  6
Continuous
 62
     2
100
AcDbLine
 10
-26.40864269241371
 20
55.83839452781277
 30
0.0
 11
-27.88704414014412
 21
54.55806131708654
 31
0.0
  0
LINE
  5
BE
330
47
100
AcDbEntity
  8
0
  6
Continuous
 62
     2
100
AcDbLine
 10
-26.45956653828578
 20
55.99429318362917
 30
0.0
 11
-28.060249220901
 21
54.60806131708652
 31
0.0
  0
LINE
  5
BF
330
47
100
AcDbEntity
  8
0
  6
Continuous
 62
     7
100
AcDbLine
 10
-27.88704414014412
 20
54.55806131708654
 30
0.0
 11
-28.060249220901
 21
54.60806131708652
 31
0.0
  0
LINE
  5
C0
330
47
100
AcDbEntity
  8
0
  6
Continuous
 62
     7
100
AcDbLine
 10
-26.51772796780232
 20
56.17234903402134
 30
0.0
 11
-28.38757605625501
 21
54.55301308820354
 31
0.0
  0
LINE
  5
C1
330
47
100
AcDbEntity
  8
0
  6
Continuous
 62
     7
100
AcDbLine
 10
-28.49326192279334
 20
65.12536616249982
 30
0.0
 11
-20.26826192279341
 21
72.24842510862676
 31
0.0
  0
LINE
  5
C2
330
47
100
AcDbEntity
  8
0
  6
Continuous
 62
     7
100
AcDbLine
 10
-25.96685028131901
 20
98.86479269661451
 30
0.0
 11
-16.94185028131907
 21
106.6806719657691
 31
0.0
  0
LINE
  5
C3
330
47
100
AcDbEntity
  8
0
  6
Continuous
 62
     7
100
AcDbLine
 10
-28.49326192279363
 20
98.1354804759699
 30
0.0
 11
-19.46826192279364
 21
105.9513597451245
 31
0.0
  0
LINE
  5
C4
330
47
100
AcDbEntity
  8
0
  6
Continuous
 62
     7
100
AcDbLine
 10
-17.88445072643403
 20
71.24273544261497
 30
0.0
 11
-3.1490284810418
 21
66.98898544261509
 31
0.0
  0
LINE
  5
C5
330
47
100
AcDbEntity
  8
0
  6
Continuous
 62
     7
100
AcDbLine
 10
-17.82382894816887
 20
48.18895970194892
 30
0.0
 11
-11.14882894816887
 21
53.96967927221002
 31
0.0
  0
LINE
  5
C6
330
47
100
AcDbEntity
  8
0
  6
Continuous
 62
     7
100
AcDbLine
 10
-7.65249396542221
 20
46.8115939336076
 30
0.0
 11
-5.00665297215927
 21
46.04780542876097
 31
0.0
  0
LINE
  5
C7
330
47
100
AcDbEntity
  8
0
  6
Continuous
 62
     7
100
AcDbLine
 10
-8.10090148983635
 20
50.69205579111491
 30
0.0
 11
-7.65249396542221
 21
46.8115939336076
 31
0.0
  0
LINE
  5
C8
330
47
100
AcDbEntity
  8
0
  6
Continuous
 62
     7
100
AcDbLine
 10
-17.82382894816887
 20
48.18895970194892
 30
0.0
 11
-16.78459846362764
 21
51.91597782954655
 31
0.0
  0
LINE
  5
C9
330
47
100
AcDbEntity
  8
0
  6
Continuous
 62
     7
100
AcDbLine
 10
-13.53506054299914
 20
54.73016021937166
 30
0.0
 11
-16.78459846362764
 21
51.91597782954655
 31
0.0
  0
LINE
  5
CA
330
47
100
AcDbEntity
  8
0
  6
Continuous
 62
     7
100
AcDbLine
 10
-16.78459846362764
 20
51.91597782954655
 30
0.0
 11
-16.78459846362753
 21
52.13248418049264
 31
0.0
  0
LINE
  5
CB
330
47
100
AcDbEntity
  8
0
  6
Continuous
 62
     7
100
AcDbLine
 10
-14.04370192924682
 20
55.75798506382044
 30
0.0
 11
-13.49370192924682
 21
54.64658579563043
 31
0.0
  0
LINE
  5
CC
330
47
100
AcDbEntity
  8
0
  6
Continuous
 62
     7
100
AcDbLine
 10
-13.61006054299916
 20
54.88171466503397
 30
0.0
 11
-16.78459846362753
 21
52.13248418049264
 31
0.0
  0
LINE
  5
CD
330
47
100
AcDbEntity
  8
0
  6
Continuous
 62
     7
100
AcDbLine
 10
-14.02686300935831
 20
55.72395822156371
 30
0.0
 11
-17.67660462952546
 21
52.56318926124943
 31
0.0
  0
LINE
  5
CE
330
47
100
AcDbEntity
  8
0
  6
Continuous
 62
     7
100
AcDbLine
 10
-8.5264914227845
 20
54.59831628017177
 30
0.0
 11
-9.72649142278451
 21
53.55908579563045
 31
0.0
  0
LINE
  5
CF
330
47
100
AcDbEntity
  8
0
  6
Continuous
 62
     7
100
AcDbLine
 10
-7.24099851392327
 20
54.22722644168562
 30
0.0
 11
-7.24099851392324
 21
51.41264387938612
 31
0.0
  0
LINE
  5
D0
330
47
100
AcDbEntity
  8
0
  6
Continuous
 62
     7
100
AcDbLine
 10
-8.92649142278452
 20
54.71378633400973
 30
0.0
 11
-7.24099851392327
 21
54.22722644168562
 31
0.0
  0
LINE
  5
D1
330
47
100
AcDbEntity
  8
0
  6
Continuous
 62
     7
100
AcDbLine
 10
-9.72649142278451
 20
53.55908579563045
 30
0.0
 11
-8.92649142278452
 21
54.71378633400973
 31
0.0
  0
LINE
  5
D2
330
47
100
AcDbEntity
  8
0
  6
Continuous
 62
     7
100
AcDbLine
 10
-13.49370192924682
 20
54.64658579563043
 30
0.0
 11
-9.72649142278451
 21
53.55908579563045
 31
0.0
  0
LINE
  5
D3
330
47
100
AcDbEntity
  8
0
  6
Continuous
 62
     7
100
AcDbLine
 10
-16.78459846362753
 20
52.13248418049264
 30
0.0
 11
-17.67660462952546
 21
52.56318926124943
 31
0.0
  0
LINE
  5
D4
330
47
100
AcDbEntity
  8
0
  6
Continuous
 62
     7
100
AcDbLine
 10
-18.10095707738044
 20
102.9151626807471
 30
0.0
 11
-18.1009570773804
 21
101.13548047597
 31
0.0
  0
LINE
  5
D5
330
47
100
AcDbEntity
  8
0
  6
Continuous
 62
     7
100
AcDbLine
 10
5.55885695401085
 20
45.61371271058741
 30
0.0
 11
6.29497854722769
 21
41.22645970194908
 31
0.0
  0
LINE
  5
D6
330
47
100
AcDbEntity
  8
0
  6
Continuous
 62
     7
100
AcDbLine
 10
-17.88445072643402
 20
62.06286616249993
 30
0.0
 11
-17.88445072643403
 21
71.24273544261497
 31
0.0
  0
LINE
  5
D7
330
47
100
AcDbEntity
  8
0
  6
Continuous
 62
     7
100
AcDbLine
 10
-5.00665297215934
 20
53.58222644168561
 30
0.0
 11
-3.27460216459046
 21
53.08222644168563
 31
0.0
  0
LINE
  5
D8
330
47
100
AcDbEntity
  8
0
  6
Continuous
 62
     7
100
AcDbLine
 10
-3.1490284810418
 20
66.98898544261509
 30
0.0
 11
-3.14902848104187
 21
76.68846996500082
 31
0.0
  0
LINE
  5
D9
330
47
100
AcDbEntity
  8
0
  6
Continuous
 62
     7
100
AcDbLine
 10
-5.00665297215927
 20
46.04780542876097
 30
0.0
 11
-5.00665297215934
 21
53.58222644168561
 31
0.0
  0
LINE
  5
DA
330
47
100
AcDbEntity
  8
0
  6
Continuous
 62
     7
100
AcDbLine
 10
-16.81057922574122
 20
56.55671373979328
 30
0.0
 11
-14.04370192924682
 21
55.75798506382044
 31
0.0
  0
LINE
  5
DB
330
47
100
AcDbEntity
  8
0
  6
Continuous
 62
     7
100
AcDbLine
 10
-17.85984900312483
 20
53.65531784000336
 30
0.0
 11
-16.871201004006
 21
53.54424506245891
 31
0.0
  0
LINE
  5
DC
330
47
100
AcDbEntity
  8
0
  6
Continuous
 62
     2
100
AcDbLine
 10
-17.30545088504662
 20
57.12814231122185
 30
0.0
 11
-17.67660462952567
 21
56.80671373979327
 31
0.0
  0
LINE
  5
DD
330
47
100
AcDbEntity
  8
0
  6
Continuous
 62
     7
100
AcDbLine
 10
-17.67660462952566
 20
55.82014387938614
 30
0.0
 11
-17.67660462952567
 21
56.80671373979327
 31
0.0
  0
LINE
  5
DE
330
47
100
AcDbEntity
  8
0
  6
Continuous
 62
     7
100
AcDbLine
 10
-17.67660462952546
 20
52.56318926124943
 30
0.0
 11
-17.85984900312483
 21
53.65531784000336
 31
0.0
  0
LINE
  5
DF
330
47
100
AcDbEntity
  8
0
  6
Continuous
 62
     7
100
AcDbLine
 10
-3.14902848104187
 20
76.68846996500082
 30
0.0
 11
-16.78026833660898
 21
80.62346996500074
 31
0.0
  0
LINE
  5
E0
330
47
100
AcDbEntity
  8
0
  6
Continuous
 62
     7
100
AcDbLine
 10
-16.81078040170433
 20
56.56996965589146
 30
0.0
 11
-17.67660462952566
 21
55.82014387938614
 31
0.0
  0
LINE
  5
E1
330
47
100
AcDbEntity
  8
0
  6
Continuous
 62
     7
100
AcDbLine
 10
-16.87120100400612
 20
54.19264387938613
 30
0.0
 11
-17.67660462952566
 21
55.82014387938614
 31
0.0
  0
LINE
  5
E2
330
47
100
AcDbEntity
  8
0
  6
Continuous
 62
     7
100
AcDbLine
 10
-16.871201004006
 20
53.54424506245891
 30
0.0
 11
-16.87120100400612
 21
54.19264387938613
 31
0.0
  0
LINE
  5
E3
330
47
100
AcDbEntity
  8
0
  6
Continuous
 62
     7
100
AcDbLine
 10
-14.2471711567634
 20
55.81672157045971
 30
0.0
 11
-16.871201004006
 21
53.54424506245891
 31
0.0
  0
LINE
  5
E4
330
47
100
AcDbEntity
  8
0
  6
Continuous
 62
     7
100
AcDbLine
 10
-14.80870100400615
 20
55.9788212746915
 30
0.0
 11
-16.87120100400612
 21
54.19264387938613
 31
0.0
  0
LINE
  5
E5
330
47
100
AcDbEntity
  8
0
  6
Continuous
 62
     7
100
AcDbLine
 10
-5.00665297215927
 20
46.04780542876097
 30
0.0
 11
-0.88165297215926
 21
49.62016021937178
 31
0.0
  0
LINE
  5
E6
330
47
100
AcDbEntity
  8
0
  6
Continuous
 62
     7
100
AcDbLine
 10
-20.627368718855
 20
100.4061682553254
 30
0.0
 11
-20.40966661291834
 21
98.36401344005826
 31
0.0
  0
LINE
  5
E7
330
47
100
AcDbEntity
  8
0
  6
Continuous
 62
     7
100
AcDbLine
 10
-20.40966661291834
 20
98.36401344005826
 30
0.0
 11
-20.01374276260385
 21
98.47830681083707
 31
0.0
  0
LINE
  5
E8
330
47
100
AcDbEntity
  8
0
  6
Continuous
 62
     7
100
AcDbLine
 10
-20.01374276260385
 20
98.47830681083707
 30
0.0
 11
-19.55041917157919
 21
97.54205681083707
 31
0.0
  0
LINE
  5
E9
330
47
100
AcDbEntity
  8
0
  6
Continuous
 62
     7
100
AcDbLine
 10
-20.627368718855
 20
100.4061682553254
 30
0.0
 11
-18.10095707738045
 21
102.5941049172592
 31
0.0
  0
LINE
  5
EA
330
47
100
AcDbEntity
  8
0
  6
Continuous
 62
     7
100
AcDbLine
 10
-20.627368718855
 20
100.4061682553254
 30
0.0
 11
-18.1009570773804
 21
101.13548047597
 31
0.0
  0
LINE
  5
EB
330
47
100
AcDbEntity
  8
0
  6
Continuous
 62
     7
100
AcDbLine
 10
-10.68619018959123
 20
103.6933264945122
 30
0.0
 11
-5.46653997621721
 21
104.3926270242355
 31
0.0
  0
LINE
  5
EC
330
47
100
AcDbEntity
  8
0
  6
Continuous
 62
     7
100
AcDbLine
 10
-5.46653997621721
 20
104.3926270242355
 30
0.0
 11
-5.46653997621721
 21
104.2557976707295
 31
0.0
  0
LINE
  5
ED
330
47
100
AcDbEntity
  8
0
  6
Continuous
 62
     7
100
AcDbLine
 10
-6.46633891156544
 20
103.6375136573294
 30
0.0
 11
-8.9381367360903
 21
103.3063555418622
 31
0.0
  0
LINE
  5
EE
330
47
100
AcDbEntity
  8
0
  6
Continuous
 62
     7
100
AcDbLine
 10
-24.36156891228939
 20
97.22319751188172
 30
0.0
 11
-18.10095707738045
 21
102.6450464041464
 31
0.0
  0
LINE
  5
EF
330
47
100
AcDbEntity
  8
0
  6
Continuous
 62
     7
100
AcDbLine
 10
-20.52411696960205
 20
99.43761512160857
 30
0.0
 11
-24.29416917157919
 21
96.17265414110288
 31
0.0
  0
LINE
  5
F0
330
47
100
AcDbEntity
  8
0
  6
Continuous
 62
     7
100
AcDbLine
 10
-19.46826192279364
 20
105.9513597451245
 30
0.0
 11
-16.94185028131907
 21
106.6806719657691
 31
0.0
  0
LINE
  5
F1
330
47
100
AcDbEntity
  8
0
  6
Continuous
 62
     7
100
AcDbLine
 10
-15.47958997203264
 20
105.1853331866231
 30
0.0
 11
-16.94185028131907
 21
106.6806719657691
 31
0.0
  0
LINE
  5
F2
330
47
100
AcDbEntity
  8
0
  6
Continuous
 62
     7
100
AcDbLine
 10
23.46826230427303
 20
46.5639233688776
 30
0.0
 11
32.49326230427302
 21
54.37980263803216
 31
0.0
  0
LINE
  5
F3
330
47
100
AcDbEntity
  8
0
  6
Continuous
 62
     7
100
AcDbLine
 10
12.44904840763488
 20
44.90589280053214
 30
0.0
 11
8.67654840763485
 21
41.63881196475535
 31
0.0
  0
LINE
  5
F4
330
47
100
AcDbEntity
  8
0
  6
Continuous
 62
     7
100
AcDbLine
 10
12.85945110791352
 20
53.18786616250021
 30
0.0
 11
23.468262304273
 21
50.12536616250027
 31
0.0
  0
LINE
  5
F5
330
47
100
AcDbEntity
  8
0
  6
Continuous
 62
     7
100
AcDbLine
 10
-3.27460216459046
 20
53.08222644168563
 30
0.0
 11
-3.27460216459043
 21
50.31094514957538
 31
0.0
  0
LINE
  5
F6
330
47
100
AcDbEntity
  8
0
  6
Continuous
 62
     7
100
AcDbLine
 10
22.10095745885938
 20
99.95135974512482
 30
0.0
 11
13.07595745885938
 21
92.13548047597034
 31
0.0
  0
LINE
  5
F7
330
47
100
AcDbEntity
  8
0
  6
Continuous
 62
     7
100
AcDbLine
 10
13.07595745885936
 20
93.91516268074734
 30
0.0
 11
22.10095745885936
 21
101.7310419499019
 31
0.0
  0
LINE
  5
F8
330
47
100
AcDbEntity
  8
0
  6
Continuous
 62
     7
100
AcDbLine
 10
8.67654840763487
 20
40.5389597019491
 30
0.0
 11
12.12332951469692
 21
43.52395970194908
 31
0.0
  0
LINE
  5
F9
330
47
100
AcDbEntity
  8
0
  6
Continuous
 62
     7
100
AcDbLine
 10
12.12332951469693
 20
43.21524099405933
 30
0.0
 11
12.64294475696781
 21
42.5456257517886
 31
0.0
  0
LINE
  5
FA
330
47
100
AcDbEntity
  8
0
  6
Continuous
 62
     7
100
AcDbLine
 10
8.67654840763487
 20
40.5389597019491
 30
0.0
 11
8.67654840763485
 21
41.63881196475535
 31
0.0
  0
LINE
  5
FB
330
47
100
AcDbEntity
  8
0
  6
Continuous
 62
     7
100
AcDbLine
 10
12.85945110791346
 20
62.36773544261526
 30
0.0
 11
12.85945110791352
 21
53.18786616250021
 31
0.0
  0
LINE
  5
FC
330
47
100
AcDbEntity
  8
0
  6
Continuous
 62
     7
100
AcDbLine
 10
12.64294475696757
 20
44.2714587767084
 30
0.0
 11
12.12332951469692
 21
43.82145877670844
 31
0.0
  0
LINE
  5
FD
330
47
100
AcDbEntity
  8
0
  6
Continuous
 62
     7
100
AcDbLine
 10
16.9730717758894
 20
74.82013555222026
 30
0.0
 11
11.75526871808823
 21
72.38596996500097
 31
0.0
  0
LINE
  5
FE
330
47
100
AcDbEntity
  8
0
  6
Continuous
 62
     7
100
AcDbLine
 10
9.28829868520697
 20
67.44009023322607
 30
0.0
 11
9.2882986852069
 21
73.09812287128433
 31
0.0
  0
LINE
  5
FF
330
47
100
AcDbEntity
  8
0
  6
Continuous
 62
     7
100
AcDbLine
 10
14.28829868520697
 20
67.44009023322612
 30
0.0
 11
14.2882986852069
 21
73.56765779588547
 31
0.0
  0
LINE
  5
100
330
47
100
AcDbEntity
  8
0
  6
Continuous
 62
     7
100
AcDbLine
 10
19.26916955305826
 20
83.59700147136914
 30
0.0
 11
14.52541955305826
 21
87.70520948057154
 31
0.0
  0
LINE
  5
101
330
47
100
AcDbEntity
  8
0
  6
Continuous
 62
     7
100
AcDbLine
 10
12.85945110791346
 20
62.36773544261526
 30
0.0
 11
21.08445110791357
 21
69.4907943887424
 31
0.0
  0
LINE
  5
102
330
47
100
AcDbEntity
  8
0
  6
Continuous
 62
     7
100
AcDbLine
 10
12.85945110791352
 20
53.18786616250021
 30
0.0
 11
21.08445110791365
 21
60.31092510862734
 31
0.0
  0
LINE
  5
103
330
47
100
AcDbEntity
  8
0
  6
Continuous
 62
     7
100
AcDbLine
 10
21.08445110791357
 20
69.4907943887424
 30
0.0
 11
21.08445110791365
 21
60.31092510862734
 31
0.0
  0
LINE
  5
104
330
47
100
AcDbEntity
  8
0
  6
Continuous
 62
     7
100
AcDbLine
 10
15.14318434109114
 20
88.24020948057155
 30
0.0
 11
14.52541955305826
 21
87.70520948057154
 31
0.0
  0
LINE
  5
105
330
47
100
AcDbEntity
  8
0
  6
Continuous
 62
     7
100
AcDbLine
 10
22.10095745885938
 20
99.95135974512482
 30
0.0
 11
22.10095745885936
 21
101.7310419499019
 31
0.0
  0
LINE
  5
106
330
47
100
AcDbEntity
  8
0
  6
Continuous
 62
     7
100
AcDbLine
 10
21.08445110791365
 20
60.31092510862734
 30
0.0
 11
31.69326230427322
 21
57.24842510862744
 31
0.0
  0
LINE
  5
107
330
47
100
AcDbEntity
  8
0
  6
Continuous
 62
     7
100
AcDbLine
 10
20.9418506627981
 20
85.32341713790413
 30
0.0
 11
29.96685066279802
 21
93.13929640705868
 31
0.0
  0
LINE
  5
108
330
47
100
AcDbEntity
  8
0
  6
Continuous
 62
     7
100
AcDbLine
 10
19.33656929376855
 20
84.60863158370555
 30
0.0
 11
28.36156929376853
 21
92.42451085286011
 31
0.0
  0
LINE
  5
109
330
47
100
AcDbEntity
  8
0
  6
Continuous
 62
     7
100
AcDbLine
 10
14.74893553628897
 20
41.76459232207185
 30
0.0
 11
23.46826230427303
 21
46.5639233688776
 31
0.0
  0
LINE
  5
10A
330
47
100
AcDbEntity
  8
0
  6
Continuous
 62
     7
100
AcDbLine
 10
10.94942027842387
 20
45.33879815257428
 30
0.0
 11
8.39942027842385
 21
43.13043337292396
 31
0.0
  0
LINE
  5
10B
330
47
100
AcDbEntity
  8
0
  6
Continuous
 62
     7
100
AcDbLine
 10
10.57442027842386
 20
45.44705132804734
 30
0.0
 11
8.39942027842385
 21
43.56344607481618
 31
0.0
  0
LINE
  5
10C
330
47
100
AcDbEntity
  8
0
  6
Continuous
 62
     7
100
AcDbLine
 10
11.219292334261
 20
45.26089280053213
 30
0.0
 11
7.44679233426098
 21
41.99381196475532
 31
0.0
  0
LINE
  5
10D
330
47
100
AcDbEntity
  8
0
  6
Continuous
 62
     7
100
AcDbLine
 10
12.64294475696757
 20
44.84991974579111
 30
0.0
 11
12.64294475696767
 21
43.81068926124976
 31
0.0
  0
LINE
  5
10E
330
47
100
AcDbEntity
  8
0
  6
Continuous
 62
     7
100
AcDbLine
 10
7.44679233426098
 20
41.99381196475532
 30
0.0
 11
7.44679233426098
 21
43.40543337292397
 31
0.0
  0
LINE
  5
10F
330
47
100
AcDbEntity
  8
0
  6
Continuous
 62
     7
100
AcDbLine
 10
12.12332951469692
 20
43.82145877670844
 30
0.0
 11
12.12332951469693
 21
43.21524099405933
 31
0.0
  0
LINE
  5
110
330
47
100
AcDbEntity
  8
0
  6
Continuous
 62
     7
100
AcDbLine
 10
29.96685066279802
 20
93.13929640705868
 30
0.0
 11
28.36156929376853
 21
92.42451085286011
 31
0.0
  0
LINE
  5
111
330
47
100
AcDbEntity
  8
0
  6
Continuous
 62
     7
100
AcDbLine
 10
29.96685066279802
 20
93.13929640705868
 30
0.0
 11
32.49326230427272
 21
90.95135974512489
 31
0.0
  0
LINE
  5
112
330
47
100
AcDbEntity
  8
0
  6
Continuous
 62
     7
100
AcDbLine
 10
23.4682623042727
 20
83.1354804759704
 30
0.0
 11
32.49326230427272
 21
90.95135974512489
 31
0.0
  0
LINE
  5
113
330
47
100
AcDbEntity
  8
0
  6
Continuous
 62
     7
100
AcDbLine
 10
13.07595745885938
 20
92.13548047597034
 30
0.0
 11
15.60236910033402
 21
89.94754381403658
 31
0.0
  0
LINE
  5
114
330
47
100
AcDbEntity
  8
0
  6
Continuous
 62
     7
100
AcDbLine
 10
15.38466699439739
 20
88.0310793682351
 30
0.0
 11
15.60236910033402
 21
89.94754381403658
 31
0.0
  0
LINE
  5
115
330
47
100
AcDbEntity
  8
0
  6
Continuous
 62
     7
100
AcDbLine
 10
14.98874314408292
 20
88.37395948057154
 30
0.0
 11
15.38466699439739
 21
88.0310793682351
 31
0.0
  0
LINE
  5
116
330
47
100
AcDbEntity
  8
0
  6
Continuous
 62
     7
100
AcDbLine
 10
14.52541955305826
 20
87.70520948057154
 30
0.0
 11
14.98874314408292
 21
88.37395948057154
 31
0.0
  0
LINE
  5
117
330
47
100
AcDbEntity
  8
0
  6
Continuous
 62
     7
100
AcDbLine
 10
12.64294475696781
 20
42.5456257517886
 30
0.0
 11
14.74893553628897
 21
41.76459232207185
 31
0.0
  0
LINE
  5
118
330
47
100
AcDbEntity
  8
0
  6
Continuous
 62
     7
100
AcDbLine
 10
12.64294475696767
 20
43.81068926124976
 30
0.0
 11
12.12332951469692
 21
43.82145877670844
 31
0.0
  0
LINE
  5
119
330
47
100
AcDbEntity
  8
0
  6
Continuous
 62
     7
100
AcDbLine
 10
8.67654840763485
 20
41.63881196475535
 30
0.0
 11
7.44679233426098
 21
41.99381196475532
 31
0.0
  0
LINE
  5
11A
330
47
100
AcDbEntity
  8
0
  6
Continuous
 62
     7
100
AcDbLine
 10
32.49326230427302
 20
54.37980263803216
 30
0.0
 11
32.49326230427272
 21
90.95135974512489
 31
0.0
  0
LINE
  5
11B
330
47
100
AcDbEntity
  8
0
  6
Continuous
 62
     7
100
AcDbLine
 10
23.46826230427278
 20
72.9451355522203
 30
0.0
 11
31.69326230427292
 21
80.06819449834745
 31
0.0
  0
LINE
  5
11C
330
47
100
AcDbEntity
  8
0
  6
Continuous
 62
     7
100
AcDbLine
 10
31.69326230427292
 20
80.06819449834745
 30
0.0
 11
31.69326230427322
 21
57.24842510862744
 31
0.0
  0
LINE
  5
11D
330
47
100
AcDbEntity
  8
0
  6
Continuous
 62
     7
100
AcDbLine
 10
31.69326230427322
 20
57.24842510862744
 30
0.0
 11
23.468262304273
 21
50.12536616250027
 31
0.0
  0
LINE
  5
11E
330
47
100
AcDbEntity
  8
0
  6
Continuous
 62
     7
100
AcDbLine
 10
-18.10095707738044
 20
102.9151626807471
 30
0.0
 11
-9.07595707738044
 21
110.7310419499016
 31
0.0
  0
LINE
  5
11F
330
47
100
AcDbEntity
  8
0
  6
Continuous
 62
     7
100
AcDbLine
 10
6.29497854722769
 20
41.22645970194908
 30
0.0
 11
8.67654840763487
 21
40.5389597019491
 31
0.0
  0
LINE
  5
120
330
47
100
AcDbEntity
  8
0
  6
Continuous
 62
     7
100
AcDbLine
 10
13.07595745885936
 20
93.91516268074734
 30
0.0
 11
-18.10095707738044
 21
102.9151626807471
 31
0.0
  0
LINE
  5
121
330
47
100
AcDbEntity
  8
0
  6
Continuous
 62
     7
100
AcDbLine
 10
11.75526871808823
 20
72.38596996500097
 30
0.0
 11
-1.87597113747874
 21
76.32096996500084
 31
0.0
  0
LINE
  5
122
330
47
100
AcDbEntity
  8
0
  6
Continuous
 62
     7
100
AcDbLine
 10
-1.87597113747867
 20
66.62148544261511
 30
0.0
 11
-1.87597113747874
 21
76.32096996500084
 31
0.0
  0
LINE
  5
123
330
47
100
AcDbEntity
  8
0
  6
Continuous
 62
     7
100
AcDbLine
 10
4.77732826016835
 20
47.98655305046013
 30
0.0
 11
5.55885695401085
 21
45.61371271058741
 31
0.0
  0
SPLINE
  5
124
330
47
100
AcDbEntity
  8
0
  6
Continuous
 62
     7
100
AcDbSpline
210
0.0
220
0.0
230
1.0
 70
     8
 71
     3
 72
    17
 73
    13
 74
    11
 42
0.000000001
 43
0.0000000001
 44
0.00000001
 40
0.0
 40
0.0
 40
0.0
 40
0.0
 40
0.5237559111021115
 40
1.135303262989086
 40
1.823441109477776
 40
2.566534911486474
 40
3.336957724092928
 40
4.104417883617524
 40
4.838904049708563
 40
5.513667412805409
 40
6.108691829351107
 40
6.615479772629538
 40
6.615479772629538
 40
6.615479772629538
 40
6.615479772629538
 10
14.88505701271708
 20
98.51762702423561
 30
0.0
 10
14.7534020626988
 20
98.63345860408793
 30
0.0
 10
14.46802427963855
 20
98.88453731972882
 30
0.0
 10
13.90981952893109
 20
99.14197220181417
 30
0.0
 10
13.25829353964521
 20
99.34188643251889
 30
0.0
 10
12.53151532817235
 20
99.46012335392057
 30
0.0
 10
11.77048232090725
 20
99.49518538309115
 30
0.0
 10
11.01328756389892
 20
99.44353755272324
 30
0.0
 10
10.29755427844911
 20
99.30959347801783
 30
0.0
 10
9.664129525349274
 20
99.09558389369951
 30
0.0
 10
9.128323049288237
 20
98.82606425997685
 30
0.0
 10
8.864472718233767
 20
98.56793917724306
 30
0.0
 10
8.743112525941072
 20
98.44921234748261
 30
0.0
 11
14.88505701271708
 21
98.51762702423561
 31
0.0
 11
14.47686062406631
 21
98.84579765225409
 31
0.0
 11
13.92957869780703
 21
99.11869444101941
 31
0.0
 11
13.27212739492076
 21
99.32189749243405
 31
0.0
 11
12.53924599220936
 21
99.44467064263749
 31
0.0
 11
11.76965798633425
 21
99.48052603726968
 31
0.0
 11
11.0040270392563
 21
99.42756994942258
 31
0.0
 11
10.28280780098649
 21
99.28859967703198
 31
0.0
 11
9.644107494945153
 21
99.0709588863088
 31
0.0
 11
9.121674692378802
 21
98.78614662231442
 31
0.0
 11
8.743112525941072
 21
98.44921234748261
 31
0.0
  0
SPLINE
  5
125
330
47
100
AcDbEntity
  8
0
  6
Continuous
 62
     7
100
AcDbSpline
210
0.0
220
0.0
230
1.0
 70
     8
 71
     3
 72
     9
 73
     5
 74
     3
 42
0.000000001
 43
0.0000000001
 44
0.00000001
 40
0.0
 40
0.0
 40
0.0
 40
0.0
 40
0.5265519791857479
 40
0.9765228585144379
 40
0.9765228585144379
 40
0.9765228585144379
 40
0.9765228585144379
 10
14.75655910543179
 20
98.258106400321
 30
0.0
 10
14.88666954080423
 20
98.38394793651031
 30
0.0
 10
15.12796728678689
 20
98.6173287743774
 30
0.0
 10
15.18210338243169
 20
98.94687853189589
 30
0.0
 10
15.20704868520662
 20
99.098731400321
 30
0.0
 11
14.75655910543179
 21
98.258106400321
 31
0.0
 11
15.09247341018791
 21
98.66359199675308
 31
0.0
 11
15.20704868520662
 21
99.098731400321
 31
0.0
  0
SPLINE
  5
126
330
47
100
AcDbEntity
  8
0
  6
Continuous
 62
     7
100
AcDbSpline
210
0.0
220
0.0
230
1.0
 70
     8
 71
     3
 72
    17
 73
    13
 74
    11
 42
0.000000001
 43
0.0000000001
 44
0.00000001
 40
0.0
 40
0.0
 40
0.0
 40
0.0
 40
0.4499708725382435
 40
0.9765228537807504
 40
1.614321600968184
 40
2.360212766604932
 40
3.188393834768516
 40
4.060556134073217
 40
4.932718433154891
 40
5.760899500409392
 40
6.506790666653329
 40
7.144589419514404
 40
7.144589419514404
 40
7.144589419514404
 40
7.144589419514404
 10
8.482048685206621
 20
99.09873140032093
 30
0.0
 10
8.507670192116333
 20
98.94806738722279
 30
0.0
 10
8.563273773374041
 20
98.62109766824203
 30
0.0
 10
8.948802470453668
 20
98.21178483975996
 30
0.0
 10
9.48765812747805
 20
97.87276067624165
 30
0.0
 10
10.18485158797005
 20
97.61535869911758
 30
0.0
 10
10.98626856223793
 20
97.45381665691447
 30
0.0
 10
11.84442370957128
 20
97.3990349366452
 30
0.0
 10
12.70331605528014
 20
97.45307153805336
 30
0.0
 10
13.50270069078762
 20
97.61804910714322
 30
0.0
 10
14.206246580344
 20
97.86431392158195
 30
0.0
 10
14.58293031252077
 20
98.1338611536222
 30
0.0
 10
14.75655910543179
 20
98.258106400321
 30
0.0
 11
8.482048685206621
 21
99.09873140032093
 31
0.0
 11
8.59662396022533
 21
98.66359199675304
 31
0.0
 11
8.932538264981453
 21
98.25810640032094
 31
0.0
 11
9.46690276736115
 21
97.90990844139823
 31
0.0
 11
10.16329868520663
 21
97.64272619020838
 31
0.0
 11
10.97426987807082
 21
97.47476903783033
 31
0.0
 11
11.84454868520663
 21
97.41748140032098
 31
0.0
 11
12.71482749234245
 21
97.47476903783034
 31
0.0
 11
13.52579868520662
 21
97.6427261902084
 31
0.0
 11
14.2221946030521
 21
97.90990844139826
 31
0.0
 11
14.75655910543179
 21
98.258106400321
 31
0.0
  0
SPLINE
  5
127
330
47
100
AcDbEntity
  8
0
  6
Continuous
 62
     7
100
AcDbSpline
210
0.0
220
0.0
230
1.0
 70
     8
 71
     3
 72
    13
 73
     9
 74
     7
 42
0.000000001
 43
0.0000000001
 44
0.00000001
 40
0.0
 40
0.0
 40
0.0
 40
0.0
 40
0.4740788173955147
 40
0.9606973516919848
 40
1.452101951356395
 40
1.940033122236466
 40
2.416597177715337
 40
2.875145083314522
 40
2.875145083314522
 40
2.875145083314522
 40
2.875145083314522
 10
8.286869644594503
 20
48.32014883340922
 30
0.0
 10
8.230124012690187
 20
48.46798518750361
 30
0.0
 10
8.1151317735795
 20
48.76756826510328
 30
0.0
 10
7.854877013961304
 20
49.17903338618866
 30
0.0
 10
7.539522199001851
 20
49.55424771227854
 30
0.0
 10
7.173121599135411
 20
49.87465260372522
 30
0.0
 10
6.773841956972015
 20
50.1364362868427
 30
0.0
 10
6.482606386303649
 20
50.24955437713862
 30
0.0
 10
6.339794114405621
 20
50.30502373196089
 30
0.0
 11
8.286869644594503
 21
48.32014883340922
 31
0.0
 11
8.102706069172541
 21
48.75699491961547
 31
0.0
 11
7.847044472046257
 21
49.17104171282028
 31
0.0
 11
7.529763487884507
 21
49.54628997613828
 31
0.0
 11
7.163123369249455
 21
49.86824005386231
 31
0.0
 11
6.761291164994055
 21
50.12445125634463
 31
0.0
 11
6.339794114405621
 21
50.30502373196089
 31
0.0
  0
SPLINE
  5
128
330
47
100
AcDbEntity
  8
0
  6
Continuous
 62
     7
100
AcDbSpline
210
0.0
220
0.0
230
1.0
 70
     8
 71
     3
 72
    17
 73
    13
 74
    11
 42
0.000000001
 43
0.0000000001
 44
0.00000001
 40
0.0
 40
0.0
 40
0.0
 40
0.0
 40
0.3345508323064306
 40
0.7260392941716195
 40
1.200239106591465
 40
1.754805029209849
 40
2.370553035430278
 40
3.019000841717623
 40
3.667448647781934
 40
4.283196653093285
 40
4.837762576318847
 40
5.311962394412313
 40
5.311962394412313
 40
5.311962394412313
 40
5.311962394412313
 10
-11.06329830372744
 20
73.31509023322583
 30
0.0
 10
-11.04424885634158
 20
73.2030723803895
 30
0.0
 10
-11.00290790105585
 20
72.95997221966032
 30
0.0
 10
-10.71626947111099
 20
72.65565041001207
 30
0.0
 10
-10.31563329296761
 20
72.40358783586662
 30
0.0
 10
-9.797273843283428
 20
72.21221090041048
 30
0.0
 10
-9.201424791469034
 20
72.09210529276008
 30
0.0
 10
-8.563391224603816
 20
72.05137538892289
 30
0.0
 10
-7.92480955501443
 20
72.09155130089466
 30
0.0
 10
-7.330471535461339
 20
72.21421120277041
 30
0.0
 10
-6.807389090798025
 20
72.39730772314735
 30
0.0
 10
-6.527326834106248
 20
72.59771458476426
 30
0.0
 10
-6.39823479426633
 20
72.69009023322587
 30
0.0
 11
-11.06329830372744
 21
73.31509023322583
 31
0.0
 11
-10.97811222564663
 21
72.99156651310099
 31
0.0
 11
-10.72836181318855
 21
72.69009023322582
 31
0.0
 11
-10.33106478539694
 21
72.43120699239107
 31
0.0
 11
-9.813298303727427
 21
72.23255847849528
 31
0.0
 11
-9.210345743977097
 21
72.10768327226626
 31
0.0
 11
-8.563298303727414
 21
72.06509023322585
 31
0.0
 11
-7.916250863477733
 21
72.10768327226627
 31
0.0
 11
-7.313298303727407
 21
72.23255847849532
 31
0.0
 11
-6.795531822057912
 21
72.43120699239111
 31
0.0
 11
-6.39823479426633
 21
72.69009023322587
 31
0.0
  0
SPLINE
  5
129
330
47
100
AcDbEntity
  8
0
  6
Continuous
 62
     7
100
AcDbSpline
210
0.0
220
0.0
230
1.0
 70
     8
 71
     3
 72
     9
 73
     5
 74
     3
 42
0.000000001
 43
0.0000000001
 44
0.00000001
 40
0.0
 40
0.0
 40
0.0
 40
0.0
 40
0.391488459808423
 40
0.7260392989052584
 40
0.7260392989052584
 40
0.7260392989052584
 40
0.7260392989052584
 10
-6.39823479426633
 20
72.69009023322587
 30
0.0
 10
-6.301498411226373
 20
72.78365271353194
 30
0.0
 10
-6.122094887054053
 20
72.95717006749351
 30
0.0
 10
-6.081844997209766
 20
73.20218847250153
 30
0.0
 10
-6.06329830372745
 20
73.31509023322586
 30
0.0
 11
-6.39823479426633
 21
72.69009023322587
 31
0.0
 11
-6.148484381808258
 21
72.99156651310103
 31
0.0
 11
-6.06329830372745
 21
73.31509023322586
 31
0.0
  0
SPLINE
  5
12A
330
47
100
AcDbEntity
  8
0
  6
Continuous
 62
     7
100
AcDbSpline
210
0.0
220
0.0
230
1.0
 70
     8
 71
     3
 72
    13
 73
     9
 74
     7
 42
0.000000001
 43
0.0000000001
 44
0.00000001
 40
0.0
 40
0.0
 40
0.0
 40
0.0
 40
0.1172631642635418
 40
0.2419307378212683
 40
0.3712960139461207
 40
0.501722114710942
 40
0.6293737711447671
 40
0.7509434390751868
 40
0.7509434390751868
 40
0.7509434390751868
 40
0.7509434390751868
 10
-27.45403143825189
 20
54.00004861519432
 30
0.0
 10
-27.45710581250608
 20
54.0391989777188
 30
0.0
 10
-27.46344870252416
 20
54.11997179269453
 30
0.0
 10
-27.50931873562536
 20
54.23661970700446
 30
0.0
 10
-27.57758821510714
 20
54.34582745773895
 30
0.0
 10
-27.66718663529518
 20
54.43976586334124
 30
0.0
 10
-27.77058856983761
 20
54.51516889320612
 30
0.0
 10
-27.84886234499641
 20
54.54399836470286
 30
0.0
 10
-27.88704414014412
 20
54.55806131708654
 30
0.0
 11
-27.45403143825189
 21
54.00004861519432
 31
0.0
 11
-27.46878609978525
 21
54.11637982324034
 31
0.0
 11
-27.51204414014411
 21
54.23330179066737
 31
0.0
 11
-27.58085800392723
 21
54.34284642732773
 31
0.0
 11
-27.67053778919801
 21
54.43754861519432
 31
0.0
 11
-27.77497223600214
 21
54.51095428354069
 31
0.0
 11
-27.88704414014412
 21
54.55806131708654
 31
0.0
  0
SPLINE
  5
12B
330
47
100
AcDbEntity
  8
0
  6
Continuous
 62
     7
100
AcDbSpline
210
0.0
220
0.0
230
1.0
 70
     8
 71
     3
 72
     9
 73
     5
 74
     3
 42
0.000000001
 43
0.0000000001
 44
0.00000001
 40
0.0
 40
0.0
 40
0.0
 40
0.0
 40
0.1347351597551253
 40
0.2806984683898068
 40
0.2806984683898068
 40
0.2806984683898068
 40
0.2806984683898068
 10
-28.38757605625501
 20
54.55301308820354
 30
0.0
 10
-28.41796853995615
 20
54.51831162191345
 30
0.0
 10
-28.48128624702975
 20
54.44601683448953
 30
0.0
 10
-28.48916498541053
 20
54.34998513688289
 30
0.0
 10
-28.49326192279325
 20
54.30004861519431
 30
0.0
 11
-28.38757605625501
 21
54.55301308820354
 31
0.0
 11
-28.46598038207221
 21
54.44343970846953
 31
0.0
 11
-28.49326192279325
 21
54.30004861519431
 31
0.0
  0
SPLINE
  5
12C
330
47
100
AcDbEntity
  8
0
  6
Continuous
 62
     7
100
AcDbSpline
210
0.0
220
0.0
230
1.0
 70
     8
 71
     3
 72
    11
 73
     7
 74
     5
 42
0.000000001
 43
0.0000000001
 44
0.00000001
 40
0.0
 40
0.0
 40
0.0
 40
0.0
 40
0.0935705952109323
 40
0.1815181363976173
 40
0.2647690944696347
 40
0.3453217744506572
 40
0.3453217744506572
 40
0.3453217744506572
 40
0.3453217744506572
 10
-28.060249220901
 20
54.60806131708652
 30
0.0
 10
-28.09077952815737
 20
54.61510171740303
 30
0.0
 10
-28.15000544930491
 20
54.62875941612314
 30
0.0
 10
-28.23903772491139
 20
54.62428592704865
 30
0.0
 10
-28.3212749604281
 20
54.60132131258531
 30
0.0
 10
-28.36571973443207
 20
54.56893802101641
 30
0.0
 10
-28.38757605625501
 20
54.55301308820354
 30
0.0
 11
-28.060249220901
 21
54.60806131708652
 31
0.0
 11
-28.15232166204306
 21
54.6247383053672
 31
0.0
 11
-28.24018314869433
 21
54.62084863117201
 31
0.0
 11
-28.3198152590092
 21
54.59657005007504
 31
0.0
 11
-28.38757605625501
 21
54.55301308820354
 31
0.0
  0
SPLINE
  5
12D
330
47
100
AcDbEntity
  8
0
  6
Continuous
 62
     7
100
AcDbSpline
210
0.0
220
0.0
230
1.0
 70
     8
 71
     3
 72
    11
 73
     7
 74
     5
 42
0.000000001
 43
0.0000000001
 44
0.00000001
 40
0.0
 40
0.0
 40
0.0
 40
0.0
 40
0.1565028818605874
 40
0.3179717652221229
 40
0.4881496749684587
 40
0.6688831447655759
 40
0.6688831447655759
 40
0.6688831447655759
 40
0.6688831447655759
 10
-7.895652184631089
 20
51.30254742162013
 30
0.0
 10
-7.93242136547891
 20
51.26504544109324
 30
0.0
 10
-8.007126440821121
 20
51.18885149308302
 30
0.0
 10
-8.075755119430106
 20
51.03835194256401
 30
0.0
 10
-8.111831918200604
 20
50.86970989078769
 30
0.0
 10
-8.104617310433715
 20
50.75244957073757
 30
0.0
 10
-8.100901489836346
 20
50.69205579111491
 30
0.0
 11
-7.895652184631089
 21
51.30254742162013
 31
0.0
 11
-7.998691771531012
 21
51.18475100333847
 31
0.0
 11
-8.06901363820289
 21
51.03939958004485
 31
0.0
 11
-8.103581019357923
 21
50.87276939704608
 31
0.0
 11
-8.100901489836346
 21
50.69205579111491
 31
0.0
  0
SPLINE
  5
12E
330
47
100
AcDbEntity
  8
0
  6
Continuous
 62
     7
100
AcDbSpline
210
0.0
220
0.0
230
1.0
 70
     8
 71
     3
 72
    11
 73
     7
 74
     5
 42
0.000000001
 43
0.0000000001
 44
0.00000001
 40
0.0
 40
0.0
 40
0.0
 40
0.0
 40
0.1871411907843437
 40
0.363036275438181
 40
0.5295381944252271
 40
0.6906435563656775
 40
0.6906435563656775
 40
0.6906435563656775
 40
0.6906435563656775
 10
-7.240998513923245
 20
51.41264387938612
 30
0.0
 10
-7.302059128554244
 20
51.42672468004641
 30
0.0
 10
-7.420510969393961
 20
51.45404009207565
 30
0.0
 10
-7.598575522438735
 20
51.44509310710355
 30
0.0
 10
-7.763049998929858
 20
51.39916388424174
 30
0.0
 10
-7.851939540448416
 20
51.334397287637
 30
0.0
 10
-7.895652184631089
 20
51.30254742162013
 30
0.0
 11
-7.240998513923245
 21
51.41264387938612
 31
0.0
 11
-7.425143396207322
 21
51.44599785594746
 31
0.0
 11
-7.600866369509802
 21
51.43821850755705
 31
0.0
 11
-7.760130590139509
 21
51.38966134536312
 31
0.0
 11
-7.895652184631089
 21
51.30254742162013
 31
0.0
  0
SPLINE
  5
12F
330
47
100
AcDbEntity
  8
0
  6
Continuous
 62
     7
100
AcDbSpline
210
0.0
220
0.0
230
1.0
 70
     8
 71
     3
 72
     9
 73
     5
 74
     3
 42
0.000000001
 43
0.0000000001
 44
0.00000001
 40
0.0
 40
0.0
 40
0.0
 40
0.0
 40
0.1347351597551232
 40
0.2806984683898111
 40
0.2806984683898111
 40
0.2806984683898111
 40
0.2806984683898111
 10
-17.57091876298744
 20
57.05967821280251
 30
0.0
 10
-17.60131124668858
 20
57.02497674651241
 30
0.0
 10
-17.66462895376218
 20
56.95268195908848
 30
0.0
 10
-17.67250769214295
 20
56.85665026148185
 30
0.0
 10
-17.67660462952567
 20
56.80671373979327
 30
0.0
 11
-17.57091876298744
 21
57.05967821280251
 31
0.0
 11
-17.64932308880464
 21
56.95010483306849
 31
0.0
 11
-17.67660462952567
 21
56.80671373979327
 31
0.0
  0
SPLINE
  5
130
330
47
100
AcDbEntity
  8
0
  6
Continuous
 62
     7
100
AcDbSpline
210
0.0
220
0.0
230
1.0
 70
     8
 71
     3
 72
    15
 73
    11
 74
     9
 42
0.000000001
 43
0.0000000001
 44
0.00000001
 40
0.0
 40
0.0
 40
0.0
 40
0.0
 40
0.1365579681579991
 40
0.282572123235902
 40
0.4334129693667406
 40
0.5831949397623768
 40
0.7262993389824164
 40
0.8589055648157562
 40
0.9804997352210394
 40
1.094872761441436
 40
1.094872761441436
 40
1.094872761441436
 40
1.094872761441436
 10
-16.81057922574122
 20
56.55671373979328
 30
0.0
 10
-16.81475126114246
 20
56.60231685317986
 30
0.0
 10
-16.82338424633804
 20
56.69668094231233
 30
0.0
 10
-16.88438614510772
 20
56.8303009209457
 30
0.0
 10
-16.97347054011466
 20
56.95064394438496
 30
0.0
 10
-17.08721209205812
 20
57.04731156975805
 30
0.0
 10
-17.21517330697376
 20
57.11230087118471
 30
0.0
 10
-17.3462047984761
 20
57.13840846477191
 30
0.0
 10
-17.47270731133816
 20
57.12565100635604
 30
0.0
 10
-17.53885638629286
 20
57.08121587518924
 30
0.0
 10
-17.57091876298744
 20
57.05967821280251
 30
0.0
 11
-16.81057922574122
 21
56.55671373979328
 31
0.0
 11
-16.83036763673909
 21
56.69183034559072
 31
0.0
 11
-16.8879232127936
 21
56.82602233120151
 31
0.0
 11
-16.97798646669486
 21
56.94702469117395
 31
0.0
 11
-17.09232507299976
 21
57.04377861582221
 31
0.0
 11
-17.22048928154112
 21
57.10744026145214
 31
0.0
 11
-17.35076498610882
 21
57.13219208457943
 31
0.0
 11
-17.47124520652681
 21
57.11577074768942
 31
0.0
 11
-17.57091876298744
 21
57.05967821280251
 31
0.0
  0
SPLINE
  5
131
330
47
100
AcDbEntity
  8
0
  6
Continuous
 62
     7
100
AcDbSpline
210
0.0
220
0.0
230
1.0
 70
     8
 71
     3
 72
    17
 73
    13
 74
    11
 42
0.000000001
 43
0.0000000001
 44
0.00000001
 40
0.0
 40
0.0
 40
0.0
 40
0.0
 40
0.5237559111020964
 40
1.135303262989093
 40
1.82344110947779
 40
2.566534911486498
 40
3.336957724092963
 40
4.104417883617567
 40
4.838904049708621
 40
5.513667412805479
 40
6.108691829351169
 40
6.615479772629607
 40
6.615479772629607
 40
6.615479772629607
 40
6.615479772629607
 10
-5.466539976217206
 20
104.3926270242355
 30
0.0
 10
-5.598194926235486
 20
104.5084586040878
 30
0.0
 10
-5.883572709295757
 20
104.7595373197287
 30
0.0
 10
-6.441777460003201
 20
105.0169722018141
 30
0.0
 10
-7.093303449289107
 20
105.2168864325187
 30
0.0
 10
-7.820081660761975
 20
105.3351233539205
 30
0.0
 10
-8.581114668027093
 20
105.370185383091
 30
0.0
 10
-9.338309425035424
 20
105.3185375527232
 30
0.0
 10
-10.05404271048524
 20
105.1845934780177
 30
0.0
 10
-10.68746746358507
 20
104.9705838936993
 30
0.0
 10
-11.22327393964611
 20
104.7010642599766
 30
0.0
 10
-11.48712427070057
 20
104.4429391772429
 30
0.0
 10
-11.60848446299327
 20
104.3242123474824
 30
0.0
 11
-5.466539976217206
 21
104.3926270242355
 31
0.0
 11
-5.874736364867981
 21
104.7207976522539
 31
0.0
 11
-6.422018291127266
 21
104.9936944410193
 31
0.0
 11
-7.079469594013553
 21
105.1968974924339
 31
0.0
 11
-7.812350996724966
 21
105.3196706426373
 31
0.0
 11
-8.581939002600091
 21
105.3555260372696
 31
0.0
 11
-9.347569949678046
 21
105.3025699494225
 31
0.0
 11
-10.06878918794786
 21
105.1635996770318
 31
0.0
 11
-10.7074894939892
 21
104.9459588863086
 31
0.0
 11
-11.22992229655554
 21
104.6611466223142
 31
0.0
 11
-11.60848446299327
 21
104.3242123474824
 31
0.0
  0
SPLINE
  5
132
330
47
100
AcDbEntity
  8
0
  6
Continuous
 62
     7
100
AcDbSpline
210
0.0
220
0.0
230
1.0
 70
     8
 71
     3
 72
    19
 73
    15
 74
    13
 42
0.000000001
 43
0.0000000001
 44
0.00000001
 40
0.0
 40
0.0
 40
0.0
 40
0.0
 40
0.4499708771593022
 40
0.9765228548642575
 40
1.61432160309678
 40
2.360212770350991
 40
3.18839384095522
 40
4.06055614349108
 40
4.932718446026938
 40
5.76089951663117
 40
6.506790683885368
 40
7.144589432117915
 40
7.671141409822851
 40
8.121112286982065
 40
8.121112286982065
 40
8.121112286982065
 40
8.121112286982065
 10
-11.8695483037277
 20
104.9737314003208
 30
0.0
 10
-11.84392681614953
 20
104.8230674201273
 30
0.0
 10
-11.78832327005071
 20
104.4960977779183
 30
0.0
 10
-11.40279419386897
 20
104.0867842625281
 30
0.0
 10
-10.86394047044184
 20
103.7477635068225
 30
0.0
 10
-10.16673795228579
 20
103.4903456033547
 30
0.0
 10
-9.365360158856978
 20
103.3288724542157
 30
0.0
 10
-8.507048303727675
 20
103.2738152111363
 30
0.0
 10
-7.648736448598362
 20
103.3288724542157
 30
0.0
 10
-6.84735865516957
 20
103.4903456033548
 30
0.0
 10
-6.150156137013483
 20
103.7477635068226
 30
0.0
 10
-5.611302413586427
 20
104.0867842625282
 30
0.0
 10
-5.225773337404682
 20
104.4960977779183
 30
0.0
 10
-5.170169791305876
 20
104.8230674201272
 30
0.0
 10
-5.144548303727703
 20
104.9737314003208
 30
0.0
 11
-11.8695483037277
 21
104.9737314003208
 31
0.0
 11
-11.75497302870899
 21
104.5385919967529
 31
0.0
 11
-11.41905872395287
 21
104.1331064003208
 31
0.0
 11
-10.88469422157316
 21
103.784908441398
 31
0.0
 11
-10.18829830372767
 21
103.5177261902082
 31
0.0
 11
-9.377327110863485
 21
103.3497690378301
 31
0.0
 11
-8.507048303727672
 21
103.2924814003208
 31
0.0
 11
-7.63676949659186
 21
103.3497690378302
 31
0.0
 11
-6.825798303727673
 21
103.5177261902082
 31
0.0
 11
-6.129402385882196
 21
103.7849084413981
 31
0.0
 11
-5.595037883502506
 21
104.1331064003209
 31
0.0
 11
-5.259123578746393
 21
104.5385919967529
 31
0.0
 11
-5.144548303727703
 21
104.9737314003208
 31
0.0
  0
SPLINE
  5
133
330
47
100
AcDbEntity
  8
0
  6
Continuous
 62
     7
100
AcDbSpline
210
0.0
220
0.0
230
1.0
 70
     8
 71
     3
 72
     9
 73
     5
 74
     3
 42
0.000000001
 43
0.0000000001
 44
0.00000001
 40
0.0
 40
0.0
 40
0.0
 40
0.0
 40
0.5265519791857876
 40
0.9765228585144362
 40
0.9765228585144362
 40
0.9765228585144362
 40
0.9765228585144362
 10
-11.41905872395286
 20
105.8143564003208
 30
0.0
 10
-11.5491691593253
 20
105.6885148641314
 30
0.0
 10
-11.79046690530795
 20
105.4551340262644
 30
0.0
 10
-11.84460300095276
 20
105.1255842687459
 30
0.0
 10
-11.8695483037277
 20
104.9737314003208
 30
0.0
 11
-11.41905872395286
 21
105.8143564003208
 31
0.0
 11
-11.75497302870899
 21
105.4088708038887
 31
0.0
 11
-11.8695483037277
 21
104.9737314003208
 31
0.0
  0
SPLINE
  5
134
330
47
100
AcDbEntity
  8
0
  6
Continuous
 62
     7
100
AcDbSpline
210
0.0
220
0.0
230
1.0
 70
     8
 71
     3
 72
    17
 73
    13
 74
    11
 42
0.000000001
 43
0.0000000001
 44
0.00000001
 40
0.0
 40
0.0
 40
0.0
 40
0.0
 40
0.4499708725382852
 40
0.9765228537807737
 40
1.614321600968204
 40
2.360212766604942
 40
3.188393834768528
 40
4.060556134073225
 40
4.932718433154889
 40
5.76089950040939
 40
6.506790666653317
 40
7.144589419514381
 40
7.144589419514381
 40
7.144589419514381
 40
7.144589419514381
 10
-5.144548303727703
 20
104.9737314003208
 30
0.0
 10
-5.170169810637411
 20
105.124395413419
 30
0.0
 10
-5.22577339189511
 20
105.4513651323997
 30
0.0
 10
-5.611302088974766
 20
105.8606779608818
 30
0.0
 10
-6.150157745999139
 20
106.1997021244001
 30
0.0
 10
-6.847351206491146
 20
106.4571041015241
 30
0.0
 10
-7.64876818075901
 20
106.6186461437272
 30
0.0
 10
-8.506923328092363
 20
106.6734278639966
 30
0.0
 10
-9.365815673801208
 20
106.6193912625884
 30
0.0
 10
-10.16520030930868
 20
106.4544136934985
 30
0.0
 10
-10.86874619886506
 20
106.2081488790598
 30
0.0
 10
-11.24542993104183
 20
105.9386016470196
 30
0.0
 10
-11.41905872395286
 20
105.8143564003208
 30
0.0
 11
-5.144548303727703
 21
104.9737314003208
 31
0.0
 11
-5.259123578746413
 21
105.4088708038887
 31
0.0
 11
-5.595037883502542
 21
105.8143564003208
 31
0.0
 11
-6.129402385882244
 21
106.1625543592435
 31
0.0
 11
-6.825798303727723
 21
106.4297366104333
 31
0.0
 11
-7.636769496591902
 21
106.5976937628114
 31
0.0
 11
-8.507048303727707
 21
106.6549814003208
 31
0.0
 11
-9.377327110863511
 21
106.5976937628114
 31
0.0
 11
-10.18829830372769
 21
106.4297366104333
 31
0.0
 11
-10.88469422157316
 21
106.1625543592435
 31
0.0
 11
-11.41905872395286
 21
105.8143564003208
 31
0.0
  0
SPLINE
  5
135
330
47
100
AcDbEntity
  8
0
  6
Continuous
 62
     7
100
AcDbSpline
210
0.0
220
0.0
230
1.0
 70
     8
 71
     3
 72
    19
 73
    15
 74
    13
 42
0.000000001
 43
0.0000000001
 44
0.00000001
 40
0.0
 40
0.0
 40
0.0
 40
0.0
 40
0.4499708771592486
 40
0.9765228548641953
 40
1.614321603096727
 40
2.360212770350921
 40
3.188393840955158
 40
4.060556143491023
 40
4.93271844602688
 40
5.760899516631114
 40
6.506790683885301
 40
7.144589432117839
 40
7.671141409822789
 40
8.121112286982061
 40
8.121112286982061
 40
8.121112286982061
 40
8.121112286982061
 10
15.20704868520662
 20
99.098731400321
 30
0.0
 10
15.18142719762844
 20
99.24939538051453
 30
0.0
 10
15.12582365152961
 20
99.57636502272345
 30
0.0
 10
14.74029457534787
 20
99.98567853811367
 30
0.0
 10
14.20144085192078
 20
100.3246992938192
 30
0.0
 10
13.50423833376469
 20
100.582117197287
 30
0.0
 10
12.70286054033591
 20
100.7435903464261
 30
0.0
 10
11.8445486852066
 20
100.7986475895056
 30
0.0
 10
10.98623683007729
 20
100.7435903464261
 30
0.0
 10
10.1848590366485
 20
100.582117197287
 30
0.0
 10
9.487656518492415
 20
100.3246992938192
 30
0.0
 10
8.948802795065351
 20
99.98567853811366
 30
0.0
 10
8.5632737188836
 20
99.5763650227234
 30
0.0
 10
8.507670172784795
 20
99.24939538051447
 30
0.0
 10
8.482048685206621
 20
99.09873140032093
 30
0.0
 11
15.20704868520662
 21
99.098731400321
 31
0.0
 11
15.09247341018791
 21
99.53387080388889
 31
0.0
 11
14.75655910543178
 21
99.93935640032097
 31
0.0
 11
14.22219460305208
 21
100.2875543592437
 31
0.0
 11
13.5257986852066
 21
100.5547366104335
 31
0.0
 11
12.71482749234241
 21
100.7226937628116
 31
0.0
 11
11.84454868520659
 21
100.779981400321
 31
0.0
 11
10.97426987807079
 21
100.7226937628116
 31
0.0
 11
10.1632986852066
 21
100.5547366104335
 31
0.0
 11
9.466902767361127
 21
100.2875543592437
 31
0.0
 11
8.932538264981439
 21
99.93935640032095
 31
0.0
 11
8.596623960225322
 21
99.53387080388885
 31
0.0
 11
8.482048685206621
 21
99.09873140032093
 31
0.0
  0
SPLINE
  5
136
330
47
100
AcDbEntity
  8
0
  6
Continuous
 62
     7
100
AcDbSpline
210
0.0
220
0.0
230
1.0
 70
     8
 71
     3
 72
    17
 73
    13
 74
    11
 42
0.000000001
 43
0.0000000001
 44
0.00000001
 40
0.0
 40
0.0
 40
0.0
 40
0.0
 40
0.3345508323064191
 40
0.726039294171607
 40
1.200239106591438
 40
1.754805029209823
 40
2.370553035430254
 40
3.019000841717595
 40
3.667448647781898
 40
4.283196653093247
 40
4.837762576318816
 40
5.311962394412278
 40
5.311962394412278
 40
5.311962394412278
 40
5.311962394412278
 10
9.288298685206968
 20
67.44009023322607
 30
0.0
 10
9.307348132592827
 20
67.32807238038976
 30
0.0
 10
9.34868908787857
 20
67.08497221966054
 30
0.0
 10
9.63532751782342
 20
66.78065041001233
 30
0.0
 10
10.03596369596681
 20
66.52858783586689
 30
0.0
 10
10.55432314565098
 20
66.33721090041077
 30
0.0
 10
11.15017219746537
 20
66.21710529276035
 30
0.0
 10
11.78820576433058
 20
66.17637538892316
 30
0.0
 10
12.42678743391997
 20
66.21655130089489
 30
0.0
 10
13.02112545347305
 20
66.33921120277066
 30
0.0
 10
13.54420789813636
 20
66.52230772314763
 30
0.0
 10
13.82427015482814
 20
66.7227145847645
 30
0.0
 10
13.95336219466807
 20
66.81509023322612
 30
0.0
 11
9.288298685206968
 21
67.44009023322607
 31
0.0
 11
9.373484763287788
 21
67.11656651310125
 31
0.0
 11
9.623235175745869
 21
66.81509023322607
 31
0.0
 11
10.02053220353747
 21
66.55620699239134
 31
0.0
 11
10.53829868520697
 21
66.35755847849553
 31
0.0
 11
11.14125124495731
 21
66.23268327226651
 31
0.0
 11
11.78829868520699
 21
66.1900902332261
 31
0.0
 11
12.43534612545666
 21
66.23268327226651
 31
0.0
 11
13.03829868520698
 21
66.35755847849558
 31
0.0
 11
13.55606516687648
 21
66.55620699239137
 31
0.0
 11
13.95336219466807
 21
66.81509023322612
 31
0.0
  0
SPLINE
  5
137
330
47
100
AcDbEntity
  8
0
  6
Continuous
 62
     7
100
AcDbSpline
210
0.0
220
0.0
230
1.0
 70
     8
 71
     3
 72
     9
 73
     5
 74
     3
 42
0.000000001
 43
0.0000000001
 44
0.00000001
 40
0.0
 40
0.0
 40
0.0
 40
0.0
 40
0.3914884598084263
 40
0.7260392989052791
 40
0.7260392989052791
 40
0.7260392989052791
 40
0.7260392989052791
 10
13.95336219466807
 20
66.81509023322612
 30
0.0
 10
14.05009857770803
 20
66.9086527135322
 30
0.0
 10
14.22950210188035
 20
67.08217006749375
 30
0.0
 10
14.26975199172465
 20
67.32718847250179
 30
0.0
 10
14.28829868520697
 20
67.44009023322612
 30
0.0
 11
13.95336219466807
 21
66.81509023322612
 31
0.0
 11
14.20311260712615
 21
67.11656651310128
 31
0.0
 11
14.28829868520697
 21
67.44009023322612
 31
0.0
  0
ENDBLK
  5
49
330
47
100
AcDbEntity
  8
0
100
AcDbBlockEnd
  0
BLOCK
  5
4C
330
4A
100
AcDbEntity
  8
0
100
AcDbBlockBegin
  2
AllgSicht1
 70
     0
 10
2.00000000000017
 20
75.00000000001002
 30
0.0
  3
AllgSicht1
  1

  0
INSERT
  5
4B
330
4A
100
AcDbEntity
  8
0
100
AcDbBlockReference
  2
OTTA_25-M5-select__1
 10
-28.49326192279363
 20
40.5389597019491
 30
0.0
  0
MTEXT
  5
139
330
4A
100
AcDbEntity
  8
1
 62
     6
100
AcDbMText
 10
2.0
 20
31.26895970193982
 30
0.0
 40
5.0
 41
0.0
 71
     2
 72
     1
  1
 
  7
CONVERTER_11
 73
     1
 44
1.32052821128451
  0
ENDBLK
  5
4D
330
4A
100
AcDbEntity
  8
0
100
AcDbBlockEnd
  0
BLOCK
  5
4F
330
4E
100
AcDbEntity
  8
0
100
AcDbBlockBegin
  2
OTTA_25-M5-select__2
 70
     0
 10
-159.0000000000012
 20
56.97500038148974
 30
0.0
  3
OTTA_25-M5-select__2
  1

  0
LINE
  5
13A
330
4E
100
AcDbEntity
  8
1
  6
DOT_CENTER
 62
     2
100
AcDbLine
 10
-140.7500000000013
 20
69.03625038148974
 30
0.0
 11
-140.7500000000013
 21
61.63875038148973
 31
0.0
  0
LINE
  5
13B
330
4E
100
AcDbEntity
  8
1
  6
DOT_CENTER
 62
     2
100
AcDbLine
 10
-137.0512500000013
 20
65.33750038148973
 30
0.0
 11
-144.4487500000014
 21
65.33750038148973
 31
0.0
  0
LINE
  5
13C
330
4E
100
AcDbEntity
  8
1
  6
DOT_CENTER
 62
     2
100
AcDbLine
 10
-117.2500000000013
 20
69.03625038148972
 30
0.0
 11
-117.2500000000013
 21
61.63875038148971
 31
0.0
  0
LINE
  5
13D
330
4E
100
AcDbEntity
  8
1
  6
DOT_CENTER
 62
     2
100
AcDbLine
 10
-113.5512500000013
 20
65.33750038148972
 30
0.0
 11
-120.9487500000013
 21
65.33750038148972
 31
0.0
  0
LINE
  5
13E
330
4E
100
AcDbEntity
  8
0
  6
Continuous
 62
     7
100
AcDbLine
 10
-149.9172488825796
 20
56.97500038148974
 30
0.0
 11
-149.9172488825796
 21
75.02500038148973
 31
0.0
  0
LINE
  5
13F
330
4E
100
AcDbEntity
  8
0
  6
Continuous
 62
     7
100
AcDbLine
 10
-149.9172488825796
 20
56.97500038148974
 30
0.0
 11
-147.0000000000013
 21
56.97500038148974
 31
0.0
  0
LINE
  5
140
330
4E
100
AcDbEntity
  8
0
  6
Continuous
 62
     7
100
AcDbLine
 10
-111.0000000000013
 20
75.02500038148973
 30
0.0
 11
-108.0827511174229
 21
75.02500038148973
 31
0.0
  0
LINE
  5
141
330
4E
100
AcDbEntity
  8
0
  6
Continuous
 62
     7
100
AcDbLine
 10
-101.9172488825796
 20
75.02500038148973
 30
0.0
 11
-103.7708681436482
 21
75.02500038148973
 31
0.0
  0
LINE
  5
142
330
4E
100
AcDbEntity
  8
0
  6
Continuous
 62
     7
100
AcDbLine
 10
-103.8486946605329
 20
75.02500038148973
 30
0.0
 11
-108.0827511174229
 21
75.02500038148973
 31
0.0
  0
LINE
  5
143
330
4E
100
AcDbEntity
  8
0
  6
Continuous
 62
     7
100
AcDbLine
 10
-156.0827511174229
 20
56.97500038148974
 30
0.0
 11
-156.0827511174229
 21
75.02500038148973
 31
0.0
  0
LINE
  5
144
330
4E
100
AcDbEntity
  8
0
  6
Continuous
 62
     7
100
AcDbLine
 10
-159.0000000000012
 20
56.97500038148974
 30
0.0
 11
-159.0000000000012
 21
75.02500038148973
 31
0.0
  0
LINE
  5
145
330
4E
100
AcDbEntity
  8
0
  6
Continuous
 62
     7
100
AcDbLine
 10
-154.1513053394695
 20
75.02500038148973
 30
0.0
 11
-154.1513053394695
 21
56.97500038148974
 31
0.0
  0
LINE
  5
146
330
4E
100
AcDbEntity
  8
0
  6
Continuous
 62
     7
100
AcDbLine
 10
-154.2291318563542
 20
56.97500038148974
 30
0.0
 11
-154.2291318563542
 21
75.02500038148973
 31
0.0
  0
LINE
  5
147
330
4E
100
AcDbEntity
  8
0
  6
Continuous
 62
     7
100
AcDbLine
 10
-149.9172488825796
 20
56.97500038148974
 30
0.0
 11
-154.1513053394695
 21
56.97500038148974
 31
0.0
  0
LINE
  5
148
330
4E
100
AcDbEntity
  8
0
  6
Continuous
 62
     7
100
AcDbLine
 10
-111.0000000000013
 20
56.97500038148974
 30
0.0
 11
-108.0827511174229
 21
56.97500038148974
 31
0.0
  0
LINE
  5
149
330
4E
100
AcDbEntity
  8
0
  6
Continuous
 62
     7
100
AcDbLine
 10
-111.0000000000013
 20
56.97500038148974
 30
0.0
 11
-147.0000000000013
 21
56.97500038148974
 31
0.0
  0
LINE
  5
14A
330
4E
100
AcDbEntity
  8
0
  6
Continuous
 62
     7
100
AcDbLine
 10
-101.9172488825795
 20
56.97500038148974
 30
0.0
 11
-103.7708681436482
 21
56.97500038148974
 31
0.0
  0
LINE
  5
14B
330
4E
100
AcDbEntity
  8
0
  6
Continuous
 62
     7
100
AcDbLine
 10
-108.0827511174229
 20
56.97500038148974
 30
0.0
 11
-103.8486946605329
 21
56.97500038148974
 31
0.0
  0
LINE
  5
14C
330
4E
100
AcDbEntity
  8
0
  6
Continuous
 62
     7
100
AcDbLine
 10
-103.8486946605329
 20
56.97500038148974
 30
0.0
 11
-103.7708681436482
 21
56.97500038148974
 31
0.0
  0
LINE
  5
14D
330
4E
100
AcDbEntity
  8
0
  6
Continuous
 62
     7
100
AcDbLine
 10
-101.9172488825795
 20
56.97500038148974
 30
0.0
 11
-99.00000000000122
 21
56.97500038148974
 31
0.0
  0
LINE
  5
14E
330
4E
100
AcDbEntity
  8
0
  6
Continuous
 62
     7
100
AcDbLine
 10
-111.0000000000013
 20
75.02500038148973
 30
0.0
 11
-147.0000000000013
 21
75.02500038148973
 31
0.0
  0
LINE
  5
14F
330
4E
100
AcDbEntity
  8
0
  6
Continuous
 62
     7
100
AcDbLine
 10
-103.7708681436482
 20
75.02500038148973
 30
0.0
 11
-103.8486946605329
 21
75.02500038148973
 31
0.0
  0
LINE
  5
150
330
4E
100
AcDbEntity
  8
0
  6
Continuous
 62
     7
100
AcDbLine
 10
-149.9172488825796
 20
75.02500038148973
 30
0.0
 11
-154.1513053394695
 21
75.02500038148973
 31
0.0
  0
LINE
  5
151
330
4E
100
AcDbEntity
  8
0
  6
Continuous
 62
     7
100
AcDbLine
 10
-147.0000000000013
 20
75.02500038148973
 30
0.0
 11
-149.9172488825796
 21
75.02500038148973
 31
0.0
  0
LINE
  5
152
330
4E
100
AcDbEntity
  8
0
  6
Continuous
 62
     7
100
AcDbLine
 10
-159.0000000000012
 20
56.97500038148974
 30
0.0
 11
-156.0827511174229
 21
56.97500038148974
 31
0.0
  0
LINE
  5
153
330
4E
100
AcDbEntity
  8
0
  6
Continuous
 62
     7
100
AcDbLine
 10
-154.1513053394695
 20
56.97500038148974
 30
0.0
 11
-154.2291318563542
 21
56.97500038148974
 31
0.0
  0
LINE
  5
154
330
4E
100
AcDbEntity
  8
0
  6
Continuous
 62
     7
100
AcDbLine
 10
-154.2291318563542
 20
56.97500038148974
 30
0.0
 11
-156.0827511174229
 21
56.97500038148974
 31
0.0
  0
LINE
  5
155
330
4E
100
AcDbEntity
  8
0
  6
Continuous
 62
     7
100
AcDbLine
 10
-111.0000000000013
 20
56.97500038148974
 30
0.0
 11
-111.0000000000013
 21
75.02500038148973
 31
0.0
  0
LINE
  5
156
330
4E
100
AcDbEntity
  8
0
  6
Continuous
 62
     7
100
AcDbLine
 10
-147.0000000000013
 20
56.97500038148974
 30
0.0
 11
-147.0000000000013
 21
75.02500038148973
 31
0.0
  0
LINE
  5
157
330
4E
100
AcDbEntity
  8
0
  6
Continuous
 62
     7
100
AcDbLine
 10
-114.4862481401265
 20
67.25272410394064
 30
0.0
 11
-119.1652237224522
 21
62.57374852161495
 31
0.0
  0
LINE
  5
158
330
4E
100
AcDbEntity
  8
0
  6
Continuous
 62
     7
100
AcDbLine
 10
-143.5137518598761
 20
63.42227665903882
 30
0.0
 11
-138.8347762775504
 21
68.1012522413645
 31
0.0
  0
LINE
  5
159
330
4E
100
AcDbEntity
  8
0
  6
Continuous
 62
     7
100
AcDbLine
 10
-108.0827511174229
 20
56.97500038148974
 30
0.0
 11
-108.0827511174229
 21
75.02500038148973
 31
0.0
  0
LINE
  5
15A
330
4E
100
AcDbEntity
  8
0
  6
Continuous
 62
     7
100
AcDbLine
 10
-120.0137518598761
 20
63.4222766590388
 30
0.0
 11
-115.3347762775504
 21
68.10125224136449
 31
0.0
  0
LINE
  5
15B
330
4E
100
AcDbEntity
  8
0
  6
Continuous
 62
     7
100
AcDbLine
 10
-137.9862481401265
 20
67.25272410394065
 30
0.0
 11
-142.6652237224522
 21
62.57374852161496
 31
0.0
  0
LINE
  5
15C
330
4E
100
AcDbEntity
  8
0
  6
Continuous
 62
     7
100
AcDbLine
 10
-103.8486946605329
 20
75.02500038148973
 30
0.0
 11
-103.8486946605329
 21
56.97500038148974
 31
0.0
  0
LINE
  5
15D
330
4E
100
AcDbEntity
  8
0
  6
Continuous
 62
     7
100
AcDbLine
 10
-103.7708681436482
 20
56.97500038148974
 30
0.0
 11
-103.7708681436482
 21
75.02500038148973
 31
0.0
  0
LINE
  5
15E
330
4E
100
AcDbEntity
  8
0
  6
Continuous
 62
     7
100
AcDbLine
 10
-101.9172488825796
 20
75.02500038148973
 30
0.0
 11
-99.00000000000122
 21
75.02500038148973
 31
0.0
  0
LINE
  5
15F
330
4E
100
AcDbEntity
  8
0
  6
Continuous
 62
     7
100
AcDbLine
 10
-99.00000000000122
 20
56.97500038148974
 30
0.0
 11
-99.00000000000122
 21
75.02500038148973
 31
0.0
  0
LINE
  5
160
330
4E
100
AcDbEntity
  8
0
  6
Continuous
 62
     7
100
AcDbLine
 10
-101.9172488825795
 20
56.97500038148974
 30
0.0
 11
-101.9172488825796
 21
75.02500038148973
 31
0.0
  0
LINE
  5
161
330
4E
100
AcDbEntity
  8
0
  6
Continuous
 62
     7
100
AcDbLine
 10
-154.2291318563542
 20
75.02500038148973
 30
0.0
 11
-156.0827511174229
 21
75.02500038148973
 31
0.0
  0
LINE
  5
162
330
4E
100
AcDbEntity
  8
0
  6
Continuous
 62
     7
100
AcDbLine
 10
-159.0000000000012
 20
75.02500038148973
 30
0.0
 11
-156.0827511174229
 21
75.02500038148973
 31
0.0
  0
LINE
  5
163
330
4E
100
AcDbEntity
  8
0
  6
Continuous
 62
     7
100
AcDbLine
 10
-154.1513053394695
 20
75.02500038148973
 30
0.0
 11
-154.2291318563542
 21
75.02500038148973
 31
0.0
  0
ARC
  5
164
330
4E
100
AcDbEntity
  8
0
  6
Continuous
 62
     7
100
AcDbCircle
 10
-117.2500000000013
 20
65.33750038148972
 30
0.0
 40
3.362499999999986
100
AcDbArc
 50
55.27882946061105
 51
214.721170539389
  0
ARC
  5
165
330
4E
100
AcDbEntity
  8
0
  6
Continuous
 62
     7
100
AcDbCircle
 10
-140.7500000000013
 20
65.33750038148973
 30
0.0
 40
3.362499999999986
100
AcDbArc
 50
235.278829460611
 51
34.72117053938893
  0
ARC
  5
166
330
4E
100
AcDbEntity
  8
0
  6
Continuous
 62
     7
100
AcDbCircle
 10
-117.2500000000013
 20
65.33750038148972
 30
0.0
 40
3.362499999999989
100
AcDbArc
 50
235.2788294606108
 51
0.0
  0
ARC
  5
167
330
4E
100
AcDbEntity
  8
0
  6
Continuous
 62
     7
100
AcDbCircle
 10
-117.2500000000013
 20
65.33750038148972
 30
0.0
 40
3.362500000000026
100
AcDbArc
 50
214.721170539389
 51
235.2788294606108
  0
ARC
  5
168
330
4E
100
AcDbEntity
  8
0
  6
Continuous
 62
     7
100
AcDbCircle
 10
-117.2500000000013
 20
65.33750038148972
 30
0.0
 40
3.362499999999997
100
AcDbArc
 50
0.0
 51
34.72117053938921
  0
ARC
  5
169
330
4E
100
AcDbEntity
  8
0
  6
Continuous
 62
     7
100
AcDbCircle
 10
-117.2500000000013
 20
65.33750038148972
 30
0.0
 40
3.362500000000014
100
AcDbArc
 50
34.72117053938921
 51
55.27882946061105
  0
ARC
  5
16A
330
4E
100
AcDbEntity
  8
0
  6
Continuous
 62
     7
100
AcDbCircle
 10
-140.7500000000013
 20
65.33750038148973
 30
0.0
 40
3.362499999999983
100
AcDbArc
 50
180.0
 51
214.7211705393891
  0
ARC
  5
16B
330
4E
100
AcDbEntity
  8
0
  6
Continuous
 62
     7
100
AcDbCircle
 10
-140.7500000000013
 20
65.33750038148973
 30
0.0
 40
3.36250000000001
100
AcDbArc
 50
214.7211705393891
 51
235.278829460611
  0
ARC
  5
16C
330
4E
100
AcDbEntity
  8
0
  6
Continuous
 62
     7
100
AcDbCircle
 10
-140.7500000000013
 20
65.33750038148973
 30
0.0
 40
3.362500000000003
100
AcDbArc
 50
55.27882946061065
 51
180.0
  0
ARC
  5
16D
330
4E
100
AcDbEntity
  8
0
  6
Continuous
 62
     7
100
AcDbCircle
 10
-140.7500000000013
 20
65.33750038148973
 30
0.0
 40
3.362500000000038
100
AcDbArc
 50
34.72117053938893
 51
55.27882946061065
  0
ENDBLK
  5
50
330
4E
100
AcDbEntity
  8
0
100
AcDbBlockEnd
  0
BLOCK
  5
53
330
51
100
AcDbEntity
  8
0
100
AcDbBlockBegin
  2
Drfsicht1
 70
     0
 10
-129.0000000000006
 20
66.00000000000992
 30
0.0
  3
Drfsicht1
  1

  0
INSERT
  5
52
330
51
100
AcDbEntity
  8
0
100
AcDbBlockReference
  2
OTTA_25-M5-select__2
 10
-159.0000000000012
 20
56.97500038148974
 30
0.0
  0
MTEXT
  5
16E
330
51
100
AcDbEntity
  8
1
 62
     6
100
AcDbMText
 10
-129.0000000000001
 20
51.97500038147973
 30
0.0
 40
5.0
 41
0.0
 71
     2
 72
     1
  1
 
  7
CONVERTER_11
 73
     1
 44
1.32052821128451
  0
DIMENSION
  5
17A
330
51
100
AcDbEntity
  8
1
100
AcDbDimension
  2
*D17
 10
-169.0000000000012
 20
56.97500038148974
 30
0.0
 11
-172.4250000000012
 21
47.46397867689178
 31
0.0
 70
    33
  1
<>
 71
     5
 42
-1.0
 53
90.0
  3
ME10_DIM_10
100
AcDbAlignedDimension
 13
-159.0000000000012
 23
75.02500038148973
 33
0.0
 14
-159.0000000000012
 24
56.97500038148974
 34
0.0
  0
ENDBLK
  5
54
330
51
100
AcDbEntity
  8
0
100
AcDbBlockEnd
  0
BLOCK
  5
56
330
55
100
AcDbEntity
  8
0
100
AcDbBlockBegin
  2
OTTA_25-M5-select__3
 70
     0
 10
-33.99999999999974
 20
117.2701087629545
 30
0.0
  3
OTTA_25-M5-select__3
  1

  0
LINE
  5
17B
330
55
100
AcDbEntity
  8
0
  6
Continuous
 62
     7
100
AcDbLine
 10
-23.93178868670394
 20
120.7094764521505
 30
0.0
 11
-33.99999999999974
 21
129.1577088517521
 31
0.0
  0
LINE
  5
17C
330
55
100
AcDbEntity
  8
0
  6
Continuous
 62
     7
100
AcDbLine
 10
13.6800000000001
 20
117.2701087629547
 30
0.0
 11
12.48000000000019
 21
121.9201087629547
 31
0.0
  0
LINE
  5
17D
330
55
100
AcDbEntity
  8
0
  6
Continuous
 62
     7
100
AcDbLine
 10
-16.59999999999982
 20
120.6701087629549
 30
0.0
 11
-14.22183094340927
 21
125.770108762955
 31
0.0
  0
LINE
  5
17E
330
55
100
AcDbEntity
  8
0
  6
Continuous
 62
     7
100
AcDbLine
 10
2.45293042924111
 20
123.4014109841739
 30
0.0
 11
1.93515401938679
 21
119.0701087629547
 31
0.0
  0
LINE
  5
17F
330
55
100
AcDbEntity
  8
0
  6
Continuous
 62
     7
100
AcDbLine
 10
-1.11999999999981
 20
119.0701087629548
 30
0.0
 11
-1.11999999999973
 21
127.7701087629548
 31
0.0
  0
LINE
  5
180
330
55
100
AcDbEntity
  8
0
  6
Continuous
 62
     7
100
AcDbLine
 10
-20.89999999999982
 20
121.5093392474963
 30
0.0
 11
-21.50000000000004
 21
120.9093392474962
 31
0.0
  0
LINE
  5
181
330
55
100
AcDbEntity
  8
0
  6
Continuous
 62
     7
100
AcDbLine
 10
-20.89999999999981
 20
122.2093392474963
 30
0.0
 11
-20.89999999999982
 21
121.5093392474963
 31
0.0
  0
LINE
  5
182
330
55
100
AcDbEntity
  8
0
  6
Continuous
 62
     7
100
AcDbLine
 10
-21.49999999999989
 20
122.3701087629549
 30
0.0
 11
-20.89999999999981
 21
122.2093392474963
 31
0.0
  0
LINE
  5
183
330
55
100
AcDbEntity
  8
0
  6
Continuous
 62
     7
100
AcDbLine
 10
-21.49999999999979
 20
123.5701087629549
 30
0.0
 11
-21.49999999999989
 21
122.3701087629549
 31
0.0
  0
LINE
  5
184
330
55
100
AcDbEntity
  8
0
  6
Continuous
 62
     7
100
AcDbLine
 10
-12.41756839646101
 20
124.5701087629548
 30
0.0
 11
-13.31999999999977
 21
122.09069830963
 31
0.0
  0
LINE
  5
185
330
55
100
AcDbEntity
  8
0
  6
Continuous
 62
     7
100
AcDbLine
 10
-15.49999999999982
 20
120.1701087629549
 30
0.0
 11
-16.59999999999982
 21
120.1701087629549
 31
0.0
  0
LINE
  5
186
330
55
100
AcDbEntity
  8
0
  6
Continuous
 62
     7
100
AcDbLine
 10
-16.59999999999982
 20
120.1701087629549
 30
0.0
 11
-16.59999999999982
 21
120.6701087629549
 31
0.0
  0
LINE
  5
187
330
55
100
AcDbEntity
  8
0
  6
Continuous
 62
     7
100
AcDbLine
 10
-21.50000000000004
 20
120.9093392474962
 30
0.0
 11
-23.93178868670394
 21
120.7094764521505
 31
0.0
  0
LINE
  5
188
330
55
100
AcDbEntity
  8
0
  6
Continuous
 62
     7
100
AcDbLine
 10
-16.47003772252216
 20
126.1251591212692
 30
0.0
 11
-17.39999999999978
 21
123.5701087629549
 31
0.0
  0
LINE
  5
189
330
55
100
AcDbEntity
  8
0
  6
Continuous
 62
     7
100
AcDbLine
 10
-14.22183094340927
 20
125.770108762955
 30
0.0
 11
-14.22174855954798
 21
127.7680700585129
 31
0.0
  0
LINE
  5
18A
330
55
100
AcDbEntity
  8
0
  6
Continuous
 62
     7
100
AcDbLine
 10
-3.11999999999976
 20
124.5701087629548
 30
0.0
 11
-12.41756839646101
 21
124.5701087629548
 31
0.0
  0
LINE
  5
18B
330
55
100
AcDbEntity
  8
0
  6
Continuous
 62
     7
100
AcDbLine
 10
-17.39999999999978
 20
123.5701087629549
 30
0.0
 11
-21.49999999999979
 21
123.5701087629549
 31
0.0
  0
LINE
  5
18C
330
55
100
AcDbEntity
  8
0
  6
Continuous
 62
     7
100
AcDbLine
 10
15.67369466053232
 20
173.6826264908013
 30
0.0
 11
21.15130533946889
 21
170.5201264908012
 31
0.0
  0
LINE
  5
18D
330
55
100
AcDbEntity
  8
0
  6
Continuous
 62
     7
100
AcDbLine
 10
26.00000000000063
 20
171.3869055326791
 30
0.0
 11
26.00000000000026
 21
129.9155856984911
 31
0.0
  0
LINE
  5
18E
330
55
100
AcDbEntity
  8
0
  6
Continuous
 62
     7
100
AcDbLine
 10
21.15130533946889
 20
170.5201264908012
 30
0.0
 11
21.68630533946889
 21
171.4467736728506
 31
0.0
  0
LINE
  5
18F
330
55
100
AcDbEntity
  8
0
  6
Continuous
 62
     7
100
AcDbLine
 10
21.68630533946889
 20
171.4467736728506
 30
0.0
 11
21.22913185635359
 21
171.7107229063936
 31
0.0
  0
LINE
  5
190
330
55
100
AcDbEntity
  8
0
  6
Continuous
 62
     7
100
AcDbLine
 10
21.22913185635359
 20
171.7107229063936
 30
0.0
 11
23.08275111742233
 21
173.0711799603288
 31
0.0
  0
LINE
  5
191
330
55
100
AcDbEntity
  8
0
  6
Continuous
 62
     7
100
AcDbLine
 10
16.20869466053232
 20
174.6092736728506
 30
0.0
 11
15.67369466053232
 21
173.6826264908013
 31
0.0
  0
LINE
  5
192
330
55
100
AcDbEntity
  8
0
  6
Continuous
 62
     7
100
AcDbLine
 10
16.66586814364763
 20
174.3453244393076
 30
0.0
 11
16.20869466053232
 21
174.6092736728506
 31
0.0
  0
LINE
  5
193
330
55
100
AcDbEntity
  8
0
  6
Continuous
 62
     7
100
AcDbLine
 10
16.91724888257899
 20
176.6308343353049
 30
0.0
 11
16.66586814364763
 21
174.3453244393076
 31
0.0
  0
LINE
  5
194
330
55
100
AcDbEntity
  8
0
  6
Continuous
 62
     7
100
AcDbLine
 10
16.91724888257899
 20
176.6308343353049
 30
0.0
 11
14.00000000000067
 21
178.3151087629547
 31
0.0
  0
LINE
  5
195
330
55
100
AcDbEntity
  8
0
  6
Continuous
 62
     7
100
AcDbLine
 10
26.00000000000063
 20
171.3869055326791
 30
0.0
 11
23.08275111742233
 21
173.0711799603288
 31
0.0
  0
LINE
  5
196
330
55
100
AcDbEntity
  8
0
  6
Continuous
 62
     7
100
AcDbLine
 10
-31.08275111742097
 20
173.0711799603292
 30
0.0
 11
-33.99999999999938
 21
171.3869055326795
 31
0.0
  0
LINE
  5
197
330
55
100
AcDbEntity
  8
0
  6
Continuous
 62
     7
100
AcDbLine
 10
-31.08275111742097
 20
173.0711799603292
 30
0.0
 11
-29.22913185635244
 21
171.7107229063939
 31
0.0
  0
LINE
  5
198
330
55
100
AcDbEntity
  8
0
  6
Continuous
 62
     7
100
AcDbLine
 10
-21.99999999999932
 20
178.3151087629549
 30
0.0
 11
-24.91724888257768
 21
176.6308343353051
 31
0.0
  0
LINE
  5
199
330
55
100
AcDbEntity
  8
0
  6
Continuous
 62
     7
100
AcDbLine
 10
-21.99999999999932
 20
178.3151087629549
 30
0.0
 11
-21.99999999999929
 21
180.3701087629549
 31
0.0
  0
LINE
  5
19A
330
55
100
AcDbEntity
  8
0
  6
Continuous
 62
     7
100
AcDbLine
 10
-21.99999999999929
 20
180.3701087629549
 30
0.0
 11
14.0000000000007
 21
180.3701087629546
 31
0.0
  0
LINE
  5
19B
330
55
100
AcDbEntity
  8
0
  6
Continuous
 62
     7
100
AcDbLine
 10
14.0000000000007
 20
180.3701087629546
 30
0.0
 11
14.00000000000067
 21
178.3151087629547
 31
0.0
  0
LINE
  5
19C
330
55
100
AcDbEntity
  8
0
  6
Continuous
 62
     7
100
AcDbLine
 10
24.16949788688856
 20
121.6442538198958
 30
0.0
 11
25.62940952255144
 21
121.2530716760991
 31
0.0
  0
LINE
  5
19D
330
55
100
AcDbEntity
  8
0
  6
Continuous
 62
     7
100
AcDbLine
 10
13.51000000000003
 20
122.3701087629546
 30
0.0
 11
13.72159237685018
 21
123.5701087629547
 31
0.0
  0
LINE
  5
19E
330
55
100
AcDbEntity
  8
0
  6
Continuous
 62
     7
100
AcDbLine
 10
1.93515401938679
 20
119.0701087629547
 30
0.0
 11
-1.11999999999981
 21
119.0701087629548
 31
0.0
  0
LINE
  5
19F
330
55
100
AcDbEntity
  8
0
  6
Continuous
 62
     7
100
AcDbLine
 10
12.48000000000008
 20
122.1701087629547
 30
0.0
 11
13.51000000000003
 21
122.3701087629546
 31
0.0
  0
LINE
  5
1A0
330
55
100
AcDbEntity
  8
0
  6
Continuous
 62
     7
100
AcDbLine
 10
12.48000000000019
 20
121.9201087629547
 30
0.0
 11
12.48000000000008
 21
122.1701087629547
 31
0.0
  0
LINE
  5
1A1
330
55
100
AcDbEntity
  8
0
  6
Continuous
 62
     7
100
AcDbLine
 10
26.00000000000015
 20
117.2701087629545
 30
0.0
 11
13.6800000000001
 21
117.2701087629547
 31
0.0
  0
LINE
  5
1A2
330
55
100
AcDbEntity
  8
0
  6
Continuous
 62
     7
100
AcDbLine
 10
26.00000000000018
 20
120.7701087629545
 30
0.0
 11
26.00000000000015
 21
117.2701087629545
 31
0.0
  0
LINE
  5
1A3
330
55
100
AcDbEntity
  8
0
  6
Continuous
 62
     7
100
AcDbLine
 10
-33.99999999999974
 20
129.1577088517521
 30
0.0
 11
-33.99999999999938
 21
171.3869055326795
 31
0.0
  0
LINE
  5
1A4
330
55
100
AcDbEntity
  8
0
  6
Continuous
 62
     7
100
AcDbLine
 10
-29.22913185635244
 20
171.7107229063939
 30
0.0
 11
-29.68630533946767
 21
171.446773672851
 31
0.0
  0
LINE
  5
1A5
330
55
100
AcDbEntity
  8
0
  6
Continuous
 62
     7
100
AcDbLine
 10
-29.68630533946767
 20
171.446773672851
 30
0.0
 11
-29.15130533946766
 21
170.5201264908017
 31
0.0
  0
LINE
  5
1A6
330
55
100
AcDbEntity
  8
0
  6
Continuous
 62
     7
100
AcDbLine
 10
-29.15130533946766
 20
170.5201264908017
 30
0.0
 11
-23.67369466053107
 21
173.6826264908016
 31
0.0
  0
LINE
  5
1A7
330
55
100
AcDbEntity
  8
0
  6
Continuous
 62
     7
100
AcDbLine
 10
-24.66586814364636
 20
174.345324439308
 30
0.0
 11
-24.91724888257768
 21
176.6308343353051
 31
0.0
  0
LINE
  5
1A8
330
55
100
AcDbEntity
  8
0
  6
Continuous
 62
     7
100
AcDbLine
 10
-24.20869466053107
 20
174.609273672851
 30
0.0
 11
-24.66586814364636
 21
174.345324439308
 31
0.0
  0
LINE
  5
1A9
330
55
100
AcDbEntity
  8
0
  6
Continuous
 62
     7
100
AcDbLine
 10
-23.67369466053107
 20
173.6826264908016
 30
0.0
 11
-24.20869466053107
 21
174.609273672851
 31
0.0
  0
LINE
  5
1AA
330
55
100
AcDbEntity
  8
0
  6
Continuous
 62
     7
100
AcDbLine
 10
-13.31999999999977
 20
122.09069830963
 30
0.0
 11
-14.16999999999985
 21
117.2701087629549
 31
0.0
  0
LINE
  5
1AB
330
55
100
AcDbEntity
  8
0
  6
Continuous
 62
     7
100
AcDbLine
 10
-16.91999999999982
 20
117.2701087629549
 30
0.0
 11
-16.9199999999998
 21
118.5401087629549
 31
0.0
  0
LINE
  5
1AC
330
55
100
AcDbEntity
  8
0
  6
Continuous
 62
     7
100
AcDbLine
 10
-16.9199999999998
 20
118.5401087629549
 30
0.0
 11
-15.49999999999982
 21
118.5401087629549
 31
0.0
  0
LINE
  5
1AD
330
55
100
AcDbEntity
  8
0
  6
Continuous
 62
     7
100
AcDbLine
 10
-15.49999999999982
 20
118.5401087629549
 30
0.0
 11
-15.49999999999982
 21
120.1701087629549
 31
0.0
  0
LINE
  5
1AE
330
55
100
AcDbEntity
  8
0
  6
Continuous
 62
     7
100
AcDbLine
 10
-14.16999999999985
 20
117.2701087629549
 30
0.0
 11
-16.91999999999982
 21
117.2701087629549
 31
0.0
  0
LINE
  5
1AF
330
55
100
AcDbEntity
  8
0
  6
Continuous
 62
     7
100
AcDbLine
 10
-3.11999999999973
 20
127.7701087629548
 30
0.0
 11
-3.11999999999976
 21
124.5701087629548
 31
0.0
  0
LINE
  5
1B0
330
55
100
AcDbEntity
  8
0
  6
Continuous
 62
     7
100
AcDbLine
 10
26.00000000000026
 20
129.9155856984911
 30
0.0
 11
23.48762605742167
 21
122.9494445552188
 31
0.0
  0
LINE
  5
1B1
330
55
100
AcDbEntity
  8
0
  6
Continuous
 62
     7
100
AcDbLine
 10
13.72159237685018
 20
123.5701087629547
 30
0.0
 11
12.5800000000001
 21
123.7714022999644
 31
0.0
  0
LINE
  5
1B2
330
55
100
AcDbEntity
  8
0
  6
Continuous
 62
     7
100
AcDbLine
 10
12.5800000000001
 20
123.7714022999644
 30
0.0
 11
12.58000000000023
 21
124.5201087629547
 31
0.0
  0
LINE
  5
1B3
330
55
100
AcDbEntity
  8
0
  6
Continuous
 62
     7
100
AcDbLine
 10
12.58000000000023
 20
124.5201087629547
 30
0.0
 11
13.51000000000023
 21
126.1309160139938
 31
0.0
  0
LINE
  5
1B4
330
55
100
AcDbEntity
  8
0
  6
Continuous
 62
     7
100
AcDbLine
 10
12.51000000000025
 20
127.2701087629547
 30
0.0
 11
9.31508529610883
 21
127.2701087629547
 31
0.0
  0
LINE
  5
1B5
330
55
100
AcDbEntity
  8
0
  6
Continuous
 62
     7
100
AcDbLine
 10
9.31508529610883
 20
127.2701087629547
 30
0.0
 11
8.68000000000024
 21
126.1701087629547
 31
0.0
  0
LINE
  5
1B6
330
55
100
AcDbEntity
  8
0
  6
Continuous
 62
     7
100
AcDbLine
 10
8.68000000000024
 20
126.1701087629547
 30
0.0
 11
4.33000000000023
 21
126.1701087629547
 31
0.0
  0
LINE
  5
1B7
330
55
100
AcDbEntity
  8
0
  6
Continuous
 62
     7
100
AcDbLine
 10
4.33000000000023
 20
126.1701087629547
 30
0.0
 11
3.40623956929684
 21
127.7701087629547
 31
0.0
  0
LINE
  5
1B8
330
55
100
AcDbEntity
  8
0
  6
Continuous
 62
     7
100
AcDbLine
 10
3.40623956929684
 20
127.7701087629547
 30
0.0
 11
1.46000000000036
 21
127.7701087629547
 31
0.0
  0
LINE
  5
1B9
330
55
100
AcDbEntity
  8
0
  6
Continuous
 62
     7
100
AcDbLine
 10
1.46000000000036
 20
127.7701087629547
 30
0.0
 11
1.46000000000033
 21
124.5201087629547
 31
0.0
  0
LINE
  5
1BA
330
55
100
AcDbEntity
  8
0
  6
Continuous
 62
     7
100
AcDbLine
 10
-1.11999999999973
 20
127.7701087629548
 30
0.0
 11
-3.11999999999973
 21
127.7701087629548
 31
0.0
  0
LINE
  5
1BB
330
55
100
AcDbEntity
  8
0
  6
Continuous
 62
     7
100
AcDbLine
 10
13.51000000000023
 20
126.1309160139938
 30
0.0
 11
13.51000000000025
 21
127.2701087629546
 31
0.0
  0
ARC
  5
1BC
330
55
100
AcDbEntity
  8
0
  6
Continuous
 62
     7
100
AcDbCircle
 10
-14.12080617055745
 20
125.2701087629549
 30
0.0
 40
2.500000000000183
100
AcDbArc
 50
92.31405820355225
 51
159.9999999999967
  0
ARC
  5
1BD
330
55
100
AcDbEntity
  8
0
  6
Continuous
 62
     7
100
AcDbCircle
 10
24.42831693199109
 20
122.6101796461848
 30
0.0
 40
1.000000000000014
100
AcDbArc
 50
160.1679053064412
 51
254.9999999999986
  0
ARC
  5
1BE
330
55
100
AcDbEntity
  8
0
  6
Continuous
 62
     7
100
AcDbCircle
 10
1.46000000000021
 20
123.5201087629547
 30
0.0
 40
0.9999999999999988
100
AcDbArc
 50
353.1830463422432
 51
89.99999999999352
  0
ARC
  5
1BF
330
55
100
AcDbEntity
  8
0
  6
Continuous
 62
     7
100
AcDbCircle
 10
25.50000000000018
 20
120.7701087629545
 30
0.0
 40
0.5
100
AcDbArc
 50
0.0
 51
75.00000000000213
  0
ARC
  5
1C0
330
55
100
AcDbEntity
  8
0
  6
Continuous
 62
     7
100
AcDbCircle
 10
13.01000000000025
 20
127.2701087629546
 30
0.0
 40
0.5
100
AcDbArc
 50
0.0
 51
179.9999999999886
  0
ENDBLK
  5
57
330
55
100
AcDbEntity
  8
0
100
AcDbBlockEnd
  0
BLOCK
  5
5A
330
58
100
AcDbEntity
  8
0
100
AcDbBlockBegin
  2
Rckans1
 70
     0
 10
-4.0
 20
148.8201080000099
 30
0.0
  3
Rckans1
  1

  0
INSERT
  5
59
330
58
100
AcDbEntity
  8
0
100
AcDbBlockReference
  2
OTTA_25-M5-select__3
 10
-33.99999999999974
 20
117.2701087629545
 30
0.0
  0
MTEXT
  5
1C1
330
58
100
AcDbEntity
  8
1
 62
     6
100
AcDbMText
 10
-4.0
 20
112.2701087629494
 30
0.0
 40
5.0
 41
0.0
 71
     2
 72
     1
  1
 
  7
CONVERTER_11
 73
     1
 44
1.32052821128451
  0
ENDBLK
  5
5B
330
58
100
AcDbEntity
  8
0
100
AcDbBlockEnd
  0
BLOCK
  5
5D
330
5C
100
AcDbEntity
  8
0
100
AcDbBlockBegin
  2
OTTA_25-M5-select__4
 70
     0
 10
-73.02500038148978
 20
117.2701087629549
 30
0.0
  3
OTTA_25-M5-select__4
  1

  0
LINE
  5
1C2
330
5C
100
AcDbEntity
  8
1
  6
DOT_CENTER
 62
     2
100
AcDbLine
 10
-63.22500038148998
 20
143.8701087629549
 30
0.0
 11
-63.22500038148998
 21
155.0701087629549
 31
0.0
  0
LINE
  5
1C3
330
5C
100
AcDbEntity
  8
0
  6
Continuous
 62
     7
100
AcDbLine
 10
-54.97500038148978
 20
178.3151087629546
 30
0.0
 11
-73.02500038148978
 21
178.3151087629547
 31
0.0
  0
LINE
  5
1C4
330
5C
100
AcDbEntity
  8
0
  6
Continuous
 62
     7
100
AcDbLine
 10
-54.97500038148978
 20
171.386905532679
 30
0.0
 11
-73.02500038148978
 21
171.3869055326791
 31
0.0
  0
LINE
  5
1C5
330
5C
100
AcDbEntity
  8
0
  6
Continuous
 62
     7
100
AcDbLine
 10
-54.97500038148978
 20
173.0711799603288
 30
0.0
 11
-73.02500038148978
 21
173.0711799603288
 31
0.0
  0
LINE
  5
1C6
330
5C
100
AcDbEntity
  8
0
  6
Continuous
 62
     7
100
AcDbLine
 10
-73.02500038148978
 20
173.6826264908013
 30
0.0
 11
-54.97500038148978
 21
173.6826264908013
 31
0.0
  0
LINE
  5
1C7
330
5C
100
AcDbEntity
  8
0
  6
Continuous
 62
     7
100
AcDbLine
 10
-54.97500038148978
 20
143.8701087629548
 30
0.0
 11
-60.72500038148998
 21
143.8701087629549
 31
0.0
  0
LINE
  5
1C8
330
5C
100
AcDbEntity
  8
0
  6
Continuous
 62
     7
100
AcDbLine
 10
-54.97500038148978
 20
133.2701087629545
 30
0.0
 11
-54.97500038148978
 21
143.8701087629548
 31
0.0
  0
LINE
  5
1C9
330
5C
100
AcDbEntity
  8
0
  6
Continuous
 62
     7
100
AcDbLine
 10
-54.97500038148978
 20
133.2701087629545
 30
0.0
 11
-54.97500038148978
 21
129.9155856984911
 31
0.0
  0
LINE
  5
1CA
330
5C
100
AcDbEntity
  8
0
  6
Continuous
 62
     7
100
AcDbLine
 10
-60.72500038148998
 20
143.8701087629549
 30
0.0
 11
-65.72500038148998
 21
143.8701087629549
 31
0.0
  0
LINE
  5
1CB
330
5C
100
AcDbEntity
  8
0
  6
Continuous
 62
     7
100
AcDbLine
 10
-71.42500038148962
 20
133.2701087629545
 30
0.0
 11
-71.42500038148974
 21
143.8701087629546
 31
0.0
  0
LINE
  5
1CC
330
5C
100
AcDbEntity
  8
0
  6
Continuous
 62
     7
100
AcDbLine
 10
-71.42500038148974
 20
143.8701087629546
 30
0.0
 11
-71.42500038148974
 21
155.0701087629546
 31
0.0
  0
LINE
  5
1CD
330
5C
100
AcDbEntity
  8
0
  6
Continuous
 62
     7
100
AcDbLine
 10
-71.42500038148974
 20
155.0701087629546
 30
0.0
 11
-71.42500038148962
 21
159.6201087629545
 31
0.0
  0
LINE
  5
1CE
330
5C
100
AcDbEntity
  8
0
  6
Continuous
 62
     7
100
AcDbLine
 10
-73.02500038148978
 20
171.3869055326791
 30
0.0
 11
-73.02500038148978
 21
129.9155856984911
 31
0.0
  0
LINE
  5
1CF
330
5C
100
AcDbEntity
  8
0
  6
Continuous
 62
     7
100
AcDbLine
 10
-54.97500038148978
 20
133.2701087629545
 30
0.0
 11
-71.42500038148962
 21
133.2701087629545
 31
0.0
  0
LINE
  5
1D0
330
5C
100
AcDbEntity
  8
0
  6
Continuous
 62
     7
100
AcDbLine
 10
-54.97500038148978
 20
129.9155856984911
 30
0.0
 11
-73.02500038148978
 21
129.9155856984911
 31
0.0
  0
LINE
  5
1D1
330
5C
100
AcDbEntity
  8
0
  6
Continuous
 62
     7
100
AcDbLine
 10
-71.42500038148962
 20
159.6201087629545
 30
0.0
 11
-54.97500038148978
 21
159.6201087629546
 31
0.0
  0
LINE
  5
1D2
330
5C
100
AcDbEntity
  8
0
  6
Continuous
 62
     7
100
AcDbLine
 10
-54.97500038148978
 20
171.386905532679
 30
0.0
 11
-54.97500038148978
 21
159.6201087629546
 31
0.0
  0
LINE
  5
1D3
330
5C
100
AcDbEntity
  8
0
  6
Continuous
 62
     7
100
AcDbLine
 10
-60.72500038148998
 20
143.8701087629549
 30
0.0
 11
-60.72500038148998
 21
155.0701087629549
 31
0.0
  0
LINE
  5
1D4
330
5C
100
AcDbEntity
  8
0
  6
Continuous
 62
     7
100
AcDbLine
 10
-65.72500038148998
 20
143.8701087629549
 30
0.0
 11
-71.42500038148974
 21
143.8701087629546
 31
0.0
  0
LINE
  5
1D5
330
5C
100
AcDbEntity
  8
0
  6
Continuous
 62
     7
100
AcDbLine
 10
-54.97500038148978
 20
143.8701087629548
 30
0.0
 11
-54.97500038148978
 21
155.0701087629547
 31
0.0
  0
LINE
  5
1D6
330
5C
100
AcDbEntity
  8
0
  6
Continuous
 62
     7
100
AcDbLine
 10
-65.72500038148998
 20
143.8701087629549
 30
0.0
 11
-65.72500038148998
 21
155.0701087629549
 31
0.0
  0
LINE
  5
1D7
330
5C
100
AcDbEntity
  8
0
  6
Continuous
 62
     7
100
AcDbLine
 10
-54.97500038148978
 20
174.3453244393076
 30
0.0
 11
-73.02500038148978
 21
174.3453244393076
 31
0.0
  0
LINE
  5
1D8
330
5C
100
AcDbEntity
  8
0
  6
Continuous
 62
     7
100
AcDbLine
 10
-54.97500038148978
 20
176.6308343353048
 30
0.0
 11
-73.02500038148978
 21
176.6308343353049
 31
0.0
  0
LINE
  5
1D9
330
5C
100
AcDbEntity
  8
0
  6
Continuous
 62
     7
100
AcDbLine
 10
-73.02500038148978
 20
176.6308343353049
 30
0.0
 11
-73.02500038148978
 21
178.3151087629547
 31
0.0
  0
LINE
  5
1DA
330
5C
100
AcDbEntity
  8
0
  6
Continuous
 62
     7
100
AcDbLine
 10
-54.97500038148976
 20
180.3701087629546
 30
0.0
 11
-73.02500038148978
 21
180.3701087629546
 31
0.0
  0
LINE
  5
1DB
330
5C
100
AcDbEntity
  8
0
  6
Continuous
 62
     7
100
AcDbLine
 10
-54.97500038148978
 20
155.0701087629547
 30
0.0
 11
-54.97500038148978
 21
159.6201087629546
 31
0.0
  0
LINE
  5
1DC
330
5C
100
AcDbEntity
  8
0
  6
Continuous
 62
     7
100
AcDbLine
 10
-54.97500038148978
 20
155.0701087629547
 30
0.0
 11
-60.72500038148998
 21
155.0701087629549
 31
0.0
  0
LINE
  5
1DD
330
5C
100
AcDbEntity
  8
0
  6
Continuous
 62
     7
100
AcDbLine
 10
-65.72500038148998
 20
155.0701087629549
 30
0.0
 11
-71.42500038148974
 21
155.0701087629546
 31
0.0
  0
LINE
  5
1DE
330
5C
100
AcDbEntity
  8
0
  6
Continuous
 62
     7
100
AcDbLine
 10
-60.72500038148998
 20
155.0701087629549
 30
0.0
 11
-65.72500038148998
 21
155.0701087629549
 31
0.0
  0
LINE
  5
1DF
330
5C
100
AcDbEntity
  8
0
  6
Continuous
 62
     7
100
AcDbLine
 10
-73.02500038148978
 20
171.3869055326791
 30
0.0
 11
-73.02500038148978
 21
173.0711799603288
 31
0.0
  0
LINE
  5
1E0
330
5C
100
AcDbEntity
  8
0
  6
Continuous
 62
     7
100
AcDbLine
 10
-73.02500038148978
 20
173.6826264908013
 30
0.0
 11
-73.02500038148978
 21
173.0711799603288
 31
0.0
  0
LINE
  5
1E1
330
5C
100
AcDbEntity
  8
0
  6
Continuous
 62
     7
100
AcDbLine
 10
-73.02500038148978
 20
174.3453244393076
 30
0.0
 11
-73.02500038148978
 21
173.6826264908013
 31
0.0
  0
LINE
  5
1E2
330
5C
100
AcDbEntity
  8
0
  6
Continuous
 62
     7
100
AcDbLine
 10
-73.02500038148978
 20
176.6308343353049
 30
0.0
 11
-73.02500038148978
 21
174.3453244393076
 31
0.0
  0
LINE
  5
1E3
330
5C
100
AcDbEntity
  8
0
  6
Continuous
 62
     7
100
AcDbLine
 10
-73.02500038148978
 20
180.3701087629546
 30
0.0
 11
-73.02500038148978
 21
178.3151087629547
 31
0.0
  0
LINE
  5
1E4
330
5C
100
AcDbEntity
  8
0
  6
Continuous
 62
     2
100
AcDbLine
 10
-73.02500038148978
 20
122.9494445552188
 30
0.0
 11
-71.52500038148965
 21
122.9494445552188
 31
0.0
  0
LINE
  5
1E5
330
5C
100
AcDbEntity
  8
0
  6
Continuous
 62
     2
100
AcDbLine
 10
-73.02500038148978
 20
121.6442538198958
 30
0.0
 11
-71.52500038148965
 21
121.6442538198957
 31
0.0
  0
LINE
  5
1E6
330
5C
100
AcDbEntity
  8
0
  6
Continuous
 62
     7
100
AcDbLine
 10
-71.52500038148965
 20
121.6442538198957
 30
0.0
 11
-71.52500038148965
 21
122.9494445552188
 31
0.0
  0
LINE
  5
1E7
330
5C
100
AcDbEntity
  8
0
  6
Continuous
 62
     7
100
AcDbLine
 10
-54.97500038148978
 20
121.2701087629545
 30
0.0
 11
-54.97500038148978
 21
120.7701087629545
 31
0.0
  0
LINE
  5
1E8
330
5C
100
AcDbEntity
  8
0
  6
Continuous
 62
     7
100
AcDbLine
 10
-73.02500038148978
 20
120.7701087629545
 30
0.0
 11
-73.02500038148978
 21
117.2701087629549
 31
0.0
  0
LINE
  5
1E9
330
5C
100
AcDbEntity
  8
0
  6
Continuous
 62
     7
100
AcDbLine
 10
-73.02500038148978
 20
121.2530716760991
 30
0.0
 11
-73.02500038148978
 21
120.7701087629545
 31
0.0
  0
LINE
  5
1EA
330
5C
100
AcDbEntity
  8
0
  6
Continuous
 62
     7
100
AcDbLine
 10
-73.02500038148978
 20
121.6442538198958
 30
0.0
 11
-73.02500038148978
 21
121.2530716760991
 31
0.0
  0
LINE
  5
1EB
330
5C
100
AcDbEntity
  8
0
  6
Continuous
 62
     7
100
AcDbLine
 10
-73.02500038148978
 20
122.9494445552188
 30
0.0
 11
-73.02500038148978
 21
121.6442538198958
 31
0.0
  0
LINE
  5
1EC
330
5C
100
AcDbEntity
  8
0
  6
Continuous
 62
     7
100
AcDbLine
 10
-54.97500038148978
 20
117.2701087629549
 30
0.0
 11
-73.02500038148978
 21
117.2701087629549
 31
0.0
  0
LINE
  5
1ED
330
5C
100
AcDbEntity
  8
0
  6
Continuous
 62
     2
100
AcDbLine
 10
-73.02500038148978
 20
120.7701087629545
 30
0.0
 11
-54.97500038148978
 21
120.7701087629545
 31
0.0
  0
LINE
  5
1EE
330
5C
100
AcDbEntity
  8
0
  6
Continuous
 62
     7
100
AcDbLine
 10
-54.97500038148978
 20
120.7701087629545
 30
0.0
 11
-54.97500038148978
 21
117.2701087629549
 31
0.0
  0
LINE
  5
1EF
330
5C
100
AcDbEntity
  8
0
  6
Continuous
 62
     7
100
AcDbLine
 10
-54.97500038148976
 20
180.3701087629546
 30
0.0
 11
-54.97500038148978
 21
178.3151087629546
 31
0.0
  0
LINE
  5
1F0
330
5C
100
AcDbEntity
  8
0
  6
Continuous
 62
     7
100
AcDbLine
 10
-54.97500038148978
 20
176.6308343353048
 30
0.0
 11
-54.97500038148978
 21
178.3151087629546
 31
0.0
  0
LINE
  5
1F1
330
5C
100
AcDbEntity
  8
0
  6
Continuous
 62
     7
100
AcDbLine
 10
-54.97500038148978
 20
176.6308343353048
 30
0.0
 11
-54.97500038148978
 21
174.3453244393076
 31
0.0
  0
LINE
  5
1F2
330
5C
100
AcDbEntity
  8
0
  6
Continuous
 62
     7
100
AcDbLine
 10
-54.97500038148978
 20
171.386905532679
 30
0.0
 11
-54.97500038148978
 21
173.0711799603288
 31
0.0
  0
LINE
  5
1F3
330
5C
100
AcDbEntity
  8
0
  6
Continuous
 62
     7
100
AcDbLine
 10
-54.97500038148978
 20
173.6826264908013
 30
0.0
 11
-54.97500038148978
 21
173.0711799603288
 31
0.0
  0
LINE
  5
1F4
330
5C
100
AcDbEntity
  8
0
  6
Continuous
 62
     7
100
AcDbLine
 10
-54.97500038148978
 20
174.3453244393076
 30
0.0
 11
-54.97500038148978
 21
173.6826264908013
 31
0.0
  0
LINE
  5
1F5
330
5C
100
AcDbEntity
  8
0
  6
Continuous
 62
     7
100
AcDbLine
 10
-73.02500038148978
 20
129.9155856984911
 30
0.0
 11
-73.02500038148978
 21
122.9494445552188
 31
0.0
  0
LINE
  5
1F6
330
5C
100
AcDbEntity
  8
0
  6
Continuous
 62
     7
100
AcDbLine
 10
-54.97500038148978
 20
129.9155856984911
 30
0.0
 11
-54.97500038148978
 21
121.2701087629545
 31
0.0
  0
LINE
  5
1F7
330
5C
100
AcDbEntity
  8
0
  6
Continuous
 62
     7
100
AcDbLine
 10
-71.52500038148963
 20
121.2701087629545
 30
0.0
 11
-54.97500038148978
 21
121.2701087629545
 31
0.0
  0
LINE
  5
1F8
330
5C
100
AcDbEntity
  8
0
  6
Continuous
 62
     7
100
AcDbLine
 10
-71.52500038148963
 20
121.2701087629545
 30
0.0
 11
-71.52500038148965
 21
121.6442538198957
 31
0.0
  0
LINE
  5
1F9
330
5C
100
AcDbEntity
  8
0
  6
Continuous
 62
     2
100
AcDbLine
 10
-73.02500038148978
 20
121.2530716760991
 30
0.0
 11
-71.52500038148963
 21
121.2530716760991
 31
0.0
  0
LINE
  5
1FA
330
5C
100
AcDbEntity
  8
0
  6
Continuous
 62
     7
100
AcDbLine
 10
-71.52500038148963
 20
121.2530716760991
 30
0.0
 11
-71.52500038148963
 21
121.2701087629545
 31
0.0
  0
ENDBLK
  5
5E
330
5C
100
AcDbEntity
  8
0
100
AcDbBlockEnd
  0
BLOCK
  5
61
330
5F
100
AcDbEntity
  8
0
100
AcDbBlockBegin
  2
SA_Links1
 70
     0
 10
-64.00000000000996
 20
148.8201080000099
 30
0.0
  3
SA_Links1
  1

  0
INSERT
  5
60
330
5F
100
AcDbEntity
  8
0
100
AcDbBlockReference
  2
OTTA_25-M5-select__4
 10
-73.02500038148978
 20
117.2701087629549
 30
0.0
  0
MTEXT
  5
1FB
330
5F
100
AcDbEntity
  8
1
 62
     6
100
AcDbMText
 10
-64.00000000001
 20
112.2701087629494
 30
0.0
 40
5.0
 41
0.0
 71
     2
 72
     1
  1
 
  7
CONVERTER_11
 73
     1
 44
1.32052821128451
  0
ENDBLK
  5
62
330
5F
100
AcDbEntity
  8
0
100
AcDbBlockEnd
  0
BLOCK
  5
64
330
63
100
AcDbEntity
  8
0
100
AcDbBlockBegin
  2
OTTA_25-M5-select__5
 70
     0
 10
-215.0249996185111
 20
117.2701087629547
 30
0.0
  3
OTTA_25-M5-select__5
  1

  0
LINE
  5
1FC
330
63
100
AcDbEntity
  8
1
  6
DOT_CENTER
 62
     2
100
AcDbLine
 10
-206.774999618511
 20
143.8701087629549
 30
0.0
 11
-206.774999618511
 21
155.0701087629549
 31
0.0
  0
LINE
  5
1FD
330
63
100
AcDbEntity
  8
0
  6
Continuous
 62
     7
100
AcDbLine
 10
-215.0249996185111
 20
117.2701087629547
 30
0.0
 11
-196.9749996185111
 21
117.2701087629547
 31
0.0
  0
LINE
  5
1FE
330
63
100
AcDbEntity
  8
0
  6
Continuous
 62
     7
100
AcDbLine
 10
-215.0249996185111
 20
117.2701087629547
 30
0.0
 11
-215.0249996185111
 21
118.5401087629549
 31
0.0
  0
LINE
  5
1FF
330
63
100
AcDbEntity
  8
0
  6
Continuous
 62
     7
100
AcDbLine
 10
-215.0249996185111
 20
118.5401087629549
 30
0.0
 11
-215.0249996185111
 21
120.1701087629549
 31
0.0
  0
LINE
  5
200
330
63
100
AcDbEntity
  8
0
  6
Continuous
 62
     7
100
AcDbLine
 10
-215.0249996185111
 20
120.1701087629549
 30
0.0
 11
-215.0249996185111
 21
120.6701087629549
 31
0.0
  0
LINE
  5
201
330
63
100
AcDbEntity
  8
0
  6
Continuous
 62
     7
100
AcDbLine
 10
-215.0249996185111
 20
120.6701087629549
 30
0.0
 11
-215.0249996185111
 21
120.7094764521505
 31
0.0
  0
LINE
  5
202
330
63
100
AcDbEntity
  8
0
  6
Continuous
 62
     7
100
AcDbLine
 10
-196.9749996185111
 20
118.5401087629549
 30
0.0
 11
-215.0249996185111
 21
118.5401087629549
 31
0.0
  0
LINE
  5
203
330
63
100
AcDbEntity
  8
0
  6
Continuous
 62
     7
100
AcDbLine
 10
-196.9749996185111
 20
120.6701087629549
 30
0.0
 11
-215.0249996185111
 21
120.6701087629549
 31
0.0
  0
LINE
  5
204
330
63
100
AcDbEntity
  8
0
  6
Continuous
 62
     7
100
AcDbLine
 10
-196.9749996185111
 20
120.1701087629549
 30
0.0
 11
-215.0249996185111
 21
120.1701087629549
 31
0.0
  0
LINE
  5
205
330
63
100
AcDbEntity
  8
0
  6
Continuous
 62
     7
100
AcDbLine
 10
-215.0249996185111
 20
120.7094764521505
 30
0.0
 11
-196.9749996185111
 21
120.7094764521505
 31
0.0
  0
LINE
  5
206
330
63
100
AcDbEntity
  8
0
  6
Continuous
 62
     7
100
AcDbLine
 10
-196.9749996185111
 20
117.2701087629547
 30
0.0
 11
-196.9749996185111
 21
118.5401087629549
 31
0.0
  0
LINE
  5
207
330
63
100
AcDbEntity
  8
0
  6
Continuous
 62
     7
100
AcDbLine
 10
-196.9749996185111
 20
118.5401087629549
 30
0.0
 11
-196.9749996185111
 21
120.1701087629549
 31
0.0
  0
LINE
  5
208
330
63
100
AcDbEntity
  8
0
  6
Continuous
 62
     7
100
AcDbLine
 10
-196.9749996185111
 20
120.1701087629549
 30
0.0
 11
-196.9749996185111
 21
120.6701087629549
 31
0.0
  0
LINE
  5
209
330
63
100
AcDbEntity
  8
0
  6
Continuous
 62
     7
100
AcDbLine
 10
-196.9749996185111
 20
120.6701087629549
 30
0.0
 11
-196.9749996185111
 21
120.7094764521505
 31
0.0
  0
LINE
  5
20A
330
63
100
AcDbEntity
  8
0
  6
Continuous
 62
     7
100
AcDbLine
 10
-215.0249996185111
 20
173.0711799603293
 30
0.0
 11
-196.9749996185112
 21
173.0711799603292
 31
0.0
  0
LINE
  5
20B
330
63
100
AcDbEntity
  8
0
  6
Continuous
 62
     7
100
AcDbLine
 10
-215.0249996185111
 20
171.3869055326796
 30
0.0
 11
-196.9749996185112
 21
171.3869055326795
 31
0.0
  0
LINE
  5
20C
330
63
100
AcDbEntity
  8
0
  6
Continuous
 62
     7
100
AcDbLine
 10
-215.0249996185111
 20
159.620108762955
 30
0.0
 11
-215.0249996185111
 21
155.0701087629549
 31
0.0
  0
LINE
  5
20D
330
63
100
AcDbEntity
  8
0
  6
Continuous
 62
     7
100
AcDbLine
 10
-215.0249996185111
 20
159.620108762955
 30
0.0
 11
-215.0249996185111
 21
171.3869055326796
 31
0.0
  0
LINE
  5
20E
330
63
100
AcDbEntity
  8
0
  6
Continuous
 62
     7
100
AcDbLine
 10
-215.0249996185111
 20
129.1577088517521
 30
0.0
 11
-196.9749996185111
 21
129.1577088517521
 31
0.0
  0
LINE
  5
20F
330
63
100
AcDbEntity
  8
0
  6
Continuous
 62
     7
100
AcDbLine
 10
-198.5749996185109
 20
143.8701087629549
 30
0.0
 11
-198.5749996185108
 21
133.2701087629551
 31
0.0
  0
LINE
  5
210
330
63
100
AcDbEntity
  8
0
  6
Continuous
 62
     7
100
AcDbLine
 10
-198.5749996185108
 20
133.2701087629551
 30
0.0
 11
-215.0249996185111
 21
133.2701087629551
 31
0.0
  0
LINE
  5
211
330
63
100
AcDbEntity
  8
0
  6
Continuous
 62
     7
100
AcDbLine
 10
-209.274999618511
 20
143.8701087629549
 30
0.0
 11
-209.274999618511
 21
155.0701087629549
 31
0.0
  0
LINE
  5
212
330
63
100
AcDbEntity
  8
0
  6
Continuous
 62
     7
100
AcDbLine
 10
-215.0249996185111
 20
143.8701087629548
 30
0.0
 11
-215.0249996185111
 21
155.0701087629549
 31
0.0
  0
LINE
  5
213
330
63
100
AcDbEntity
  8
0
  6
Continuous
 62
     7
100
AcDbLine
 10
-215.0249996185111
 20
129.1577088517521
 30
0.0
 11
-215.0249996185111
 21
133.2701087629551
 31
0.0
  0
LINE
  5
214
330
63
100
AcDbEntity
  8
0
  6
Continuous
 62
     7
100
AcDbLine
 10
-215.0249996185111
 20
143.8701087629548
 30
0.0
 11
-215.0249996185111
 21
133.2701087629551
 31
0.0
  0
LINE
  5
215
330
63
100
AcDbEntity
  8
0
  6
Continuous
 62
     7
100
AcDbLine
 10
-215.0249996185111
 20
143.8701087629548
 30
0.0
 11
-209.274999618511
 21
143.8701087629549
 31
0.0
  0
LINE
  5
216
330
63
100
AcDbEntity
  8
0
  6
Continuous
 62
     7
100
AcDbLine
 10
-196.9749996185112
 20
173.6826264908016
 30
0.0
 11
-215.0249996185111
 21
173.6826264908016
 31
0.0
  0
LINE
  5
217
330
63
100
AcDbEntity
  8
0
  6
Continuous
 62
     7
100
AcDbLine
 10
-215.0249996185111
 20
173.6826264908016
 30
0.0
 11
-215.0249996185111
 21
174.3453244393076
 31
0.0
  0
LINE
  5
218
330
63
100
AcDbEntity
  8
0
  6
Continuous
 62
     7
100
AcDbLine
 10
-215.0249996185111
 20
174.3453244393076
 30
0.0
 11
-196.9749996185112
 21
174.3453244393076
 31
0.0
  0
LINE
  5
219
330
63
100
AcDbEntity
  8
0
  6
Continuous
 62
     7
100
AcDbLine
 10
-196.9749996185112
 20
173.0711799603292
 30
0.0
 11
-196.9749996185112
 21
173.6826264908016
 31
0.0
  0
LINE
  5
21A
330
63
100
AcDbEntity
  8
0
  6
Continuous
 62
     7
100
AcDbLine
 10
-204.274999618511
 20
143.8701087629549
 30
0.0
 11
-204.274999618511
 21
155.0701087629549
 31
0.0
  0
LINE
  5
21B
330
63
100
AcDbEntity
  8
0
  6
Continuous
 62
     7
100
AcDbLine
 10
-204.274999618511
 20
143.8701087629549
 30
0.0
 11
-198.5749996185109
 21
143.8701087629549
 31
0.0
  0
LINE
  5
21C
330
63
100
AcDbEntity
  8
0
  6
Continuous
 62
     7
100
AcDbLine
 10
-198.5749996185108
 20
159.6201087629551
 30
0.0
 11
-198.5749996185109
 21
155.0701087629549
 31
0.0
  0
LINE
  5
21D
330
63
100
AcDbEntity
  8
0
  6
Continuous
 62
     7
100
AcDbLine
 10
-209.274999618511
 20
155.0701087629549
 30
0.0
 11
-204.274999618511
 21
155.0701087629549
 31
0.0
  0
LINE
  5
21E
330
63
100
AcDbEntity
  8
0
  6
Continuous
 62
     7
100
AcDbLine
 10
-209.274999618511
 20
143.8701087629549
 30
0.0
 11
-204.274999618511
 21
143.8701087629549
 31
0.0
  0
LINE
  5
21F
330
63
100
AcDbEntity
  8
0
  6
Continuous
 62
     7
100
AcDbLine
 10
-198.5749996185109
 20
155.0701087629549
 30
0.0
 11
-198.5749996185109
 21
143.8701087629549
 31
0.0
  0
LINE
  5
220
330
63
100
AcDbEntity
  8
0
  6
Continuous
 62
     7
100
AcDbLine
 10
-196.9749996185112
 20
178.3151087629549
 30
0.0
 11
-215.0249996185111
 21
178.315108762955
 31
0.0
  0
LINE
  5
221
330
63
100
AcDbEntity
  8
0
  6
Continuous
 62
     7
100
AcDbLine
 10
-215.0249996185111
 20
176.6308343353052
 30
0.0
 11
-196.9749996185112
 21
176.6308343353051
 31
0.0
  0
LINE
  5
222
330
63
100
AcDbEntity
  8
0
  6
Continuous
 62
     7
100
AcDbLine
 10
-215.0249996185111
 20
178.315108762955
 30
0.0
 11
-215.0249996185111
 21
180.3701087629549
 31
0.0
  0
LINE
  5
223
330
63
100
AcDbEntity
  8
0
  6
Continuous
 62
     7
100
AcDbLine
 10
-215.0249996185111
 20
180.3701087629549
 30
0.0
 11
-196.9749996185112
 21
180.3701087629549
 31
0.0
  0
LINE
  5
224
330
63
100
AcDbEntity
  8
0
  6
Continuous
 62
     7
100
AcDbLine
 10
-215.0249996185111
 20
174.3453244393076
 30
0.0
 11
-215.0249996185111
 21
176.6308343353052
 31
0.0
  0
LINE
  5
225
330
63
100
AcDbEntity
  8
0
  6
Continuous
 62
     7
100
AcDbLine
 10
-204.274999618511
 20
155.0701087629549
 30
0.0
 11
-198.5749996185109
 21
155.0701087629549
 31
0.0
  0
LINE
  5
226
330
63
100
AcDbEntity
  8
0
  6
Continuous
 62
     7
100
AcDbLine
 10
-215.0249996185111
 20
155.0701087629549
 30
0.0
 11
-209.274999618511
 21
155.0701087629549
 31
0.0
  0
LINE
  5
227
330
63
100
AcDbEntity
  8
0
  6
Continuous
 62
     7
100
AcDbLine
 10
-215.0249996185111
 20
159.620108762955
 30
0.0
 11
-198.5749996185108
 21
159.6201087629551
 31
0.0
  0
LINE
  5
228
330
63
100
AcDbEntity
  8
0
  6
Continuous
 62
     7
100
AcDbLine
 10
-196.9749996185112
 20
178.3151087629549
 30
0.0
 11
-196.9749996185112
 21
176.6308343353051
 31
0.0
  0
LINE
  5
229
330
63
100
AcDbEntity
  8
0
  6
Continuous
 62
     7
100
AcDbLine
 10
-196.9749996185112
 20
178.3151087629549
 30
0.0
 11
-196.9749996185112
 21
180.3701087629549
 31
0.0
  0
LINE
  5
22A
330
63
100
AcDbEntity
  8
0
  6
Continuous
 62
     7
100
AcDbLine
 10
-196.9749996185111
 20
120.7094764521505
 30
0.0
 11
-196.9749996185111
 21
129.1577088517521
 31
0.0
  0
LINE
  5
22B
330
63
100
AcDbEntity
  8
0
  6
Continuous
 62
     7
100
AcDbLine
 10
-196.9749996185111
 20
129.1577088517521
 30
0.0
 11
-196.9749996185112
 21
171.3869055326795
 31
0.0
  0
LINE
  5
22C
330
63
100
AcDbEntity
  8
0
  6
Continuous
 62
     7
100
AcDbLine
 10
-196.9749996185112
 20
171.3869055326795
 30
0.0
 11
-196.9749996185112
 21
173.0711799603292
 31
0.0
  0
LINE
  5
22D
330
63
100
AcDbEntity
  8
0
  6
Continuous
 62
     7
100
AcDbLine
 10
-196.9749996185112
 20
173.6826264908016
 30
0.0
 11
-196.9749996185112
 21
174.3453244393076
 31
0.0
  0
LINE
  5
22E
330
63
100
AcDbEntity
  8
0
  6
Continuous
 62
     7
100
AcDbLine
 10
-196.9749996185112
 20
174.3453244393076
 30
0.0
 11
-196.9749996185112
 21
176.6308343353051
 31
0.0
  0
LINE
  5
22F
330
63
100
AcDbEntity
  8
0
  6
Continuous
 62
     7
100
AcDbLine
 10
-215.0249996185111
 20
178.315108762955
 30
0.0
 11
-215.0249996185111
 21
176.6308343353052
 31
0.0
  0
LINE
  5
230
330
63
100
AcDbEntity
  8
0
  6
Continuous
 62
     7
100
AcDbLine
 10
-215.0249996185111
 20
120.7094764521505
 30
0.0
 11
-215.0249996185111
 21
129.1577088517521
 31
0.0
  0
LINE
  5
231
330
63
100
AcDbEntity
  8
0
  6
Continuous
 62
     7
100
AcDbLine
 10
-215.0249996185111
 20
173.0711799603293
 30
0.0
 11
-215.0249996185111
 21
171.3869055326796
 31
0.0
  0
LINE
  5
232
330
63
100
AcDbEntity
  8
0
  6
Continuous
 62
     7
100
AcDbLine
 10
-215.0249996185111
 20
173.0711799603293
 30
0.0
 11
-215.0249996185111
 21
173.6826264908016
 31
0.0
  0
ENDBLK
  5
65
330
63
100
AcDbEntity
  8
0
100
AcDbBlockEnd
  0
BLOCK
  5
68
330
66
100
AcDbEntity
  8
0
100
AcDbBlockBegin
  2
SA_Rechts1
 70
     0
 10
-205.999999999991
 20
148.8201080000099
 30
0.0
  3
SA_Rechts1
  1

  0
INSERT
  5
67
330
66
100
AcDbEntity
  8
0
100
AcDbBlockReference
  2
OTTA_25-M5-select__5
 10
-215.0249996185111
 20
117.2701087629547
 30
0.0
  0
MTEXT
  5
233
330
66
100
AcDbEntity
  8
1
 62
     6
100
AcDbMText
 10
-205.99999999999
 20
112.2701087629494
 30
0.0
 40
5.0
 41
0.0
 71
     2
 72
     1
  1
 
  7
CONVERTER_11
 73
     1
 44
1.32052821128451
  0
ENDBLK
  5
69
330
66
100
AcDbEntity
  8
0
100
AcDbBlockEnd
  0
BLOCK
  5
6B
330
6A
100
AcDbEntity
  8
0
100
AcDbBlockBegin
  2
OTTA_25-M5-select__6
 70
     0
 10
-159.0000000000006
 20
117.2701087629545
 30
0.0
  3
OTTA_25-M5-select__6
  1

  0
LINE
  5
234
330
6A
100
AcDbEntity
  8
1
  6
DOT_CENTER
 62
     2
100
AcDbLine
 10
-140.7500000000004
 20
143.8701087629547
 30
0.0
 11
-140.7500000000004
 21
155.0701087629547
 31
0.0
  0
LINE
  5
235
330
6A
100
AcDbEntity
  8
1
  6
DOT_CENTER
 62
     2
100
AcDbLine
 10
-117.2500000000004
 20
143.8701087629549
 30
0.0
 11
-117.2500000000004
 21
155.0701087629549
 31
0.0
  0
LINE
  5
236
330
6A
100
AcDbEntity
  8
0
  6
Continuous
 62
     7
100
AcDbLine
 10
-109.0682113132961
 20
120.7094764521505
 30
0.0
 11
-99.00000000000026
 21
129.1577088517521
 31
0.0
  0
LINE
  5
237
330
6A
100
AcDbEntity
  8
0
  6
Continuous
 62
     7
100
AcDbLine
 10
-114.7500000000004
 20
143.8701087629549
 30
0.0
 11
-114.7500000000005
 21
155.0701087629549
 31
0.0
  0
LINE
  5
238
330
6A
100
AcDbEntity
  8
0
  6
Continuous
 62
     7
100
AcDbLine
 10
-112.1000000000002
 20
121.5093392474963
 30
0.0
 11
-111.4999999999999
 21
120.9093392474963
 31
0.0
  0
LINE
  5
239
330
6A
100
AcDbEntity
  8
0
  6
Continuous
 62
     7
100
AcDbLine
 10
-117.5000000000002
 20
118.5401087629549
 30
0.0
 11
-117.5000000000002
 21
120.1701087629549
 31
0.0
  0
LINE
  5
23A
330
6A
100
AcDbEntity
  8
0
  6
Continuous
 62
     7
100
AcDbLine
 10
-111.0000000000007
 20
178.315108762955
 30
0.0
 11
-111.0000000000007
 21
180.3701087629549
 31
0.0
  0
LINE
  5
23B
330
6A
100
AcDbEntity
  8
0
  6
Continuous
 62
     7
100
AcDbLine
 10
-112.5250000000006
 20
155.0701087629549
 30
0.0
 11
-114.7500000000005
 21
155.0701087629549
 31
0.0
  0
LINE
  5
23C
330
6A
100
AcDbEntity
  8
0
  6
Continuous
 62
     7
100
AcDbLine
 10
-106.5000000000006
 20
159.620108762955
 30
0.0
 11
-112.5250000000006
 21
155.0701087629549
 31
0.0
  0
LINE
  5
23D
330
6A
100
AcDbEntity
  8
0
  6
Continuous
 62
     7
100
AcDbLine
 10
-111.2500000000005
 20
143.8701087629549
 30
0.0
 11
-111.2500000000004
 21
133.270108762955
 31
0.0
  0
LINE
  5
23E
330
6A
100
AcDbEntity
  8
0
  6
Continuous
 62
     7
100
AcDbLine
 10
-116.5299622774779
 20
126.1251591212692
 30
0.0
 11
-115.6000000000002
 21
123.5701087629549
 31
0.0
  0
LINE
  5
23F
330
6A
100
AcDbEntity
  8
0
  6
Continuous
 62
     7
100
AcDbLine
 10
-116.4000000000002
 20
120.1701087629549
 30
0.0
 11
-116.4000000000002
 21
120.6701087629549
 31
0.0
  0
LINE
  5
240
330
6A
100
AcDbEntity
  8
0
  6
Continuous
 62
     7
100
AcDbLine
 10
-135.4529304292411
 20
123.4014109841739
 30
0.0
 11
-134.9351540193868
 21
119.0701087629547
 31
0.0
  0
LINE
  5
241
330
6A
100
AcDbEntity
  8
0
  6
Continuous
 62
     7
100
AcDbLine
 10
-149.917248882579
 20
176.6308343353048
 30
0.0
 11
-147.0000000000007
 21
178.3151087629546
 31
0.0
  0
LINE
  5
242
330
6A
100
AcDbEntity
  8
0
  6
Continuous
 62
     7
100
AcDbLine
 10
-128.2650000000004
 20
143.8701087629548
 30
0.0
 11
-128.2650000000004
 21
155.0701087629548
 31
0.0
  0
LINE
  5
243
330
6A
100
AcDbEntity
  8
0
  6
Continuous
 62
     7
100
AcDbLine
 10
-118.7781690565907
 20
125.770108762955
 30
0.0
 11
-118.778251440452
 21
127.7680700585129
 31
0.0
  0
LINE
  5
244
330
6A
100
AcDbEntity
  8
0
  6
Continuous
 62
     7
100
AcDbLine
 10
-119.6800000000002
 20
122.09069830963
 30
0.0
 11
-118.8300000000002
 21
117.2701087629549
 31
0.0
  0
LINE
  5
245
330
6A
100
AcDbEntity
  8
0
  6
Continuous
 62
     7
100
AcDbLine
 10
-128.2650000000004
 20
143.8701087629548
 30
0.0
 11
-119.7500000000004
 21
143.8701087629549
 31
0.0
  0
LINE
  5
246
330
6A
100
AcDbEntity
  8
0
  6
Continuous
 62
     7
100
AcDbLine
 10
-149.6658681436476
 20
174.3453244393076
 30
0.0
 11
-149.2086946605323
 21
174.6092736728506
 31
0.0
  0
LINE
  5
247
330
6A
100
AcDbEntity
  8
0
  6
Continuous
 62
     7
100
AcDbLine
 10
-149.2086946605323
 20
174.6092736728506
 30
0.0
 11
-148.6736946605323
 21
173.6826264908013
 31
0.0
  0
LINE
  5
248
330
6A
100
AcDbEntity
  8
0
  6
Continuous
 62
     7
100
AcDbLine
 10
-131.8800000000002
 20
119.0701087629548
 30
0.0
 11
-131.8800000000003
 21
127.7701087629548
 31
0.0
  0
LINE
  5
249
330
6A
100
AcDbEntity
  8
0
  6
Continuous
 62
     7
100
AcDbLine
 10
-129.7350000000004
 20
143.8701087629548
 30
0.0
 11
-129.7350000000004
 21
155.0701087629548
 31
0.0
  0
LINE
  5
24A
330
6A
100
AcDbEntity
  8
0
  6
Continuous
 62
     7
100
AcDbLine
 10
-131.8800000000003
 20
127.7701087629548
 30
0.0
 11
-129.8800000000003
 21
127.7701087629548
 31
0.0
  0
LINE
  5
24B
330
6A
100
AcDbEntity
  8
0
  6
Continuous
 62
     7
100
AcDbLine
 10
-134.9351540193868
 20
119.0701087629547
 30
0.0
 11
-131.8800000000002
 21
119.0701087629548
 31
0.0
  0
LINE
  5
24C
330
6A
100
AcDbEntity
  8
0
  6
Continuous
 62
     7
100
AcDbLine
 10
-141.6800000000002
 20
126.1701087629547
 30
0.0
 11
-137.3300000000002
 21
126.1701087629547
 31
0.0
  0
LINE
  5
24D
330
6A
100
AcDbEntity
  8
0
  6
Continuous
 62
     7
100
AcDbLine
 10
-146.7215923768502
 20
123.5701087629547
 30
0.0
 11
-145.5800000000001
 21
123.7714022999644
 31
0.0
  0
LINE
  5
24E
330
6A
100
AcDbEntity
  8
0
  6
Continuous
 62
     7
100
AcDbLine
 10
-146.51
 20
122.3701087629546
 30
0.0
 11
-146.7215923768502
 21
123.5701087629547
 31
0.0
  0
LINE
  5
24F
330
6A
100
AcDbEntity
  8
0
  6
Continuous
 62
     7
100
AcDbLine
 10
-143.2500000000004
 20
143.8701087629547
 30
0.0
 11
-143.2500000000005
 21
155.0701087629547
 31
0.0
  0
LINE
  5
250
330
6A
100
AcDbEntity
  8
0
  6
Continuous
 62
     7
100
AcDbLine
 10
-146.5100000000002
 20
126.1309160139938
 30
0.0
 11
-146.5100000000003
 21
127.2701087629546
 31
0.0
  0
LINE
  5
251
330
6A
100
AcDbEntity
  8
0
  6
Continuous
 62
     7
100
AcDbLine
 10
-146.7500000000003
 20
133.2701087629546
 30
0.0
 11
-146.7500000000004
 21
143.8701087629546
 31
0.0
  0
LINE
  5
252
330
6A
100
AcDbEntity
  8
0
  6
Continuous
 62
     7
100
AcDbLine
 10
-145.5800000000002
 20
124.5201087629547
 30
0.0
 11
-146.5100000000002
 21
126.1309160139938
 31
0.0
  0
LINE
  5
253
330
6A
100
AcDbEntity
  8
0
  6
Continuous
 62
     7
100
AcDbLine
 10
-145.4800000000001
 20
122.1701087629547
 30
0.0
 11
-146.51
 21
122.3701087629546
 31
0.0
  0
LINE
  5
254
330
6A
100
AcDbEntity
  8
0
  6
Continuous
 62
     7
100
AcDbLine
 10
-136.4062395692968
 20
127.7701087629547
 30
0.0
 11
-134.4600000000004
 21
127.7701087629548
 31
0.0
  0
LINE
  5
255
330
6A
100
AcDbEntity
  8
0
  6
Continuous
 62
     7
100
AcDbLine
 10
-137.3300000000002
 20
126.1701087629547
 30
0.0
 11
-136.4062395692968
 21
127.7701087629547
 31
0.0
  0
LINE
  5
256
330
6A
100
AcDbEntity
  8
0
  6
Continuous
 62
     7
100
AcDbLine
 10
-142.3150852961088
 20
127.2701087629547
 30
0.0
 11
-141.6800000000002
 21
126.1701087629547
 31
0.0
  0
LINE
  5
257
330
6A
100
AcDbEntity
  8
0
  6
Continuous
 62
     7
100
AcDbLine
 10
-145.5100000000003
 20
127.2701087629547
 30
0.0
 11
-142.3150852961088
 21
127.2701087629547
 31
0.0
  0
LINE
  5
258
330
6A
100
AcDbEntity
  8
0
  6
Continuous
 62
     7
100
AcDbLine
 10
-145.5800000000001
 20
123.7714022999644
 30
0.0
 11
-145.5800000000002
 21
124.5201087629547
 31
0.0
  0
LINE
  5
259
330
6A
100
AcDbEntity
  8
0
  6
Continuous
 62
     7
100
AcDbLine
 10
-145.4800000000002
 20
121.9201087629547
 30
0.0
 11
-145.4800000000001
 21
122.1701087629547
 31
0.0
  0
LINE
  5
25A
330
6A
100
AcDbEntity
  8
0
  6
Continuous
 62
     7
100
AcDbLine
 10
-134.4600000000004
 20
127.7701087629548
 30
0.0
 11
-134.4600000000003
 21
124.5201087629547
 31
0.0
  0
LINE
  5
25B
330
6A
100
AcDbEntity
  8
0
  6
Continuous
 62
     7
100
AcDbLine
 10
-129.7350000000004
 20
155.0701087629548
 30
0.0
 11
-138.2500000000005
 21
155.0701087629547
 31
0.0
  0
LINE
  5
25C
330
6A
100
AcDbEntity
  8
0
  6
Continuous
 62
     7
100
AcDbLine
 10
-138.2500000000005
 20
155.0701087629547
 30
0.0
 11
-143.2500000000005
 21
155.0701087629547
 31
0.0
  0
LINE
  5
25D
330
6A
100
AcDbEntity
  8
0
  6
Continuous
 62
     7
100
AcDbLine
 10
-143.2500000000005
 20
155.0701087629547
 30
0.0
 11
-145.4750000000005
 21
155.0701087629547
 31
0.0
  0
LINE
  5
25E
330
6A
100
AcDbEntity
  8
0
  6
Continuous
 62
     7
100
AcDbLine
 10
-119.7500000000004
 20
143.8701087629549
 30
0.0
 11
-119.7500000000005
 21
155.0701087629549
 31
0.0
  0
LINE
  5
25F
330
6A
100
AcDbEntity
  8
0
  6
Continuous
 62
     7
100
AcDbLine
 10
-138.2500000000004
 20
143.8701087629547
 30
0.0
 11
-138.2500000000005
 21
155.0701087629547
 31
0.0
  0
LINE
  5
260
330
6A
100
AcDbEntity
  8
0
  6
Continuous
 62
     7
100
AcDbLine
 10
-138.2500000000004
 20
143.8701087629547
 30
0.0
 11
-129.7350000000004
 21
143.8701087629548
 31
0.0
  0
LINE
  5
261
330
6A
100
AcDbEntity
  8
0
  6
Continuous
 62
     7
100
AcDbLine
 10
-146.7500000000004
 20
143.8701087629546
 30
0.0
 11
-143.2500000000004
 21
143.8701087629547
 31
0.0
  0
LINE
  5
262
330
6A
100
AcDbEntity
  8
0
  6
Continuous
 62
     7
100
AcDbLine
 10
-143.2500000000004
 20
143.8701087629547
 30
0.0
 11
-138.2500000000004
 21
143.8701087629547
 31
0.0
  0
LINE
  5
263
330
6A
100
AcDbEntity
  8
0
  6
Continuous
 62
     7
100
AcDbLine
 10
-149.917248882579
 20
176.6308343353048
 30
0.0
 11
-149.6658681436476
 21
174.3453244393076
 31
0.0
  0
LINE
  5
264
330
6A
100
AcDbEntity
  8
0
  6
Continuous
 62
     7
100
AcDbLine
 10
-145.4750000000005
 20
155.0701087629547
 30
0.0
 11
-151.5000000000006
 21
159.6201087629546
 31
0.0
  0
LINE
  5
265
330
6A
100
AcDbEntity
  8
0
  6
Continuous
 62
     7
100
AcDbLine
 10
-154.6863053394689
 20
171.4467736728506
 30
0.0
 11
-154.2291318563536
 21
171.7107229063936
 31
0.0
  0
LINE
  5
266
330
6A
100
AcDbEntity
  8
0
  6
Continuous
 62
     7
100
AcDbLine
 10
-154.1513053394689
 20
170.5201264908012
 30
0.0
 11
-154.6863053394689
 21
171.4467736728506
 31
0.0
  0
LINE
  5
267
330
6A
100
AcDbEntity
  8
0
  6
Continuous
 62
     7
100
AcDbLine
 10
-118.8300000000002
 20
117.2701087629549
 30
0.0
 11
-116.0800000000002
 21
117.2701087629549
 31
0.0
  0
LINE
  5
268
330
6A
100
AcDbEntity
  8
0
  6
Continuous
 62
     7
100
AcDbLine
 10
-154.2291318563536
 20
171.7107229063936
 30
0.0
 11
-156.0827511174223
 21
173.0711799603288
 31
0.0
  0
LINE
  5
269
330
6A
100
AcDbEntity
  8
0
  6
Continuous
 62
     7
100
AcDbLine
 10
-159.0000000000003
 20
129.9155856984911
 30
0.0
 11
-156.4876260574217
 21
122.9494445552188
 31
0.0
  0
LINE
  5
26A
330
6A
100
AcDbEntity
  8
0
  6
Continuous
 62
     7
100
AcDbLine
 10
-116.4000000000002
 20
120.6701087629549
 30
0.0
 11
-118.7781690565907
 21
125.770108762955
 31
0.0
  0
LINE
  5
26B
330
6A
100
AcDbEntity
  8
0
  6
Continuous
 62
     7
100
AcDbLine
 10
-111.5000000000001
 20
122.370108762955
 30
0.0
 11
-112.1000000000002
 21
122.2093392474963
 31
0.0
  0
LINE
  5
26C
330
6A
100
AcDbEntity
  8
0
  6
Continuous
 62
     7
100
AcDbLine
 10
-111.5000000000002
 20
123.5701087629549
 30
0.0
 11
-111.5000000000001
 21
122.370108762955
 31
0.0
  0
LINE
  5
26D
330
6A
100
AcDbEntity
  8
0
  6
Continuous
 62
     7
100
AcDbLine
 10
-120.582431603539
 20
124.5701087629548
 30
0.0
 11
-119.6800000000002
 21
122.09069830963
 31
0.0
  0
LINE
  5
26E
330
6A
100
AcDbEntity
  8
0
  6
Continuous
 62
     7
100
AcDbLine
 10
-117.5000000000002
 20
120.1701087629549
 30
0.0
 11
-116.4000000000002
 21
120.1701087629549
 31
0.0
  0
LINE
  5
26F
330
6A
100
AcDbEntity
  8
0
  6
Continuous
 62
     7
100
AcDbLine
 10
-158.3000000000002
 20
121.2701087629546
 30
0.0
 11
-158.5000000000001
 21
121.2701087629545
 31
0.0
  0
LINE
  5
270
330
6A
100
AcDbEntity
  8
0
  6
Continuous
 62
     7
100
AcDbLine
 10
-156.4876260574217
 20
122.9494445552188
 30
0.0
 11
-154.8000000000005
 21
118.2701087629546
 31
0.0
  0
LINE
  5
271
330
6A
100
AcDbEntity
  8
0
  6
Continuous
 62
     7
100
AcDbLine
 10
-158.6294095225514
 20
121.2530716760991
 30
0.0
 11
-157.1694978868887
 21
121.6442538198957
 31
0.0
  0
LINE
  5
272
330
6A
100
AcDbEntity
  8
0
  6
Continuous
 62
     7
100
AcDbLine
 10
-111.0000000000007
 20
178.315108762955
 30
0.0
 11
-108.0827511174223
 21
176.6308343353052
 31
0.0
  0
LINE
  5
273
330
6A
100
AcDbEntity
  8
0
  6
Continuous
 62
     7
100
AcDbLine
 10
-108.3341318563536
 20
174.345324439308
 30
0.0
 11
-108.0827511174223
 21
176.6308343353052
 31
0.0
  0
LINE
  5
274
330
6A
100
AcDbEntity
  8
0
  6
Continuous
 62
     7
100
AcDbLine
 10
-108.7913053394689
 20
174.609273672851
 30
0.0
 11
-108.3341318563536
 21
174.345324439308
 31
0.0
  0
LINE
  5
275
330
6A
100
AcDbEntity
  8
0
  6
Continuous
 62
     7
100
AcDbLine
 10
-109.3263053394689
 20
173.6826264908016
 30
0.0
 11
-108.7913053394689
 21
174.609273672851
 31
0.0
  0
LINE
  5
276
330
6A
100
AcDbEntity
  8
0
  6
Continuous
 62
     7
100
AcDbLine
 10
-112.1000000000002
 20
122.2093392474963
 30
0.0
 11
-112.1000000000002
 21
121.5093392474963
 31
0.0
  0
LINE
  5
277
330
6A
100
AcDbEntity
  8
0
  6
Continuous
 62
     7
100
AcDbLine
 10
-116.0800000000002
 20
117.2701087629549
 30
0.0
 11
-116.0800000000002
 21
118.5401087629549
 31
0.0
  0
LINE
  5
278
330
6A
100
AcDbEntity
  8
0
  6
Continuous
 62
     7
100
AcDbLine
 10
-103.8486946605324
 20
170.5201264908017
 30
0.0
 11
-109.3263053394689
 21
173.6826264908016
 31
0.0
  0
LINE
  5
279
330
6A
100
AcDbEntity
  8
0
  6
Continuous
 62
     7
100
AcDbLine
 10
-101.917248882579
 20
173.0711799603293
 30
0.0
 11
-103.7708681436476
 21
171.7107229063939
 31
0.0
  0
LINE
  5
27A
330
6A
100
AcDbEntity
  8
0
  6
Continuous
 62
     7
100
AcDbLine
 10
-101.917248882579
 20
173.0711799603293
 30
0.0
 11
-99.00000000000063
 21
171.3869055326796
 31
0.0
  0
LINE
  5
27B
330
6A
100
AcDbEntity
  8
0
  6
Continuous
 62
     7
100
AcDbLine
 10
-99.00000000000053
 20
159.6201087629551
 30
0.0
 11
-99.00000000000028
 21
133.2701087629551
 31
0.0
  0
LINE
  5
27C
330
6A
100
AcDbEntity
  8
0
  6
Continuous
 62
     7
100
AcDbLine
 10
-99.00000000000053
 20
159.6201087629551
 30
0.0
 11
-106.5000000000006
 21
159.620108762955
 31
0.0
  0
LINE
  5
27D
330
6A
100
AcDbEntity
  8
0
  6
Continuous
 62
     7
100
AcDbLine
 10
-111.2500000000004
 20
133.270108762955
 30
0.0
 11
-99.00000000000028
 21
133.2701087629551
 31
0.0
  0
LINE
  5
27E
330
6A
100
AcDbEntity
  8
0
  6
Continuous
 62
     7
100
AcDbLine
 10
-99.00000000000026
 20
129.1577088517521
 30
0.0
 11
-99.00000000000028
 21
133.2701087629551
 31
0.0
  0
LINE
  5
27F
330
6A
100
AcDbEntity
  8
0
  6
Continuous
 62
     7
100
AcDbLine
 10
-99.00000000000053
 20
159.6201087629551
 30
0.0
 11
-99.00000000000063
 21
171.3869055326796
 31
0.0
  0
LINE
  5
280
330
6A
100
AcDbEntity
  8
0
  6
Continuous
 62
     7
100
AcDbLine
 10
-103.7708681436476
 20
171.7107229063939
 30
0.0
 11
-103.3136946605323
 21
171.446773672851
 31
0.0
  0
LINE
  5
281
330
6A
100
AcDbEntity
  8
0
  6
Continuous
 62
     7
100
AcDbLine
 10
-103.3136946605323
 20
171.446773672851
 30
0.0
 11
-103.8486946605324
 21
170.5201264908017
 31
0.0
  0
LINE
  5
282
330
6A
100
AcDbEntity
  8
0
  6
Continuous
 62
     7
100
AcDbLine
 10
-111.0000000000007
 20
180.3701087629549
 30
0.0
 11
-147.0000000000007
 21
180.3701087629546
 31
0.0
  0
LINE
  5
283
330
6A
100
AcDbEntity
  8
0
  6
Continuous
 62
     7
100
AcDbLine
 10
-119.7500000000005
 20
155.0701087629549
 30
0.0
 11
-128.2650000000004
 21
155.0701087629548
 31
0.0
  0
LINE
  5
284
330
6A
100
AcDbEntity
  8
0
  6
Continuous
 62
     7
100
AcDbLine
 10
-119.7500000000004
 20
143.8701087629549
 30
0.0
 11
-114.7500000000004
 21
143.8701087629549
 31
0.0
  0
LINE
  5
285
330
6A
100
AcDbEntity
  8
0
  6
Continuous
 62
     7
100
AcDbLine
 10
-129.8800000000003
 20
127.7701087629548
 30
0.0
 11
-129.8800000000002
 21
124.5701087629548
 31
0.0
  0
LINE
  5
286
330
6A
100
AcDbEntity
  8
0
  6
Continuous
 62
     7
100
AcDbLine
 10
-114.7500000000004
 20
143.8701087629549
 30
0.0
 11
-111.2500000000005
 21
143.8701087629549
 31
0.0
  0
LINE
  5
287
330
6A
100
AcDbEntity
  8
0
  6
Continuous
 62
     7
100
AcDbLine
 10
-114.7500000000005
 20
155.0701087629549
 30
0.0
 11
-119.7500000000005
 21
155.0701087629549
 31
0.0
  0
LINE
  5
288
330
6A
100
AcDbEntity
  8
0
  6
Continuous
 62
     7
100
AcDbLine
 10
-147.0000000000007
 20
180.3701087629546
 30
0.0
 11
-147.0000000000007
 21
178.3151087629546
 31
0.0
  0
LINE
  5
289
330
6A
100
AcDbEntity
  8
0
  6
Continuous
 62
     7
100
AcDbLine
 10
-159.0000000000006
 20
171.386905532679
 30
0.0
 11
-156.0827511174223
 21
173.0711799603288
 31
0.0
  0
LINE
  5
28A
330
6A
100
AcDbEntity
  8
0
  6
Continuous
 62
     7
100
AcDbLine
 10
-148.6736946605323
 20
173.6826264908013
 30
0.0
 11
-154.1513053394689
 21
170.5201264908012
 31
0.0
  0
LINE
  5
28B
330
6A
100
AcDbEntity
  8
0
  6
Continuous
 62
     7
100
AcDbLine
 10
-115.6000000000002
 20
123.5701087629549
 30
0.0
 11
-111.5000000000002
 21
123.5701087629549
 31
0.0
  0
LINE
  5
28C
330
6A
100
AcDbEntity
  8
0
  6
Continuous
 62
     7
100
AcDbLine
 10
-129.8800000000002
 20
124.5701087629548
 30
0.0
 11
-120.582431603539
 21
124.5701087629548
 31
0.0
  0
LINE
  5
28D
330
6A
100
AcDbEntity
  8
0
  6
Continuous
 62
     7
100
AcDbLine
 10
-159.0000000000006
 20
171.386905532679
 30
0.0
 11
-159.0000000000005
 21
159.6201087629545
 31
0.0
  0
LINE
  5
28E
330
6A
100
AcDbEntity
  8
0
  6
Continuous
 62
     7
100
AcDbLine
 10
-151.5000000000006
 20
159.6201087629546
 30
0.0
 11
-159.0000000000005
 21
159.6201087629545
 31
0.0
  0
LINE
  5
28F
330
6A
100
AcDbEntity
  8
0
  6
Continuous
 62
     7
100
AcDbLine
 10
-159.0000000000003
 20
133.2701087629545
 30
0.0
 11
-146.7500000000003
 21
133.2701087629546
 31
0.0
  0
LINE
  5
290
330
6A
100
AcDbEntity
  8
0
  6
Continuous
 62
     7
100
AcDbLine
 10
-159.0000000000003
 20
133.2701087629545
 30
0.0
 11
-159.0000000000005
 21
159.6201087629545
 31
0.0
  0
LINE
  5
291
330
6A
100
AcDbEntity
  8
0
  6
Continuous
 62
     7
100
AcDbLine
 10
-159.0000000000003
 20
133.2701087629545
 30
0.0
 11
-159.0000000000003
 21
129.9155856984911
 31
0.0
  0
LINE
  5
292
330
6A
100
AcDbEntity
  8
0
  6
Continuous
 62
     7
100
AcDbLine
 10
-146.6800000000001
 20
117.2701087629547
 30
0.0
 11
-145.4800000000002
 21
121.9201087629547
 31
0.0
  0
LINE
  5
293
330
6A
100
AcDbEntity
  8
0
  6
Continuous
 62
     7
100
AcDbLine
 10
-159.0000000000001
 20
117.2701087629545
 30
0.0
 11
-146.6800000000001
 21
117.2701087629547
 31
0.0
  0
LINE
  5
294
330
6A
100
AcDbEntity
  8
0
  6
Continuous
 62
     7
100
AcDbLine
 10
-159.0000000000002
 20
120.7701087629545
 30
0.0
 11
-159.0000000000001
 21
117.2701087629545
 31
0.0
  0
LINE
  5
295
330
6A
100
AcDbEntity
  8
0
  6
Continuous
 62
     7
100
AcDbLine
 10
-157.8000000000001
 20
118.2701087629546
 30
0.0
 11
-157.8000000000002
 21
120.7701087629546
 31
0.0
  0
LINE
  5
296
330
6A
100
AcDbEntity
  8
0
  6
Continuous
 62
     7
100
AcDbLine
 10
-154.8000000000005
 20
118.2701087629546
 30
0.0
 11
-157.8000000000001
 21
118.2701087629546
 31
0.0
  0
LINE
  5
297
330
6A
100
AcDbEntity
  8
0
  6
Continuous
 62
     7
100
AcDbLine
 10
-111.4999999999999
 20
120.9093392474963
 30
0.0
 11
-109.0682113132961
 21
120.7094764521505
 31
0.0
  0
LINE
  5
298
330
6A
100
AcDbEntity
  8
0
  6
Continuous
 62
     7
100
AcDbLine
 10
-116.0800000000002
 20
118.5401087629549
 30
0.0
 11
-117.5000000000002
 21
118.5401087629549
 31
0.0
  0
ARC
  5
299
330
6A
100
AcDbEntity
  8
0
  6
Continuous
 62
     7
100
AcDbCircle
 10
-146.0100000000003
 20
127.2701087629547
 30
0.0
 40
0.5
100
AcDbArc
 50
0.0
 51
180.0000000000114
  0
ARC
  5
29A
330
6A
100
AcDbEntity
  8
0
  6
Continuous
 62
     7
100
AcDbCircle
 10
-134.4600000000002
 20
123.5201087629548
 30
0.0
 40
0.9999999999999005
100
AcDbArc
 50
90.00000000000487
 51
186.8169536577625
  0
ARC
  5
29B
330
6A
100
AcDbEntity
  8
0
  6
Continuous
 62
     7
100
AcDbCircle
 10
-118.8791938294426
 20
125.2701087629549
 30
0.0
 40
2.49999999999997
100
AcDbArc
 50
20.0000000000034
 51
87.68594179644606
  0
ARC
  5
29C
330
6A
100
AcDbEntity
  8
0
  6
Continuous
 62
     7
100
AcDbCircle
 10
-158.3000000000002
 20
120.7701087629546
 30
0.0
 40
0.5
100
AcDbArc
 50
0.0
 51
90.0
  0
ARC
  5
29D
330
6A
100
AcDbEntity
  8
0
  6
Continuous
 62
     7
100
AcDbCircle
 10
-158.5000000000002
 20
120.7701087629545
 30
0.0
 40
0.5000000000000554
100
AcDbArc
 50
104.9999999999928
 51
180.0
  0
ARC
  5
29E
330
6A
100
AcDbEntity
  8
0
  6
Continuous
 62
     7
100
AcDbCircle
 10
-158.5000000000002
 20
120.7701087629545
 30
0.0
 40
0.5
100
AcDbArc
 50
89.99999999999022
 51
104.9999999999928
  0
ARC
  5
29F
330
6A
100
AcDbEntity
  8
0
  6
Continuous
 62
     7
100
AcDbCircle
 10
-157.4283169319911
 20
122.6101796461848
 30
0.0
 40
1.000000000000007
100
AcDbArc
 50
284.9999999999927
 51
19.83209469355896
  0
ENDBLK
  5
6C
330
6A
100
AcDbEntity
  8
0
100
AcDbBlockEnd
  0
BLOCK
  5
6F
330
6D
100
AcDbEntity
  8
0
100
AcDbBlockBegin
  2
Vordans1
 70
     0
 10
-129.0
 20
148.8201080000099
 30
0.0
  3
Vordans1
  1

  0
INSERT
  5
6E
330
6D
100
AcDbEntity
  8
0
100
AcDbBlockReference
  2
OTTA_25-M5-select__6
 10
-159.0000000000006
 20
117.2701087629545
 30
0.0
  0
LINE
  5
2A0
330
6D
100
AcDbEntity
  8
1
  6
Continuous
 62
     2
100
AcDbLine
 10
-129.0000000000004
 20
127.7680700585125
 30
0.0
 11
-129.0000000000004
 21
120.7680700585125
 31
0.0
  0
MTEXT
  5
2A1
330
6D
100
AcDbEntity
  8
1
 62
     6
100
AcDbMText
 10
-129.0
 20
112.2701087629494
 30
0.0
 40
5.0
 41
0.0
 71
     2
 72
     1
  1
 
  7
CONVERTER_11
 73
     1
 44
1.32052821128451
  0
DIMENSION
  5
2AC
330
6D
100
AcDbEntity
  8
1
100
AcDbDimension
  2
*D18
 10
-177.0000000000011
 20
117.2701087629547
 30
0.0
 11
-180.4250000000011
 21
145.24175645467
 31
0.0
 70
    32
  1
<>
 71
     5
 42
-1.0
 53
90.0
  3
ME10_DIM_11
100
AcDbAlignedDimension
 13
-147.0000000000007
 23
180.3701087629546
 33
0.0
 14
-146.6800000000001
 24
117.2701087629547
 34
0.0
 50
90.0
100
AcDbRotatedDimension
  0
DIMENSION
  5
2B7
330
6D
100
AcDbEntity
  8
1
100
AcDbDimension
  2
*D19
 10
-169.0000000000011
 20
123.5701087629549
 30
0.0
 11
-172.4250000000011
 21
153.063978676892
 31
0.0
 70
    32
  1
<>
 71
     5
 42
-1.0
 53
90.0
  3
ME10_DIM_12
100
AcDbAlignedDimension
 13
-111.0000000000007
 23
180.3701087629549
 33
0.0
 14
-111.5000000000002
 24
123.5701087629549
 34
0.0
 50
90.0
100
AcDbRotatedDimension
  0
DIMENSION
  5
2C2
330
6D
100
AcDbEntity
  8
1
100
AcDbDimension
  2
*D20
 10
-159.0000000000002
 20
87.83268386776264
 30
0.0
 11
-128.743646434897
 21
91.08268386776264
 31
0.0
 70
    32
  1
<>
 71
     5
 42
-1.0
 53
0.00013888888889
  3
ME10_DIM_13
100
AcDbAlignedDimension
 13
-99.00000000000026
 23
129.1577088517521
 33
0.0
 14
-159.0000000000001
 24
117.2701087629545
 34
0.0
100
AcDbRotatedDimension
  0
DIMENSION
  5
2CD
330
6D
100
AcDbEntity
  8
1
100
AcDbDimension
  2
*D21
 10
-129.0000000000004
 20
95.8326838677626
 30
0.0
 11
-114.406131560797
 21
99.5826838677626
 31
0.0
 70
    32
  1
<>
 71
     5
 42
-1.0
 53
0.00013888888889
  3
ME10_DIM_14
100
AcDbAlignedDimension
 13
-99.00000000000026
 23
129.1577088517521
 33
0.0
 14
-129.0000000000004
 24
120.7680700585125
 34
0.0
100
AcDbRotatedDimension
  0
DIMENSION
  5
2D8
330
6D
100
AcDbEntity
  8
1
100
AcDbDimension
  2
*D22
 10
-129.0000000000004
 20
105.308460080421
 30
0.0
 11
-120.168427906332
 21
109.233460080421
 31
0.0
 70
    32
  1
<>
 71
     5
 42
-1.0
 53
0.00013888888889
  3
ME10_DIM_15
100
AcDbAlignedDimension
 13
-111.5000000000001
 23
122.370108762955
 33
0.0
 14
-129.0000000000004
 24
120.7680700585125
 34
0.0
100
AcDbRotatedDimension
  0
ENDBLK
  5
70
330
6D
100
AcDbEntity
  8
0
100
AcDbBlockEnd
  0
BLOCK
  5
72
330
71
100
AcDbEntity
  8
0
100
AcDbBlockBegin
  2
_rahmen
 70
     0
 10
52.23413134288116
 20
-1.68046576755268
 30
0.0
  3
_rahmen
  1

  0
LINE
  5
2D9
330
71
100
AcDbEntity
  8
1
  6
Continuous
 62
     6
100
AcDbLine
 10
-77.31067318386886
 20
28.81953423244744
 30
0.0
 11
52.23413134288285
 21
28.81953423244744
 31
0.0
  0
LINE
  5
2DA
330
71
100
AcDbEntity
  8
1
  6
Continuous
 62
     7
100
AcDbLine
 10
-59.11067318386884
 20
7.56953423244744
 30
0.0
 11
-40.91067318386894
 21
7.56953423244744
 31
0.0
  0
LINE
  5
2DB
330
71
100
AcDbEntity
  8
1
  6
Continuous
 62
     6
100
AcDbLine
 10
-59.11067318386884
 20
3.31953423244744
 30
0.0
 11
-77.31067318386886
 21
3.31953423244732
 31
0.0
  0
LINE
  5
2DC
330
71
100
AcDbEntity
  8
1
  6
Continuous
 62
     7
100
AcDbLine
 10
-59.11067318386884
 20
7.56953423244744
 30
0.0
 11
-59.11067318386884
 21
3.31953423244744
 31
0.0
  0
LINE
  5
2DD
330
71
100
AcDbEntity
  8
1
  6
Continuous
 62
     7
100
AcDbLine
 10
-40.91067318386894
 20
7.56953423244744
 30
0.0
 11
-40.91067318386894
 21
3.31953423244732
 31
0.0
  0
LINE
  5
2DE
330
71
100
AcDbEntity
  8
1
  6
Continuous
 62
     7
100
AcDbLine
 10
-77.31067318386886
 20
7.56953423244733
 30
0.0
 11
-77.31067318386886
 21
3.31953423244732
 31
0.0
  0
LINE
  5
2DF
330
71
100
AcDbEntity
  8
1
  6
Continuous
 62
     7
100
AcDbLine
 10
-77.31067318386886
 20
7.56953423244733
 30
0.0
 11
-59.11067318386884
 21
7.56953423244744
 31
0.0
  0
LINE
  5
2E0
330
71
100
AcDbEntity
  8
1
  6
Continuous
 62
     2
100
AcDbLine
 10
-68.07401829730625
 20
26.94453423244735
 30
0.0
 11
-68.07401829730625
 21
21.94453423244735
 31
0.0
  0
LINE
  5
2E1
330
71
100
AcDbEntity
  8
1
  6
Continuous
 62
     2
100
AcDbLine
 10
-68.07401829730625
 20
21.94453423244735
 30
0.0
 11
-73.07401829730625
 21
23.19453423244735
 31
0.0
  0
LINE
  5
2E2
330
71
100
AcDbEntity
  8
1
  6
Continuous
 62
     2
100
AcDbLine
 10
-73.07401829730625
 20
23.19453423244735
 30
0.0
 11
-73.07401829730625
 21
25.69453423244735
 31
0.0
  0
LINE
  5
2E3
330
71
100
AcDbEntity
  8
1
  6
Continuous
 62
     2
100
AcDbLine
 10
-73.07401829730625
 20
25.69453423244735
 30
0.0
 11
-68.07401829730625
 21
26.94453423244735
 31
0.0
  0
LINE
  5
2E4
330
71
100
AcDbEntity
  8
1
  6
Continuous
 62
     6
100
AcDbLine
 10
-199.7658686571171
 20
3.31953423244744
 30
0.0
 11
-234.765868657117
 21
3.31953423244744
 31
0.0
  0
LINE
  5
2E5
330
71
100
AcDbEntity
  8
1
  6
Continuous
 62
     6
100
AcDbLine
 10
52.23413134288285
 20
20.31953423244744
 30
0.0
 11
52.23413134288245
 21
11.81953423244744
 31
0.0
  0
LINE
  5
2E6
330
71
100
AcDbEntity
  8
1
  6
Continuous
 62
     6
100
AcDbLine
 10
-40.91067318386894
 20
3.31953423244732
 30
0.0
 11
-41.26586865711886
 21
3.31953423244744
 31
0.0
  0
LINE
  5
2E7
330
71
100
AcDbEntity
  8
1
  6
Continuous
 62
     6
100
AcDbLine
 10
-193.5658686571191
 20
3.31953423244732
 30
0.0
 11
-199.7658686571171
 21
3.31953423244744
 31
0.0
  0
LINE
  5
2E8
330
71
100
AcDbEntity
  8
1
  6
Continuous
 62
     7
100
AcDbLine
 10
-40.91067318386894
 20
20.31953423244744
 30
0.0
 11
-40.91067318386894
 21
7.56953423244744
 31
0.0
  0
LINE
  5
2E9
330
71
100
AcDbEntity
  8
1
  6
Continuous
 62
     7
100
AcDbLine
 10
-77.31067318386886
 20
20.31953423244744
 30
0.0
 11
-77.31067318386886
 21
7.56953423244733
 31
0.0
  0
LINE
  5
2EA
330
71
100
AcDbEntity
  8
1
  6
Continuous
 62
     6
100
AcDbLine
 10
-91.26586865711883
 20
3.31953423244744
 30
0.0
 11
-141.2658686571191
 21
3.31953423244744
 31
0.0
  0
LINE
  5
2EB
330
71
100
AcDbEntity
  8
1
  6
Continuous
 62
     6
100
AcDbLine
 10
-193.5658686571191
 20
3.31953423244732
 30
0.0
 11
-191.2658686571188
 21
3.31953423244744
 31
0.0
  0
LINE
  5
2EC
330
71
100
AcDbEntity
  8
1
  6
Continuous
 62
     6
100
AcDbLine
 10
-40.91067318386894
 20
3.31953423244732
 30
0.0
 11
8.73413134288114
 21
3.31953423244744
 31
0.0
  0
LINE
  5
2ED
330
71
100
AcDbEntity
  8
1
  6
Continuous
 62
     6
100
AcDbLine
 10
52.23413134288116
 20
3.31953423244744
 30
0.0
 11
52.23413134288245
 21
11.81953423244744
 31
0.0
  0
LINE
  5
2EE
330
71
100
AcDbEntity
  8
1
  6
Continuous
 62
     2
100
AcDbLine
 10
-239.7658686571179
 20
3.31953423244744
 30
0.0
 11
-239.7658686571179
 21
-1.68046576755268
 31
0.0
  0
LINE
  5
2EF
330
71
100
AcDbEntity
  8
1
  6
Continuous
 62
     2
100
AcDbLine
 10
-234.765868657117
 20
3.31953423244744
 30
0.0
 11
-239.7658686571179
 21
3.31953423244744
 31
0.0
  0
LINE
  5
2F0
330
71
100
AcDbEntity
  8
1
  6
Continuous
 62
     2
100
AcDbLine
 10
-234.765868657117
 20
-1.68046576755268
 30
0.0
 11
-191.2658686571188
 21
-1.68046576755268
 31
0.0
  0
LINE
  5
2F1
330
71
100
AcDbEntity
  8
1
  6
Continuous
 62
     2
100
AcDbLine
 10
-234.765868657117
 20
3.31953423244744
 30
0.0
 11
-234.765868657117
 21
-1.68046576755268
 31
0.0
  0
LINE
  5
2F2
330
71
100
AcDbEntity
  8
1
  6
Continuous
 62
     2
100
AcDbLine
 10
8.73413134288114
 20
-1.68046576755268
 30
0.0
 11
-41.26586865711886
 21
-1.68046576755268
 31
0.0
  0
LINE
  5
2F3
330
71
100
AcDbEntity
  8
1
  6
Continuous
 62
     2
100
AcDbLine
 10
8.73413134288114
 20
-1.68046576755268
 30
0.0
 11
8.73413134288114
 21
3.31953423244744
 31
0.0
  0
LINE
  5
2F4
330
71
100
AcDbEntity
  8
1
  6
Continuous
 62
     2
100
AcDbLine
 10
-41.26586865711886
 20
-1.68046576755268
 30
0.0
 11
-41.26586865711886
 21
3.31953423244744
 31
0.0
  0
LINE
  5
2F5
330
71
100
AcDbEntity
  8
1
  6
Continuous
 62
     2
100
AcDbLine
 10
-91.26586865711883
 20
-1.68046576755268
 30
0.0
 11
-41.26586865711886
 21
-1.68046576755268
 31
0.0
  0
LINE
  5
2F6
330
71
100
AcDbEntity
  8
1
  6
Continuous
 62
     2
100
AcDbLine
 10
-91.26586865711883
 20
-1.68046576755268
 30
0.0
 11
-91.26586865711883
 21
3.31953423244744
 31
0.0
  0
LINE
  5
2F7
330
71
100
AcDbEntity
  8
1
  6
Continuous
 62
     2
100
AcDbLine
 10
-141.2658686571191
 20
-1.68046576755268
 30
0.0
 11
-91.26586865711883
 21
-1.68046576755268
 31
0.0
  0
LINE
  5
2F8
330
71
100
AcDbEntity
  8
1
  6
Continuous
 62
     2
100
AcDbLine
 10
-141.2658686571191
 20
-1.68046576755268
 30
0.0
 11
-141.2658686571191
 21
3.31953423244744
 31
0.0
  0
LINE
  5
2F9
330
71
100
AcDbEntity
  8
1
  6
Continuous
 62
     2
100
AcDbLine
 10
-191.2658686571188
 20
-1.68046576755268
 30
0.0
 11
-141.2658686571191
 21
-1.68046576755268
 31
0.0
  0
LINE
  5
2FA
330
71
100
AcDbEntity
  8
1
  6
Continuous
 62
     2
100
AcDbLine
 10
-191.2658686571188
 20
-1.68046576755268
 30
0.0
 11
-191.2658686571188
 21
3.31953423244744
 31
0.0
  0
LINE
  5
2FB
330
71
100
AcDbEntity
  8
1
  6
Continuous
 62
     6
100
AcDbLine
 10
-234.7658686571171
 20
53.31953423244755
 30
0.0
 11
-234.765868657117
 21
3.31953423244744
 31
0.0
  0
LINE
  5
2FC
330
71
100
AcDbEntity
  8
1
  6
Continuous
 62
     2
100
AcDbLine
 10
-239.7658686571179
 20
53.31953423244755
 30
0.0
 11
-239.7658686571179
 21
3.31953423244744
 31
0.0
  0
LINE
  5
2FD
330
71
100
AcDbEntity
  8
1
  6
Continuous
 62
     2
100
AcDbLine
 10
-239.7658686571179
 20
53.31953423244755
 30
0.0
 11
-234.7658686571171
 21
53.31953423244755
 31
0.0
  0
LINE
  5
2FE
330
71
100
AcDbEntity
  8
1
  6
Continuous
 62
     6
100
AcDbLine
 10
-234.7658686571174
 20
103.3195342324474
 30
0.0
 11
-234.7658686571171
 21
53.31953423244755
 31
0.0
  0
LINE
  5
2FF
330
71
100
AcDbEntity
  8
1
  6
Continuous
 62
     2
100
AcDbLine
 10
-239.7658686571179
 20
103.3195342324474
 30
0.0
 11
-239.7658686571179
 21
53.31953423244755
 31
0.0
  0
LINE
  5
300
330
71
100
AcDbEntity
  8
1
  6
Continuous
 62
     2
100
AcDbLine
 10
-239.7658686571179
 20
103.3195342324474
 30
0.0
 11
-234.7658686571174
 21
103.3195342324474
 31
0.0
  0
LINE
  5
301
330
71
100
AcDbEntity
  8
1
  6
Continuous
 62
     6
100
AcDbLine
 10
-234.7658686571179
 20
153.3195342324474
 30
0.0
 11
-234.7658686571174
 21
103.3195342324474
 31
0.0
  0
LINE
  5
302
330
71
100
AcDbEntity
  8
1
  6
Continuous
 62
     2
100
AcDbLine
 10
-239.7658686571179
 20
153.3195342324474
 30
0.0
 11
-239.7658686571179
 21
103.3195342324474
 31
0.0
  0
LINE
  5
303
330
71
100
AcDbEntity
  8
1
  6
Continuous
 62
     2
100
AcDbLine
 10
-239.7658686571179
 20
153.3195342324474
 30
0.0
 11
-234.7658686571179
 21
153.3195342324474
 31
0.0
  0
LINE
  5
304
330
71
100
AcDbEntity
  8
1
  6
Continuous
 62
     6
100
AcDbLine
 10
-234.7658686571179
 20
188.3195342324474
 30
0.0
 11
-234.7658686571179
 21
153.3195342324474
 31
0.0
  0
LINE
  5
305
330
71
100
AcDbEntity
  8
1
  6
Continuous
 62
     2
100
AcDbLine
 10
-239.7658686571179
 20
208.3195342324474
 30
0.0
 11
-239.7658686571179
 21
153.3195342324474
 31
0.0
  0
LINE
  5
306
330
71
100
AcDbEntity
  8
1
  6
Continuous
 62
     2
100
AcDbLine
 10
-239.7658686571179
 20
-1.68046576755268
 30
0.0
 11
-234.765868657117
 21
-1.68046576755268
 31
0.0
  0
LINE
  5
307
330
71
100
AcDbEntity
  8
1
  6
Continuous
 62
     2
100
AcDbLine
 10
-91.26586865711883
 20
208.3195342324474
 30
0.0
 11
-91.26586865711883
 21
199.1108423877461
 31
0.0
  0
LINE
  5
308
330
71
100
AcDbEntity
  8
1
  6
Continuous
 62
     2
100
AcDbLine
 10
-91.26586865711883
 20
208.3195342324474
 30
0.0
 11
-239.7658686571179
 21
208.3195342324474
 31
0.0
  0
LINE
  5
309
330
71
100
AcDbEntity
  8
1
  6
Continuous
 62
     2
100
AcDbLine
 10
57.23413134288015
 20
3.31953423244744
 30
0.0
 11
57.23413134288015
 21
53.31953423244755
 31
0.0
  0
LINE
  5
30A
330
71
100
AcDbEntity
  8
1
  6
Continuous
 62
     2
100
AcDbLine
 10
57.23413134288015
 20
153.3195342324474
 30
0.0
 11
57.23413134288015
 21
208.3195342324474
 31
0.0
  0
LINE
  5
30B
330
71
100
AcDbEntity
  8
1
  6
Continuous
 62
     6
100
AcDbLine
 10
52.23413134288035
 20
153.3195342324474
 30
0.0
 11
52.23413134288015
 21
188.3195342324474
 31
0.0
  0
LINE
  5
30C
330
71
100
AcDbEntity
  8
1
  6
Continuous
 62
     2
100
AcDbLine
 10
52.23413134288035
 20
153.3195342324474
 30
0.0
 11
57.23413134288015
 21
153.3195342324474
 31
0.0
  0
LINE
  5
30D
330
71
100
AcDbEntity
  8
1
  6
Continuous
 62
     2
100
AcDbLine
 10
57.23413134288015
 20
103.3195342324474
 30
0.0
 11
57.23413134288015
 21
153.3195342324474
 31
0.0
  0
LINE
  5
30E
330
71
100
AcDbEntity
  8
1
  6
Continuous
 62
     6
100
AcDbLine
 10
52.23413134288155
 20
103.3195342324474
 30
0.0
 11
52.23413134288035
 21
153.3195342324474
 31
0.0
  0
LINE
  5
30F
330
71
100
AcDbEntity
  8
1
  6
Continuous
 62
     2
100
AcDbLine
 10
52.23413134288155
 20
103.3195342324474
 30
0.0
 11
57.23413134288015
 21
103.3195342324474
 31
0.0
  0
LINE
  5
310
330
71
100
AcDbEntity
  8
1
  6
Continuous
 62
     2
100
AcDbLine
 10
57.23413134288015
 20
53.31953423244755
 30
0.0
 11
57.23413134288015
 21
103.3195342324474
 31
0.0
  0
LINE
  5
311
330
71
100
AcDbEntity
  8
1
  6
Continuous
 62
     6
100
AcDbLine
 10
52.23413134288205
 20
53.31953423244755
 30
0.0
 11
52.23413134288155
 21
103.3195342324474
 31
0.0
  0
LINE
  5
312
330
71
100
AcDbEntity
  8
1
  6
Continuous
 62
     2
100
AcDbLine
 10
52.23413134288205
 20
53.31953423244755
 30
0.0
 11
57.23413134288015
 21
53.31953423244755
 31
0.0
  0
LINE
  5
313
330
71
100
AcDbEntity
  8
1
  6
Continuous
 62
     6
100
AcDbLine
 10
52.23413134288015
 20
188.3195342324474
 30
0.0
 11
-234.7658686571179
 21
188.3195342324474
 31
0.0
  0
LINE
  5
314
330
71
100
AcDbEntity
  8
1
  6
Continuous
 62
     2
100
AcDbLine
 10
57.23413134288015
 20
208.3195342324474
 30
0.0
 11
-91.26586865711883
 21
208.3195342324474
 31
0.0
  0
LINE
  5
315
330
71
100
AcDbEntity
  8
1
  6
Continuous
 62
     6
100
AcDbLine
 10
52.23413134288285
 20
20.31953423244744
 30
0.0
 11
52.23413134288205
 21
53.31953423244755
 31
0.0
  0
LINE
  5
316
330
71
100
AcDbEntity
  8
1
  6
Continuous
 62
     2
100
AcDbLine
 10
52.23413134288116
 20
-1.68046576755268
 30
0.0
 11
8.73413134288114
 21
-1.68046576755268
 31
0.0
  0
LINE
  5
317
330
71
100
AcDbEntity
  8
1
  6
Continuous
 62
     2
100
AcDbLine
 10
57.23413134288015
 20
-1.68046576755268
 30
0.0
 11
52.23413134288116
 21
-1.68046576755268
 31
0.0
  0
LINE
  5
318
330
71
100
AcDbEntity
  8
1
  6
Continuous
 62
     2
100
AcDbLine
 10
57.23413134288015
 20
-1.68046576755268
 30
0.0
 11
57.23413134288015
 21
3.31953423244744
 31
0.0
  0
LINE
  5
319
330
71
100
AcDbEntity
  8
1
  6
Continuous
 62
     6
100
AcDbLine
 10
-77.31067318386886
 20
20.31953423244744
 30
0.0
 11
-40.91067318386894
 21
20.31953423244744
 31
0.0
  0
LINE
  5
31A
330
71
100
AcDbEntity
  8
1
  6
Continuous
 62
     2
100
AcDbLine
 10
52.23413134288116
 20
3.31953423244744
 30
0.0
 11
52.23413134288116
 21
-1.68046576755268
 31
0.0
  0
LINE
  5
31B
330
71
100
AcDbEntity
  8
1
  6
Continuous
 62
     2
100
AcDbLine
 10
52.23413134288116
 20
3.31953423244744
 30
0.0
 11
57.23413134288015
 21
3.31953423244744
 31
0.0
  0
LINE
  5
31C
330
71
100
AcDbEntity
  8
1
  6
Continuous
 62
     6
100
AcDbLine
 10
-41.26586865711886
 20
3.31953423244744
 30
0.0
 11
-59.11067318386884
 21
3.31953423244744
 31
0.0
  0
LINE
  5
31D
330
71
100
AcDbEntity
  8
1
  6
Continuous
 62
     6
100
AcDbLine
 10
8.73413134288114
 20
3.31953423244744
 30
0.0
 11
52.23413134288116
 21
3.31953423244744
 31
0.0
  0
LINE
  5
31E
330
71
100
AcDbEntity
  8
1
  6
Continuous
 62
     6
100
AcDbLine
 10
-141.2658686571191
 20
3.31953423244744
 30
0.0
 11
-146.3106731838688
 21
3.31953423244744
 31
0.0
  0
LINE
  5
31F
330
71
100
AcDbEntity
  8
1
  6
Continuous
 62
     6
100
AcDbLine
 10
-91.26586865711883
 20
3.31953423244744
 30
0.0
 11
-77.31067318386886
 21
3.31953423244732
 31
0.0
  0
LINE
  5
320
102
{ACAD_REACTORS
330
40A
330
40B
102
}
330
71
100
AcDbEntity
  8
0
  6
Continuous
 62
     2
100
AcDbLine
 10
-69.79604724172205
 20
15.39204898865955
 30
0.0
 11
-69.79604724172205
 21
15.99758427716634
 31
0.0
  0
LINE
  5
321
102
{ACAD_REACTORS
330
40A
330
40B
102
}
330
71
100
AcDbEntity
  8
0
  6
Continuous
 62
     2
100
AcDbLine
 10
-69.79604724172205
 20
12.59191438202825
 30
0.0
 11
-69.79604724172205
 21
13.17376578872333
 31
0.0
  0
LINE
  5
322
102
{ACAD_REACTORS
330
40C
330
40D
102
}
330
71
100
AcDbEntity
  8
0
  6
Continuous
 62
     2
100
AcDbLine
 10
-47.16656080624284
 20
12.88157845015124
 30
0.0
 11
-47.16656080624284
 21
10.61303423246375
 31
0.0
  0
LINE
  5
323
102
{ACAD_REACTORS
330
40C
330
40D
102
}
330
71
100
AcDbEntity
  8
0
  6
Continuous
 62
     2
100
AcDbLine
 10
-48.54761458523043
 20
13.66684375627435
 30
0.0
 11
-45.16266906660175
 21
13.66684375627483
 31
0.0
  0
LINE
  5
324
102
{ACAD_REACTORS
330
40C
330
40D
102
}
330
71
100
AcDbEntity
  8
0
  6
Continuous
 62
     2
100
AcDbLine
 10
-45.16266906660175
 20
12.88157845015124
 30
0.0
 11
-45.16266906660175
 21
13.66684375627483
 31
0.0
  0
LINE
  5
325
102
{ACAD_REACTORS
330
40C
330
40D
102
}
330
71
100
AcDbEntity
  8
0
  6
Continuous
 62
     2
100
AcDbLine
 10
-45.97376810407513
 20
12.88157845015124
 30
0.0
 11
-45.16266906660175
 21
12.88157845015124
 31
0.0
  0
LINE
  5
326
102
{ACAD_REACTORS
330
40C
330
40D
102
}
330
71
100
AcDbEntity
  8
0
  6
Continuous
 62
     2
100
AcDbLine
 10
-45.97376810407513
 20
10.61303423246375
 30
0.0
 11
-45.97376810407513
 21
12.88157845015124
 31
0.0
  0
LINE
  5
327
102
{ACAD_REACTORS
330
40C
330
40D
102
}
330
71
100
AcDbEntity
  8
0
  6
Continuous
 62
     2
100
AcDbLine
 10
-47.16656080624284
 20
10.61303423246375
 30
0.0
 11
-45.97376810407513
 21
10.61303423246375
 31
0.0
  0
LINE
  5
328
102
{ACAD_REACTORS
330
402
330
403
102
}
330
71
100
AcDbEntity
  8
0
  6
Continuous
 62
     2
100
AcDbLine
 10
-47.86315174430735
 20
17.02603423244923
 30
0.0
 11
-49.26587596205664
 21
17.02603423244923
 31
0.0
  0
LINE
  5
329
102
{ACAD_REACTORS
330
402
330
403
102
}
330
71
100
AcDbEntity
  8
0
  6
Continuous
 62
     2
100
AcDbLine
 10
-47.86315174430735
 20
17.02603423244923
 30
0.0
 11
-47.26198422241555
 21
16.34621091089375
 31
0.0
  0
LINE
  5
32A
102
{ACAD_REACTORS
330
402
330
403
102
}
330
71
100
AcDbEntity
  8
0
  6
Continuous
 62
     2
100
AcDbLine
 10
-47.26198422241555
 20
16.34621091089375
 30
0.0
 11
-46.66081670052276
 21
17.02603423244923
 31
0.0
  0
LINE
  5
32B
102
{ACAD_REACTORS
330
402
330
403
102
}
330
71
100
AcDbEntity
  8
0
  6
Continuous
 62
     2
100
AcDbLine
 10
-46.56062211354205
 20
15.55308370241303
 30
0.0
 11
-45.25809248277554
 21
17.02603423244923
 31
0.0
  0
LINE
  5
32C
102
{ACAD_REACTORS
330
402
330
403
102
}
330
71
100
AcDbEntity
  8
0
  6
Continuous
 62
     2
100
AcDbLine
 10
-46.56062211354205
 20
15.55308370241303
 30
0.0
 11
-45.16266906660175
 21
13.97222470863804
 31
0.0
  0
LINE
  5
32D
102
{ACAD_REACTORS
330
402
330
403
102
}
330
71
100
AcDbEntity
  8
0
  6
Continuous
 62
     2
100
AcDbLine
 10
-46.56539328435005
 20
13.97222470863804
 30
0.0
 11
-45.16266906660175
 21
13.97222470863804
 31
0.0
  0
LINE
  5
32E
102
{ACAD_REACTORS
330
402
330
403
102
}
330
71
100
AcDbEntity
  8
0
  6
Continuous
 62
     2
100
AcDbLine
 10
-47.26198422241555
 20
14.75995649393175
 30
0.0
 11
-46.56539328435005
 21
13.97222470863804
 31
0.0
  0
LINE
  5
32F
102
{ACAD_REACTORS
330
400
330
401
102
}
330
71
100
AcDbEntity
  8
0
  6
Continuous
 62
     2
100
AcDbLine
 10
-50.72108305869924
 20
17.02603423244923
 30
0.0
 11
-49.48057864844634
 21
17.02603423244923
 31
0.0
  0
LINE
  5
330
102
{ACAD_REACTORS
330
400
330
401
102
}
330
71
100
AcDbEntity
  8
0
  6
Continuous
 62
     2
100
AcDbLine
 10
-49.48057864844634
 20
17.02603423244923
 30
0.0
 11
-49.48057864844634
 21
13.97222470863804
 31
0.0
  0
LINE
  5
331
102
{ACAD_REACTORS
330
400
330
401
102
}
330
71
100
AcDbEntity
  8
0
  6
Continuous
 62
     2
100
AcDbLine
 10
-50.72108305869924
 20
13.97222470863804
 30
0.0
 11
-50.72108305869924
 21
17.02603423244923
 31
0.0
  0
LINE
  5
332
102
{ACAD_REACTORS
330
3FE
330
3FF
102
}
330
71
100
AcDbEntity
  8
0
  6
Continuous
 62
     2
100
AcDbLine
 10
-52.18939314123685
 20
11.83455804198823
 30
0.0
 11
-51.88922790404445
 21
12.60237300797493
 31
0.0
  0
LINE
  5
333
102
{ACAD_REACTORS
330
3FE
330
3FF
102
}
330
71
100
AcDbEntity
  8
0
  6
Continuous
 62
     2
100
AcDbLine
 10
-52.66692874585766
 20
10.61303423246375
 30
0.0
 11
-52.45544869238185
 21
11.15399477668163
 31
0.0
  0
LINE
  5
334
102
{ACAD_REACTORS
330
3FE
330
3FF
102
}
330
71
100
AcDbEntity
  8
0
  6
Continuous
 62
     2
100
AcDbLine
 10
-52.50948010917134
 20
13.66684375627483
 30
0.0
 11
-53.90743315611064
 21
10.61303423246375
 31
0.0
  0
LINE
  5
335
102
{ACAD_REACTORS
330
3FE
330
3FF
102
}
330
71
100
AcDbEntity
  8
0
  6
Continuous
 62
     2
100
AcDbLine
 10
-49.87102265197834
 20
10.61303423246375
 30
0.0
 11
-51.11152706223226
 21
10.61303423246375
 31
0.0
  0
LINE
  5
336
102
{ACAD_REACTORS
330
3FE
330
3FF
102
}
330
71
100
AcDbEntity
  8
0
  6
Continuous
 62
     2
100
AcDbLine
 10
-52.45544869238185
 20
11.15399477668163
 30
0.0
 11
-51.32300711570804
 21
11.15399477668163
 31
0.0
  0
LINE
  5
337
102
{ACAD_REACTORS
330
3FC
330
3FD
102
}
330
71
100
AcDbEntity
  8
0
  6
Continuous
 62
     2
100
AcDbLine
 10
-56.06494529529286
 20
12.88157845015124
 30
0.0
 11
-55.25384625781825
 21
12.88157845015124
 31
0.0
  0
LINE
  5
338
102
{ACAD_REACTORS
330
3FC
330
3FD
102
}
330
71
100
AcDbEntity
  8
0
  6
Continuous
 62
     2
100
AcDbLine
 10
-53.24995451817924
 20
13.66684375627483
 30
0.0
 11
-56.06494529529286
 21
13.66684375627483
 31
0.0
  0
LINE
  5
339
102
{ACAD_REACTORS
330
3FC
330
3FD
102
}
330
71
100
AcDbEntity
  8
0
  6
Continuous
 62
     2
100
AcDbLine
 10
-53.24995451817924
 20
12.88157845015124
 30
0.0
 11
-53.24995451817924
 21
13.66684375627483
 31
0.0
  0
LINE
  5
33A
102
{ACAD_REACTORS
330
3FC
330
3FD
102
}
330
71
100
AcDbEntity
  8
0
  6
Continuous
 62
     2
100
AcDbLine
 10
-54.06105355565174
 20
12.88157845015124
 30
0.0
 11
-53.24995451817924
 21
12.88157845015124
 31
0.0
  0
LINE
  5
33B
102
{ACAD_REACTORS
330
3FC
330
3FD
102
}
330
71
100
AcDbEntity
  8
0
  6
Continuous
 62
     2
100
AcDbLine
 10
-54.06105355565174
 20
10.61303423246375
 30
0.0
 11
-54.06105355565174
 21
12.88157845015124
 31
0.0
  0
LINE
  5
33C
102
{ACAD_REACTORS
330
3FA
330
3FB
102
}
330
71
100
AcDbEntity
  8
0
  6
Continuous
 62
     2
100
AcDbLine
 10
-53.39293871155374
 20
13.97222470863804
 30
0.0
 11
-53.39293871155374
 21
15.28100021884274
 31
0.0
  0
LINE
  5
33D
102
{ACAD_REACTORS
330
3FA
330
3FB
102
}
330
71
100
AcDbEntity
  8
0
  6
Continuous
 62
     2
100
AcDbLine
 10
-54.58573141372025
 20
17.02603423244923
 30
0.0
 11
-54.58573141372025
 21
13.97222470863804
 31
0.0
  0
LINE
  5
33E
102
{ACAD_REACTORS
330
3FA
330
3FB
102
}
330
71
100
AcDbEntity
  8
0
  6
Continuous
 62
     2
100
AcDbLine
 10
-53.39293871155374
 20
17.02603423244923
 30
0.0
 11
-54.58573141372025
 21
17.02603423244923
 31
0.0
  0
LINE
  5
33F
102
{ACAD_REACTORS
330
3FA
330
3FB
102
}
330
71
100
AcDbEntity
  8
0
  6
Continuous
 62
     2
100
AcDbLine
 10
-52.15243430129974
 20
17.02603423244923
 30
0.0
 11
-52.15243430129974
 21
15.71725872224405
 31
0.0
  0
LINE
  5
340
102
{ACAD_REACTORS
330
3F8
330
3F9
102
}
330
71
100
AcDbEntity
  8
0
  6
Continuous
 62
     2
100
AcDbLine
 10
-59.83417023413995
 20
13.66684375627483
 30
0.0
 11
-59.83417023413995
 21
10.61303423246375
 31
0.0
  0
LINE
  5
341
102
{ACAD_REACTORS
330
3F8
330
3F9
102
}
330
71
100
AcDbEntity
  8
0
  6
Continuous
 62
     2
100
AcDbLine
 10
-58.64137753197235
 20
13.66684375627483
 30
0.0
 11
-59.83417023413995
 21
13.66684375627483
 31
0.0
  0
LINE
  5
342
102
{ACAD_REACTORS
330
3F8
330
3F9
102
}
330
71
100
AcDbEntity
  8
0
  6
Continuous
 62
     2
100
AcDbLine
 10
-57.40087312171946
 20
10.61303423246375
 30
0.0
 11
-56.20808041955306
 21
10.61303423246375
 31
0.0
  0
LINE
  5
343
102
{ACAD_REACTORS
330
3F8
330
3F9
102
}
330
71
100
AcDbEntity
  8
0
  6
Continuous
 62
     2
100
AcDbLine
 10
-59.83417023413995
 20
10.61303423246375
 30
0.0
 11
-58.64137753197235
 21
10.61303423246375
 31
0.0
  0
LINE
  5
344
102
{ACAD_REACTORS
330
408
330
409
102
}
330
71
100
AcDbEntity
  8
0
  6
Continuous
 62
     2
100
AcDbLine
 10
-56.16021778058084
 20
15.84813627326454
 30
0.0
 11
-56.16021778058084
 21
16.32802062700625
 31
0.0
  0
LINE
  5
345
102
{ACAD_REACTORS
330
408
330
409
102
}
330
71
100
AcDbEntity
  8
0
  6
Continuous
 62
     2
100
AcDbLine
 10
-54.82428995415316
 20
15.84813627326454
 30
0.0
 11
-56.16021778058084
 21
15.84813627326454
 31
0.0
  0
LINE
  5
346
102
{ACAD_REACTORS
330
408
330
409
102
}
330
71
100
AcDbEntity
  8
0
  6
Continuous
 62
     2
100
AcDbLine
 10
-54.82428995415316
 20
15.15012266782225
 30
0.0
 11
-54.82428995415316
 21
15.84813627326454
 31
0.0
  0
LINE
  5
347
102
{ACAD_REACTORS
330
408
330
409
102
}
330
71
100
AcDbEntity
  8
0
  6
Continuous
 62
     2
100
AcDbLine
 10
-56.16021778058084
 20
15.15012266782225
 30
0.0
 11
-54.82428995415316
 21
15.15012266782225
 31
0.0
  0
LINE
  5
348
102
{ACAD_REACTORS
330
3F6
330
3F7
102
}
330
71
100
AcDbEntity
  8
0
  6
Continuous
 62
     2
100
AcDbLine
 10
-59.64317247090776
 20
17.02603423244923
 30
0.0
 11
-59.64317247090776
 21
13.97222470863804
 31
0.0
  0
LINE
  5
349
102
{ACAD_REACTORS
330
3F6
330
3F7
102
}
330
71
100
AcDbEntity
  8
0
  6
Continuous
 62
     2
100
AcDbLine
 10
-59.64317247090776
 20
13.97222470863804
 30
0.0
 11
-60.83596517307416
 21
13.97222470863804
 31
0.0
  0
LINE
  5
34A
102
{ACAD_REACTORS
330
3F6
330
3F7
102
}
330
71
100
AcDbEntity
  8
0
  6
Continuous
 62
     2
100
AcDbLine
 10
-60.83596517307416
 20
13.97222470863804
 30
0.0
 11
-60.83596517307416
 21
15.10649681748186
 31
0.0
  0
LINE
  5
34B
102
{ACAD_REACTORS
330
3F6
330
3F7
102
}
330
71
100
AcDbEntity
  8
0
  6
Continuous
 62
     2
100
AcDbLine
 10
-61.88562275098164
 20
13.97222470863804
 30
0.0
 11
-63.07841545314824
 21
13.97222470863804
 31
0.0
  0
LINE
  5
34C
102
{ACAD_REACTORS
330
3F6
330
3F7
102
}
330
71
100
AcDbEntity
  8
0
  6
Continuous
 62
     2
100
AcDbLine
 10
-63.07841545314824
 20
17.02603423244923
 30
0.0
 11
-61.88562275098164
 21
17.02603423244923
 31
0.0
  0
LINE
  5
34D
102
{ACAD_REACTORS
330
3F6
330
3F7
102
}
330
71
100
AcDbEntity
  8
0
  6
Continuous
 62
     2
100
AcDbLine
 10
-61.88562275098164
 20
17.02603423244923
 30
0.0
 11
-61.88562275098164
 21
15.95720089911464
 31
0.0
  0
LINE
  5
34E
102
{ACAD_REACTORS
330
3F6
330
3F7
102
}
330
71
100
AcDbEntity
  8
0
  6
Continuous
 62
     2
100
AcDbLine
 10
-61.88562275098164
 20
15.95720089911464
 30
0.0
 11
-60.83596517307416
 21
15.95720089911464
 31
0.0
  0
LINE
  5
34F
102
{ACAD_REACTORS
330
404
330
405
102
}
330
71
100
AcDbEntity
  8
0
  6
Continuous
 62
     2
100
AcDbLine
 10
-65.03459548470184
 20
16.36292838700913
 30
0.0
 11
-64.71730042315994
 21
16.36292838700913
 31
0.0
  0
LINE
  5
350
102
{ACAD_REACTORS
330
404
330
405
102
}
330
71
100
AcDbEntity
  8
0
  6
Continuous
 62
     2
100
AcDbLine
 10
-65.03459548470184
 20
15.65720073766693
 30
0.0
 11
-64.71730042315994
 21
15.65720073766693
 31
0.0
  0
LINE
  5
351
102
{ACAD_REACTORS
330
404
330
405
102
}
330
71
100
AcDbEntity
  8
0
  6
Continuous
 62
     2
100
AcDbLine
 10
-66.27509989495596
 20
17.02603423244923
 30
0.0
 11
-66.27509989495596
 21
13.97222470863804
 31
0.0
  0
LINE
  5
352
102
{ACAD_REACTORS
330
404
330
405
102
}
330
71
100
AcDbEntity
  8
0
  6
Continuous
 62
     2
100
AcDbLine
 10
-66.27509989495596
 20
17.02603423244923
 30
0.0
 11
-64.27582789692156
 21
17.02603423244923
 31
0.0
  0
LINE
  5
353
102
{ACAD_REACTORS
330
404
330
405
102
}
330
71
100
AcDbEntity
  8
0
  6
Continuous
 62
     2
100
AcDbLine
 10
-65.03459548470184
 20
14.91530294978185
 30
0.0
 11
-64.27582789692156
 21
14.91530294978185
 31
0.0
  0
LINE
  5
354
102
{ACAD_REACTORS
330
40A
330
40B
102
}
330
71
100
AcDbEntity
  8
0
  6
Continuous
 62
     2
100
AcDbLine
 10
-72.37159592825265
 20
15.99776175381444
 30
0.0
 11
-72.37159592825265
 21
11.64130671109734
 31
0.0
  0
LINE
  5
355
102
{ACAD_REACTORS
330
40A
330
40B
102
}
330
71
100
AcDbEntity
  8
0
  6
Continuous
 62
     2
100
AcDbLine
 10
-72.05587900517696
 20
16.31347867689064
 30
0.0
 11
-70.58004574416734
 21
16.31347867689064
 31
0.0
  0
LINE
  5
356
102
{ACAD_REACTORS
330
40A
330
40B
102
}
330
71
100
AcDbEntity
  8
0
  6
Continuous
 62
     2
100
AcDbLine
 10
-70.26432882109074
 20
15.39373713475393
 30
0.0
 11
-70.26432882109074
 21
15.99776175381444
 31
0.0
  0
LINE
  5
357
102
{ACAD_REACTORS
330
40A
330
40B
102
}
330
71
100
AcDbEntity
  8
0
  6
Continuous
 62
     2
100
AcDbLine
 10
-70.26432882109074
 20
11.64130671109734
 30
0.0
 11
-70.26432882109074
 21
13.17207764262895
 31
0.0
  0
LINE
  5
358
102
{ACAD_REACTORS
330
40A
330
40B
102
}
330
71
100
AcDbEntity
  8
0
  6
Continuous
 62
     2
100
AcDbLine
 10
-67.17646159120665
 20
10.61303423246375
 30
0.0
 11
-72.64977368192345
 21
10.61303423246375
 31
0.0
  0
LINE
  5
359
102
{ACAD_REACTORS
330
40A
330
40B
102
}
330
71
100
AcDbEntity
  8
0
  6
Continuous
 62
     2
100
AcDbLine
 10
-66.75221697582276
 20
16.60178961704725
 30
0.0
 11
-66.75221697582276
 21
11.03727884784703
 31
0.0
  0
LINE
  5
35A
102
{ACAD_REACTORS
330
40A
330
40B
102
}
330
71
100
AcDbEntity
  8
0
  6
Continuous
 62
     2
100
AcDbLine
 10
-72.64977368192345
 20
17.02603423243104
 30
0.0
 11
-67.17646159120665
 21
17.02603423243104
 31
0.0
  0
LINE
  5
35B
102
{ACAD_REACTORS
330
40A
330
40B
102
}
330
71
100
AcDbEntity
  8
0
  6
Continuous
 62
     2
100
AcDbLine
 10
-73.07401829730625
 20
16.60178961704725
 30
0.0
 11
-73.07401829730625
 21
11.03727884784703
 31
0.0
  0
LINE
  5
35C
102
{ACAD_REACTORS
330
40A
330
40B
102
}
330
71
100
AcDbEntity
  8
0
  6
Continuous
 62
     2
100
AcDbLine
 10
-70.58004574416734
 20
11.32558978802064
 30
0.0
 11
-72.05587900517696
 21
11.32558978802064
 31
0.0
  0
LINE
  5
35D
102
{ACAD_REACTORS
330
404
330
405
102
}
330
71
100
AcDbEntity
  8
0
  6
Continuous
 62
     2
100
AcDbLine
 10
-65.03459548470184
 20
13.97222470863804
 30
0.0
 11
-65.03459548470184
 21
14.91530294978185
 31
0.0
  0
LINE
  5
35E
102
{ACAD_REACTORS
330
404
330
405
102
}
330
71
100
AcDbEntity
  8
0
  6
Continuous
 62
     2
100
AcDbLine
 10
-66.27509989495596
 20
13.97222470863804
 30
0.0
 11
-65.03459548470184
 21
13.97222470863804
 31
0.0
  0
LINE
  5
35F
102
{ACAD_REACTORS
330
404
330
405
102
}
330
71
100
AcDbEntity
  8
0
  6
Continuous
 62
     2
100
AcDbLine
 10
-65.03459548470184
 20
15.65720073766693
 30
0.0
 11
-65.03459548470184
 21
16.36292838700913
 31
0.0
  0
LINE
  5
360
102
{ACAD_REACTORS
330
3F6
330
3F7
102
}
330
71
100
AcDbEntity
  8
0
  6
Continuous
 62
     2
100
AcDbLine
 10
-63.07841545314824
 20
17.02603423244923
 30
0.0
 11
-63.07841545314824
 21
13.97222470863804
 31
0.0
  0
LINE
  5
361
102
{ACAD_REACTORS
330
3F6
330
3F7
102
}
330
71
100
AcDbEntity
  8
0
  6
Continuous
 62
     2
100
AcDbLine
 10
-61.88562275098164
 20
15.10649681748186
 30
0.0
 11
-61.88562275098164
 21
13.97222470863804
 31
0.0
  0
LINE
  5
362
102
{ACAD_REACTORS
330
3F6
330
3F7
102
}
330
71
100
AcDbEntity
  8
0
  6
Continuous
 62
     2
100
AcDbLine
 10
-60.83596517307416
 20
15.10649681748186
 30
0.0
 11
-61.88562275098164
 21
15.10649681748186
 31
0.0
  0
LINE
  5
363
102
{ACAD_REACTORS
330
3F6
330
3F7
102
}
330
71
100
AcDbEntity
  8
0
  6
Continuous
 62
     2
100
AcDbLine
 10
-60.83596517307416
 20
17.02603423244923
 30
0.0
 11
-59.64317247090776
 21
17.02603423244923
 31
0.0
  0
LINE
  5
364
102
{ACAD_REACTORS
330
3F6
330
3F7
102
}
330
71
100
AcDbEntity
  8
0
  6
Continuous
 62
     2
100
AcDbLine
 10
-60.83596517307416
 20
15.95720089911464
 30
0.0
 11
-60.83596517307416
 21
17.02603423244923
 31
0.0
  0
LINE
  5
365
102
{ACAD_REACTORS
330
408
330
409
102
}
330
71
100
AcDbEntity
  8
0
  6
Continuous
 62
     2
100
AcDbLine
 10
-54.82428995415316
 20
16.32802062700625
 30
0.0
 11
-54.82428995415316
 21
17.02603423244923
 31
0.0
  0
LINE
  5
366
102
{ACAD_REACTORS
330
408
330
409
102
}
330
71
100
AcDbEntity
  8
0
  6
Continuous
 62
     2
100
AcDbLine
 10
-57.97460967793415
 20
17.02603423244923
 30
0.0
 11
-54.82428995415316
 21
17.02603423244923
 31
0.0
  0
LINE
  5
367
102
{ACAD_REACTORS
330
408
330
409
102
}
330
71
100
AcDbEntity
  8
0
  6
Continuous
 62
     2
100
AcDbLine
 10
-57.97460967793415
 20
13.97222470863804
 30
0.0
 11
-54.82428995415316
 21
13.97222470863804
 31
0.0
  0
LINE
  5
368
102
{ACAD_REACTORS
330
408
330
409
102
}
330
71
100
AcDbEntity
  8
0
  6
Continuous
 62
     2
100
AcDbLine
 10
-54.82428995415316
 20
13.97222470863804
 30
0.0
 11
-54.82428995415316
 21
14.67023831408054
 31
0.0
  0
LINE
  5
369
102
{ACAD_REACTORS
330
408
330
409
102
}
330
71
100
AcDbEntity
  8
0
  6
Continuous
 62
     2
100
AcDbLine
 10
-54.82428995415316
 20
14.67023831408054
 30
0.0
 11
-56.16021778058084
 21
14.67023831408054
 31
0.0
  0
LINE
  5
36A
102
{ACAD_REACTORS
330
408
330
409
102
}
330
71
100
AcDbEntity
  8
0
  6
Continuous
 62
     2
100
AcDbLine
 10
-56.16021778058084
 20
14.67023831408054
 30
0.0
 11
-56.16021778058084
 21
15.15012266782225
 31
0.0
  0
LINE
  5
36B
102
{ACAD_REACTORS
330
408
330
409
102
}
330
71
100
AcDbEntity
  8
0
  6
Continuous
 62
     2
100
AcDbLine
 10
-56.16021778058084
 20
16.32802062700625
 30
0.0
 11
-54.82428995415316
 21
16.32802062700625
 31
0.0
  0
LINE
  5
36C
102
{ACAD_REACTORS
330
3F8
330
3F9
102
}
330
71
100
AcDbEntity
  8
0
  6
Continuous
 62
     2
100
AcDbLine
 10
-58.64137753197235
 20
10.61303423246375
 30
0.0
 11
-58.64137753197235
 21
11.92180974266833
 31
0.0
  0
LINE
  5
36D
102
{ACAD_REACTORS
330
3F8
330
3F9
102
}
330
71
100
AcDbEntity
  8
0
  6
Continuous
 62
     2
100
AcDbLine
 10
-58.64137753197235
 20
11.92180974266833
 30
0.0
 11
-57.40087312171946
 21
10.61303423246375
 31
0.0
  0
LINE
  5
36E
102
{ACAD_REACTORS
330
3F8
330
3F9
102
}
330
71
100
AcDbEntity
  8
0
  6
Continuous
 62
     2
100
AcDbLine
 10
-56.20808041955306
 20
10.61303423246375
 30
0.0
 11
-56.20808041955306
 21
13.66684375627483
 31
0.0
  0
LINE
  5
36F
102
{ACAD_REACTORS
330
3F8
330
3F9
102
}
330
71
100
AcDbEntity
  8
0
  6
Continuous
 62
     2
100
AcDbLine
 10
-56.20808041955306
 20
13.66684375627483
 30
0.0
 11
-57.40087312171946
 21
13.66684375627483
 31
0.0
  0
LINE
  5
370
102
{ACAD_REACTORS
330
3F8
330
3F9
102
}
330
71
100
AcDbEntity
  8
0
  6
Continuous
 62
     2
100
AcDbLine
 10
-57.40087312171946
 20
13.66684375627483
 30
0.0
 11
-57.40087312171946
 21
12.35806824606974
 31
0.0
  0
LINE
  5
371
102
{ACAD_REACTORS
330
3F8
330
3F9
102
}
330
71
100
AcDbEntity
  8
0
  6
Continuous
 62
     2
100
AcDbLine
 10
-57.40087312171946
 20
12.35806824606974
 30
0.0
 11
-58.64137753197235
 21
13.66684375627483
 31
0.0
  0
LINE
  5
372
102
{ACAD_REACTORS
330
3FA
330
3FB
102
}
330
71
100
AcDbEntity
  8
0
  6
Continuous
 62
     2
100
AcDbLine
 10
-53.39293871155374
 20
15.28100021884274
 30
0.0
 11
-52.15243430129974
 21
13.97222470863804
 31
0.0
  0
LINE
  5
373
102
{ACAD_REACTORS
330
3FA
330
3FB
102
}
330
71
100
AcDbEntity
  8
0
  6
Continuous
 62
     2
100
AcDbLine
 10
-52.15243430129974
 20
13.97222470863804
 30
0.0
 11
-50.95964159913314
 21
13.97222470863804
 31
0.0
  0
LINE
  5
374
102
{ACAD_REACTORS
330
3FA
330
3FB
102
}
330
71
100
AcDbEntity
  8
0
  6
Continuous
 62
     2
100
AcDbLine
 10
-50.95964159913314
 20
13.97222470863804
 30
0.0
 11
-50.95964159913314
 21
17.02603423244923
 31
0.0
  0
LINE
  5
375
102
{ACAD_REACTORS
330
3FA
330
3FB
102
}
330
71
100
AcDbEntity
  8
0
  6
Continuous
 62
     2
100
AcDbLine
 10
-50.95964159913314
 20
17.02603423244923
 30
0.0
 11
-52.15243430129974
 21
17.02603423244923
 31
0.0
  0
LINE
  5
376
102
{ACAD_REACTORS
330
3FA
330
3FB
102
}
330
71
100
AcDbEntity
  8
0
  6
Continuous
 62
     2
100
AcDbLine
 10
-52.15243430129974
 20
15.71725872224405
 30
0.0
 11
-53.39293871155374
 21
17.02603423244923
 31
0.0
  0
LINE
  5
377
102
{ACAD_REACTORS
330
3FA
330
3FB
102
}
330
71
100
AcDbEntity
  8
0
  6
Continuous
 62
     2
100
AcDbLine
 10
-54.58573141372025
 20
13.97222470863804
 30
0.0
 11
-53.39293871155374
 21
13.97222470863804
 31
0.0
  0
LINE
  5
378
102
{ACAD_REACTORS
330
3FC
330
3FD
102
}
330
71
100
AcDbEntity
  8
0
  6
Continuous
 62
     2
100
AcDbLine
 10
-56.06494529529286
 20
13.66684375627483
 30
0.0
 11
-56.06494529529286
 21
12.88157845015124
 31
0.0
  0
LINE
  5
379
102
{ACAD_REACTORS
330
3FC
330
3FD
102
}
330
71
100
AcDbEntity
  8
0
  6
Continuous
 62
     2
100
AcDbLine
 10
-55.25384625781825
 20
12.88157845015124
 30
0.0
 11
-55.25384625781825
 21
10.61303423246375
 31
0.0
  0
LINE
  5
37A
102
{ACAD_REACTORS
330
3FC
330
3FD
102
}
330
71
100
AcDbEntity
  8
0
  6
Continuous
 62
     2
100
AcDbLine
 10
-55.25384625781825
 20
10.61303423246375
 30
0.0
 11
-54.06105355565174
 21
10.61303423246375
 31
0.0
  0
LINE
  5
37B
102
{ACAD_REACTORS
330
3FE
330
3FF
102
}
330
71
100
AcDbEntity
  8
0
  6
Continuous
 62
     2
100
AcDbLine
 10
-51.11152706223226
 20
10.61303423246375
 30
0.0
 11
-51.32300711570804
 21
11.15399477668163
 31
0.0
  0
LINE
  5
37C
102
{ACAD_REACTORS
330
3FE
330
3FF
102
}
330
71
100
AcDbEntity
  8
0
  6
Continuous
 62
     2
100
AcDbLine
 10
-51.26897569891864
 20
13.66684375627483
 30
0.0
 11
-49.87102265197834
 21
10.61303423246375
 31
0.0
  0
LINE
  5
37D
102
{ACAD_REACTORS
330
3FE
330
3FF
102
}
330
71
100
AcDbEntity
  8
0
  6
Continuous
 62
     2
100
AcDbLine
 10
-52.50948010917134
 20
13.66684375627483
 30
0.0
 11
-51.26897569891864
 21
13.66684375627483
 31
0.0
  0
LINE
  5
37E
102
{ACAD_REACTORS
330
3FE
330
3FF
102
}
330
71
100
AcDbEntity
  8
0
  6
Continuous
 62
     2
100
AcDbLine
 10
-53.90743315611064
 20
10.61303423246375
 30
0.0
 11
-52.66692874585766
 21
10.61303423246375
 31
0.0
  0
LINE
  5
37F
102
{ACAD_REACTORS
330
3FE
330
3FF
102
}
330
71
100
AcDbEntity
  8
0
  6
Continuous
 62
     2
100
AcDbLine
 10
-52.18939314123685
 20
11.83455804198823
 30
0.0
 11
-51.58906266685435
 21
11.83455804198823
 31
0.0
  0
LINE
  5
380
102
{ACAD_REACTORS
330
3FE
330
3FF
102
}
330
71
100
AcDbEntity
  8
0
  6
Continuous
 62
     2
100
AcDbLine
 10
-51.58906266685435
 20
11.83455804198823
 30
0.0
 11
-51.88922790404445
 21
12.60237300797493
 31
0.0
  0
LINE
  5
381
102
{ACAD_REACTORS
330
400
330
401
102
}
330
71
100
AcDbEntity
  8
0
  6
Continuous
 62
     2
100
AcDbLine
 10
-49.48057864844634
 20
13.97222470863804
 30
0.0
 11
-50.72108305869924
 21
13.97222470863804
 31
0.0
  0
LINE
  5
382
102
{ACAD_REACTORS
330
402
330
403
102
}
330
71
100
AcDbEntity
  8
0
  6
Continuous
 62
     2
100
AcDbLine
 10
-47.95857516048125
 20
13.97222470863804
 30
0.0
 11
-49.36129937822946
 21
13.97222470863804
 31
0.0
  0
LINE
  5
383
102
{ACAD_REACTORS
330
402
330
403
102
}
330
71
100
AcDbEntity
  8
0
  6
Continuous
 62
     2
100
AcDbLine
 10
-47.95857516048125
 20
13.97222470863804
 30
0.0
 11
-47.26198422241555
 21
14.75995649393175
 31
0.0
  0
LINE
  5
384
102
{ACAD_REACTORS
330
402
330
403
102
}
330
71
100
AcDbEntity
  8
0
  6
Continuous
 62
     2
100
AcDbLine
 10
-46.66081670052276
 20
17.02603423244923
 30
0.0
 11
-45.25809248277554
 21
17.02603423244923
 31
0.0
  0
LINE
  5
385
102
{ACAD_REACTORS
330
402
330
403
102
}
330
71
100
AcDbEntity
  8
0
  6
Continuous
 62
     2
100
AcDbLine
 10
-49.26587596205664
 20
17.02603423244923
 30
0.0
 11
-47.96334633128916
 21
15.55308370241303
 31
0.0
  0
LINE
  5
386
102
{ACAD_REACTORS
330
402
330
403
102
}
330
71
100
AcDbEntity
  8
0
  6
Continuous
 62
     2
100
AcDbLine
 10
-49.36129937822946
 20
13.97222470863804
 30
0.0
 11
-47.96334633128916
 21
15.55308370241303
 31
0.0
  0
LINE
  5
387
102
{ACAD_REACTORS
330
40C
330
40D
102
}
330
71
100
AcDbEntity
  8
0
  6
Continuous
 62
     2
100
AcDbLine
 10
-47.50054276284953
 20
11.66005464062735
 30
0.0
 11
-47.50054276284953
 21
10.78753763382403
 31
0.0
  0
LINE
  5
388
102
{ACAD_REACTORS
330
40C
330
40D
102
}
330
71
100
AcDbEntity
  8
0
  6
Continuous
 62
     2
100
AcDbLine
 10
-48.27020010581094
 20
12.88157845015124
 30
0.0
 11
-47.16656080624284
 21
12.88157845015124
 31
0.0
  0
LINE
  5
389
102
{ACAD_REACTORS
330
40E
330
40F
102
}
330
71
100
AcDbEntity
  8
0
  6
Continuous
 62
     2
100
AcDbLine
 10
-63.60324424210145
 20
11.66005464062783
 30
0.0
 11
-63.60324424210145
 21
10.78753763382463
 31
0.0
  0
LINE
  5
38A
102
{ACAD_REACTORS
330
40E
330
40F
102
}
330
71
100
AcDbEntity
  8
0
  6
Continuous
 62
     2
100
AcDbLine
 10
-63.60324424210145
 20
12.61982334811074
 30
0.0
 11
-63.60324424210145
 21
13.49234035491404
 31
0.0
  0
LINE
  5
38B
330
71
100
AcDbEntity
  8
1
  6
Continuous
 62
     7
100
AcDbLine
 10
52.23413134288245
 20
11.81953423244744
 30
0.0
 11
-40.91067318386894
 21
11.81953423244744
 31
0.0
  0
LINE
  5
38C
330
71
100
AcDbEntity
  8
1
  6
Continuous
 62
     6
100
AcDbLine
 10
-146.3106731838688
 20
3.31953423244744
 30
0.0
 11
-191.2658686571188
 21
3.31953423244744
 31
0.0
  0
LINE
  5
38D
330
71
100
AcDbEntity
  8
1
  6
Continuous
 62
     7
100
AcDbLine
 10
43.31572306120364
 20
28.81953423244744
 30
0.0
 11
43.31572306120364
 21
20.31953423244744
 31
0.0
  0
LINE
  5
38E
330
71
100
AcDbEntity
  8
1
  6
Continuous
 62
     7
100
AcDbLine
 10
16.81572306120404
 20
28.81953423244744
 30
0.0
 11
16.81572306120404
 21
20.31953423244744
 31
0.0
  0
LINE
  5
38F
330
71
100
AcDbEntity
  8
1
  6
Continuous
 62
     7
100
AcDbLine
 10
-40.91067318386894
 20
20.31953423244744
 30
0.0
 11
-40.91067318386894
 21
28.81953423244744
 31
0.0
  0
LINE
  5
390
330
71
100
AcDbEntity
  8
1
  6
Continuous
 62
     7
100
AcDbLine
 10
-77.31067318386886
 20
20.31953423244744
 30
0.0
 11
-77.31067318386886
 21
28.81953423244744
 31
0.0
  0
LINE
  5
391
330
71
100
AcDbEntity
  8
1
  6
Continuous
 62
     6
100
AcDbLine
 10
-40.91067318386894
 20
20.31953423244744
 30
0.0
 11
52.23413134288285
 21
20.31953423244744
 31
0.0
  0
LINE
  5
392
330
71
100
AcDbEntity
  8
1
  6
Continuous
 62
     7
100
AcDbLine
 10
-13.01067318386885
 20
11.81953423244735
 30
0.0
 11
-13.01067318386885
 21
20.31953423244744
 31
0.0
  0
LINE
  5
393
330
71
100
AcDbEntity
  8
1
  6
PHANTOM
 62
     2
100
AcDbLine
 10
-61.82401829730625
 20
24.44453423244735
 30
0.0
 11
-67.32401829730625
 21
24.44453423244735
 31
0.0
  0
LINE
  5
394
330
71
100
AcDbEntity
  8
1
  6
PHANTOM
 62
     2
100
AcDbLine
 10
-64.57401829730625
 20
27.19453423244735
 30
0.0
 11
-64.57401829730625
 21
21.69453423244735
 31
0.0
  0
LINE
  5
395
330
71
100
AcDbEntity
  8
1
  6
DOT_CENTER
 62
     2
100
AcDbLine
 10
-73.32401829730625
 20
24.44453423244735
 30
0.0
 11
-67.82401829730625
 21
24.44453423244735
 31
0.0
  0
ARC
  5
396
102
{ACAD_REACTORS
330
40E
330
40F
102
}
330
71
100
AcDbEntity
  8
0
  6
Continuous
 62
     2
100
AcDbCircle
 10
-64.93917215921925
 20
8.82725804911314
 30
0.0
 40
4.852596863498076
100
AcDbArc
 50
74.02000874164733
 51
84.84185523037506
  0
ARC
  5
397
102
{ACAD_REACTORS
330
40E
330
40F
102
}
330
71
100
AcDbEntity
  8
0
  6
Continuous
 62
     2
100
AcDbCircle
 10
-64.36313155046554
 20
11.98301840499744
 30
0.0
 40
0.9059297849853228
100
AcDbArc
 50
71.55192388185348
 51
113.372277888129
  0
ARC
  5
398
102
{ACAD_REACTORS
330
40E
330
40F
102
}
330
71
100
AcDbEntity
  8
0
  6
Continuous
 62
     2
100
AcDbCircle
 10
-64.51957158316756
 20
11.93486756503054
 30
0.0
 40
0.5115800601948034
100
AcDbArc
 50
208.5214732576956
 51
246.6277221118272
  0
ARC
  5
399
102
{ACAD_REACTORS
330
40E
330
40F
102
}
330
71
100
AcDbEntity
  8
0
  6
Continuous
 62
     2
100
AcDbCircle
 10
-64.36313155046554
 20
12.29685958374054
 30
0.0
 40
0.905929784984916
100
AcDbArc
 50
246.6277221118709
 51
288.4480761181586
  0
ARC
  5
39A
102
{ACAD_REACTORS
330
40E
330
40F
102
}
330
71
100
AcDbEntity
  8
0
  6
Continuous
 62
     2
100
AcDbCircle
 10
-64.78129928412633
 20
13.55040535977773
 30
0.0
 40
2.227384008972739
100
AcDbArc
 50
288.4480761181328
 51
301.9309089499593
  0
ARC
  5
39B
102
{ACAD_REACTORS
330
40A
330
40B
102
}
330
71
100
AcDbEntity
  8
0
  6
Continuous
 62
     2
100
AcDbCircle
 10
-70.00637301673314
 20
14.28290738869174
 30
0.0
 40
0.9118481501444573
100
AcDbArc
 50
295.3740086781765
 51
64.62599132180762
  0
ARC
  5
39C
102
{ACAD_REACTORS
330
40A
330
40B
102
}
330
71
100
AcDbEntity
  8
0
  6
Continuous
 62
     2
100
AcDbCircle
 10
-69.48033031864526
 20
15.99758427716634
 30
0.0
 40
0.3157169230760746
100
AcDbArc
 50
90.18896704254594
 51
180.0
  0
ARC
  5
39D
102
{ACAD_REACTORS
330
40C
330
40D
102
}
330
71
100
AcDbEntity
  8
0
  6
Continuous
 62
     2
100
AcDbCircle
 10
-48.27020010581094
 20
11.92705544332515
 30
0.0
 40
0.9545230068260899
100
AcDbArc
 50
90.0
 51
109.3371432194321
  0
ARC
  5
39E
102
{ACAD_REACTORS
330
40C
330
40D
102
}
330
71
100
AcDbEntity
  8
0
  6
Continuous
 62
     2
100
AcDbCircle
 10
-48.03951284583326
 20
12.13993899436903
 30
0.0
 40
0.9410597353348895
100
AcDbArc
 50
151.4785267423618
 51
208.5214732576697
  0
ARC
  5
39F
102
{ACAD_REACTORS
330
40C
330
40D
102
}
330
71
100
AcDbEntity
  8
0
  6
Continuous
 62
     2
100
AcDbCircle
 10
-48.26043007121155
 20
12.29685958374054
 30
0.0
 40
0.905929784985274
100
AcDbArc
 50
246.6277221118186
 51
288.4480761180818
  0
ARC
  5
3A0
102
{ACAD_REACTORS
330
40C
330
40D
102
}
330
71
100
AcDbEntity
  8
0
  6
Continuous
 62
     2
100
AcDbCircle
 10
-48.67859780487345
 20
13.55040535977713
 30
0.0
 40
2.227384008972744
100
AcDbArc
 50
288.4480761181333
 51
301.9309089499399
  0
ARC
  5
3A1
102
{ACAD_REACTORS
330
40C
330
40D
102
}
330
71
100
AcDbEntity
  8
0
  6
Continuous
 62
     2
100
AcDbCircle
 10
-48.83647067996625
 20
15.45261993962544
 30
0.0
 40
4.852596863498824
100
AcDbArc
 50
275.1581447696362
 51
285.9799912583387
  0
ARC
  5
3A2
102
{ACAD_REACTORS
330
40C
330
40D
102
}
330
71
100
AcDbEntity
  8
0
  6
Continuous
 62
     2
100
AcDbCircle
 10
-48.54761458523043
 20
12.25272935640385
 30
0.0
 40
1.639695123940456
100
AcDbArc
 50
195.0618917771012
 51
275.158144769676
  0
ARC
  5
3A3
102
{ACAD_REACTORS
330
404
330
405
102
}
330
71
100
AcDbEntity
  8
0
  6
Continuous
 62
     2
100
AcDbCircle
 10
-64.27582789692156
 20
15.97066859111556
 30
0.0
 40
1.05536564133371
100
AcDbArc
 50
270.0
 51
90.0
  0
ARC
  5
3A4
102
{ACAD_REACTORS
330
40A
330
40B
102
}
330
71
100
AcDbEntity
  8
0
  6
Continuous
 62
     2
100
AcDbCircle
 10
-72.05587900517696
 20
11.64130671109734
 30
0.0
 40
0.3157169230756836
100
AcDbArc
 50
180.0
 51
270.0
  0
ARC
  5
3A5
102
{ACAD_REACTORS
330
40A
330
40B
102
}
330
71
100
AcDbEntity
  8
0
  6
Continuous
 62
     2
100
AcDbCircle
 10
-70.58004574416734
 20
15.99776175381444
 30
0.0
 40
0.315716923076593
100
AcDbArc
 50
0.0
 51
90.0
  0
ARC
  5
3A6
102
{ACAD_REACTORS
330
40A
330
40B
102
}
330
71
100
AcDbEntity
  8
0
  6
Continuous
 62
     2
100
AcDbCircle
 10
-70.58004574416734
 20
15.39373713475393
 30
0.0
 40
0.3157169230761203
100
AcDbArc
 50
295.1944106485397
 51
0.0
  0
ARC
  5
3A7
102
{ACAD_REACTORS
330
40A
330
40B
102
}
330
71
100
AcDbEntity
  8
0
  6
Continuous
 62
     2
100
AcDbCircle
 10
-70.58004574416734
 20
11.64130671109734
 30
0.0
 40
0.3157169230766996
100
AcDbArc
 50
270.0
 51
0.0
  0
ARC
  5
3A8
102
{ACAD_REACTORS
330
40A
330
40B
102
}
330
71
100
AcDbEntity
  8
0
  6
Continuous
 62
     2
100
AcDbCircle
 10
-72.64977368192345
 20
16.60178961704725
 30
0.0
 40
0.4242446153837918
100
AcDbArc
 50
90.0
 51
180.0
  0
ARC
  5
3A9
102
{ACAD_REACTORS
330
40A
330
40B
102
}
330
71
100
AcDbEntity
  8
0
  6
Continuous
 62
     2
100
AcDbCircle
 10
-67.17646159120665
 20
16.60178961704725
 30
0.0
 40
0.4242446153838841
100
AcDbArc
 50
0.0
 51
90.0
  0
ARC
  5
3AA
102
{ACAD_REACTORS
330
40A
330
40B
102
}
330
71
100
AcDbEntity
  8
0
  6
Continuous
 62
     2
100
AcDbCircle
 10
-67.17646159120665
 20
11.03727884784703
 30
0.0
 40
0.4242446153832802
100
AcDbArc
 50
270.0
 51
0.0
  0
ARC
  5
3AB
102
{ACAD_REACTORS
330
408
330
409
102
}
330
71
100
AcDbEntity
  8
0
  6
Continuous
 62
     2
100
AcDbCircle
 10
-57.95807770411514
 20
15.49912947054335
 30
0.0
 40
0.7717997786796362
100
AcDbArc
 50
321.8795802028439
 51
38.12041979715956
  0
ARC
  5
3AC
102
{ACAD_REACTORS
330
408
330
409
102
}
330
71
100
AcDbEntity
  8
0
  6
Continuous
 62
     2
100
AcDbCircle
 10
-57.75833766776896
 20
15.34239829242293
 30
0.0
 40
0.5179085730134326
100
AcDbArc
 50
218.1204197971517
 51
321.879580202857
  0
ARC
  5
3AD
102
{ACAD_REACTORS
330
406
330
407
102
}
330
71
100
AcDbEntity
  8
0
  6
Continuous
 62
     2
100
AcDbCircle
 10
-61.43834525672915
 20
12.13993899436903
 30
0.0
 40
1.458034083652004
100
AcDbArc
 50
297.548148175701
 51
62.45185182429896
  0
ARC
  5
3AE
102
{ACAD_REACTORS
330
406
330
407
102
}
330
71
100
AcDbEntity
  8
0
  6
Continuous
 62
     2
100
AcDbCircle
 10
-62.00022504039575
 20
12.13993899436903
 30
0.0
 40
1.458034083651493
100
AcDbArc
 50
117.5481481756627
 51
242.4518518243373
  0
ARC
  5
3AF
102
{ACAD_REACTORS
330
406
330
407
102
}
330
71
100
AcDbEntity
  8
0
  6
Continuous
 62
     2
100
AcDbCircle
 10
-61.71928514856245
 20
11.60136398406624
 30
0.0
 40
2.065479772208566
100
AcDbArc
 50
62.45185182430634
 51
117.5481481756666
  0
ARC
  5
3B0
102
{ACAD_REACTORS
330
406
330
407
102
}
330
71
100
AcDbEntity
  8
0
  6
Continuous
 62
     2
100
AcDbCircle
 10
-61.71928514856245
 20
12.67851400467234
 30
0.0
 40
2.065479772208518
100
AcDbArc
 50
242.4518518243401
 51
297.548148175687
  0
ARC
  5
3B1
102
{ACAD_REACTORS
330
408
330
409
102
}
330
71
100
AcDbEntity
  8
0
  6
Continuous
 62
     2
100
AcDbCircle
 10
-57.55859763142266
 20
15.49912947054335
 30
0.0
 40
0.7717997786796724
100
AcDbArc
 50
141.8795802028404
 51
218.1204197971561
  0
ARC
  5
3B2
102
{ACAD_REACTORS
330
408
330
409
102
}
330
71
100
AcDbEntity
  8
0
  6
Continuous
 62
     2
100
AcDbCircle
 10
-57.75833766776896
 20
15.65586064866383
 30
0.0
 40
0.5179085730135321
100
AcDbArc
 50
38.12041979714286
 51
141.8795802028484
  0
ARC
  5
3B3
102
{ACAD_REACTORS
330
40A
330
40B
102
}
330
71
100
AcDbEntity
  8
0
  6
Continuous
 62
     2
100
AcDbCircle
 10
-72.64977368192345
 20
11.03727884784703
 30
0.0
 40
0.4242446153828041
100
AcDbArc
 50
180.0
 51
270.0
  0
ARC
  5
3B4
102
{ACAD_REACTORS
330
40A
330
40B
102
}
330
71
100
AcDbEntity
  8
0
  6
Continuous
 62
     2
100
AcDbCircle
 10
-70.58004574416734
 20
13.17207764262895
 30
0.0
 40
0.315716923076593
100
AcDbArc
 50
0.0
 51
64.80558935146027
  0
ARC
  5
3B5
102
{ACAD_REACTORS
330
40A
330
40B
102
}
330
71
100
AcDbEntity
  8
0
  6
Continuous
 62
     2
100
AcDbCircle
 10
-70.05746129659235
 20
14.28290738869174
 30
0.0
 40
0.9118975235576114
100
AcDbArc
 50
115.1944106485283
 51
244.8055893514877
  0
ARC
  5
3B6
102
{ACAD_REACTORS
330
40A
330
40B
102
}
330
71
100
AcDbEntity
  8
0
  6
Continuous
 62
     2
100
AcDbCircle
 10
-72.05587900517696
 20
15.99776175381444
 30
0.0
 40
0.3157169230761987
100
AcDbArc
 50
90.0
 51
180.0
  0
ARC
  5
3B7
102
{ACAD_REACTORS
330
404
330
405
102
}
330
71
100
AcDbEntity
  8
0
  6
Continuous
 62
     2
100
AcDbCircle
 10
-64.71730042315994
 20
16.01006456233804
 30
0.0
 40
0.3528638246711111
100
AcDbArc
 50
270.0
 51
90.0
  0
ARC
  5
3B8
102
{ACAD_REACTORS
330
408
330
409
102
}
330
71
100
AcDbEntity
  8
0
  6
Continuous
 62
     2
100
AcDbCircle
 10
-57.97460967793415
 20
15.49912947054335
 30
0.0
 40
1.526904761905881
100
AcDbArc
 50
90.0
 51
270.0
  0
ARC
  5
3B9
102
{ACAD_REACTORS
330
40C
330
40D
102
}
330
71
100
AcDbEntity
  8
0
  6
Continuous
 62
     2
100
AcDbCircle
 10
-48.54761458523043
 20
12.02714863233413
 30
0.0
 40
1.63969512394022
100
AcDbArc
 50
90.0
 51
164.9381082228952
  0
ARC
  5
3BA
102
{ACAD_REACTORS
330
40C
330
40D
102
}
330
71
100
AcDbEntity
  8
0
  6
Continuous
 62
     2
100
AcDbCircle
 10
-48.96674242869204
 20
12.13993899436903
 30
0.0
 40
1.205656168393008
100
AcDbArc
 50
164.9381082229031
 51
195.0618917770957
  0
ARC
  5
3BB
102
{ACAD_REACTORS
330
40C
330
40D
102
}
330
71
100
AcDbEntity
  8
0
  6
Continuous
 62
     2
100
AcDbCircle
 10
-48.41687010391465
 20
11.93486756503054
 30
0.0
 40
0.5115800601960145
100
AcDbArc
 50
208.5214732576868
 51
246.6277221118447
  0
ARC
  5
3BC
102
{ACAD_REACTORS
330
40C
330
40D
102
}
330
71
100
AcDbEntity
  8
0
  6
Continuous
 62
     2
100
AcDbCircle
 10
-48.41687010391465
 20
12.34501042370803
 30
0.0
 40
0.5115800601944176
100
AcDbArc
 50
109.3371432194852
 51
151.4785267424214
  0
ARC
  5
3BD
102
{ACAD_REACTORS
330
40A
330
40B
102
}
330
71
100
AcDbEntity
  8
0
  6
Continuous
 62
     2
100
AcDbCircle
 10
-69.48033031864526
 20
12.59191438202825
 30
0.0
 40
0.315716923076792
100
AcDbArc
 50
180.0
 51
269.8110329574542
  0
ARC
  5
3BE
102
{ACAD_REACTORS
330
40A
330
40B
102
}
330
71
100
AcDbEntity
  8
0
  6
Continuous
 62
     2
100
AcDbCircle
 10
-69.47471418333524
 20
14.29474932959724
 30
0.0
 40
2.018561131933266
100
AcDbArc
 50
269.8110329575858
 51
90.18896704241416
  0
ARC
  5
3BF
102
{ACAD_REACTORS
330
40A
330
40B
102
}
330
71
100
AcDbEntity
  8
0
  6
Continuous
 62
     2
100
AcDbCircle
 10
-69.48033031864526
 20
15.39204898865955
 30
0.0
 40
0.315716923076792
100
AcDbArc
 50
180.0
 51
244.6259913216474
  0
ARC
  5
3C0
102
{ACAD_REACTORS
330
40A
330
40B
102
}
330
71
100
AcDbEntity
  8
0
  6
Continuous
 62
     2
100
AcDbCircle
 10
-69.48033031864526
 20
13.17376578872333
 30
0.0
 40
0.3157169230765344
100
AcDbArc
 50
115.3740086783517
 51
180.0
  0
ARC
  5
3C1
102
{ACAD_REACTORS
330
40E
330
40F
102
}
330
71
100
AcDbEntity
  8
0
  6
Continuous
 62
     2
100
AcDbCircle
 10
-64.65031606448335
 20
12.02714863233413
 30
0.0
 40
1.639695123940505
100
AcDbArc
 50
84.84185523036236
 51
164.9381082228866
  0
ARC
  5
3C2
102
{ACAD_REACTORS
330
40E
330
40F
102
}
330
71
100
AcDbEntity
  8
0
  6
Continuous
 62
     2
100
AcDbCircle
 10
-65.06944390794615
 20
12.13993899436903
 30
0.0
 40
1.205656168390943
100
AcDbArc
 50
164.9381082228766
 51
195.0618917770945
  0
ARC
  5
3C3
102
{ACAD_REACTORS
330
40E
330
40F
102
}
330
71
100
AcDbEntity
  8
0
  6
Continuous
 62
     2
100
AcDbCircle
 10
-64.65031606448335
 20
12.25272935640385
 30
0.0
 40
1.639695123939387
100
AcDbArc
 50
195.0618917770895
 51
275.1581447696395
  0
ARC
  5
3C4
102
{ACAD_REACTORS
330
40E
330
40F
102
}
330
71
100
AcDbEntity
  8
0
  6
Continuous
 62
     2
100
AcDbCircle
 10
-64.93917215921925
 20
15.45261993962544
 30
0.0
 40
4.852596863498143
100
AcDbArc
 50
275.1581447696249
 51
285.979991258353
  0
ARC
  5
3C5
102
{ACAD_REACTORS
330
40E
330
40F
102
}
330
71
100
AcDbEntity
  8
0
  6
Continuous
 62
     2
100
AcDbCircle
 10
-64.14221432508725
 20
12.13993899436903
 30
0.0
 40
0.9410597353332545
100
AcDbArc
 50
151.4785267422669
 51
208.5214732577058
  0
ARC
  5
3C6
102
{ACAD_REACTORS
330
40E
330
40F
102
}
330
71
100
AcDbEntity
  8
0
  6
Continuous
 62
     2
100
AcDbCircle
 10
-64.51957158316756
 20
12.34501042370803
 30
0.0
 40
0.5115800601948779
100
AcDbArc
 50
113.3722778881992
 51
151.4785267423044
  0
ARC
  5
3C7
102
{ACAD_REACTORS
330
40E
330
40F
102
}
330
71
100
AcDbEntity
  8
0
  6
Continuous
 62
     2
100
AcDbCircle
 10
-64.78129928412633
 20
10.72947262896085
 30
0.0
 40
2.227384008973478
100
AcDbArc
 50
58.06909105004051
 51
71.55192388186722
  0
ARC
  5
3C8
102
{ACAD_REACTORS
330
406
330
407
102
}
330
71
100
AcDbEntity
  8
0
  6
Continuous
 62
     2
100
AcDbCircle
 10
-61.71928514856245
 20
12.29667017248954
 30
0.0
 40
0.5179085730133032
100
AcDbArc
 50
38.1204197971475
 51
141.8795802028583
  0
ARC
  5
3C9
102
{ACAD_REACTORS
330
406
330
407
102
}
330
71
100
AcDbEntity
  8
0
  6
Continuous
 62
     2
100
AcDbCircle
 10
-61.51954511221635
 20
12.13993899436903
 30
0.0
 40
0.7717997786794665
100
AcDbArc
 50
141.879580202836
 51
218.1204197971688
  0
ARC
  5
3CA
102
{ACAD_REACTORS
330
406
330
407
102
}
330
71
100
AcDbEntity
  8
0
  6
Continuous
 62
     2
100
AcDbCircle
 10
-61.71928514856245
 20
11.98320781624904
 30
0.0
 40
0.5179085730137409
100
AcDbArc
 50
218.1204197971939
 51
321.8795802028002
  0
ARC
  5
3CB
102
{ACAD_REACTORS
330
406
330
407
102
}
330
71
100
AcDbEntity
  8
0
  6
Continuous
 62
     2
100
AcDbCircle
 10
-61.91902518490886
 20
12.13993899436903
 30
0.0
 40
0.7717997786796958
100
AcDbArc
 50
321.8795802028416
 51
38.12041979715359
  0
CIRCLE
  5
3CC
330
71
100
AcDbEntity
  8
1
  6
Continuous
 62
     2
100
AcDbCircle
 10
-64.57401829730625
 20
24.44453423244735
 30
0.0
 40
2.5
  0
CIRCLE
  5
3CD
330
71
100
AcDbEntity
  8
1
  6
Continuous
 62
     2
100
AcDbCircle
 10
-64.57401829730625
 20
24.44453423244735
 30
0.0
 40
1.249999999999915
  0
CIRCLE
  5
3CE
102
{ACAD_REACTORS
330
40A
330
40B
102
}
330
71
100
AcDbEntity
  8
0
  6
Continuous
 62
     2
100
AcDbCircle
 10
-70.03018803140594
 20
14.28290738869174
 30
0.0
 40
0.4709789327785074
  0
MTEXT
  5
3CF
330
71
100
AcDbEntity
  8
1
 62
     3
100
AcDbMText
 10
-234.7608008710471
 20
190.1108423877462
 30
0.0
 40
1.8
 41
0.0
 71
     7
 72
     1
  3
Weitergabe sowie Vervielf\U+00e4ltigung dieses Dokuments, Verwertung und \PMitteilung seines Inhalts sind verboten, soweit nicht ausdr\U+00fccklich gestattet. \PZuwiderhandlungen verpflichten zu Schadenersatz. Alle Rechte f\U+00fcr den Fall\Pder Pat
  1
ent-, Gebrauchsmuster- oder Designeintragung vorbehalten.
  7
CONVERTER_11
 73
     1
 44
0.99639855942377
  0
MTEXT
  5
3D0
330
71
100
AcDbEntity
  8
1
 62
     3
100
AcDbMText
 10
-51.90769103225895
 20
190.1108423877462
 30
0.0
 40
1.8
 41
0.0
 71
     7
 72
     1
  3
Transfer or duplication of this document as well as the utilisation or\Pcommunication of its content are not permitted unless express consent\Pis granted. Violations give rise to claims for damages. All rights reserved\Pin case of patent, utility mo
  1
del or design patent registrations.
  7
CONVERTER_11
 73
     1
 44
0.99639855942377
  0
TEXT
  5
3D1
330
71
100
AcDbEntity
  8
1
 62
     2
100
AcDbText
 10
-58.11067318386904
 20
4.56051701745582
 30
0.0
 40
1.8
  1
of
 41
0.9
  7
CONVERTER_11
100
AcDbText
  0
TEXT
  5
3D2
330
71
100
AcDbEntity
  8
1
 62
     2
100
AcDbText
 10
-76.31067318386886
 20
4.56051701745577
 30
0.0
 40
1.8
  1
page
 41
0.9
  7
CONVERTER_11
100
AcDbText
  0
TEXT
  5
3D3
330
71
100
AcDbEntity
  8
1
 62
     2
100
AcDbText
 10
-67.66440821352685
 20
4.52028557864543
 30
0.0
 40
1.8
  1
1
 41
0.9
  7
CONVERTER_11
100
AcDbText
  0
TEXT
  5
3D4
330
71
100
AcDbEntity
  8
1
 62
     2
100
AcDbText
 10
-52.87536437405535
 20
4.56953423244733
 30
0.0
 40
1.8
  1
1
 41
0.9
  7
CONVERTER_11
100
AcDbText
  0
MTEXT
  5
3D6
330
71
100
AcDbEntity
  8
1
 62
     7
100
AcDbMText
 10
5.66172907950664
 20
6.56953423244767
 30
0.0
 40
3.0
 41
0.0
 71
     5
 72
     1
  1
OTTA 25-M5
  7
CONVERTER_12
 73
     1
 44
1.20048019207683
  0
MTEXT
  5
3D7
330
71
100
AcDbEntity
  8
1
 62
     2
100
AcDbMText
 10
-39.91067318386894
 20
10.81953423244744
 30
0.0
 40
1.8
 41
0.0
 71
     1
 72
     1
  1
description
  7
CONVERTER_11
 73
     1
 44
1.20048019207683
  0
MTEXT
  5
3D8
330
71
100
AcDbEntity
  8
1
 62
     3
100
AcDbMText
 10
-51.11067318386895
 20
24.44453423244744
 30
0.0
 40
2.5
 41
0.0
 71
     5
 72
     1
  1
DIN A4
  7
CONVERTER_11
 73
     1
 44
1.20048019207683
  0
MTEXT
  5
3D9
330
71
100
AcDbEntity
  8
1
 62
     7
100
AcDbMText
 10
-237.2658686571179
 20
25.81953423244744
 30
0.0
 40
3.5
 41
0.0
 71
     5
 72
     1
  1
D
  7
CONVERTER_11
 73
     1
 44
1.20048019207683
  0
MTEXT
  5
3DA
330
71
100
AcDbEntity
  8
1
 62
     7
100
AcDbMText
 10
-237.2658686571179
 20
78.31953423244744
 30
0.0
 40
3.5
 41
0.0
 71
     5
 72
     1
  1
C
  7
CONVERTER_11
 73
     1
 44
1.20048019207683
  0
MTEXT
  5
3DB
330
71
100
AcDbEntity
  8
1
 62
     7
100
AcDbMText
 10
-237.2658686571179
 20
128.3195342324474
 30
0.0
 40
3.5
 41
0.0
 71
     5
 72
     1
  1
B
  7
CONVERTER_11
 73
     1
 44
1.20048019207683
  0
MTEXT
  5
3DC
330
71
100
AcDbEntity
  8
1
 62
     7
100
AcDbMText
 10
-237.2658686571179
 20
180.8195342324474
 30
0.0
 40
3.5
 41
0.0
 71
     5
 72
     1
  1
A
  7
CONVERTER_11
 73
     1
 44
1.20048019207683
  0
MTEXT
  5
3DD
330
71
100
AcDbEntity
  8
1
 62
     7
100
AcDbMText
 10
32.98413134288035
 20
0.81953423244732
 30
0.0
 40
3.5
 41
0.0
 71
     5
 72
     1
  1
6
  7
CONVERTER_11
 73
     1
 44
1.20048019207683
  0
MTEXT
  5
3DE
330
71
100
AcDbEntity
  8
1
 62
     7
100
AcDbMText
 10
-16.26586865711886
 20
0.81953423244732
 30
0.0
 40
3.5
 41
0.0
 71
     5
 72
     1
  1
5
  7
CONVERTER_11
 73
     1
 44
1.20048019207683
  0
MTEXT
  5
3DF
330
71
100
AcDbEntity
  8
1
 62
     7
100
AcDbMText
 10
-66.26586865711894
 20
0.81953423244732
 30
0.0
 40
3.5
 41
0.0
 71
     5
 72
     1
  1
4
  7
CONVERTER_11
 73
     1
 44
1.20048019207683
  0
MTEXT
  5
3E0
330
71
100
AcDbEntity
  8
1
 62
     7
100
AcDbMText
 10
-116.2658686571188
 20
0.81953423244732
 30
0.0
 40
3.5
 41
0.0
 71
     5
 72
     1
  1
3
  7
CONVERTER_11
 73
     1
 44
1.20048019207683
  0
MTEXT
  5
3E1
330
71
100
AcDbEntity
  8
1
 62
     7
100
AcDbMText
 10
-166.2658686571188
 20
0.81953423244732
 30
0.0
 40
3.5
 41
0.0
 71
     5
 72
     1
  1
2
  7
CONVERTER_11
 73
     1
 44
1.20048019207683
  0
MTEXT
  5
3E2
330
71
100
AcDbEntity
  8
1
 62
     7
100
AcDbMText
 10
-215.5158686571184
 20
0.81953423244732
 30
0.0
 40
3.5
 41
0.0
 71
     5
 72
     1
  1
1
  7
CONVERTER_11
 73
     1
 44
1.20048019207683
  0
MTEXT
  5
3E3
330
71
100
AcDbEntity
  8
1
 62
     7
100
AcDbMText
 10
54.73413134288015
 20
25.81953423244744
 30
0.0
 40
3.5
 41
0.0
 71
     5
 72
     1
  1
D
  7
CONVERTER_11
 73
     1
 44
1.20048019207683
  0
MTEXT
  5
3E4
330
71
100
AcDbEntity
  8
1
 62
     7
100
AcDbMText
 10
54.73413134288015
 20
128.3195342324493
 30
0.0
 40
3.5
 41
0.0
 71
     5
 72
     1
  1
B
  7
CONVERTER_11
 73
     1
 44
1.20048019207683
  0
MTEXT
  5
3E5
330
71
100
AcDbEntity
  8
1
 62
     7
100
AcDbMText
 10
54.73413134288015
 20
180.8195342324474
 30
0.0
 40
3.5
 41
0.0
 71
     5
 72
     1
  1
A
  7
CONVERTER_11
 73
     1
 44
1.20048019207683
  0
MTEXT
  5
3E6
330
71
100
AcDbEntity
  8
1
 62
     7
100
AcDbMText
 10
54.73413134288015
 20
78.31953423244934
 30
0.0
 40
3.5
 41
0.0
 71
     5
 72
     1
  1
C
  7
CONVERTER_11
 73
     1
 44
1.20048019207683
  0
MTEXT
  5
3E7
330
71
100
AcDbEntity
  8
1
 62
     2
100
AcDbMText
 10
-111.7486879089164
 20
16.06953423244735
 30
0.0
 40
2.0
 41
0.0
 71
     5
 72
     1
  1
General Information\P- Simplified representation\P- Document excluded from change process\P- Linear dimensions [mm]
  7
CONVERTER_11
 73
     1
 44
1.20048019207683
  0
TEXT
  5
3E8
330
71
100
AcDbEntity
  8
1
 62
     7
100
AcDbText
 10
-39.41067318386914
 20
13.11953423244734
 30
0.0
 40
2.5
  1
0790488
 41
0.81
  7
CONVERTER_12
100
AcDbText
  0
MTEXT
  5
3E9
330
71
100
AcDbEntity
  8
1
 62
     2
100
AcDbMText
 10
-39.81067318386886
 20
19.31953423244744
 30
0.0
 40
1.8
 41
0.0
 71
     1
 72
     1
  1
ident.-No.
  7
CONVERTER_11
 73
     1
 44
1.20048019207683
  0
MTEXT
  5
3EA
330
71
100
AcDbEntity
  8
1
 62
     2
100
AcDbMText
 10
44.41572306120386
 20
27.81953423244744
 30
0.0
 40
1.8
 41
0.0
 71
     1
 72
     1
  1
scale
  7
CONVERTER_11
 73
     1
 44
1.20048019207683
  0
MTEXT
  5
3EC
330
71
100
AcDbEntity
  8
1
 62
     3
100
AcDbMText
 10
47.77492720204346
 20
21.61953423244754
 30
0.0
 40
2.5
 41
0.0
 71
     8
 72
     1
  1
1:1
  7
CONVERTER_13
 73
     1
 44
1.32052821128451
  0
TEXT
  5
3ED
330
71
100
AcDbEntity
  8
1
 62
     7
100
AcDbText
 10
-39.81067318386886
 20
21.61953423244734
 30
0.0
 40
2.5
  1
00354895
 41
0.81
  7
CONVERTER_12
100
AcDbText
  0
MTEXT
  5
3EF
330
71
100
AcDbEntity
  8
1
 62
     2
100
AcDbMText
 10
-39.81067318386886
 20
27.81953423244744
 30
0.0
 40
1.8
 41
0.0
 71
     1
 72
     1
  1
document-No. / RI
  7
CONVERTER_14
 73
     1
 44
1.32052821128451
  0
TEXT
  5
3F0
330
71
100
AcDbEntity
  8
1
 62
     3
100
AcDbText
 10
-12.01067318386885
 20
13.11953423244734
 30
0.0
 40
2.5
  1
TECDOC 2D_Productdrawing
 41
0.81
  7
CONVERTER_12
100
AcDbText
  0
MTEXT
  5
3F1
330
71
100
AcDbEntity
  8
1
 62
     2
100
AcDbMText
 10
-12.01067318386885
 20
19.31953423244735
 30
0.0
 40
1.8
 41
0.0
 71
     1
 72
     1
  1
document-type
  7
CONVERTER_11
 73
     1
 44
1.20048019207683
  0
MTEXT
  5
3F2
330
71
100
AcDbEntity
  8
1
 62
     2
100
AcDbMText
 10
17.81572306120404
 20
27.81953423244735
 30
0.0
 40
1.8
 41
0.0
 71
     1
 72
     1
  1
date
  7
CONVERTER_11
 73
     1
 44
1.32052821128451
  0
TEXT
  5
3F3
330
71
100
AcDbEntity
  8
1
 62
     3
100
AcDbText
 10
17.81572306120404
 20
21.61953423244734
 30
0.0
 40
2.5
  1
14.12.2017
 41
0.81
  7
CONVERTER_12
100
AcDbText
  0
TEXT
  5
3F4
330
71
100
AcDbEntity
  8
1
 62
     7
100
AcDbText
 10
-19.78076096481306
 20
21.61953423244734
 30
0.0
 40
2.5
  1
02
 41
0.81
  7
CONVERTER_12
100
AcDbText
  0
TEXT
  5
3F5
330
71
100
AcDbEntity
  8
1
 62
     7
100
AcDbText
 10
-21.93712546185506
 20
21.61953423244734
 30
0.0
 40
2.5
  1
/
 41
0.9
  7
CONVERTER_11
100
AcDbText
  0
HATCH
  5
3F6
330
71
100
AcDbEntity
  8
1
  6
Continuous
 62
     2
100
AcDbHatch
 10
0.0
 20
0.0
 30
0.0
210
0.0
220
0.0
230
1.0
  2
_USER
 70
     0
 71
     1
 91
        1
 92
        1
 93
       12
 72
     1
 10
-59.64317247090776
 20
13.97222470863804
 11
-60.83596517307416
 21
13.97222470863804
 72
     1
 10
-60.83596517307416
 20
13.97222470863804
 11
-60.83596517307416
 21
15.10649681748186
 72
     1
 10
-60.83596517307416
 20
15.10649681748186
 11
-61.88562275098164
 21
15.10649681748186
 72
     1
 10
-61.88562275098164
 20
15.10649681748186
 11
-61.88562275098164
 21
13.97222470863804
 72
     1
 10
-61.88562275098164
 20
13.97222470863804
 11
-63.07841545314824
 21
13.97222470863804
 72
     1
 10
-63.07841545314824
 20
13.97222470863804
 11
-63.07841545314824
 21
17.02603423244923
 72
     1
 10
-63.07841545314824
 20
17.02603423244923
 11
-61.88562275098164
 21
17.02603423244923
 72
     1
 10
-61.88562275098164
 20
17.02603423244923
 11
-61.88562275098164
 21
15.95720089911464
 72
     1
 10
-61.88562275098164
 20
15.95720089911464
 11
-60.83596517307416
 21
15.95720089911464
 72
     1
 10
-60.83596517307416
 20
15.95720089911464
 11
-60.83596517307416
 21
17.02603423244923
 72
     1
 10
-60.83596517307416
 20
17.02603423244923
 11
-59.64317247090776
 21
17.02603423244923
 72
     1
 10
-59.64317247090776
 20
17.02603423244923
 11
-59.64317247090776
 21
13.97222470863804
 97
       12
330
363
330
364
330
34E
330
34D
330
34C
330
360
330
34B
330
361
330
362
330
34A
330
349
330
348
 75
     1
 76
     0
 52
45.0
 41
0.1
 77
     0
 78
     1
 53
45.0
 43
0.0
 44
0.0
 45
-0.0707106781186548
 46
0.0707106781186548
 79
     0
 98
        1
 10
0.0
 20
0.0
  0
HATCH
  5
3F7
330
71
100
AcDbEntity
  8
1
  6
Continuous
 62
     2
100
AcDbHatch
 10
0.0
 20
0.0
 30
0.0
210
0.0
220
0.0
230
1.0
  2
_USER
 70
     0
 71
     1
 91
        1
 92
        1
 93
       12
 72
     1
 10
-59.64317247090776
 20
13.97222470863804
 11
-60.83596517307416
 21
13.97222470863804
 72
     1
 10
-60.83596517307416
 20
13.97222470863804
 11
-60.83596517307416
 21
15.10649681748186
 72
     1
 10
-60.83596517307416
 20
15.10649681748186
 11
-61.88562275098164
 21
15.10649681748186
 72
     1
 10
-61.88562275098164
 20
15.10649681748186
 11
-61.88562275098164
 21
13.97222470863804
 72
     1
 10
-61.88562275098164
 20
13.97222470863804
 11
-63.07841545314824
 21
13.97222470863804
 72
     1
 10
-63.07841545314824
 20
13.97222470863804
 11
-63.07841545314824
 21
17.02603423244923
 72
     1
 10
-63.07841545314824
 20
17.02603423244923
 11
-61.88562275098164
 21
17.02603423244923
 72
     1
 10
-61.88562275098164
 20
17.02603423244923
 11
-61.88562275098164
 21
15.95720089911464
 72
     1
 10
-61.88562275098164
 20
15.95720089911464
 11
-60.83596517307416
 21
15.95720089911464
 72
     1
 10
-60.83596517307416
 20
15.95720089911464
 11
-60.83596517307416
 21
17.02603423244923
 72
     1
 10
-60.83596517307416
 20
17.02603423244923
 11
-59.64317247090776
 21
17.02603423244923
 72
     1
 10
-59.64317247090776
 20
17.02603423244923
 11
-59.64317247090776
 21
13.97222470863804
 97
       12
330
363
330
364
330
34E
330
34D
330
34C
330
360
330
34B
330
361
330
362
330
34A
330
349
330
348
 75
     1
 76
     0
 52
45.0
 41
0.1
 77
     0
 78
     1
 53
45.0
 43
0.0
 44
0.0
 45
-0.0707106781186548
 46
0.0707106781186548
 79
     0
 98
        1
 10
0.0
 20
0.0
  0
HATCH
  5
3F8
330
71
100
AcDbEntity
  8
1
  6
Continuous
 62
     2
100
AcDbHatch
 10
0.0
 20
0.0
 30
0.0
210
0.0
220
0.0
230
1.0
  2
_USER
 70
     0
 71
     1
 91
        1
 92
        1
 93
       10
 72
     1
 10
-57.40087312171946
 20
12.35806824606974
 11
-58.64137753197235
 21
13.66684375627483
 72
     1
 10
-58.64137753197235
 20
13.66684375627483
 11
-59.83417023413995
 21
13.66684375627483
 72
     1
 10
-59.83417023413995
 20
13.66684375627483
 11
-59.83417023413995
 21
10.61303423246375
 72
     1
 10
-59.83417023413995
 20
10.61303423246375
 11
-58.64137753197235
 21
10.61303423246375
 72
     1
 10
-58.64137753197235
 20
10.61303423246375
 11
-58.64137753197235
 21
11.92180974266833
 72
     1
 10
-58.64137753197235
 20
11.92180974266833
 11
-57.40087312171946
 21
10.61303423246375
 72
     1
 10
-57.40087312171946
 20
10.61303423246375
 11
-56.20808041955306
 21
10.61303423246375
 72
     1
 10
-56.20808041955306
 20
10.61303423246375
 11
-56.20808041955306
 21
13.66684375627483
 72
     1
 10
-56.20808041955306
 20
13.66684375627483
 11
-57.40087312171946
 21
13.66684375627483
 72
     1
 10
-57.40087312171946
 20
13.66684375627483
 11
-57.40087312171946
 21
12.35806824606974
 97
       10
330
371
330
341
330
340
330
343
330
36C
330
36D
330
342
330
36E
330
36F
330
370
 75
     1
 76
     0
 52
45.0
 41
0.1
 77
     0
 78
     1
 53
45.0
 43
0.0
 44
0.0
 45
-0.0707106781186548
 46
0.0707106781186548
 79
     0
 98
        1
 10
0.0
 20
0.0
  0
HATCH
  5
3F9
330
71
100
AcDbEntity
  8
1
  6
Continuous
 62
     2
100
AcDbHatch
 10
0.0
 20
0.0
 30
0.0
210
0.0
220
0.0
230
1.0
  2
_USER
 70
     0
 71
     1
 91
        1
 92
        1
 93
       10
 72
     1
 10
-57.40087312171946
 20
12.35806824606974
 11
-58.64137753197235
 21
13.66684375627483
 72
     1
 10
-58.64137753197235
 20
13.66684375627483
 11
-59.83417023413995
 21
13.66684375627483
 72
     1
 10
-59.83417023413995
 20
13.66684375627483
 11
-59.83417023413995
 21
10.61303423246375
 72
     1
 10
-59.83417023413995
 20
10.61303423246375
 11
-58.64137753197235
 21
10.61303423246375
 72
     1
 10
-58.64137753197235
 20
10.61303423246375
 11
-58.64137753197235
 21
11.92180974266833
 72
     1
 10
-58.64137753197235
 20
11.92180974266833
 11
-57.40087312171946
 21
10.61303423246375
 72
     1
 10
-57.40087312171946
 20
10.61303423246375
 11
-56.20808041955306
 21
10.61303423246375
 72
     1
 10
-56.20808041955306
 20
10.61303423246375
 11
-56.20808041955306
 21
13.66684375627483
 72
     1
 10
-56.20808041955306
 20
13.66684375627483
 11
-57.40087312171946
 21
13.66684375627483
 72
     1
 10
-57.40087312171946
 20
13.66684375627483
 11
-57.40087312171946
 21
12.35806824606974
 97
       10
330
371
330
341
330
340
330
343
330
36C
330
36D
330
342
330
36E
330
36F
330
370
 75
     1
 76
     0
 52
45.0
 41
0.1
 77
     0
 78
     1
 53
45.0
 43
0.0
 44
0.0
 45
-0.0707106781186548
 46
0.0707106781186548
 79
     0
 98
        1
 10
0.0
 20
0.0
  0
HATCH
  5
3FA
330
71
100
AcDbEntity
  8
1
  6
Continuous
 62
     2
100
AcDbHatch
 10
0.0
 20
0.0
 30
0.0
210
0.0
220
0.0
230
1.0
  2
_USER
 70
     0
 71
     1
 91
        1
 92
        1
 93
       10
 72
     1
 10
-52.15243430129974
 20
15.71725872224405
 11
-53.39293871155374
 21
17.02603423244923
 72
     1
 10
-53.39293871155374
 20
17.02603423244923
 11
-54.58573141372025
 21
17.02603423244923
 72
     1
 10
-54.58573141372025
 20
17.02603423244923
 11
-54.58573141372025
 21
13.97222470863804
 72
     1
 10
-54.58573141372025
 20
13.97222470863804
 11
-53.39293871155374
 21
13.97222470863804
 72
     1
 10
-53.39293871155374
 20
13.97222470863804
 11
-53.39293871155374
 21
15.28100021884274
 72
     1
 10
-53.39293871155374
 20
15.28100021884274
 11
-52.15243430129974
 21
13.97222470863804
 72
     1
 10
-52.15243430129974
 20
13.97222470863804
 11
-50.95964159913314
 21
13.97222470863804
 72
     1
 10
-50.95964159913314
 20
13.97222470863804
 11
-50.95964159913314
 21
17.02603423244923
 72
     1
 10
-50.95964159913314
 20
17.02603423244923
 11
-52.15243430129974
 21
17.02603423244923
 72
     1
 10
-52.15243430129974
 20
17.02603423244923
 11
-52.15243430129974
 21
15.71725872224405
 97
       10
330
376
330
33E
330
33D
330
377
330
33C
330
372
330
373
330
374
330
375
330
33F
 75
     1
 76
     0
 52
45.0
 41
0.1
 77
     0
 78
     1
 53
45.0
 43
0.0
 44
0.0
 45
-0.0707106781186548
 46
0.0707106781186548
 79
     0
 98
        1
 10
0.0
 20
0.0
  0
HATCH
  5
3FB
330
71
100
AcDbEntity
  8
1
  6
Continuous
 62
     2
100
AcDbHatch
 10
0.0
 20
0.0
 30
0.0
210
0.0
220
0.0
230
1.0
  2
_USER
 70
     0
 71
     1
 91
        1
 92
        1
 93
       10
 72
     1
 10
-52.15243430129974
 20
15.71725872224405
 11
-53.39293871155374
 21
17.02603423244923
 72
     1
 10
-53.39293871155374
 20
17.02603423244923
 11
-54.58573141372025
 21
17.02603423244923
 72
     1
 10
-54.58573141372025
 20
17.02603423244923
 11
-54.58573141372025
 21
13.97222470863804
 72
     1
 10
-54.58573141372025
 20
13.97222470863804
 11
-53.39293871155374
 21
13.97222470863804
 72
     1
 10
-53.39293871155374
 20
13.97222470863804
 11
-53.39293871155374
 21
15.28100021884274
 72
     1
 10
-53.39293871155374
 20
15.28100021884274
 11
-52.15243430129974
 21
13.97222470863804
 72
     1
 10
-52.15243430129974
 20
13.97222470863804
 11
-50.95964159913314
 21
13.97222470863804
 72
     1
 10
-50.95964159913314
 20
13.97222470863804
 11
-50.95964159913314
 21
17.02603423244923
 72
     1
 10
-50.95964159913314
 20
17.02603423244923
 11
-52.15243430129974
 21
17.02603423244923
 72
     1
 10
-52.15243430129974
 20
17.02603423244923
 11
-52.15243430129974
 21
15.71725872224405
 97
       10
330
376
330
33E
330
33D
330
377
330
33C
330
372
330
373
330
374
330
375
330
33F
 75
     1
 76
     0
 52
45.0
 41
0.1
 77
     0
 78
     1
 53
45.0
 43
0.0
 44
0.0
 45
-0.0707106781186548
 46
0.0707106781186548
 79
     0
 98
        1
 10
0.0
 20
0.0
  0
HATCH
  5
3FC
330
71
100
AcDbEntity
  8
1
  6
Continuous
 62
     2
100
AcDbHatch
 10
0.0
 20
0.0
 30
0.0
210
0.0
220
0.0
230
1.0
  2
_USER
 70
     0
 71
     1
 91
        1
 92
        1
 93
        8
 72
     1
 10
-53.24995451817924
 20
13.66684375627483
 11
-56.06494529529286
 21
13.66684375627483
 72
     1
 10
-56.06494529529286
 20
13.66684375627483
 11
-56.06494529529286
 21
12.88157845015124
 72
     1
 10
-56.06494529529286
 20
12.88157845015124
 11
-55.25384625781825
 21
12.88157845015124
 72
     1
 10
-55.25384625781825
 20
12.88157845015124
 11
-55.25384625781825
 21
10.61303423246375
 72
     1
 10
-55.25384625781825
 20
10.61303423246375
 11
-54.06105355565174
 21
10.61303423246375
 72
     1
 10
-54.06105355565174
 20
10.61303423246375
 11
-54.06105355565174
 21
12.88157845015124
 72
     1
 10
-54.06105355565174
 20
12.88157845015124
 11
-53.24995451817924
 21
12.88157845015124
 72
     1
 10
-53.24995451817924
 20
12.88157845015124
 11
-53.24995451817924
 21
13.66684375627483
 97
        8
330
338
330
378
330
337
330
379
330
37A
330
33B
330
33A
330
339
 75
     1
 76
     0
 52
45.0
 41
0.1
 77
     0
 78
     1
 53
45.0
 43
0.0
 44
0.0
 45
-0.0707106781186548
 46
0.0707106781186548
 79
     0
 98
        1
 10
0.0
 20
0.0
  0
HATCH
  5
3FD
330
71
100
AcDbEntity
  8
1
  6
Continuous
 62
     2
100
AcDbHatch
 10
0.0
 20
0.0
 30
0.0
210
0.0
220
0.0
230
1.0
  2
_USER
 70
     0
 71
     1
 91
        1
 92
        1
 93
        8
 72
     1
 10
-53.24995451817924
 20
13.66684375627483
 11
-56.06494529529286
 21
13.66684375627483
 72
     1
 10
-56.06494529529286
 20
13.66684375627483
 11
-56.06494529529286
 21
12.88157845015124
 72
     1
 10
-56.06494529529286
 20
12.88157845015124
 11
-55.25384625781825
 21
12.88157845015124
 72
     1
 10
-55.25384625781825
 20
12.88157845015124
 11
-55.25384625781825
 21
10.61303423246375
 72
     1
 10
-55.25384625781825
 20
10.61303423246375
 11
-54.06105355565174
 21
10.61303423246375
 72
     1
 10
-54.06105355565174
 20
10.61303423246375
 11
-54.06105355565174
 21
12.88157845015124
 72
     1
 10
-54.06105355565174
 20
12.88157845015124
 11
-53.24995451817924
 21
12.88157845015124
 72
     1
 10
-53.24995451817924
 20
12.88157845015124
 11
-53.24995451817924
 21
13.66684375627483
 97
        8
330
338
330
378
330
337
330
379
330
37A
330
33B
330
33A
330
339
 75
     1
 76
     0
 52
45.0
 41
0.1
 77
     0
 78
     1
 53
45.0
 43
0.0
 44
0.0
 45
-0.0707106781186548
 46
0.0707106781186548
 79
     0
 98
        1
 10
0.0
 20
0.0
  0
HATCH
  5
3FE
330
71
100
AcDbEntity
  8
1
  6
Continuous
 62
     2
100
AcDbHatch
 10
0.0
 20
0.0
 30
0.0
210
0.0
220
0.0
230
1.0
  2
_USER
 70
     0
 71
     1
 91
        2
 92
        1
 93
        8
 72
     1
 10
-51.11152706223226
 20
10.61303423246375
 11
-51.32300711570804
 21
11.15399477668163
 72
     1
 10
-51.32300711570804
 20
11.15399477668163
 11
-52.45544869238185
 21
11.15399477668163
 72
     1
 10
-52.45544869238185
 20
11.15399477668163
 11
-52.66692874585766
 21
10.61303423246375
 72
     1
 10
-52.66692874585766
 20
10.61303423246375
 11
-53.90743315611064
 21
10.61303423246375
 72
     1
 10
-53.90743315611064
 20
10.61303423246375
 11
-52.50948010917134
 21
13.66684375627483
 72
     1
 10
-52.50948010917134
 20
13.66684375627483
 11
-51.26897569891864
 21
13.66684375627483
 72
     1
 10
-51.26897569891864
 20
13.66684375627483
 11
-49.87102265197834
 21
10.61303423246375
 72
     1
 10
-49.87102265197834
 20
10.61303423246375
 11
-51.11152706223226
 21
10.61303423246375
 97
        8
330
37C
330
37D
330
334
330
37E
330
333
330
336
330
37B
330
335
 92
       16
 93
        3
 72
     1
 10
-52.18939314123685
 20
11.83455804198823
 11
-51.88922790404445
 21
12.60237300797493
 72
     1
 10
-51.88922790404445
 20
12.60237300797493
 11
-51.58906266685435
 21
11.83455804198823
 72
     1
 10
-51.58906266685435
 20
11.83455804198823
 11
-52.18939314123685
 21
11.83455804198823
 97
        3
330
332
330
380
330
37F
 75
     1
 76
     0
 52
45.0
 41
0.1
 77
     0
 78
     1
 53
45.0
 43
0.0
 44
0.0
 45
-0.0707106781186548
 46
0.0707106781186548
 79
     0
 98
        1
 10
0.0
 20
0.0
  0
HATCH
  5
3FF
330
71
100
AcDbEntity
  8
1
  6
Continuous
 62
     2
100
AcDbHatch
 10
0.0
 20
0.0
 30
0.0
210
0.0
220
0.0
230
1.0
  2
_USER
 70
     0
 71
     1
 91
        2
 92
        1
 93
        8
 72
     1
 10
-51.11152706223226
 20
10.61303423246375
 11
-51.32300711570804
 21
11.15399477668163
 72
     1
 10
-51.32300711570804
 20
11.15399477668163
 11
-52.45544869238185
 21
11.15399477668163
 72
     1
 10
-52.45544869238185
 20
11.15399477668163
 11
-52.66692874585766
 21
10.61303423246375
 72
     1
 10
-52.66692874585766
 20
10.61303423246375
 11
-53.90743315611064
 21
10.61303423246375
 72
     1
 10
-53.90743315611064
 20
10.61303423246375
 11
-52.50948010917134
 21
13.66684375627483
 72
     1
 10
-52.50948010917134
 20
13.66684375627483
 11
-51.26897569891864
 21
13.66684375627483
 72
     1
 10
-51.26897569891864
 20
13.66684375627483
 11
-49.87102265197834
 21
10.61303423246375
 72
     1
 10
-49.87102265197834
 20
10.61303423246375
 11
-51.11152706223226
 21
10.61303423246375
 97
        8
330
37C
330
37D
330
334
330
37E
330
333
330
336
330
37B
330
335
 92
       16
 93
        3
 72
     1
 10
-52.18939314123685
 20
11.83455804198823
 11
-51.88922790404445
 21
12.60237300797493
 72
     1
 10
-51.88922790404445
 20
12.60237300797493
 11
-51.58906266685435
 21
11.83455804198823
 72
     1
 10
-51.58906266685435
 20
11.83455804198823
 11
-52.18939314123685
 21
11.83455804198823
 97
        3
330
332
330
380
330
37F
 75
     1
 76
     0
 52
45.0
 41
0.1
 77
     0
 78
     1
 53
45.0
 43
0.0
 44
0.0
 45
-0.0707106781186548
 46
0.0707106781186548
 79
     0
 98
        1
 10
0.0
 20
0.0
  0
HATCH
  5
400
330
71
100
AcDbEntity
  8
1
  6
Continuous
 62
     2
100
AcDbHatch
 10
0.0
 20
0.0
 30
0.0
210
0.0
220
0.0
230
1.0
  2
_USER
 70
     0
 71
     1
 91
        1
 92
        1
 93
        4
 72
     1
 10
-49.48057864844634
 20
13.97222470863804
 11
-50.72108305869924
 21
13.97222470863804
 72
     1
 10
-50.72108305869924
 20
13.97222470863804
 11
-50.72108305869924
 21
17.02603423244923
 72
     1
 10
-50.72108305869924
 20
17.02603423244923
 11
-49.48057864844634
 21
17.02603423244923
 72
     1
 10
-49.48057864844634
 20
17.02603423244923
 11
-49.48057864844634
 21
13.97222470863804
 97
        4
330
32F
330
331
330
381
330
330
 75
     1
 76
     0
 52
45.0
 41
0.1
 77
     0
 78
     1
 53
45.0
 43
0.0
 44
0.0
 45
-0.0707106781186548
 46
0.0707106781186548
 79
     0
 98
        1
 10
0.0
 20
0.0
  0
HATCH
  5
401
330
71
100
AcDbEntity
  8
1
  6
Continuous
 62
     2
100
AcDbHatch
 10
0.0
 20
0.0
 30
0.0
210
0.0
220
0.0
230
1.0
  2
_USER
 70
     0
 71
     1
 91
        1
 92
        1
 93
        4
 72
     1
 10
-49.48057864844634
 20
13.97222470863804
 11
-50.72108305869924
 21
13.97222470863804
 72
     1
 10
-50.72108305869924
 20
13.97222470863804
 11
-50.72108305869924
 21
17.02603423244923
 72
     1
 10
-50.72108305869924
 20
17.02603423244923
 11
-49.48057864844634
 21
17.02603423244923
 72
     1
 10
-49.48057864844634
 20
17.02603423244923
 11
-49.48057864844634
 21
13.97222470863804
 97
        4
330
32F
330
331
330
381
330
330
 75
     1
 76
     0
 52
45.0
 41
0.1
 77
     0
 78
     1
 53
45.0
 43
0.0
 44
0.0
 45
-0.0707106781186548
 46
0.0707106781186548
 79
     0
 98
        1
 10
0.0
 20
0.0
  0
HATCH
  5
402
330
71
100
AcDbEntity
  8
1
  6
Continuous
 62
     2
100
AcDbHatch
 10
0.0
 20
0.0
 30
0.0
210
0.0
220
0.0
230
1.0
  2
_USER
 70
     0
 71
     1
 91
        1
 92
        1
 93
       12
 72
     1
 10
-45.25809248277554
 20
17.02603423244923
 11
-46.56062211354205
 21
15.55308370241303
 72
     1
 10
-46.56062211354205
 20
15.55308370241303
 11
-45.16266906660175
 21
13.97222470863804
 72
     1
 10
-45.16266906660175
 20
13.97222470863804
 11
-46.56539328435005
 21
13.97222470863804
 72
     1
 10
-46.56539328435005
 20
13.97222470863804
 11
-47.26198422241555
 21
14.75995649393175
 72
     1
 10
-47.26198422241555
 20
14.75995649393175
 11
-47.95857516048125
 21
13.97222470863804
 72
     1
 10
-47.95857516048125
 20
13.97222470863804
 11
-49.36129937822946
 21
13.97222470863804
 72
     1
 10
-49.36129937822946
 20
13.97222470863804
 11
-47.96334633128916
 21
15.55308370241303
 72
     1
 10
-47.96334633128916
 20
15.55308370241303
 11
-49.26587596205664
 21
17.02603423244923
 72
     1
 10
-49.26587596205664
 20
17.02603423244923
 11
-47.86315174430735
 21
17.02603423244923
 72
     1
 10
-47.86315174430735
 20
17.02603423244923
 11
-47.26198422241555
 21
16.34621091089375
 72
     1
 10
-47.26198422241555
 20
16.34621091089375
 11
-46.66081670052276
 21
17.02603423244923
 72
     1
 10
-46.66081670052276
 20
17.02603423244923
 11
-45.25809248277554
 21
17.02603423244923
 97
       12
330
32A
330
329
330
328
330
385
330
386
330
382
330
383
330
32E
330
32D
330
32C
330
32B
330
384
 75
     1
 76
     0
 52
45.0
 41
0.1
 77
     0
 78
     1
 53
45.0
 43
0.0
 44
0.0
 45
-0.0707106781186548
 46
0.0707106781186548
 79
     0
 98
        1
 10
0.0
 20
0.0
  0
HATCH
  5
403
330
71
100
AcDbEntity
  8
1
  6
Continuous
 62
     2
100
AcDbHatch
 10
0.0
 20
0.0
 30
0.0
210
0.0
220
0.0
230
1.0
  2
_USER
 70
     0
 71
     1
 91
        1
 92
        1
 93
       12
 72
     1
 10
-45.25809248277554
 20
17.02603423244923
 11
-46.56062211354205
 21
15.55308370241303
 72
     1
 10
-46.56062211354205
 20
15.55308370241303
 11
-45.16266906660175
 21
13.97222470863804
 72
     1
 10
-45.16266906660175
 20
13.97222470863804
 11
-46.56539328435005
 21
13.97222470863804
 72
     1
 10
-46.56539328435005
 20
13.97222470863804
 11
-47.26198422241555
 21
14.75995649393175
 72
     1
 10
-47.26198422241555
 20
14.75995649393175
 11
-47.95857516048125
 21
13.97222470863804
 72
     1
 10
-47.95857516048125
 20
13.97222470863804
 11
-49.36129937822946
 21
13.97222470863804
 72
     1
 10
-49.36129937822946
 20
13.97222470863804
 11
-47.96334633128916
 21
15.55308370241303
 72
     1
 10
-47.96334633128916
 20
15.55308370241303
 11
-49.26587596205664
 21
17.02603423244923
 72
     1
 10
-49.26587596205664
 20
17.02603423244923
 11
-47.86315174430735
 21
17.02603423244923
 72
     1
 10
-47.86315174430735
 20
17.02603423244923
 11
-47.26198422241555
 21
16.34621091089375
 72
     1
 10
-47.26198422241555
 20
16.34621091089375
 11
-46.66081670052276
 21
17.02603423244923
 72
     1
 10
-46.66081670052276
 20
17.02603423244923
 11
-45.25809248277554
 21
17.02603423244923
 97
       12
330
32A
330
329
330
328
330
385
330
386
330
382
330
383
330
32E
330
32D
330
32C
330
32B
330
384
 75
     1
 76
     0
 52
45.0
 41
0.1
 77
     0
 78
     1
 53
45.0
 43
0.0
 44
0.0
 45
-0.0707106781186548
 46
0.0707106781186548
 79
     0
 98
        1
 10
0.0
 20
0.0
  0
HATCH
  5
404
330
71
100
AcDbEntity
  8
1
  6
Continuous
 62
     2
100
AcDbHatch
 10
0.0
 20
0.0
 30
0.0
210
0.0
220
0.0
230
1.0
  2
_USER
 70
     0
 71
     1
 91
        2
 92
        1
 93
        6
 72
     1
 10
-64.27582789692156
 20
14.91530294978185
 11
-65.03459548470184
 21
14.91530294978185
 72
     1
 10
-65.03459548470184
 20
14.91530294978185
 11
-65.03459548470184
 21
13.97222470863804
 72
     1
 10
-65.03459548470184
 20
13.97222470863804
 11
-66.27509989495596
 21
13.97222470863804
 72
     1
 10
-66.27509989495596
 20
13.97222470863804
 11
-66.27509989495596
 21
17.02603423244923
 72
     1
 10
-66.27509989495596
 20
17.02603423244923
 11
-64.27582789692156
 21
17.02603423244923
 72
     2
 10
-64.27582789692156
 20
15.97066859111556
 40
1.05536564133371
 50
270.0
 51
450.0
 73
     0
 97
        6
330
352
330
351
330
35E
330
35D
330
353
330
3A3
 92
       16
 93
        4
 72
     2
 10
-64.71730042315994
 20
16.01006456233804
 40
0.3528638246711111
 50
270.0
 51
450.0
 73
     1
 72
     1
 10
-64.71730042315994
 20
16.36292838700913
 11
-65.03459548470184
 21
16.36292838700913
 72
     1
 10
-65.03459548470184
 20
16.36292838700913
 11
-65.03459548470184
 21
15.65720073766693
 72
     1
 10
-65.03459548470184
 20
15.65720073766693
 11
-64.71730042315994
 21
15.65720073766693
 97
        4
330
3B7
330
34F
330
35F
330
350
 75
     1
 76
     0
 52
45.0
 41
0.1
 77
     0
 78
     1
 53
45.0
 43
0.0
 44
0.0
 45
-0.0707106781186548
 46
0.0707106781186548
 79
     0
 98
        1
 10
0.0
 20
0.0
  0
HATCH
  5
405
330
71
100
AcDbEntity
  8
1
  6
Continuous
 62
     2
100
AcDbHatch
 10
0.0
 20
0.0
 30
0.0
210
0.0
220
0.0
230
1.0
  2
_USER
 70
     0
 71
     1
 91
        2
 92
        1
 93
        6
 72
     1
 10
-64.27582789692156
 20
14.91530294978185
 11
-65.03459548470184
 21
14.91530294978185
 72
     1
 10
-65.03459548470184
 20
14.91530294978185
 11
-65.03459548470184
 21
13.97222470863804
 72
     1
 10
-65.03459548470184
 20
13.97222470863804
 11
-66.27509989495596
 21
13.97222470863804
 72
     1
 10
-66.27509989495596
 20
13.97222470863804
 11
-66.27509989495596
 21
17.02603423244923
 72
     1
 10
-66.27509989495596
 20
17.02603423244923
 11
-64.27582789692156
 21
17.02603423244923
 72
     2
 10
-64.27582789692156
 20
15.97066859111556
 40
1.05536564133371
 50
270.0
 51
450.0
 73
     0
 97
        6
330
352
330
351
330
35E
330
35D
330
353
330
3A3
 92
       16
 93
        4
 72
     2
 10
-64.71730042315994
 20
16.01006456233804
 40
0.3528638246711111
 50
270.0
 51
450.0
 73
     1
 72
     1
 10
-64.71730042315994
 20
16.36292838700913
 11
-65.03459548470184
 21
16.36292838700913
 72
     1
 10
-65.03459548470184
 20
16.36292838700913
 11
-65.03459548470184
 21
15.65720073766693
 72
     1
 10
-65.03459548470184
 20
15.65720073766693
 11
-64.71730042315994
 21
15.65720073766693
 97
        4
330
3B7
330
34F
330
35F
330
350
 75
     1
 76
     0
 52
45.0
 41
0.1
 77
     0
 78
     1
 53
45.0
 43
0.0
 44
0.0
 45
-0.0707106781186548
 46
0.0707106781186548
 79
     0
 98
        1
 10
0.0
 20
0.0
  0
HATCH
  5
406
330
71
100
AcDbEntity
  8
1
  6
Continuous
 62
     2
100
AcDbHatch
 10
0.0
 20
0.0
 30
0.0
210
0.0
220
0.0
230
1.0
  2
_USER
 70
     0
 71
     1
 91
        2
 92
        1
 93
        4
 72
     2
 10
-61.71928514856245
 20
11.60136398406624
 40
2.065479772208566
 50
62.45185182430634
 51
117.5481481756666
 73
     1
 72
     2
 10
-62.00022504039575
 20
12.13993899436903
 40
1.458034083651493
 50
117.5481481756627
 51
242.4518518243373
 73
     1
 72
     2
 10
-61.71928514856245
 20
12.67851400467234
 40
2.065479772208518
 50
242.4518518243401
 51
297.548148175687
 73
     1
 72
     2
 10
-61.43834525672915
 20
12.13993899436903
 40
1.458034083652004
 50
297.548148175701
 51
422.451851824299
 73
     1
 97
        4
330
3AF
330
3AE
330
3B0
330
3AD
 92
       16
 93
        4
 72
     2
 10
-61.91902518490886
 20
12.13993899436903
 40
0.7717997786796958
 50
321.8795802028416
 51
398.1204197971536
 73
     1
 72
     2
 10
-61.71928514856245
 20
12.29667017248954
 40
0.5179085730133032
 50
38.1204197971475
 51
141.8795802028583
 73
     1
 72
     2
 10
-61.51954511221635
 20
12.13993899436903
 40
0.7717997786794665
 50
141.879580202836
 51
218.1204197971688
 73
     1
 72
     2
 10
-61.71928514856245
 20
11.98320781624904
 40
0.5179085730137409
 50
218.1204197971939
 51
321.8795802028002
 73
     1
 97
        4
330
3CB
330
3C8
330
3C9
330
3CA
 75
     1
 76
     0
 52
45.0
 41
0.1
 77
     0
 78
     1
 53
45.0
 43
0.0
 44
0.0
 45
-0.0707106781186548
 46
0.0707106781186548
 79
     0
 98
        1
 10
0.0
 20
0.0
  0
HATCH
  5
407
330
71
100
AcDbEntity
  8
1
  6
Continuous
 62
     2
100
AcDbHatch
 10
0.0
 20
0.0
 30
0.0
210
0.0
220
0.0
230
1.0
  2
_USER
 70
     0
 71
     1
 91
        2
 92
        1
 93
        4
 72
     2
 10
-61.71928514856245
 20
11.60136398406624
 40
2.065479772208566
 50
62.45185182430634
 51
117.5481481756666
 73
     1
 72
     2
 10
-62.00022504039575
 20
12.13993899436903
 40
1.458034083651493
 50
117.5481481756627
 51
242.4518518243373
 73
     1
 72
     2
 10
-61.71928514856245
 20
12.67851400467234
 40
2.065479772208518
 50
242.4518518243401
 51
297.548148175687
 73
     1
 72
     2
 10
-61.43834525672915
 20
12.13993899436903
 40
1.458034083652004
 50
297.548148175701
 51
422.451851824299
 73
     1
 97
        4
330
3AF
330
3AE
330
3B0
330
3AD
 92
       16
 93
        4
 72
     2
 10
-61.91902518490886
 20
12.13993899436903
 40
0.7717997786796958
 50
321.8795802028416
 51
398.1204197971536
 73
     1
 72
     2
 10
-61.71928514856245
 20
12.29667017248954
 40
0.5179085730133032
 50
38.1204197971475
 51
141.8795802028583
 73
     1
 72
     2
 10
-61.51954511221635
 20
12.13993899436903
 40
0.7717997786794665
 50
141.879580202836
 51
218.1204197971688
 73
     1
 72
     2
 10
-61.71928514856245
 20
11.98320781624904
 40
0.5179085730137409
 50
218.1204197971939
 51
321.8795802028002
 73
     1
 97
        4
330
3CB
330
3C8
330
3C9
330
3CA
 75
     1
 76
     0
 52
45.0
 41
0.1
 77
     0
 78
     1
 53
45.0
 43
0.0
 44
0.0
 45
-0.0707106781186548
 46
0.0707106781186548
 79
     0
 98
        1
 10
0.0
 20
0.0
  0
HATCH
  5
408
330
71
100
AcDbEntity
  8
1
  6
Continuous
 62
     2
100
AcDbHatch
 10
0.0
 20
0.0
 30
0.0
210
0.0
220
0.0
230
1.0
  2
_USER
 70
     0
 71
     1
 91
        2
 92
        1
 93
       12
 72
     1
 10
-54.82428995415316
 20
16.32802062700625
 11
-56.16021778058084
 21
16.32802062700625
 72
     1
 10
-56.16021778058084
 20
16.32802062700625
 11
-56.16021778058084
 21
15.84813627326454
 72
     1
 10
-56.16021778058084
 20
15.84813627326454
 11
-54.82428995415316
 21
15.84813627326454
 72
     1
 10
-54.82428995415316
 20
15.84813627326454
 11
-54.82428995415316
 21
15.15012266782225
 72
     1
 10
-54.82428995415316
 20
15.15012266782225
 11
-56.16021778058084
 21
15.15012266782225
 72
     1
 10
-56.16021778058084
 20
15.15012266782225
 11
-56.16021778058084
 21
14.67023831408054
 72
     1
 10
-56.16021778058084
 20
14.67023831408054
 11
-54.82428995415316
 21
14.67023831408054
 72
     1
 10
-54.82428995415316
 20
14.67023831408054
 11
-54.82428995415316
 21
13.97222470863804
 72
     1
 10
-54.82428995415316
 20
13.97222470863804
 11
-57.97460967793415
 21
13.97222470863804
 72
     2
 10
-57.97460967793415
 20
15.49912947054335
 40
1.526904761905881
 50
90.0
 51
270.0
 73
     0
 72
     1
 10
-57.97460967793415
 20
17.02603423244923
 11
-54.82428995415316
 21
17.02603423244923
 72
     1
 10
-54.82428995415316
 20
17.02603423244923
 11
-54.82428995415316
 21
16.32802062700625
 97
       12
330
366
330
3B8
330
367
330
368
330
369
330
36A
330
347
330
346
330
345
330
344
330
36B
330
365
 92
       16
 93
        4
 72
     2
 10
-57.75833766776896
 20
15.65586064866383
 40
0.5179085730135321
 50
38.12041979714286
 51
141.8795802028484
 73
     1
 72
     2
 10
-57.55859763142266
 20
15.49912947054335
 40
0.7717997786796724
 50
141.8795802028404
 51
218.1204197971561
 73
     1
 72
     2
 10
-57.75833766776896
 20
15.34239829242293
 40
0.5179085730134326
 50
218.1204197971517
 51
321.879580202857
 73
     1
 72
     2
 10
-57.95807770411514
 20
15.49912947054335
 40
0.7717997786796362
 50
321.8795802028439
 51
398.1204197971596
 73
     1
 97
        4
330
3B2
330
3B1
330
3AC
330
3AB
 75
     1
 76
     0
 52
45.0
 41
0.1
 77
     0
 78
     1
 53
45.0
 43
0.0
 44
0.0
 45
-0.0707106781186548
 46
0.0707106781186548
 79
     0
 98
        1
 10
0.0
 20
0.0
  0
HATCH
  5
409
330
71
100
AcDbEntity
  8
1
  6
Continuous
 62
     2
100
AcDbHatch
 10
0.0
 20
0.0
 30
0.0
210
0.0
220
0.0
230
1.0
  2
_USER
 70
     0
 71
     1
 91
        2
 92
        1
 93
       12
 72
     1
 10
-54.82428995415316
 20
16.32802062700625
 11
-56.16021778058084
 21
16.32802062700625
 72
     1
 10
-56.16021778058084
 20
16.32802062700625
 11
-56.16021778058084
 21
15.84813627326454
 72
     1
 10
-56.16021778058084
 20
15.84813627326454
 11
-54.82428995415316
 21
15.84813627326454
 72
     1
 10
-54.82428995415316
 20
15.84813627326454
 11
-54.82428995415316
 21
15.15012266782225
 72
     1
 10
-54.82428995415316
 20
15.15012266782225
 11
-56.16021778058084
 21
15.15012266782225
 72
     1
 10
-56.16021778058084
 20
15.15012266782225
 11
-56.16021778058084
 21
14.67023831408054
 72
     1
 10
-56.16021778058084
 20
14.67023831408054
 11
-54.82428995415316
 21
14.67023831408054
 72
     1
 10
-54.82428995415316
 20
14.67023831408054
 11
-54.82428995415316
 21
13.97222470863804
 72
     1
 10
-54.82428995415316
 20
13.97222470863804
 11
-57.97460967793415
 21
13.97222470863804
 72
     2
 10
-57.97460967793415
 20
15.49912947054335
 40
1.526904761905881
 50
90.0
 51
270.0
 73
     0
 72
     1
 10
-57.97460967793415
 20
17.02603423244923
 11
-54.82428995415316
 21
17.02603423244923
 72
     1
 10
-54.82428995415316
 20
17.02603423244923
 11
-54.82428995415316
 21
16.32802062700625
 97
       12
330
366
330
3B8
330
367
330
368
330
369
330
36A
330
347
330
346
330
345
330
344
330
36B
330
365
 92
       16
 93
        4
 72
     2
 10
-57.75833766776896
 20
15.65586064866383
 40
0.5179085730135321
 50
38.12041979714286
 51
141.8795802028484
 73
     1
 72
     2
 10
-57.55859763142266
 20
15.49912947054335
 40
0.7717997786796724
 50
141.8795802028404
 51
218.1204197971561
 73
     1
 72
     2
 10
-57.75833766776896
 20
15.34239829242293
 40
0.5179085730134326
 50
218.1204197971517
 51
321.879580202857
 73
     1
 72
     2
 10
-57.95807770411514
 20
15.49912947054335
 40
0.7717997786796362
 50
321.8795802028439
 51
398.1204197971596
 73
     1
 97
        4
330
3B2
330
3B1
330
3AC
330
3AB
 75
     1
 76
     0
 52
45.0
 41
0.1
 77
     0
 78
     1
 53
45.0
 43
0.0
 44
0.0
 45
-0.0707106781186548
 46
0.0707106781186548
 79
     0
 98
        1
 10
0.0
 20
0.0
  0
HATCH
  5
40A
330
71
100
AcDbEntity
  8
1
  6
Continuous
 62
     2
100
AcDbHatch
 10
0.0
 20
0.0
 30
0.0
210
0.0
220
0.0
230
1.0
  2
_USER
 70
     0
 71
     1
 91
        4
 92
        1
 93
        8
 72
     1
 10
-66.75221697582276
 20
16.60178961704725
 11
-66.75221697582276
 21
11.03727884784703
 72
     2
 10
-67.17646159120665
 20
11.03727884784703
 40
0.4242446153832802
 50
0.0
 51
90.0
 73
     0
 72
     1
 10
-67.17646159120665
 20
10.61303423246375
 11
-72.64977368192345
 21
10.61303423246375
 72
     2
 10
-72.64977368192345
 20
11.03727884784703
 40
0.4242446153828041
 50
90.0
 51
180.0
 73
     0
 72
     1
 10
-73.07401829730625
 20
11.03727884784703
 11
-73.07401829730625
 21
16.60178961704725
 72
     2
 10
-72.64977368192345
 20
16.60178961704725
 40
0.4242446153837918
 50
180.0
 51
270.0
 73
     0
 72
     1
 10
-72.64977368192345
 20
17.02603423243104
 11
-67.17646159120665
 21
17.02603423243104
 72
     2
 10
-67.17646159120665
 20
16.60178961704725
 40
0.4242446153838841
 50
270.0
 51
360.0
 73
     0
 97
        8
330
35A
330
3A8
330
35B
330
3B3
330
358
330
3AA
330
359
330
3A9
 92
       16
 93
        1
 72
     2
 10
-70.03018803140594
 20
14.28290738869174
 40
0.4709789327785074
 50
0.0
 51
360.0
 73
     1
 97
        1
330
3CE
 92
       16
 93
        8
 72
     2
 10
-69.48033031864526
 20
13.17376578872333
 40
0.3157169230765344
 50
115.3740086783517
 51
180.0
 73
     1
 72
     1
 10
-69.79604724172205
 20
13.17376578872333
 11
-69.79604724172205
 21
12.59191438202825
 72
     2
 10
-69.48033031864526
 20
12.59191438202825
 40
0.315716923076792
 50
180.0
 51
269.8110329574542
 73
     1
 72
     2
 10
-69.47471418333524
 20
14.29474932959724
 40
2.018561131933266
 50
269.8110329575858
 51
450.1889670424142
 73
     1
 72
     2
 10
-69.48033031864526
 20
15.99758427716634
 40
0.3157169230760746
 50
90.18896704254594
 51
180.0
 73
     1
 72
     1
 10
-69.79604724172205
 20
15.99758427716634
 11
-69.79604724172205
 21
15.39204898865955
 72
     2
 10
-69.48033031864526
 20
15.39204898865955
 40
0.315716923076792
 50
180.0
 51
244.6259913216474
 73
     1
 72
     2
 10
-70.00637301673314
 20
14.28290738869174
 40
0.9118481501444573
 50
295.3740086781924
 51
424.6259913218234
 73
     0
 97
        8
330
3C0
330
321
330
3BD
330
3BE
330
39C
330
320
330
3BF
330
39B
 92
       16
 93
       12
 72
     2
 10
-72.05587900517696
 20
11.64130671109734
 40
0.3157169230756836
 50
180.0
 51
270.0
 73
     1
 72
     1
 10
-72.05587900517696
 20
11.32558978802064
 11
-70.58004574416734
 21
11.32558978802064
 72
     2
 10
-70.58004574416734
 20
11.64130671109734
 40
0.3157169230766996
 50
270.0
 51
360.0
 73
     1
 72
     1
 10
-70.26432882109074
 20
11.64130671109734
 11
-70.26432882109074
 21
13.17207764262895
 72
     2
 10
-70.58004574416734
 20
13.17207764262895
 40
0.315716923076593
 50
0.0
 51
64.80558935146027
 73
     1
 72
     2
 10
-70.05746129659235
 20
14.28290738869174
 40
0.9118975235576114
 50
115.1944106485123
 51
244.8055893514717
 73
     0
 72
     2
 10
-70.58004574416734
 20
15.39373713475393
 40
0.3157169230761203
 50
295.1944106485397
 51
360.0
 73
     1
 72
     1
 10
-70.26432882109074
 20
15.39373713475393
 11
-70.26432882109074
 21
15.99776175381444
 72
     2
 10
-70.58004574416734
 20
15.99776175381444
 40
0.315716923076593
 50
0.0
 51
90.0
 73
     1
 72
     1
 10
-70.58004574416734
 20
16.31347867689064
 11
-72.05587900517696
 21
16.31347867689064
 72
     2
 10
-72.05587900517696
 20
15.99776175381444
 40
0.3157169230761987
 50
90.0
 51
180.0
 73
     1
 72
     1
 10
-72.37159592825265
 20
15.99776175381444
 11
-72.37159592825265
 21
11.64130671109734
 97
       12
330
3A4
330
35C
330
3A7
330
357
330
3B4
330
3B5
330
3A6
330
356
330
3A5
330
355
330
3B6
330
354
 75
     1
 76
     0
 52
45.0
 41
0.1
 77
     0
 78
     1
 53
45.0
 43
0.0
 44
0.0
 45
-0.0707106781186548
 46
0.0707106781186548
 79
     0
 98
        1
 10
0.0
 20
0.0
  0
HATCH
  5
40B
330
71
100
AcDbEntity
  8
1
  6
Continuous
 62
     2
100
AcDbHatch
 10
0.0
 20
0.0
 30
0.0
210
0.0
220
0.0
230
1.0
  2
_USER
 70
     0
 71
     1
 91
        4
 92
        1
 93
        8
 72
     1
 10
-66.75221697582276
 20
16.60178961704725
 11
-66.75221697582276
 21
11.03727884784703
 72
     2
 10
-67.17646159120665
 20
11.03727884784703
 40
0.4242446153832802
 50
0.0
 51
90.0
 73
     0
 72
     1
 10
-67.17646159120665
 20
10.61303423246375
 11
-72.64977368192345
 21
10.61303423246375
 72
     2
 10
-72.64977368192345
 20
11.03727884784703
 40
0.4242446153828041
 50
90.0
 51
180.0
 73
     0
 72
     1
 10
-73.07401829730625
 20
11.03727884784703
 11
-73.07401829730625
 21
16.60178961704725
 72
     2
 10
-72.64977368192345
 20
16.60178961704725
 40
0.4242446153837918
 50
180.0
 51
270.0
 73
     0
 72
     1
 10
-72.64977368192345
 20
17.02603423243104
 11
-67.17646159120665
 21
17.02603423243104
 72
     2
 10
-67.17646159120665
 20
16.60178961704725
 40
0.4242446153838841
 50
270.0
 51
360.0
 73
     0
 97
        8
330
35A
330
3A8
330
35B
330
3B3
330
358
330
3AA
330
359
330
3A9
 92
       16
 93
        1
 72
     2
 10
-70.03018803140594
 20
14.28290738869174
 40
0.4709789327785074
 50
0.0
 51
360.0
 73
     1
 97
        1
330
3CE
 92
       16
 93
        8
 72
     2
 10
-69.48033031864526
 20
13.17376578872333
 40
0.3157169230765344
 50
115.3740086783517
 51
180.0
 73
     1
 72
     1
 10
-69.79604724172205
 20
13.17376578872333
 11
-69.79604724172205
 21
12.59191438202825
 72
     2
 10
-69.48033031864526
 20
12.59191438202825
 40
0.315716923076792
 50
180.0
 51
269.8110329574542
 73
     1
 72
     2
 10
-69.47471418333524
 20
14.29474932959724
 40
2.018561131933266
 50
269.8110329575858
 51
450.1889670424142
 73
     1
 72
     2
 10
-69.48033031864526
 20
15.99758427716634
 40
0.3157169230760746
 50
90.18896704254594
 51
180.0
 73
     1
 72
     1
 10
-69.79604724172205
 20
15.99758427716634
 11
-69.79604724172205
 21
15.39204898865955
 72
     2
 10
-69.48033031864526
 20
15.39204898865955
 40
0.315716923076792
 50
180.0
 51
244.6259913216474
 73
     1
 72
     2
 10
-70.00637301673314
 20
14.28290738869174
 40
0.9118481501444573
 50
295.3740086781924
 51
424.6259913218234
 73
     0
 97
        8
330
3C0
330
321
330
3BD
330
3BE
330
39C
330
320
330
3BF
330
39B
 92
       16
 93
       12
 72
     2
 10
-72.05587900517696
 20
11.64130671109734
 40
0.3157169230756836
 50
180.0
 51
270.0
 73
     1
 72
     1
 10
-72.05587900517696
 20
11.32558978802064
 11
-70.58004574416734
 21
11.32558978802064
 72
     2
 10
-70.58004574416734
 20
11.64130671109734
 40
0.3157169230766996
 50
270.0
 51
360.0
 73
     1
 72
     1
 10
-70.26432882109074
 20
11.64130671109734
 11
-70.26432882109074
 21
13.17207764262895
 72
     2
 10
-70.58004574416734
 20
13.17207764262895
 40
0.315716923076593
 50
0.0
 51
64.80558935146027
 73
     1
 72
     2
 10
-70.05746129659235
 20
14.28290738869174
 40
0.9118975235576114
 50
115.1944106485123
 51
244.8055893514717
 73
     0
 72
     2
 10
-70.58004574416734
 20
15.39373713475393
 40
0.3157169230761203
 50
295.1944106485397
 51
360.0
 73
     1
 72
     1
 10
-70.26432882109074
 20
15.39373713475393
 11
-70.26432882109074
 21
15.99776175381444
 72
     2
 10
-70.58004574416734
 20
15.99776175381444
 40
0.315716923076593
 50
0.0
 51
90.0
 73
     1
 72
     1
 10
-70.58004574416734
 20
16.31347867689064
 11
-72.05587900517696
 21
16.31347867689064
 72
     2
 10
-72.05587900517696
 20
15.99776175381444
 40
0.3157169230761987
 50
90.0
 51
180.0
 73
     1
 72
     1
 10
-72.37159592825265
 20
15.99776175381444
 11
-72.37159592825265
 21
11.64130671109734
 97
       12
330
3A4
330
35C
330
3A7
330
357
330
3B4
330
3B5
330
3A6
330
356
330
3A5
330
355
330
3B6
330
354
 75
     1
 76
     0
 52
45.0
 41
0.1
 77
     0
 78
     1
 53
45.0
 43
0.0
 44
0.0
 45
-0.0707106781186548
 46
0.0707106781186548
 79
     0
 98
        1
 10
0.0
 20
0.0
  0
HATCH
  5
40C
330
71
100
AcDbEntity
  8
1
  6
Continuous
 62
     2
100
AcDbHatch
 10
0.0
 20
0.0
 30
0.0
210
0.0
220
0.0
230
1.0
  2
_USER
 70
     0
 71
     1
 91
        1
 92
        1
 93
       18
 72
     1
 10
-45.16266906660175
 20
12.88157845015124
 11
-45.97376810407513
 21
12.88157845015124
 72
     1
 10
-45.97376810407513
 20
12.88157845015124
 11
-45.97376810407513
 21
10.61303423246375
 72
     1
 10
-45.97376810407513
 20
10.61303423246375
 11
-47.16656080624284
 21
10.61303423246375
 72
     1
 10
-47.16656080624284
 20
10.61303423246375
 11
-47.16656080624284
 21
12.88157845015124
 72
     1
 10
-47.16656080624284
 20
12.88157845015124
 11
-48.27020010581094
 21
12.88157845015124
 72
     2
 10
-48.27020010581094
 20
11.92705544332515
 40
0.9545230068260899
 50
90.0
 51
109.3371432194321
 73
     1
 72
     2
 10
-48.41687010391465
 20
12.34501042370803
 40
0.5115800601944176
 50
109.3371432194852
 51
151.4785267424214
 73
     1
 72
     2
 10
-48.03951284583326
 20
12.13993899436903
 40
0.9410597353348895
 50
151.4785267423618
 51
208.5214732576697
 73
     1
 72
     2
 10
-48.41687010391465
 20
11.93486756503054
 40
0.5115800601960145
 50
208.5214732576868
 51
246.6277221118447
 73
     1
 72
     2
 10
-48.26043007121155
 20
12.29685958374054
 40
0.905929784985274
 50
246.6277221118186
 51
288.4480761180818
 73
     1
 72
     2
 10
-48.67859780487345
 20
13.55040535977713
 40
2.227384008972744
 50
288.4480761181333
 51
301.9309089499399
 73
     1
 72
     1
 10
-47.50054276284953
 20
11.66005464062735
 11
-47.50054276284953
 21
10.78753763382403
 72
     2
 10
-48.83647067996625
 20
15.45261993962544
 40
4.852596863498824
 50
74.02000874166129
 51
84.84185523036375
 73
     0
 72
     2
 10
-48.54761458523043
 20
12.25272935640385
 40
1.639695123940456
 50
84.84185523032401
 51
164.9381082228988
 73
     0
 72
     2
 10
-48.96674242869204
 20
12.13993899436903
 40
1.205656168393008
 50
164.9381082229043
 51
195.0618917770969
 73
     0
 72
     2
 10
-48.54761458523043
 20
12.02714863233413
 40
1.63969512394022
 50
195.0618917771049
 51
270.0
 73
     0
 72
     1
 10
-48.54761458523043
 20
13.66684375627435
 11
-45.16266906660175
 21
13.66684375627483
 72
     1
 10
-45.16266906660175
 20
13.66684375627483
 11
-45.16266906660175
 21
12.88157845015124
 97
       18
330
323
330
3B9
330
3BA
330
3A2
330
3A1
330
387
330
3A0
330
39F
330
3BB
330
39E
330
3BC
330
39D
330
388
330
322
330
327
330
326
330
325
330
324
 75
     1
 76
     0
 52
45.0
 41
0.1
 77
     0
 78
     1
 53
45.0
 43
0.0
 44
0.0
 45
-0.0707106781186548
 46
0.0707106781186548
 79
     0
 98
        1
 10
0.0
 20
0.0
  0
HATCH
  5
40D
330
71
100
AcDbEntity
  8
1
  6
Continuous
 62
     2
100
AcDbHatch
 10
0.0
 20
0.0
 30
0.0
210
0.0
220
0.0
230
1.0
  2
_USER
 70
     0
 71
     1
 91
        1
 92
        1
 93
       18
 72
     1
 10
-45.16266906660175
 20
12.88157845015124
 11
-45.97376810407513
 21
12.88157845015124
 72
     1
 10
-45.97376810407513
 20
12.88157845015124
 11
-45.97376810407513
 21
10.61303423246375
 72
     1
 10
-45.97376810407513
 20
10.61303423246375
 11
-47.16656080624284
 21
10.61303423246375
 72
     1
 10
-47.16656080624284
 20
10.61303423246375
 11
-47.16656080624284
 21
12.88157845015124
 72
     1
 10
-47.16656080624284
 20
12.88157845015124
 11
-48.27020010581094
 21
12.88157845015124
 72
     2
 10
-48.27020010581094
 20
11.92705544332515
 40
0.9545230068260899
 50
90.0
 51
109.3371432194321
 73
     1
 72
     2
 10
-48.41687010391465
 20
12.34501042370803
 40
0.5115800601944176
 50
109.3371432194852
 51
151.4785267424214
 73
     1
 72
     2
 10
-48.03951284583326
 20
12.13993899436903
 40
0.9410597353348895
 50
151.4785267423618
 51
208.5214732576697
 73
     1
 72
     2
 10
-48.41687010391465
 20
11.93486756503054
 40
0.5115800601960145
 50
208.5214732576868
 51
246.6277221118447
 73
     1
 72
     2
 10
-48.26043007121155
 20
12.29685958374054
 40
0.905929784985274
 50
246.6277221118186
 51
288.4480761180818
 73
     1
 72
     2
 10
-48.67859780487345
 20
13.55040535977713
 40
2.227384008972744
 50
288.4480761181333
 51
301.9309089499399
 73
     1
 72
     1
 10
-47.50054276284953
 20
11.66005464062735
 11
-47.50054276284953
 21
10.78753763382403
 72
     2
 10
-48.83647067996625
 20
15.45261993962544
 40
4.852596863498824
 50
74.02000874166129
 51
84.84185523036375
 73
     0
 72
     2
 10
-48.54761458523043
 20
12.25272935640385
 40
1.639695123940456
 50
84.84185523032401
 51
164.9381082228988
 73
     0
 72
     2
 10
-48.96674242869204
 20
12.13993899436903
 40
1.205656168393008
 50
164.9381082229043
 51
195.0618917770969
 73
     0
 72
     2
 10
-48.54761458523043
 20
12.02714863233413
 40
1.63969512394022
 50
195.0618917771049
 51
270.0
 73
     0
 72
     1
 10
-48.54761458523043
 20
13.66684375627435
 11
-45.16266906660175
 21
13.66684375627483
 72
     1
 10
-45.16266906660175
 20
13.66684375627483
 11
-45.16266906660175
 21
12.88157845015124
 97
       18
330
323
330
3B9
330
3BA
330
3A2
330
3A1
330
387
330
3A0
330
39F
330
3BB
330
39E
330
3BC
330
39D
330
388
330
322
330
327
330
326
330
325
330
324
 75
     1
 76
     0
 52
45.0
 41
0.1
 77
     0
 78
     1
 53
45.0
 43
0.0
 44
0.0
 45
-0.0707106781186548
 46
0.0707106781186548
 79
     0
 98
        1
 10
0.0
 20
0.0
  0
HATCH
  5
40E
330
71
100
AcDbEntity
  8
1
  6
Continuous
 62
     2
100
AcDbHatch
 10
0.0
 20
0.0
 30
0.0
210
0.0
220
0.0
230
1.0
  2
_USER
 70
     0
 71
     1
 91
        1
 92
        1
 93
       14
 72
     2
 10
-64.65031606448335
 20
12.02714863233413
 40
1.639695123940505
 50
84.84185523036236
 51
164.9381082228866
 73
     1
 72
     2
 10
-65.06944390794615
 20
12.13993899436903
 40
1.205656168390943
 50
164.9381082228766
 51
195.0618917770945
 73
     1
 72
     2
 10
-64.65031606448335
 20
12.25272935640385
 40
1.639695123939387
 50
195.0618917770895
 51
275.1581447696395
 73
     1
 72
     2
 10
-64.93917215921925
 20
15.45261993962544
 40
4.852596863498143
 50
275.1581447696249
 51
285.979991258353
 73
     1
 72
     1
 10
-63.60324424210145
 20
10.78753763382463
 11
-63.60324424210145
 21
11.66005464062783
 72
     2
 10
-64.78129928412633
 20
13.55040535977773
 40
2.227384008972739
 50
58.06909105004065
 51
71.55192388186722
 73
     0
 72
     2
 10
-64.36313155046554
 20
12.29685958374054
 40
0.905929784984916
 50
71.55192388184147
 51
113.3722778881291
 73
     0
 72
     2
 10
-64.51957158316756
 20
11.93486756503054
 40
0.5115800601948034
 50
113.3722778881728
 51
151.4785267423044
 73
     0
 72
     2
 10
-64.14221432508725
 20
12.13993899436903
 40
0.9410597353332545
 50
151.4785267422942
 51
208.5214732577331
 73
     0
 72
     2
 10
-64.51957158316756
 20
12.34501042370803
 40
0.5115800601948779
 50
208.5214732576956
 51
246.6277221118009
 73
     0
 72
     2
 10
-64.36313155046554
 20
11.98301840499744
 40
0.9059297849853228
 50
246.6277221118709
 51
288.4480761181465
 73
     0
 72
     2
 10
-64.78129928412633
 20
10.72947262896085
 40
2.227384008973478
 50
288.4480761181328
 51
301.9309089499595
 73
     0
 72
     1
 10
-63.60324424210145
 20
12.61982334811074
 11
-63.60324424210145
 21
13.49234035491404
 72
     2
 10
-64.93917215921925
 20
8.82725804911314
 40
4.852596863498076
 50
74.02000874164733
 51
84.84185523037506
 73
     1
 97
       14
330
3C1
330
3C2
330
3C3
330
3C4
330
389
330
39A
330
399
330
398
330
3C5
330
3C6
330
397
330
3C7
330
38A
330
396
 75
     1
 76
     0
 52
45.0
 41
0.1
 77
     0
 78
     1
 53
45.0
 43
0.0
 44
0.0
 45
-0.0707106781186548
 46
0.0707106781186548
 79
     0
 98
        1
 10
0.0
 20
0.0
  0
HATCH
  5
40F
330
71
100
AcDbEntity
  8
1
  6
Continuous
 62
     2
100
AcDbHatch
 10
0.0
 20
0.0
 30
0.0
210
0.0
220
0.0
230
1.0
  2
_USER
 70
     0
 71
     1
 91
        1
 92
        1
 93
       14
 72
     2
 10
-64.65031606448335
 20
12.02714863233413
 40
1.639695123940505
 50
84.84185523036236
 51
164.9381082228866
 73
     1
 72
     2
 10
-65.06944390794615
 20
12.13993899436903
 40
1.205656168390943
 50
164.9381082228766
 51
195.0618917770945
 73
     1
 72
     2
 10
-64.65031606448335
 20
12.25272935640385
 40
1.639695123939387
 50
195.0618917770895
 51
275.1581447696395
 73
     1
 72
     2
 10
-64.93917215921925
 20
15.45261993962544
 40
4.852596863498143
 50
275.1581447696249
 51
285.979991258353
 73
     1
 72
     1
 10
-63.60324424210145
 20
10.78753763382463
 11
-63.60324424210145
 21
11.66005464062783
 72
     2
 10
-64.78129928412633
 20
13.55040535977773
 40
2.227384008972739
 50
58.06909105004065
 51
71.55192388186722
 73
     0
 72
     2
 10
-64.36313155046554
 20
12.29685958374054
 40
0.905929784984916
 50
71.55192388184147
 51
113.3722778881291
 73
     0
 72
     2
 10
-64.51957158316756
 20
11.93486756503054
 40
0.5115800601948034
 50
113.3722778881728
 51
151.4785267423044
 73
     0
 72
     2
 10
-64.14221432508725
 20
12.13993899436903
 40
0.9410597353332545
 50
151.4785267422942
 51
208.5214732577331
 73
     0
 72
     2
 10
-64.51957158316756
 20
12.34501042370803
 40
0.5115800601948779
 50
208.5214732576956
 51
246.6277221118009
 73
     0
 72
     2
 10
-64.36313155046554
 20
11.98301840499744
 40
0.9059297849853228
 50
246.6277221118709
 51
288.4480761181465
 73
     0
 72
     2
 10
-64.78129928412633
 20
10.72947262896085
 40
2.227384008973478
 50
288.4480761181328
 51
301.9309089499595
 73
     0
 72
     1
 10
-63.60324424210145
 20
12.61982334811074
 11
-63.60324424210145
 21
13.49234035491404
 72
     2
 10
-64.93917215921925
 20
8.82725804911314
 40
4.852596863498076
 50
74.02000874164733
 51
84.84185523037506
 73
     1
 97
       14
330
3C1
330
3C2
330
3C3
330
3C4
330
389
330
39A
330
399
330
398
330
3C5
330
3C6
330
397
330
3C7
330
38A
330
396
 75
     1
 76
     0
 52
45.0
 41
0.1
 77
     0
 78
     1
 53
45.0
 43
0.0
 44
0.0
 45
-0.0707106781186548
 46
0.0707106781186548
 79
     0
 98
        1
 10
0.0
 20
0.0
  0
ENDBLK
  5
73
330
71
100
AcDbEntity
  8
0
100
AcDbBlockEnd
  0
BLOCK
  5
75
330
74
100
AcDbEntity
  8
0
100
AcDbBlockBegin
  2
_punkt
 70
     0
 10
52.23413134288116
 20
3.31953423244744
 30
0.0
  3
_punkt
  1

  0
LINE
  5
410
330
74
100
AcDbEntity
  8
1
  6
Continuous
 62
     2
100
AcDbLine
 10
52.23413134288116
 20
3.31953423244744
 30
0.0
 11
57.23413134288015
 21
3.31953423244744
 31
0.0
  0
LINE
  5
411
330
74
100
AcDbEntity
  8
1
  6
Continuous
 62
     2
100
AcDbLine
 10
52.23413134288116
 20
3.31953423244744
 30
0.0
 11
52.23413134288116
 21
-1.68046576755268
 31
0.0
  0
ENDBLK
  5
76
330
74
100
AcDbEntity
  8
0
100
AcDbBlockEnd
  0
BLOCK
  5
7A
330
77
100
AcDbEntity
  8
0
100
AcDbBlockBegin
  2
A4I_CS
 70
     0
 10
52.23413134288116
 20
-1.68046576755268
 30
0.0
  3
A4I_CS
  1

  0
INSERT
  5
78
330
77
100
AcDbEntity
  8
1
100
AcDbBlockReference
  2
_rahmen
 10
52.23413134288116
 20
-1.68046576755268
 30
0.0
  0
INSERT
  5
79
330
77
100
AcDbEntity
  8
1
100
AcDbBlockReference
  2
_punkt
 10
52.23413134288116
 20
3.31953423244744
 30
0.0
  0
ENDBLK
  5
7B
330
77
100
AcDbEntity
  8
0
100
AcDbBlockEnd
  0
BLOCK
  5
84
330
7C
100
AcDbEntity
  8
0
100
AcDbBlockBegin
  2
1
 70
     0
 10
0.0
 20
0.0
 30
0.0
  3
1
  1

  0
INSERT
  5
7D
330
7C
100
AcDbEntity
  8
0
100
AcDbBlockReference
  2
AllgSicht1
 10
2.00000000000017
 20
75.00000000001002
 30
0.0
  0
INSERT
  5
7E
330
7C
100
AcDbEntity
  8
0
100
AcDbBlockReference
  2
Drfsicht1
 10
-129.0000000000006
 20
66.00000000000992
 30
0.0
  0
INSERT
  5
7F
330
7C
100
AcDbEntity
  8
0
100
AcDbBlockReference
  2
Rckans1
 10
-4.0
 20
148.8201080000099
 30
0.0
  0
INSERT
  5
80
330
7C
100
AcDbEntity
  8
0
100
AcDbBlockReference
  2
SA_Links1
 10
-64.00000000000996
 20
148.8201080000099
 30
0.0
  0
INSERT
  5
81
330
7C
100
AcDbEntity
  8
0
100
AcDbBlockReference
  2
SA_Rechts1
 10
-205.999999999991
 20
148.8201080000099
 30
0.0
  0
INSERT
  5
82
330
7C
100
AcDbEntity
  8
0
100
AcDbBlockReference
  2
Vordans1
 10
-129.0
 20
148.8201080000099
 30
0.0
  0
INSERT
  5
83
330
7C
100
AcDbEntity
  8
0
100
AcDbBlockReference
  2
A4I_CS
 10
52.23413134288116
 20
-1.68046576755268
 30
0.0
  0
ENDBLK
  5
85
330
7C
100
AcDbEntity
  8
0
100
AcDbBlockEnd
  0
BLOCK
  5
177
330
16F
100
AcDbEntity
  8
0
100
AcDbBlockBegin
  2
*D17
 70
     1
 10
0.0
 20
0.0
 30
0.0
  3
*D17
  1

  0
LINE
  5
170
330
16F
100
AcDbEntity
  8
1
  6
Continuous
 62
     2
100
AcDbLine
 10
-169.0000000000012
 20
56.97500038148974
 30
0.0
 11
-169.0000000000012
 21
75.02500038148973
 31
0.0
  0
LINE
  5
171
330
16F
100
AcDbEntity
  8
1
  6
Continuous
 62
     2
100
AcDbLine
 10
-169.0000000000012
 20
41.60147867689177
 30
0.0
 11
-169.0000000000012
 21
56.97500038148974
 31
0.0
  0
LINE
  5
172
330
16F
100
AcDbEntity
  8
1
  6
Continuous
 62
     2
100
AcDbLine
 10
-159.0000000000012
 20
75.02500038148973
 30
0.0
 11
-170.5000000000012
 21
75.02500038148973
 31
0.0
  0
LINE
  5
173
330
16F
100
AcDbEntity
  8
1
  6
Continuous
 62
     2
100
AcDbLine
 10
-159.0000000000012
 20
56.97500038148974
 30
0.0
 11
-170.5000000000012
 21
56.97500038148974
 31
0.0
  0
SOLID
  5
174
330
16F
100
AcDbEntity
  8
1
 62
     2
100
AcDbTrace
 10
-169.4607837415571
 20
60.47500038148974
 30
0.0
 11
-168.5392162584453
 21
60.47500038148974
 31
0.0
 12
-169.0000000000012
 22
56.97500038148974
 32
0.0
 13
-169.0000000000012
 23
56.97500038148974
 33
0.0
  0
SOLID
  5
175
330
16F
100
AcDbEntity
  8
1
 62
     2
100
AcDbTrace
 10
-168.5392162584453
 20
71.52500038148973
 30
0.0
 11
-169.4607837415571
 21
71.52500038148973
 31
0.0
 12
-169.0000000000012
 22
75.02500038148973
 32
0.0
 13
-169.0000000000012
 23
75.02500038148973
 33
0.0
  0
MTEXT
  5
176
330
16F
100
AcDbEntity
  8
1
 62
     3
100
AcDbMText
 10
-170.8500000000012
 20
41.60147867689178
 30
0.0
 40
3.5
 41
0.0
 71
     7
 72
     1
  1
18,05
  7
CONVERTER_11
 11
0.0
 21
1.0
 31
0.0
 73
     1
 44
0.60024009603842
  0
ENDBLK
  5
178
330
16F
100
AcDbEntity
  8
0
100
AcDbBlockEnd
  0
BLOCK
  5
2A9
330
2A2
100
AcDbEntity
  8
0
100
AcDbBlockBegin
  2
*D18
 70
     1
 10
0.0
 20
0.0
 30
0.0
  3
*D18
  1

  0
LINE
  5
2A3
330
2A2
100
AcDbEntity
  8
1
  6
Continuous
 62
     2
100
AcDbLine
 10
-177.0000000000011
 20
117.2701087629547
 30
0.0
 11
-177.0000000000011
 21
180.3701087629546
 31
0.0
  0
LINE
  5
2A4
330
2A2
100
AcDbEntity
  8
1
  6
Continuous
 62
     2
100
AcDbLine
 10
-147.0000000000007
 20
180.3701087629546
 30
0.0
 11
-178.5000000000011
 21
180.3701087629546
 31
0.0
  0
LINE
  5
2A5
330
2A2
100
AcDbEntity
  8
1
  6
Continuous
 62
     2
100
AcDbLine
 10
-146.6800000000001
 20
117.2701087629547
 30
0.0
 11
-178.5000000000011
 21
117.2701087629547
 31
0.0
  0
SOLID
  5
2A6
330
2A2
100
AcDbEntity
  8
1
 62
     2
100
AcDbTrace
 10
-177.460783741557
 20
120.7701087629547
 30
0.0
 11
-176.5392162584452
 21
120.7701087629547
 31
0.0
 12
-177.0000000000011
 22
117.2701087629547
 32
0.0
 13
-177.0000000000011
 23
117.2701087629547
 33
0.0
  0
SOLID
  5
2A7
330
2A2
100
AcDbEntity
  8
1
 62
     2
100
AcDbTrace
 10
-176.5392162584452
 20
176.8701087629546
 30
0.0
 11
-177.460783741557
 21
176.8701087629546
 31
0.0
 12
-177.0000000000011
 22
180.3701087629546
 32
0.0
 13
-177.0000000000011
 23
180.3701087629546
 33
0.0
  0
MTEXT
  5
2A8
330
2A2
100
AcDbEntity
  8
1
 62
     3
100
AcDbMText
 10
-178.8500000000011
 20
140.95425645467
 30
0.0
 40
3.5
 41
0.0
 71
     7
 72
     1
  1
63,1
  7
CONVERTER_11
 11
0.0
 21
1.0
 31
0.0
 73
     1
 44
0.60024009603842
  0
ENDBLK
  5
2AA
330
2A2
100
AcDbEntity
  8
0
100
AcDbBlockEnd
  0
BLOCK
  5
2B4
330
2AD
100
AcDbEntity
  8
0
100
AcDbBlockBegin
  2
*D19
 70
     1
 10
0.0
 20
0.0
 30
0.0
  3
*D19
  1

  0
LINE
  5
2AE
330
2AD
100
AcDbEntity
  8
1
  6
Continuous
 62
     2
100
AcDbLine
 10
-169.0000000000011
 20
123.5701087629549
 30
0.0
 11
-169.0000000000011
 21
180.3701087629549
 31
0.0
  0
LINE
  5
2AF
330
2AD
100
AcDbEntity
  8
1
  6
Continuous
 62
     2
100
AcDbLine
 10
-111.0000000000008
 20
180.3701087629549
 30
0.0
 11
-170.5000000000011
 21
180.3701087629549
 31
0.0
  0
LINE
  5
2B0
330
2AD
100
AcDbEntity
  8
1
  6
Continuous
 62
     2
100
AcDbLine
 10
-111.5000000000003
 20
123.5701087629549
 30
0.0
 11
-170.5000000000011
 21
123.5701087629549
 31
0.0
  0
SOLID
  5
2B1
330
2AD
100
AcDbEntity
  8
1
 62
     2
100
AcDbTrace
 10
-169.460783741557
 20
127.0701087629549
 30
0.0
 11
-168.5392162584452
 21
127.0701087629549
 31
0.0
 12
-169.0000000000011
 22
123.5701087629549
 32
0.0
 13
-169.0000000000011
 23
123.5701087629549
 33
0.0
  0
SOLID
  5
2B2
330
2AD
100
AcDbEntity
  8
1
 62
     2
100
AcDbTrace
 10
-168.5392162584452
 20
176.8701087629549
 30
0.0
 11
-169.460783741557
 21
176.8701087629549
 31
0.0
 12
-169.0000000000011
 22
180.3701087629549
 32
0.0
 13
-169.0000000000011
 23
180.3701087629549
 33
0.0
  0
MTEXT
  5
2B3
330
2AD
100
AcDbEntity
  8
1
 62
     3
100
AcDbMText
 10
-170.8500000000011
 20
148.251478676892
 30
0.0
 40
3.5
 41
0.0
 71
     7
 72
     1
  1
56,8
  7
CONVERTER_11
 11
0.0
 21
1.0
 31
0.0
 73
     1
 44
0.60024009603842
  0
ENDBLK
  5
2B5
330
2AD
100
AcDbEntity
  8
0
100
AcDbBlockEnd
  0
BLOCK
  5
2BF
330
2B8
100
AcDbEntity
  8
0
100
AcDbBlockBegin
  2
*D20
 70
     1
 10
0.0
 20
0.0
 30
0.0
  3
*D20
  1

  0
LINE
  5
2B9
330
2B8
100
AcDbEntity
  8
1
  6
Continuous
 62
     2
100
AcDbLine
 10
-159.0000000000002
 20
87.83268386776264
 30
0.0
 11
-99.00000000000026
 21
87.83268386776264
 31
0.0
  0
LINE
  5
2BA
330
2B8
100
AcDbEntity
  8
1
  6
Continuous
 62
     2
100
AcDbLine
 10
-99.00000000000026
 20
129.157708851752
 30
0.0
 11
-99.00000000000026
 21
86.33268386776264
 31
0.0
  0
LINE
  5
2BB
330
2B8
100
AcDbEntity
  8
1
  6
Continuous
 62
     2
100
AcDbLine
 10
-159.0000000000002
 20
117.2701087629546
 30
0.0
 11
-159.0000000000002
 21
86.33268386776264
 31
0.0
  0
SOLID
  5
2BC
330
2B8
100
AcDbEntity
  8
1
 62
     2
100
AcDbTrace
 10
-155.5000000000002
 20
88.29346760931853
 30
0.0
 11
-155.5000000000002
 21
87.37190012620675
 31
0.0
 12
-159.0000000000002
 22
87.83268386776264
 32
0.0
 13
-159.0000000000002
 23
87.83268386776264
 33
0.0
  0
SOLID
  5
2BD
330
2B8
100
AcDbEntity
  8
1
 62
     2
100
AcDbTrace
 10
-102.5000000000003
 20
87.37190012620675
 30
0.0
 11
-102.5000000000003
 21
88.29346760931853
 31
0.0
 12
-99.00000000000026
 22
87.83268386776264
 32
0.0
 13
-99.00000000000026
 23
87.83268386776264
 33
0.0
  0
MTEXT
  5
2BE
330
2B8
100
AcDbEntity
  8
1
 62
     3
100
AcDbMText
 10
-131.368646434897
 20
89.33268386776264
 30
0.0
 40
3.5
 41
0.0
 71
     7
 72
     1
  1
60
  7
CONVERTER_11
 11
0.9999999999970619
 21
2.424068405545306E-6
 31
0.0
 73
     1
 44
0.60024009603842
  0
ENDBLK
  5
2C0
330
2B8
100
AcDbEntity
  8
0
100
AcDbBlockEnd
  0
BLOCK
  5
2CA
330
2C3
100
AcDbEntity
  8
0
100
AcDbBlockBegin
  2
*D21
 70
     1
 10
0.0
 20
0.0
 30
0.0
  3
*D21
  1

  0
LINE
  5
2C4
330
2C3
100
AcDbEntity
  8
1
  6
Continuous
 62
     2
100
AcDbLine
 10
-129.0000000000004
 20
95.8326838677626
 30
0.0
 11
-99.0000000000002
 21
95.8326838677626
 31
0.0
  0
LINE
  5
2C5
330
2C3
100
AcDbEntity
  8
1
  6
Continuous
 62
     2
100
AcDbLine
 10
-99.0000000000002
 20
129.157708851752
 30
0.0
 11
-99.0000000000002
 21
93.8326838677626
 31
0.0
  0
LINE
  5
2C6
330
2C3
100
AcDbEntity
  8
1
  6
Continuous
 62
     2
100
AcDbLine
 10
-129.0000000000004
 20
120.7680700585125
 30
0.0
 11
-129.0000000000004
 21
93.8326838677626
 31
0.0
  0
SOLID
  5
2C7
330
2C3
100
AcDbEntity
  8
1
 62
     2
100
AcDbTrace
 10
-125.5000000000004
 20
96.29346760931848
 30
0.0
 11
-125.5000000000004
 21
95.37190012620671
 31
0.0
 12
-129.0000000000004
 22
95.8326838677626
 32
0.0
 13
-129.0000000000004
 23
95.8326838677626
 33
0.0
  0
SOLID
  5
2C8
330
2C3
100
AcDbEntity
  8
1
 62
     2
100
AcDbTrace
 10
-102.5000000000002
 20
95.37190012620671
 30
0.0
 11
-102.5000000000002
 21
96.29346760931848
 31
0.0
 12
-99.0000000000002
 22
95.8326838677626
 32
0.0
 13
-99.0000000000002
 23
95.8326838677626
 33
0.0
  0
MTEXT
  5
2C9
330
2C3
100
AcDbEntity
  8
1
 62
     3
100
AcDbMText
 10
-117.031131560797
 20
97.8326838677626
 30
0.0
 40
3.5
 41
0.0
 71
     7
 72
     1
  1
30
  7
CONVERTER_11
 11
0.9999999999970619
 21
2.424068405545306E-6
 31
0.0
 73
     1
 44
0.60024009603842
  0
ENDBLK
  5
2CB
330
2C3
100
AcDbEntity
  8
0
100
AcDbBlockEnd
  0
BLOCK
  5
2D5
330
2CE
100
AcDbEntity
  8
0
100
AcDbBlockBegin
  2
*D22
 70
     1
 10
0.0
 20
0.0
 30
0.0
  3
*D22
  1

  0
LINE
  5
2CF
330
2CE
100
AcDbEntity
  8
1
  6
Continuous
 62
     2
100
AcDbLine
 10
-129.0000000000004
 20
105.308460080421
 30
0.0
 11
-111.5000000000001
 21
105.308460080421
 31
0.0
  0
LINE
  5
2D0
330
2CE
100
AcDbEntity
  8
1
  6
Continuous
 62
     2
100
AcDbLine
 10
-111.5000000000001
 20
122.3701087629549
 30
0.0
 11
-111.5000000000001
 21
103.308460080421
 31
0.0
  0
LINE
  5
2D1
330
2CE
100
AcDbEntity
  8
1
  6
Continuous
 62
     2
100
AcDbLine
 10
-129.0000000000004
 20
120.7680700585125
 30
0.0
 11
-129.0000000000004
 21
103.308460080421
 31
0.0
  0
SOLID
  5
2D2
330
2CE
100
AcDbEntity
  8
1
 62
     2
100
AcDbTrace
 10
-125.5000000000004
 20
105.7692438219769
 30
0.0
 11
-125.5000000000004
 21
104.8476763388651
 31
0.0
 12
-129.0000000000004
 22
105.308460080421
 32
0.0
 13
-129.0000000000004
 23
105.308460080421
 33
0.0
  0
SOLID
  5
2D3
330
2CE
100
AcDbEntity
  8
1
 62
     2
100
AcDbTrace
 10
-115.0000000000001
 20
104.8476763388651
 30
0.0
 11
-115.0000000000001
 21
105.7692438219769
 31
0.0
 12
-111.5000000000001
 22
105.308460080421
 32
0.0
 13
-111.5000000000001
 23
105.308460080421
 33
0.0
  0
MTEXT
  5
2D4
330
2CE
100
AcDbEntity
  8
1
 62
     3
100
AcDbMText
 10
-124.455927906332
 20
107.658460080421
 30
0.0
 40
3.5
 41
0.0
 71
     7
 72
     1
  1
17,5
  7
CONVERTER_11
 11
0.9999999999970619
 21
2.424068405545306E-6
 31
0.0
 73
     1
 44
0.60024009603842
  0
ENDBLK
  5
2D6
330
2CE
100
AcDbEntity
  8
0
100
AcDbBlockEnd
  0
ENDSEC
  0
SECTION
  2
ENTITIES
  0
INSERT
  5
86
330
1F
100
AcDbEntity
  8
1
100
AcDbBlockReference
  2
1
 10
0.0
 20
0.0
 30
0.0
  0
ENDSEC
  0
SECTION
  2
OBJECTS
  0
DICTIONARY
  5
C
330
0
100
AcDbDictionary
281
     1
  3
ACAD_GROUP
350
D
  3
ACAD_LAYOUT
350
1A
  3
ACAD_MATERIAL
350
3B
  3
ACAD_MLEADERSTYLE
350
439
  3
ACAD_MLINESTYLE
350
17
  3
ACAD_PLOTSETTINGS
350
19
  3
ACAD_PLOTSTYLENAME
350
E
  3
ACAD_TABLESTYLE
350
438
  3
ACAD_VISUALSTYLE
350
2A
  0
DICTIONARY
  5
D
102
{ACAD_REACTORS
330
C
102
}
330
C
100
AcDbDictionary
281
     1
  0
DICTIONARY
  5
1A
102
{ACAD_REACTORS
330
C
102
}
330
C
100
AcDbDictionary
281
     1
  3
Layout1
350
1E
  3
Layout2
350
26
  3
Model
350
22
  0
DICTIONARY
  5
3B
102
{ACAD_REACTORS
330
C
102
}
330
C
100
AcDbDictionary
281
     1
  3
ByBlock
350
3D
  3
ByLayer
350
3C
  3
Global
350
3E
  0
DICTIONARY
  5
439
102
{ACAD_REACTORS
330
C
102
}
330
C
100
AcDbDictionary
281
     1
  0
DICTIONARY
  5
17
102
{ACAD_REACTORS
330
C
102
}
330
C
100
AcDbDictionary
281
     1
  3
Standard
350
18
  0
DICTIONARY
  5
19
102
{ACAD_REACTORS
330
C
102
}
330
C
100
AcDbDictionary
281
     1
  0
ACDBDICTIONARYWDFLT
  5
E
102
{ACAD_REACTORS
330
C
102
}
330
C
100
AcDbDictionary
281
     1
  3
Normal
350
F
100
AcDbDictionaryWithDefault
340
F
  0
DICTIONARY
  5
438
102
{ACAD_REACTORS
330
C
102
}
330
C
100
AcDbDictionary
281
     1
  0
DICTIONARY
  5
2A
102
{ACAD_REACTORS
330
C
102
}
330
C
100
AcDbDictionary
281
     1
  3
2dWireframe
350
2F
  3
3D Hidden
350
31
  3
3dWireframe
350
30
  3
Basic
350
32
  3
Brighten
350
36
  3
ColorChange
350
3A
  3
Conceptual
350
34
  3
Dim
350
35
  3
Facepattern
350
39
  3
Flat
350
2B
  3
FlatWithEdges
350
2C
  3
Gouraud
350
2D
  3
GouraudWithEdges
350
2E
  3
Linepattern
350
38
  3
Realistic
350
33
  3
Thicken
350
37
  0
LAYOUT
  5
1E
102
{ACAD_REACTORS
330
1A
102
}
330
1A
100
AcDbPlotSettings
  1

  2
none_device
  4

  6

 40
0.0
 41
0.0
 42
0.0
 43
0.0
 44
0.0
 45
0.0
 46
0.0
 47
0.0
 48
0.0
 49
0.0
140
0.0
141
0.0
142
1.0
143
1.0
 70
   688
 72
     0
 73
     0
 74
     5
  7

 75
    16
 76
     0
 77
     2
 78
   300
147
1.0
148
0.0
149
0.0
100
AcDbLayout
  1
Layout1
 70
     1
 71
     1
 10
0.0
 20
0.0
 11
12.0
 21
9.0
 12
0.0
 22
0.0
 32
0.0
 14
1.00000000000000E+20
 24
1.00000000000000E+20
 34
1.00000000000000E+20
 15
-1.00000000000000E+20
 25
-1.00000000000000E+20
 35
-1.00000000000000E+20
146
0.0
 13
0.0
 23
0.0
 33
0.0
 16
1.0
 26
0.0
 36
0.0
 17
0.0
 27
1.0
 37
0.0
 76
     0
330
1B
  0
LAYOUT
  5
26
102
{ACAD_REACTORS
330
1A
102
}
330
1A
100
AcDbPlotSettings
  1

  2
none_device
  4

  6

 40
0.0
 41
0.0
 42
0.0
 43
0.0
 44
0.0
 45
0.0
 46
0.0
 47
0.0
 48
0.0
 49
0.0
140
0.0
141
0.0
142
1.0
143
1.0
 70
   688
 72
     0
 73
     0
 74
     5
  7

 75
    16
 76
     0
 77
     2
 78
   300
147
1.0
148
0.0
149
0.0
100
AcDbLayout
  1
Layout2
 70
     1
 71
     2
 10
0.0
 20
0.0
 11
0.0
 21
0.0
 12
0.0
 22
0.0
 32
0.0
 14
0.0
 24
0.0
 34
0.0
 15
0.0
 25
0.0
 35
0.0
146
0.0
 13
0.0
 23
0.0
 33
0.0
 16
1.0
 26
0.0
 36
0.0
 17
0.0
 27
1.0
 37
0.0
 76
     0
330
23
  0
LAYOUT
  5
22
102
{ACAD_REACTORS
330
1A
102
}
330
1A
100
AcDbPlotSettings
  1

  2
none_device
  4

  6

 40
0.0
 41
0.0
 42
0.0
 43
0.0
 44
0.0
 45
0.0
 46
0.0
 47
0.0
 48
0.0
 49
0.0
140
0.0
141
0.0
142
1.0
143
1.0
 70
  1712
 72
     0
 73
     0
 74
     0
  7

 75
     0
 76
     0
 77
     2
 78
   300
147
1.0
148
0.0
149
0.0
100
AcDbLayout
  1
Model
 70
     1
 71
     0
 10
0.0
 20
0.0
 11
12.0
 21
9.0
 12
0.0
 22
0.0
 32
0.0
 14
-239.7658686571179
 24
-1.68046576755268
 34
0.0
 15
57.23413134288015
 25
208.3195342324474
 35
0.0
146
0.0
 13
0.0
 23
0.0
 33
0.0
 16
1.0
 26
0.0
 36
0.0
 17
0.0
 27
1.0
 37
0.0
 76
     0
330
1F
331
29
  0
MATERIAL
  5
3D
102
{ACAD_REACTORS
330
3B
102
}
102
{ACAD_XDICTIONARY
360
434
102
}
330
3B
100
AcDbMaterial
  1
ByBlock
  0
MATERIAL
  5
3C
102
{ACAD_REACTORS
330
3B
102
}
102
{ACAD_XDICTIONARY
360
432
102
}
330
3B
100
AcDbMaterial
  1
ByLayer
  0
MATERIAL
  5
3E
102
{ACAD_REACTORS
330
3B
102
}
102
{ACAD_XDICTIONARY
360
436
102
}
330
3B
100
AcDbMaterial
  1
Global
  0
MLINESTYLE
  5
18
102
{ACAD_REACTORS
330
17
102
}
330
17
100
AcDbMlineStyle
  2
Standard
 70
     0
  3

 62
   256
 51
90.0
 52
90.0
 71
     2
 49
0.5
 62
   256
  6
BYLAYER
 49
-0.5
 62
   256
  6
BYLAYER
  0
ACDBPLACEHOLDER
  5
F
102
{ACAD_REACTORS
330
E
102
}
330
E
  0
VISUALSTYLE
  5
2F
102
{ACAD_REACTORS
330
2A
102
}
102
{ACAD_XDICTIONARY
360
41A
102
}
330
2A
100
AcDbVisualStyle
  2
2dWireframe
 70
     4
 71
     0
 72
     2
 73
     0
 90
        0
 40
-0.6
 41
-30.0
 62
     5
 63
     7
421
 16777215
 74
     1
 91
        4
 64
     7
 65
   257
 75
     1
175
     1
 42
1.0
 92
        0
 66
   257
 43
1.0
 76
     1
 77
     6
 78
     2
 67
     7
 79
     5
170
     0
171
     0
290
     0
174
     0
 93
        1
 44
0.0
173
     0
291
     0
 45
0.0
1001
ACAD
1000
AcDbSavedByObjectVersion
1070
     0
  0
VISUALSTYLE
  5
31
102
{ACAD_REACTORS
330
2A
102
}
102
{ACAD_XDICTIONARY
360
41E
102
}
330
2A
100
AcDbVisualStyle
  2
3D Hidden
 70
     6
 71
     1
 72
     2
 73
     2
 90
        0
 40
-0.6
 41
-30.0
 62
     5
 63
     7
421
 16777215
 74
     2
 91
        2
 64
     7
 65
   257
 75
     2
175
     1
 42
40.0
 92
        0
 66
   257
 43
1.0
 76
     1
 77
     6
 78
     2
 67
     7
 79
     3
170
     0
171
     0
290
     0
174
     0
 93
        1
 44
0.0
173
     0
291
     0
 45
0.0
1001
ACAD
1000
AcDbSavedByObjectVersion
1070
     0
  0
VISUALSTYLE
  5
30
102
{ACAD_REACTORS
330
2A
102
}
102
{ACAD_XDICTIONARY
360
41C
102
}
330
2A
100
AcDbVisualStyle
  2
3dWireframe
 70
     5
 71
     0
 72
     2
 73
     0
 90
        0
 40
-0.6
 41
-30.0
 62
     5
 63
     7
421
 16777215
 74
     1
 91
        4
 64
     7
 65
   257
 75
     1
175
     1
 42
1.0
 92
        0
 66
   257
 43
1.0
 76
     1
 77
     6
 78
     2
 67
     7
 79
     5
170
     0
171
     0
290
     0
174
     0
 93
        1
 44
0.0
173
     0
291
     0
 45
0.0
1001
ACAD
1000
AcDbSavedByObjectVersion
1070
     0
  0
VISUALSTYLE
  5
32
102
{ACAD_REACTORS
330
2A
102
}
102
{ACAD_XDICTIONARY
360
420
102
}
330
2A
100
AcDbVisualStyle
  2
Basic
 70
     7
 71
     1
 72
     0
 73
     1
 90
        0
 40
-0.6
 41
-30.0
 62
     5
 63
     7
421
 16777215
 74
     0
 91
        4
 64
     7
 65
   257
 75
     1
175
     1
 42
1.0
 92
        8
 66
     7
 43
1.0
 76
     1
 77
     6
 78
     2
 67
     7
 79
     5
170
     0
171
     0
290
     0
174
     0
 93
        1
 44
0.0
173
     0
291
     1
 45
0.0
1001
ACAD
1000
AcDbSavedByObjectVersion
1070
     0
  0
VISUALSTYLE
  5
36
102
{ACAD_REACTORS
330
2A
102
}
102
{ACAD_XDICTIONARY
360
428
102
}
330
2A
100
AcDbVisualStyle
  2
Brighten
 70
    12
 71
     2
 72
     2
 73
     0
 90
        0
 40
-0.6
 41
-30.0
 62
     5
 63
     7
421
 16777215
 74
     1
 91
        4
 64
     7
 65
   257
 75
     1
175
     1
 42
1.0
 92
        8
 66
     7
 43
1.0
 76
     1
 77
     6
 78
     2
 67
     7
 79
     5
170
     0
171
     0
290
     0
174
     0
 93
        1
 44
50.0
173
     0
291
     1
 45
0.0
1001
ACAD
1000
AcDbSavedByObjectVersion
1070
     0
  0
VISUALSTYLE
  5
3A
102
{ACAD_REACTORS
330
2A
102
}
102
{ACAD_XDICTIONARY
360
430
102
}
330
2A
100
AcDbVisualStyle
  2
ColorChange
 70
    16
 71
     2
 72
     2
 73
     3
 90
        0
 40
-0.6
 41
-30.0
 62
     5
 63
     8
421
  8421504
 74
     1
 91
        4
 64
     7
 65
   257
 75
     1
175
     1
 42
1.0
 92
        8
 66
     8
424
  8421504
 43
1.0
 76
     1
 77
     6
 78
     2
 67
     7
 79
     5
170
     0
171
     0
290
     0
174
     0
 93
        1
 44
0.0
173
     0
291
     1
 45
0.0
1001
ACAD
1000
AcDbSavedByObjectVersion
1070
     0
  0
VISUALSTYLE
  5
34
102
{ACAD_REACTORS
330
2A
102
}
102
{ACAD_XDICTIONARY
360
424
102
}
330
2A
100
AcDbVisualStyle
  2
Conceptual
 70
     9
 71
     3
 72
     2
 73
     0
 90
        0
 40
-0.6
 41
-30.0
 62
     5
 63
     7
421
 16777215
 74
     2
 91
        2
 64
     7
 65
   257
 75
     1
175
     1
 42
40.0
 92
        8
 66
     7
 43
1.0
 76
     1
 77
     6
 78
     2
 67
     7
 79
     3
170
     0
171
     0
290
     0
174
     0
 93
        1
 44
0.0
173
     0
291
     0
 45
0.0
1001
ACAD
1000
AcDbSavedByObjectVersion
1070
     0
  0
VISUALSTYLE
  5
35
102
{ACAD_REACTORS
330
2A
102
}
102
{ACAD_XDICTIONARY
360
426
102
}
330
2A
100
AcDbVisualStyle
  2
Dim
 70
    11
 71
     2
 72
     2
 73
     0
 90
        0
 40
-0.6
 41
-30.0
 62
     5
 63
     7
421
 16777215
 74
     1
 91
        4
 64
     7
 65
   257
 75
     1
175
     1
 42
1.0
 92
        8
 66
     7
 43
1.0
 76
     1
 77
     6
 78
     2
 67
     7
 79
     5
170
     0
171
     0
290
     0
174
     0
 93
        1
 44
-50.0
173
     0
291
     1
 45
0.0
1001
ACAD
1000
AcDbSavedByObjectVersion
1070
     0
  0
VISUALSTYLE
  5
39
102
{ACAD_REACTORS
330
2A
102
}
102
{ACAD_XDICTIONARY
360
42E
102
}
330
2A
100
AcDbVisualStyle
  2
Facepattern
 70
    15
 71
     2
 72
     2
 73
     0
 90
        0
 40
-0.6
 41
-30.0
 62
     5
 63
     7
421
 16777215
 74
     1
 91
        4
 64
     7
 65
   257
 75
     1
175
     1
 42
1.0
 92
        8
 66
     7
 43
1.0
 76
     1
 77
     6
 78
     2
 67
     7
 79
     5
170
     0
171
     0
290
     0
174
     0
 93
        1
 44
0.0
173
     0
291
     1
 45
0.0
1001
ACAD
1000
AcDbSavedByObjectVersion
1070
     0
  0
VISUALSTYLE
  5
2B
102
{ACAD_REACTORS
330
2A
102
}
102
{ACAD_XDICTIONARY
360
412
102
}
330
2A
100
AcDbVisualStyle
  2
Flat
 70
     0
 71
     2
 72
     1
 73
     1
 90
        2
 40
-0.6
 41
30.0
 62
     5
 63
     7
421
 16777215
 74
     0
 91
        4
 64
     7
 65
   257
 75
     1
175
     1
 42
1.0
 92
        8
 66
     7
 43
1.0
 76
     1
 77
     6
 78
     2
 67
     7
 79
     5
170
     0
171
     0
290
     0
174
     0
 93
       13
 44
0.0
173
     0
291
     1
 45
0.0
1001
ACAD
1000
AcDbSavedByObjectVersion
1070
     0
  0
VISUALSTYLE
  5
2C
102
{ACAD_REACTORS
330
2A
102
}
102
{ACAD_XDICTIONARY
360
414
102
}
330
2A
100
AcDbVisualStyle
  2
FlatWithEdges
 70
     1
 71
     2
 72
     1
 73
     1
 90
        2
 40
-0.6
 41
30.0
 62
     5
 63
     7
421
 16777215
 74
     1
 91
        4
 64
     7
 65
   257
 75
     1
175
     1
 42
1.0
 92
        0
 66
   257
 43
1.0
 76
     1
 77
     6
 78
     2
 67
     7
 79
     5
170
     0
171
     0
290
     0
174
     0
 93
       13
 44
0.0
173
     0
291
     1
 45
0.0
1001
ACAD
1000
AcDbSavedByObjectVersion
1070
     0
  0
VISUALSTYLE
  5
2D
102
{ACAD_REACTORS
330
2A
102
}
102
{ACAD_XDICTIONARY
360
416
102
}
330
2A
100
AcDbVisualStyle
  2
Gouraud
 70
     2
 71
     2
 72
     2
 73
     1
 90
        2
 40
-0.6
 41
30.0
 62
     5
 63
     7
421
 16777215
 74
     0
 91
        4
 64
     7
 65
   257
 75
     1
175
     1
 42
1.0
 92
        0
 66
     7
 43
1.0
 76
     1
 77
     6
 78
     2
 67
     7
 79
     5
170
     0
171
     0
290
     0
174
     0
 93
       13
 44
0.0
173
     0
291
     1
 45
0.0
1001
ACAD
1000
AcDbSavedByObjectVersion
1070
     0
  0
VISUALSTYLE
  5
2E
102
{ACAD_REACTORS
330
2A
102
}
102
{ACAD_XDICTIONARY
360
418
102
}
330
2A
100
AcDbVisualStyle
  2
GouraudWithEdges
 70
     3
 71
     2
 72
     2
 73
     1
 90
        2
 40
-0.6
 41
30.0
 62
     5
 63
     7
421
 16777215
 74
     1
 91
        4
 64
     7
 65
   257
 75
     1
175
     1
 42
1.0
 92
        0
 66
   257
 43
1.0
 76
     1
 77
     6
 78
     2
 67
     7
 79
     5
170
     0
171
     0
290
     0
174
     0
 93
       13
 44
0.0
173
     0
291
     1
 45
0.0
1001
ACAD
1000
AcDbSavedByObjectVersion
1070
     0
  0
VISUALSTYLE
  5
38
102
{ACAD_REACTORS
330
2A
102
}
102
{ACAD_XDICTIONARY
360
42C
102
}
330
2A
100
AcDbVisualStyle
  2
Linepattern
 70
    14
 71
     2
 72
     2
 73
     0
 90
        0
 40
-0.6
 41
-30.0
 62
     5
 63
     7
421
 16777215
 74
     1
 91
        4
 64
     7
 65
   257
 75
     7
175
     7
 42
1.0
 92
        8
 66
     7
 43
1.0
 76
     1
 77
     6
 78
     2
 67
     7
 79
     5
170
     0
171
     0
290
     0
174
     0
 93
        1
 44
0.0
173
     0
291
     1
 45
0.0
1001
ACAD
1000
AcDbSavedByObjectVersion
1070
     0
  0
VISUALSTYLE
  5
33
102
{ACAD_REACTORS
330
2A
102
}
102
{ACAD_XDICTIONARY
360
422
102
}
330
2A
100
AcDbVisualStyle
  2
Realistic
 70
     8
 71
     2
 72
     2
 73
     0
 90
        0
 40
-0.6
 41
-30.0
 62
     5
 63
     7
421
 16777215
 74
     1
 91
        0
 64
     7
 65
   257
 75
     1
175
     1
 42
1.0
 92
        8
 66
     8
424
  7895160
 43
1.0
 76
     1
 77
     6
 78
     2
 67
     7
 79
     5
170
     0
171
     0
290
     0
174
     0
 93
       13
 44
0.0
173
     0
291
     0
 45
0.0
1001
ACAD
1000
AcDbSavedByObjectVersion
1070
     0
  0
VISUALSTYLE
  5
37
102
{ACAD_REACTORS
330
2A
102
}
102
{ACAD_XDICTIONARY
360
42A
102
}
330
2A
100
AcDbVisualStyle
  2
Thicken
 70
    13
 71
     2
 72
     2
 73
     0
 90
        0
 40
-0.6
 41
-30.0
 62
     5
 63
     7
421
 16777215
 74
     1
 91
        4
 64
     7
 65
   257
 75
     1
175
     1
 42
1.0
 92
       12
 66
     7
 43
1.0
 76
     1
 77
     6
 78
     2
 67
     7
 79
     5
170
     0
171
     0
290
     0
174
     0
 93
        1
 44
0.0
173
     0
291
     1
 45
0.0
1001
ACAD
1000
AcDbSavedByObjectVersion
1070
     0
  0
DICTIONARY
  5
434
330
3D
100
AcDbDictionary
280
     1
281
     1
  3
ACAD_XREC_ROUNDTRIP
360
435
  0
DICTIONARY
  5
432
330
3C
100
AcDbDictionary
280
     1
281
     1
  3
ACAD_XREC_ROUNDTRIP
360
433
  0
DICTIONARY
  5
436
330
3E
100
AcDbDictionary
280
     1
281
     1
  3
ACAD_XREC_ROUNDTRIP
360
437
  0
DICTIONARY
  5
41A
330
2F
100
AcDbDictionary
280
     1
281
     1
  3
ACAD_XREC_ROUNDTRIP
360
41B
  0
DICTIONARY
  5
41E
330
31
100
AcDbDictionary
280
     1
281
     1
  3
ACAD_XREC_ROUNDTRIP
360
41F
  0
DICTIONARY
  5
41C
330
30
100
AcDbDictionary
280
     1
281
     1
  3
ACAD_XREC_ROUNDTRIP
360
41D
  0
DICTIONARY
  5
420
330
32
100
AcDbDictionary
280
     1
281
     1
  3
ACAD_XREC_ROUNDTRIP
360
421
  0
DICTIONARY
  5
428
330
36
100
AcDbDictionary
280
     1
281
     1
  3
ACAD_XREC_ROUNDTRIP
360
429
  0
DICTIONARY
  5
430
330
3A
100
AcDbDictionary
280
     1
281
     1
  3
ACAD_XREC_ROUNDTRIP
360
431
  0
DICTIONARY
  5
424
330
34
100
AcDbDictionary
280
     1
281
     1
  3
ACAD_XREC_ROUNDTRIP
360
425
  0
DICTIONARY
  5
426
330
35
100
AcDbDictionary
280
     1
281
     1
  3
ACAD_XREC_ROUNDTRIP
360
427
  0
DICTIONARY
  5
42E
330
39
100
AcDbDictionary
280
     1
281
     1
  3
ACAD_XREC_ROUNDTRIP
360
42F
  0
DICTIONARY
  5
412
330
2B
100
AcDbDictionary
280
     1
281
     1
  3
ACAD_XREC_ROUNDTRIP
360
413
  0
DICTIONARY
  5
414
330
2C
100
AcDbDictionary
280
     1
281
     1
  3
ACAD_XREC_ROUNDTRIP
360
415
  0
DICTIONARY
  5
416
330
2D
100
AcDbDictionary
280
     1
281
     1
  3
ACAD_XREC_ROUNDTRIP
360
417
  0
DICTIONARY
  5
418
330
2E
100
AcDbDictionary
280
     1
281
     1
  3
ACAD_XREC_ROUNDTRIP
360
419
  0
DICTIONARY
  5
42C
330
38
100
AcDbDictionary
280
     1
281
     1
  3
ACAD_XREC_ROUNDTRIP
360
42D
  0
DICTIONARY
  5
422
330
33
100
AcDbDictionary
280
     1
281
     1
  3
ACAD_XREC_ROUNDTRIP
360
423
  0
DICTIONARY
  5
42A
330
37
100
AcDbDictionary
280
     1
281
     1
  3
ACAD_XREC_ROUNDTRIP
360
42B
  0
XRECORD
  5
435
102
{ACAD_REACTORS
330
434
102
}
330
434
100
AcDbXrecord
280
     1
102
MATERIAL
148
0.0
149
0.0
149
0.0
 93
        0
 94
      127
282
     0
 72
     1
 77
     1
171
     1
175
     1
179
     1
273
     0
  0
XRECORD
  5
433
102
{ACAD_REACTORS
330
432
102
}
330
432
100
AcDbXrecord
280
     1
102
MATERIAL
148
0.0
149
0.0
149
0.0
 93
        0
 94
      127
282
     0
 72
     1
 77
     1
171
     1
175
     1
179
     1
273
     0
  0
XRECORD
  5
437
102
{ACAD_REACTORS
330
436
102
}
330
436
100
AcDbXrecord
280
     1
102
MATERIAL
148
0.0
149
0.0
149
0.0
 93
        0
 94
      127
282
     0
 72
     1
 77
     1
171
     1
175
     1
179
     1
273
     0
  0
XRECORD
  5
41B
102
{ACAD_REACTORS
330
41A
102
}
330
41A
100
AcDbXrecord
280
     1
102
RTVSPropertyOp0
 70
     1
102
RTVSPropertyOp1
 70
     1
102
RTVSPropertyOp2
 70
     1
102
RTVSPropertyOp3
 70
     1
102
RTVSPropertyOp4
 70
     1
102
RTVSPropertyOp5
 70
     1
102
RTVSPropertyOp6
 70
     1
102
RTVSPropertyOp7
 70
     1
102
RTVSPropertyOp8
 70
     1
102
RTVSPropertyOp9
 70
     1
102
RTVSPropertyOp10
 70
     1
102
RTVSPropertyOp11
 70
     1
102
RTVSPropertyOp12
 70
     1
102
RTVSPropertyOp13
 70
     1
102
RTVSPropertyOp14
 70
     1
102
RTVSPropertyOp15
 70
     1
102
RTVSPropertyOp16
 70
     1
102
RTVSPropertyOp17
 70
     1
102
RTVSPropertyOp18
 70
     1
102
RTVSPropertyOp19
 70
     1
102
RTVSPropertyOp20
 70
     1
102
RTVSPropertyOp21
 70
     1
102
RTVSPropertyOp22
 70
     1
102
RTVSPropertyOp23
 70
     1
102
RTVSPropertyOp24
 70
     1
102
RTVSPropertyOp25
 70
     1
102
RTVSPropertyOp26
 70
     1
102
RTVSPropertyOp27
 70
     1
102
RTVSPropertyOp28
 70
     1
102
RTVSPropertyOp29
 70
     1
102
RTVSPropertyOp30
 70
     1
102
RTVSPropertyOp31
 70
     1
102
RTVSPropertyOp32
 70
     1
  0
XRECORD
  5
41F
102
{ACAD_REACTORS
330
41E
102
}
330
41E
100
AcDbXrecord
280
     1
102
RTVSPropertyOp0
 70
     1
102
RTVSPropertyOp1
 70
     1
102
RTVSPropertyOp2
 70
     1
102
RTVSPropertyOp3
 70
     1
102
RTVSPropertyOp4
 70
     1
102
RTVSPropertyOp5
 70
     1
102
RTVSPropertyOp6
 70
     1
102
RTVSPropertyOp7
 70
     1
102
RTVSPropertyOp8
 70
     1
102
RTVSPropertyOp9
 70
     1
102
RTVSPropertyOp10
 70
     1
102
RTVSPropertyOp11
 70
     1
102
RTVSPropertyOp12
 70
     1
102
RTVSPropertyOp13
 70
     1
102
RTVSPropertyOp14
 70
     1
102
RTVSPropertyOp15
 70
     1
102
RTVSPropertyOp16
 70
     1
102
RTVSPropertyOp17
 70
     1
102
RTVSPropertyOp18
 70
     1
102
RTVSPropertyOp19
 70
     1
102
RTVSPropertyOp20
 70
     1
102
RTVSPropertyOp21
 70
     1
102
RTVSPropertyOp22
 70
     1
102
RTVSPropertyOp23
 70
     1
102
RTVSPropertyOp24
 70
     1
102
RTVSPropertyOp25
 70
     1
102
RTVSPropertyOp26
 70
     1
102
RTVSPropertyOp27
 70
     1
102
RTVSPropertyOp28
 70
     1
102
RTVSPropertyOp29
 70
     1
102
RTVSPropertyOp30
 70
     1
102
RTVSPropertyOp31
 70
     1
102
RTVSPropertyOp32
 70
     1
  0
XRECORD
  5
41D
102
{ACAD_REACTORS
330
41C
102
}
330
41C
100
AcDbXrecord
280
     1
102
RTVSPropertyOp0
 70
     1
102
RTVSPropertyOp1
 70
     1
102
RTVSPropertyOp2
 70
     1
102
RTVSPropertyOp3
 70
     1
102
RTVSPropertyOp4
 70
     1
102
RTVSPropertyOp5
 70
     1
102
RTVSPropertyOp6
 70
     1
102
RTVSPropertyOp7
 70
     1
102
RTVSPropertyOp8
 70
     1
102
RTVSPropertyOp9
 70
     1
102
RTVSPropertyOp10
 70
     1
102
RTVSPropertyOp11
 70
     1
102
RTVSPropertyOp12
 70
     1
102
RTVSPropertyOp13
 70
     1
102
RTVSPropertyOp14
 70
     1
102
RTVSPropertyOp15
 70
     1
102
RTVSPropertyOp16
 70
     1
102
RTVSPropertyOp17
 70
     1
102
RTVSPropertyOp18
 70
     1
102
RTVSPropertyOp19
 70
     1
102
RTVSPropertyOp20
 70
     1
102
RTVSPropertyOp21
 70
     1
102
RTVSPropertyOp22
 70
     1
102
RTVSPropertyOp23
 70
     1
102
RTVSPropertyOp24
 70
     1
102
RTVSPropertyOp25
 70
     1
102
RTVSPropertyOp26
 70
     1
102
RTVSPropertyOp27
 70
     1
102
RTVSPropertyOp28
 70
     1
102
RTVSPropertyOp29
 70
     1
102
RTVSPropertyOp30
 70
     1
102
RTVSPropertyOp31
 70
     1
102
RTVSPropertyOp32
 70
     1
  0
XRECORD
  5
421
102
{ACAD_REACTORS
330
420
102
}
330
420
100
AcDbXrecord
280
     1
102
RTVSPropertyOp0
 70
     1
102
RTVSPropertyOp1
 70
     1
102
RTVSPropertyOp2
 70
     1
102
RTVSPropertyOp3
 70
     1
102
RTVSPropertyOp4
 70
     1
102
RTVSPropertyOp5
 70
     1
102
RTVSPropertyOp6
 70
     1
102
RTVSPropertyOp7
 70
     1
102
RTVSPropertyOp8
 70
     1
102
RTVSPropertyOp9
 70
     1
102
RTVSPropertyOp10
 70
     1
102
RTVSPropertyOp11
 70
     1
102
RTVSPropertyOp12
 70
     1
102
RTVSPropertyOp13
 70
     1
102
RTVSPropertyOp14
 70
     1
102
RTVSPropertyOp15
 70
     1
102
RTVSPropertyOp16
 70
     1
102
RTVSPropertyOp17
 70
     1
102
RTVSPropertyOp18
 70
     1
102
RTVSPropertyOp19
 70
     1
102
RTVSPropertyOp20
 70
     1
102
RTVSPropertyOp21
 70
     1
102
RTVSPropertyOp22
 70
     1
102
RTVSPropertyOp23
 70
     1
102
RTVSPropertyOp24
 70
     1
102
RTVSPropertyOp25
 70
     1
102
RTVSPropertyOp26
 70
     1
102
RTVSPropertyOp27
 70
     1
102
RTVSPropertyOp28
 70
     1
102
RTVSPropertyOp29
 70
     1
102
RTVSPropertyOp30
 70
     1
102
RTVSPropertyOp31
 70
     1
102
RTVSPropertyOp32
 70
     1
  0
XRECORD
  5
429
102
{ACAD_REACTORS
330
428
102
}
330
428
100
AcDbXrecord
280
     1
102
RTVSPropertyOp0
 70
     1
102
RTVSPropertyOp1
 70
     1
102
RTVSPropertyOp2
 70
     1
102
RTVSPropertyOp3
 70
     1
102
RTVSPropertyOp4
 70
     1
102
RTVSPropertyOp5
 70
     1
102
RTVSPropertyOp6
 70
     1
102
RTVSPropertyOp7
 70
     1
102
RTVSPropertyOp8
 70
     1
102
RTVSPropertyOp9
 70
     1
102
RTVSPropertyOp10
 70
     1
102
RTVSPropertyOp11
 70
     1
102
RTVSPropertyOp12
 70
     1
102
RTVSPropertyOp13
 70
     1
102
RTVSPropertyOp14
 70
     1
102
RTVSPropertyOp15
 70
     1
102
RTVSPropertyOp16
 70
     1
102
RTVSPropertyOp17
 70
     1
102
RTVSPropertyOp18
 70
     1
102
RTVSPropertyOp19
 70
     1
102
RTVSPropertyOp20
 70
     1
102
RTVSPropertyOp21
 70
     1
102
RTVSPropertyOp22
 70
     1
102
RTVSPropertyOp23
 70
     1
102
RTVSPropertyOp24
 70
     1
102
RTVSPropertyOp25
 70
     1
102
RTVSPropertyOp26
 70
     1
102
RTVSPropertyOp27
 70
     1
102
RTVSPropertyOp28
 70
     1
102
RTVSPropertyOp29
 70
     1
102
RTVSPropertyOp30
 70
     1
102
RTVSPropertyOp31
 70
     1
102
RTVSPropertyOp32
 70
     1
  0
XRECORD
  5
431
102
{ACAD_REACTORS
330
430
102
}
330
430
100
AcDbXrecord
280
     1
102
RTVSPropertyOp0
 70
     1
102
RTVSPropertyOp1
 70
     1
102
RTVSPropertyOp2
 70
     1
102
RTVSPropertyOp3
 70
     1
102
RTVSPropertyOp4
 70
     1
102
RTVSPropertyOp5
 70
     1
102
RTVSPropertyOp6
 70
     1
102
RTVSPropertyOp7
 70
     1
102
RTVSPropertyOp8
 70
     1
102
RTVSPropertyOp9
 70
     1
102
RTVSPropertyOp10
 70
     1
102
RTVSPropertyOp11
 70
     1
102
RTVSPropertyOp12
 70
     1
102
RTVSPropertyOp13
 70
     1
102
RTVSPropertyOp14
 70
     1
102
RTVSPropertyOp15
 70
     1
102
RTVSPropertyOp16
 70
     1
102
RTVSPropertyOp17
 70
     1
102
RTVSPropertyOp18
 70
     1
102
RTVSPropertyOp19
 70
     1
102
RTVSPropertyOp20
 70
     1
102
RTVSPropertyOp21
 70
     1
102
RTVSPropertyOp22
 70
     1
102
RTVSPropertyOp23
 70
     1
102
RTVSPropertyOp24
 70
     1
102
RTVSPropertyOp25
 70
     1
102
RTVSPropertyOp26
 70
     1
102
RTVSPropertyOp27
 70
     1
102
RTVSPropertyOp28
 70
     1
102
RTVSPropertyOp29
 70
     1
102
RTVSPropertyOp30
 70
     1
102
RTVSPropertyOp31
 70
     1
102
RTVSPropertyOp32
 70
     1
  0
XRECORD
  5
425
102
{ACAD_REACTORS
330
424
102
}
330
424
100
AcDbXrecord
280
     1
102
RTVSPropertyOp0
 70
     1
102
RTVSPropertyOp1
 70
     1
102
RTVSPropertyOp2
 70
     1
102
RTVSPropertyOp3
 70
     1
102
RTVSPropertyOp4
 70
     1
102
RTVSPropertyOp5
 70
     1
102
RTVSPropertyOp6
 70
     1
102
RTVSPropertyOp7
 70
     1
102
RTVSPropertyOp8
 70
     1
102
RTVSPropertyOp9
 70
     1
102
RTVSPropertyOp10
 70
     1
102
RTVSPropertyOp11
 70
     1
102
RTVSPropertyOp12
 70
     1
102
RTVSPropertyOp13
 70
     1
102
RTVSPropertyOp14
 70
     1
102
RTVSPropertyOp15
 70
     1
102
RTVSPropertyOp16
 70
     1
102
RTVSPropertyOp17
 70
     1
102
RTVSPropertyOp18
 70
     1
102
RTVSPropertyOp19
 70
     1
102
RTVSPropertyOp20
 70
     1
102
RTVSPropertyOp21
 70
     1
102
RTVSPropertyOp22
 70
     1
102
RTVSPropertyOp23
 70
     1
102
RTVSPropertyOp24
 70
     1
102
RTVSPropertyOp25
 70
     1
102
RTVSPropertyOp26
 70
     1
102
RTVSPropertyOp27
 70
     1
102
RTVSPropertyOp28
 70
     1
102
RTVSPropertyOp29
 70
     1
102
RTVSPropertyOp30
 70
     1
102
RTVSPropertyOp31
 70
     1
102
RTVSPropertyOp32
 70
     1
  0
XRECORD
  5
427
102
{ACAD_REACTORS
330
426
102
}
330
426
100
AcDbXrecord
280
     1
102
RTVSPropertyOp0
 70
     1
102
RTVSPropertyOp1
 70
     1
102
RTVSPropertyOp2
 70
     1
102
RTVSPropertyOp3
 70
     1
102
RTVSPropertyOp4
 70
     1
102
RTVSPropertyOp5
 70
     1
102
RTVSPropertyOp6
 70
     1
102
RTVSPropertyOp7
 70
     1
102
RTVSPropertyOp8
 70
     1
102
RTVSPropertyOp9
 70
     1
102
RTVSPropertyOp10
 70
     1
102
RTVSPropertyOp11
 70
     1
102
RTVSPropertyOp12
 70
     1
102
RTVSPropertyOp13
 70
     1
102
RTVSPropertyOp14
 70
     1
102
RTVSPropertyOp15
 70
     1
102
RTVSPropertyOp16
 70
     1
102
RTVSPropertyOp17
 70
     1
102
RTVSPropertyOp18
 70
     1
102
RTVSPropertyOp19
 70
     1
102
RTVSPropertyOp20
 70
     1
102
RTVSPropertyOp21
 70
     1
102
RTVSPropertyOp22
 70
     1
102
RTVSPropertyOp23
 70
     1
102
RTVSPropertyOp24
 70
     1
102
RTVSPropertyOp25
 70
     1
102
RTVSPropertyOp26
 70
     1
102
RTVSPropertyOp27
 70
     1
102
RTVSPropertyOp28
 70
     1
102
RTVSPropertyOp29
 70
     1
102
RTVSPropertyOp30
 70
     1
102
RTVSPropertyOp31
 70
     1
102
RTVSPropertyOp32
 70
     1
  0
XRECORD
  5
42F
102
{ACAD_REACTORS
330
42E
102
}
330
42E
100
AcDbXrecord
280
     1
102
RTVSPropertyOp0
 70
     1
102
RTVSPropertyOp1
 70
     1
102
RTVSPropertyOp2
 70
     1
102
RTVSPropertyOp3
 70
     1
102
RTVSPropertyOp4
 70
     1
102
RTVSPropertyOp5
 70
     1
102
RTVSPropertyOp6
 70
     1
102
RTVSPropertyOp7
 70
     1
102
RTVSPropertyOp8
 70
     1
102
RTVSPropertyOp9
 70
     1
102
RTVSPropertyOp10
 70
     1
102
RTVSPropertyOp11
 70
     1
102
RTVSPropertyOp12
 70
     1
102
RTVSPropertyOp13
 70
     1
102
RTVSPropertyOp14
 70
     1
102
RTVSPropertyOp15
 70
     1
102
RTVSPropertyOp16
 70
     1
102
RTVSPropertyOp17
 70
     1
102
RTVSPropertyOp18
 70
     1
102
RTVSPropertyOp19
 70
     1
102
RTVSPropertyOp20
 70
     1
102
RTVSPropertyOp21
 70
     1
102
RTVSPropertyOp22
 70
     1
102
RTVSPropertyOp23
 70
     1
102
RTVSPropertyOp24
 70
     1
102
RTVSPropertyOp25
 70
     1
102
RTVSPropertyOp26
 70
     1
102
RTVSPropertyOp27
 70
     1
102
RTVSPropertyOp28
 70
     1
102
RTVSPropertyOp29
 70
     1
102
RTVSPropertyOp30
 70
     1
102
RTVSPropertyOp31
 70
     1
102
RTVSPropertyOp32
 70
     1
  0
XRECORD
  5
413
102
{ACAD_REACTORS
330
412
102
}
330
412
100
AcDbXrecord
280
     1
102
RTVSPropertyOp0
 70
     1
102
RTVSPropertyOp1
 70
     1
102
RTVSPropertyOp2
 70
     1
102
RTVSPropertyOp3
 70
     1
102
RTVSPropertyOp4
 70
     1
102
RTVSPropertyOp5
 70
     1
102
RTVSPropertyOp6
 70
     1
102
RTVSPropertyOp7
 70
     1
102
RTVSPropertyOp8
 70
     1
102
RTVSPropertyOp9
 70
     1
102
RTVSPropertyOp10
 70
     1
102
RTVSPropertyOp11
 70
     1
102
RTVSPropertyOp12
 70
     1
102
RTVSPropertyOp13
 70
     1
102
RTVSPropertyOp14
 70
     1
102
RTVSPropertyOp15
 70
     1
102
RTVSPropertyOp16
 70
     1
102
RTVSPropertyOp17
 70
     1
102
RTVSPropertyOp18
 70
     1
102
RTVSPropertyOp19
 70
     1
102
RTVSPropertyOp20
 70
     1
102
RTVSPropertyOp21
 70
     1
102
RTVSPropertyOp22
 70
     1
102
RTVSPropertyOp23
 70
     1
102
RTVSPropertyOp24
 70
     1
102
RTVSPropertyOp25
 70
     1
102
RTVSPropertyOp26
 70
     1
102
RTVSPropertyOp27
 70
     1
102
RTVSPropertyOp28
 70
     1
102
RTVSPropertyOp29
 70
     1
102
RTVSPropertyOp30
 70
     1
102
RTVSPropertyOp31
 70
     1
102
RTVSPropertyOp32
 70
     1
  0
XRECORD
  5
415
102
{ACAD_REACTORS
330
414
102
}
330
414
100
AcDbXrecord
280
     1
102
RTVSPropertyOp0
 70
     1
102
RTVSPropertyOp1
 70
     1
102
RTVSPropertyOp2
 70
     1
102
RTVSPropertyOp3
 70
     1
102
RTVSPropertyOp4
 70
     1
102
RTVSPropertyOp5
 70
     1
102
RTVSPropertyOp6
 70
     1
102
RTVSPropertyOp7
 70
     1
102
RTVSPropertyOp8
 70
     1
102
RTVSPropertyOp9
 70
     1
102
RTVSPropertyOp10
 70
     1
102
RTVSPropertyOp11
 70
     1
102
RTVSPropertyOp12
 70
     1
102
RTVSPropertyOp13
 70
     1
102
RTVSPropertyOp14
 70
     1
102
RTVSPropertyOp15
 70
     1
102
RTVSPropertyOp16
 70
     1
102
RTVSPropertyOp17
 70
     1
102
RTVSPropertyOp18
 70
     1
102
RTVSPropertyOp19
 70
     1
102
RTVSPropertyOp20
 70
     1
102
RTVSPropertyOp21
 70
     1
102
RTVSPropertyOp22
 70
     1
102
RTVSPropertyOp23
 70
     1
102
RTVSPropertyOp24
 70
     1
102
RTVSPropertyOp25
 70
     1
102
RTVSPropertyOp26
 70
     1
102
RTVSPropertyOp27
 70
     1
102
RTVSPropertyOp28
 70
     1
102
RTVSPropertyOp29
 70
     1
102
RTVSPropertyOp30
 70
     1
102
RTVSPropertyOp31
 70
     1
102
RTVSPropertyOp32
 70
     1
  0
XRECORD
  5
417
102
{ACAD_REACTORS
330
416
102
}
330
416
100
AcDbXrecord
280
     1
102
RTVSPropertyOp0
 70
     1
102
RTVSPropertyOp1
 70
     1
102
RTVSPropertyOp2
 70
     1
102
RTVSPropertyOp3
 70
     1
102
RTVSPropertyOp4
 70
     1
102
RTVSPropertyOp5
 70
     1
102
RTVSPropertyOp6
 70
     1
102
RTVSPropertyOp7
 70
     1
102
RTVSPropertyOp8
 70
     1
102
RTVSPropertyOp9
 70
     1
102
RTVSPropertyOp10
 70
     1
102
RTVSPropertyOp11
 70
     1
102
RTVSPropertyOp12
 70
     1
102
RTVSPropertyOp13
 70
     1
102
RTVSPropertyOp14
 70
     1
102
RTVSPropertyOp15
 70
     1
102
RTVSPropertyOp16
 70
     1
102
RTVSPropertyOp17
 70
     1
102
RTVSPropertyOp18
 70
     1
102
RTVSPropertyOp19
 70
     1
102
RTVSPropertyOp20
 70
     1
102
RTVSPropertyOp21
 70
     1
102
RTVSPropertyOp22
 70
     1
102
RTVSPropertyOp23
 70
     1
102
RTVSPropertyOp24
 70
     1
102
RTVSPropertyOp25
 70
     1
102
RTVSPropertyOp26
 70
     1
102
RTVSPropertyOp27
 70
     1
102
RTVSPropertyOp28
 70
     1
102
RTVSPropertyOp29
 70
     1
102
RTVSPropertyOp30
 70
     1
102
RTVSPropertyOp31
 70
     1
102
RTVSPropertyOp32
 70
     1
  0
XRECORD
  5
419
102
{ACAD_REACTORS
330
418
102
}
330
418
100
AcDbXrecord
280
     1
102
RTVSPropertyOp0
 70
     1
102
RTVSPropertyOp1
 70
     1
102
RTVSPropertyOp2
 70
     1
102
RTVSPropertyOp3
 70
     1
102
RTVSPropertyOp4
 70
     1
102
RTVSPropertyOp5
 70
     1
102
RTVSPropertyOp6
 70
     1
102
RTVSPropertyOp7
 70
     1
102
RTVSPropertyOp8
 70
     1
102
RTVSPropertyOp9
 70
     1
102
RTVSPropertyOp10
 70
     1
102
RTVSPropertyOp11
 70
     1
102
RTVSPropertyOp12
 70
     1
102
RTVSPropertyOp13
 70
     1
102
RTVSPropertyOp14
 70
     1
102
RTVSPropertyOp15
 70
     1
102
RTVSPropertyOp16
 70
     1
102
RTVSPropertyOp17
 70
     1
102
RTVSPropertyOp18
 70
     1
102
RTVSPropertyOp19
 70
     1
102
RTVSPropertyOp20
 70
     1
102
RTVSPropertyOp21
 70
     1
102
RTVSPropertyOp22
 70
     1
102
RTVSPropertyOp23
 70
     1
102
RTVSPropertyOp24
 70
     1
102
RTVSPropertyOp25
 70
     1
102
RTVSPropertyOp26
 70
     1
102
RTVSPropertyOp27
 70
     1
102
RTVSPropertyOp28
 70
     1
102
RTVSPropertyOp29
 70
     1
102
RTVSPropertyOp30
 70
     1
102
RTVSPropertyOp31
 70
     1
102
RTVSPropertyOp32
 70
     1
  0
XRECORD
  5
42D
102
{ACAD_REACTORS
330
42C
102
}
330
42C
100
AcDbXrecord
280
     1
102
RTVSPropertyOp0
 70
     1
102
RTVSPropertyOp1
 70
     1
102
RTVSPropertyOp2
 70
     1
102
RTVSPropertyOp3
 70
     1
102
RTVSPropertyOp4
 70
     1
102
RTVSPropertyOp5
 70
     1
102
RTVSPropertyOp6
 70
     1
102
RTVSPropertyOp7
 70
     1
102
RTVSPropertyOp8
 70
     1
102
RTVSPropertyOp9
 70
     1
102
RTVSPropertyOp10
 70
     1
102
RTVSPropertyOp11
 70
     1
102
RTVSPropertyOp12
 70
     1
102
RTVSPropertyOp13
 70
     1
102
RTVSPropertyOp14
 70
     1
102
RTVSPropertyOp15
 70
     1
102
RTVSPropertyOp16
 70
     1
102
RTVSPropertyOp17
 70
     1
102
RTVSPropertyOp18
 70
     1
102
RTVSPropertyOp19
 70
     1
102
RTVSPropertyOp20
 70
     1
102
RTVSPropertyOp21
 70
     1
102
RTVSPropertyOp22
 70
     1
102
RTVSPropertyOp23
 70
     1
102
RTVSPropertyOp24
 70
     1
102
RTVSPropertyOp25
 70
     1
102
RTVSPropertyOp26
 70
     1
102
RTVSPropertyOp27
 70
     1
102
RTVSPropertyOp28
 70
     1
102
RTVSPropertyOp29
 70
     1
102
RTVSPropertyOp30
 70
     1
102
RTVSPropertyOp31
 70
     1
102
RTVSPropertyOp32
 70
     1
  0
XRECORD
  5
423
102
{ACAD_REACTORS
330
422
102
}
330
422
100
AcDbXrecord
280
     1
102
RTVSPropertyOp0
 70
     1
102
RTVSPropertyOp1
 70
     1
102
RTVSPropertyOp2
 70
     1
102
RTVSPropertyOp3
 70
     1
102
RTVSPropertyOp4
 70
     1
102
RTVSPropertyOp5
 70
     1
102
RTVSPropertyOp6
 70
     1
102
RTVSPropertyOp7
 70
     1
102
RTVSPropertyOp8
 70
     1
102
RTVSPropertyOp9
 70
     1
102
RTVSPropertyOp10
 70
     1
102
RTVSPropertyOp11
 70
     1
102
RTVSPropertyOp12
 70
     1
102
RTVSPropertyOp13
 70
     1
102
RTVSPropertyOp14
 70
     1
102
RTVSPropertyOp15
 70
     1
102
RTVSPropertyOp16
 70
     1
102
RTVSPropertyOp17
 70
     1
102
RTVSPropertyOp18
 70
     1
102
RTVSPropertyOp19
 70
     1
102
RTVSPropertyOp20
 70
     1
102
RTVSPropertyOp21
 70
     1
102
RTVSPropertyOp22
 70
     1
102
RTVSPropertyOp23
 70
     1
102
RTVSPropertyOp24
 70
     1
102
RTVSPropertyOp25
 70
     1
102
RTVSPropertyOp26
 70
     1
102
RTVSPropertyOp27
 70
     1
102
RTVSPropertyOp28
 70
     1
102
RTVSPropertyOp29
 70
     1
102
RTVSPropertyOp30
 70
     1
102
RTVSPropertyOp31
 70
     1
102
RTVSPropertyOp32
 70
     1
  0
XRECORD
  5
42B
102
{ACAD_REACTORS
330
42A
102
}
330
42A
100
AcDbXrecord
280
     1
102
RTVSPropertyOp0
 70
     1
102
RTVSPropertyOp1
 70
     1
102
RTVSPropertyOp2
 70
     1
102
RTVSPropertyOp3
 70
     1
102
RTVSPropertyOp4
 70
     1
102
RTVSPropertyOp5
 70
     1
102
RTVSPropertyOp6
 70
     1
102
RTVSPropertyOp7
 70
     1
102
RTVSPropertyOp8
 70
     1
102
RTVSPropertyOp9
 70
     1
102
RTVSPropertyOp10
 70
     1
102
RTVSPropertyOp11
 70
     1
102
RTVSPropertyOp12
 70
     1
102
RTVSPropertyOp13
 70
     1
102
RTVSPropertyOp14
 70
     1
102
RTVSPropertyOp15
 70
     1
102
RTVSPropertyOp16
 70
     1
102
RTVSPropertyOp17
 70
     1
102
RTVSPropertyOp18
 70
     1
102
RTVSPropertyOp19
 70
     1
102
RTVSPropertyOp20
 70
     1
102
RTVSPropertyOp21
 70
     1
102
RTVSPropertyOp22
 70
     1
102
RTVSPropertyOp23
 70
     1
102
RTVSPropertyOp24
 70
     1
102
RTVSPropertyOp25
 70
     1
102
RTVSPropertyOp26
 70
     1
102
RTVSPropertyOp27
 70
     1
102
RTVSPropertyOp28
 70
     1
102
RTVSPropertyOp29
 70
     1
102
RTVSPropertyOp30
 70
     1
102
RTVSPropertyOp31
 70
     1
102
RTVSPropertyOp32
 70
     1
  0
ENDSEC
  0
EOF
