  0
SECTION
  2
HEADER
  9
$ACADVER
  1
AC1018
  9
$ACADMAINTVER
 70
     0
  9
$DWGCODEPAGE
  3
ANSI_1252
  9
$INSBASE
 10
0.0
 20
0.0
 30
0.0
  9
$EXTMIN
 10
-85.54999977806847
 20
320.4729108703872
 30
0.0
  9
$EXTMAX
 10
211.4500002219296
 20
530.4729108703873
 30
0.0
  9
$LIMMIN
 10
0.0
 20
0.0
  9
$LIMMAX
 10
12.0
 20
9.0
  9
$ORTHOMODE
 70
     0
  9
$REGENMODE
 70
     1
  9
$FILLMODE
 70
     1
  9
$QTEXTMODE
 70
     0
  9
$MIRRTEXT
 70
     1
  9
$LTSCALE
 40
1.0
  9
$ATTMODE
 70
     1
  9
$TEXTSIZE
 40
0.2
  9
$TRACEWID
 40
0.05
  9
$TEXTSTYLE
  7
Standard
  9
$CLAYER
  8
0
  9
$CELTYPE
  6
ByLayer
  9
$CECOLOR
 62
   256
  9
$CELTSCALE
 40
1.0
  9
$DISPSILH
 70
     0
  9
$DIMSCALE
 40
1.0
  9
$DIMASZ
 40
0.18
  9
$DIMEXO
 40
0.0625
  9
$DIMDLI
 40
0.38
  9
$DIMRND
 40
0.0
  9
$DIMDLE
 40
0.0
  9
$DIMEXE
 40
0.18
  9
$DIMTP
 40
0.0
  9
$DIMTM
 40
0.0
  9
$DIMTXT
 40
0.18
  9
$DIMCEN
 40
0.09
  9
$DIMTSZ
 40
0.0
  9
$DIMTOL
 70
     0
  9
$DIMLIM
 70
     0
  9
$DIMTIH
 70
     1
  9
$DIMTOH
 70
     1
  9
$DIMSE1
 70
     0
  9
$DIMSE2
 70
     0
  9
$DIMTAD
 70
     0
  9
$DIMZIN
 70
     0
  9
$DIMBLK
  1

  9
$DIMASO
 70
     1
  9
$DIMSHO
 70
     1
  9
$DIMPOST
  1

  9
$DIMAPOST
  1

  9
$DIMALT
 70
     0
  9
$DIMALTD
 70
     2
  9
$DIMALTF
 40
25.4
  9
$DIMLFAC
 40
1.0
  9
$DIMTOFL
 70
     0
  9
$DIMTVP
 40
0.0
  9
$DIMTIX
 70
     0
  9
$DIMSOXD
 70
     0
  9
$DIMSAH
 70
     0
  9
$DIMBLK1
  1

  9
$DIMBLK2
  1

  9
$DIMSTYLE
  2
Standard
  9
$DIMCLRD
 70
     0
  9
$DIMCLRE
 70
     0
  9
$DIMCLRT
 70
     0
  9
$DIMTFAC
 40
1.0
  9
$DIMGAP
 40
0.09
  9
$DIMJUST
 70
     0
  9
$DIMSD1
 70
     0
  9
$DIMSD2
 70
     0
  9
$DIMTOLJ
 70
     1
  9
$DIMTZIN
 70
     0
  9
$DIMALTZ
 70
     0
  9
$DIMALTTZ
 70
     0
  9
$DIMUPT
 70
     0
  9
$DIMDEC
 70
     4
  9
$DIMTDEC
 70
     4
  9
$DIMALTU
 70
     2
  9
$DIMALTTD
 70
     2
  9
$DIMTXSTY
  7
Standard
  9
$DIMAUNIT
 70
     0
  9
$DIMADEC
 70
     0
  9
$DIMALTRND
 40
0.0
  9
$DIMAZIN
 70
     0
  9
$DIMDSEP
 70
    46
  9
$DIMATFIT
 70
     3
  9
$DIMFRAC
 70
     0
  9
$DIMLDRBLK
  1

  9
$DIMLUNIT
 70
     2
  9
$DIMLWD
 70
    -2
  9
$DIMLWE
 70
    -2
  9
$DIMTMOVE
 70
     0
  9
$LUNITS
 70
     2
  9
$LUPREC
 70
     4
  9
$SKETCHINC
 40
0.1
  9
$FILLETRAD
 40
0.5
  9
$AUNITS
 70
     0
  9
$AUPREC
 70
     0
  9
$MENU
  1
.
  9
$ELEVATION
 40
0.0
  9
$PELEVATION
 40
0.0
  9
$THICKNESS
 40
0.0
  9
$LIMCHECK
 70
     0
  9
$CHAMFERA
 40
0.5
  9
$CHAMFERB
 40
0.5
  9
$CHAMFERC
 40
1.0
  9
$CHAMFERD
 40
0.0
  9
$SKPOLY
 70
     0
  9
$TDCREATE
 40
2458102.550714086
  9
$TDUCREATE
 40
2458102.509047419
  9
$TDUPDATE
 40
2458102.55071463
  9
$TDUUPDATE
 40
2458102.509047963
  9
$TDINDWG
 40
0.0000000116
  9
$TDUSRTIMER
 40
0.0000000116
  9
$USRTIMER
 70
     1
  9
$ANGBASE
 50
0.0
  9
$ANGDIR
 70
     0
  9
$PDMODE
 70
     0
  9
$PDSIZE
 40
0.0
  9
$PLINEWID
 40
0.0
  9
$SPLFRAME
 70
     0
  9
$SPLINETYPE
 70
     6
  9
$SPLINESEGS
 70
     8
  9
$HANDSEED
  5
253
  9
$SURFTAB1
 70
     6
  9
$SURFTAB2
 70
     6
  9
$SURFTYPE
 70
     6
  9
$SURFU
 70
     6
  9
$SURFV
 70
     6
  9
$UCSBASE
  2

  9
$UCSNAME
  2

  9
$UCSORG
 10
0.0
 20
0.0
 30
0.0
  9
$UCSXDIR
 10
1.0
 20
0.0
 30
0.0
  9
$UCSYDIR
 10
0.0
 20
1.0
 30
0.0
  9
$UCSORTHOREF
  2

  9
$UCSORTHOVIEW
 70
     0
  9
$UCSORGTOP
 10
0.0
 20
0.0
 30
0.0
  9
$UCSORGBOTTOM
 10
0.0
 20
0.0
 30
0.0
  9
$UCSORGLEFT
 10
0.0
 20
0.0
 30
0.0
  9
$UCSORGRIGHT
 10
0.0
 20
0.0
 30
0.0
  9
$UCSORGFRONT
 10
0.0
 20
0.0
 30
0.0
  9
$UCSORGBACK
 10
0.0
 20
0.0
 30
0.0
  9
$PUCSBASE
  2

  9
$PUCSNAME
  2

  9
$PUCSORG
 10
0.0
 20
0.0
 30
0.0
  9
$PUCSXDIR
 10
1.0
 20
0.0
 30
0.0
  9
$PUCSYDIR
 10
0.0
 20
1.0
 30
0.0
  9
$PUCSORTHOREF
  2

  9
$PUCSORTHOVIEW
 70
     0
  9
$PUCSORGTOP
 10
0.0
 20
0.0
 30
0.0
  9
$PUCSORGBOTTOM
 10
0.0
 20
0.0
 30
0.0
  9
$PUCSORGLEFT
 10
0.0
 20
0.0
 30
0.0
  9
$PUCSORGRIGHT
 10
0.0
 20
0.0
 30
0.0
  9
$PUCSORGFRONT
 10
0.0
 20
0.0
 30
0.0
  9
$PUCSORGBACK
 10
0.0
 20
0.0
 30
0.0
  9
$USERI1
 70
     0
  9
$USERI2
 70
     0
  9
$USERI3
 70
     0
  9
$USERI4
 70
     0
  9
$USERI5
 70
     0
  9
$USERR1
 40
18.1
  9
$USERR2
 40
0.0
  9
$USERR3
 40
0.0
  9
$USERR4
 40
0.0
  9
$USERR5
 40
0.0
  9
$WORLDVIEW
 70
     1
  9
$SHADEDGE
 70
     3
  9
$SHADEDIF
 70
    70
  9
$TILEMODE
 70
     1
  9
$MAXACTVP
 70
    64
  9
$PINSBASE
 10
0.0
 20
0.0
 30
0.0
  9
$PLIMCHECK
 70
     0
  9
$PEXTMIN
 10
1.00000000000000E+20
 20
1.00000000000000E+20
 30
1.00000000000000E+20
  9
$PEXTMAX
 10
-1.00000000000000E+20
 20
-1.00000000000000E+20
 30
-1.00000000000000E+20
  9
$PLIMMIN
 10
0.0
 20
0.0
  9
$PLIMMAX
 10
12.0
 20
9.0
  9
$UNITMODE
 70
     0
  9
$VISRETAIN
 70
     1
  9
$PLINEGEN
 70
     0
  9
$PSLTSCALE
 70
     1
  9
$TREEDEPTH
 70
  3020
  9
$CMLSTYLE
  2
Standard
  9
$CMLJUST
 70
     0
  9
$CMLSCALE
 40
1.0
  9
$PROXYGRAPHICS
 70
     1
  9
$MEASUREMENT
 70
     1
  9
$CELWEIGHT
370
    -1
  9
$ENDCAPS
280
     0
  9
$JOINSTYLE
280
     0
  9
$LWDISPLAY
290
     0
  9
$INSUNITS
 70
     4
  9
$HYPERLINKBASE
  1

  9
$STYLESHEET
  1

  9
$XEDIT
290
     1
  9
$CEPSNTYPE
380
     0
  9
$PSTYLEMODE
290
     1
  9
$FINGERPRINTGUID
  2
{B7F19682-48A1-4972-8EB9-986B02603CB8}
  9
$VERSIONGUID
  2
{FAEB1C32-E019-11D5-929B-00C0DF256EC4}
  9
$EXTNAMES
290
     1
  9
$PSVPSCALE
 40
0.0
  9
$OLESTARTUP
290
     0
  9
$SORTENTS
280
   127
  9
$INDEXCTL
280
     0
  9
$HIDETEXT
280
     1
  9
$XCLIPFRAME
290
     0
  9
$HALOGAP
280
     0
  9
$OBSCOLOR
 70
   257
  9
$OBSLTYPE
280
     0
  9
$INTERSECTIONDISPLAY
280
     0
  9
$INTERSECTIONCOLOR
 70
   257
  9
$DIMASSOC
280
     2
  9
$PROJECTNAME
  1

  0
ENDSEC
  0
SECTION
  2
CLASSES
  0
CLASS
  1
ACDBDICTIONARYWDFLT
  2
AcDbDictionaryWithDefault
  3
ObjectDBX Classes
 90
        0
 91
        4
280
     0
281
     0
  0
CLASS
  1
VISUALSTYLE
  2
AcDbVisualStyle
  3
ObjectDBX Classes
 90
     4095
 91
        4
280
     0
281
     0
  0
CLASS
  1
MATERIAL
  2
AcDbMaterial
  3
ObjectDBX Classes
 90
     1153
 91
        4
280
     0
281
     0
  0
ENDSEC
  0
SECTION
  2
TABLES
  0
TABLE
  2
VPORT
  5
8
330
0
100
AcDbSymbolTable
 70
     1
  0
VPORT
  5
29
330
8
100
AcDbSymbolTableRecord
100
AcDbViewportTableRecord
  2
*Active
 70
     0
 10
0.0
 20
0.0
 11
1.0
 21
1.0
 12
62.95000022193057
 22
425.4729108703872
 13
0.0
 23
0.0
 14
0.5
 24
0.5
 15
0.5
 25
0.5
 16
0.0
 26
0.0
 36
1.0
 17
0.0
 27
0.0
 37
0.0
 40
231.0000000000001
 41
1.60267857142857
 42
50.0
 43
0.0
 44
0.0
 50
0.0
 51
0.0
 71
     0
 72
   100
 73
     1
 74
     3
 75
     0
 76
     0
 77
     0
 78
     0
281
     0
 65
     1
110
0.0
120
0.0
130
0.0
111
1.0
121
0.0
131
0.0
112
0.0
122
1.0
132
0.0
 79
     0
146
0.0
  0
ENDTAB
  0
TABLE
  2
LTYPE
  5
5
330
0
100
AcDbSymbolTable
 70
     8
  0
LTYPE
  5
14
330
5
100
AcDbSymbolTableRecord
100
AcDbLinetypeTableRecord
  2
ByBlock
 70
     0
  3

 72
    65
 73
     0
 40
0.0
  0
LTYPE
  5
15
330
5
100
AcDbSymbolTableRecord
100
AcDbLinetypeTableRecord
  2
ByLayer
 70
     0
  3

 72
    65
 73
     0
 40
0.0
  0
LTYPE
  5
16
330
5
100
AcDbSymbolTableRecord
100
AcDbLinetypeTableRecord
  2
Continuous
 70
     0
  3
Solid line
 72
    65
 73
     0
 40
0.0
  0
LTYPE
  5
3F
330
5
100
AcDbSymbolTableRecord
100
AcDbLinetypeTableRecord
  2
DASHED
 70
     0
  3
Dashed
 72
    65
 73
     2
 40
15.0
 49
7.0
 74
     0
 49
-8.0
 74
     0
  0
LTYPE
  5
40
330
5
100
AcDbSymbolTableRecord
100
AcDbLinetypeTableRecord
  2
DOTTED
 70
     0
  3
Dotted
 72
    65
 73
     2
 40
1.0
 49
0.0
 74
     0
 49
-1.0
 74
     0
  0
LTYPE
  5
41
330
5
100
AcDbSymbolTableRecord
100
AcDbLinetypeTableRecord
  2
DOT_CENTER
 70
     0
  3
Dot_Center
 72
    65
 73
     4
 40
14.0
 49
12.0
 74
     0
 49
-1.0
 74
     0
 49
0.0
 74
     0
 49
-1.0
 74
     0
  0
LTYPE
  5
42
330
5
100
AcDbSymbolTableRecord
100
AcDbLinetypeTableRecord
  2
LONG_DASHED
 70
     0
  3
Long_Dashed
 72
    65
 73
     2
 40
15.0
 49
10.0
 74
     0
 49
-5.0
 74
     0
  0
LTYPE
  5
43
330
5
100
AcDbSymbolTableRecord
100
AcDbLinetypeTableRecord
  2
DASH_CENTER
 70
     0
  3
Dash_Center
 72
    65
 73
     4
 40
14.0
 49
11.0
 74
     0
 49
-1.0
 74
     0
 49
1.0
 74
     0
 49
-1.0
 74
     0
  0
LTYPE
  5
44
330
5
100
AcDbSymbolTableRecord
100
AcDbLinetypeTableRecord
  2
PHANTOM
 70
     0
  3
Phantom
 72
    65
 73
     6
 40
13.0
 49
10.0
 74
     0
 49
-1.0
 74
     0
 49
0.0
 74
     0
 49
-1.0
 74
     0
 49
0.0
 74
     0
 49
-1.0
 74
     0
  0
LTYPE
  5
45
330
5
100
AcDbSymbolTableRecord
100
AcDbLinetypeTableRecord
  2
CENTER_DASH_DASH
 70
     0
  3
Center_Dash_Dash
 72
    65
 73
     6
 40
14.0
 49
9.0
 74
     0
 49
-1.0
 74
     0
 49
1.0
 74
     0
 49
-1.0
 74
     0
 49
1.0
 74
     0
 49
-1.0
 74
     0
  0
ENDTAB
  0
TABLE
  2
LAYER
  5
2
330
0
100
AcDbSymbolTable
 70
     2
  0
LAYER
  5
10
330
2
100
AcDbSymbolTableRecord
100
AcDbLayerTableRecord
  2
0
 70
     0
 62
     7
  6
Continuous
370
    -3
390
F
  0
LAYER
  5
46
330
2
100
AcDbSymbolTableRecord
100
AcDbLayerTableRecord
  2
1
 70
     0
 62
     7
  6
Continuous
370
    -3
390
F
  0
ENDTAB
  0
TABLE
  2
STYLE
  5
3
330
0
100
AcDbSymbolTable
 70
     5
  0
STYLE
  5
11
330
3
100
AcDbSymbolTableRecord
100
AcDbTextStyleTableRecord
  2
Standard
 70
     0
 40
0.0
 41
1.0
 50
0.0
 71
     0
 42
0.2
  3
txt
  4

  0
STYLE
  5
9A
330
3
100
AcDbSymbolTableRecord
100
AcDbTextStyleTableRecord
  2
CONVERTER_11
 70
     0
 40
0.0
 41
0.9
 50
0.0
 71
     0
 42
0.2
  3
txt.shx
  4

  0
STYLE
  5
1EE
330
3
100
AcDbSymbolTableRecord
100
AcDbTextStyleTableRecord
  2
CONVERTER_12
 70
     0
 40
0.0
 41
0.81
 50
0.0
 71
     0
 42
0.2
  3
txt.shx
  4

  0
STYLE
  5
204
330
3
100
AcDbSymbolTableRecord
100
AcDbTextStyleTableRecord
  2
CONVERTER_13
 70
     0
 40
0.0
 41
0.72
 50
0.0
 71
     0
 42
0.2
  3
txt.shx
  4

  0
STYLE
  5
207
330
3
100
AcDbSymbolTableRecord
100
AcDbTextStyleTableRecord
  2
CONVERTER_14
 70
     0
 40
0.0
 41
0.855
 50
0.0
 71
     0
 42
0.2
  3
txt.shx
  4

  0
ENDTAB
  0
TABLE
  2
VIEW
  5
6
330
0
100
AcDbSymbolTable
 70
     0
  0
ENDTAB
  0
TABLE
  2
UCS
  5
7
330
0
100
AcDbSymbolTable
 70
     0
  0
ENDTAB
  0
TABLE
  2
APPID
  5
9
330
0
100
AcDbSymbolTable
 70
     1
  0
APPID
  5
12
330
9
100
AcDbSymbolTableRecord
100
AcDbRegAppTableRecord
  2
ACAD
 70
     0
  0
ENDTAB
  0
TABLE
  2
DIMSTYLE
  5
A
330
0
100
AcDbSymbolTable
 70
     4
100
AcDbDimStyleTable
  0
DIMSTYLE
105
27
330
A
100
AcDbSymbolTableRecord
100
AcDbDimStyleTableRecord
  2
Standard
 70
     0
178
     0
340
11
  0
DIMSTYLE
105
B2
102
{ACAD_REACTORS
330
B3
102
}
330
A
100
AcDbSymbolTableRecord
100
AcDbDimStyleTableRecord
  2
ME10_DIM_10
 70
     0
 41
3.5
 42
0.0
 44
1.5
 73
     0
 74
     0
 77
     1
 78
     8
140
3.5
147
1.5
172
     1
173
     1
174
     1
175
     1
176
     2
177
     2
178
     3
340
9A
  0
DIMSTYLE
105
E5
102
{ACAD_REACTORS
330
E6
102
}
330
A
100
AcDbSymbolTableRecord
100
AcDbDimStyleTableRecord
  2
ME10_DIM_11
 70
     0
 41
3.5
 42
0.0
 44
1.5
 73
     0
 74
     0
 77
     1
 78
     8
140
3.5
147
1.5
172
     1
173
     1
174
     1
175
     1
176
     2
177
     2
178
     3
340
9A
  0
DIMSTYLE
105
F0
102
{ACAD_REACTORS
330
F1
102
}
330
A
100
AcDbSymbolTableRecord
100
AcDbDimStyleTableRecord
  2
ME10_DIM_12
 70
     0
 41
3.5
 42
0.0
 44
2.0
 73
     0
 74
     0
 77
     1
 78
     8
140
3.5
147
2.0
172
     1
173
     1
174
     1
175
     1
176
     2
177
     2
271
     0
178
     3
271
     0
340
9A
  0
ENDTAB
  0
TABLE
  2
BLOCK_RECORD
  5
1
330
0
100
AcDbSymbolTable
 70
    20
  0
BLOCK_RECORD
  5
1F
330
1
100
AcDbSymbolTableRecord
100
AcDbBlockTableRecord
  2
*Model_Space
340
22
  0
BLOCK_RECORD
  5
1B
330
1
100
AcDbSymbolTableRecord
100
AcDbBlockTableRecord
  2
*Paper_Space
340
1E
  0
BLOCK_RECORD
  5
23
330
1
100
AcDbSymbolTableRecord
100
AcDbBlockTableRecord
  2
*Paper_Space0
340
26
  0
BLOCK_RECORD
  5
47
330
1
100
AcDbSymbolTableRecord
100
AcDbBlockTableRecord
  2
D-OTTA_6-T-select__1
340
0
102
{BLKREFS
331
4B
102
}
  0
BLOCK_RECORD
  5
4A
330
1
100
AcDbSymbolTableRecord
100
AcDbBlockTableRecord
  2
AllgSicht1
340
0
102
{BLKREFS
331
7D
102
}
  0
BLOCK_RECORD
  5
4E
330
1
100
AcDbSymbolTableRecord
100
AcDbBlockTableRecord
  2
D-OTTA_6-T-select__2
340
0
102
{BLKREFS
331
52
102
}
  0
BLOCK_RECORD
  5
51
330
1
100
AcDbSymbolTableRecord
100
AcDbBlockTableRecord
  2
Drfsicht1
340
0
102
{BLKREFS
331
7E
102
}
  0
BLOCK_RECORD
  5
55
330
1
100
AcDbSymbolTableRecord
100
AcDbBlockTableRecord
  2
D-OTTA_6-T-select__3
340
0
102
{BLKREFS
331
59
102
}
  0
BLOCK_RECORD
  5
58
330
1
100
AcDbSymbolTableRecord
100
AcDbBlockTableRecord
  2
Rckans1
340
0
102
{BLKREFS
331
7F
102
}
  0
BLOCK_RECORD
  5
5C
330
1
100
AcDbSymbolTableRecord
100
AcDbBlockTableRecord
  2
D-OTTA_6-T-select__4
340
0
102
{BLKREFS
331
60
102
}
  0
BLOCK_RECORD
  5
5F
330
1
100
AcDbSymbolTableRecord
100
AcDbBlockTableRecord
  2
SA_Links1
340
0
102
{BLKREFS
331
80
102
}
  0
BLOCK_RECORD
  5
63
330
1
100
AcDbSymbolTableRecord
100
AcDbBlockTableRecord
  2
D-OTTA_6-T-select__5
340
0
102
{BLKREFS
331
67
102
}
  0
BLOCK_RECORD
  5
66
330
1
100
AcDbSymbolTableRecord
100
AcDbBlockTableRecord
  2
SA_Rechts1
340
0
102
{BLKREFS
331
81
102
}
  0
BLOCK_RECORD
  5
6A
330
1
100
AcDbSymbolTableRecord
100
AcDbBlockTableRecord
  2
D-OTTA_6-T-select__6
340
0
102
{BLKREFS
331
6E
102
}
  0
BLOCK_RECORD
  5
6D
330
1
100
AcDbSymbolTableRecord
100
AcDbBlockTableRecord
  2
Vordans1
340
0
102
{BLKREFS
331
82
102
}
  0
BLOCK_RECORD
  5
71
330
1
100
AcDbSymbolTableRecord
100
AcDbBlockTableRecord
  2
_rahmen
340
0
102
{BLKREFS
331
78
102
}
  0
BLOCK_RECORD
  5
74
330
1
100
AcDbSymbolTableRecord
100
AcDbBlockTableRecord
  2
_punkt
340
0
102
{BLKREFS
331
79
102
}
  0
BLOCK_RECORD
  5
77
330
1
100
AcDbSymbolTableRecord
100
AcDbBlockTableRecord
  2
A4I_CS
340
0
102
{BLKREFS
331
83
102
}
  0
BLOCK_RECORD
  5
7C
330
1
100
AcDbSymbolTableRecord
100
AcDbBlockTableRecord
  2
1
340
0
102
{BLKREFS
331
86
102
}
  0
BLOCK_RECORD
  5
A7
330
1
100
AcDbSymbolTableRecord
100
AcDbBlockTableRecord
  2
*D17
340
0
  0
BLOCK_RECORD
  5
DC
330
1
100
AcDbSymbolTableRecord
100
AcDbBlockTableRecord
  2
*D18
340
0
  0
BLOCK_RECORD
  5
E7
330
1
100
AcDbSymbolTableRecord
100
AcDbBlockTableRecord
  2
*D19
340
0
  0
ENDTAB
  0
ENDSEC
  0
SECTION
  2
BLOCKS
  0
BLOCK
  5
20
330
1F
100
AcDbEntity
  8
0
100
AcDbBlockBegin
  2
*Model_Space
 70
     0
 10
0.0
 20
0.0
 30
0.0
  3
*Model_Space
  1

  0
ENDBLK
  5
21
330
1F
100
AcDbEntity
  8
0
100
AcDbBlockEnd
  0
BLOCK
  5
1C
330
1B
100
AcDbEntity
 67
     1
  8
0
100
AcDbBlockBegin
  2
*Paper_Space
 70
     0
 10
0.0
 20
0.0
 30
0.0
  3
*Paper_Space
  1

  0
ENDBLK
  5
1D
330
1B
100
AcDbEntity
 67
     1
  8
0
100
AcDbBlockEnd
  0
BLOCK
  5
24
330
23
100
AcDbEntity
  8
0
100
AcDbBlockBegin
  2
*Paper_Space0
 70
     0
 10
0.0
 20
0.0
 30
0.0
  3
*Paper_Space0
  1

  0
ENDBLK
  5
25
330
23
100
AcDbEntity
  8
0
100
AcDbBlockEnd
  0
BLOCK
  5
48
330
47
100
AcDbEntity
  8
0
100
AcDbBlockBegin
  2
D-OTTA_6-T-select__1
 70
     0
 10
124.7904242900436
 20
369.395821975703
 30
0.0
  3
D-OTTA_6-T-select__1
  1

  0
LINE
  5
87
330
47
100
AcDbEntity
  8
0
  6
Continuous
 62
     7
100
AcDbLine
 10
175.4962116816226
 20
407.317158450108
 30
0.0
 11
176.2462116816226
 21
407.9666775029464
 31
0.0
  0
LINE
  5
88
330
47
100
AcDbEntity
  8
0
  6
Continuous
 62
     7
100
AcDbLine
 10
176.2462116816226
 20
407.9666775029464
 30
0.0
 11
176.2462116816226
 21
406.0614216146206
 31
0.0
  0
LINE
  5
89
330
47
100
AcDbEntity
  8
0
  6
Continuous
 62
     7
100
AcDbLine
 10
133.7537872192126
 20
419.367158450108
 30
0.0
 11
134.5037872192126
 21
420.0166775029464
 31
0.0
  0
LINE
  5
8A
330
47
100
AcDbEntity
  8
0
  6
Continuous
 62
     7
100
AcDbLine
 10
124.7904242900436
 20
414.8744025617823
 30
0.0
 11
133.7537872192126
 21
417.4619025617823
 31
0.0
  0
LINE
  5
8B
330
47
100
AcDbEntity
  8
0
  6
Continuous
 62
     7
100
AcDbLine
 10
125.5404242900436
 20
415.5239216146206
 30
0.0
 11
133.7537872192126
 21
417.8949152636745
 31
0.0
  0
LINE
  5
8C
330
47
100
AcDbEntity
  8
0
  6
Continuous
 62
     7
100
AcDbLine
 10
133.7537872192126
 20
417.4619025617823
 30
0.0
 11
133.7537872192126
 21
419.367158450108
 31
0.0
  0
LINE
  5
8D
330
47
100
AcDbEntity
  8
0
  6
Continuous
 62
     7
100
AcDbLine
 10
175.4962116816226
 20
407.317158450108
 30
0.0
 11
175.4962116816226
 21
405.4119025617823
 31
0.0
  0
LINE
  5
8E
330
47
100
AcDbEntity
  8
0
  6
Continuous
 62
     7
100
AcDbLine
 10
133.7537872192126
 20
419.367158450108
 30
0.0
 11
175.4962116816226
 21
407.317158450108
 31
0.0
  0
LINE
  5
8F
330
47
100
AcDbEntity
  8
0
  6
Continuous
 62
     7
100
AcDbLine
 10
134.5037872192126
 20
420.0166775029464
 30
0.0
 11
176.2462116816226
 21
407.9666775029464
 31
0.0
  0
LINE
  5
90
330
47
100
AcDbEntity
  8
0
  6
Continuous
 62
     7
100
AcDbLine
 10
184.4595746107915
 20
369.395821975703
 30
0.0
 11
185.2095746107915
 21
370.0453410285413
 31
0.0
  0
LINE
  5
91
330
47
100
AcDbEntity
  8
0
  6
Continuous
 62
     7
100
AcDbLine
 10
124.7904242900436
 20
414.8744025617823
 30
0.0
 11
125.5404242900436
 21
415.5239216146206
 31
0.0
  0
LINE
  5
92
330
47
100
AcDbEntity
  8
0
  6
Continuous
 62
     7
100
AcDbLine
 10
184.4595746107915
 20
397.6494025617823
 30
0.0
 11
184.4595746107915
 21
369.395821975703
 31
0.0
  0
LINE
  5
93
330
47
100
AcDbEntity
  8
0
  6
Continuous
 62
     7
100
AcDbLine
 10
176.2462116816226
 20
406.0614216146206
 30
0.0
 11
175.4962116816226
 21
405.4119025617823
 31
0.0
  0
LINE
  5
94
330
47
100
AcDbEntity
  8
0
  6
Continuous
 62
     7
100
AcDbLine
 10
184.4595746107915
 20
397.6494025617823
 30
0.0
 11
185.2095746107915
 21
398.2989216146206
 31
0.0
  0
LINE
  5
95
330
47
100
AcDbEntity
  8
0
  6
Continuous
 62
     7
100
AcDbLine
 10
175.4962116816226
 20
405.4119025617823
 30
0.0
 11
184.4595746107915
 21
397.6494025617823
 31
0.0
  0
LINE
  5
96
330
47
100
AcDbEntity
  8
0
  6
Continuous
 62
     7
100
AcDbLine
 10
176.2462116816226
 20
406.0614216146206
 30
0.0
 11
185.2095746107915
 21
398.2989216146206
 31
0.0
  0
LINE
  5
97
330
47
100
AcDbEntity
  8
0
  6
Continuous
 62
     7
100
AcDbLine
 10
185.2095746107915
 20
398.2989216146206
 30
0.0
 11
185.2095746107915
 21
370.0453410285413
 31
0.0
  0
LINE
  5
98
330
47
100
AcDbEntity
  8
0
  6
Continuous
 62
     7
100
AcDbLine
 10
124.7904242900436
 20
386.6208219757029
 30
0.0
 11
124.7904242900436
 21
414.8744025617823
 31
0.0
  0
LINE
  5
99
330
47
100
AcDbEntity
  8
0
  6
Continuous
 62
     7
100
AcDbLine
 10
184.4595746107915
 20
369.395821975703
 30
0.0
 11
124.7904242900436
 21
386.6208219757029
 31
0.0
  0
ENDBLK
  5
49
330
47
100
AcDbEntity
  8
0
100
AcDbBlockEnd
  0
BLOCK
  5
4C
330
4A
100
AcDbEntity
  8
0
100
AcDbBlockBegin
  2
AllgSicht1
 70
     0
 10
155.0000000000006
 20
396.0
 30
0.0
  3
AllgSicht1
  1

  0
INSERT
  5
4B
330
4A
100
AcDbEntity
  8
0
100
AcDbBlockReference
  2
D-OTTA_6-T-select__1
 10
124.7904242900436
 20
369.395821975703
 30
0.0
  0
MTEXT
  5
9B
330
4A
100
AcDbEntity
  8
1
 62
     6
100
AcDbMText
 10
154.9999999999981
 20
364.3958226660416
 30
0.0
 40
5.0
 41
0.0
 71
     2
 72
     1
  1
 
  7
CONVERTER_11
 73
     1
 44
1.32052821128451
  0
ENDBLK
  5
4D
330
4A
100
AcDbEntity
  8
0
100
AcDbBlockEnd
  0
BLOCK
  5
4F
330
4E
100
AcDbEntity
  8
0
100
AcDbBlockBegin
  2
D-OTTA_6-T-select__2
 70
     0
 10
-10.450000634601
 20
409.2499999999902
 30
0.0
  3
D-OTTA_6-T-select__2
  1

  0
LINE
  5
9C
330
4E
100
AcDbEntity
  8
0
  6
Continuous
 62
     7
100
AcDbLine
 10
48.09999936539905
 20
410.7499999999902
 30
0.0
 11
58.44999936539904
 21
410.7499999999902
 31
0.0
  0
LINE
  5
9D
330
4E
100
AcDbEntity
  8
0
  6
Continuous
 62
     7
100
AcDbLine
 10
-10.450000634601
 20
410.7499999999902
 30
0.0
 11
-0.100000634601
 21
410.7499999999902
 31
0.0
  0
LINE
  5
9E
330
4E
100
AcDbEntity
  8
0
  6
Continuous
 62
     7
100
AcDbLine
 10
-0.100000634601
 20
410.7499999999902
 30
0.0
 11
48.09999936539905
 21
410.7499999999902
 31
0.0
  0
LINE
  5
9F
330
4E
100
AcDbEntity
  8
0
  6
Continuous
 62
     7
100
AcDbLine
 10
-0.100000634601
 20
409.2499999999902
 30
0.0
 11
-0.100000634601
 21
410.7499999999902
 31
0.0
  0
LINE
  5
A0
330
4E
100
AcDbEntity
  8
0
  6
Continuous
 62
     7
100
AcDbLine
 10
58.44999936539904
 20
409.2499999999902
 30
0.0
 11
58.44999936539904
 21
410.7499999999902
 31
0.0
  0
LINE
  5
A1
330
4E
100
AcDbEntity
  8
0
  6
Continuous
 62
     7
100
AcDbLine
 10
48.09999936539905
 20
409.2499999999902
 30
0.0
 11
58.44999936539904
 21
409.2499999999902
 31
0.0
  0
LINE
  5
A2
330
4E
100
AcDbEntity
  8
0
  6
Continuous
 62
     7
100
AcDbLine
 10
-10.450000634601
 20
409.2499999999902
 30
0.0
 11
-0.100000634601
 21
409.2499999999902
 31
0.0
  0
LINE
  5
A3
330
4E
100
AcDbEntity
  8
0
  6
Continuous
 62
     7
100
AcDbLine
 10
48.09999936539905
 20
409.2499999999902
 30
0.0
 11
48.09999936539905
 21
410.7499999999902
 31
0.0
  0
LINE
  5
A4
330
4E
100
AcDbEntity
  8
0
  6
Continuous
 62
     7
100
AcDbLine
 10
-10.450000634601
 20
409.2499999999902
 30
0.0
 11
-10.450000634601
 21
410.7499999999902
 31
0.0
  0
LINE
  5
A5
330
4E
100
AcDbEntity
  8
0
  6
Continuous
 62
     7
100
AcDbLine
 10
-0.100000634601
 20
409.2499999999902
 30
0.0
 11
48.09999936539905
 21
409.2499999999902
 31
0.0
  0
ENDBLK
  5
50
330
4E
100
AcDbEntity
  8
0
100
AcDbBlockEnd
  0
BLOCK
  5
53
330
51
100
AcDbEntity
  8
0
100
AcDbBlockBegin
  2
Drfsicht1
 70
     0
 10
24.0
 20
409.9999999999952
 30
0.0
  3
Drfsicht1
  1

  0
INSERT
  5
52
330
51
100
AcDbEntity
  8
0
100
AcDbBlockReference
  2
D-OTTA_6-T-select__2
 10
-10.450000634601
 20
409.2499999999902
 30
0.0
  0
MTEXT
  5
A6
330
51
100
AcDbEntity
  8
1
 62
     6
100
AcDbMText
 10
24.0
 20
404.249999999995
 30
0.0
 40
5.0
 41
0.0
 71
     2
 72
     1
  1
 
  7
CONVERTER_11
 73
     1
 44
1.32052821128451
  0
DIMENSION
  5
B3
330
51
100
AcDbEntity
  8
1
100
AcDbDimension
  2
*D17
 10
-20.45000063460099
 20
409.2499999999902
 30
0.0
 11
-23.87500063460099
 21
402.2178088510331
 31
0.0
 70
    33
  1
<>
 71
     5
 42
-1.0
 53
90.0
  3
ME10_DIM_10
100
AcDbAlignedDimension
 13
-10.450000634601
 23
410.7499999999902
 33
0.0
 14
-10.450000634601
 24
409.2499999999902
 34
0.0
  0
ENDBLK
  5
54
330
51
100
AcDbEntity
  8
0
100
AcDbBlockEnd
  0
BLOCK
  5
56
330
55
100
AcDbEntity
  8
0
100
AcDbBlockBegin
  2
D-OTTA_6-T-select__3
 70
     0
 10
102.4500002531312
 20
444.7499990747326
 30
0.0
  3
D-OTTA_6-T-select__3
  1

  0
LINE
  5
B4
330
55
100
AcDbEntity
  8
0
  6
Continuous
 62
     7
100
AcDbLine
 10
112.8000002531312
 20
485.5499990747326
 30
0.0
 11
112.8000002531312
 21
483.3499990747325
 31
0.0
  0
LINE
  5
B5
330
55
100
AcDbEntity
  8
0
  6
Continuous
 62
     7
100
AcDbLine
 10
112.8000002531312
 20
483.3499990747325
 30
0.0
 11
102.4500002531312
 21
477.3744237886199
 31
0.0
  0
LINE
  5
B6
330
55
100
AcDbEntity
  8
0
  6
Continuous
 62
     7
100
AcDbLine
 10
161.0000002531312
 20
485.5499990747326
 30
0.0
 11
112.8000002531312
 21
485.5499990747326
 31
0.0
  0
LINE
  5
B7
330
55
100
AcDbEntity
  8
0
  6
Continuous
 62
     7
100
AcDbLine
 10
161.0000002531312
 20
483.3499990747325
 30
0.0
 11
161.0000002531312
 21
485.5499990747326
 31
0.0
  0
LINE
  5
B8
330
55
100
AcDbEntity
  8
0
  6
Continuous
 62
     7
100
AcDbLine
 10
102.4500002531312
 20
444.7499990747326
 30
0.0
 11
171.3500002531312
 21
444.7499990747326
 31
0.0
  0
LINE
  5
B9
330
55
100
AcDbEntity
  8
0
  6
Continuous
 62
     7
100
AcDbLine
 10
171.3500002531312
 20
444.7499990747326
 30
0.0
 11
171.3500002531312
 21
477.3744237886199
 31
0.0
  0
LINE
  5
BA
330
55
100
AcDbEntity
  8
0
  6
Continuous
 62
     7
100
AcDbLine
 10
102.4500002531312
 20
477.3744237886199
 30
0.0
 11
102.4500002531312
 21
444.7499990747326
 31
0.0
  0
LINE
  5
BB
330
55
100
AcDbEntity
  8
0
  6
Continuous
 62
     7
100
AcDbLine
 10
171.3500002531312
 20
477.3744237886199
 30
0.0
 11
161.0000002531312
 21
483.3499990747325
 31
0.0
  0
ENDBLK
  5
57
330
55
100
AcDbEntity
  8
0
100
AcDbBlockEnd
  0
BLOCK
  5
5A
330
58
100
AcDbEntity
  8
0
100
AcDbBlockBegin
  2
Rckans1
 70
     0
 10
136.8999996185302
 20
465.1499995589256
 30
0.0
  3
Rckans1
  1

  0
INSERT
  5
59
330
58
100
AcDbEntity
  8
0
100
AcDbBlockReference
  2
D-OTTA_6-T-select__3
 10
102.4500002531312
 20
444.7499990747326
 30
0.0
  0
MTEXT
  5
BC
330
58
100
AcDbEntity
  8
1
 62
     6
100
AcDbMText
 10
136.8999996185302
 20
439.75
 30
0.0
 40
5.0
 41
0.0
 71
     2
 72
     1
  1
 
  7
CONVERTER_11
 73
     1
 44
1.32052821128451
  0
ENDBLK
  5
5B
330
58
100
AcDbEntity
  8
0
100
AcDbBlockEnd
  0
BLOCK
  5
5D
330
5C
100
AcDbEntity
  8
0
100
AcDbBlockBegin
  2
D-OTTA_6-T-select__4
 70
     0
 10
79.69999980928003
 20
444.7499990747326
 30
0.0
  3
D-OTTA_6-T-select__4
  1

  0
LINE
  5
BD
330
5C
100
AcDbEntity
  8
0
  6
Continuous
 62
     7
100
AcDbLine
 10
81.19999980928003
 20
485.5499990747326
 30
0.0
 11
79.69999980928003
 21
485.5499990747326
 31
0.0
  0
LINE
  5
BE
330
5C
100
AcDbEntity
  8
0
  6
Continuous
 62
     7
100
AcDbLine
 10
81.19999980928003
 20
483.3499990747325
 30
0.0
 11
81.19999980928003
 21
485.5499990747326
 31
0.0
  0
LINE
  5
BF
330
5C
100
AcDbEntity
  8
0
  6
Continuous
 62
     7
100
AcDbLine
 10
79.69999980928003
 20
483.3499990747325
 30
0.0
 11
79.69999980928003
 21
485.5499990747326
 31
0.0
  0
LINE
  5
C0
330
5C
100
AcDbEntity
  8
0
  6
Continuous
 62
     7
100
AcDbLine
 10
81.19999980928003
 20
477.3744237886199
 30
0.0
 11
81.19999980928003
 21
483.3499990747325
 31
0.0
  0
LINE
  5
C1
330
5C
100
AcDbEntity
  8
0
  6
Continuous
 62
     7
100
AcDbLine
 10
81.19999980928003
 20
444.7499990747326
 30
0.0
 11
81.19999980928003
 21
477.3744237886199
 31
0.0
  0
LINE
  5
C2
330
5C
100
AcDbEntity
  8
0
  6
Continuous
 62
     7
100
AcDbLine
 10
81.19999980928003
 20
444.7499990747326
 30
0.0
 11
79.69999980928003
 21
444.7499990747326
 31
0.0
  0
LINE
  5
C3
330
5C
100
AcDbEntity
  8
0
  6
Continuous
 62
     7
100
AcDbLine
 10
79.69999980928003
 20
477.3744237886199
 30
0.0
 11
79.69999980928003
 21
483.3499990747325
 31
0.0
  0
LINE
  5
C4
330
5C
100
AcDbEntity
  8
0
  6
Continuous
 62
     7
100
AcDbLine
 10
79.69999980928003
 20
483.3499990747325
 30
0.0
 11
81.19999980928003
 21
483.3499990747325
 31
0.0
  0
LINE
  5
C5
330
5C
100
AcDbEntity
  8
0
  6
Continuous
 62
     7
100
AcDbLine
 10
81.19999980928003
 20
477.3744237886199
 30
0.0
 11
79.69999980928003
 21
477.3744237886199
 31
0.0
  0
LINE
  5
C6
330
5C
100
AcDbEntity
  8
0
  6
Continuous
 62
     7
100
AcDbLine
 10
79.69999980928003
 20
444.7499990747326
 30
0.0
 11
79.69999980928003
 21
477.3744237886199
 31
0.0
  0
ENDBLK
  5
5E
330
5C
100
AcDbEntity
  8
0
100
AcDbBlockEnd
  0
BLOCK
  5
61
330
5F
100
AcDbEntity
  8
0
100
AcDbBlockBegin
  2
SA_Links1
 70
     0
 10
80.44999980927503
 20
465.1499995589255
 30
0.0
  3
SA_Links1
  1

  0
INSERT
  5
60
330
5F
100
AcDbEntity
  8
0
100
AcDbBlockReference
  2
D-OTTA_6-T-select__4
 10
79.69999980928003
 20
444.7499990747326
 30
0.0
  0
MTEXT
  5
C7
330
5F
100
AcDbEntity
  8
1
 62
     6
100
AcDbMText
 10
80.44999980927503
 20
439.75
 30
0.0
 40
5.0
 41
0.0
 71
     2
 72
     1
  1
 
  7
CONVERTER_11
 73
     1
 44
1.32052821128451
  0
ENDBLK
  5
62
330
5F
100
AcDbEntity
  8
0
100
AcDbBlockEnd
  0
BLOCK
  5
64
330
63
100
AcDbEntity
  8
0
100
AcDbBlockBegin
  2
D-OTTA_6-T-select__5
 70
     0
 10
-47.19999980927506
 20
444.7499990747326
 30
0.0
  3
D-OTTA_6-T-select__5
  1

  0
LINE
  5
C8
330
63
100
AcDbEntity
  8
0
  6
Continuous
 62
     7
100
AcDbLine
 10
-45.69999980927506
 20
485.5499990747326
 30
0.0
 11
-45.69999980927506
 21
483.3499990747325
 31
0.0
  0
LINE
  5
C9
330
63
100
AcDbEntity
  8
0
  6
Continuous
 62
     7
100
AcDbLine
 10
-47.19999980927506
 20
485.5499990747326
 30
0.0
 11
-47.19999980927506
 21
483.3499990747325
 31
0.0
  0
LINE
  5
CA
330
63
100
AcDbEntity
  8
0
  6
Continuous
 62
     7
100
AcDbLine
 10
-47.19999980927506
 20
485.5499990747326
 30
0.0
 11
-45.69999980927506
 21
485.5499990747326
 31
0.0
  0
LINE
  5
CB
330
63
100
AcDbEntity
  8
0
  6
Continuous
 62
     7
100
AcDbLine
 10
-47.19999980927506
 20
483.3499990747325
 30
0.0
 11
-47.19999980927506
 21
477.3744237886199
 31
0.0
  0
LINE
  5
CC
330
63
100
AcDbEntity
  8
0
  6
Continuous
 62
     7
100
AcDbLine
 10
-45.69999980927506
 20
483.3499990747325
 30
0.0
 11
-47.19999980927506
 21
483.3499990747325
 31
0.0
  0
LINE
  5
CD
330
63
100
AcDbEntity
  8
0
  6
Continuous
 62
     7
100
AcDbLine
 10
-45.69999980927506
 20
483.3499990747325
 30
0.0
 11
-45.69999980927506
 21
477.3744237886199
 31
0.0
  0
LINE
  5
CE
330
63
100
AcDbEntity
  8
0
  6
Continuous
 62
     7
100
AcDbLine
 10
-45.69999980927506
 20
477.3744237886199
 30
0.0
 11
-45.69999980927506
 21
444.7499990747326
 31
0.0
  0
LINE
  5
CF
330
63
100
AcDbEntity
  8
0
  6
Continuous
 62
     7
100
AcDbLine
 10
-47.19999980927506
 20
444.7499990747326
 30
0.0
 11
-45.69999980927506
 21
444.7499990747326
 31
0.0
  0
LINE
  5
D0
330
63
100
AcDbEntity
  8
0
  6
Continuous
 62
     7
100
AcDbLine
 10
-47.19999980927506
 20
477.3744237886199
 30
0.0
 11
-45.69999980927506
 21
477.3744237886199
 31
0.0
  0
LINE
  5
D1
330
63
100
AcDbEntity
  8
0
  6
Continuous
 62
     7
100
AcDbLine
 10
-47.19999980927506
 20
477.3744237886199
 30
0.0
 11
-47.19999980927506
 21
444.7499990747326
 31
0.0
  0
ENDBLK
  5
65
330
63
100
AcDbEntity
  8
0
100
AcDbBlockEnd
  0
BLOCK
  5
68
330
66
100
AcDbEntity
  8
0
100
AcDbBlockBegin
  2
SA_Rechts1
 70
     0
 10
-46.44999980927005
 20
465.1499995589256
 30
0.0
  3
SA_Rechts1
  1

  0
INSERT
  5
67
330
66
100
AcDbEntity
  8
0
100
AcDbBlockReference
  2
D-OTTA_6-T-select__5
 10
-47.19999980927506
 20
444.7499990747326
 30
0.0
  0
MTEXT
  5
D2
330
66
100
AcDbEntity
  8
1
 62
     6
100
AcDbMText
 10
-46.44999980927014
 20
439.75
 30
0.0
 40
5.0
 41
0.0
 71
     2
 72
     1
  1
 
  7
CONVERTER_11
 73
     1
 44
1.32052821128451
  0
ENDBLK
  5
69
330
66
100
AcDbEntity
  8
0
100
AcDbBlockEnd
  0
BLOCK
  5
6B
330
6A
100
AcDbEntity
  8
0
100
AcDbBlockBegin
  2
D-OTTA_6-T-select__6
 70
     0
 10
-10.45000063460113
 20
444.7499990747326
 30
0.0
  3
D-OTTA_6-T-select__6
  1

  0
LINE
  5
D3
330
6A
100
AcDbEntity
  8
0
  6
Continuous
 62
     7
100
AcDbLine
 10
58.44999936539891
 20
477.3744237886199
 30
0.0
 11
58.44999936539891
 21
444.7499990747326
 31
0.0
  0
LINE
  5
D4
330
6A
100
AcDbEntity
  8
0
  6
Continuous
 62
     7
100
AcDbLine
 10
58.44999936539891
 20
444.7499990747326
 30
0.0
 11
-10.45000063460113
 21
444.7499990747326
 31
0.0
  0
LINE
  5
D5
330
6A
100
AcDbEntity
  8
0
  6
Continuous
 62
     7
100
AcDbLine
 10
-10.45000063460113
 20
444.7499990747326
 30
0.0
 11
-10.45000063460113
 21
477.3744237886199
 31
0.0
  0
LINE
  5
D6
330
6A
100
AcDbEntity
  8
0
  6
Continuous
 62
     7
100
AcDbLine
 10
48.09999936539892
 20
485.5499990747326
 30
0.0
 11
48.09999936539892
 21
483.3499990747325
 31
0.0
  0
LINE
  5
D7
330
6A
100
AcDbEntity
  8
0
  6
Continuous
 62
     7
100
AcDbLine
 10
48.09999936539892
 20
483.3499990747325
 30
0.0
 11
58.44999936539891
 21
477.3744237886199
 31
0.0
  0
LINE
  5
D8
330
6A
100
AcDbEntity
  8
0
  6
Continuous
 62
     7
100
AcDbLine
 10
-0.10000063460113
 20
485.5499990747326
 30
0.0
 11
48.09999936539892
 21
485.5499990747326
 31
0.0
  0
LINE
  5
D9
330
6A
100
AcDbEntity
  8
0
  6
Continuous
 62
     7
100
AcDbLine
 10
-0.10000063460113
 20
483.3499990747325
 30
0.0
 11
-0.10000063460113
 21
485.5499990747326
 31
0.0
  0
LINE
  5
DA
330
6A
100
AcDbEntity
  8
0
  6
Continuous
 62
     7
100
AcDbLine
 10
-10.45000063460113
 20
477.3744237886199
 30
0.0
 11
-0.10000063460113
 21
483.3499990747325
 31
0.0
  0
ENDBLK
  5
6C
330
6A
100
AcDbEntity
  8
0
100
AcDbBlockEnd
  0
BLOCK
  5
6F
330
6D
100
AcDbEntity
  8
0
100
AcDbBlockBegin
  2
Vordans1
 70
     0
 10
23.99999999999987
 20
465.1499995589255
 30
0.0
  3
Vordans1
  1

  0
INSERT
  5
6E
330
6D
100
AcDbEntity
  8
0
100
AcDbBlockReference
  2
D-OTTA_6-T-select__6
 10
-10.45000063460113
 20
444.7499990747326
 30
0.0
  0
MTEXT
  5
DB
330
6D
100
AcDbEntity
  8
1
 62
     6
100
AcDbMText
 10
24.0
 20
439.75
 30
0.0
 40
5.0
 41
0.0
 71
     2
 72
     1
  1
 
  7
CONVERTER_11
 73
     1
 44
1.32052821128451
  0
DIMENSION
  5
E6
330
6D
100
AcDbEntity
  8
1
100
AcDbDimension
  2
*D18
 10
-10.45000063460113
 20
433.3688770334438
 30
0.0
 11
25.78358452112715
 21
436.7938770334438
 31
0.0
 70
    32
  1
<>
 71
     5
 42
-1.0
 53
0.00013888888889
  3
ME10_DIM_11
100
AcDbAlignedDimension
 13
58.44999936539891
 23
444.7499990747326
 33
0.0
 14
-10.45000063460113
 24
444.7499990747326
 34
0.0
100
AcDbRotatedDimension
  0
DIMENSION
  5
F1
330
6D
100
AcDbEntity
  8
1
100
AcDbDimension
  2
*D19
 10
-20.450000634601
 20
444.7499990747325
 30
0.0
 11
-24.200000634601
 21
464.0496069194298
 31
0.0
 70
    32
  1
<>
 71
     5
 42
-1.0
 53
90.0
  3
ME10_DIM_12
100
AcDbAlignedDimension
 13
48.09999936539892
 23
485.5499990747326
 33
0.0
 14
58.44999936539891
 24
444.7499990747326
 34
0.0
 50
90.0
100
AcDbRotatedDimension
  0
ENDBLK
  5
70
330
6D
100
AcDbEntity
  8
0
100
AcDbBlockEnd
  0
BLOCK
  5
72
330
71
100
AcDbEntity
  8
0
100
AcDbBlockBegin
  2
_rahmen
 70
     0
 10
206.4500002219306
 20
320.4729108703872
 30
0.0
  3
_rahmen
  1

  0
LINE
  5
F2
330
71
100
AcDbEntity
  8
1
  6
Continuous
 62
     6
100
AcDbLine
 10
76.9051956951806
 20
350.9729108703873
 30
0.0
 11
206.4500002219323
 21
350.9729108703873
 31
0.0
  0
LINE
  5
F3
330
71
100
AcDbEntity
  8
1
  6
Continuous
 62
     7
100
AcDbLine
 10
95.10519569518061
 20
329.7229108703873
 30
0.0
 11
113.3051956951805
 21
329.7229108703873
 31
0.0
  0
LINE
  5
F4
330
71
100
AcDbEntity
  8
1
  6
Continuous
 62
     6
100
AcDbLine
 10
95.10519569518061
 20
325.4729108703873
 30
0.0
 11
76.9051956951806
 21
325.4729108703872
 31
0.0
  0
LINE
  5
F5
330
71
100
AcDbEntity
  8
1
  6
Continuous
 62
     7
100
AcDbLine
 10
95.10519569518061
 20
329.7229108703873
 30
0.0
 11
95.10519569518061
 21
325.4729108703873
 31
0.0
  0
LINE
  5
F6
330
71
100
AcDbEntity
  8
1
  6
Continuous
 62
     7
100
AcDbLine
 10
113.3051956951805
 20
329.7229108703873
 30
0.0
 11
113.3051956951805
 21
325.4729108703872
 31
0.0
  0
LINE
  5
F7
330
71
100
AcDbEntity
  8
1
  6
Continuous
 62
     7
100
AcDbLine
 10
76.9051956951806
 20
329.7229108703872
 30
0.0
 11
76.9051956951806
 21
325.4729108703872
 31
0.0
  0
LINE
  5
F8
330
71
100
AcDbEntity
  8
1
  6
Continuous
 62
     7
100
AcDbLine
 10
76.9051956951806
 20
329.7229108703872
 30
0.0
 11
95.10519569518061
 21
329.7229108703873
 31
0.0
  0
LINE
  5
F9
330
71
100
AcDbEntity
  8
1
  6
Continuous
 62
     2
100
AcDbLine
 10
86.1418505817432
 20
349.0979108703872
 30
0.0
 11
86.1418505817432
 21
344.0979108703872
 31
0.0
  0
LINE
  5
FA
330
71
100
AcDbEntity
  8
1
  6
Continuous
 62
     2
100
AcDbLine
 10
86.1418505817432
 20
344.0979108703872
 30
0.0
 11
81.1418505817432
 21
345.3479108703872
 31
0.0
  0
LINE
  5
FB
330
71
100
AcDbEntity
  8
1
  6
Continuous
 62
     2
100
AcDbLine
 10
81.1418505817432
 20
345.3479108703872
 30
0.0
 11
81.1418505817432
 21
347.8479108703872
 31
0.0
  0
LINE
  5
FC
330
71
100
AcDbEntity
  8
1
  6
Continuous
 62
     2
100
AcDbLine
 10
81.1418505817432
 20
347.8479108703872
 30
0.0
 11
86.1418505817432
 21
349.0979108703872
 31
0.0
  0
LINE
  5
FD
330
71
100
AcDbEntity
  8
1
  6
Continuous
 62
     6
100
AcDbLine
 10
-45.54999977806762
 20
325.4729108703873
 30
0.0
 11
-80.5499997780675
 21
325.4729108703873
 31
0.0
  0
LINE
  5
FE
330
71
100
AcDbEntity
  8
1
  6
Continuous
 62
     6
100
AcDbLine
 10
206.4500002219323
 20
342.4729108703873
 30
0.0
 11
206.4500002219319
 21
333.9729108703873
 31
0.0
  0
LINE
  5
FF
330
71
100
AcDbEntity
  8
1
  6
Continuous
 62
     6
100
AcDbLine
 10
113.3051956951805
 20
325.4729108703872
 30
0.0
 11
112.9500002219306
 21
325.4729108703873
 31
0.0
  0
LINE
  5
100
330
71
100
AcDbEntity
  8
1
  6
Continuous
 62
     6
100
AcDbLine
 10
-39.34999977806962
 20
325.4729108703872
 30
0.0
 11
-45.54999977806762
 21
325.4729108703873
 31
0.0
  0
LINE
  5
101
330
71
100
AcDbEntity
  8
1
  6
Continuous
 62
     7
100
AcDbLine
 10
113.3051956951805
 20
342.4729108703873
 30
0.0
 11
113.3051956951805
 21
329.7229108703873
 31
0.0
  0
LINE
  5
102
330
71
100
AcDbEntity
  8
1
  6
Continuous
 62
     7
100
AcDbLine
 10
76.9051956951806
 20
342.4729108703873
 30
0.0
 11
76.9051956951806
 21
329.7229108703872
 31
0.0
  0
LINE
  5
103
330
71
100
AcDbEntity
  8
1
  6
Continuous
 62
     6
100
AcDbLine
 10
62.95000022193062
 20
325.4729108703873
 30
0.0
 11
12.9500002219304
 21
325.4729108703873
 31
0.0
  0
LINE
  5
104
330
71
100
AcDbEntity
  8
1
  6
Continuous
 62
     6
100
AcDbLine
 10
-39.34999977806962
 20
325.4729108703872
 30
0.0
 11
-37.04999977806938
 21
325.4729108703873
 31
0.0
  0
LINE
  5
105
330
71
100
AcDbEntity
  8
1
  6
Continuous
 62
     6
100
AcDbLine
 10
113.3051956951805
 20
325.4729108703872
 30
0.0
 11
162.9500002219306
 21
325.4729108703873
 31
0.0
  0
LINE
  5
106
330
71
100
AcDbEntity
  8
1
  6
Continuous
 62
     6
100
AcDbLine
 10
206.4500002219306
 20
325.4729108703873
 30
0.0
 11
206.4500002219319
 21
333.9729108703873
 31
0.0
  0
LINE
  5
107
330
71
100
AcDbEntity
  8
1
  6
Continuous
 62
     2
100
AcDbLine
 10
-85.54999977806847
 20
325.4729108703873
 30
0.0
 11
-85.54999977806847
 21
320.4729108703872
 31
0.0
  0
LINE
  5
108
330
71
100
AcDbEntity
  8
1
  6
Continuous
 62
     2
100
AcDbLine
 10
-80.5499997780675
 20
325.4729108703873
 30
0.0
 11
-85.54999977806847
 21
325.4729108703873
 31
0.0
  0
LINE
  5
109
330
71
100
AcDbEntity
  8
1
  6
Continuous
 62
     2
100
AcDbLine
 10
-80.5499997780675
 20
320.4729108703872
 30
0.0
 11
-37.04999977806938
 21
320.4729108703872
 31
0.0
  0
LINE
  5
10A
330
71
100
AcDbEntity
  8
1
  6
Continuous
 62
     2
100
AcDbLine
 10
-80.5499997780675
 20
325.4729108703873
 30
0.0
 11
-80.5499997780675
 21
320.4729108703872
 31
0.0
  0
LINE
  5
10B
330
71
100
AcDbEntity
  8
1
  6
Continuous
 62
     2
100
AcDbLine
 10
162.9500002219306
 20
320.4729108703872
 30
0.0
 11
112.9500002219306
 21
320.4729108703872
 31
0.0
  0
LINE
  5
10C
330
71
100
AcDbEntity
  8
1
  6
Continuous
 62
     2
100
AcDbLine
 10
162.9500002219306
 20
320.4729108703872
 30
0.0
 11
162.9500002219306
 21
325.4729108703873
 31
0.0
  0
LINE
  5
10D
330
71
100
AcDbEntity
  8
1
  6
Continuous
 62
     2
100
AcDbLine
 10
112.9500002219306
 20
320.4729108703872
 30
0.0
 11
112.9500002219306
 21
325.4729108703873
 31
0.0
  0
LINE
  5
10E
330
71
100
AcDbEntity
  8
1
  6
Continuous
 62
     2
100
AcDbLine
 10
62.95000022193062
 20
320.4729108703872
 30
0.0
 11
112.9500002219306
 21
320.4729108703872
 31
0.0
  0
LINE
  5
10F
330
71
100
AcDbEntity
  8
1
  6
Continuous
 62
     2
100
AcDbLine
 10
62.95000022193062
 20
320.4729108703872
 30
0.0
 11
62.95000022193062
 21
325.4729108703873
 31
0.0
  0
LINE
  5
110
330
71
100
AcDbEntity
  8
1
  6
Continuous
 62
     2
100
AcDbLine
 10
12.9500002219304
 20
320.4729108703872
 30
0.0
 11
62.95000022193062
 21
320.4729108703872
 31
0.0
  0
LINE
  5
111
330
71
100
AcDbEntity
  8
1
  6
Continuous
 62
     2
100
AcDbLine
 10
12.9500002219304
 20
320.4729108703872
 30
0.0
 11
12.9500002219304
 21
325.4729108703873
 31
0.0
  0
LINE
  5
112
330
71
100
AcDbEntity
  8
1
  6
Continuous
 62
     2
100
AcDbLine
 10
-37.04999977806938
 20
320.4729108703872
 30
0.0
 11
12.9500002219304
 21
320.4729108703872
 31
0.0
  0
LINE
  5
113
330
71
100
AcDbEntity
  8
1
  6
Continuous
 62
     2
100
AcDbLine
 10
-37.04999977806938
 20
320.4729108703872
 30
0.0
 11
-37.04999977806938
 21
325.4729108703873
 31
0.0
  0
LINE
  5
114
330
71
100
AcDbEntity
  8
1
  6
Continuous
 62
     6
100
AcDbLine
 10
-80.54999977806767
 20
375.4729108703874
 30
0.0
 11
-80.5499997780675
 21
325.4729108703873
 31
0.0
  0
LINE
  5
115
330
71
100
AcDbEntity
  8
1
  6
Continuous
 62
     2
100
AcDbLine
 10
-85.54999977806847
 20
375.4729108703874
 30
0.0
 11
-85.54999977806847
 21
325.4729108703873
 31
0.0
  0
LINE
  5
116
330
71
100
AcDbEntity
  8
1
  6
Continuous
 62
     2
100
AcDbLine
 10
-85.54999977806847
 20
375.4729108703874
 30
0.0
 11
-80.54999977806767
 21
375.4729108703874
 31
0.0
  0
LINE
  5
117
330
71
100
AcDbEntity
  8
1
  6
Continuous
 62
     6
100
AcDbLine
 10
-80.5499997780679
 20
425.4729108703872
 30
0.0
 11
-80.54999977806767
 21
375.4729108703874
 31
0.0
  0
LINE
  5
118
330
71
100
AcDbEntity
  8
1
  6
Continuous
 62
     2
100
AcDbLine
 10
-85.54999977806847
 20
425.4729108703872
 30
0.0
 11
-85.54999977806847
 21
375.4729108703874
 31
0.0
  0
LINE
  5
119
330
71
100
AcDbEntity
  8
1
  6
Continuous
 62
     2
100
AcDbLine
 10
-85.54999977806847
 20
425.4729108703872
 30
0.0
 11
-80.5499997780679
 21
425.4729108703872
 31
0.0
  0
LINE
  5
11A
330
71
100
AcDbEntity
  8
1
  6
Continuous
 62
     6
100
AcDbLine
 10
-80.54999977806841
 20
475.4729108703873
 30
0.0
 11
-80.5499997780679
 21
425.4729108703872
 31
0.0
  0
LINE
  5
11B
330
71
100
AcDbEntity
  8
1
  6
Continuous
 62
     2
100
AcDbLine
 10
-85.54999977806847
 20
475.4729108703873
 30
0.0
 11
-85.54999977806847
 21
425.4729108703872
 31
0.0
  0
LINE
  5
11C
330
71
100
AcDbEntity
  8
1
  6
Continuous
 62
     2
100
AcDbLine
 10
-85.54999977806847
 20
475.4729108703873
 30
0.0
 11
-80.54999977806841
 21
475.4729108703873
 31
0.0
  0
LINE
  5
11D
330
71
100
AcDbEntity
  8
1
  6
Continuous
 62
     6
100
AcDbLine
 10
-80.54999977806847
 20
510.4729108703873
 30
0.0
 11
-80.54999977806841
 21
475.4729108703873
 31
0.0
  0
LINE
  5
11E
330
71
100
AcDbEntity
  8
1
  6
Continuous
 62
     2
100
AcDbLine
 10
-85.54999977806847
 20
530.4729108703873
 30
0.0
 11
-85.54999977806847
 21
475.4729108703873
 31
0.0
  0
LINE
  5
11F
330
71
100
AcDbEntity
  8
1
  6
Continuous
 62
     2
100
AcDbLine
 10
-85.54999977806847
 20
320.4729108703872
 30
0.0
 11
-80.5499997780675
 21
320.4729108703872
 31
0.0
  0
LINE
  5
120
330
71
100
AcDbEntity
  8
1
  6
Continuous
 62
     2
100
AcDbLine
 10
62.95000022193062
 20
530.4729108703873
 30
0.0
 11
62.95000022193062
 21
521.264219025686
 31
0.0
  0
LINE
  5
121
330
71
100
AcDbEntity
  8
1
  6
Continuous
 62
     2
100
AcDbLine
 10
62.95000022193062
 20
530.4729108703873
 30
0.0
 11
-85.54999977806847
 21
530.4729108703873
 31
0.0
  0
LINE
  5
122
330
71
100
AcDbEntity
  8
1
  6
Continuous
 62
     2
100
AcDbLine
 10
211.4500002219296
 20
325.4729108703873
 30
0.0
 11
211.4500002219296
 21
375.4729108703874
 31
0.0
  0
LINE
  5
123
330
71
100
AcDbEntity
  8
1
  6
Continuous
 62
     2
100
AcDbLine
 10
211.4500002219296
 20
475.4729108703873
 30
0.0
 11
211.4500002219296
 21
530.4729108703873
 31
0.0
  0
LINE
  5
124
330
71
100
AcDbEntity
  8
1
  6
Continuous
 62
     6
100
AcDbLine
 10
206.4500002219298
 20
475.4729108703873
 30
0.0
 11
206.4500002219296
 21
510.4729108703873
 31
0.0
  0
LINE
  5
125
330
71
100
AcDbEntity
  8
1
  6
Continuous
 62
     2
100
AcDbLine
 10
206.4500002219298
 20
475.4729108703873
 30
0.0
 11
211.4500002219296
 21
475.4729108703873
 31
0.0
  0
LINE
  5
126
330
71
100
AcDbEntity
  8
1
  6
Continuous
 62
     2
100
AcDbLine
 10
211.4500002219296
 20
425.4729108703872
 30
0.0
 11
211.4500002219296
 21
475.4729108703873
 31
0.0
  0
LINE
  5
127
330
71
100
AcDbEntity
  8
1
  6
Continuous
 62
     6
100
AcDbLine
 10
206.450000221931
 20
425.4729108703872
 30
0.0
 11
206.4500002219298
 21
475.4729108703873
 31
0.0
  0
LINE
  5
128
330
71
100
AcDbEntity
  8
1
  6
Continuous
 62
     2
100
AcDbLine
 10
206.450000221931
 20
425.4729108703872
 30
0.0
 11
211.4500002219296
 21
425.4729108703872
 31
0.0
  0
LINE
  5
129
330
71
100
AcDbEntity
  8
1
  6
Continuous
 62
     2
100
AcDbLine
 10
211.4500002219296
 20
375.4729108703874
 30
0.0
 11
211.4500002219296
 21
425.4729108703872
 31
0.0
  0
LINE
  5
12A
330
71
100
AcDbEntity
  8
1
  6
Continuous
 62
     6
100
AcDbLine
 10
206.4500002219315
 20
375.4729108703874
 30
0.0
 11
206.450000221931
 21
425.4729108703872
 31
0.0
  0
LINE
  5
12B
330
71
100
AcDbEntity
  8
1
  6
Continuous
 62
     2
100
AcDbLine
 10
206.4500002219315
 20
375.4729108703874
 30
0.0
 11
211.4500002219296
 21
375.4729108703874
 31
0.0
  0
LINE
  5
12C
330
71
100
AcDbEntity
  8
1
  6
Continuous
 62
     6
100
AcDbLine
 10
206.4500002219296
 20
510.4729108703873
 30
0.0
 11
-80.54999977806847
 21
510.4729108703873
 31
0.0
  0
LINE
  5
12D
330
71
100
AcDbEntity
  8
1
  6
Continuous
 62
     2
100
AcDbLine
 10
211.4500002219296
 20
530.4729108703873
 30
0.0
 11
62.95000022193062
 21
530.4729108703873
 31
0.0
  0
LINE
  5
12E
330
71
100
AcDbEntity
  8
1
  6
Continuous
 62
     6
100
AcDbLine
 10
206.4500002219323
 20
342.4729108703873
 30
0.0
 11
206.4500002219315
 21
375.4729108703874
 31
0.0
  0
LINE
  5
12F
330
71
100
AcDbEntity
  8
1
  6
Continuous
 62
     2
100
AcDbLine
 10
206.4500002219306
 20
320.4729108703872
 30
0.0
 11
162.9500002219306
 21
320.4729108703872
 31
0.0
  0
LINE
  5
130
330
71
100
AcDbEntity
  8
1
  6
Continuous
 62
     2
100
AcDbLine
 10
211.4500002219296
 20
320.4729108703872
 30
0.0
 11
206.4500002219306
 21
320.4729108703872
 31
0.0
  0
LINE
  5
131
330
71
100
AcDbEntity
  8
1
  6
Continuous
 62
     2
100
AcDbLine
 10
211.4500002219296
 20
320.4729108703872
 30
0.0
 11
211.4500002219296
 21
325.4729108703873
 31
0.0
  0
LINE
  5
132
330
71
100
AcDbEntity
  8
1
  6
Continuous
 62
     6
100
AcDbLine
 10
76.9051956951806
 20
342.4729108703873
 30
0.0
 11
113.3051956951805
 21
342.4729108703873
 31
0.0
  0
LINE
  5
133
330
71
100
AcDbEntity
  8
1
  6
Continuous
 62
     2
100
AcDbLine
 10
206.4500002219306
 20
325.4729108703873
 30
0.0
 11
206.4500002219306
 21
320.4729108703872
 31
0.0
  0
LINE
  5
134
330
71
100
AcDbEntity
  8
1
  6
Continuous
 62
     2
100
AcDbLine
 10
206.4500002219306
 20
325.4729108703873
 30
0.0
 11
211.4500002219296
 21
325.4729108703873
 31
0.0
  0
LINE
  5
135
330
71
100
AcDbEntity
  8
1
  6
Continuous
 62
     6
100
AcDbLine
 10
112.9500002219306
 20
325.4729108703873
 30
0.0
 11
95.10519569518061
 21
325.4729108703873
 31
0.0
  0
LINE
  5
136
330
71
100
AcDbEntity
  8
1
  6
Continuous
 62
     6
100
AcDbLine
 10
162.9500002219306
 20
325.4729108703873
 30
0.0
 11
206.4500002219306
 21
325.4729108703873
 31
0.0
  0
LINE
  5
137
330
71
100
AcDbEntity
  8
1
  6
Continuous
 62
     6
100
AcDbLine
 10
12.9500002219304
 20
325.4729108703873
 30
0.0
 11
7.90519569518062
 21
325.4729108703873
 31
0.0
  0
LINE
  5
138
330
71
100
AcDbEntity
  8
1
  6
Continuous
 62
     6
100
AcDbLine
 10
62.95000022193062
 20
325.4729108703873
 30
0.0
 11
76.9051956951806
 21
325.4729108703872
 31
0.0
  0
LINE
  5
139
102
{ACAD_REACTORS
330
223
330
224
102
}
330
71
100
AcDbEntity
  8
0
  6
Continuous
 62
     2
100
AcDbLine
 10
84.4198216373274
 20
337.5454256265994
 30
0.0
 11
84.4198216373274
 21
338.1509609151062
 31
0.0
  0
LINE
  5
13A
102
{ACAD_REACTORS
330
223
330
224
102
}
330
71
100
AcDbEntity
  8
0
  6
Continuous
 62
     2
100
AcDbLine
 10
84.4198216373274
 20
334.7452910199681
 30
0.0
 11
84.4198216373274
 21
335.3271424266632
 31
0.0
  0
LINE
  5
13B
102
{ACAD_REACTORS
330
225
330
226
102
}
330
71
100
AcDbEntity
  8
0
  6
Continuous
 62
     2
100
AcDbLine
 10
107.0493080728066
 20
335.0349550880911
 30
0.0
 11
107.0493080728066
 21
332.7664108704036
 31
0.0
  0
LINE
  5
13C
102
{ACAD_REACTORS
330
225
330
226
102
}
330
71
100
AcDbEntity
  8
0
  6
Continuous
 62
     2
100
AcDbLine
 10
105.668254293819
 20
335.8202203942142
 30
0.0
 11
109.0531998124477
 21
335.8202203942147
 31
0.0
  0
LINE
  5
13D
102
{ACAD_REACTORS
330
225
330
226
102
}
330
71
100
AcDbEntity
  8
0
  6
Continuous
 62
     2
100
AcDbLine
 10
109.0531998124477
 20
335.0349550880911
 30
0.0
 11
109.0531998124477
 21
335.8202203942147
 31
0.0
  0
LINE
  5
13E
102
{ACAD_REACTORS
330
225
330
226
102
}
330
71
100
AcDbEntity
  8
0
  6
Continuous
 62
     2
100
AcDbLine
 10
108.2421007749743
 20
335.0349550880911
 30
0.0
 11
109.0531998124477
 21
335.0349550880911
 31
0.0
  0
LINE
  5
13F
102
{ACAD_REACTORS
330
225
330
226
102
}
330
71
100
AcDbEntity
  8
0
  6
Continuous
 62
     2
100
AcDbLine
 10
108.2421007749743
 20
332.7664108704036
 30
0.0
 11
108.2421007749743
 21
335.0349550880911
 31
0.0
  0
LINE
  5
140
102
{ACAD_REACTORS
330
225
330
226
102
}
330
71
100
AcDbEntity
  8
0
  6
Continuous
 62
     2
100
AcDbLine
 10
107.0493080728066
 20
332.7664108704036
 30
0.0
 11
108.2421007749743
 21
332.7664108704036
 31
0.0
  0
LINE
  5
141
102
{ACAD_REACTORS
330
21B
330
21C
102
}
330
71
100
AcDbEntity
  8
0
  6
Continuous
 62
     2
100
AcDbLine
 10
106.3527171347421
 20
339.1794108703891
 30
0.0
 11
104.9499929169928
 21
339.1794108703891
 31
0.0
  0
LINE
  5
142
102
{ACAD_REACTORS
330
21B
330
21C
102
}
330
71
100
AcDbEntity
  8
0
  6
Continuous
 62
     2
100
AcDbLine
 10
106.3527171347421
 20
339.1794108703891
 30
0.0
 11
106.9538846566339
 21
338.4995875488336
 31
0.0
  0
LINE
  5
143
102
{ACAD_REACTORS
330
21B
330
21C
102
}
330
71
100
AcDbEntity
  8
0
  6
Continuous
 62
     2
100
AcDbLine
 10
106.9538846566339
 20
338.4995875488336
 30
0.0
 11
107.5550521785267
 21
339.1794108703891
 31
0.0
  0
LINE
  5
144
102
{ACAD_REACTORS
330
21B
330
21C
102
}
330
71
100
AcDbEntity
  8
0
  6
Continuous
 62
     2
100
AcDbLine
 10
107.6552467655074
 20
337.7064603403529
 30
0.0
 11
108.9577763962739
 21
339.1794108703891
 31
0.0
  0
LINE
  5
145
102
{ACAD_REACTORS
330
21B
330
21C
102
}
330
71
100
AcDbEntity
  8
0
  6
Continuous
 62
     2
100
AcDbLine
 10
107.6552467655074
 20
337.7064603403529
 30
0.0
 11
109.0531998124477
 21
336.1256013465779
 31
0.0
  0
LINE
  5
146
102
{ACAD_REACTORS
330
21B
330
21C
102
}
330
71
100
AcDbEntity
  8
0
  6
Continuous
 62
     2
100
AcDbLine
 10
107.6504755946994
 20
336.1256013465779
 30
0.0
 11
109.0531998124477
 21
336.1256013465779
 31
0.0
  0
LINE
  5
147
102
{ACAD_REACTORS
330
21B
330
21C
102
}
330
71
100
AcDbEntity
  8
0
  6
Continuous
 62
     2
100
AcDbLine
 10
106.9538846566339
 20
336.9133331318716
 30
0.0
 11
107.6504755946994
 21
336.1256013465779
 31
0.0
  0
LINE
  5
148
102
{ACAD_REACTORS
330
219
330
21A
102
}
330
71
100
AcDbEntity
  8
0
  6
Continuous
 62
     2
100
AcDbLine
 10
103.4947858203502
 20
339.1794108703891
 30
0.0
 11
104.7352902306031
 21
339.1794108703891
 31
0.0
  0
LINE
  5
149
102
{ACAD_REACTORS
330
219
330
21A
102
}
330
71
100
AcDbEntity
  8
0
  6
Continuous
 62
     2
100
AcDbLine
 10
104.7352902306031
 20
339.1794108703891
 30
0.0
 11
104.7352902306031
 21
336.1256013465779
 31
0.0
  0
LINE
  5
14A
102
{ACAD_REACTORS
330
219
330
21A
102
}
330
71
100
AcDbEntity
  8
0
  6
Continuous
 62
     2
100
AcDbLine
 10
103.4947858203502
 20
336.1256013465779
 30
0.0
 11
103.4947858203502
 21
339.1794108703891
 31
0.0
  0
LINE
  5
14B
102
{ACAD_REACTORS
330
217
330
218
102
}
330
71
100
AcDbEntity
  8
0
  6
Continuous
 62
     2
100
AcDbLine
 10
102.0264757378126
 20
333.9879346799281
 30
0.0
 11
102.326640975005
 21
334.7557496459148
 31
0.0
  0
LINE
  5
14C
102
{ACAD_REACTORS
330
217
330
218
102
}
330
71
100
AcDbEntity
  8
0
  6
Continuous
 62
     2
100
AcDbLine
 10
101.5489401331918
 20
332.7664108704036
 30
0.0
 11
101.7604201866676
 21
333.3073714146215
 31
0.0
  0
LINE
  5
14D
102
{ACAD_REACTORS
330
217
330
218
102
}
330
71
100
AcDbEntity
  8
0
  6
Continuous
 62
     2
100
AcDbLine
 10
101.7063887698781
 20
335.8202203942147
 30
0.0
 11
100.3084357229388
 21
332.7664108704036
 31
0.0
  0
LINE
  5
14E
102
{ACAD_REACTORS
330
217
330
218
102
}
330
71
100
AcDbEntity
  8
0
  6
Continuous
 62
     2
100
AcDbLine
 10
104.3448462270711
 20
332.7664108704036
 30
0.0
 11
103.1043418168172
 21
332.7664108704036
 31
0.0
  0
LINE
  5
14F
102
{ACAD_REACTORS
330
217
330
218
102
}
330
71
100
AcDbEntity
  8
0
  6
Continuous
 62
     2
100
AcDbLine
 10
101.7604201866676
 20
333.3073714146215
 30
0.0
 11
102.8928617633414
 21
333.3073714146215
 31
0.0
  0
LINE
  5
150
102
{ACAD_REACTORS
330
215
330
216
102
}
330
71
100
AcDbEntity
  8
0
  6
Continuous
 62
     2
100
AcDbLine
 10
98.1509235837566
 20
335.0349550880911
 30
0.0
 11
98.9620226212312
 21
335.0349550880911
 31
0.0
  0
LINE
  5
151
102
{ACAD_REACTORS
330
215
330
216
102
}
330
71
100
AcDbEntity
  8
0
  6
Continuous
 62
     2
100
AcDbLine
 10
100.9659143608702
 20
335.8202203942147
 30
0.0
 11
98.1509235837566
 21
335.8202203942147
 31
0.0
  0
LINE
  5
152
102
{ACAD_REACTORS
330
215
330
216
102
}
330
71
100
AcDbEntity
  8
0
  6
Continuous
 62
     2
100
AcDbLine
 10
100.9659143608702
 20
335.0349550880911
 30
0.0
 11
100.9659143608702
 21
335.8202203942147
 31
0.0
  0
LINE
  5
153
102
{ACAD_REACTORS
330
215
330
216
102
}
330
71
100
AcDbEntity
  8
0
  6
Continuous
 62
     2
100
AcDbLine
 10
100.1548153233977
 20
335.0349550880911
 30
0.0
 11
100.9659143608702
 21
335.0349550880911
 31
0.0
  0
LINE
  5
154
102
{ACAD_REACTORS
330
215
330
216
102
}
330
71
100
AcDbEntity
  8
0
  6
Continuous
 62
     2
100
AcDbLine
 10
100.1548153233977
 20
332.7664108704036
 30
0.0
 11
100.1548153233977
 21
335.0349550880911
 31
0.0
  0
LINE
  5
155
102
{ACAD_REACTORS
330
213
330
214
102
}
330
71
100
AcDbEntity
  8
0
  6
Continuous
 62
     2
100
AcDbLine
 10
100.8229301674957
 20
336.1256013465779
 30
0.0
 11
100.8229301674957
 21
337.4343768567826
 31
0.0
  0
LINE
  5
156
102
{ACAD_REACTORS
330
213
330
214
102
}
330
71
100
AcDbEntity
  8
0
  6
Continuous
 62
     2
100
AcDbLine
 10
99.6301374653292
 20
339.1794108703891
 30
0.0
 11
99.6301374653292
 21
336.1256013465779
 31
0.0
  0
LINE
  5
157
102
{ACAD_REACTORS
330
213
330
214
102
}
330
71
100
AcDbEntity
  8
0
  6
Continuous
 62
     2
100
AcDbLine
 10
100.8229301674957
 20
339.1794108703891
 30
0.0
 11
99.6301374653292
 21
339.1794108703891
 31
0.0
  0
LINE
  5
158
102
{ACAD_REACTORS
330
213
330
214
102
}
330
71
100
AcDbEntity
  8
0
  6
Continuous
 62
     2
100
AcDbLine
 10
102.0634345777497
 20
339.1794108703891
 30
0.0
 11
102.0634345777497
 21
337.8706353601839
 31
0.0
  0
LINE
  5
159
102
{ACAD_REACTORS
330
211
330
212
102
}
330
71
100
AcDbEntity
  8
0
  6
Continuous
 62
     2
100
AcDbLine
 10
94.3816986449095
 20
335.8202203942147
 30
0.0
 11
94.3816986449095
 21
332.7664108704036
 31
0.0
  0
LINE
  5
15A
102
{ACAD_REACTORS
330
211
330
212
102
}
330
71
100
AcDbEntity
  8
0
  6
Continuous
 62
     2
100
AcDbLine
 10
95.5744913470771
 20
335.8202203942147
 30
0.0
 11
94.3816986449095
 21
335.8202203942147
 31
0.0
  0
LINE
  5
15B
102
{ACAD_REACTORS
330
211
330
212
102
}
330
71
100
AcDbEntity
  8
0
  6
Continuous
 62
     2
100
AcDbLine
 10
96.81499575733
 20
332.7664108704036
 30
0.0
 11
98.0077884594964
 21
332.7664108704036
 31
0.0
  0
LINE
  5
15C
102
{ACAD_REACTORS
330
211
330
212
102
}
330
71
100
AcDbEntity
  8
0
  6
Continuous
 62
     2
100
AcDbLine
 10
94.3816986449095
 20
332.7664108704036
 30
0.0
 11
95.5744913470771
 21
332.7664108704036
 31
0.0
  0
LINE
  5
15D
102
{ACAD_REACTORS
330
221
330
222
102
}
330
71
100
AcDbEntity
  8
0
  6
Continuous
 62
     2
100
AcDbLine
 10
98.05565109846862
 20
338.0015129112044
 30
0.0
 11
98.05565109846862
 21
338.4813972649461
 31
0.0
  0
LINE
  5
15E
102
{ACAD_REACTORS
330
221
330
222
102
}
330
71
100
AcDbEntity
  8
0
  6
Continuous
 62
     2
100
AcDbLine
 10
99.3915789248963
 20
338.0015129112044
 30
0.0
 11
98.05565109846862
 21
338.0015129112044
 31
0.0
  0
LINE
  5
15F
102
{ACAD_REACTORS
330
221
330
222
102
}
330
71
100
AcDbEntity
  8
0
  6
Continuous
 62
     2
100
AcDbLine
 10
99.3915789248963
 20
337.3034993057621
 30
0.0
 11
99.3915789248963
 21
338.0015129112044
 31
0.0
  0
LINE
  5
160
102
{ACAD_REACTORS
330
221
330
222
102
}
330
71
100
AcDbEntity
  8
0
  6
Continuous
 62
     2
100
AcDbLine
 10
98.05565109846862
 20
337.3034993057621
 30
0.0
 11
99.3915789248963
 21
337.3034993057621
 31
0.0
  0
LINE
  5
161
102
{ACAD_REACTORS
330
20F
330
210
102
}
330
71
100
AcDbEntity
  8
0
  6
Continuous
 62
     2
100
AcDbLine
 10
94.5726964081417
 20
339.1794108703891
 30
0.0
 11
94.5726964081417
 21
336.1256013465779
 31
0.0
  0
LINE
  5
162
102
{ACAD_REACTORS
330
20F
330
210
102
}
330
71
100
AcDbEntity
  8
0
  6
Continuous
 62
     2
100
AcDbLine
 10
94.5726964081417
 20
336.1256013465779
 30
0.0
 11
93.3799037059753
 21
336.1256013465779
 31
0.0
  0
LINE
  5
163
102
{ACAD_REACTORS
330
20F
330
210
102
}
330
71
100
AcDbEntity
  8
0
  6
Continuous
 62
     2
100
AcDbLine
 10
93.3799037059753
 20
336.1256013465779
 30
0.0
 11
93.3799037059753
 21
337.2598734554217
 31
0.0
  0
LINE
  5
164
102
{ACAD_REACTORS
330
20F
330
210
102
}
330
71
100
AcDbEntity
  8
0
  6
Continuous
 62
     2
100
AcDbLine
 10
92.33024612806781
 20
336.1256013465779
 30
0.0
 11
91.13745342590121
 21
336.1256013465779
 31
0.0
  0
LINE
  5
165
102
{ACAD_REACTORS
330
20F
330
210
102
}
330
71
100
AcDbEntity
  8
0
  6
Continuous
 62
     2
100
AcDbLine
 10
91.13745342590121
 20
339.1794108703891
 30
0.0
 11
92.33024612806781
 21
339.1794108703891
 31
0.0
  0
LINE
  5
166
102
{ACAD_REACTORS
330
20F
330
210
102
}
330
71
100
AcDbEntity
  8
0
  6
Continuous
 62
     2
100
AcDbLine
 10
92.33024612806781
 20
339.1794108703891
 30
0.0
 11
92.33024612806781
 21
338.1105775370545
 31
0.0
  0
LINE
  5
167
102
{ACAD_REACTORS
330
20F
330
210
102
}
330
71
100
AcDbEntity
  8
0
  6
Continuous
 62
     2
100
AcDbLine
 10
92.33024612806781
 20
338.1105775370545
 30
0.0
 11
93.3799037059753
 21
338.1105775370545
 31
0.0
  0
LINE
  5
168
102
{ACAD_REACTORS
330
21D
330
21E
102
}
330
71
100
AcDbEntity
  8
0
  6
Continuous
 62
     2
100
AcDbLine
 10
89.18127339434761
 20
338.516305024949
 30
0.0
 11
89.49856845588951
 21
338.516305024949
 31
0.0
  0
LINE
  5
169
102
{ACAD_REACTORS
330
21D
330
21E
102
}
330
71
100
AcDbEntity
  8
0
  6
Continuous
 62
     2
100
AcDbLine
 10
89.18127339434761
 20
337.8105773756068
 30
0.0
 11
89.49856845588951
 21
337.8105773756068
 31
0.0
  0
LINE
  5
16A
102
{ACAD_REACTORS
330
21D
330
21E
102
}
330
71
100
AcDbEntity
  8
0
  6
Continuous
 62
     2
100
AcDbLine
 10
87.9407689840935
 20
339.1794108703891
 30
0.0
 11
87.9407689840935
 21
336.1256013465779
 31
0.0
  0
LINE
  5
16B
102
{ACAD_REACTORS
330
21D
330
21E
102
}
330
71
100
AcDbEntity
  8
0
  6
Continuous
 62
     2
100
AcDbLine
 10
87.9407689840935
 20
339.1794108703891
 30
0.0
 11
89.9400409821279
 21
339.1794108703891
 31
0.0
  0
LINE
  5
16C
102
{ACAD_REACTORS
330
21D
330
21E
102
}
330
71
100
AcDbEntity
  8
0
  6
Continuous
 62
     2
100
AcDbLine
 10
89.18127339434761
 20
337.0686795877217
 30
0.0
 11
89.9400409821279
 21
337.0686795877217
 31
0.0
  0
LINE
  5
16D
102
{ACAD_REACTORS
330
223
330
224
102
}
330
71
100
AcDbEntity
  8
0
  6
Continuous
 62
     2
100
AcDbLine
 10
81.8442729507968
 20
338.1511383917543
 30
0.0
 11
81.8442729507968
 21
333.7946833490372
 31
0.0
  0
LINE
  5
16E
102
{ACAD_REACTORS
330
223
330
224
102
}
330
71
100
AcDbEntity
  8
0
  6
Continuous
 62
     2
100
AcDbLine
 10
82.15998987387249
 20
338.4668553148305
 30
0.0
 11
83.63582313488212
 21
338.4668553148305
 31
0.0
  0
LINE
  5
16F
102
{ACAD_REACTORS
330
223
330
224
102
}
330
71
100
AcDbEntity
  8
0
  6
Continuous
 62
     2
100
AcDbLine
 10
83.95154005795871
 20
337.5471137726938
 30
0.0
 11
83.95154005795871
 21
338.1511383917543
 31
0.0
  0
LINE
  5
170
102
{ACAD_REACTORS
330
223
330
224
102
}
330
71
100
AcDbEntity
  8
0
  6
Continuous
 62
     2
100
AcDbLine
 10
83.95154005795871
 20
333.7946833490372
 30
0.0
 11
83.95154005795871
 21
335.3254542805688
 31
0.0
  0
LINE
  5
171
102
{ACAD_REACTORS
330
223
330
224
102
}
330
71
100
AcDbEntity
  8
0
  6
Continuous
 62
     2
100
AcDbLine
 10
87.0394072878428
 20
332.7664108704036
 30
0.0
 11
81.566095197126
 21
332.7664108704036
 31
0.0
  0
LINE
  5
172
102
{ACAD_REACTORS
330
223
330
224
102
}
330
71
100
AcDbEntity
  8
0
  6
Continuous
 62
     2
100
AcDbLine
 10
87.46365190322669
 20
338.7551662549871
 30
0.0
 11
87.46365190322669
 21
333.1906554857869
 31
0.0
  0
LINE
  5
173
102
{ACAD_REACTORS
330
223
330
224
102
}
330
71
100
AcDbEntity
  8
0
  6
Continuous
 62
     2
100
AcDbLine
 10
81.566095197126
 20
339.1794108703709
 30
0.0
 11
87.0394072878428
 21
339.1794108703709
 31
0.0
  0
LINE
  5
174
102
{ACAD_REACTORS
330
223
330
224
102
}
330
71
100
AcDbEntity
  8
0
  6
Continuous
 62
     2
100
AcDbLine
 10
81.1418505817432
 20
338.7551662549871
 30
0.0
 11
81.1418505817432
 21
333.1906554857869
 31
0.0
  0
LINE
  5
175
102
{ACAD_REACTORS
330
223
330
224
102
}
330
71
100
AcDbEntity
  8
0
  6
Continuous
 62
     2
100
AcDbLine
 10
83.63582313488212
 20
333.4789664259605
 30
0.0
 11
82.15998987387249
 21
333.4789664259605
 31
0.0
  0
LINE
  5
176
102
{ACAD_REACTORS
330
21D
330
21E
102
}
330
71
100
AcDbEntity
  8
0
  6
Continuous
 62
     2
100
AcDbLine
 10
89.18127339434761
 20
336.1256013465779
 30
0.0
 11
89.18127339434761
 21
337.0686795877217
 31
0.0
  0
LINE
  5
177
102
{ACAD_REACTORS
330
21D
330
21E
102
}
330
71
100
AcDbEntity
  8
0
  6
Continuous
 62
     2
100
AcDbLine
 10
87.9407689840935
 20
336.1256013465779
 30
0.0
 11
89.18127339434761
 21
336.1256013465779
 31
0.0
  0
LINE
  5
178
102
{ACAD_REACTORS
330
21D
330
21E
102
}
330
71
100
AcDbEntity
  8
0
  6
Continuous
 62
     2
100
AcDbLine
 10
89.18127339434761
 20
337.8105773756068
 30
0.0
 11
89.18127339434761
 21
338.516305024949
 31
0.0
  0
LINE
  5
179
102
{ACAD_REACTORS
330
20F
330
210
102
}
330
71
100
AcDbEntity
  8
0
  6
Continuous
 62
     2
100
AcDbLine
 10
91.13745342590121
 20
339.1794108703891
 30
0.0
 11
91.13745342590121
 21
336.1256013465779
 31
0.0
  0
LINE
  5
17A
102
{ACAD_REACTORS
330
20F
330
210
102
}
330
71
100
AcDbEntity
  8
0
  6
Continuous
 62
     2
100
AcDbLine
 10
92.33024612806781
 20
337.2598734554217
 30
0.0
 11
92.33024612806781
 21
336.1256013465779
 31
0.0
  0
LINE
  5
17B
102
{ACAD_REACTORS
330
20F
330
210
102
}
330
71
100
AcDbEntity
  8
0
  6
Continuous
 62
     2
100
AcDbLine
 10
93.3799037059753
 20
337.2598734554217
 30
0.0
 11
92.33024612806781
 21
337.2598734554217
 31
0.0
  0
LINE
  5
17C
102
{ACAD_REACTORS
330
20F
330
210
102
}
330
71
100
AcDbEntity
  8
0
  6
Continuous
 62
     2
100
AcDbLine
 10
93.3799037059753
 20
339.1794108703891
 30
0.0
 11
94.5726964081417
 21
339.1794108703891
 31
0.0
  0
LINE
  5
17D
102
{ACAD_REACTORS
330
20F
330
210
102
}
330
71
100
AcDbEntity
  8
0
  6
Continuous
 62
     2
100
AcDbLine
 10
93.3799037059753
 20
338.1105775370545
 30
0.0
 11
93.3799037059753
 21
339.1794108703891
 31
0.0
  0
LINE
  5
17E
102
{ACAD_REACTORS
330
221
330
222
102
}
330
71
100
AcDbEntity
  8
0
  6
Continuous
 62
     2
100
AcDbLine
 10
99.3915789248963
 20
338.4813972649461
 30
0.0
 11
99.3915789248963
 21
339.1794108703891
 31
0.0
  0
LINE
  5
17F
102
{ACAD_REACTORS
330
221
330
222
102
}
330
71
100
AcDbEntity
  8
0
  6
Continuous
 62
     2
100
AcDbLine
 10
96.2412592011153
 20
339.1794108703891
 30
0.0
 11
99.3915789248963
 21
339.1794108703891
 31
0.0
  0
LINE
  5
180
102
{ACAD_REACTORS
330
221
330
222
102
}
330
71
100
AcDbEntity
  8
0
  6
Continuous
 62
     2
100
AcDbLine
 10
96.2412592011153
 20
336.1256013465779
 30
0.0
 11
99.3915789248963
 21
336.1256013465779
 31
0.0
  0
LINE
  5
181
102
{ACAD_REACTORS
330
221
330
222
102
}
330
71
100
AcDbEntity
  8
0
  6
Continuous
 62
     2
100
AcDbLine
 10
99.3915789248963
 20
336.1256013465779
 30
0.0
 11
99.3915789248963
 21
336.8236149520204
 31
0.0
  0
LINE
  5
182
102
{ACAD_REACTORS
330
221
330
222
102
}
330
71
100
AcDbEntity
  8
0
  6
Continuous
 62
     2
100
AcDbLine
 10
99.3915789248963
 20
336.8236149520204
 30
0.0
 11
98.05565109846862
 21
336.8236149520204
 31
0.0
  0
LINE
  5
183
102
{ACAD_REACTORS
330
221
330
222
102
}
330
71
100
AcDbEntity
  8
0
  6
Continuous
 62
     2
100
AcDbLine
 10
98.05565109846862
 20
336.8236149520204
 30
0.0
 11
98.05565109846862
 21
337.3034993057621
 31
0.0
  0
LINE
  5
184
102
{ACAD_REACTORS
330
221
330
222
102
}
330
71
100
AcDbEntity
  8
0
  6
Continuous
 62
     2
100
AcDbLine
 10
98.05565109846862
 20
338.4813972649461
 30
0.0
 11
99.3915789248963
 21
338.4813972649461
 31
0.0
  0
LINE
  5
185
102
{ACAD_REACTORS
330
211
330
212
102
}
330
71
100
AcDbEntity
  8
0
  6
Continuous
 62
     2
100
AcDbLine
 10
95.5744913470771
 20
332.7664108704036
 30
0.0
 11
95.5744913470771
 21
334.0751863806082
 31
0.0
  0
LINE
  5
186
102
{ACAD_REACTORS
330
211
330
212
102
}
330
71
100
AcDbEntity
  8
0
  6
Continuous
 62
     2
100
AcDbLine
 10
95.5744913470771
 20
334.0751863806082
 30
0.0
 11
96.81499575733
 21
332.7664108704036
 31
0.0
  0
LINE
  5
187
102
{ACAD_REACTORS
330
211
330
212
102
}
330
71
100
AcDbEntity
  8
0
  6
Continuous
 62
     2
100
AcDbLine
 10
98.0077884594964
 20
332.7664108704036
 30
0.0
 11
98.0077884594964
 21
335.8202203942147
 31
0.0
  0
LINE
  5
188
102
{ACAD_REACTORS
330
211
330
212
102
}
330
71
100
AcDbEntity
  8
0
  6
Continuous
 62
     2
100
AcDbLine
 10
98.0077884594964
 20
335.8202203942147
 30
0.0
 11
96.81499575733
 21
335.8202203942147
 31
0.0
  0
LINE
  5
189
102
{ACAD_REACTORS
330
211
330
212
102
}
330
71
100
AcDbEntity
  8
0
  6
Continuous
 62
     2
100
AcDbLine
 10
96.81499575733
 20
335.8202203942147
 30
0.0
 11
96.81499575733
 21
334.5114448840096
 31
0.0
  0
LINE
  5
18A
102
{ACAD_REACTORS
330
211
330
212
102
}
330
71
100
AcDbEntity
  8
0
  6
Continuous
 62
     2
100
AcDbLine
 10
96.81499575733
 20
334.5114448840096
 30
0.0
 11
95.5744913470771
 21
335.8202203942147
 31
0.0
  0
LINE
  5
18B
102
{ACAD_REACTORS
330
213
330
214
102
}
330
71
100
AcDbEntity
  8
0
  6
Continuous
 62
     2
100
AcDbLine
 10
100.8229301674957
 20
337.4343768567826
 30
0.0
 11
102.0634345777497
 21
336.1256013465779
 31
0.0
  0
LINE
  5
18C
102
{ACAD_REACTORS
330
213
330
214
102
}
330
71
100
AcDbEntity
  8
0
  6
Continuous
 62
     2
100
AcDbLine
 10
102.0634345777497
 20
336.1256013465779
 30
0.0
 11
103.2562272799163
 21
336.1256013465779
 31
0.0
  0
LINE
  5
18D
102
{ACAD_REACTORS
330
213
330
214
102
}
330
71
100
AcDbEntity
  8
0
  6
Continuous
 62
     2
100
AcDbLine
 10
103.2562272799163
 20
336.1256013465779
 30
0.0
 11
103.2562272799163
 21
339.1794108703891
 31
0.0
  0
LINE
  5
18E
102
{ACAD_REACTORS
330
213
330
214
102
}
330
71
100
AcDbEntity
  8
0
  6
Continuous
 62
     2
100
AcDbLine
 10
103.2562272799163
 20
339.1794108703891
 30
0.0
 11
102.0634345777497
 21
339.1794108703891
 31
0.0
  0
LINE
  5
18F
102
{ACAD_REACTORS
330
213
330
214
102
}
330
71
100
AcDbEntity
  8
0
  6
Continuous
 62
     2
100
AcDbLine
 10
102.0634345777497
 20
337.8706353601839
 30
0.0
 11
100.8229301674957
 21
339.1794108703891
 31
0.0
  0
LINE
  5
190
102
{ACAD_REACTORS
330
213
330
214
102
}
330
71
100
AcDbEntity
  8
0
  6
Continuous
 62
     2
100
AcDbLine
 10
99.6301374653292
 20
336.1256013465779
 30
0.0
 11
100.8229301674957
 21
336.1256013465779
 31
0.0
  0
LINE
  5
191
102
{ACAD_REACTORS
330
215
330
216
102
}
330
71
100
AcDbEntity
  8
0
  6
Continuous
 62
     2
100
AcDbLine
 10
98.1509235837566
 20
335.8202203942147
 30
0.0
 11
98.1509235837566
 21
335.0349550880911
 31
0.0
  0
LINE
  5
192
102
{ACAD_REACTORS
330
215
330
216
102
}
330
71
100
AcDbEntity
  8
0
  6
Continuous
 62
     2
100
AcDbLine
 10
98.9620226212312
 20
335.0349550880911
 30
0.0
 11
98.9620226212312
 21
332.7664108704036
 31
0.0
  0
LINE
  5
193
102
{ACAD_REACTORS
330
215
330
216
102
}
330
71
100
AcDbEntity
  8
0
  6
Continuous
 62
     2
100
AcDbLine
 10
98.9620226212312
 20
332.7664108704036
 30
0.0
 11
100.1548153233977
 21
332.7664108704036
 31
0.0
  0
LINE
  5
194
102
{ACAD_REACTORS
330
217
330
218
102
}
330
71
100
AcDbEntity
  8
0
  6
Continuous
 62
     2
100
AcDbLine
 10
103.1043418168172
 20
332.7664108704036
 30
0.0
 11
102.8928617633414
 21
333.3073714146215
 31
0.0
  0
LINE
  5
195
102
{ACAD_REACTORS
330
217
330
218
102
}
330
71
100
AcDbEntity
  8
0
  6
Continuous
 62
     2
100
AcDbLine
 10
102.9468931801308
 20
335.8202203942147
 30
0.0
 11
104.3448462270711
 21
332.7664108704036
 31
0.0
  0
LINE
  5
196
102
{ACAD_REACTORS
330
217
330
218
102
}
330
71
100
AcDbEntity
  8
0
  6
Continuous
 62
     2
100
AcDbLine
 10
101.7063887698781
 20
335.8202203942147
 30
0.0
 11
102.9468931801308
 21
335.8202203942147
 31
0.0
  0
LINE
  5
197
102
{ACAD_REACTORS
330
217
330
218
102
}
330
71
100
AcDbEntity
  8
0
  6
Continuous
 62
     2
100
AcDbLine
 10
100.3084357229388
 20
332.7664108704036
 30
0.0
 11
101.5489401331918
 21
332.7664108704036
 31
0.0
  0
LINE
  5
198
102
{ACAD_REACTORS
330
217
330
218
102
}
330
71
100
AcDbEntity
  8
0
  6
Continuous
 62
     2
100
AcDbLine
 10
102.0264757378126
 20
333.9879346799281
 30
0.0
 11
102.6268062121951
 21
333.9879346799281
 31
0.0
  0
LINE
  5
199
102
{ACAD_REACTORS
330
217
330
218
102
}
330
71
100
AcDbEntity
  8
0
  6
Continuous
 62
     2
100
AcDbLine
 10
102.6268062121951
 20
333.9879346799281
 30
0.0
 11
102.326640975005
 21
334.7557496459148
 31
0.0
  0
LINE
  5
19A
102
{ACAD_REACTORS
330
219
330
21A
102
}
330
71
100
AcDbEntity
  8
0
  6
Continuous
 62
     2
100
AcDbLine
 10
104.7352902306031
 20
336.1256013465779
 30
0.0
 11
103.4947858203502
 21
336.1256013465779
 31
0.0
  0
LINE
  5
19B
102
{ACAD_REACTORS
330
21B
330
21C
102
}
330
71
100
AcDbEntity
  8
0
  6
Continuous
 62
     2
100
AcDbLine
 10
106.2572937185682
 20
336.1256013465779
 30
0.0
 11
104.85456950082
 21
336.1256013465779
 31
0.0
  0
LINE
  5
19C
102
{ACAD_REACTORS
330
21B
330
21C
102
}
330
71
100
AcDbEntity
  8
0
  6
Continuous
 62
     2
100
AcDbLine
 10
106.2572937185682
 20
336.1256013465779
 30
0.0
 11
106.9538846566339
 21
336.9133331318716
 31
0.0
  0
LINE
  5
19D
102
{ACAD_REACTORS
330
21B
330
21C
102
}
330
71
100
AcDbEntity
  8
0
  6
Continuous
 62
     2
100
AcDbLine
 10
107.5550521785267
 20
339.1794108703891
 30
0.0
 11
108.9577763962739
 21
339.1794108703891
 31
0.0
  0
LINE
  5
19E
102
{ACAD_REACTORS
330
21B
330
21C
102
}
330
71
100
AcDbEntity
  8
0
  6
Continuous
 62
     2
100
AcDbLine
 10
104.9499929169928
 20
339.1794108703891
 30
0.0
 11
106.2525225477603
 21
337.7064603403529
 31
0.0
  0
LINE
  5
19F
102
{ACAD_REACTORS
330
21B
330
21C
102
}
330
71
100
AcDbEntity
  8
0
  6
Continuous
 62
     2
100
AcDbLine
 10
104.85456950082
 20
336.1256013465779
 30
0.0
 11
106.2525225477603
 21
337.7064603403529
 31
0.0
  0
LINE
  5
1A0
102
{ACAD_REACTORS
330
225
330
226
102
}
330
71
100
AcDbEntity
  8
0
  6
Continuous
 62
     2
100
AcDbLine
 10
106.7153261161999
 20
333.8134312785672
 30
0.0
 11
106.7153261161999
 21
332.9409142717639
 31
0.0
  0
LINE
  5
1A1
102
{ACAD_REACTORS
330
225
330
226
102
}
330
71
100
AcDbEntity
  8
0
  6
Continuous
 62
     2
100
AcDbLine
 10
105.9456687732385
 20
335.0349550880911
 30
0.0
 11
107.0493080728066
 21
335.0349550880911
 31
0.0
  0
LINE
  5
1A2
102
{ACAD_REACTORS
330
227
330
228
102
}
330
71
100
AcDbEntity
  8
0
  6
Continuous
 62
     2
100
AcDbLine
 10
90.612624636948
 20
333.8134312785677
 30
0.0
 11
90.612624636948
 21
332.9409142717645
 31
0.0
  0
LINE
  5
1A3
102
{ACAD_REACTORS
330
227
330
228
102
}
330
71
100
AcDbEntity
  8
0
  6
Continuous
 62
     2
100
AcDbLine
 10
90.612624636948
 20
334.7731999860506
 30
0.0
 11
90.612624636948
 21
335.6457169928539
 31
0.0
  0
LINE
  5
1A4
330
71
100
AcDbEntity
  8
1
  6
Continuous
 62
     7
100
AcDbLine
 10
206.4500002219319
 20
333.9729108703873
 30
0.0
 11
113.3051956951805
 21
333.9729108703873
 31
0.0
  0
LINE
  5
1A5
330
71
100
AcDbEntity
  8
1
  6
Continuous
 62
     6
100
AcDbLine
 10
7.90519569518062
 20
325.4729108703873
 30
0.0
 11
-37.04999977806938
 21
325.4729108703873
 31
0.0
  0
LINE
  5
1A6
330
71
100
AcDbEntity
  8
1
  6
Continuous
 62
     7
100
AcDbLine
 10
197.5315919402531
 20
350.9729108703873
 30
0.0
 11
197.5315919402531
 21
342.4729108703873
 31
0.0
  0
LINE
  5
1A7
330
71
100
AcDbEntity
  8
1
  6
Continuous
 62
     7
100
AcDbLine
 10
171.0315919402535
 20
350.9729108703873
 30
0.0
 11
171.0315919402535
 21
342.4729108703873
 31
0.0
  0
LINE
  5
1A8
330
71
100
AcDbEntity
  8
1
  6
Continuous
 62
     7
100
AcDbLine
 10
113.3051956951805
 20
342.4729108703873
 30
0.0
 11
113.3051956951805
 21
350.9729108703873
 31
0.0
  0
LINE
  5
1A9
330
71
100
AcDbEntity
  8
1
  6
Continuous
 62
     7
100
AcDbLine
 10
76.9051956951806
 20
342.4729108703873
 30
0.0
 11
76.9051956951806
 21
350.9729108703873
 31
0.0
  0
LINE
  5
1AA
330
71
100
AcDbEntity
  8
1
  6
Continuous
 62
     6
100
AcDbLine
 10
113.3051956951805
 20
342.4729108703873
 30
0.0
 11
206.4500002219323
 21
342.4729108703873
 31
0.0
  0
LINE
  5
1AB
330
71
100
AcDbEntity
  8
1
  6
Continuous
 62
     7
100
AcDbLine
 10
141.2051956951806
 20
333.9729108703872
 30
0.0
 11
141.2051956951806
 21
342.4729108703873
 31
0.0
  0
LINE
  5
1AC
330
71
100
AcDbEntity
  8
1
  6
PHANTOM
 62
     2
100
AcDbLine
 10
92.3918505817432
 20
346.5979108703872
 30
0.0
 11
86.8918505817432
 21
346.5979108703872
 31
0.0
  0
LINE
  5
1AD
330
71
100
AcDbEntity
  8
1
  6
PHANTOM
 62
     2
100
AcDbLine
 10
89.6418505817432
 20
349.3479108703872
 30
0.0
 11
89.6418505817432
 21
343.8479108703872
 31
0.0
  0
LINE
  5
1AE
330
71
100
AcDbEntity
  8
1
  6
DOT_CENTER
 62
     2
100
AcDbLine
 10
80.8918505817432
 20
346.5979108703872
 30
0.0
 11
86.3918505817432
 21
346.5979108703872
 31
0.0
  0
ARC
  5
1AF
102
{ACAD_REACTORS
330
227
330
228
102
}
330
71
100
AcDbEntity
  8
0
  6
Continuous
 62
     2
100
AcDbCircle
 10
89.2766967198302
 20
330.980634687053
 30
0.0
 40
4.852596863498095
100
AcDbArc
 50
74.02000874164747
 51
84.84185523037509
  0
ARC
  5
1B0
102
{ACAD_REACTORS
330
227
330
228
102
}
330
71
100
AcDbEntity
  8
0
  6
Continuous
 62
     2
100
AcDbCircle
 10
89.85273732858391
 20
334.1363950429373
 30
0.0
 40
0.9059297849853228
100
AcDbArc
 50
71.55192388185348
 51
113.372277888129
  0
ARC
  5
1B1
102
{ACAD_REACTORS
330
227
330
228
102
}
330
71
100
AcDbEntity
  8
0
  6
Continuous
 62
     2
100
AcDbCircle
 10
89.69629729588189
 20
334.0882442029704
 30
0.0
 40
0.5115800601948034
100
AcDbArc
 50
208.5214732576956
 51
246.6277221118248
  0
ARC
  5
1B2
102
{ACAD_REACTORS
330
227
330
228
102
}
330
71
100
AcDbEntity
  8
0
  6
Continuous
 62
     2
100
AcDbCircle
 10
89.85273732858391
 20
334.4502362216804
 30
0.0
 40
0.9059297849849192
100
AcDbArc
 50
246.627722111871
 51
288.4480761181579
  0
ARC
  5
1B3
102
{ACAD_REACTORS
330
227
330
228
102
}
330
71
100
AcDbEntity
  8
0
  6
Continuous
 62
     2
100
AcDbCircle
 10
89.43456959492312
 20
335.7037819977176
 30
0.0
 40
2.227384008972764
100
AcDbArc
 50
288.4480761181326
 51
301.9309089499589
  0
ARC
  5
1B4
102
{ACAD_REACTORS
330
223
330
224
102
}
330
71
100
AcDbEntity
  8
0
  6
Continuous
 62
     2
100
AcDbCircle
 10
84.20949586231632
 20
336.4362840266316
 30
0.0
 40
0.9118481501444847
100
AcDbArc
 50
295.3740086781757
 51
64.62599132180748
  0
ARC
  5
1B5
102
{ACAD_REACTORS
330
223
330
224
102
}
330
71
100
AcDbEntity
  8
0
  6
Continuous
 62
     2
100
AcDbCircle
 10
84.7355385604042
 20
338.1509609151062
 30
0.0
 40
0.3157169230760142
100
AcDbArc
 50
90.18896704254595
 51
180.0
  0
ARC
  5
1B6
102
{ACAD_REACTORS
330
225
330
226
102
}
330
71
100
AcDbEntity
  8
0
  6
Continuous
 62
     2
100
AcDbCircle
 10
105.9456687732385
 20
334.080432081265
 30
0.0
 40
0.9545230068261503
100
AcDbArc
 50
90.0
 51
109.3371432194301
  0
ARC
  5
1B7
102
{ACAD_REACTORS
330
225
330
226
102
}
330
71
100
AcDbEntity
  8
0
  6
Continuous
 62
     2
100
AcDbCircle
 10
106.1763560332162
 20
334.2933156323089
 30
0.0
 40
0.9410597353348789
100
AcDbArc
 50
151.478526742364
 51
208.5214732576695
  0
ARC
  5
1B8
102
{ACAD_REACTORS
330
225
330
226
102
}
330
71
100
AcDbEntity
  8
0
  6
Continuous
 62
     2
100
AcDbCircle
 10
105.9554388078379
 20
334.4502362216804
 30
0.0
 40
0.9059297849852744
100
AcDbArc
 50
246.6277221118191
 51
288.4480761180814
  0
ARC
  5
1B9
102
{ACAD_REACTORS
330
225
330
226
102
}
330
71
100
AcDbEntity
  8
0
  6
Continuous
 62
     2
100
AcDbCircle
 10
105.537271074176
 20
335.703781997717
 30
0.0
 40
2.227384008972773
100
AcDbArc
 50
288.4480761181333
 51
301.930908949939
  0
ARC
  5
1BA
102
{ACAD_REACTORS
330
225
330
226
102
}
330
71
100
AcDbEntity
  8
0
  6
Continuous
 62
     2
100
AcDbCircle
 10
105.3793981990832
 20
337.6059965775653
 30
0.0
 40
4.852596863498824
100
AcDbArc
 50
275.1581447696362
 51
285.9799912583386
  0
ARC
  5
1BB
102
{ACAD_REACTORS
330
225
330
226
102
}
330
71
100
AcDbEntity
  8
0
  6
Continuous
 62
     2
100
AcDbCircle
 10
105.668254293819
 20
334.4061059943437
 30
0.0
 40
1.639695123940434
100
AcDbArc
 50
195.0618917771014
 51
275.1581447696762
  0
ARC
  5
1BC
102
{ACAD_REACTORS
330
21D
330
21E
102
}
330
71
100
AcDbEntity
  8
0
  6
Continuous
 62
     2
100
AcDbCircle
 10
89.9400409821279
 20
338.1240452290554
 30
0.0
 40
1.055365641333708
100
AcDbArc
 50
270.0
 51
90.0
  0
ARC
  5
1BD
102
{ACAD_REACTORS
330
223
330
224
102
}
330
71
100
AcDbEntity
  8
0
  6
Continuous
 62
     2
100
AcDbCircle
 10
82.15998987387249
 20
333.7946833490372
 30
0.0
 40
0.3157169230756836
100
AcDbArc
 50
180.0
 51
270.0
  0
ARC
  5
1BE
102
{ACAD_REACTORS
330
223
330
224
102
}
330
71
100
AcDbEntity
  8
0
  6
Continuous
 62
     2
100
AcDbCircle
 10
83.63582313488212
 20
338.1511383917543
 30
0.0
 40
0.315716923076593
100
AcDbArc
 50
0.0
 51
90.0
  0
ARC
  5
1BF
102
{ACAD_REACTORS
330
223
330
224
102
}
330
71
100
AcDbEntity
  8
0
  6
Continuous
 62
     2
100
AcDbCircle
 10
83.63582313488212
 20
337.5471137726938
 30
0.0
 40
0.3157169230761717
100
AcDbArc
 50
295.1944106485354
 51
0.0
  0
ARC
  5
1C0
102
{ACAD_REACTORS
330
223
330
224
102
}
330
71
100
AcDbEntity
  8
0
  6
Continuous
 62
     2
100
AcDbCircle
 10
83.63582313488212
 20
333.7946833490372
 30
0.0
 40
0.3157169230767067
100
AcDbArc
 50
270.0
 51
0.0
  0
ARC
  5
1C1
102
{ACAD_REACTORS
330
223
330
224
102
}
330
71
100
AcDbEntity
  8
0
  6
Continuous
 62
     2
100
AcDbCircle
 10
81.566095197126
 20
338.7551662549871
 30
0.0
 40
0.4242446153837705
100
AcDbArc
 50
90.0
 51
180.0
  0
ARC
  5
1C2
102
{ACAD_REACTORS
330
223
330
224
102
}
330
71
100
AcDbEntity
  8
0
  6
Continuous
 62
     2
100
AcDbCircle
 10
87.0394072878428
 20
338.7551662549871
 30
0.0
 40
0.4242446153838841
100
AcDbArc
 50
0.0
 51
90.0
  0
ARC
  5
1C3
102
{ACAD_REACTORS
330
223
330
224
102
}
330
71
100
AcDbEntity
  8
0
  6
Continuous
 62
     2
100
AcDbCircle
 10
87.0394072878428
 20
333.1906554857869
 30
0.0
 40
0.4242446153833157
100
AcDbArc
 50
270.0
 51
0.0
  0
ARC
  5
1C4
102
{ACAD_REACTORS
330
221
330
222
102
}
330
71
100
AcDbEntity
  8
0
  6
Continuous
 62
     2
100
AcDbCircle
 10
96.25779117493431
 20
337.6525061084832
 30
0.0
 40
0.7717997786796023
100
AcDbArc
 50
321.8795802028471
 51
38.12041979716289
  0
ARC
  5
1C5
102
{ACAD_REACTORS
330
221
330
222
102
}
330
71
100
AcDbEntity
  8
0
  6
Continuous
 62
     2
100
AcDbCircle
 10
96.4575312112805
 20
337.4957749303628
 30
0.0
 40
0.5179085730134372
100
AcDbArc
 50
218.1204197971511
 51
321.8795802028566
  0
ARC
  5
1C6
102
{ACAD_REACTORS
330
21F
330
220
102
}
330
71
100
AcDbEntity
  8
0
  6
Continuous
 62
     2
100
AcDbCircle
 10
92.7775236223203
 20
334.2933156323089
 30
0.0
 40
1.458034083652028
100
AcDbArc
 50
297.5481481757005
 51
62.45185182429842
  0
ARC
  5
1C7
102
{ACAD_REACTORS
330
21F
330
220
102
}
330
71
100
AcDbEntity
  8
0
  6
Continuous
 62
     2
100
AcDbCircle
 10
92.2156438386537
 20
334.2933156323089
 30
0.0
 40
1.458034083651465
100
AcDbArc
 50
117.548148175663
 51
242.451851824338
  0
ARC
  5
1C8
102
{ACAD_REACTORS
330
21F
330
220
102
}
330
71
100
AcDbEntity
  8
0
  6
Continuous
 62
     2
100
AcDbCircle
 10
92.496583730487
 20
333.7547406220061
 30
0.0
 40
2.065479772208543
100
AcDbArc
 50
62.451851824306
 51
117.5481481756667
  0
ARC
  5
1C9
102
{ACAD_REACTORS
330
21F
330
220
102
}
330
71
100
AcDbEntity
  8
0
  6
Continuous
 62
     2
100
AcDbCircle
 10
92.496583730487
 20
334.8318906426122
 30
0.0
 40
2.065479772208534
100
AcDbArc
 50
242.4518518243405
 51
297.5481481756867
  0
ARC
  5
1CA
102
{ACAD_REACTORS
330
221
330
222
102
}
330
71
100
AcDbEntity
  8
0
  6
Continuous
 62
     2
100
AcDbCircle
 10
96.6572712476268
 20
337.6525061084832
 30
0.0
 40
0.7717997786797075
100
AcDbArc
 50
141.8795802028371
 51
218.1204197971529
  0
ARC
  5
1CB
102
{ACAD_REACTORS
330
221
330
222
102
}
330
71
100
AcDbEntity
  8
0
  6
Continuous
 62
     2
100
AcDbCircle
 10
96.4575312112805
 20
337.8092372866037
 30
0.0
 40
0.5179085730135266
100
AcDbArc
 50
38.12041979714334
 51
141.8795802028489
  0
ARC
  5
1CC
102
{ACAD_REACTORS
330
223
330
224
102
}
330
71
100
AcDbEntity
  8
0
  6
Continuous
 62
     2
100
AcDbCircle
 10
81.566095197126
 20
333.1906554857869
 30
0.0
 40
0.4242446153828041
100
AcDbArc
 50
180.0
 51
270.0
  0
ARC
  5
1CD
102
{ACAD_REACTORS
330
223
330
224
102
}
330
71
100
AcDbEntity
  8
0
  6
Continuous
 62
     2
100
AcDbCircle
 10
83.63582313488212
 20
335.3254542805688
 30
0.0
 40
0.315716923076593
100
AcDbArc
 50
0.0
 51
64.80558935146027
  0
ARC
  5
1CE
102
{ACAD_REACTORS
330
223
330
224
102
}
330
71
100
AcDbEntity
  8
0
  6
Continuous
 62
     2
100
AcDbCircle
 10
84.1584075824571
 20
336.4362840266316
 30
0.0
 40
0.9118975235575889
100
AcDbArc
 50
115.194410648529
 51
244.8055893514878
  0
ARC
  5
1CF
102
{ACAD_REACTORS
330
223
330
224
102
}
330
71
100
AcDbEntity
  8
0
  6
Continuous
 62
     2
100
AcDbCircle
 10
82.15998987387249
 20
338.1511383917543
 30
0.0
 40
0.315716923076252
100
AcDbArc
 50
90.0
 51
180.0
  0
ARC
  5
1D0
102
{ACAD_REACTORS
330
21D
330
21E
102
}
330
71
100
AcDbEntity
  8
0
  6
Continuous
 62
     2
100
AcDbCircle
 10
89.49856845588951
 20
338.1634412002779
 30
0.0
 40
0.3528638246710898
100
AcDbArc
 50
270.0
 51
90.0
  0
ARC
  5
1D1
102
{ACAD_REACTORS
330
221
330
222
102
}
330
71
100
AcDbEntity
  8
0
  6
Continuous
 62
     2
100
AcDbCircle
 10
96.2412592011153
 20
337.6525061084832
 30
0.0
 40
1.526904761905939
100
AcDbArc
 50
90.0
 51
270.0
  0
ARC
  5
1D2
102
{ACAD_REACTORS
330
225
330
226
102
}
330
71
100
AcDbEntity
  8
0
  6
Continuous
 62
     2
100
AcDbCircle
 10
105.668254293819
 20
334.180525270274
 30
0.0
 40
1.639695123940157
100
AcDbArc
 50
90.0
 51
164.9381082228967
  0
ARC
  5
1D3
102
{ACAD_REACTORS
330
225
330
226
102
}
330
71
100
AcDbEntity
  8
0
  6
Continuous
 62
     2
100
AcDbCircle
 10
105.2491264503574
 20
334.2933156323089
 30
0.0
 40
1.205656168392974
100
AcDbArc
 50
164.9381082229052
 51
195.0618917770974
  0
ARC
  5
1D4
102
{ACAD_REACTORS
330
225
330
226
102
}
330
71
100
AcDbEntity
  8
0
  6
Continuous
 62
     2
100
AcDbCircle
 10
105.7989987751348
 20
334.0882442029704
 30
0.0
 40
0.5115800601959944
100
AcDbArc
 50
208.521473257681
 51
246.6277221118424
  0
ARC
  5
1D5
102
{ACAD_REACTORS
330
225
330
226
102
}
330
71
100
AcDbEntity
  8
0
  6
Continuous
 62
     2
100
AcDbCircle
 10
105.7989987751348
 20
334.4983870616479
 30
0.0
 40
0.5115800601944143
100
AcDbArc
 50
109.3371432194853
 51
151.4785267424253
  0
ARC
  5
1D6
102
{ACAD_REACTORS
330
223
330
224
102
}
330
71
100
AcDbEntity
  8
0
  6
Continuous
 62
     2
100
AcDbCircle
 10
84.7355385604042
 20
334.7452910199681
 30
0.0
 40
0.315716923076792
100
AcDbArc
 50
180.0
 51
269.8110329574541
  0
ARC
  5
1D7
102
{ACAD_REACTORS
330
223
330
224
102
}
330
71
100
AcDbEntity
  8
0
  6
Continuous
 62
     2
100
AcDbCircle
 10
84.74115469571421
 20
336.4481259675371
 30
0.0
 40
2.018561131933266
100
AcDbArc
 50
269.8110329575858
 51
90.18896704241416
  0
ARC
  5
1D8
102
{ACAD_REACTORS
330
223
330
224
102
}
330
71
100
AcDbEntity
  8
0
  6
Continuous
 62
     2
100
AcDbCircle
 10
84.7355385604042
 20
337.5454256265994
 30
0.0
 40
0.315716923076792
100
AcDbArc
 50
180.0
 51
244.6259913216482
  0
ARC
  5
1D9
102
{ACAD_REACTORS
330
223
330
224
102
}
330
71
100
AcDbEntity
  8
0
  6
Continuous
 62
     2
100
AcDbCircle
 10
84.7355385604042
 20
335.3271424266632
 30
0.0
 40
0.3157169230764815
100
AcDbArc
 50
115.3740086783563
 51
180.0
  0
ARC
  5
1DA
102
{ACAD_REACTORS
330
227
330
228
102
}
330
71
100
AcDbEntity
  8
0
  6
Continuous
 62
     2
100
AcDbCircle
 10
89.5655528145661
 20
334.180525270274
 30
0.0
 40
1.639695123940507
100
AcDbArc
 50
84.84185523036236
 51
164.9381082228884
  0
ARC
  5
1DB
102
{ACAD_REACTORS
330
227
330
228
102
}
330
71
100
AcDbEntity
  8
0
  6
Continuous
 62
     2
100
AcDbCircle
 10
89.1464249711033
 20
334.2933156323089
 30
0.0
 40
1.205656168390929
100
AcDbArc
 50
164.9381082228791
 51
195.0618917770948
  0
ARC
  5
1DC
102
{ACAD_REACTORS
330
227
330
228
102
}
330
71
100
AcDbEntity
  8
0
  6
Continuous
 62
     2
100
AcDbCircle
 10
89.5655528145661
 20
334.4061059943437
 30
0.0
 40
1.63969512393938
100
AcDbArc
 50
195.0618917770886
 51
275.1581447696396
  0
ARC
  5
1DD
102
{ACAD_REACTORS
330
227
330
228
102
}
330
71
100
AcDbEntity
  8
0
  6
Continuous
 62
     2
100
AcDbCircle
 10
89.2766967198302
 20
337.6059965775653
 30
0.0
 40
4.85259686349811
100
AcDbArc
 50
275.158144769625
 51
285.9799912583529
  0
ARC
  5
1DE
102
{ACAD_REACTORS
330
227
330
228
102
}
330
71
100
AcDbEntity
  8
0
  6
Continuous
 62
     2
100
AcDbCircle
 10
90.0736545539622
 20
334.2933156323089
 30
0.0
 40
0.9410597353332545
100
AcDbArc
 50
151.4785267422669
 51
208.5214732577088
  0
ARC
  5
1DF
102
{ACAD_REACTORS
330
227
330
228
102
}
330
71
100
AcDbEntity
  8
0
  6
Continuous
 62
     2
100
AcDbCircle
 10
89.69629729588189
 20
334.4983870616479
 30
0.0
 40
0.5115800601948517
100
AcDbArc
 50
113.3722778882004
 51
151.4785267423044
  0
ARC
  5
1E0
102
{ACAD_REACTORS
330
227
330
228
102
}
330
71
100
AcDbEntity
  8
0
  6
Continuous
 62
     2
100
AcDbCircle
 10
89.43456959492312
 20
332.8828492669007
 30
0.0
 40
2.227384008973501
100
AcDbArc
 50
58.06909105004111
 51
71.55192388186745
  0
ARC
  5
1E1
102
{ACAD_REACTORS
330
21F
330
220
102
}
330
71
100
AcDbEntity
  8
0
  6
Continuous
 62
     2
100
AcDbCircle
 10
92.496583730487
 20
334.4500468104294
 30
0.0
 40
0.5179085730132998
100
AcDbArc
 50
38.12041979714704
 51
141.8795802028588
  0
ARC
  5
1E2
102
{ACAD_REACTORS
330
21F
330
220
102
}
330
71
100
AcDbEntity
  8
0
  6
Continuous
 62
     2
100
AcDbCircle
 10
92.6963237668331
 20
334.2933156323089
 30
0.0
 40
0.7717997786794457
100
AcDbArc
 50
141.879580202838
 51
218.120419797172
  0
ARC
  5
1E3
102
{ACAD_REACTORS
330
21F
330
220
102
}
330
71
100
AcDbEntity
  8
0
  6
Continuous
 62
     2
100
AcDbCircle
 10
92.496583730487
 20
334.1365844541889
 30
0.0
 40
0.5179085730137529
100
AcDbArc
 50
218.1204197971956
 51
321.8795802027985
  0
ARC
  5
1E4
102
{ACAD_REACTORS
330
21F
330
220
102
}
330
71
100
AcDbEntity
  8
0
  6
Continuous
 62
     2
100
AcDbCircle
 10
92.29684369414059
 20
334.2933156323089
 30
0.0
 40
0.7717997786797298
100
AcDbArc
 50
321.8795802028384
 51
38.12041979715163
  0
CIRCLE
  5
1E5
330
71
100
AcDbEntity
  8
1
  6
Continuous
 62
     2
100
AcDbCircle
 10
89.6418505817432
 20
346.5979108703872
 30
0.0
 40
2.5
  0
CIRCLE
  5
1E6
330
71
100
AcDbEntity
  8
1
  6
Continuous
 62
     2
100
AcDbCircle
 10
89.6418505817432
 20
346.5979108703872
 30
0.0
 40
1.249999999999915
  0
CIRCLE
  5
1E7
102
{ACAD_REACTORS
330
223
330
224
102
}
330
71
100
AcDbEntity
  8
0
  6
Continuous
 62
     2
100
AcDbCircle
 10
84.18568084764351
 20
336.4362840266316
 30
0.0
 40
0.4709789327785074
  0
MTEXT
  5
1E8
330
71
100
AcDbEntity
  8
1
 62
     3
100
AcDbMText
 10
-80.5449319919976
 20
512.2642190256861
 30
0.0
 40
1.8
 41
0.0
 71
     7
 72
     1
  3
Weitergabe sowie Vervielf\U+00e4ltigung dieses Dokuments, Verwertung und \PMitteilung seines Inhalts sind verboten, soweit nicht ausdr\U+00fccklich gestattet. \PZuwiderhandlungen verpflichten zu Schadenersatz. Alle Rechte f\U+00fcr den Fall\Pder Pat
  1
ent-, Gebrauchsmuster- oder Designeintragung vorbehalten.
  7
CONVERTER_11
 73
     1
 44
0.99639855942377
  0
MTEXT
  5
1E9
330
71
100
AcDbEntity
  8
1
 62
     3
100
AcDbMText
 10
102.3081778467905
 20
512.2642190256861
 30
0.0
 40
1.8
 41
0.0
 71
     7
 72
     1
  3
Transfer or duplication of this document as well as the utilisation or\Pcommunication of its content are not permitted unless express consent\Pis granted. Violations give rise to claims for damages. All rights reserved\Pin case of patent, utility mo
  1
del or design patent registrations.
  7
CONVERTER_11
 73
     1
 44
0.99639855942377
  0
TEXT
  5
1EA
330
71
100
AcDbEntity
  8
1
 62
     2
100
AcDbText
 10
96.10519569518041
 20
326.7138936553957
 30
0.0
 40
1.8
  1
of
 41
0.9
  7
CONVERTER_11
100
AcDbText
  0
TEXT
  5
1EB
330
71
100
AcDbEntity
  8
1
 62
     2
100
AcDbText
 10
77.9051956951806
 20
326.7138936553956
 30
0.0
 40
1.8
  1
page
 41
0.9
  7
CONVERTER_11
100
AcDbText
  0
TEXT
  5
1EC
330
71
100
AcDbEntity
  8
1
 62
     2
100
AcDbText
 10
86.5514606655226
 20
326.6736622165853
 30
0.0
 40
1.8
  1
1
 41
0.9
  7
CONVERTER_11
100
AcDbText
  0
TEXT
  5
1ED
330
71
100
AcDbEntity
  8
1
 62
     2
100
AcDbText
 10
101.3405045049941
 20
326.7229108703872
 30
0.0
 40
1.8
  1
1
 41
0.9
  7
CONVERTER_11
100
AcDbText
  0
MTEXT
  5
1EF
330
71
100
AcDbEntity
  8
1
 62
     7
100
AcDbMText
 10
159.8775979585561
 20
328.7229108703875
 30
0.0
 40
3.0
 41
0.0
 71
     5
 72
     1
  1
D-OTTA  6-T
  7
CONVERTER_12
 73
     1
 44
1.20048019207683
  0
MTEXT
  5
1F0
330
71
100
AcDbEntity
  8
1
 62
     2
100
AcDbMText
 10
114.3051956951805
 20
332.9729108703873
 30
0.0
 40
1.8
 41
0.0
 71
     1
 72
     1
  1
description
  7
CONVERTER_11
 73
     1
 44
1.20048019207683
  0
MTEXT
  5
1F1
330
71
100
AcDbEntity
  8
1
 62
     3
100
AcDbMText
 10
103.1051956951805
 20
346.5979108703873
 30
0.0
 40
2.5
 41
0.0
 71
     5
 72
     1
  1
DIN A4
  7
CONVERTER_11
 73
     1
 44
1.20048019207683
  0
MTEXT
  5
1F2
330
71
100
AcDbEntity
  8
1
 62
     7
100
AcDbMText
 10
-83.04999977806847
 20
347.9729108703873
 30
0.0
 40
3.5
 41
0.0
 71
     5
 72
     1
  1
D
  7
CONVERTER_11
 73
     1
 44
1.20048019207683
  0
MTEXT
  5
1F3
330
71
100
AcDbEntity
  8
1
 62
     7
100
AcDbMText
 10
-83.04999977806847
 20
400.4729108703873
 30
0.0
 40
3.5
 41
0.0
 71
     5
 72
     1
  1
C
  7
CONVERTER_11
 73
     1
 44
1.20048019207683
  0
MTEXT
  5
1F4
330
71
100
AcDbEntity
  8
1
 62
     7
100
AcDbMText
 10
-83.04999977806847
 20
450.4729108703873
 30
0.0
 40
3.5
 41
0.0
 71
     5
 72
     1
  1
B
  7
CONVERTER_11
 73
     1
 44
1.20048019207683
  0
MTEXT
  5
1F5
330
71
100
AcDbEntity
  8
1
 62
     7
100
AcDbMText
 10
-83.04999977806847
 20
502.9729108703873
 30
0.0
 40
3.5
 41
0.0
 71
     5
 72
     1
  1
A
  7
CONVERTER_11
 73
     1
 44
1.20048019207683
  0
MTEXT
  5
1F6
330
71
100
AcDbEntity
  8
1
 62
     7
100
AcDbMText
 10
187.2000002219298
 20
322.9729108703872
 30
0.0
 40
3.5
 41
0.0
 71
     5
 72
     1
  1
6
  7
CONVERTER_11
 73
     1
 44
1.20048019207683
  0
MTEXT
  5
1F7
330
71
100
AcDbEntity
  8
1
 62
     7
100
AcDbMText
 10
137.9500002219306
 20
322.9729108703872
 30
0.0
 40
3.5
 41
0.0
 71
     5
 72
     1
  1
5
  7
CONVERTER_11
 73
     1
 44
1.20048019207683
  0
MTEXT
  5
1F8
330
71
100
AcDbEntity
  8
1
 62
     7
100
AcDbMText
 10
87.95000022193051
 20
322.9729108703872
 30
0.0
 40
3.5
 41
0.0
 71
     5
 72
     1
  1
4
  7
CONVERTER_11
 73
     1
 44
1.20048019207683
  0
MTEXT
  5
1F9
330
71
100
AcDbEntity
  8
1
 62
     7
100
AcDbMText
 10
37.95000022193062
 20
322.9729108703872
 30
0.0
 40
3.5
 41
0.0
 71
     5
 72
     1
  1
3
  7
CONVERTER_11
 73
     1
 44
1.20048019207683
  0
MTEXT
  5
1FA
330
71
100
AcDbEntity
  8
1
 62
     7
100
AcDbMText
 10
-12.04999977806938
 20
322.9729108703872
 30
0.0
 40
3.5
 41
0.0
 71
     5
 72
     1
  1
2
  7
CONVERTER_11
 73
     1
 44
1.20048019207683
  0
MTEXT
  5
1FB
330
71
100
AcDbEntity
  8
1
 62
     7
100
AcDbMText
 10
-61.29999977806898
 20
322.9729108703872
 30
0.0
 40
3.5
 41
0.0
 71
     5
 72
     1
  1
1
  7
CONVERTER_11
 73
     1
 44
1.20048019207683
  0
MTEXT
  5
1FC
330
71
100
AcDbEntity
  8
1
 62
     7
100
AcDbMText
 10
208.9500002219296
 20
347.9729108703873
 30
0.0
 40
3.5
 41
0.0
 71
     5
 72
     1
  1
D
  7
CONVERTER_11
 73
     1
 44
1.20048019207683
  0
MTEXT
  5
1FD
330
71
100
AcDbEntity
  8
1
 62
     7
100
AcDbMText
 10
208.9500002219296
 20
450.4729108703892
 30
0.0
 40
3.5
 41
0.0
 71
     5
 72
     1
  1
B
  7
CONVERTER_11
 73
     1
 44
1.20048019207683
  0
MTEXT
  5
1FE
330
71
100
AcDbEntity
  8
1
 62
     7
100
AcDbMText
 10
208.9500002219296
 20
502.9729108703873
 30
0.0
 40
3.5
 41
0.0
 71
     5
 72
     1
  1
A
  7
CONVERTER_11
 73
     1
 44
1.20048019207683
  0
MTEXT
  5
1FF
330
71
100
AcDbEntity
  8
1
 62
     7
100
AcDbMText
 10
208.9500002219296
 20
400.4729108703892
 30
0.0
 40
3.5
 41
0.0
 71
     5
 72
     1
  1
C
  7
CONVERTER_11
 73
     1
 44
1.20048019207683
  0
MTEXT
  5
200
330
71
100
AcDbEntity
  8
1
 62
     2
100
AcDbMText
 10
42.46718097013309
 20
338.2229108703872
 30
0.0
 40
2.0
 41
0.0
 71
     5
 72
     1
  1
General Information\P- Simplified representation\P- Document excluded from change process\P- Linear dimensions [mm]
  7
CONVERTER_11
 73
     1
 44
1.20048019207683
  0
TEXT
  5
201
330
71
100
AcDbEntity
  8
1
 62
     7
100
AcDbText
 10
114.8051956951803
 20
335.2729108703872
 30
0.0
 40
2.5
  1
0790459
 41
0.81
  7
CONVERTER_12
100
AcDbText
  0
MTEXT
  5
202
330
71
100
AcDbEntity
  8
1
 62
     2
100
AcDbMText
 10
114.4051956951806
 20
341.4729108703873
 30
0.0
 40
1.8
 41
0.0
 71
     1
 72
     1
  1
ident.-No.
  7
CONVERTER_11
 73
     1
 44
1.20048019207683
  0
MTEXT
  5
203
330
71
100
AcDbEntity
  8
1
 62
     2
100
AcDbMText
 10
198.6315919402533
 20
349.9729108703873
 30
0.0
 40
1.8
 41
0.0
 71
     1
 72
     1
  1
scale
  7
CONVERTER_11
 73
     1
 44
1.20048019207683
  0
MTEXT
  5
205
330
71
100
AcDbEntity
  8
1
 62
     3
100
AcDbMText
 10
201.9907960810929
 20
343.7729108703874
 30
0.0
 40
2.5
 41
0.0
 71
     8
 72
     1
  1
1:1
  7
CONVERTER_13
 73
     1
 44
1.32052821128451
  0
TEXT
  5
206
330
71
100
AcDbEntity
  8
1
 62
     7
100
AcDbText
 10
114.4051956951806
 20
343.7729108703872
 30
0.0
 40
2.5
  1
00345948
 41
0.81
  7
CONVERTER_12
100
AcDbText
  0
MTEXT
  5
208
330
71
100
AcDbEntity
  8
1
 62
     2
100
AcDbMText
 10
114.4051956951806
 20
349.9729108703873
 30
0.0
 40
1.8
 41
0.0
 71
     1
 72
     1
  1
document-No. / RI
  7
CONVERTER_14
 73
     1
 44
1.32052821128451
  0
TEXT
  5
209
330
71
100
AcDbEntity
  8
1
 62
     3
100
AcDbText
 10
142.2051956951806
 20
335.2729108703872
 30
0.0
 40
2.5
  1
TECDOC 2D_Productdrawing
 41
0.81
  7
CONVERTER_12
100
AcDbText
  0
MTEXT
  5
20A
330
71
100
AcDbEntity
  8
1
 62
     2
100
AcDbMText
 10
142.2051956951806
 20
341.4729108703872
 30
0.0
 40
1.8
 41
0.0
 71
     1
 72
     1
  1
document-type
  7
CONVERTER_11
 73
     1
 44
1.20048019207683
  0
MTEXT
  5
20B
330
71
100
AcDbEntity
  8
1
 62
     2
100
AcDbMText
 10
172.0315919402535
 20
349.9729108703872
 30
0.0
 40
1.8
 41
0.0
 71
     1
 72
     1
  1
date
  7
CONVERTER_11
 73
     1
 44
1.32052821128451
  0
TEXT
  5
20C
330
71
100
AcDbEntity
  8
1
 62
     3
100
AcDbText
 10
172.0315919402535
 20
343.7729108703872
 30
0.0
 40
2.5
  1
14.12.2017
 41
0.81
  7
CONVERTER_12
100
AcDbText
  0
TEXT
  5
20D
330
71
100
AcDbEntity
  8
1
 62
     7
100
AcDbText
 10
134.4351079142364
 20
343.7729108703872
 30
0.0
 40
2.5
  1
01
 41
0.81
  7
CONVERTER_12
100
AcDbText
  0
TEXT
  5
20E
330
71
100
AcDbEntity
  8
1
 62
     7
100
AcDbText
 10
132.2787434171944
 20
343.7729108703872
 30
0.0
 40
2.5
  1
/
 41
0.9
  7
CONVERTER_11
100
AcDbText
  0
HATCH
  5
20F
330
71
100
AcDbEntity
  8
1
  6
Continuous
 62
     2
100
AcDbHatch
 10
0.0
 20
0.0
 30
0.0
210
0.0
220
0.0
230
1.0
  2
_USER
 70
     0
 71
     1
 91
        1
 92
        1
 93
       12
 72
     1
 10
94.5726964081417
 20
336.1256013465779
 11
93.3799037059753
 21
336.1256013465779
 72
     1
 10
93.3799037059753
 20
336.1256013465779
 11
93.3799037059753
 21
337.2598734554217
 72
     1
 10
93.3799037059753
 20
337.2598734554217
 11
92.33024612806781
 21
337.2598734554217
 72
     1
 10
92.33024612806781
 20
337.2598734554217
 11
92.33024612806781
 21
336.1256013465779
 72
     1
 10
92.33024612806781
 20
336.1256013465779
 11
91.13745342590121
 21
336.1256013465779
 72
     1
 10
91.13745342590121
 20
336.1256013465779
 11
91.13745342590121
 21
339.1794108703891
 72
     1
 10
91.13745342590121
 20
339.1794108703891
 11
92.33024612806781
 21
339.1794108703891
 72
     1
 10
92.33024612806781
 20
339.1794108703891
 11
92.33024612806781
 21
338.1105775370545
 72
     1
 10
92.33024612806781
 20
338.1105775370545
 11
93.3799037059753
 21
338.1105775370545
 72
     1
 10
93.3799037059753
 20
338.1105775370545
 11
93.3799037059753
 21
339.1794108703891
 72
     1
 10
93.3799037059753
 20
339.1794108703891
 11
94.5726964081417
 21
339.1794108703891
 72
     1
 10
94.5726964081417
 20
339.1794108703891
 11
94.5726964081417
 21
336.1256013465779
 97
       12
330
17C
330
17D
330
167
330
166
330
165
330
179
330
164
330
17A
330
17B
330
163
330
162
330
161
 75
     1
 76
     0
 52
45.0
 41
0.1
 77
     0
 78
     1
 53
45.0
 43
0.0
 44
0.0
 45
-0.0707106781186548
 46
0.0707106781186548
 79
     0
 98
        1
 10
0.0
 20
0.0
  0
HATCH
  5
210
330
71
100
AcDbEntity
  8
1
  6
Continuous
 62
     2
100
AcDbHatch
 10
0.0
 20
0.0
 30
0.0
210
0.0
220
0.0
230
1.0
  2
_USER
 70
     0
 71
     1
 91
        1
 92
        1
 93
       12
 72
     1
 10
94.5726964081417
 20
336.1256013465779
 11
93.3799037059753
 21
336.1256013465779
 72
     1
 10
93.3799037059753
 20
336.1256013465779
 11
93.3799037059753
 21
337.2598734554217
 72
     1
 10
93.3799037059753
 20
337.2598734554217
 11
92.33024612806781
 21
337.2598734554217
 72
     1
 10
92.33024612806781
 20
337.2598734554217
 11
92.33024612806781
 21
336.1256013465779
 72
     1
 10
92.33024612806781
 20
336.1256013465779
 11
91.13745342590121
 21
336.1256013465779
 72
     1
 10
91.13745342590121
 20
336.1256013465779
 11
91.13745342590121
 21
339.1794108703891
 72
     1
 10
91.13745342590121
 20
339.1794108703891
 11
92.33024612806781
 21
339.1794108703891
 72
     1
 10
92.33024612806781
 20
339.1794108703891
 11
92.33024612806781
 21
338.1105775370545
 72
     1
 10
92.33024612806781
 20
338.1105775370545
 11
93.3799037059753
 21
338.1105775370545
 72
     1
 10
93.3799037059753
 20
338.1105775370545
 11
93.3799037059753
 21
339.1794108703891
 72
     1
 10
93.3799037059753
 20
339.1794108703891
 11
94.5726964081417
 21
339.1794108703891
 72
     1
 10
94.5726964081417
 20
339.1794108703891
 11
94.5726964081417
 21
336.1256013465779
 97
       12
330
17C
330
17D
330
167
330
166
330
165
330
179
330
164
330
17A
330
17B
330
163
330
162
330
161
 75
     1
 76
     0
 52
45.0
 41
0.1
 77
     0
 78
     1
 53
45.0
 43
0.0
 44
0.0
 45
-0.0707106781186548
 46
0.0707106781186548
 79
     0
 98
        1
 10
0.0
 20
0.0
  0
HATCH
  5
211
330
71
100
AcDbEntity
  8
1
  6
Continuous
 62
     2
100
AcDbHatch
 10
0.0
 20
0.0
 30
0.0
210
0.0
220
0.0
230
1.0
  2
_USER
 70
     0
 71
     1
 91
        1
 92
        1
 93
       10
 72
     1
 10
96.81499575733
 20
334.5114448840096
 11
95.5744913470771
 21
335.8202203942147
 72
     1
 10
95.5744913470771
 20
335.8202203942147
 11
94.3816986449095
 21
335.8202203942147
 72
     1
 10
94.3816986449095
 20
335.8202203942147
 11
94.3816986449095
 21
332.7664108704036
 72
     1
 10
94.3816986449095
 20
332.7664108704036
 11
95.5744913470771
 21
332.7664108704036
 72
     1
 10
95.5744913470771
 20
332.7664108704036
 11
95.5744913470771
 21
334.0751863806082
 72
     1
 10
95.5744913470771
 20
334.0751863806082
 11
96.81499575733
 21
332.7664108704036
 72
     1
 10
96.81499575733
 20
332.7664108704036
 11
98.0077884594964
 21
332.7664108704036
 72
     1
 10
98.0077884594964
 20
332.7664108704036
 11
98.0077884594964
 21
335.8202203942147
 72
     1
 10
98.0077884594964
 20
335.8202203942147
 11
96.81499575733
 21
335.8202203942147
 72
     1
 10
96.81499575733
 20
335.8202203942147
 11
96.81499575733
 21
334.5114448840096
 97
       10
330
18A
330
15A
330
159
330
15C
330
185
330
186
330
15B
330
187
330
188
330
189
 75
     1
 76
     0
 52
45.0
 41
0.1
 77
     0
 78
     1
 53
45.0
 43
0.0
 44
0.0
 45
-0.0707106781186548
 46
0.0707106781186548
 79
     0
 98
        1
 10
0.0
 20
0.0
  0
HATCH
  5
212
330
71
100
AcDbEntity
  8
1
  6
Continuous
 62
     2
100
AcDbHatch
 10
0.0
 20
0.0
 30
0.0
210
0.0
220
0.0
230
1.0
  2
_USER
 70
     0
 71
     1
 91
        1
 92
        1
 93
       10
 72
     1
 10
96.81499575733
 20
334.5114448840096
 11
95.5744913470771
 21
335.8202203942147
 72
     1
 10
95.5744913470771
 20
335.8202203942147
 11
94.3816986449095
 21
335.8202203942147
 72
     1
 10
94.3816986449095
 20
335.8202203942147
 11
94.3816986449095
 21
332.7664108704036
 72
     1
 10
94.3816986449095
 20
332.7664108704036
 11
95.5744913470771
 21
332.7664108704036
 72
     1
 10
95.5744913470771
 20
332.7664108704036
 11
95.5744913470771
 21
334.0751863806082
 72
     1
 10
95.5744913470771
 20
334.0751863806082
 11
96.81499575733
 21
332.7664108704036
 72
     1
 10
96.81499575733
 20
332.7664108704036
 11
98.0077884594964
 21
332.7664108704036
 72
     1
 10
98.0077884594964
 20
332.7664108704036
 11
98.0077884594964
 21
335.8202203942147
 72
     1
 10
98.0077884594964
 20
335.8202203942147
 11
96.81499575733
 21
335.8202203942147
 72
     1
 10
96.81499575733
 20
335.8202203942147
 11
96.81499575733
 21
334.5114448840096
 97
       10
330
18A
330
15A
330
159
330
15C
330
185
330
186
330
15B
330
187
330
188
330
189
 75
     1
 76
     0
 52
45.0
 41
0.1
 77
     0
 78
     1
 53
45.0
 43
0.0
 44
0.0
 45
-0.0707106781186548
 46
0.0707106781186548
 79
     0
 98
        1
 10
0.0
 20
0.0
  0
HATCH
  5
213
330
71
100
AcDbEntity
  8
1
  6
Continuous
 62
     2
100
AcDbHatch
 10
0.0
 20
0.0
 30
0.0
210
0.0
220
0.0
230
1.0
  2
_USER
 70
     0
 71
     1
 91
        1
 92
        1
 93
       10
 72
     1
 10
102.0634345777497
 20
337.8706353601839
 11
100.8229301674957
 21
339.1794108703891
 72
     1
 10
100.8229301674957
 20
339.1794108703891
 11
99.6301374653292
 21
339.1794108703891
 72
     1
 10
99.6301374653292
 20
339.1794108703891
 11
99.6301374653292
 21
336.1256013465779
 72
     1
 10
99.6301374653292
 20
336.1256013465779
 11
100.8229301674957
 21
336.1256013465779
 72
     1
 10
100.8229301674957
 20
336.1256013465779
 11
100.8229301674957
 21
337.4343768567826
 72
     1
 10
100.8229301674957
 20
337.4343768567826
 11
102.0634345777497
 21
336.1256013465779
 72
     1
 10
102.0634345777497
 20
336.1256013465779
 11
103.2562272799163
 21
336.1256013465779
 72
     1
 10
103.2562272799163
 20
336.1256013465779
 11
103.2562272799163
 21
339.1794108703891
 72
     1
 10
103.2562272799163
 20
339.1794108703891
 11
102.0634345777497
 21
339.1794108703891
 72
     1
 10
102.0634345777497
 20
339.1794108703891
 11
102.0634345777497
 21
337.8706353601839
 97
       10
330
18F
330
157
330
156
330
190
330
155
330
18B
330
18C
330
18D
330
18E
330
158
 75
     1
 76
     0
 52
45.0
 41
0.1
 77
     0
 78
     1
 53
45.0
 43
0.0
 44
0.0
 45
-0.0707106781186548
 46
0.0707106781186548
 79
     0
 98
        1
 10
0.0
 20
0.0
  0
HATCH
  5
214
330
71
100
AcDbEntity
  8
1
  6
Continuous
 62
     2
100
AcDbHatch
 10
0.0
 20
0.0
 30
0.0
210
0.0
220
0.0
230
1.0
  2
_USER
 70
     0
 71
     1
 91
        1
 92
        1
 93
       10
 72
     1
 10
102.0634345777497
 20
337.8706353601839
 11
100.8229301674957
 21
339.1794108703891
 72
     1
 10
100.8229301674957
 20
339.1794108703891
 11
99.6301374653292
 21
339.1794108703891
 72
     1
 10
99.6301374653292
 20
339.1794108703891
 11
99.6301374653292
 21
336.1256013465779
 72
     1
 10
99.6301374653292
 20
336.1256013465779
 11
100.8229301674957
 21
336.1256013465779
 72
     1
 10
100.8229301674957
 20
336.1256013465779
 11
100.8229301674957
 21
337.4343768567826
 72
     1
 10
100.8229301674957
 20
337.4343768567826
 11
102.0634345777497
 21
336.1256013465779
 72
     1
 10
102.0634345777497
 20
336.1256013465779
 11
103.2562272799163
 21
336.1256013465779
 72
     1
 10
103.2562272799163
 20
336.1256013465779
 11
103.2562272799163
 21
339.1794108703891
 72
     1
 10
103.2562272799163
 20
339.1794108703891
 11
102.0634345777497
 21
339.1794108703891
 72
     1
 10
102.0634345777497
 20
339.1794108703891
 11
102.0634345777497
 21
337.8706353601839
 97
       10
330
18F
330
157
330
156
330
190
330
155
330
18B
330
18C
330
18D
330
18E
330
158
 75
     1
 76
     0
 52
45.0
 41
0.1
 77
     0
 78
     1
 53
45.0
 43
0.0
 44
0.0
 45
-0.0707106781186548
 46
0.0707106781186548
 79
     0
 98
        1
 10
0.0
 20
0.0
  0
HATCH
  5
215
330
71
100
AcDbEntity
  8
1
  6
Continuous
 62
     2
100
AcDbHatch
 10
0.0
 20
0.0
 30
0.0
210
0.0
220
0.0
230
1.0
  2
_USER
 70
     0
 71
     1
 91
        1
 92
        1
 93
        8
 72
     1
 10
100.9659143608702
 20
335.8202203942147
 11
98.1509235837566
 21
335.8202203942147
 72
     1
 10
98.1509235837566
 20
335.8202203942147
 11
98.1509235837566
 21
335.0349550880911
 72
     1
 10
98.1509235837566
 20
335.0349550880911
 11
98.9620226212312
 21
335.0349550880911
 72
     1
 10
98.9620226212312
 20
335.0349550880911
 11
98.9620226212312
 21
332.7664108704036
 72
     1
 10
98.9620226212312
 20
332.7664108704036
 11
100.1548153233977
 21
332.7664108704036
 72
     1
 10
100.1548153233977
 20
332.7664108704036
 11
100.1548153233977
 21
335.0349550880911
 72
     1
 10
100.1548153233977
 20
335.0349550880911
 11
100.9659143608702
 21
335.0349550880911
 72
     1
 10
100.9659143608702
 20
335.0349550880911
 11
100.9659143608702
 21
335.8202203942147
 97
        8
330
151
330
191
330
150
330
192
330
193
330
154
330
153
330
152
 75
     1
 76
     0
 52
45.0
 41
0.1
 77
     0
 78
     1
 53
45.0
 43
0.0
 44
0.0
 45
-0.0707106781186548
 46
0.0707106781186548
 79
     0
 98
        1
 10
0.0
 20
0.0
  0
HATCH
  5
216
330
71
100
AcDbEntity
  8
1
  6
Continuous
 62
     2
100
AcDbHatch
 10
0.0
 20
0.0
 30
0.0
210
0.0
220
0.0
230
1.0
  2
_USER
 70
     0
 71
     1
 91
        1
 92
        1
 93
        8
 72
     1
 10
100.9659143608702
 20
335.8202203942147
 11
98.1509235837566
 21
335.8202203942147
 72
     1
 10
98.1509235837566
 20
335.8202203942147
 11
98.1509235837566
 21
335.0349550880911
 72
     1
 10
98.1509235837566
 20
335.0349550880911
 11
98.9620226212312
 21
335.0349550880911
 72
     1
 10
98.9620226212312
 20
335.0349550880911
 11
98.9620226212312
 21
332.7664108704036
 72
     1
 10
98.9620226212312
 20
332.7664108704036
 11
100.1548153233977
 21
332.7664108704036
 72
     1
 10
100.1548153233977
 20
332.7664108704036
 11
100.1548153233977
 21
335.0349550880911
 72
     1
 10
100.1548153233977
 20
335.0349550880911
 11
100.9659143608702
 21
335.0349550880911
 72
     1
 10
100.9659143608702
 20
335.0349550880911
 11
100.9659143608702
 21
335.8202203942147
 97
        8
330
151
330
191
330
150
330
192
330
193
330
154
330
153
330
152
 75
     1
 76
     0
 52
45.0
 41
0.1
 77
     0
 78
     1
 53
45.0
 43
0.0
 44
0.0
 45
-0.0707106781186548
 46
0.0707106781186548
 79
     0
 98
        1
 10
0.0
 20
0.0
  0
HATCH
  5
217
330
71
100
AcDbEntity
  8
1
  6
Continuous
 62
     2
100
AcDbHatch
 10
0.0
 20
0.0
 30
0.0
210
0.0
220
0.0
230
1.0
  2
_USER
 70
     0
 71
     1
 91
        2
 92
        1
 93
        8
 72
     1
 10
103.1043418168172
 20
332.7664108704036
 11
102.8928617633414
 21
333.3073714146215
 72
     1
 10
102.8928617633414
 20
333.3073714146215
 11
101.7604201866676
 21
333.3073714146215
 72
     1
 10
101.7604201866676
 20
333.3073714146215
 11
101.5489401331918
 21
332.7664108704036
 72
     1
 10
101.5489401331918
 20
332.7664108704036
 11
100.3084357229388
 21
332.7664108704036
 72
     1
 10
100.3084357229388
 20
332.7664108704036
 11
101.7063887698781
 21
335.8202203942147
 72
     1
 10
101.7063887698781
 20
335.8202203942147
 11
102.9468931801308
 21
335.8202203942147
 72
     1
 10
102.9468931801308
 20
335.8202203942147
 11
104.3448462270711
 21
332.7664108704036
 72
     1
 10
104.3448462270711
 20
332.7664108704036
 11
103.1043418168172
 21
332.7664108704036
 97
        8
330
195
330
196
330
14D
330
197
330
14C
330
14F
330
194
330
14E
 92
       16
 93
        3
 72
     1
 10
102.0264757378126
 20
333.9879346799281
 11
102.326640975005
 21
334.7557496459148
 72
     1
 10
102.326640975005
 20
334.7557496459148
 11
102.6268062121951
 21
333.9879346799281
 72
     1
 10
102.6268062121951
 20
333.9879346799281
 11
102.0264757378126
 21
333.9879346799281
 97
        3
330
14B
330
199
330
198
 75
     1
 76
     0
 52
45.0
 41
0.1
 77
     0
 78
     1
 53
45.0
 43
0.0
 44
0.0
 45
-0.0707106781186548
 46
0.0707106781186548
 79
     0
 98
        1
 10
0.0
 20
0.0
  0
HATCH
  5
218
330
71
100
AcDbEntity
  8
1
  6
Continuous
 62
     2
100
AcDbHatch
 10
0.0
 20
0.0
 30
0.0
210
0.0
220
0.0
230
1.0
  2
_USER
 70
     0
 71
     1
 91
        2
 92
        1
 93
        8
 72
     1
 10
103.1043418168172
 20
332.7664108704036
 11
102.8928617633414
 21
333.3073714146215
 72
     1
 10
102.8928617633414
 20
333.3073714146215
 11
101.7604201866676
 21
333.3073714146215
 72
     1
 10
101.7604201866676
 20
333.3073714146215
 11
101.5489401331918
 21
332.7664108704036
 72
     1
 10
101.5489401331918
 20
332.7664108704036
 11
100.3084357229388
 21
332.7664108704036
 72
     1
 10
100.3084357229388
 20
332.7664108704036
 11
101.7063887698781
 21
335.8202203942147
 72
     1
 10
101.7063887698781
 20
335.8202203942147
 11
102.9468931801308
 21
335.8202203942147
 72
     1
 10
102.9468931801308
 20
335.8202203942147
 11
104.3448462270711
 21
332.7664108704036
 72
     1
 10
104.3448462270711
 20
332.7664108704036
 11
103.1043418168172
 21
332.7664108704036
 97
        8
330
195
330
196
330
14D
330
197
330
14C
330
14F
330
194
330
14E
 92
       16
 93
        3
 72
     1
 10
102.0264757378126
 20
333.9879346799281
 11
102.326640975005
 21
334.7557496459148
 72
     1
 10
102.326640975005
 20
334.7557496459148
 11
102.6268062121951
 21
333.9879346799281
 72
     1
 10
102.6268062121951
 20
333.9879346799281
 11
102.0264757378126
 21
333.9879346799281
 97
        3
330
14B
330
199
330
198
 75
     1
 76
     0
 52
45.0
 41
0.1
 77
     0
 78
     1
 53
45.0
 43
0.0
 44
0.0
 45
-0.0707106781186548
 46
0.0707106781186548
 79
     0
 98
        1
 10
0.0
 20
0.0
  0
HATCH
  5
219
330
71
100
AcDbEntity
  8
1
  6
Continuous
 62
     2
100
AcDbHatch
 10
0.0
 20
0.0
 30
0.0
210
0.0
220
0.0
230
1.0
  2
_USER
 70
     0
 71
     1
 91
        1
 92
        1
 93
        4
 72
     1
 10
104.7352902306031
 20
336.1256013465779
 11
103.4947858203502
 21
336.1256013465779
 72
     1
 10
103.4947858203502
 20
336.1256013465779
 11
103.4947858203502
 21
339.1794108703891
 72
     1
 10
103.4947858203502
 20
339.1794108703891
 11
104.7352902306031
 21
339.1794108703891
 72
     1
 10
104.7352902306031
 20
339.1794108703891
 11
104.7352902306031
 21
336.1256013465779
 97
        4
330
148
330
14A
330
19A
330
149
 75
     1
 76
     0
 52
45.0
 41
0.1
 77
     0
 78
     1
 53
45.0
 43
0.0
 44
0.0
 45
-0.0707106781186548
 46
0.0707106781186548
 79
     0
 98
        1
 10
0.0
 20
0.0
  0
HATCH
  5
21A
330
71
100
AcDbEntity
  8
1
  6
Continuous
 62
     2
100
AcDbHatch
 10
0.0
 20
0.0
 30
0.0
210
0.0
220
0.0
230
1.0
  2
_USER
 70
     0
 71
     1
 91
        1
 92
        1
 93
        4
 72
     1
 10
104.7352902306031
 20
336.1256013465779
 11
103.4947858203502
 21
336.1256013465779
 72
     1
 10
103.4947858203502
 20
336.1256013465779
 11
103.4947858203502
 21
339.1794108703891
 72
     1
 10
103.4947858203502
 20
339.1794108703891
 11
104.7352902306031
 21
339.1794108703891
 72
     1
 10
104.7352902306031
 20
339.1794108703891
 11
104.7352902306031
 21
336.1256013465779
 97
        4
330
148
330
14A
330
19A
330
149
 75
     1
 76
     0
 52
45.0
 41
0.1
 77
     0
 78
     1
 53
45.0
 43
0.0
 44
0.0
 45
-0.0707106781186548
 46
0.0707106781186548
 79
     0
 98
        1
 10
0.0
 20
0.0
  0
HATCH
  5
21B
330
71
100
AcDbEntity
  8
1
  6
Continuous
 62
     2
100
AcDbHatch
 10
0.0
 20
0.0
 30
0.0
210
0.0
220
0.0
230
1.0
  2
_USER
 70
     0
 71
     1
 91
        1
 92
        1
 93
       12
 72
     1
 10
108.9577763962739
 20
339.1794108703891
 11
107.6552467655074
 21
337.7064603403529
 72
     1
 10
107.6552467655074
 20
337.7064603403529
 11
109.0531998124477
 21
336.1256013465779
 72
     1
 10
109.0531998124477
 20
336.1256013465779
 11
107.6504755946994
 21
336.1256013465779
 72
     1
 10
107.6504755946994
 20
336.1256013465779
 11
106.9538846566339
 21
336.9133331318716
 72
     1
 10
106.9538846566339
 20
336.9133331318716
 11
106.2572937185682
 21
336.1256013465779
 72
     1
 10
106.2572937185682
 20
336.1256013465779
 11
104.85456950082
 21
336.1256013465779
 72
     1
 10
104.85456950082
 20
336.1256013465779
 11
106.2525225477603
 21
337.7064603403529
 72
     1
 10
106.2525225477603
 20
337.7064603403529
 11
104.9499929169928
 21
339.1794108703891
 72
     1
 10
104.9499929169928
 20
339.1794108703891
 11
106.3527171347421
 21
339.1794108703891
 72
     1
 10
106.3527171347421
 20
339.1794108703891
 11
106.9538846566339
 21
338.4995875488336
 72
     1
 10
106.9538846566339
 20
338.4995875488336
 11
107.5550521785267
 21
339.1794108703891
 72
     1
 10
107.5550521785267
 20
339.1794108703891
 11
108.9577763962739
 21
339.1794108703891
 97
       12
330
143
330
142
330
141
330
19E
330
19F
330
19B
330
19C
330
147
330
146
330
145
330
144
330
19D
 75
     1
 76
     0
 52
45.0
 41
0.1
 77
     0
 78
     1
 53
45.0
 43
0.0
 44
0.0
 45
-0.0707106781186548
 46
0.0707106781186548
 79
     0
 98
        1
 10
0.0
 20
0.0
  0
HATCH
  5
21C
330
71
100
AcDbEntity
  8
1
  6
Continuous
 62
     2
100
AcDbHatch
 10
0.0
 20
0.0
 30
0.0
210
0.0
220
0.0
230
1.0
  2
_USER
 70
     0
 71
     1
 91
        1
 92
        1
 93
       12
 72
     1
 10
108.9577763962739
 20
339.1794108703891
 11
107.6552467655074
 21
337.7064603403529
 72
     1
 10
107.6552467655074
 20
337.7064603403529
 11
109.0531998124477
 21
336.1256013465779
 72
     1
 10
109.0531998124477
 20
336.1256013465779
 11
107.6504755946994
 21
336.1256013465779
 72
     1
 10
107.6504755946994
 20
336.1256013465779
 11
106.9538846566339
 21
336.9133331318716
 72
     1
 10
106.9538846566339
 20
336.9133331318716
 11
106.2572937185682
 21
336.1256013465779
 72
     1
 10
106.2572937185682
 20
336.1256013465779
 11
104.85456950082
 21
336.1256013465779
 72
     1
 10
104.85456950082
 20
336.1256013465779
 11
106.2525225477603
 21
337.7064603403529
 72
     1
 10
106.2525225477603
 20
337.7064603403529
 11
104.9499929169928
 21
339.1794108703891
 72
     1
 10
104.9499929169928
 20
339.1794108703891
 11
106.3527171347421
 21
339.1794108703891
 72
     1
 10
106.3527171347421
 20
339.1794108703891
 11
106.9538846566339
 21
338.4995875488336
 72
     1
 10
106.9538846566339
 20
338.4995875488336
 11
107.5550521785267
 21
339.1794108703891
 72
     1
 10
107.5550521785267
 20
339.1794108703891
 11
108.9577763962739
 21
339.1794108703891
 97
       12
330
143
330
142
330
141
330
19E
330
19F
330
19B
330
19C
330
147
330
146
330
145
330
144
330
19D
 75
     1
 76
     0
 52
45.0
 41
0.1
 77
     0
 78
     1
 53
45.0
 43
0.0
 44
0.0
 45
-0.0707106781186548
 46
0.0707106781186548
 79
     0
 98
        1
 10
0.0
 20
0.0
  0
HATCH
  5
21D
330
71
100
AcDbEntity
  8
1
  6
Continuous
 62
     2
100
AcDbHatch
 10
0.0
 20
0.0
 30
0.0
210
0.0
220
0.0
230
1.0
  2
_USER
 70
     0
 71
     1
 91
        2
 92
        1
 93
        6
 72
     1
 10
89.9400409821279
 20
337.0686795877217
 11
89.18127339434761
 21
337.0686795877217
 72
     1
 10
89.18127339434761
 20
337.0686795877217
 11
89.18127339434761
 21
336.1256013465779
 72
     1
 10
89.18127339434761
 20
336.1256013465779
 11
87.9407689840935
 21
336.1256013465779
 72
     1
 10
87.9407689840935
 20
336.1256013465779
 11
87.9407689840935
 21
339.1794108703891
 72
     1
 10
87.9407689840935
 20
339.1794108703891
 11
89.9400409821279
 21
339.1794108703891
 72
     2
 10
89.9400409821279
 20
338.1240452290554
 40
1.055365641333708
 50
270.0
 51
450.0
 73
     0
 97
        6
330
16B
330
16A
330
177
330
176
330
16C
330
1BC
 92
       16
 93
        4
 72
     2
 10
89.49856845588951
 20
338.1634412002779
 40
0.3528638246710898
 50
270.0
 51
450.0
 73
     1
 72
     1
 10
89.49856845588951
 20
338.516305024949
 11
89.18127339434761
 21
338.516305024949
 72
     1
 10
89.18127339434761
 20
338.516305024949
 11
89.18127339434761
 21
337.8105773756068
 72
     1
 10
89.18127339434761
 20
337.8105773756068
 11
89.49856845588951
 21
337.8105773756068
 97
        4
330
1D0
330
168
330
178
330
169
 75
     1
 76
     0
 52
45.0
 41
0.1
 77
     0
 78
     1
 53
45.0
 43
0.0
 44
0.0
 45
-0.0707106781186548
 46
0.0707106781186548
 79
     0
 98
        1
 10
0.0
 20
0.0
  0
HATCH
  5
21E
330
71
100
AcDbEntity
  8
1
  6
Continuous
 62
     2
100
AcDbHatch
 10
0.0
 20
0.0
 30
0.0
210
0.0
220
0.0
230
1.0
  2
_USER
 70
     0
 71
     1
 91
        2
 92
        1
 93
        6
 72
     1
 10
89.9400409821279
 20
337.0686795877217
 11
89.18127339434761
 21
337.0686795877217
 72
     1
 10
89.18127339434761
 20
337.0686795877217
 11
89.18127339434761
 21
336.1256013465779
 72
     1
 10
89.18127339434761
 20
336.1256013465779
 11
87.9407689840935
 21
336.1256013465779
 72
     1
 10
87.9407689840935
 20
336.1256013465779
 11
87.9407689840935
 21
339.1794108703891
 72
     1
 10
87.9407689840935
 20
339.1794108703891
 11
89.9400409821279
 21
339.1794108703891
 72
     2
 10
89.9400409821279
 20
338.1240452290554
 40
1.055365641333708
 50
270.0
 51
450.0
 73
     0
 97
        6
330
16B
330
16A
330
177
330
176
330
16C
330
1BC
 92
       16
 93
        4
 72
     2
 10
89.49856845588951
 20
338.1634412002779
 40
0.3528638246710898
 50
270.0
 51
450.0
 73
     1
 72
     1
 10
89.49856845588951
 20
338.516305024949
 11
89.18127339434761
 21
338.516305024949
 72
     1
 10
89.18127339434761
 20
338.516305024949
 11
89.18127339434761
 21
337.8105773756068
 72
     1
 10
89.18127339434761
 20
337.8105773756068
 11
89.49856845588951
 21
337.8105773756068
 97
        4
330
1D0
330
168
330
178
330
169
 75
     1
 76
     0
 52
45.0
 41
0.1
 77
     0
 78
     1
 53
45.0
 43
0.0
 44
0.0
 45
-0.0707106781186548
 46
0.0707106781186548
 79
     0
 98
        1
 10
0.0
 20
0.0
  0
HATCH
  5
21F
330
71
100
AcDbEntity
  8
1
  6
Continuous
 62
     2
100
AcDbHatch
 10
0.0
 20
0.0
 30
0.0
210
0.0
220
0.0
230
1.0
  2
_USER
 70
     0
 71
     1
 91
        2
 92
        1
 93
        4
 72
     2
 10
92.496583730487
 20
333.7547406220061
 40
2.065479772208543
 50
62.451851824306
 51
117.5481481756667
 73
     1
 72
     2
 10
92.2156438386537
 20
334.2933156323089
 40
1.458034083651465
 50
117.548148175663
 51
242.451851824338
 73
     1
 72
     2
 10
92.496583730487
 20
334.8318906426122
 40
2.065479772208534
 50
242.4518518243405
 51
297.5481481756867
 73
     1
 72
     2
 10
92.7775236223203
 20
334.2933156323089
 40
1.458034083652028
 50
297.5481481757005
 51
422.4518518242985
 73
     1
 97
        4
330
1C8
330
1C7
330
1C9
330
1C6
 92
       16
 93
        4
 72
     2
 10
92.29684369414059
 20
334.2933156323089
 40
0.7717997786797298
 50
321.8795802028384
 51
398.1204197971516
 73
     1
 72
     2
 10
92.496583730487
 20
334.4500468104294
 40
0.5179085730132998
 50
38.12041979714704
 51
141.8795802028588
 73
     1
 72
     2
 10
92.6963237668331
 20
334.2933156323089
 40
0.7717997786794457
 50
141.879580202838
 51
218.120419797172
 73
     1
 72
     2
 10
92.496583730487
 20
334.1365844541889
 40
0.5179085730137529
 50
218.1204197971956
 51
321.8795802027985
 73
     1
 97
        4
330
1E4
330
1E1
330
1E2
330
1E3
 75
     1
 76
     0
 52
45.0
 41
0.1
 77
     0
 78
     1
 53
45.0
 43
0.0
 44
0.0
 45
-0.0707106781186548
 46
0.0707106781186548
 79
     0
 98
        1
 10
0.0
 20
0.0
  0
HATCH
  5
220
330
71
100
AcDbEntity
  8
1
  6
Continuous
 62
     2
100
AcDbHatch
 10
0.0
 20
0.0
 30
0.0
210
0.0
220
0.0
230
1.0
  2
_USER
 70
     0
 71
     1
 91
        2
 92
        1
 93
        4
 72
     2
 10
92.496583730487
 20
333.7547406220061
 40
2.065479772208543
 50
62.451851824306
 51
117.5481481756667
 73
     1
 72
     2
 10
92.2156438386537
 20
334.2933156323089
 40
1.458034083651465
 50
117.548148175663
 51
242.451851824338
 73
     1
 72
     2
 10
92.496583730487
 20
334.8318906426122
 40
2.065479772208534
 50
242.4518518243405
 51
297.5481481756867
 73
     1
 72
     2
 10
92.7775236223203
 20
334.2933156323089
 40
1.458034083652028
 50
297.5481481757005
 51
422.4518518242985
 73
     1
 97
        4
330
1C8
330
1C7
330
1C9
330
1C6
 92
       16
 93
        4
 72
     2
 10
92.29684369414059
 20
334.2933156323089
 40
0.7717997786797298
 50
321.8795802028384
 51
398.1204197971516
 73
     1
 72
     2
 10
92.496583730487
 20
334.4500468104294
 40
0.5179085730132998
 50
38.12041979714704
 51
141.8795802028588
 73
     1
 72
     2
 10
92.6963237668331
 20
334.2933156323089
 40
0.7717997786794457
 50
141.879580202838
 51
218.120419797172
 73
     1
 72
     2
 10
92.496583730487
 20
334.1365844541889
 40
0.5179085730137529
 50
218.1204197971956
 51
321.8795802027985
 73
     1
 97
        4
330
1E4
330
1E1
330
1E2
330
1E3
 75
     1
 76
     0
 52
45.0
 41
0.1
 77
     0
 78
     1
 53
45.0
 43
0.0
 44
0.0
 45
-0.0707106781186548
 46
0.0707106781186548
 79
     0
 98
        1
 10
0.0
 20
0.0
  0
HATCH
  5
221
330
71
100
AcDbEntity
  8
1
  6
Continuous
 62
     2
100
AcDbHatch
 10
0.0
 20
0.0
 30
0.0
210
0.0
220
0.0
230
1.0
  2
_USER
 70
     0
 71
     1
 91
        2
 92
        1
 93
       12
 72
     1
 10
99.3915789248963
 20
338.4813972649461
 11
98.05565109846862
 21
338.4813972649461
 72
     1
 10
98.05565109846862
 20
338.4813972649461
 11
98.05565109846862
 21
338.0015129112044
 72
     1
 10
98.05565109846862
 20
338.0015129112044
 11
99.3915789248963
 21
338.0015129112044
 72
     1
 10
99.3915789248963
 20
338.0015129112044
 11
99.3915789248963
 21
337.3034993057621
 72
     1
 10
99.3915789248963
 20
337.3034993057621
 11
98.05565109846862
 21
337.3034993057621
 72
     1
 10
98.05565109846862
 20
337.3034993057621
 11
98.05565109846862
 21
336.8236149520204
 72
     1
 10
98.05565109846862
 20
336.8236149520204
 11
99.3915789248963
 21
336.8236149520204
 72
     1
 10
99.3915789248963
 20
336.8236149520204
 11
99.3915789248963
 21
336.1256013465779
 72
     1
 10
99.3915789248963
 20
336.1256013465779
 11
96.2412592011153
 21
336.1256013465779
 72
     2
 10
96.2412592011153
 20
337.6525061084832
 40
1.526904761905939
 50
90.0
 51
270.0
 73
     0
 72
     1
 10
96.2412592011153
 20
339.1794108703891
 11
99.3915789248963
 21
339.1794108703891
 72
     1
 10
99.3915789248963
 20
339.1794108703891
 11
99.3915789248963
 21
338.4813972649461
 97
       12
330
17F
330
1D1
330
180
330
181
330
182
330
183
330
160
330
15F
330
15E
330
15D
330
184
330
17E
 92
       16
 93
        4
 72
     2
 10
96.4575312112805
 20
337.8092372866037
 40
0.5179085730135266
 50
38.12041979714334
 51
141.8795802028489
 73
     1
 72
     2
 10
96.6572712476268
 20
337.6525061084832
 40
0.7717997786797075
 50
141.8795802028371
 51
218.1204197971529
 73
     1
 72
     2
 10
96.4575312112805
 20
337.4957749303628
 40
0.5179085730134372
 50
218.1204197971511
 51
321.8795802028566
 73
     1
 72
     2
 10
96.25779117493431
 20
337.6525061084832
 40
0.7717997786796023
 50
321.8795802028471
 51
398.1204197971629
 73
     1
 97
        4
330
1CB
330
1CA
330
1C5
330
1C4
 75
     1
 76
     0
 52
45.0
 41
0.1
 77
     0
 78
     1
 53
45.0
 43
0.0
 44
0.0
 45
-0.0707106781186548
 46
0.0707106781186548
 79
     0
 98
        1
 10
0.0
 20
0.0
  0
HATCH
  5
222
330
71
100
AcDbEntity
  8
1
  6
Continuous
 62
     2
100
AcDbHatch
 10
0.0
 20
0.0
 30
0.0
210
0.0
220
0.0
230
1.0
  2
_USER
 70
     0
 71
     1
 91
        2
 92
        1
 93
       12
 72
     1
 10
99.3915789248963
 20
338.4813972649461
 11
98.05565109846862
 21
338.4813972649461
 72
     1
 10
98.05565109846862
 20
338.4813972649461
 11
98.05565109846862
 21
338.0015129112044
 72
     1
 10
98.05565109846862
 20
338.0015129112044
 11
99.3915789248963
 21
338.0015129112044
 72
     1
 10
99.3915789248963
 20
338.0015129112044
 11
99.3915789248963
 21
337.3034993057621
 72
     1
 10
99.3915789248963
 20
337.3034993057621
 11
98.05565109846862
 21
337.3034993057621
 72
     1
 10
98.05565109846862
 20
337.3034993057621
 11
98.05565109846862
 21
336.8236149520204
 72
     1
 10
98.05565109846862
 20
336.8236149520204
 11
99.3915789248963
 21
336.8236149520204
 72
     1
 10
99.3915789248963
 20
336.8236149520204
 11
99.3915789248963
 21
336.1256013465779
 72
     1
 10
99.3915789248963
 20
336.1256013465779
 11
96.2412592011153
 21
336.1256013465779
 72
     2
 10
96.2412592011153
 20
337.6525061084832
 40
1.526904761905939
 50
90.0
 51
270.0
 73
     0
 72
     1
 10
96.2412592011153
 20
339.1794108703891
 11
99.3915789248963
 21
339.1794108703891
 72
     1
 10
99.3915789248963
 20
339.1794108703891
 11
99.3915789248963
 21
338.4813972649461
 97
       12
330
17F
330
1D1
330
180
330
181
330
182
330
183
330
160
330
15F
330
15E
330
15D
330
184
330
17E
 92
       16
 93
        4
 72
     2
 10
96.4575312112805
 20
337.8092372866037
 40
0.5179085730135266
 50
38.12041979714334
 51
141.8795802028489
 73
     1
 72
     2
 10
96.6572712476268
 20
337.6525061084832
 40
0.7717997786797075
 50
141.8795802028371
 51
218.1204197971529
 73
     1
 72
     2
 10
96.4575312112805
 20
337.4957749303628
 40
0.5179085730134372
 50
218.1204197971511
 51
321.8795802028566
 73
     1
 72
     2
 10
96.25779117493431
 20
337.6525061084832
 40
0.7717997786796023
 50
321.8795802028471
 51
398.1204197971629
 73
     1
 97
        4
330
1CB
330
1CA
330
1C5
330
1C4
 75
     1
 76
     0
 52
45.0
 41
0.1
 77
     0
 78
     1
 53
45.0
 43
0.0
 44
0.0
 45
-0.0707106781186548
 46
0.0707106781186548
 79
     0
 98
        1
 10
0.0
 20
0.0
  0
HATCH
  5
223
330
71
100
AcDbEntity
  8
1
  6
Continuous
 62
     2
100
AcDbHatch
 10
0.0
 20
0.0
 30
0.0
210
0.0
220
0.0
230
1.0
  2
_USER
 70
     0
 71
     1
 91
        4
 92
        1
 93
        8
 72
     1
 10
87.46365190322669
 20
338.7551662549871
 11
87.46365190322669
 21
333.1906554857869
 72
     2
 10
87.0394072878428
 20
333.1906554857869
 40
0.4242446153833157
 50
0.0
 51
90.0
 73
     0
 72
     1
 10
87.0394072878428
 20
332.7664108704036
 11
81.566095197126
 21
332.7664108704036
 72
     2
 10
81.566095197126
 20
333.1906554857869
 40
0.4242446153828041
 50
90.0
 51
180.0
 73
     0
 72
     1
 10
81.1418505817432
 20
333.1906554857869
 11
81.1418505817432
 21
338.7551662549871
 72
     2
 10
81.566095197126
 20
338.7551662549871
 40
0.4242446153837705
 50
180.0
 51
270.0
 73
     0
 72
     1
 10
81.566095197126
 20
339.1794108703709
 11
87.0394072878428
 21
339.1794108703709
 72
     2
 10
87.0394072878428
 20
338.7551662549871
 40
0.4242446153838841
 50
270.0
 51
360.0
 73
     0
 97
        8
330
173
330
1C1
330
174
330
1CC
330
171
330
1C3
330
172
330
1C2
 92
       16
 93
        1
 72
     2
 10
84.18568084764351
 20
336.4362840266316
 40
0.4709789327785074
 50
0.0
 51
360.0
 73
     1
 97
        1
330
1E7
 92
       16
 93
        8
 72
     2
 10
84.7355385604042
 20
335.3271424266632
 40
0.3157169230764815
 50
115.3740086783563
 51
180.0
 73
     1
 72
     1
 10
84.4198216373274
 20
335.3271424266632
 11
84.4198216373274
 21
334.7452910199681
 72
     2
 10
84.7355385604042
 20
334.7452910199681
 40
0.315716923076792
 50
180.0
 51
269.8110329574541
 73
     1
 72
     2
 10
84.74115469571421
 20
336.4481259675371
 40
2.018561131933266
 50
269.8110329575858
 51
450.1889670424142
 73
     1
 72
     2
 10
84.7355385604042
 20
338.1509609151062
 40
0.3157169230760142
 50
90.18896704254595
 51
180.0
 73
     1
 72
     1
 10
84.4198216373274
 20
338.1509609151062
 11
84.4198216373274
 21
337.5454256265994
 72
     2
 10
84.7355385604042
 20
337.5454256265994
 40
0.315716923076792
 50
180.0
 51
244.6259913216482
 73
     1
 72
     2
 10
84.20949586231632
 20
336.4362840266316
 40
0.9118481501444847
 50
295.3740086781925
 51
424.6259913218244
 73
     0
 97
        8
330
1D9
330
13A
330
1D6
330
1D7
330
1B5
330
139
330
1D8
330
1B4
 92
       16
 93
       12
 72
     2
 10
82.15998987387249
 20
333.7946833490372
 40
0.3157169230756836
 50
180.0
 51
270.0
 73
     1
 72
     1
 10
82.15998987387249
 20
333.4789664259605
 11
83.63582313488212
 21
333.4789664259605
 72
     2
 10
83.63582313488212
 20
333.7946833490372
 40
0.3157169230767067
 50
270.0
 51
360.0
 73
     1
 72
     1
 10
83.95154005795871
 20
333.7946833490372
 11
83.95154005795871
 21
335.3254542805688
 72
     2
 10
83.63582313488212
 20
335.3254542805688
 40
0.315716923076593
 50
0.0
 51
64.80558935146027
 73
     1
 72
     2
 10
84.1584075824571
 20
336.4362840266316
 40
0.9118975235575889
 50
115.1944106485122
 51
244.805589351471
 73
     0
 72
     2
 10
83.63582313488212
 20
337.5471137726938
 40
0.3157169230761717
 50
295.1944106485354
 51
360.0
 73
     1
 72
     1
 10
83.95154005795871
 20
337.5471137726938
 11
83.95154005795871
 21
338.1511383917543
 72
     2
 10
83.63582313488212
 20
338.1511383917543
 40
0.315716923076593
 50
0.0
 51
90.0
 73
     1
 72
     1
 10
83.63582313488212
 20
338.4668553148305
 11
82.15998987387249
 21
338.4668553148305
 72
     2
 10
82.15998987387249
 20
338.1511383917543
 40
0.315716923076252
 50
90.0
 51
180.0
 73
     1
 72
     1
 10
81.8442729507968
 20
338.1511383917543
 11
81.8442729507968
 21
333.7946833490372
 97
       12
330
1BD
330
175
330
1C0
330
170
330
1CD
330
1CE
330
1BF
330
16F
330
1BE
330
16E
330
1CF
330
16D
 75
     1
 76
     0
 52
45.0
 41
0.1
 77
     0
 78
     1
 53
45.0
 43
0.0
 44
0.0
 45
-0.0707106781186548
 46
0.0707106781186548
 79
     0
 98
        1
 10
0.0
 20
0.0
  0
HATCH
  5
224
330
71
100
AcDbEntity
  8
1
  6
Continuous
 62
     2
100
AcDbHatch
 10
0.0
 20
0.0
 30
0.0
210
0.0
220
0.0
230
1.0
  2
_USER
 70
     0
 71
     1
 91
        4
 92
        1
 93
        8
 72
     1
 10
87.46365190322669
 20
338.7551662549871
 11
87.46365190322669
 21
333.1906554857869
 72
     2
 10
87.0394072878428
 20
333.1906554857869
 40
0.4242446153833157
 50
0.0
 51
90.0
 73
     0
 72
     1
 10
87.0394072878428
 20
332.7664108704036
 11
81.566095197126
 21
332.7664108704036
 72
     2
 10
81.566095197126
 20
333.1906554857869
 40
0.4242446153828041
 50
90.0
 51
180.0
 73
     0
 72
     1
 10
81.1418505817432
 20
333.1906554857869
 11
81.1418505817432
 21
338.7551662549871
 72
     2
 10
81.566095197126
 20
338.7551662549871
 40
0.4242446153837705
 50
180.0
 51
270.0
 73
     0
 72
     1
 10
81.566095197126
 20
339.1794108703709
 11
87.0394072878428
 21
339.1794108703709
 72
     2
 10
87.0394072878428
 20
338.7551662549871
 40
0.4242446153838841
 50
270.0
 51
360.0
 73
     0
 97
        8
330
173
330
1C1
330
174
330
1CC
330
171
330
1C3
330
172
330
1C2
 92
       16
 93
        1
 72
     2
 10
84.18568084764351
 20
336.4362840266316
 40
0.4709789327785074
 50
0.0
 51
360.0
 73
     1
 97
        1
330
1E7
 92
       16
 93
        8
 72
     2
 10
84.7355385604042
 20
335.3271424266632
 40
0.3157169230764815
 50
115.3740086783563
 51
180.0
 73
     1
 72
     1
 10
84.4198216373274
 20
335.3271424266632
 11
84.4198216373274
 21
334.7452910199681
 72
     2
 10
84.7355385604042
 20
334.7452910199681
 40
0.315716923076792
 50
180.0
 51
269.8110329574541
 73
     1
 72
     2
 10
84.74115469571421
 20
336.4481259675371
 40
2.018561131933266
 50
269.8110329575858
 51
450.1889670424142
 73
     1
 72
     2
 10
84.7355385604042
 20
338.1509609151062
 40
0.3157169230760142
 50
90.18896704254595
 51
180.0
 73
     1
 72
     1
 10
84.4198216373274
 20
338.1509609151062
 11
84.4198216373274
 21
337.5454256265994
 72
     2
 10
84.7355385604042
 20
337.5454256265994
 40
0.315716923076792
 50
180.0
 51
244.6259913216482
 73
     1
 72
     2
 10
84.20949586231632
 20
336.4362840266316
 40
0.9118481501444847
 50
295.3740086781925
 51
424.6259913218244
 73
     0
 97
        8
330
1D9
330
13A
330
1D6
330
1D7
330
1B5
330
139
330
1D8
330
1B4
 92
       16
 93
       12
 72
     2
 10
82.15998987387249
 20
333.7946833490372
 40
0.3157169230756836
 50
180.0
 51
270.0
 73
     1
 72
     1
 10
82.15998987387249
 20
333.4789664259605
 11
83.63582313488212
 21
333.4789664259605
 72
     2
 10
83.63582313488212
 20
333.7946833490372
 40
0.3157169230767067
 50
270.0
 51
360.0
 73
     1
 72
     1
 10
83.95154005795871
 20
333.7946833490372
 11
83.95154005795871
 21
335.3254542805688
 72
     2
 10
83.63582313488212
 20
335.3254542805688
 40
0.315716923076593
 50
0.0
 51
64.80558935146027
 73
     1
 72
     2
 10
84.1584075824571
 20
336.4362840266316
 40
0.9118975235575889
 50
115.1944106485122
 51
244.805589351471
 73
     0
 72
     2
 10
83.63582313488212
 20
337.5471137726938
 40
0.3157169230761717
 50
295.1944106485354
 51
360.0
 73
     1
 72
     1
 10
83.95154005795871
 20
337.5471137726938
 11
83.95154005795871
 21
338.1511383917543
 72
     2
 10
83.63582313488212
 20
338.1511383917543
 40
0.315716923076593
 50
0.0
 51
90.0
 73
     1
 72
     1
 10
83.63582313488212
 20
338.4668553148305
 11
82.15998987387249
 21
338.4668553148305
 72
     2
 10
82.15998987387249
 20
338.1511383917543
 40
0.315716923076252
 50
90.0
 51
180.0
 73
     1
 72
     1
 10
81.8442729507968
 20
338.1511383917543
 11
81.8442729507968
 21
333.7946833490372
 97
       12
330
1BD
330
175
330
1C0
330
170
330
1CD
330
1CE
330
1BF
330
16F
330
1BE
330
16E
330
1CF
330
16D
 75
     1
 76
     0
 52
45.0
 41
0.1
 77
     0
 78
     1
 53
45.0
 43
0.0
 44
0.0
 45
-0.0707106781186548
 46
0.0707106781186548
 79
     0
 98
        1
 10
0.0
 20
0.0
  0
HATCH
  5
225
330
71
100
AcDbEntity
  8
1
  6
Continuous
 62
     2
100
AcDbHatch
 10
0.0
 20
0.0
 30
0.0
210
0.0
220
0.0
230
1.0
  2
_USER
 70
     0
 71
     1
 91
        1
 92
        1
 93
       18
 72
     1
 10
109.0531998124477
 20
335.0349550880911
 11
108.2421007749743
 21
335.0349550880911
 72
     1
 10
108.2421007749743
 20
335.0349550880911
 11
108.2421007749743
 21
332.7664108704036
 72
     1
 10
108.2421007749743
 20
332.7664108704036
 11
107.0493080728066
 21
332.7664108704036
 72
     1
 10
107.0493080728066
 20
332.7664108704036
 11
107.0493080728066
 21
335.0349550880911
 72
     1
 10
107.0493080728066
 20
335.0349550880911
 11
105.9456687732385
 21
335.0349550880911
 72
     2
 10
105.9456687732385
 20
334.080432081265
 40
0.9545230068261503
 50
90.0
 51
109.3371432194301
 73
     1
 72
     2
 10
105.7989987751348
 20
334.4983870616479
 40
0.5115800601944143
 50
109.3371432194853
 51
151.4785267424253
 73
     1
 72
     2
 10
106.1763560332162
 20
334.2933156323089
 40
0.9410597353348789
 50
151.478526742364
 51
208.5214732576695
 73
     1
 72
     2
 10
105.7989987751348
 20
334.0882442029704
 40
0.5115800601959944
 50
208.521473257681
 51
246.6277221118424
 73
     1
 72
     2
 10
105.9554388078379
 20
334.4502362216804
 40
0.9059297849852744
 50
246.6277221118191
 51
288.4480761180814
 73
     1
 72
     2
 10
105.537271074176
 20
335.703781997717
 40
2.227384008972773
 50
288.4480761181333
 51
301.930908949939
 73
     1
 72
     1
 10
106.7153261161999
 20
333.8134312785672
 11
106.7153261161999
 21
332.9409142717639
 72
     2
 10
105.3793981990832
 20
337.6059965775653
 40
4.852596863498824
 50
74.0200087416614
 51
84.8418552303638
 73
     0
 72
     2
 10
105.668254293819
 20
334.4061059943437
 40
1.639695123940434
 50
84.8418552303238
 51
164.9381082228987
 73
     0
 72
     2
 10
105.2491264503574
 20
334.2933156323089
 40
1.205656168392974
 50
164.9381082229026
 51
195.0618917770948
 73
     0
 72
     2
 10
105.668254293819
 20
334.180525270274
 40
1.639695123940157
 50
195.0618917771032
 51
270.0
 73
     0
 72
     1
 10
105.668254293819
 20
335.8202203942142
 11
109.0531998124477
 21
335.8202203942147
 72
     1
 10
109.0531998124477
 20
335.8202203942147
 11
109.0531998124477
 21
335.0349550880911
 97
       18
330
13C
330
1D2
330
1D3
330
1BB
330
1BA
330
1A0
330
1B9
330
1B8
330
1D4
330
1B7
330
1D5
330
1B6
330
1A1
330
13B
330
140
330
13F
330
13E
330
13D
 75
     1
 76
     0
 52
45.0
 41
0.1
 77
     0
 78
     1
 53
45.0
 43
0.0
 44
0.0
 45
-0.0707106781186548
 46
0.0707106781186548
 79
     0
 98
        1
 10
0.0
 20
0.0
  0
HATCH
  5
226
330
71
100
AcDbEntity
  8
1
  6
Continuous
 62
     2
100
AcDbHatch
 10
0.0
 20
0.0
 30
0.0
210
0.0
220
0.0
230
1.0
  2
_USER
 70
     0
 71
     1
 91
        1
 92
        1
 93
       18
 72
     1
 10
109.0531998124477
 20
335.0349550880911
 11
108.2421007749743
 21
335.0349550880911
 72
     1
 10
108.2421007749743
 20
335.0349550880911
 11
108.2421007749743
 21
332.7664108704036
 72
     1
 10
108.2421007749743
 20
332.7664108704036
 11
107.0493080728066
 21
332.7664108704036
 72
     1
 10
107.0493080728066
 20
332.7664108704036
 11
107.0493080728066
 21
335.0349550880911
 72
     1
 10
107.0493080728066
 20
335.0349550880911
 11
105.9456687732385
 21
335.0349550880911
 72
     2
 10
105.9456687732385
 20
334.080432081265
 40
0.9545230068261503
 50
90.0
 51
109.3371432194301
 73
     1
 72
     2
 10
105.7989987751348
 20
334.4983870616479
 40
0.5115800601944143
 50
109.3371432194853
 51
151.4785267424253
 73
     1
 72
     2
 10
106.1763560332162
 20
334.2933156323089
 40
0.9410597353348789
 50
151.478526742364
 51
208.5214732576695
 73
     1
 72
     2
 10
105.7989987751348
 20
334.0882442029704
 40
0.5115800601959944
 50
208.521473257681
 51
246.6277221118424
 73
     1
 72
     2
 10
105.9554388078379
 20
334.4502362216804
 40
0.9059297849852744
 50
246.6277221118191
 51
288.4480761180814
 73
     1
 72
     2
 10
105.537271074176
 20
335.703781997717
 40
2.227384008972773
 50
288.4480761181333
 51
301.930908949939
 73
     1
 72
     1
 10
106.7153261161999
 20
333.8134312785672
 11
106.7153261161999
 21
332.9409142717639
 72
     2
 10
105.3793981990832
 20
337.6059965775653
 40
4.852596863498824
 50
74.0200087416614
 51
84.8418552303638
 73
     0
 72
     2
 10
105.668254293819
 20
334.4061059943437
 40
1.639695123940434
 50
84.8418552303238
 51
164.9381082228987
 73
     0
 72
     2
 10
105.2491264503574
 20
334.2933156323089
 40
1.205656168392974
 50
164.9381082229026
 51
195.0618917770948
 73
     0
 72
     2
 10
105.668254293819
 20
334.180525270274
 40
1.639695123940157
 50
195.0618917771032
 51
270.0
 73
     0
 72
     1
 10
105.668254293819
 20
335.8202203942142
 11
109.0531998124477
 21
335.8202203942147
 72
     1
 10
109.0531998124477
 20
335.8202203942147
 11
109.0531998124477
 21
335.0349550880911
 97
       18
330
13C
330
1D2
330
1D3
330
1BB
330
1BA
330
1A0
330
1B9
330
1B8
330
1D4
330
1B7
330
1D5
330
1B6
330
1A1
330
13B
330
140
330
13F
330
13E
330
13D
 75
     1
 76
     0
 52
45.0
 41
0.1
 77
     0
 78
     1
 53
45.0
 43
0.0
 44
0.0
 45
-0.0707106781186548
 46
0.0707106781186548
 79
     0
 98
        1
 10
0.0
 20
0.0
  0
HATCH
  5
227
330
71
100
AcDbEntity
  8
1
  6
Continuous
 62
     2
100
AcDbHatch
 10
0.0
 20
0.0
 30
0.0
210
0.0
220
0.0
230
1.0
  2
_USER
 70
     0
 71
     1
 91
        1
 92
        1
 93
       14
 72
     2
 10
89.5655528145661
 20
334.180525270274
 40
1.639695123940507
 50
84.84185523036236
 51
164.9381082228884
 73
     1
 72
     2
 10
89.1464249711033
 20
334.2933156323089
 40
1.205656168390929
 50
164.9381082228791
 51
195.0618917770948
 73
     1
 72
     2
 10
89.5655528145661
 20
334.4061059943437
 40
1.63969512393938
 50
195.0618917770886
 51
275.1581447696396
 73
     1
 72
     2
 10
89.2766967198302
 20
337.6059965775653
 40
4.85259686349811
 50
275.158144769625
 51
285.9799912583529
 73
     1
 72
     1
 10
90.612624636948
 20
332.9409142717645
 11
90.612624636948
 21
333.8134312785677
 72
     2
 10
89.43456959492312
 20
335.7037819977176
 40
2.227384008972764
 50
58.06909105004111
 51
71.55192388186742
 73
     0
 72
     2
 10
89.85273732858391
 20
334.4502362216804
 40
0.9059297849849192
 50
71.55192388184209
 51
113.372277888129
 73
     0
 72
     2
 10
89.69629729588189
 20
334.0882442029704
 40
0.5115800601948034
 50
113.3722778881752
 51
151.4785267423044
 73
     0
 72
     2
 10
90.0736545539622
 20
334.2933156323089
 40
0.9410597353332545
 50
151.4785267422912
 51
208.5214732577331
 73
     0
 72
     2
 10
89.69629729588189
 20
334.4983870616479
 40
0.5115800601948517
 50
208.5214732576956
 51
246.6277221117996
 73
     0
 72
     2
 10
89.85273732858391
 20
334.1363950429373
 40
0.9059297849853228
 50
246.627722111871
 51
288.4480761181465
 73
     0
 72
     2
 10
89.43456959492312
 20
332.8828492669007
 40
2.227384008973501
 50
288.4480761181326
 51
301.9309089499589
 73
     0
 72
     1
 10
90.612624636948
 20
334.7731999860506
 11
90.612624636948
 21
335.6457169928539
 72
     2
 10
89.2766967198302
 20
330.980634687053
 40
4.852596863498095
 50
74.02000874164747
 51
84.84185523037509
 73
     1
 97
       14
330
1DA
330
1DB
330
1DC
330
1DD
330
1A2
330
1B3
330
1B2
330
1B1
330
1DE
330
1DF
330
1B0
330
1E0
330
1A3
330
1AF
 75
     1
 76
     0
 52
45.0
 41
0.1
 77
     0
 78
     1
 53
45.0
 43
0.0
 44
0.0
 45
-0.0707106781186548
 46
0.0707106781186548
 79
     0
 98
        1
 10
0.0
 20
0.0
  0
HATCH
  5
228
330
71
100
AcDbEntity
  8
1
  6
Continuous
 62
     2
100
AcDbHatch
 10
0.0
 20
0.0
 30
0.0
210
0.0
220
0.0
230
1.0
  2
_USER
 70
     0
 71
     1
 91
        1
 92
        1
 93
       14
 72
     2
 10
89.5655528145661
 20
334.180525270274
 40
1.639695123940507
 50
84.84185523036236
 51
164.9381082228884
 73
     1
 72
     2
 10
89.1464249711033
 20
334.2933156323089
 40
1.205656168390929
 50
164.9381082228791
 51
195.0618917770948
 73
     1
 72
     2
 10
89.5655528145661
 20
334.4061059943437
 40
1.63969512393938
 50
195.0618917770886
 51
275.1581447696396
 73
     1
 72
     2
 10
89.2766967198302
 20
337.6059965775653
 40
4.85259686349811
 50
275.158144769625
 51
285.9799912583529
 73
     1
 72
     1
 10
90.612624636948
 20
332.9409142717645
 11
90.612624636948
 21
333.8134312785677
 72
     2
 10
89.43456959492312
 20
335.7037819977176
 40
2.227384008972764
 50
58.06909105004111
 51
71.55192388186742
 73
     0
 72
     2
 10
89.85273732858391
 20
334.4502362216804
 40
0.9059297849849192
 50
71.55192388184209
 51
113.372277888129
 73
     0
 72
     2
 10
89.69629729588189
 20
334.0882442029704
 40
0.5115800601948034
 50
113.3722778881752
 51
151.4785267423044
 73
     0
 72
     2
 10
90.0736545539622
 20
334.2933156323089
 40
0.9410597353332545
 50
151.4785267422912
 51
208.5214732577331
 73
     0
 72
     2
 10
89.69629729588189
 20
334.4983870616479
 40
0.5115800601948517
 50
208.5214732576956
 51
246.6277221117996
 73
     0
 72
     2
 10
89.85273732858391
 20
334.1363950429373
 40
0.9059297849853228
 50
246.627722111871
 51
288.4480761181465
 73
     0
 72
     2
 10
89.43456959492312
 20
332.8828492669007
 40
2.227384008973501
 50
288.4480761181326
 51
301.9309089499589
 73
     0
 72
     1
 10
90.612624636948
 20
334.7731999860506
 11
90.612624636948
 21
335.6457169928539
 72
     2
 10
89.2766967198302
 20
330.980634687053
 40
4.852596863498095
 50
74.02000874164747
 51
84.84185523037509
 73
     1
 97
       14
330
1DA
330
1DB
330
1DC
330
1DD
330
1A2
330
1B3
330
1B2
330
1B1
330
1DE
330
1DF
330
1B0
330
1E0
330
1A3
330
1AF
 75
     1
 76
     0
 52
45.0
 41
0.1
 77
     0
 78
     1
 53
45.0
 43
0.0
 44
0.0
 45
-0.0707106781186548
 46
0.0707106781186548
 79
     0
 98
        1
 10
0.0
 20
0.0
  0
ENDBLK
  5
73
330
71
100
AcDbEntity
  8
0
100
AcDbBlockEnd
  0
BLOCK
  5
75
330
74
100
AcDbEntity
  8
0
100
AcDbBlockBegin
  2
_punkt
 70
     0
 10
206.4500002219306
 20
325.4729108703873
 30
0.0
  3
_punkt
  1

  0
LINE
  5
229
330
74
100
AcDbEntity
  8
1
  6
Continuous
 62
     2
100
AcDbLine
 10
206.4500002219306
 20
325.4729108703873
 30
0.0
 11
211.4500002219296
 21
325.4729108703873
 31
0.0
  0
LINE
  5
22A
330
74
100
AcDbEntity
  8
1
  6
Continuous
 62
     2
100
AcDbLine
 10
206.4500002219306
 20
325.4729108703873
 30
0.0
 11
206.4500002219306
 21
320.4729108703872
 31
0.0
  0
ENDBLK
  5
76
330
74
100
AcDbEntity
  8
0
100
AcDbBlockEnd
  0
BLOCK
  5
7A
330
77
100
AcDbEntity
  8
0
100
AcDbBlockBegin
  2
A4I_CS
 70
     0
 10
206.4500002219306
 20
320.4729108703872
 30
0.0
  3
A4I_CS
  1

  0
INSERT
  5
78
330
77
100
AcDbEntity
  8
1
100
AcDbBlockReference
  2
_rahmen
 10
206.4500002219306
 20
320.4729108703872
 30
0.0
  0
INSERT
  5
79
330
77
100
AcDbEntity
  8
1
100
AcDbBlockReference
  2
_punkt
 10
206.4500002219306
 20
325.4729108703873
 30
0.0
  0
ENDBLK
  5
7B
330
77
100
AcDbEntity
  8
0
100
AcDbBlockEnd
  0
BLOCK
  5
84
330
7C
100
AcDbEntity
  8
0
100
AcDbBlockBegin
  2
1
 70
     0
 10
0.0
 20
0.0
 30
0.0
  3
1
  1

  0
INSERT
  5
7D
330
7C
100
AcDbEntity
  8
0
100
AcDbBlockReference
  2
AllgSicht1
 10
155.0000000000006
 20
396.0
 30
0.0
  0
INSERT
  5
7E
330
7C
100
AcDbEntity
  8
0
100
AcDbBlockReference
  2
Drfsicht1
 10
24.0
 20
409.9999999999952
 30
0.0
  0
INSERT
  5
7F
330
7C
100
AcDbEntity
  8
0
100
AcDbBlockReference
  2
Rckans1
 10
136.8999996185302
 20
465.1499995589256
 30
0.0
  0
INSERT
  5
80
330
7C
100
AcDbEntity
  8
0
100
AcDbBlockReference
  2
SA_Links1
 10
80.44999980927503
 20
465.1499995589255
 30
0.0
  0
INSERT
  5
81
330
7C
100
AcDbEntity
  8
0
100
AcDbBlockReference
  2
SA_Rechts1
 10
-46.44999980927005
 20
465.1499995589256
 30
0.0
  0
INSERT
  5
82
330
7C
100
AcDbEntity
  8
0
100
AcDbBlockReference
  2
Vordans1
 10
23.99999999999987
 20
465.1499995589255
 30
0.0
  0
INSERT
  5
83
330
7C
100
AcDbEntity
  8
0
100
AcDbBlockReference
  2
A4I_CS
 10
206.4500002219306
 20
320.4729108703872
 30
0.0
  0
ENDBLK
  5
85
330
7C
100
AcDbEntity
  8
0
100
AcDbBlockEnd
  0
BLOCK
  5
B0
330
A7
100
AcDbEntity
  8
0
100
AcDbBlockBegin
  2
*D17
 70
     1
 10
0.0
 20
0.0
 30
0.0
  3
*D17
  1

  0
LINE
  5
A8
330
A7
100
AcDbEntity
  8
1
  6
Continuous
 62
     2
100
AcDbLine
 10
-20.45000063460099
 20
399.5053088510331
 30
0.0
 11
-20.45000063460099
 21
409.2499999999902
 31
0.0
  0
LINE
  5
A9
330
A7
100
AcDbEntity
  8
1
  6
Continuous
 62
     2
100
AcDbLine
 10
-20.45000063460099
 20
409.2499999999902
 30
0.0
 11
-20.45000063460099
 21
410.7499999999902
 31
0.0
  0
LINE
  5
AA
330
A7
100
AcDbEntity
  8
1
  6
Continuous
 62
     2
100
AcDbLine
 10
-20.45000063460099
 20
410.7499999999902
 30
0.0
 11
-20.45000063460099
 21
417.7499999999902
 31
0.0
  0
LINE
  5
AB
330
A7
100
AcDbEntity
  8
1
  6
Continuous
 62
     2
100
AcDbLine
 10
-10.45000063460099
 20
409.2499999999902
 30
0.0
 11
-21.95000063460099
 21
409.2499999999902
 31
0.0
  0
LINE
  5
AC
330
A7
100
AcDbEntity
  8
1
  6
Continuous
 62
     2
100
AcDbLine
 10
-10.45000063460099
 20
410.7499999999902
 30
0.0
 11
-21.95000063460099
 21
410.7499999999902
 31
0.0
  0
SOLID
  5
AD
330
A7
100
AcDbEntity
  8
1
 62
     2
100
AcDbTrace
 10
-19.98921689304511
 20
405.7499999999902
 30
0.0
 11
-20.91078437615688
 21
405.7499999999902
 31
0.0
 12
-20.45000063460099
 22
409.2499999999902
 32
0.0
 13
-20.45000063460099
 23
409.2499999999902
 33
0.0
  0
SOLID
  5
AE
330
A7
100
AcDbEntity
  8
1
 62
     2
100
AcDbTrace
 10
-20.91078437615688
 20
414.2499999999902
 30
0.0
 11
-19.98921689304511
 21
414.2499999999902
 31
0.0
 12
-20.45000063460099
 22
410.7499999999902
 32
0.0
 13
-20.45000063460099
 23
410.7499999999902
 33
0.0
  0
MTEXT
  5
AF
330
A7
100
AcDbEntity
  8
1
 62
     3
100
AcDbMText
 10
-22.30000063460099
 20
399.5053088510331
 30
0.0
 40
3.5
 41
0.0
 71
     7
 72
     1
  1
1,5
  7
CONVERTER_11
 11
0.0
 21
1.0
 31
0.0
 73
     1
 44
0.60024009603842
  0
ENDBLK
  5
B1
330
A7
100
AcDbEntity
  8
0
100
AcDbBlockEnd
  0
BLOCK
  5
E3
330
DC
100
AcDbEntity
  8
0
100
AcDbBlockBegin
  2
*D18
 70
     1
 10
0.0
 20
0.0
 30
0.0
  3
*D18
  1

  0
LINE
  5
DD
330
DC
100
AcDbEntity
  8
1
  6
Continuous
 62
     2
100
AcDbLine
 10
-10.45000063460113
 20
433.3688770334438
 30
0.0
 11
58.44999936539891
 21
433.3688770334438
 31
0.0
  0
LINE
  5
DE
330
DC
100
AcDbEntity
  8
1
  6
Continuous
 62
     2
100
AcDbLine
 10
-10.45000063460113
 20
444.7499990747325
 30
0.0
 11
-10.45000063460113
 21
431.8688770334438
 31
0.0
  0
LINE
  5
DF
330
DC
100
AcDbEntity
  8
1
  6
Continuous
 62
     2
100
AcDbLine
 10
58.44999936539891
 20
444.7499990747325
 30
0.0
 11
58.44999936539891
 21
431.8688770334438
 31
0.0
  0
SOLID
  5
E0
330
DC
100
AcDbEntity
  8
1
 62
     2
100
AcDbTrace
 10
-6.95000063460113
 20
433.8296607749996
 30
0.0
 11
-6.95000063460113
 21
432.9080932918879
 31
0.0
 12
-10.45000063460113
 22
433.3688770334438
 32
0.0
 13
-10.45000063460113
 23
433.3688770334438
 33
0.0
  0
SOLID
  5
E1
330
DC
100
AcDbEntity
  8
1
 62
     2
100
AcDbTrace
 10
54.94999936539891
 20
432.9080932918879
 30
0.0
 11
54.94999936539891
 21
433.8296607749996
 31
0.0
 12
58.44999936539891
 22
433.3688770334438
 32
0.0
 13
58.44999936539891
 23
433.3688770334438
 33
0.0
  0
MTEXT
  5
E2
330
DC
100
AcDbEntity
  8
1
 62
     3
100
AcDbMText
 10
20.97108452112715
 20
435.2188770334438
 30
0.0
 40
3.5
 41
0.0
 71
     7
 72
     1
  1
68,9
  7
CONVERTER_11
 11
0.9999999999970619
 21
2.424068405545306E-6
 31
0.0
 73
     1
 44
0.60024009603842
  0
ENDBLK
  5
E4
330
DC
100
AcDbEntity
  8
0
100
AcDbBlockEnd
  0
BLOCK
  5
EE
330
E7
100
AcDbEntity
  8
0
100
AcDbBlockBegin
  2
*D19
 70
     1
 10
0.0
 20
0.0
 30
0.0
  3
*D19
  1

  0
LINE
  5
E8
330
E7
100
AcDbEntity
  8
1
  6
Continuous
 62
     2
100
AcDbLine
 10
-20.450000634601
 20
444.7499990747325
 30
0.0
 11
-20.450000634601
 21
485.5499990747325
 31
0.0
  0
LINE
  5
E9
330
E7
100
AcDbEntity
  8
1
  6
Continuous
 62
     2
100
AcDbLine
 10
58.44999936539891
 20
444.7499990747325
 30
0.0
 11
-22.450000634601
 21
444.7499990747325
 31
0.0
  0
LINE
  5
EA
330
E7
100
AcDbEntity
  8
1
  6
Continuous
 62
     2
100
AcDbLine
 10
48.09999936539892
 20
485.5499990747325
 30
0.0
 11
-22.450000634601
 21
485.5499990747325
 31
0.0
  0
SOLID
  5
EB
330
E7
100
AcDbEntity
  8
1
 62
     2
100
AcDbTrace
 10
-20.91078437615689
 20
448.2499990747325
 30
0.0
 11
-19.98921689304511
 21
448.2499990747325
 31
0.0
 12
-20.450000634601
 22
444.7499990747325
 32
0.0
 13
-20.450000634601
 23
444.7499990747325
 33
0.0
  0
SOLID
  5
EC
330
E7
100
AcDbEntity
  8
1
 62
     2
100
AcDbTrace
 10
-19.98921689304512
 20
482.0499990747325
 30
0.0
 11
-20.91078437615689
 21
482.0499990747325
 31
0.0
 12
-20.450000634601
 22
485.5499990747325
 32
0.0
 13
-20.450000634601
 23
485.5499990747325
 33
0.0
  0
MTEXT
  5
ED
330
E7
100
AcDbEntity
  8
1
 62
     3
100
AcDbMText
 10
-22.450000634601
 20
461.9496069194298
 30
0.0
 40
3.5
 41
0.0
 71
     7
 72
     1
  1
41
  7
CONVERTER_11
 11
0.0
 21
1.0
 31
0.0
 73
     1
 44
0.60024009603842
  0
ENDBLK
  5
EF
330
E7
100
AcDbEntity
  8
0
100
AcDbBlockEnd
  0
ENDSEC
  0
SECTION
  2
ENTITIES
  0
INSERT
  5
86
330
1F
100
AcDbEntity
  8
1
100
AcDbBlockReference
  2
1
 10
0.0
 20
0.0
 30
0.0
  0
ENDSEC
  0
SECTION
  2
OBJECTS
  0
DICTIONARY
  5
C
330
0
100
AcDbDictionary
281
     1
  3
ACAD_GROUP
350
D
  3
ACAD_LAYOUT
350
1A
  3
ACAD_MATERIAL
350
3B
  3
ACAD_MLEADERSTYLE
350
252
  3
ACAD_MLINESTYLE
350
17
  3
ACAD_PLOTSETTINGS
350
19
  3
ACAD_PLOTSTYLENAME
350
E
  3
ACAD_TABLESTYLE
350
251
  3
ACAD_VISUALSTYLE
350
2A
  0
DICTIONARY
  5
D
102
{ACAD_REACTORS
330
C
102
}
330
C
100
AcDbDictionary
281
     1
  0
DICTIONARY
  5
1A
102
{ACAD_REACTORS
330
C
102
}
330
C
100
AcDbDictionary
281
     1
  3
Layout1
350
1E
  3
Layout2
350
26
  3
Model
350
22
  0
DICTIONARY
  5
3B
102
{ACAD_REACTORS
330
C
102
}
330
C
100
AcDbDictionary
281
     1
  3
ByBlock
350
3D
  3
ByLayer
350
3C
  3
Global
350
3E
  0
DICTIONARY
  5
252
102
{ACAD_REACTORS
330
C
102
}
330
C
100
AcDbDictionary
281
     1
  0
DICTIONARY
  5
17
102
{ACAD_REACTORS
330
C
102
}
330
C
100
AcDbDictionary
281
     1
  3
Standard
350
18
  0
DICTIONARY
  5
19
102
{ACAD_REACTORS
330
C
102
}
330
C
100
AcDbDictionary
281
     1
  0
ACDBDICTIONARYWDFLT
  5
E
102
{ACAD_REACTORS
330
C
102
}
330
C
100
AcDbDictionary
281
     1
  3
Normal
350
F
100
AcDbDictionaryWithDefault
340
F
  0
DICTIONARY
  5
251
102
{ACAD_REACTORS
330
C
102
}
330
C
100
AcDbDictionary
281
     1
  0
DICTIONARY
  5
2A
102
{ACAD_REACTORS
330
C
102
}
330
C
100
AcDbDictionary
281
     1
  3
2dWireframe
350
2F
  3
3D Hidden
350
31
  3
3dWireframe
350
30
  3
Basic
350
32
  3
Brighten
350
36
  3
ColorChange
350
3A
  3
Conceptual
350
34
  3
Dim
350
35
  3
Facepattern
350
39
  3
Flat
350
2B
  3
FlatWithEdges
350
2C
  3
Gouraud
350
2D
  3
GouraudWithEdges
350
2E
  3
Linepattern
350
38
  3
Realistic
350
33
  3
Thicken
350
37
  0
LAYOUT
  5
1E
102
{ACAD_REACTORS
330
1A
102
}
330
1A
100
AcDbPlotSettings
  1

  2
none_device
  4

  6

 40
0.0
 41
0.0
 42
0.0
 43
0.0
 44
0.0
 45
0.0
 46
0.0
 47
0.0
 48
0.0
 49
0.0
140
0.0
141
0.0
142
1.0
143
1.0
 70
   688
 72
     0
 73
     0
 74
     5
  7

 75
    16
 76
     0
 77
     2
 78
   300
147
1.0
148
0.0
149
0.0
100
AcDbLayout
  1
Layout1
 70
     1
 71
     1
 10
0.0
 20
0.0
 11
12.0
 21
9.0
 12
0.0
 22
0.0
 32
0.0
 14
1.00000000000000E+20
 24
1.00000000000000E+20
 34
1.00000000000000E+20
 15
-1.00000000000000E+20
 25
-1.00000000000000E+20
 35
-1.00000000000000E+20
146
0.0
 13
0.0
 23
0.0
 33
0.0
 16
1.0
 26
0.0
 36
0.0
 17
0.0
 27
1.0
 37
0.0
 76
     0
330
1B
  0
LAYOUT
  5
26
102
{ACAD_REACTORS
330
1A
102
}
330
1A
100
AcDbPlotSettings
  1

  2
none_device
  4

  6

 40
0.0
 41
0.0
 42
0.0
 43
0.0
 44
0.0
 45
0.0
 46
0.0
 47
0.0
 48
0.0
 49
0.0
140
0.0
141
0.0
142
1.0
143
1.0
 70
   688
 72
     0
 73
     0
 74
     5
  7

 75
    16
 76
     0
 77
     2
 78
   300
147
1.0
148
0.0
149
0.0
100
AcDbLayout
  1
Layout2
 70
     1
 71
     2
 10
0.0
 20
0.0
 11
0.0
 21
0.0
 12
0.0
 22
0.0
 32
0.0
 14
0.0
 24
0.0
 34
0.0
 15
0.0
 25
0.0
 35
0.0
146
0.0
 13
0.0
 23
0.0
 33
0.0
 16
1.0
 26
0.0
 36
0.0
 17
0.0
 27
1.0
 37
0.0
 76
     0
330
23
  0
LAYOUT
  5
22
102
{ACAD_REACTORS
330
1A
102
}
330
1A
100
AcDbPlotSettings
  1

  2
none_device
  4

  6

 40
0.0
 41
0.0
 42
0.0
 43
0.0
 44
0.0
 45
0.0
 46
0.0
 47
0.0
 48
0.0
 49
0.0
140
0.0
141
0.0
142
1.0
143
1.0
 70
  1712
 72
     0
 73
     0
 74
     0
  7

 75
     0
 76
     0
 77
     2
 78
   300
147
1.0
148
0.0
149
0.0
100
AcDbLayout
  1
Model
 70
     1
 71
     0
 10
0.0
 20
0.0
 11
12.0
 21
9.0
 12
0.0
 22
0.0
 32
0.0
 14
-85.54999977806847
 24
320.4729108703872
 34
0.0
 15
211.4500002219296
 25
530.4729108703873
 35
0.0
146
0.0
 13
0.0
 23
0.0
 33
0.0
 16
1.0
 26
0.0
 36
0.0
 17
0.0
 27
1.0
 37
0.0
 76
     0
330
1F
331
29
  0
MATERIAL
  5
3D
102
{ACAD_REACTORS
330
3B
102
}
102
{ACAD_XDICTIONARY
360
24D
102
}
330
3B
100
AcDbMaterial
  1
ByBlock
  0
MATERIAL
  5
3C
102
{ACAD_REACTORS
330
3B
102
}
102
{ACAD_XDICTIONARY
360
24B
102
}
330
3B
100
AcDbMaterial
  1
ByLayer
  0
MATERIAL
  5
3E
102
{ACAD_REACTORS
330
3B
102
}
102
{ACAD_XDICTIONARY
360
24F
102
}
330
3B
100
AcDbMaterial
  1
Global
  0
MLINESTYLE
  5
18
102
{ACAD_REACTORS
330
17
102
}
330
17
100
AcDbMlineStyle
  2
Standard
 70
     0
  3

 62
   256
 51
90.0
 52
90.0
 71
     2
 49
0.5
 62
   256
  6
BYLAYER
 49
-0.5
 62
   256
  6
BYLAYER
  0
ACDBPLACEHOLDER
  5
F
102
{ACAD_REACTORS
330
E
102
}
330
E
  0
VISUALSTYLE
  5
2F
102
{ACAD_REACTORS
330
2A
102
}
102
{ACAD_XDICTIONARY
360
233
102
}
330
2A
100
AcDbVisualStyle
  2
2dWireframe
 70
     4
 71
     0
 72
     2
 73
     0
 90
        0
 40
-0.6
 41
-30.0
 62
     5
 63
     7
421
 16777215
 74
     1
 91
        4
 64
     7
 65
   257
 75
     1
175
     1
 42
1.0
 92
        0
 66
   257
 43
1.0
 76
     1
 77
     6
 78
     2
 67
     7
 79
     5
170
     0
171
     0
290
     0
174
     0
 93
        1
 44
0.0
173
     0
291
     0
 45
0.0
1001
ACAD
1000
AcDbSavedByObjectVersion
1070
     0
  0
VISUALSTYLE
  5
31
102
{ACAD_REACTORS
330
2A
102
}
102
{ACAD_XDICTIONARY
360
237
102
}
330
2A
100
AcDbVisualStyle
  2
3D Hidden
 70
     6
 71
     1
 72
     2
 73
     2
 90
        0
 40
-0.6
 41
-30.0
 62
     5
 63
     7
421
 16777215
 74
     2
 91
        2
 64
     7
 65
   257
 75
     2
175
     1
 42
40.0
 92
        0
 66
   257
 43
1.0
 76
     1
 77
     6
 78
     2
 67
     7
 79
     3
170
     0
171
     0
290
     0
174
     0
 93
        1
 44
0.0
173
     0
291
     0
 45
0.0
1001
ACAD
1000
AcDbSavedByObjectVersion
1070
     0
  0
VISUALSTYLE
  5
30
102
{ACAD_REACTORS
330
2A
102
}
102
{ACAD_XDICTIONARY
360
235
102
}
330
2A
100
AcDbVisualStyle
  2
3dWireframe
 70
     5
 71
     0
 72
     2
 73
     0
 90
        0
 40
-0.6
 41
-30.0
 62
     5
 63
     7
421
 16777215
 74
     1
 91
        4
 64
     7
 65
   257
 75
     1
175
     1
 42
1.0
 92
        0
 66
   257
 43
1.0
 76
     1
 77
     6
 78
     2
 67
     7
 79
     5
170
     0
171
     0
290
     0
174
     0
 93
        1
 44
0.0
173
     0
291
     0
 45
0.0
1001
ACAD
1000
AcDbSavedByObjectVersion
1070
     0
  0
VISUALSTYLE
  5
32
102
{ACAD_REACTORS
330
2A
102
}
102
{ACAD_XDICTIONARY
360
239
102
}
330
2A
100
AcDbVisualStyle
  2
Basic
 70
     7
 71
     1
 72
     0
 73
     1
 90
        0
 40
-0.6
 41
-30.0
 62
     5
 63
     7
421
 16777215
 74
     0
 91
        4
 64
     7
 65
   257
 75
     1
175
     1
 42
1.0
 92
        8
 66
     7
 43
1.0
 76
     1
 77
     6
 78
     2
 67
     7
 79
     5
170
     0
171
     0
290
     0
174
     0
 93
        1
 44
0.0
173
     0
291
     1
 45
0.0
1001
ACAD
1000
AcDbSavedByObjectVersion
1070
     0
  0
VISUALSTYLE
  5
36
102
{ACAD_REACTORS
330
2A
102
}
102
{ACAD_XDICTIONARY
360
241
102
}
330
2A
100
AcDbVisualStyle
  2
Brighten
 70
    12
 71
     2
 72
     2
 73
     0
 90
        0
 40
-0.6
 41
-30.0
 62
     5
 63
     7
421
 16777215
 74
     1
 91
        4
 64
     7
 65
   257
 75
     1
175
     1
 42
1.0
 92
        8
 66
     7
 43
1.0
 76
     1
 77
     6
 78
     2
 67
     7
 79
     5
170
     0
171
     0
290
     0
174
     0
 93
        1
 44
50.0
173
     0
291
     1
 45
0.0
1001
ACAD
1000
AcDbSavedByObjectVersion
1070
     0
  0
VISUALSTYLE
  5
3A
102
{ACAD_REACTORS
330
2A
102
}
102
{ACAD_XDICTIONARY
360
249
102
}
330
2A
100
AcDbVisualStyle
  2
ColorChange
 70
    16
 71
     2
 72
     2
 73
     3
 90
        0
 40
-0.6
 41
-30.0
 62
     5
 63
     8
421
  8421504
 74
     1
 91
        4
 64
     7
 65
   257
 75
     1
175
     1
 42
1.0
 92
        8
 66
     8
424
  8421504
 43
1.0
 76
     1
 77
     6
 78
     2
 67
     7
 79
     5
170
     0
171
     0
290
     0
174
     0
 93
        1
 44
0.0
173
     0
291
     1
 45
0.0
1001
ACAD
1000
AcDbSavedByObjectVersion
1070
     0
  0
VISUALSTYLE
  5
34
102
{ACAD_REACTORS
330
2A
102
}
102
{ACAD_XDICTIONARY
360
23D
102
}
330
2A
100
AcDbVisualStyle
  2
Conceptual
 70
     9
 71
     3
 72
     2
 73
     0
 90
        0
 40
-0.6
 41
-30.0
 62
     5
 63
     7
421
 16777215
 74
     2
 91
        2
 64
     7
 65
   257
 75
     1
175
     1
 42
40.0
 92
        8
 66
     7
 43
1.0
 76
     1
 77
     6
 78
     2
 67
     7
 79
     3
170
     0
171
     0
290
     0
174
     0
 93
        1
 44
0.0
173
     0
291
     0
 45
0.0
1001
ACAD
1000
AcDbSavedByObjectVersion
1070
     0
  0
VISUALSTYLE
  5
35
102
{ACAD_REACTORS
330
2A
102
}
102
{ACAD_XDICTIONARY
360
23F
102
}
330
2A
100
AcDbVisualStyle
  2
Dim
 70
    11
 71
     2
 72
     2
 73
     0
 90
        0
 40
-0.6
 41
-30.0
 62
     5
 63
     7
421
 16777215
 74
     1
 91
        4
 64
     7
 65
   257
 75
     1
175
     1
 42
1.0
 92
        8
 66
     7
 43
1.0
 76
     1
 77
     6
 78
     2
 67
     7
 79
     5
170
     0
171
     0
290
     0
174
     0
 93
        1
 44
-50.0
173
     0
291
     1
 45
0.0
1001
ACAD
1000
AcDbSavedByObjectVersion
1070
     0
  0
VISUALSTYLE
  5
39
102
{ACAD_REACTORS
330
2A
102
}
102
{ACAD_XDICTIONARY
360
247
102
}
330
2A
100
AcDbVisualStyle
  2
Facepattern
 70
    15
 71
     2
 72
     2
 73
     0
 90
        0
 40
-0.6
 41
-30.0
 62
     5
 63
     7
421
 16777215
 74
     1
 91
        4
 64
     7
 65
   257
 75
     1
175
     1
 42
1.0
 92
        8
 66
     7
 43
1.0
 76
     1
 77
     6
 78
     2
 67
     7
 79
     5
170
     0
171
     0
290
     0
174
     0
 93
        1
 44
0.0
173
     0
291
     1
 45
0.0
1001
ACAD
1000
AcDbSavedByObjectVersion
1070
     0
  0
VISUALSTYLE
  5
2B
102
{ACAD_REACTORS
330
2A
102
}
102
{ACAD_XDICTIONARY
360
22B
102
}
330
2A
100
AcDbVisualStyle
  2
Flat
 70
     0
 71
     2
 72
     1
 73
     1
 90
        2
 40
-0.6
 41
30.0
 62
     5
 63
     7
421
 16777215
 74
     0
 91
        4
 64
     7
 65
   257
 75
     1
175
     1
 42
1.0
 92
        8
 66
     7
 43
1.0
 76
     1
 77
     6
 78
     2
 67
     7
 79
     5
170
     0
171
     0
290
     0
174
     0
 93
       13
 44
0.0
173
     0
291
     1
 45
0.0
1001
ACAD
1000
AcDbSavedByObjectVersion
1070
     0
  0
VISUALSTYLE
  5
2C
102
{ACAD_REACTORS
330
2A
102
}
102
{ACAD_XDICTIONARY
360
22D
102
}
330
2A
100
AcDbVisualStyle
  2
FlatWithEdges
 70
     1
 71
     2
 72
     1
 73
     1
 90
        2
 40
-0.6
 41
30.0
 62
     5
 63
     7
421
 16777215
 74
     1
 91
        4
 64
     7
 65
   257
 75
     1
175
     1
 42
1.0
 92
        0
 66
   257
 43
1.0
 76
     1
 77
     6
 78
     2
 67
     7
 79
     5
170
     0
171
     0
290
     0
174
     0
 93
       13
 44
0.0
173
     0
291
     1
 45
0.0
1001
ACAD
1000
AcDbSavedByObjectVersion
1070
     0
  0
VISUALSTYLE
  5
2D
102
{ACAD_REACTORS
330
2A
102
}
102
{ACAD_XDICTIONARY
360
22F
102
}
330
2A
100
AcDbVisualStyle
  2
Gouraud
 70
     2
 71
     2
 72
     2
 73
     1
 90
        2
 40
-0.6
 41
30.0
 62
     5
 63
     7
421
 16777215
 74
     0
 91
        4
 64
     7
 65
   257
 75
     1
175
     1
 42
1.0
 92
        0
 66
     7
 43
1.0
 76
     1
 77
     6
 78
     2
 67
     7
 79
     5
170
     0
171
     0
290
     0
174
     0
 93
       13
 44
0.0
173
     0
291
     1
 45
0.0
1001
ACAD
1000
AcDbSavedByObjectVersion
1070
     0
  0
VISUALSTYLE
  5
2E
102
{ACAD_REACTORS
330
2A
102
}
102
{ACAD_XDICTIONARY
360
231
102
}
330
2A
100
AcDbVisualStyle
  2
GouraudWithEdges
 70
     3
 71
     2
 72
     2
 73
     1
 90
        2
 40
-0.6
 41
30.0
 62
     5
 63
     7
421
 16777215
 74
     1
 91
        4
 64
     7
 65
   257
 75
     1
175
     1
 42
1.0
 92
        0
 66
   257
 43
1.0
 76
     1
 77
     6
 78
     2
 67
     7
 79
     5
170
     0
171
     0
290
     0
174
     0
 93
       13
 44
0.0
173
     0
291
     1
 45
0.0
1001
ACAD
1000
AcDbSavedByObjectVersion
1070
     0
  0
VISUALSTYLE
  5
38
102
{ACAD_REACTORS
330
2A
102
}
102
{ACAD_XDICTIONARY
360
245
102
}
330
2A
100
AcDbVisualStyle
  2
Linepattern
 70
    14
 71
     2
 72
     2
 73
     0
 90
        0
 40
-0.6
 41
-30.0
 62
     5
 63
     7
421
 16777215
 74
     1
 91
        4
 64
     7
 65
   257
 75
     7
175
     7
 42
1.0
 92
        8
 66
     7
 43
1.0
 76
     1
 77
     6
 78
     2
 67
     7
 79
     5
170
     0
171
     0
290
     0
174
     0
 93
        1
 44
0.0
173
     0
291
     1
 45
0.0
1001
ACAD
1000
AcDbSavedByObjectVersion
1070
     0
  0
VISUALSTYLE
  5
33
102
{ACAD_REACTORS
330
2A
102
}
102
{ACAD_XDICTIONARY
360
23B
102
}
330
2A
100
AcDbVisualStyle
  2
Realistic
 70
     8
 71
     2
 72
     2
 73
     0
 90
        0
 40
-0.6
 41
-30.0
 62
     5
 63
     7
421
 16777215
 74
     1
 91
        0
 64
     7
 65
   257
 75
     1
175
     1
 42
1.0
 92
        8
 66
     8
424
  7895160
 43
1.0
 76
     1
 77
     6
 78
     2
 67
     7
 79
     5
170
     0
171
     0
290
     0
174
     0
 93
       13
 44
0.0
173
     0
291
     0
 45
0.0
1001
ACAD
1000
AcDbSavedByObjectVersion
1070
     0
  0
VISUALSTYLE
  5
37
102
{ACAD_REACTORS
330
2A
102
}
102
{ACAD_XDICTIONARY
360
243
102
}
330
2A
100
AcDbVisualStyle
  2
Thicken
 70
    13
 71
     2
 72
     2
 73
     0
 90
        0
 40
-0.6
 41
-30.0
 62
     5
 63
     7
421
 16777215
 74
     1
 91
        4
 64
     7
 65
   257
 75
     1
175
     1
 42
1.0
 92
       12
 66
     7
 43
1.0
 76
     1
 77
     6
 78
     2
 67
     7
 79
     5
170
     0
171
     0
290
     0
174
     0
 93
        1
 44
0.0
173
     0
291
     1
 45
0.0
1001
ACAD
1000
AcDbSavedByObjectVersion
1070
     0
  0
DICTIONARY
  5
24D
330
3D
100
AcDbDictionary
280
     1
281
     1
  3
ACAD_XREC_ROUNDTRIP
360
24E
  0
DICTIONARY
  5
24B
330
3C
100
AcDbDictionary
280
     1
281
     1
  3
ACAD_XREC_ROUNDTRIP
360
24C
  0
DICTIONARY
  5
24F
330
3E
100
AcDbDictionary
280
     1
281
     1
  3
ACAD_XREC_ROUNDTRIP
360
250
  0
DICTIONARY
  5
233
330
2F
100
AcDbDictionary
280
     1
281
     1
  3
ACAD_XREC_ROUNDTRIP
360
234
  0
DICTIONARY
  5
237
330
31
100
AcDbDictionary
280
     1
281
     1
  3
ACAD_XREC_ROUNDTRIP
360
238
  0
DICTIONARY
  5
235
330
30
100
AcDbDictionary
280
     1
281
     1
  3
ACAD_XREC_ROUNDTRIP
360
236
  0
DICTIONARY
  5
239
330
32
100
AcDbDictionary
280
     1
281
     1
  3
ACAD_XREC_ROUNDTRIP
360
23A
  0
DICTIONARY
  5
241
330
36
100
AcDbDictionary
280
     1
281
     1
  3
ACAD_XREC_ROUNDTRIP
360
242
  0
DICTIONARY
  5
249
330
3A
100
AcDbDictionary
280
     1
281
     1
  3
ACAD_XREC_ROUNDTRIP
360
24A
  0
DICTIONARY
  5
23D
330
34
100
AcDbDictionary
280
     1
281
     1
  3
ACAD_XREC_ROUNDTRIP
360
23E
  0
DICTIONARY
  5
23F
330
35
100
AcDbDictionary
280
     1
281
     1
  3
ACAD_XREC_ROUNDTRIP
360
240
  0
DICTIONARY
  5
247
330
39
100
AcDbDictionary
280
     1
281
     1
  3
ACAD_XREC_ROUNDTRIP
360
248
  0
DICTIONARY
  5
22B
330
2B
100
AcDbDictionary
280
     1
281
     1
  3
ACAD_XREC_ROUNDTRIP
360
22C
  0
DICTIONARY
  5
22D
330
2C
100
AcDbDictionary
280
     1
281
     1
  3
ACAD_XREC_ROUNDTRIP
360
22E
  0
DICTIONARY
  5
22F
330
2D
100
AcDbDictionary
280
     1
281
     1
  3
ACAD_XREC_ROUNDTRIP
360
230
  0
DICTIONARY
  5
231
330
2E
100
AcDbDictionary
280
     1
281
     1
  3
ACAD_XREC_ROUNDTRIP
360
232
  0
DICTIONARY
  5
245
330
38
100
AcDbDictionary
280
     1
281
     1
  3
ACAD_XREC_ROUNDTRIP
360
246
  0
DICTIONARY
  5
23B
330
33
100
AcDbDictionary
280
     1
281
     1
  3
ACAD_XREC_ROUNDTRIP
360
23C
  0
DICTIONARY
  5
243
330
37
100
AcDbDictionary
280
     1
281
     1
  3
ACAD_XREC_ROUNDTRIP
360
244
  0
XRECORD
  5
24E
102
{ACAD_REACTORS
330
24D
102
}
330
24D
100
AcDbXrecord
280
     1
102
MATERIAL
148
0.0
149
0.0
149
0.0
 93
        0
 94
      127
282
     0
 72
     1
 77
     1
171
     1
175
     1
179
     1
273
     0
  0
XRECORD
  5
24C
102
{ACAD_REACTORS
330
24B
102
}
330
24B
100
AcDbXrecord
280
     1
102
MATERIAL
148
0.0
149
0.0
149
0.0
 93
        0
 94
      127
282
     0
 72
     1
 77
     1
171
     1
175
     1
179
     1
273
     0
  0
XRECORD
  5
250
102
{ACAD_REACTORS
330
24F
102
}
330
24F
100
AcDbXrecord
280
     1
102
MATERIAL
148
0.0
149
0.0
149
0.0
 93
        0
 94
      127
282
     0
 72
     1
 77
     1
171
     1
175
     1
179
     1
273
     0
  0
XRECORD
  5
234
102
{ACAD_REACTORS
330
233
102
}
330
233
100
AcDbXrecord
280
     1
102
RTVSPropertyOp0
 70
     1
102
RTVSPropertyOp1
 70
     1
102
RTVSPropertyOp2
 70
     1
102
RTVSPropertyOp3
 70
     1
102
RTVSPropertyOp4
 70
     1
102
RTVSPropertyOp5
 70
     1
102
RTVSPropertyOp6
 70
     1
102
RTVSPropertyOp7
 70
     1
102
RTVSPropertyOp8
 70
     1
102
RTVSPropertyOp9
 70
     1
102
RTVSPropertyOp10
 70
     1
102
RTVSPropertyOp11
 70
     1
102
RTVSPropertyOp12
 70
     1
102
RTVSPropertyOp13
 70
     1
102
RTVSPropertyOp14
 70
     1
102
RTVSPropertyOp15
 70
     1
102
RTVSPropertyOp16
 70
     1
102
RTVSPropertyOp17
 70
     1
102
RTVSPropertyOp18
 70
     1
102
RTVSPropertyOp19
 70
     1
102
RTVSPropertyOp20
 70
     1
102
RTVSPropertyOp21
 70
     1
102
RTVSPropertyOp22
 70
     1
102
RTVSPropertyOp23
 70
     1
102
RTVSPropertyOp24
 70
     1
102
RTVSPropertyOp25
 70
     1
102
RTVSPropertyOp26
 70
     1
102
RTVSPropertyOp27
 70
     1
102
RTVSPropertyOp28
 70
     1
102
RTVSPropertyOp29
 70
     1
102
RTVSPropertyOp30
 70
     1
102
RTVSPropertyOp31
 70
     1
102
RTVSPropertyOp32
 70
     1
  0
XRECORD
  5
238
102
{ACAD_REACTORS
330
237
102
}
330
237
100
AcDbXrecord
280
     1
102
RTVSPropertyOp0
 70
     1
102
RTVSPropertyOp1
 70
     1
102
RTVSPropertyOp2
 70
     1
102
RTVSPropertyOp3
 70
     1
102
RTVSPropertyOp4
 70
     1
102
RTVSPropertyOp5
 70
     1
102
RTVSPropertyOp6
 70
     1
102
RTVSPropertyOp7
 70
     1
102
RTVSPropertyOp8
 70
     1
102
RTVSPropertyOp9
 70
     1
102
RTVSPropertyOp10
 70
     1
102
RTVSPropertyOp11
 70
     1
102
RTVSPropertyOp12
 70
     1
102
RTVSPropertyOp13
 70
     1
102
RTVSPropertyOp14
 70
     1
102
RTVSPropertyOp15
 70
     1
102
RTVSPropertyOp16
 70
     1
102
RTVSPropertyOp17
 70
     1
102
RTVSPropertyOp18
 70
     1
102
RTVSPropertyOp19
 70
     1
102
RTVSPropertyOp20
 70
     1
102
RTVSPropertyOp21
 70
     1
102
RTVSPropertyOp22
 70
     1
102
RTVSPropertyOp23
 70
     1
102
RTVSPropertyOp24
 70
     1
102
RTVSPropertyOp25
 70
     1
102
RTVSPropertyOp26
 70
     1
102
RTVSPropertyOp27
 70
     1
102
RTVSPropertyOp28
 70
     1
102
RTVSPropertyOp29
 70
     1
102
RTVSPropertyOp30
 70
     1
102
RTVSPropertyOp31
 70
     1
102
RTVSPropertyOp32
 70
     1
  0
XRECORD
  5
236
102
{ACAD_REACTORS
330
235
102
}
330
235
100
AcDbXrecord
280
     1
102
RTVSPropertyOp0
 70
     1
102
RTVSPropertyOp1
 70
     1
102
RTVSPropertyOp2
 70
     1
102
RTVSPropertyOp3
 70
     1
102
RTVSPropertyOp4
 70
     1
102
RTVSPropertyOp5
 70
     1
102
RTVSPropertyOp6
 70
     1
102
RTVSPropertyOp7
 70
     1
102
RTVSPropertyOp8
 70
     1
102
RTVSPropertyOp9
 70
     1
102
RTVSPropertyOp10
 70
     1
102
RTVSPropertyOp11
 70
     1
102
RTVSPropertyOp12
 70
     1
102
RTVSPropertyOp13
 70
     1
102
RTVSPropertyOp14
 70
     1
102
RTVSPropertyOp15
 70
     1
102
RTVSPropertyOp16
 70
     1
102
RTVSPropertyOp17
 70
     1
102
RTVSPropertyOp18
 70
     1
102
RTVSPropertyOp19
 70
     1
102
RTVSPropertyOp20
 70
     1
102
RTVSPropertyOp21
 70
     1
102
RTVSPropertyOp22
 70
     1
102
RTVSPropertyOp23
 70
     1
102
RTVSPropertyOp24
 70
     1
102
RTVSPropertyOp25
 70
     1
102
RTVSPropertyOp26
 70
     1
102
RTVSPropertyOp27
 70
     1
102
RTVSPropertyOp28
 70
     1
102
RTVSPropertyOp29
 70
     1
102
RTVSPropertyOp30
 70
     1
102
RTVSPropertyOp31
 70
     1
102
RTVSPropertyOp32
 70
     1
  0
XRECORD
  5
23A
102
{ACAD_REACTORS
330
239
102
}
330
239
100
AcDbXrecord
280
     1
102
RTVSPropertyOp0
 70
     1
102
RTVSPropertyOp1
 70
     1
102
RTVSPropertyOp2
 70
     1
102
RTVSPropertyOp3
 70
     1
102
RTVSPropertyOp4
 70
     1
102
RTVSPropertyOp5
 70
     1
102
RTVSPropertyOp6
 70
     1
102
RTVSPropertyOp7
 70
     1
102
RTVSPropertyOp8
 70
     1
102
RTVSPropertyOp9
 70
     1
102
RTVSPropertyOp10
 70
     1
102
RTVSPropertyOp11
 70
     1
102
RTVSPropertyOp12
 70
     1
102
RTVSPropertyOp13
 70
     1
102
RTVSPropertyOp14
 70
     1
102
RTVSPropertyOp15
 70
     1
102
RTVSPropertyOp16
 70
     1
102
RTVSPropertyOp17
 70
     1
102
RTVSPropertyOp18
 70
     1
102
RTVSPropertyOp19
 70
     1
102
RTVSPropertyOp20
 70
     1
102
RTVSPropertyOp21
 70
     1
102
RTVSPropertyOp22
 70
     1
102
RTVSPropertyOp23
 70
     1
102
RTVSPropertyOp24
 70
     1
102
RTVSPropertyOp25
 70
     1
102
RTVSPropertyOp26
 70
     1
102
RTVSPropertyOp27
 70
     1
102
RTVSPropertyOp28
 70
     1
102
RTVSPropertyOp29
 70
     1
102
RTVSPropertyOp30
 70
     1
102
RTVSPropertyOp31
 70
     1
102
RTVSPropertyOp32
 70
     1
  0
XRECORD
  5
242
102
{ACAD_REACTORS
330
241
102
}
330
241
100
AcDbXrecord
280
     1
102
RTVSPropertyOp0
 70
     1
102
RTVSPropertyOp1
 70
     1
102
RTVSPropertyOp2
 70
     1
102
RTVSPropertyOp3
 70
     1
102
RTVSPropertyOp4
 70
     1
102
RTVSPropertyOp5
 70
     1
102
RTVSPropertyOp6
 70
     1
102
RTVSPropertyOp7
 70
     1
102
RTVSPropertyOp8
 70
     1
102
RTVSPropertyOp9
 70
     1
102
RTVSPropertyOp10
 70
     1
102
RTVSPropertyOp11
 70
     1
102
RTVSPropertyOp12
 70
     1
102
RTVSPropertyOp13
 70
     1
102
RTVSPropertyOp14
 70
     1
102
RTVSPropertyOp15
 70
     1
102
RTVSPropertyOp16
 70
     1
102
RTVSPropertyOp17
 70
     1
102
RTVSPropertyOp18
 70
     1
102
RTVSPropertyOp19
 70
     1
102
RTVSPropertyOp20
 70
     1
102
RTVSPropertyOp21
 70
     1
102
RTVSPropertyOp22
 70
     1
102
RTVSPropertyOp23
 70
     1
102
RTVSPropertyOp24
 70
     1
102
RTVSPropertyOp25
 70
     1
102
RTVSPropertyOp26
 70
     1
102
RTVSPropertyOp27
 70
     1
102
RTVSPropertyOp28
 70
     1
102
RTVSPropertyOp29
 70
     1
102
RTVSPropertyOp30
 70
     1
102
RTVSPropertyOp31
 70
     1
102
RTVSPropertyOp32
 70
     1
  0
XRECORD
  5
24A
102
{ACAD_REACTORS
330
249
102
}
330
249
100
AcDbXrecord
280
     1
102
RTVSPropertyOp0
 70
     1
102
RTVSPropertyOp1
 70
     1
102
RTVSPropertyOp2
 70
     1
102
RTVSPropertyOp3
 70
     1
102
RTVSPropertyOp4
 70
     1
102
RTVSPropertyOp5
 70
     1
102
RTVSPropertyOp6
 70
     1
102
RTVSPropertyOp7
 70
     1
102
RTVSPropertyOp8
 70
     1
102
RTVSPropertyOp9
 70
     1
102
RTVSPropertyOp10
 70
     1
102
RTVSPropertyOp11
 70
     1
102
RTVSPropertyOp12
 70
     1
102
RTVSPropertyOp13
 70
     1
102
RTVSPropertyOp14
 70
     1
102
RTVSPropertyOp15
 70
     1
102
RTVSPropertyOp16
 70
     1
102
RTVSPropertyOp17
 70
     1
102
RTVSPropertyOp18
 70
     1
102
RTVSPropertyOp19
 70
     1
102
RTVSPropertyOp20
 70
     1
102
RTVSPropertyOp21
 70
     1
102
RTVSPropertyOp22
 70
     1
102
RTVSPropertyOp23
 70
     1
102
RTVSPropertyOp24
 70
     1
102
RTVSPropertyOp25
 70
     1
102
RTVSPropertyOp26
 70
     1
102
RTVSPropertyOp27
 70
     1
102
RTVSPropertyOp28
 70
     1
102
RTVSPropertyOp29
 70
     1
102
RTVSPropertyOp30
 70
     1
102
RTVSPropertyOp31
 70
     1
102
RTVSPropertyOp32
 70
     1
  0
XRECORD
  5
23E
102
{ACAD_REACTORS
330
23D
102
}
330
23D
100
AcDbXrecord
280
     1
102
RTVSPropertyOp0
 70
     1
102
RTVSPropertyOp1
 70
     1
102
RTVSPropertyOp2
 70
     1
102
RTVSPropertyOp3
 70
     1
102
RTVSPropertyOp4
 70
     1
102
RTVSPropertyOp5
 70
     1
102
RTVSPropertyOp6
 70
     1
102
RTVSPropertyOp7
 70
     1
102
RTVSPropertyOp8
 70
     1
102
RTVSPropertyOp9
 70
     1
102
RTVSPropertyOp10
 70
     1
102
RTVSPropertyOp11
 70
     1
102
RTVSPropertyOp12
 70
     1
102
RTVSPropertyOp13
 70
     1
102
RTVSPropertyOp14
 70
     1
102
RTVSPropertyOp15
 70
     1
102
RTVSPropertyOp16
 70
     1
102
RTVSPropertyOp17
 70
     1
102
RTVSPropertyOp18
 70
     1
102
RTVSPropertyOp19
 70
     1
102
RTVSPropertyOp20
 70
     1
102
RTVSPropertyOp21
 70
     1
102
RTVSPropertyOp22
 70
     1
102
RTVSPropertyOp23
 70
     1
102
RTVSPropertyOp24
 70
     1
102
RTVSPropertyOp25
 70
     1
102
RTVSPropertyOp26
 70
     1
102
RTVSPropertyOp27
 70
     1
102
RTVSPropertyOp28
 70
     1
102
RTVSPropertyOp29
 70
     1
102
RTVSPropertyOp30
 70
     1
102
RTVSPropertyOp31
 70
     1
102
RTVSPropertyOp32
 70
     1
  0
XRECORD
  5
240
102
{ACAD_REACTORS
330
23F
102
}
330
23F
100
AcDbXrecord
280
     1
102
RTVSPropertyOp0
 70
     1
102
RTVSPropertyOp1
 70
     1
102
RTVSPropertyOp2
 70
     1
102
RTVSPropertyOp3
 70
     1
102
RTVSPropertyOp4
 70
     1
102
RTVSPropertyOp5
 70
     1
102
RTVSPropertyOp6
 70
     1
102
RTVSPropertyOp7
 70
     1
102
RTVSPropertyOp8
 70
     1
102
RTVSPropertyOp9
 70
     1
102
RTVSPropertyOp10
 70
     1
102
RTVSPropertyOp11
 70
     1
102
RTVSPropertyOp12
 70
     1
102
RTVSPropertyOp13
 70
     1
102
RTVSPropertyOp14
 70
     1
102
RTVSPropertyOp15
 70
     1
102
RTVSPropertyOp16
 70
     1
102
RTVSPropertyOp17
 70
     1
102
RTVSPropertyOp18
 70
     1
102
RTVSPropertyOp19
 70
     1
102
RTVSPropertyOp20
 70
     1
102
RTVSPropertyOp21
 70
     1
102
RTVSPropertyOp22
 70
     1
102
RTVSPropertyOp23
 70
     1
102
RTVSPropertyOp24
 70
     1
102
RTVSPropertyOp25
 70
     1
102
RTVSPropertyOp26
 70
     1
102
RTVSPropertyOp27
 70
     1
102
RTVSPropertyOp28
 70
     1
102
RTVSPropertyOp29
 70
     1
102
RTVSPropertyOp30
 70
     1
102
RTVSPropertyOp31
 70
     1
102
RTVSPropertyOp32
 70
     1
  0
XRECORD
  5
248
102
{ACAD_REACTORS
330
247
102
}
330
247
100
AcDbXrecord
280
     1
102
RTVSPropertyOp0
 70
     1
102
RTVSPropertyOp1
 70
     1
102
RTVSPropertyOp2
 70
     1
102
RTVSPropertyOp3
 70
     1
102
RTVSPropertyOp4
 70
     1
102
RTVSPropertyOp5
 70
     1
102
RTVSPropertyOp6
 70
     1
102
RTVSPropertyOp7
 70
     1
102
RTVSPropertyOp8
 70
     1
102
RTVSPropertyOp9
 70
     1
102
RTVSPropertyOp10
 70
     1
102
RTVSPropertyOp11
 70
     1
102
RTVSPropertyOp12
 70
     1
102
RTVSPropertyOp13
 70
     1
102
RTVSPropertyOp14
 70
     1
102
RTVSPropertyOp15
 70
     1
102
RTVSPropertyOp16
 70
     1
102
RTVSPropertyOp17
 70
     1
102
RTVSPropertyOp18
 70
     1
102
RTVSPropertyOp19
 70
     1
102
RTVSPropertyOp20
 70
     1
102
RTVSPropertyOp21
 70
     1
102
RTVSPropertyOp22
 70
     1
102
RTVSPropertyOp23
 70
     1
102
RTVSPropertyOp24
 70
     1
102
RTVSPropertyOp25
 70
     1
102
RTVSPropertyOp26
 70
     1
102
RTVSPropertyOp27
 70
     1
102
RTVSPropertyOp28
 70
     1
102
RTVSPropertyOp29
 70
     1
102
RTVSPropertyOp30
 70
     1
102
RTVSPropertyOp31
 70
     1
102
RTVSPropertyOp32
 70
     1
  0
XRECORD
  5
22C
102
{ACAD_REACTORS
330
22B
102
}
330
22B
100
AcDbXrecord
280
     1
102
RTVSPropertyOp0
 70
     1
102
RTVSPropertyOp1
 70
     1
102
RTVSPropertyOp2
 70
     1
102
RTVSPropertyOp3
 70
     1
102
RTVSPropertyOp4
 70
     1
102
RTVSPropertyOp5
 70
     1
102
RTVSPropertyOp6
 70
     1
102
RTVSPropertyOp7
 70
     1
102
RTVSPropertyOp8
 70
     1
102
RTVSPropertyOp9
 70
     1
102
RTVSPropertyOp10
 70
     1
102
RTVSPropertyOp11
 70
     1
102
RTVSPropertyOp12
 70
     1
102
RTVSPropertyOp13
 70
     1
102
RTVSPropertyOp14
 70
     1
102
RTVSPropertyOp15
 70
     1
102
RTVSPropertyOp16
 70
     1
102
RTVSPropertyOp17
 70
     1
102
RTVSPropertyOp18
 70
     1
102
RTVSPropertyOp19
 70
     1
102
RTVSPropertyOp20
 70
     1
102
RTVSPropertyOp21
 70
     1
102
RTVSPropertyOp22
 70
     1
102
RTVSPropertyOp23
 70
     1
102
RTVSPropertyOp24
 70
     1
102
RTVSPropertyOp25
 70
     1
102
RTVSPropertyOp26
 70
     1
102
RTVSPropertyOp27
 70
     1
102
RTVSPropertyOp28
 70
     1
102
RTVSPropertyOp29
 70
     1
102
RTVSPropertyOp30
 70
     1
102
RTVSPropertyOp31
 70
     1
102
RTVSPropertyOp32
 70
     1
  0
XRECORD
  5
22E
102
{ACAD_REACTORS
330
22D
102
}
330
22D
100
AcDbXrecord
280
     1
102
RTVSPropertyOp0
 70
     1
102
RTVSPropertyOp1
 70
     1
102
RTVSPropertyOp2
 70
     1
102
RTVSPropertyOp3
 70
     1
102
RTVSPropertyOp4
 70
     1
102
RTVSPropertyOp5
 70
     1
102
RTVSPropertyOp6
 70
     1
102
RTVSPropertyOp7
 70
     1
102
RTVSPropertyOp8
 70
     1
102
RTVSPropertyOp9
 70
     1
102
RTVSPropertyOp10
 70
     1
102
RTVSPropertyOp11
 70
     1
102
RTVSPropertyOp12
 70
     1
102
RTVSPropertyOp13
 70
     1
102
RTVSPropertyOp14
 70
     1
102
RTVSPropertyOp15
 70
     1
102
RTVSPropertyOp16
 70
     1
102
RTVSPropertyOp17
 70
     1
102
RTVSPropertyOp18
 70
     1
102
RTVSPropertyOp19
 70
     1
102
RTVSPropertyOp20
 70
     1
102
RTVSPropertyOp21
 70
     1
102
RTVSPropertyOp22
 70
     1
102
RTVSPropertyOp23
 70
     1
102
RTVSPropertyOp24
 70
     1
102
RTVSPropertyOp25
 70
     1
102
RTVSPropertyOp26
 70
     1
102
RTVSPropertyOp27
 70
     1
102
RTVSPropertyOp28
 70
     1
102
RTVSPropertyOp29
 70
     1
102
RTVSPropertyOp30
 70
     1
102
RTVSPropertyOp31
 70
     1
102
RTVSPropertyOp32
 70
     1
  0
XRECORD
  5
230
102
{ACAD_REACTORS
330
22F
102
}
330
22F
100
AcDbXrecord
280
     1
102
RTVSPropertyOp0
 70
     1
102
RTVSPropertyOp1
 70
     1
102
RTVSPropertyOp2
 70
     1
102
RTVSPropertyOp3
 70
     1
102
RTVSPropertyOp4
 70
     1
102
RTVSPropertyOp5
 70
     1
102
RTVSPropertyOp6
 70
     1
102
RTVSPropertyOp7
 70
     1
102
RTVSPropertyOp8
 70
     1
102
RTVSPropertyOp9
 70
     1
102
RTVSPropertyOp10
 70
     1
102
RTVSPropertyOp11
 70
     1
102
RTVSPropertyOp12
 70
     1
102
RTVSPropertyOp13
 70
     1
102
RTVSPropertyOp14
 70
     1
102
RTVSPropertyOp15
 70
     1
102
RTVSPropertyOp16
 70
     1
102
RTVSPropertyOp17
 70
     1
102
RTVSPropertyOp18
 70
     1
102
RTVSPropertyOp19
 70
     1
102
RTVSPropertyOp20
 70
     1
102
RTVSPropertyOp21
 70
     1
102
RTVSPropertyOp22
 70
     1
102
RTVSPropertyOp23
 70
     1
102
RTVSPropertyOp24
 70
     1
102
RTVSPropertyOp25
 70
     1
102
RTVSPropertyOp26
 70
     1
102
RTVSPropertyOp27
 70
     1
102
RTVSPropertyOp28
 70
     1
102
RTVSPropertyOp29
 70
     1
102
RTVSPropertyOp30
 70
     1
102
RTVSPropertyOp31
 70
     1
102
RTVSPropertyOp32
 70
     1
  0
XRECORD
  5
232
102
{ACAD_REACTORS
330
231
102
}
330
231
100
AcDbXrecord
280
     1
102
RTVSPropertyOp0
 70
     1
102
RTVSPropertyOp1
 70
     1
102
RTVSPropertyOp2
 70
     1
102
RTVSPropertyOp3
 70
     1
102
RTVSPropertyOp4
 70
     1
102
RTVSPropertyOp5
 70
     1
102
RTVSPropertyOp6
 70
     1
102
RTVSPropertyOp7
 70
     1
102
RTVSPropertyOp8
 70
     1
102
RTVSPropertyOp9
 70
     1
102
RTVSPropertyOp10
 70
     1
102
RTVSPropertyOp11
 70
     1
102
RTVSPropertyOp12
 70
     1
102
RTVSPropertyOp13
 70
     1
102
RTVSPropertyOp14
 70
     1
102
RTVSPropertyOp15
 70
     1
102
RTVSPropertyOp16
 70
     1
102
RTVSPropertyOp17
 70
     1
102
RTVSPropertyOp18
 70
     1
102
RTVSPropertyOp19
 70
     1
102
RTVSPropertyOp20
 70
     1
102
RTVSPropertyOp21
 70
     1
102
RTVSPropertyOp22
 70
     1
102
RTVSPropertyOp23
 70
     1
102
RTVSPropertyOp24
 70
     1
102
RTVSPropertyOp25
 70
     1
102
RTVSPropertyOp26
 70
     1
102
RTVSPropertyOp27
 70
     1
102
RTVSPropertyOp28
 70
     1
102
RTVSPropertyOp29
 70
     1
102
RTVSPropertyOp30
 70
     1
102
RTVSPropertyOp31
 70
     1
102
RTVSPropertyOp32
 70
     1
  0
XRECORD
  5
246
102
{ACAD_REACTORS
330
245
102
}
330
245
100
AcDbXrecord
280
     1
102
RTVSPropertyOp0
 70
     1
102
RTVSPropertyOp1
 70
     1
102
RTVSPropertyOp2
 70
     1
102
RTVSPropertyOp3
 70
     1
102
RTVSPropertyOp4
 70
     1
102
RTVSPropertyOp5
 70
     1
102
RTVSPropertyOp6
 70
     1
102
RTVSPropertyOp7
 70
     1
102
RTVSPropertyOp8
 70
     1
102
RTVSPropertyOp9
 70
     1
102
RTVSPropertyOp10
 70
     1
102
RTVSPropertyOp11
 70
     1
102
RTVSPropertyOp12
 70
     1
102
RTVSPropertyOp13
 70
     1
102
RTVSPropertyOp14
 70
     1
102
RTVSPropertyOp15
 70
     1
102
RTVSPropertyOp16
 70
     1
102
RTVSPropertyOp17
 70
     1
102
RTVSPropertyOp18
 70
     1
102
RTVSPropertyOp19
 70
     1
102
RTVSPropertyOp20
 70
     1
102
RTVSPropertyOp21
 70
     1
102
RTVSPropertyOp22
 70
     1
102
RTVSPropertyOp23
 70
     1
102
RTVSPropertyOp24
 70
     1
102
RTVSPropertyOp25
 70
     1
102
RTVSPropertyOp26
 70
     1
102
RTVSPropertyOp27
 70
     1
102
RTVSPropertyOp28
 70
     1
102
RTVSPropertyOp29
 70
     1
102
RTVSPropertyOp30
 70
     1
102
RTVSPropertyOp31
 70
     1
102
RTVSPropertyOp32
 70
     1
  0
XRECORD
  5
23C
102
{ACAD_REACTORS
330
23B
102
}
330
23B
100
AcDbXrecord
280
     1
102
RTVSPropertyOp0
 70
     1
102
RTVSPropertyOp1
 70
     1
102
RTVSPropertyOp2
 70
     1
102
RTVSPropertyOp3
 70
     1
102
RTVSPropertyOp4
 70
     1
102
RTVSPropertyOp5
 70
     1
102
RTVSPropertyOp6
 70
     1
102
RTVSPropertyOp7
 70
     1
102
RTVSPropertyOp8
 70
     1
102
RTVSPropertyOp9
 70
     1
102
RTVSPropertyOp10
 70
     1
102
RTVSPropertyOp11
 70
     1
102
RTVSPropertyOp12
 70
     1
102
RTVSPropertyOp13
 70
     1
102
RTVSPropertyOp14
 70
     1
102
RTVSPropertyOp15
 70
     1
102
RTVSPropertyOp16
 70
     1
102
RTVSPropertyOp17
 70
     1
102
RTVSPropertyOp18
 70
     1
102
RTVSPropertyOp19
 70
     1
102
RTVSPropertyOp20
 70
     1
102
RTVSPropertyOp21
 70
     1
102
RTVSPropertyOp22
 70
     1
102
RTVSPropertyOp23
 70
     1
102
RTVSPropertyOp24
 70
     1
102
RTVSPropertyOp25
 70
     1
102
RTVSPropertyOp26
 70
     1
102
RTVSPropertyOp27
 70
     1
102
RTVSPropertyOp28
 70
     1
102
RTVSPropertyOp29
 70
     1
102
RTVSPropertyOp30
 70
     1
102
RTVSPropertyOp31
 70
     1
102
RTVSPropertyOp32
 70
     1
  0
XRECORD
  5
244
102
{ACAD_REACTORS
330
243
102
}
330
243
100
AcDbXrecord
280
     1
102
RTVSPropertyOp0
 70
     1
102
RTVSPropertyOp1
 70
     1
102
RTVSPropertyOp2
 70
     1
102
RTVSPropertyOp3
 70
     1
102
RTVSPropertyOp4
 70
     1
102
RTVSPropertyOp5
 70
     1
102
RTVSPropertyOp6
 70
     1
102
RTVSPropertyOp7
 70
     1
102
RTVSPropertyOp8
 70
     1
102
RTVSPropertyOp9
 70
     1
102
RTVSPropertyOp10
 70
     1
102
RTVSPropertyOp11
 70
     1
102
RTVSPropertyOp12
 70
     1
102
RTVSPropertyOp13
 70
     1
102
RTVSPropertyOp14
 70
     1
102
RTVSPropertyOp15
 70
     1
102
RTVSPropertyOp16
 70
     1
102
RTVSPropertyOp17
 70
     1
102
RTVSPropertyOp18
 70
     1
102
RTVSPropertyOp19
 70
     1
102
RTVSPropertyOp20
 70
     1
102
RTVSPropertyOp21
 70
     1
102
RTVSPropertyOp22
 70
     1
102
RTVSPropertyOp23
 70
     1
102
RTVSPropertyOp24
 70
     1
102
RTVSPropertyOp25
 70
     1
102
RTVSPropertyOp26
 70
     1
102
RTVSPropertyOp27
 70
     1
102
RTVSPropertyOp28
 70
     1
102
RTVSPropertyOp29
 70
     1
102
RTVSPropertyOp30
 70
     1
102
RTVSPropertyOp31
 70
     1
102
RTVSPropertyOp32
 70
     1
  0
ENDSEC
  0
EOF
