  0
SECTION
  2
HEADER
  9
$ACADVER
  1
AC1018
  9
$ACADMAINTVER
 70
     0
  9
$DWGCODEPAGE
  3
ANSI_1252
  9
$INSBASE
 10
0.0
 20
0.0
 30
0.0
  9
$EXTMIN
 10
-415.499999999989
 20
-267.0000000000051
 30
0.0
  9
$EXTMAX
 10
-118.4999999999909
 20
-57.000000000005
 30
0.0
  9
$LIMMIN
 10
0.0
 20
0.0
  9
$LIMMAX
 10
12.0
 20
9.0
  9
$ORTHOMODE
 70
     0
  9
$REGENMODE
 70
     1
  9
$FILLMODE
 70
     1
  9
$QTEXTMODE
 70
     0
  9
$MIRRTEXT
 70
     1
  9
$LTSCALE
 40
1.0
  9
$ATTMODE
 70
     1
  9
$TEXTSIZE
 40
0.2
  9
$TRACEWID
 40
0.05
  9
$TEXTSTYLE
  7
Standard
  9
$CLAYER
  8
0
  9
$CELTYPE
  6
ByLayer
  9
$CECOLOR
 62
   256
  9
$CELTSCALE
 40
1.0
  9
$DISPSILH
 70
     0
  9
$DIMSCALE
 40
1.0
  9
$DIMASZ
 40
0.18
  9
$DIMEXO
 40
0.0625
  9
$DIMDLI
 40
0.38
  9
$DIMRND
 40
0.0
  9
$DIMDLE
 40
0.0
  9
$DIMEXE
 40
0.18
  9
$DIMTP
 40
0.0
  9
$DIMTM
 40
0.0
  9
$DIMTXT
 40
0.18
  9
$DIMCEN
 40
0.09
  9
$DIMTSZ
 40
0.0
  9
$DIMTOL
 70
     0
  9
$DIMLIM
 70
     0
  9
$DIMTIH
 70
     1
  9
$DIMTOH
 70
     1
  9
$DIMSE1
 70
     0
  9
$DIMSE2
 70
     0
  9
$DIMTAD
 70
     0
  9
$DIMZIN
 70
     0
  9
$DIMBLK
  1

  9
$DIMASO
 70
     1
  9
$DIMSHO
 70
     1
  9
$DIMPOST
  1

  9
$DIMAPOST
  1

  9
$DIMALT
 70
     0
  9
$DIMALTD
 70
     2
  9
$DIMALTF
 40
25.4
  9
$DIMLFAC
 40
1.0
  9
$DIMTOFL
 70
     0
  9
$DIMTVP
 40
0.0
  9
$DIMTIX
 70
     0
  9
$DIMSOXD
 70
     0
  9
$DIMSAH
 70
     0
  9
$DIMBLK1
  1

  9
$DIMBLK2
  1

  9
$DIMSTYLE
  2
Standard
  9
$DIMCLRD
 70
     0
  9
$DIMCLRE
 70
     0
  9
$DIMCLRT
 70
     0
  9
$DIMTFAC
 40
1.0
  9
$DIMGAP
 40
0.09
  9
$DIMJUST
 70
     0
  9
$DIMSD1
 70
     0
  9
$DIMSD2
 70
     0
  9
$DIMTOLJ
 70
     1
  9
$DIMTZIN
 70
     0
  9
$DIMALTZ
 70
     0
  9
$DIMALTTZ
 70
     0
  9
$DIMUPT
 70
     0
  9
$DIMDEC
 70
     4
  9
$DIMTDEC
 70
     4
  9
$DIMALTU
 70
     2
  9
$DIMALTTD
 70
     2
  9
$DIMTXSTY
  7
Standard
  9
$DIMAUNIT
 70
     0
  9
$DIMADEC
 70
     0
  9
$DIMALTRND
 40
0.0
  9
$DIMAZIN
 70
     0
  9
$DIMDSEP
 70
    46
  9
$DIMATFIT
 70
     3
  9
$DIMFRAC
 70
     0
  9
$DIMLDRBLK
  1

  9
$DIMLUNIT
 70
     2
  9
$DIMLWD
 70
    -2
  9
$DIMLWE
 70
    -2
  9
$DIMTMOVE
 70
     0
  9
$LUNITS
 70
     2
  9
$LUPREC
 70
     4
  9
$SKETCHINC
 40
0.1
  9
$FILLETRAD
 40
0.5
  9
$AUNITS
 70
     0
  9
$AUPREC
 70
     0
  9
$MENU
  1
.
  9
$ELEVATION
 40
0.0
  9
$PELEVATION
 40
0.0
  9
$THICKNESS
 40
0.0
  9
$LIMCHECK
 70
     0
  9
$CHAMFERA
 40
0.5
  9
$CHAMFERB
 40
0.5
  9
$CHAMFERC
 40
1.0
  9
$CHAMFERD
 40
0.0
  9
$SKPOLY
 70
     0
  9
$TDCREATE
 40
2458102.519806354
  9
$TDUCREATE
 40
2458102.478139687
  9
$TDUPDATE
 40
2458102.519806887
  9
$TDUUPDATE
 40
2458102.47814022
  9
$TDINDWG
 40
0.0000000116
  9
$TDUSRTIMER
 40
0.0000000116
  9
$USRTIMER
 70
     1
  9
$ANGBASE
 50
0.0
  9
$ANGDIR
 70
     0
  9
$PDMODE
 70
     0
  9
$PDSIZE
 40
0.0
  9
$PLINEWID
 40
0.0
  9
$SPLFRAME
 70
     0
  9
$SPLINETYPE
 70
     6
  9
$SPLINESEGS
 70
     8
  9
$HANDSEED
  5
49C
  9
$SURFTAB1
 70
     6
  9
$SURFTAB2
 70
     6
  9
$SURFTYPE
 70
     6
  9
$SURFU
 70
     6
  9
$SURFV
 70
     6
  9
$UCSBASE
  2

  9
$UCSNAME
  2

  9
$UCSORG
 10
0.0
 20
0.0
 30
0.0
  9
$UCSXDIR
 10
1.0
 20
0.0
 30
0.0
  9
$UCSYDIR
 10
0.0
 20
1.0
 30
0.0
  9
$UCSORTHOREF
  2

  9
$UCSORTHOVIEW
 70
     0
  9
$UCSORGTOP
 10
0.0
 20
0.0
 30
0.0
  9
$UCSORGBOTTOM
 10
0.0
 20
0.0
 30
0.0
  9
$UCSORGLEFT
 10
0.0
 20
0.0
 30
0.0
  9
$UCSORGRIGHT
 10
0.0
 20
0.0
 30
0.0
  9
$UCSORGFRONT
 10
0.0
 20
0.0
 30
0.0
  9
$UCSORGBACK
 10
0.0
 20
0.0
 30
0.0
  9
$PUCSBASE
  2

  9
$PUCSNAME
  2

  9
$PUCSORG
 10
0.0
 20
0.0
 30
0.0
  9
$PUCSXDIR
 10
1.0
 20
0.0
 30
0.0
  9
$PUCSYDIR
 10
0.0
 20
1.0
 30
0.0
  9
$PUCSORTHOREF
  2

  9
$PUCSORTHOVIEW
 70
     0
  9
$PUCSORGTOP
 10
0.0
 20
0.0
 30
0.0
  9
$PUCSORGBOTTOM
 10
0.0
 20
0.0
 30
0.0
  9
$PUCSORGLEFT
 10
0.0
 20
0.0
 30
0.0
  9
$PUCSORGRIGHT
 10
0.0
 20
0.0
 30
0.0
  9
$PUCSORGFRONT
 10
0.0
 20
0.0
 30
0.0
  9
$PUCSORGBACK
 10
0.0
 20
0.0
 30
0.0
  9
$USERI1
 70
     0
  9
$USERI2
 70
     0
  9
$USERI3
 70
     0
  9
$USERI4
 70
     0
  9
$USERI5
 70
     0
  9
$USERR1
 40
18.1
  9
$USERR2
 40
0.0
  9
$USERR3
 40
0.0
  9
$USERR4
 40
0.0
  9
$USERR5
 40
0.0
  9
$WORLDVIEW
 70
     1
  9
$SHADEDGE
 70
     3
  9
$SHADEDIF
 70
    70
  9
$TILEMODE
 70
     1
  9
$MAXACTVP
 70
    64
  9
$PINSBASE
 10
0.0
 20
0.0
 30
0.0
  9
$PLIMCHECK
 70
     0
  9
$PEXTMIN
 10
1.00000000000000E+20
 20
1.00000000000000E+20
 30
1.00000000000000E+20
  9
$PEXTMAX
 10
-1.00000000000000E+20
 20
-1.00000000000000E+20
 30
-1.00000000000000E+20
  9
$PLIMMIN
 10
0.0
 20
0.0
  9
$PLIMMAX
 10
12.0
 20
9.0
  9
$UNITMODE
 70
     0
  9
$VISRETAIN
 70
     1
  9
$PLINEGEN
 70
     0
  9
$PSLTSCALE
 70
     1
  9
$TREEDEPTH
 70
  3020
  9
$CMLSTYLE
  2
Standard
  9
$CMLJUST
 70
     0
  9
$CMLSCALE
 40
1.0
  9
$PROXYGRAPHICS
 70
     1
  9
$MEASUREMENT
 70
     1
  9
$CELWEIGHT
370
    -1
  9
$ENDCAPS
280
     0
  9
$JOINSTYLE
280
     0
  9
$LWDISPLAY
290
     0
  9
$INSUNITS
 70
     4
  9
$HYPERLINKBASE
  1

  9
$STYLESHEET
  1

  9
$XEDIT
290
     1
  9
$CEPSNTYPE
380
     0
  9
$PSTYLEMODE
290
     1
  9
$FINGERPRINTGUID
  2
{EC4D6F33-5DB7-434C-8216-D87C651F0053}
  9
$VERSIONGUID
  2
{FAEB1C32-E019-11D5-929B-00C0DF256EC4}
  9
$EXTNAMES
290
     1
  9
$PSVPSCALE
 40
0.0
  9
$OLESTARTUP
290
     0
  9
$SORTENTS
280
   127
  9
$INDEXCTL
280
     0
  9
$HIDETEXT
280
     1
  9
$XCLIPFRAME
290
     0
  9
$HALOGAP
280
     0
  9
$OBSCOLOR
 70
   257
  9
$OBSLTYPE
280
     0
  9
$INTERSECTIONDISPLAY
280
     0
  9
$INTERSECTIONCOLOR
 70
   257
  9
$DIMASSOC
280
     2
  9
$PROJECTNAME
  1

  0
ENDSEC
  0
SECTION
  2
CLASSES
  0
CLASS
  1
ACDBDICTIONARYWDFLT
  2
AcDbDictionaryWithDefault
  3
ObjectDBX Classes
 90
        0
 91
        4
280
     0
281
     0
  0
CLASS
  1
VISUALSTYLE
  2
AcDbVisualStyle
  3
ObjectDBX Classes
 90
     4095
 91
        4
280
     0
281
     0
  0
CLASS
  1
MATERIAL
  2
AcDbMaterial
  3
ObjectDBX Classes
 90
     1153
 91
        4
280
     0
281
     0
  0
ENDSEC
  0
SECTION
  2
TABLES
  0
TABLE
  2
VPORT
  5
8
330
0
100
AcDbSymbolTable
 70
     1
  0
VPORT
  5
29
330
8
100
AcDbSymbolTableRecord
100
AcDbViewportTableRecord
  2
*Active
 70
     0
 10
0.0
 20
0.0
 11
1.0
 21
1.0
 12
-266.9999999999899
 22
-162.0000000000051
 13
0.0
 23
0.0
 14
0.5
 24
0.5
 15
0.5
 25
0.5
 16
0.0
 26
0.0
 36
1.0
 17
0.0
 27
0.0
 37
0.0
 40
231.0000000000001
 41
1.60267857142857
 42
50.0
 43
0.0
 44
0.0
 50
0.0
 51
0.0
 71
     0
 72
   100
 73
     1
 74
     3
 75
     0
 76
     0
 77
     0
 78
     0
281
     0
 65
     1
110
0.0
120
0.0
130
0.0
111
1.0
121
0.0
131
0.0
112
0.0
122
1.0
132
0.0
 79
     0
146
0.0
  0
ENDTAB
  0
TABLE
  2
LTYPE
  5
5
330
0
100
AcDbSymbolTable
 70
     8
  0
LTYPE
  5
14
330
5
100
AcDbSymbolTableRecord
100
AcDbLinetypeTableRecord
  2
ByBlock
 70
     0
  3

 72
    65
 73
     0
 40
0.0
  0
LTYPE
  5
15
330
5
100
AcDbSymbolTableRecord
100
AcDbLinetypeTableRecord
  2
ByLayer
 70
     0
  3

 72
    65
 73
     0
 40
0.0
  0
LTYPE
  5
16
330
5
100
AcDbSymbolTableRecord
100
AcDbLinetypeTableRecord
  2
Continuous
 70
     0
  3
Solid line
 72
    65
 73
     0
 40
0.0
  0
LTYPE
  5
3F
330
5
100
AcDbSymbolTableRecord
100
AcDbLinetypeTableRecord
  2
DASHED
 70
     0
  3
Dashed
 72
    65
 73
     2
 40
15.0
 49
7.0
 74
     0
 49
-8.0
 74
     0
  0
LTYPE
  5
40
330
5
100
AcDbSymbolTableRecord
100
AcDbLinetypeTableRecord
  2
DOTTED
 70
     0
  3
Dotted
 72
    65
 73
     2
 40
1.0
 49
0.0
 74
     0
 49
-1.0
 74
     0
  0
LTYPE
  5
41
330
5
100
AcDbSymbolTableRecord
100
AcDbLinetypeTableRecord
  2
DOT_CENTER
 70
     0
  3
Dot_Center
 72
    65
 73
     4
 40
14.0
 49
12.0
 74
     0
 49
-1.0
 74
     0
 49
0.0
 74
     0
 49
-1.0
 74
     0
  0
LTYPE
  5
42
330
5
100
AcDbSymbolTableRecord
100
AcDbLinetypeTableRecord
  2
LONG_DASHED
 70
     0
  3
Long_Dashed
 72
    65
 73
     2
 40
15.0
 49
10.0
 74
     0
 49
-5.0
 74
     0
  0
LTYPE
  5
43
330
5
100
AcDbSymbolTableRecord
100
AcDbLinetypeTableRecord
  2
DASH_CENTER
 70
     0
  3
Dash_Center
 72
    65
 73
     4
 40
14.0
 49
11.0
 74
     0
 49
-1.0
 74
     0
 49
1.0
 74
     0
 49
-1.0
 74
     0
  0
LTYPE
  5
44
330
5
100
AcDbSymbolTableRecord
100
AcDbLinetypeTableRecord
  2
PHANTOM
 70
     0
  3
Phantom
 72
    65
 73
     6
 40
13.0
 49
10.0
 74
     0
 49
-1.0
 74
     0
 49
0.0
 74
     0
 49
-1.0
 74
     0
 49
0.0
 74
     0
 49
-1.0
 74
     0
  0
LTYPE
  5
45
330
5
100
AcDbSymbolTableRecord
100
AcDbLinetypeTableRecord
  2
CENTER_DASH_DASH
 70
     0
  3
Center_Dash_Dash
 72
    65
 73
     6
 40
14.0
 49
9.0
 74
     0
 49
-1.0
 74
     0
 49
1.0
 74
     0
 49
-1.0
 74
     0
 49
1.0
 74
     0
 49
-1.0
 74
     0
  0
ENDTAB
  0
TABLE
  2
LAYER
  5
2
330
0
100
AcDbSymbolTable
 70
     2
  0
LAYER
  5
10
330
2
100
AcDbSymbolTableRecord
100
AcDbLayerTableRecord
  2
0
 70
     0
 62
     7
  6
Continuous
370
    -3
390
F
  0
LAYER
  5
46
330
2
100
AcDbSymbolTableRecord
100
AcDbLayerTableRecord
  2
1
 70
     0
 62
     7
  6
Continuous
370
    -3
390
F
  0
ENDTAB
  0
TABLE
  2
STYLE
  5
3
330
0
100
AcDbSymbolTable
 70
     5
  0
STYLE
  5
11
330
3
100
AcDbSymbolTableRecord
100
AcDbTextStyleTableRecord
  2
Standard
 70
     0
 40
0.0
 41
1.0
 50
0.0
 71
     0
 42
0.2
  3
txt
  4

  0
STYLE
  5
163
330
3
100
AcDbSymbolTableRecord
100
AcDbTextStyleTableRecord
  2
CONVERTER_11
 70
     0
 40
0.0
 41
0.9
 50
0.0
 71
     0
 42
0.2
  3
txt.shx
  4

  0
STYLE
  5
432
330
3
100
AcDbSymbolTableRecord
100
AcDbTextStyleTableRecord
  2
CONVERTER_12
 70
     0
 40
0.0
 41
0.81
 50
0.0
 71
     0
 42
0.2
  3
txt.shx
  4

  0
STYLE
  5
438
330
3
100
AcDbSymbolTableRecord
100
AcDbTextStyleTableRecord
  2
CONVERTER_13
 70
     0
 40
0.0
 41
0.855
 50
0.0
 71
     0
 42
0.2
  3
txt.shx
  4

  0
STYLE
  5
43B
330
3
100
AcDbSymbolTableRecord
100
AcDbTextStyleTableRecord
  2
CONVERTER_14
 70
     0
 40
0.0
 41
0.72
 50
0.0
 71
     0
 42
0.2
  3
txt.shx
  4

  0
ENDTAB
  0
TABLE
  2
VIEW
  5
6
330
0
100
AcDbSymbolTable
 70
     0
  0
ENDTAB
  0
TABLE
  2
UCS
  5
7
330
0
100
AcDbSymbolTable
 70
     0
  0
ENDTAB
  0
TABLE
  2
APPID
  5
9
330
0
100
AcDbSymbolTable
 70
     1
  0
APPID
  5
12
330
9
100
AcDbSymbolTableRecord
100
AcDbRegAppTableRecord
  2
ACAD
 70
     0
  0
ENDTAB
  0
TABLE
  2
DIMSTYLE
  5
A
330
0
100
AcDbSymbolTable
 70
     7
100
AcDbDimStyleTable
  0
DIMSTYLE
105
27
330
A
100
AcDbSymbolTableRecord
100
AcDbDimStyleTableRecord
  2
Standard
 70
     0
178
     0
340
11
  0
DIMSTYLE
105
1AF
102
{ACAD_REACTORS
330
1B0
102
}
330
A
100
AcDbSymbolTableRecord
100
AcDbDimStyleTableRecord
  2
ME10_DIM_10
 70
     0
 41
3.5
 42
0.0
 44
1.5
 73
     0
 74
     0
 77
     1
 78
     8
140
3.5
147
1.5
172
     1
173
     1
174
     1
175
     1
176
     2
177
     2
178
     3
340
163
  0
DIMSTYLE
105
30D
102
{ACAD_REACTORS
330
30E
102
}
330
A
100
AcDbSymbolTableRecord
100
AcDbDimStyleTableRecord
  2
ME10_DIM_11
 70
     0
 41
3.5
 42
0.0
 44
1.5
 73
     0
 74
     0
 77
     1
 78
     8
140
3.5
147
1.5
172
     1
173
     1
174
     1
175
     1
176
     2
177
     2
178
     3
340
163
  0
DIMSTYLE
105
318
102
{ACAD_REACTORS
330
319
102
}
330
A
100
AcDbSymbolTableRecord
100
AcDbDimStyleTableRecord
  2
ME10_DIM_12
 70
     0
 41
3.5
 42
0.0
 44
1.5
 73
     0
 74
     0
 77
     1
 78
     8
140
3.5
147
1.5
172
     1
173
     1
174
     1
175
     1
176
     2
177
     2
178
     3
340
163
  0
DIMSTYLE
105
323
102
{ACAD_REACTORS
330
324
102
}
330
A
100
AcDbSymbolTableRecord
100
AcDbDimStyleTableRecord
  2
ME10_DIM_13
 70
     0
 41
3.5
 42
0.0
 44
1.5
 73
     0
 74
     0
 77
     1
 78
     8
140
3.5
147
1.5
172
     1
173
     1
174
     1
175
     1
176
     2
177
     2
178
     3
340
163
  0
DIMSTYLE
105
32E
102
{ACAD_REACTORS
330
32F
102
}
330
A
100
AcDbSymbolTableRecord
100
AcDbDimStyleTableRecord
  2
ME10_DIM_14
 70
     0
 41
3.5
 42
0.0
 44
1.5
 73
     0
 74
     0
 77
     1
 78
     8
140
3.5
147
1.5
172
     1
173
     1
174
     1
175
     1
176
     2
177
     2
178
     3
340
163
  0
DIMSTYLE
105
339
102
{ACAD_REACTORS
330
33A
102
}
330
A
100
AcDbSymbolTableRecord
100
AcDbDimStyleTableRecord
  2
ME10_DIM_15
 70
     0
 41
3.5
 42
0.0
 44
1.5
 73
     0
 74
     0
 77
     1
 78
     8
140
3.5
147
1.5
172
     1
173
     1
174
     1
175
     1
176
     2
177
     2
178
     3
340
163
  0
ENDTAB
  0
TABLE
  2
BLOCK_RECORD
  5
1
330
0
100
AcDbSymbolTable
 70
    23
  0
BLOCK_RECORD
  5
1F
330
1
100
AcDbSymbolTableRecord
100
AcDbBlockTableRecord
  2
*Model_Space
340
22
  0
BLOCK_RECORD
  5
1B
330
1
100
AcDbSymbolTableRecord
100
AcDbBlockTableRecord
  2
*Paper_Space
340
1E
  0
BLOCK_RECORD
  5
23
330
1
100
AcDbSymbolTableRecord
100
AcDbBlockTableRecord
  2
*Paper_Space0
340
26
  0
BLOCK_RECORD
  5
47
330
1
100
AcDbSymbolTableRecord
100
AcDbBlockTableRecord
  2
OTTA_6-P_P-select__1
340
0
102
{BLKREFS
331
4B
102
}
  0
BLOCK_RECORD
  5
4A
330
1
100
AcDbSymbolTableRecord
100
AcDbBlockTableRecord
  2
Allg1
340
0
102
{BLKREFS
331
7D
102
}
  0
BLOCK_RECORD
  5
4E
330
1
100
AcDbSymbolTableRecord
100
AcDbBlockTableRecord
  2
OTTA_6-P_P-select__2
340
0
102
{BLKREFS
331
52
102
}
  0
BLOCK_RECORD
  5
51
330
1
100
AcDbSymbolTableRecord
100
AcDbBlockTableRecord
  2
Drfsicht1
340
0
102
{BLKREFS
331
7E
102
}
  0
BLOCK_RECORD
  5
55
330
1
100
AcDbSymbolTableRecord
100
AcDbBlockTableRecord
  2
OTTA_6-P_P-select__3
340
0
102
{BLKREFS
331
59
102
}
  0
BLOCK_RECORD
  5
58
330
1
100
AcDbSymbolTableRecord
100
AcDbBlockTableRecord
  2
Rckans1
340
0
102
{BLKREFS
331
7F
102
}
  0
BLOCK_RECORD
  5
5C
330
1
100
AcDbSymbolTableRecord
100
AcDbBlockTableRecord
  2
OTTA_6-P_P-select__4
340
0
102
{BLKREFS
331
60
102
}
  0
BLOCK_RECORD
  5
5F
330
1
100
AcDbSymbolTableRecord
100
AcDbBlockTableRecord
  2
SA_Links1
340
0
102
{BLKREFS
331
80
102
}
  0
BLOCK_RECORD
  5
63
330
1
100
AcDbSymbolTableRecord
100
AcDbBlockTableRecord
  2
OTTA_6-P_P-select__5
340
0
102
{BLKREFS
331
67
102
}
  0
BLOCK_RECORD
  5
66
330
1
100
AcDbSymbolTableRecord
100
AcDbBlockTableRecord
  2
SA_Rechts1
340
0
102
{BLKREFS
331
81
102
}
  0
BLOCK_RECORD
  5
6A
330
1
100
AcDbSymbolTableRecord
100
AcDbBlockTableRecord
  2
OTTA_6-P_P-select__6
340
0
102
{BLKREFS
331
6E
102
}
  0
BLOCK_RECORD
  5
6D
330
1
100
AcDbSymbolTableRecord
100
AcDbBlockTableRecord
  2
Vordans1
340
0
102
{BLKREFS
331
82
102
}
  0
BLOCK_RECORD
  5
71
330
1
100
AcDbSymbolTableRecord
100
AcDbBlockTableRecord
  2
_rahmen
340
0
102
{BLKREFS
331
78
102
}
  0
BLOCK_RECORD
  5
74
330
1
100
AcDbSymbolTableRecord
100
AcDbBlockTableRecord
  2
_punkt
340
0
102
{BLKREFS
331
79
102
}
  0
BLOCK_RECORD
  5
77
330
1
100
AcDbSymbolTableRecord
100
AcDbBlockTableRecord
  2
A4I_CS
340
0
102
{BLKREFS
331
83
102
}
  0
BLOCK_RECORD
  5
7C
330
1
100
AcDbSymbolTableRecord
100
AcDbBlockTableRecord
  2
1
340
0
102
{BLKREFS
331
86
102
}
  0
BLOCK_RECORD
  5
1A6
330
1
100
AcDbSymbolTableRecord
100
AcDbBlockTableRecord
  2
*D17
340
0
  0
BLOCK_RECORD
  5
304
330
1
100
AcDbSymbolTableRecord
100
AcDbBlockTableRecord
  2
*D18
340
0
  0
BLOCK_RECORD
  5
30F
330
1
100
AcDbSymbolTableRecord
100
AcDbBlockTableRecord
  2
*D19
340
0
  0
BLOCK_RECORD
  5
31A
330
1
100
AcDbSymbolTableRecord
100
AcDbBlockTableRecord
  2
*D20
340
0
  0
BLOCK_RECORD
  5
325
330
1
100
AcDbSymbolTableRecord
100
AcDbBlockTableRecord
  2
*D21
340
0
  0
BLOCK_RECORD
  5
330
330
1
100
AcDbSymbolTableRecord
100
AcDbBlockTableRecord
  2
*D22
340
0
  0
ENDTAB
  0
ENDSEC
  0
SECTION
  2
BLOCKS
  0
BLOCK
  5
20
330
1F
100
AcDbEntity
  8
0
100
AcDbBlockBegin
  2
*Model_Space
 70
     0
 10
0.0
 20
0.0
 30
0.0
  3
*Model_Space
  1

  0
ENDBLK
  5
21
330
1F
100
AcDbEntity
  8
0
100
AcDbBlockEnd
  0
BLOCK
  5
1C
330
1B
100
AcDbEntity
 67
     1
  8
0
100
AcDbBlockBegin
  2
*Paper_Space
 70
     0
 10
0.0
 20
0.0
 30
0.0
  3
*Paper_Space
  1

  0
ENDBLK
  5
1D
330
1B
100
AcDbEntity
 67
     1
  8
0
100
AcDbBlockEnd
  0
BLOCK
  5
24
330
23
100
AcDbEntity
  8
0
100
AcDbBlockBegin
  2
*Paper_Space0
 70
     0
 10
0.0
 20
0.0
 30
0.0
  3
*Paper_Space0
  1

  0
ENDBLK
  5
25
330
23
100
AcDbEntity
  8
0
100
AcDbBlockEnd
  0
BLOCK
  5
48
330
47
100
AcDbEntity
  8
0
100
AcDbBlockBegin
  2
OTTA_6-P_P-select__1
 70
     0
 10
-184.5860519341306
 20
-221.631515966598
 30
0.0
  3
OTTA_6-P_P-select__1
  1

  0
LINE
  5
87
330
47
100
AcDbEntity
  8
0
  6
Continuous
 62
     7
100
AcDbLine
 10
-150.3773097986762
 20
-172.449734463345
 30
0.0
 11
-170.1226890049618
 21
-166.7497344633449
 31
0.0
  0
LINE
  5
88
330
47
100
AcDbEntity
  8
0
  6
Continuous
 62
     7
100
AcDbLine
 10
-141.4139468695074
 20
-182.1174903516706
 30
0.0
 11
-146.9139468695074
 21
-186.880630072485
 31
0.0
  0
LINE
  5
89
330
47
100
AcDbEntity
  8
0
  6
Continuous
 62
     7
100
AcDbLine
 10
-172.6199321913954
 20
-192.1539421312157
 30
0.0
 11
-177.0949321913954
 21
-196.029405813151
 31
0.0
  0
LINE
  5
8A
330
47
100
AcDbEntity
  8
0
  6
Continuous
 62
     7
100
AcDbLine
 10
-155.7474059881143
 20
-195.0905096264793
 30
0.0
 11
-146.9139468695074
 21
-197.640509626475
 31
0.0
  0
LINE
  5
8B
330
47
100
AcDbEntity
  8
0
  6
Continuous
 62
     7
100
AcDbLine
 10
-165.1437816191698
 20
-194.1966508500661
 30
0.0
 11
-157.6093606062452
 21
-196.3716508500662
 31
0.0
  0
LINE
  5
8C
330
47
100
AcDbEntity
  8
0
  6
Continuous
 62
     7
100
AcDbLine
 10
-165.1437816191699
 20
-199.4794058131511
 30
0.0
 11
-165.1437816191698
 21
-194.1966508500661
 31
0.0
  0
LINE
  5
8D
330
47
100
AcDbEntity
  8
0
  6
Continuous
 62
     7
100
AcDbLine
 10
-178.3073677566934
 20
-198.1042769437476
 30
0.0
 11
-177.0949321913954
 21
-197.0542769437478
 31
0.0
  0
LINE
  5
8E
330
47
100
AcDbEntity
  8
0
  6
Continuous
 62
     7
100
AcDbLine
 10
-178.3073677566934
 20
-198.1042769437476
 30
0.0
 11
-177.0949321913954
 21
-198.4542769437475
 31
0.0
  0
LINE
  5
8F
330
47
100
AcDbEntity
  8
0
  6
Continuous
 62
     7
100
AcDbLine
 10
-158.9039114138141
 20
-195.9979462214515
 30
0.0
 11
-158.9039114138141
 21
-199.0434688914266
 31
0.0
  0
LINE
  5
90
330
47
100
AcDbEntity
  8
0
  6
Continuous
 62
     7
100
AcDbLine
 10
-160.6687816191698
 20
-195.6039421312158
 30
0.0
 11
-158.9039114138141
 21
-196.1134162752892
 31
0.0
  0
LINE
  5
91
330
47
100
AcDbEntity
  8
0
  6
Continuous
 62
     7
100
AcDbLine
 10
-157.6093606062452
 20
-196.3716508500662
 30
0.0
 11
-155.7474059881143
 21
-195.0905096264793
 31
0.0
  0
LINE
  5
92
330
47
100
AcDbEntity
  8
0
  6
Continuous
 62
     7
100
AcDbLine
 10
-154.9039114138141
 20
-195.334005536245
 30
0.0
 11
-154.9039114138141
 21
-199.0434688914266
 31
0.0
  0
LINE
  5
93
330
47
100
AcDbEntity
  8
0
  6
Continuous
 62
     7
100
AcDbLine
 10
-154.9039114138141
 20
-197.2681168136685
 30
0.0
 11
-149.9300666122431
 21
-198.7039421312157
 31
0.0
  0
LINE
  5
94
330
47
100
AcDbEntity
  8
0
  6
Continuous
 62
     7
100
AcDbLine
 10
-146.9139468695074
 20
-197.640509626475
 30
0.0
 11
-146.9139468695074
 21
-186.880630072485
 31
0.0
  0
LINE
  5
95
330
47
100
AcDbEntity
  8
0
  6
Continuous
 62
     7
100
AcDbLine
 10
-171.7210873898241
 20
-192.2979462214513
 30
0.0
 11
-171.7210873898241
 21
-195.3434688914265
 31
0.0
  0
LINE
  5
96
330
47
100
AcDbEntity
  8
0
  6
Continuous
 62
     7
100
AcDbLine
 10
-167.7210873898241
 20
-193.4526467598306
 30
0.0
 11
-167.7210873898241
 21
-195.3434688914265
 31
0.0
  0
LINE
  5
97
330
47
100
AcDbEntity
  8
0
  6
Continuous
 62
     7
100
AcDbLine
 10
-172.6199321913954
 20
-192.1539421312157
 30
0.0
 11
-171.7210873898241
 21
-192.4134162752891
 31
0.0
  0
LINE
  5
98
330
47
100
AcDbEntity
  8
0
  6
Continuous
 62
     7
100
AcDbLine
 10
-167.7210873898241
 20
-193.5681168136684
 30
0.0
 11
-166.3562171844681
 21
-193.962120903904
 31
0.0
  0
LINE
  5
99
330
47
100
AcDbEntity
  8
0
  6
Continuous
 62
     7
100
AcDbLine
 10
-150.3133558283722
 20
-186.0566555562563
 30
0.0
 11
-148.7203668375778
 21
-185.3162244902325
 31
0.0
  0
LINE
  5
9A
330
47
100
AcDbEntity
  8
0
  6
Continuous
 62
     7
100
AcDbLine
 10
-149.9294646270085
 20
-186.3891150889263
 30
0.0
 11
-150.3133558283722
 21
-186.0566555562563
 31
0.0
  0
LINE
  5
9B
330
47
100
AcDbEntity
  8
0
  6
Continuous
 62
     7
100
AcDbLine
 10
-150.3862930275049
 20
-187.0484900889261
 30
0.0
 11
-149.9294646270085
 21
-186.3891150889263
 31
0.0
  0
LINE
  5
9C
330
47
100
AcDbEntity
  8
0
  6
Continuous
 62
     7
100
AcDbLine
 10
-148.7203668375778
 20
-185.3162244902325
 30
0.0
 11
-146.9139468695074
 21
-186.880630072485
 31
0.0
  0
LINE
  5
9D
330
47
100
AcDbEntity
  8
0
  6
Continuous
 62
     7
100
AcDbLine
 10
-141.4139468695071
 20
-216.0435373325382
 30
0.0
 11
-141.4139468695074
 21
-182.1174903516706
 31
0.0
  0
LINE
  5
9E
330
47
100
AcDbEntity
  8
0
  6
Continuous
 62
     7
100
AcDbLine
 10
-142.4389468695073
 20
-193.7650459445397
 30
0.0
 11
-146.9139468695074
 21
-197.640509626475
 31
0.0
  0
LINE
  5
9F
330
47
100
AcDbEntity
  8
0
  6
Continuous
 62
     7
100
AcDbLine
 10
-155.1112930275049
 20
-182.9565200560446
 30
0.0
 11
-154.5021884935096
 21
-182.4290200560446
 31
0.0
  0
LINE
  5
A0
330
47
100
AcDbEntity
  8
0
  6
Continuous
 62
     7
100
AcDbLine
 10
-160.6687816191698
 20
-195.6039421312158
 30
0.0
 11
-165.1437816191699
 21
-199.4794058131511
 31
0.0
  0
LINE
  5
A1
330
47
100
AcDbEntity
  8
0
  6
Continuous
 62
     7
100
AcDbLine
 10
-154.7638050518872
 20
-212.5561307080609
 30
0.0
 11
-155.8773097986763
 21
-213.5204541060147
 31
0.0
  0
LINE
  5
A2
330
47
100
AcDbEntity
  8
0
  6
Continuous
 62
     7
100
AcDbLine
 10
-170.4698378524441
 20
-210.0526840725591
 30
0.0
 11
-171.187903043075
 21
-210.6745467692186
 31
0.0
  0
LINE
  5
A3
330
47
100
AcDbEntity
  8
0
  6
Continuous
 62
     2
100
AcDbLine
 10
-155.8773097986763
 20
-212.5900119287536
 30
0.0
 11
-155.5061560541973
 21
-212.2685833573251
 31
0.0
  0
LINE
  5
A4
330
47
100
AcDbEntity
  8
0
  6
Continuous
 62
     2
100
AcDbLine
 10
-170.7296454735795
 20
-210.5974792487825
 30
0.0
 11
-170.4698378524441
 21
-210.3724792487825
 31
0.0
  0
LINE
  5
A5
330
47
100
AcDbEntity
  8
0
  6
Continuous
 62
     7
100
AcDbLine
 10
-184.5860519341306
 20
-199.1496607762364
 30
0.0
 11
-180.1110519341306
 21
-195.274197094301
 31
0.0
  0
LINE
  5
A6
330
47
100
AcDbEntity
  8
0
  6
Continuous
 62
     7
100
AcDbLine
 10
-179.0860519341306
 20
-171.2424903516707
 30
0.0
 11
-184.5860519341306
 21
-176.0056300724851
 31
0.0
  0
LINE
  5
A7
330
47
100
AcDbEntity
  8
0
  6
Continuous
 62
     7
100
AcDbLine
 10
-177.2796319660602
 20
-170.721021824253
 30
0.0
 11
-182.7796319660602
 21
-175.4841615450675
 31
0.0
  0
LINE
  5
A8
330
47
100
AcDbEntity
  8
0
  6
Continuous
 62
     7
100
AcDbLine
 10
-181.1866429752662
 20
-177.1443052337424
 30
0.0
 11
-175.6866429752662
 21
-172.381165512928
 31
0.0
  0
LINE
  5
A9
330
47
100
AcDbEntity
  8
0
  6
Continuous
 62
     7
100
AcDbLine
 10
-176.3887057761332
 20
-176.8142600670049
 30
0.0
 11
-176.8455341766294
 21
-175.8911350670047
 31
0.0
  0
LINE
  5
AA
330
47
100
AcDbEntity
  8
0
  6
Continuous
 62
     7
100
AcDbLine
 10
-175.6226890049618
 20
-173.418130072485
 30
0.0
 11
-175.6226890049619
 21
-171.5128741841593
 31
0.0
  0
LINE
  5
AB
330
47
100
AcDbEntity
  8
0
  6
Continuous
 62
     7
100
AcDbLine
 10
-182.7796319660602
 20
-175.4841615450675
 30
0.0
 11
-184.5860519341306
 21
-176.0056300724851
 31
0.0
  0
LINE
  5
AC
330
47
100
AcDbEntity
  8
0
  6
Continuous
 62
     7
100
AcDbLine
 10
-182.0096263578718
 20
-208.405014629371
 30
0.0
 11
-184.4803660675922
 21
-210.5447379841278
 31
0.0
  0
LINE
  5
AD
330
47
100
AcDbEntity
  8
0
  6
Continuous
 62
     7
100
AcDbLine
 10
-184.5860519341305
 20
-210.797702457137
 30
0.0
 11
-184.5860519341305
 21
-212.962765966598
 31
0.0
  0
LINE
  5
AE
330
47
100
AcDbEntity
  8
0
  6
Continuous
 62
     7
100
AcDbLine
 10
-184.5860519341306
 20
-202.5704611211847
 30
0.0
 11
-184.5860519341306
 21
-199.1496607762364
 31
0.0
  0
LINE
  5
AF
330
47
100
AcDbEntity
  8
0
  6
Continuous
 62
     7
100
AcDbLine
 10
-184.1530392322383
 20
-210.4896897552447
 30
0.0
 11
-183.9365328812922
 21
-210.5521897552448
 31
0.0
  0
LINE
  5
B0
330
47
100
AcDbEntity
  8
0
  6
Continuous
 62
     7
100
AcDbLine
 10
-182.0096263578718
 20
-209.9778902849032
 30
0.0
 11
-183.6092060459382
 21
-211.3631669301462
 31
0.0
  0
LINE
  5
B1
330
47
100
AcDbEntity
  8
0
  6
Continuous
 62
     7
100
AcDbLine
 10
-183.6767252601569
 20
-212.3159392926244
 30
0.0
 11
-182.0096263578718
 21
-210.8721892926244
 31
0.0
  0
LINE
  5
B2
330
47
100
AcDbEntity
  8
0
  6
Continuous
 62
     2
100
AcDbLine
 10
-184.1530392322383
 20
-210.4896897552447
 30
0.0
 11
-182.0096263578718
 21
-208.6334397552448
 31
0.0
  0
LINE
  5
B3
330
47
100
AcDbEntity
  8
0
  6
Continuous
 62
     2
100
AcDbLine
 10
-183.9365328812922
 20
-210.5521897552448
 30
0.0
 11
-182.0096263578718
 21
-208.8834397552448
 31
0.0
  0
LINE
  5
B4
330
47
100
AcDbEntity
  8
0
  6
Continuous
 62
     7
100
AcDbLine
 10
-177.0949321913954
 20
-196.1448758669893
 30
0.0
 11
-180.1110519341306
 21
-195.274197094301
 31
0.0
  0
LINE
  5
B5
330
47
100
AcDbEntity
  8
0
  6
Continuous
 62
     7
100
AcDbLine
 10
-184.5860519341306
 20
-186.7655096264678
 30
0.0
 11
-175.7525928155292
 21
-189.3155096264744
 31
0.0
  0
LINE
  5
B6
330
47
100
AcDbEntity
  8
0
  6
Continuous
 62
     7
100
AcDbLine
 10
-184.5860519341306
 20
-176.0056300724851
 30
0.0
 11
-184.5860519341306
 21
-186.7655096264678
 31
0.0
  0
LINE
  5
B7
330
47
100
AcDbEntity
  8
0
  6
Continuous
 62
     7
100
AcDbLine
 10
-181.1137057761334
 20
-178.1782500779654
 30
0.0
 11
-177.3570934258784
 21
-174.9249283504742
 31
0.0
  0
LINE
  5
B8
330
47
100
AcDbEntity
  8
0
  6
Continuous
 62
     7
100
AcDbLine
 10
-176.8455341766294
 20
-175.8911350670047
 30
0.0
 11
-177.229425377993
 21
-176.0019549112281
 31
0.0
  0
LINE
  5
B9
330
47
100
AcDbEntity
  8
0
  6
Continuous
 62
     7
100
AcDbLine
 10
-176.3887057761332
 20
-176.8142600670049
 30
0.0
 11
-181.1137057761334
 21
-178.1782500779654
 31
0.0
  0
LINE
  5
BA
330
47
100
AcDbEntity
  8
0
  6
Continuous
 62
     7
100
AcDbLine
 10
-181.5705341766297
 20
-177.2551250779653
 30
0.0
 11
-181.1137057761334
 21
-178.1782500779654
 31
0.0
  0
LINE
  5
BB
330
47
100
AcDbEntity
  8
0
  6
Continuous
 62
     7
100
AcDbLine
 10
-177.229425377993
 20
-176.0019549112281
 30
0.0
 11
-177.4724102432218
 21
-173.9520985999028
 31
0.0
  0
LINE
  5
BC
330
47
100
AcDbEntity
  8
0
  6
Continuous
 62
     7
100
AcDbLine
 10
-175.6226890049617
 20
-172.35019301765
 30
0.0
 11
-177.4724102432218
 21
-173.9520985999028
 31
0.0
  0
LINE
  5
BD
330
47
100
AcDbEntity
  8
0
  6
Continuous
 62
     7
100
AcDbLine
 10
-175.9937559363567
 20
-172.6471331390638
 30
0.0
 11
-175.9852989323571
 21
-172.6642224264388
 31
0.0
  0
LINE
  5
BE
330
47
100
AcDbEntity
  8
0
  6
Continuous
 62
     7
100
AcDbLine
 10
-180.1110519341306
 20
-188.057330853783
 30
0.0
 11
-180.1110519341306
 21
-195.274197094301
 31
0.0
  0
LINE
  5
BF
330
47
100
AcDbEntity
  8
0
  6
Continuous
 62
     7
100
AcDbLine
 10
-181.1866429752662
 20
-177.1443052337424
 30
0.0
 11
-182.7796319660602
 21
-175.4841615450675
 31
0.0
  0
LINE
  5
C0
330
47
100
AcDbEntity
  8
0
  6
Continuous
 62
     7
100
AcDbLine
 10
-181.1866429752662
 20
-177.1443052337424
 30
0.0
 11
-181.5705341766297
 21
-177.2551250779653
 31
0.0
  0
LINE
  5
C1
330
47
100
AcDbEntity
  8
0
  6
Continuous
 62
     7
100
AcDbLine
 10
-180.6456363469114
 20
-209.6835364072974
 30
0.0
 11
-177.3855794899868
 21
-206.8602443514191
 31
0.0
  0
LINE
  5
C2
330
47
100
AcDbEntity
  8
0
  6
Continuous
 62
     7
100
AcDbLine
 10
-179.8445628484109
 20
-208.7019941243111
 30
0.0
 11
-177.5770140750865
 21
-206.738239282292
 31
0.0
  0
LINE
  5
C3
330
47
100
AcDbEntity
  8
0
  6
Continuous
 62
     2
100
AcDbLine
 10
-179.8867238212625
 20
-208.0839622348376
 30
0.0
 11
-178.0867238212624
 21
-206.5251165080256
 31
0.0
  0
LINE
  5
C4
330
47
100
AcDbEntity
  8
0
  6
Continuous
 62
     2
100
AcDbLine
 10
-179.0651399850047
 20
-204.597223823077
 30
0.0
 11
-178.2776399850049
 21
-203.915228817597
 31
0.0
  0
LINE
  5
C5
330
47
100
AcDbEntity
  8
0
  6
Continuous
 62
     2
100
AcDbLine
 10
-180.7538895223843
 20
-203.8089918442879
 30
0.0
 11
-180.2268310557463
 21
-203.3525458228997
 31
0.0
  0
LINE
  5
C6
330
47
100
AcDbEntity
  8
0
  6
Continuous
 62
     2
100
AcDbLine
 10
-178.047560135558
 20
-204.890973823077
 30
0.0
 11
-177.597560135558
 21
-204.501262391374
 31
0.0
  0
LINE
  5
C7
330
47
100
AcDbEntity
  8
0
  6
Continuous
 62
     2
100
AcDbLine
 10
-180.5353426393606
 20
-207.2130178440769
 30
0.0
 11
-179.3518606649502
 21
-206.1880923893164
 31
0.0
  0
LINE
  5
C8
330
47
100
AcDbEntity
  8
0
  6
Continuous
 62
     7
100
AcDbLine
 10
-179.8445628484107
 20
-208.0961330593502
 30
0.0
 11
-178.0445717180958
 21
-206.5372950139109
 31
0.0
  0
LINE
  5
C9
330
47
100
AcDbEntity
  8
0
  6
Continuous
 62
     7
100
AcDbLine
 10
-179.6228293257174
 20
-203.5269061036113
 30
0.0
 11
-181.2909624654119
 21
-204.9715517794814
 31
0.0
  0
LINE
  5
CA
330
47
100
AcDbEntity
  8
0
  6
Continuous
 62
     7
100
AcDbLine
 10
-179.7579603080323
 20
-210.1129914880542
 30
0.0
 11
-176.7435318931821
 21
-207.5024199029044
 31
0.0
  0
LINE
  5
CB
330
47
100
AcDbEntity
  8
0
  6
Continuous
 62
     7
100
AcDbLine
 10
-179.7579603080323
 20
-210.2861965688137
 30
0.0
 11
-176.60796030803
 21
-207.5582165468908
 31
0.0
  0
LINE
  5
CC
330
47
100
AcDbEntity
  8
0
  6
Continuous
 62
     7
100
AcDbLine
 10
-177.2796319660602
 20
-170.721021824253
 30
0.0
 11
-175.6866429752662
 21
-172.381165512928
 31
0.0
  0
LINE
  5
CD
330
47
100
AcDbEntity
  8
0
  6
Continuous
 62
     7
100
AcDbLine
 10
-179.0860519341306
 20
-171.2424903516707
 30
0.0
 11
-177.2796319660602
 21
-170.721021824253
 31
0.0
  0
LINE
  5
CE
330
47
100
AcDbEntity
  8
0
  6
Continuous
 62
     7
100
AcDbLine
 10
-168.389209558401
 20
-171.8000181750317
 30
0.0
 11
-168.3892095584012
 21
-171.6431373367286
 31
0.0
  0
LINE
  5
CF
330
47
100
AcDbEntity
  8
0
  6
Continuous
 62
     7
100
AcDbLine
 10
-167.6184215271246
 20
-171.5398713214705
 30
0.0
 11
-168.3892095584012
 21
-171.6431373367286
 31
0.0
  0
LINE
  5
D0
330
47
100
AcDbEntity
  8
0
  6
Continuous
 62
     7
100
AcDbLine
 10
-141.4139468695071
 20
-216.0435373325382
 30
0.0
 11
-146.9139468695071
 21
-220.8066770533526
 31
0.0
  0
LINE
  5
D1
330
47
100
AcDbEntity
  8
0
  6
Continuous
 62
     7
100
AcDbLine
 10
-153.1926310469447
 20
-208.2121607762364
 30
0.0
 11
-148.7176310469446
 21
-204.336697094301
 31
0.0
  0
LINE
  5
D2
330
47
100
AcDbEntity
  8
0
  6
Continuous
 62
     7
100
AcDbLine
 10
-154.5566210579052
 20
-220.5273335767728
 30
0.0
 11
-150.7878710579054
 21
-217.2635003362605
 31
0.0
  0
LINE
  5
D3
330
47
100
AcDbEntity
  8
0
  6
Continuous
 62
     7
100
AcDbLine
 10
-155.8773097986763
 20
-213.5204541060147
 30
0.0
 11
-154.8164286790404
 21
-218.6120295937309
 31
0.0
  0
LINE
  5
D4
330
47
100
AcDbEntity
  8
0
  6
Continuous
 62
     7
100
AcDbLine
 10
-154.5566210579052
 20
-221.631515966598
 30
0.0
 11
-157.1113959990693
 21
-220.894015966598
 31
0.0
  0
LINE
  5
D5
330
47
100
AcDbEntity
  8
0
  6
Continuous
 62
     7
100
AcDbLine
 10
-157.1113959990693
 20
-220.894015966598
 30
0.0
 11
-157.1113959990693
 21
-219.4650740503536
 31
0.0
  0
LINE
  5
D6
330
47
100
AcDbEntity
  8
0
  6
Continuous
 62
     7
100
AcDbLine
 10
-157.1113959990693
 20
-219.4650740503536
 30
0.0
 11
-157.6656522574913
 21
-219.3050740503536
 31
0.0
  0
LINE
  5
D7
330
47
100
AcDbEntity
  8
0
  6
Continuous
 62
     7
100
AcDbLine
 10
-170.469837852444
 20
-210.4126716276471
 30
0.0
 11
-170.4698378524441
 21
-208.3775119287537
 31
0.0
  0
LINE
  5
D8
330
47
100
AcDbEntity
  8
0
  6
Continuous
 62
     7
100
AcDbLine
 10
-170.9028505543363
 20
-207.8194992268614
 30
0.0
 11
-171.0003804284272
 21
-207.7913447773312
 31
0.0
  0
LINE
  5
D9
330
47
100
AcDbEntity
  8
0
  6
Continuous
 62
     7
100
AcDbLine
 10
-171.4186385802962
 20
-207.9915448169164
 30
0.0
 11
-171.703924052837
 21
-208.9738898729165
 31
0.0
  0
LINE
  5
DA
330
47
100
AcDbEntity
  8
0
  6
Continuous
 62
     7
100
AcDbLine
 10
-176.7268713947867
 20
-207.5238898729164
 30
0.0
 11
-171.703924052837
 21
-208.9738898729165
 31
0.0
  0
LINE
  5
DB
330
47
100
AcDbEntity
  8
0
  6
Continuous
 62
     7
100
AcDbLine
 10
-179.0651399850047
 20
-206.2426720902675
 30
0.0
 11
-178.0505281126501
 21
-206.5355653090809
 31
0.0
  0
LINE
  5
DC
330
47
100
AcDbEntity
  8
0
  6
Continuous
 62
     7
100
AcDbLine
 10
-178.047560135558
 20
-204.890973823077
 30
0.0
 11
-179.0651399850047
 21
-204.597223823077
 31
0.0
  0
LINE
  5
DD
330
47
100
AcDbEntity
  8
0
  6
Continuous
 62
     7
100
AcDbLine
 10
-155.5525502722572
 20
-218.8325422956231
 30
0.0
 11
-155.5525502722572
 21
-220.1315804012997
 31
0.0
  0
LINE
  5
DE
330
47
100
AcDbEntity
  8
0
  6
Continuous
 62
     7
100
AcDbLine
 10
-154.8164286790404
 20
-219.0450422956231
 30
0.0
 11
-155.5525502722572
 21
-218.8325422956231
 31
0.0
  0
LINE
  5
DF
330
47
100
AcDbEntity
  8
0
  6
Continuous
 62
     7
100
AcDbLine
 10
-154.8164286790404
 20
-218.6120295937309
 30
0.0
 11
-154.8164286790404
 21
-219.0450422956231
 31
0.0
  0
LINE
  5
E0
330
47
100
AcDbEntity
  8
0
  6
Continuous
 62
     7
100
AcDbLine
 10
-155.8773097986763
 20
-212.5900119287536
 30
0.0
 11
-155.8773097986763
 21
-213.5204541060147
 31
0.0
  0
LINE
  5
E1
330
47
100
AcDbEntity
  8
0
  6
Continuous
 62
     7
100
AcDbLine
 10
-155.011284394892
 20
-212.4069992268614
 30
0.0
 11
-155.4442970967841
 21
-212.2819992268614
 31
0.0
  0
LINE
  5
E2
330
47
100
AcDbEntity
  8
0
  6
Continuous
 62
     7
100
AcDbLine
 10
-154.5782716929998
 20
-214.1184521423062
 30
0.0
 11
-154.5782716929998
 21
-212.9650119287537
 31
0.0
  0
LINE
  5
E3
330
47
100
AcDbEntity
  8
0
  6
Continuous
 62
     7
100
AcDbLine
 10
-154.5566210579052
 20
-220.5273335767728
 30
0.0
 11
-154.5566210579052
 21
-221.631515966598
 31
0.0
  0
LINE
  5
E4
330
47
100
AcDbEntity
  8
0
  6
Continuous
 62
     7
100
AcDbLine
 10
-155.5525502722572
 20
-220.1315804012997
 30
0.0
 11
-154.5566210579052
 21
-220.5273335767728
 31
0.0
  0
LINE
  5
E5
330
47
100
AcDbEntity
  8
0
  6
Continuous
 62
     7
100
AcDbLine
 10
-146.9139468695071
 20
-220.8066770533526
 30
0.0
 11
-150.4646510250236
 21
-219.7816770533525
 31
0.0
  0
LINE
  5
E6
330
47
100
AcDbEntity
  8
0
  6
Continuous
 62
     7
100
AcDbLine
 10
-151.2873751586189
 20
-218.3317414880546
 30
0.0
 11
-150.5945548355912
 21
-217.7317414880545
 31
0.0
  0
LINE
  5
E7
330
47
100
AcDbEntity
  8
0
  6
Continuous
 62
     7
100
AcDbLine
 10
-153.1926310469447
 20
-208.2121607762364
 30
0.0
 11
-146.9139468695072
 21
-210.0246607762365
 31
0.0
  0
LINE
  5
E8
330
47
100
AcDbEntity
  8
0
  6
Continuous
 62
     7
100
AcDbLine
 10
-151.250797896286
 20
-218.7685891282169
 30
0.0
 11
-154.5566210579052
 21
-221.631515966598
 31
0.0
  0
LINE
  5
E9
330
47
100
AcDbEntity
  8
0
  6
Continuous
 62
     7
100
AcDbLine
 10
-155.5525502722572
 20
-220.1315804012997
 30
0.0
 11
-151.8775502722575
 21
-216.9489370423922
 31
0.0
  0
LINE
  5
EA
330
47
100
AcDbEntity
  8
0
  6
Continuous
 62
     7
100
AcDbLine
 10
-154.8164286790404
 20
-218.6120295937309
 30
0.0
 11
-152.6414286790408
 21
-216.7284243405
 31
0.0
  0
LINE
  5
EB
330
47
100
AcDbEntity
  8
0
  6
Continuous
 62
     7
100
AcDbLine
 10
-154.8164286790404
 20
-219.0450422956231
 30
0.0
 11
-152.2664286790408
 21
-216.836677515973
 31
0.0
  0
LINE
  5
EC
330
47
100
AcDbEntity
  8
0
  6
Continuous
 62
     7
100
AcDbLine
 10
-146.9139468695071
 20
-220.8066770533526
 30
0.0
 11
-146.9139468695072
 21
-210.0246607762365
 31
0.0
  0
LINE
  5
ED
330
47
100
AcDbEntity
  8
0
  6
Continuous
 62
     7
100
AcDbLine
 10
-154.4050666122431
 20
-205.0042769437475
 30
0.0
 11
-149.9300666122431
 21
-201.1288132618121
 31
0.0
  0
LINE
  5
EE
330
47
100
AcDbEntity
  8
0
  6
Continuous
 62
     7
100
AcDbLine
 10
-180.0870217957689
 20
-203.3929052798412
 30
0.0
 11
-180.8595753889226
 21
-204.0619563172972
 31
0.0
  0
LINE
  5
EF
330
47
100
AcDbEntity
  8
0
  6
Continuous
 62
     7
100
AcDbLine
 10
-180.7538895223843
 20
-203.2003971491036
 30
0.0
 11
-178.047560135558
 21
-203.9816471491032
 31
0.0
  0
LINE
  5
F0
330
47
100
AcDbEntity
  8
0
  6
Continuous
 62
     7
100
AcDbLine
 10
-180.7538895223843
 20
-203.8089918442879
 30
0.0
 11
-180.7538895223843
 21
-203.2003971491036
 31
0.0
  0
LINE
  5
F1
330
47
100
AcDbEntity
  8
0
  6
Continuous
 62
     7
100
AcDbLine
 10
-154.4050666122431
 20
-202.579405813151
 30
0.0
 11
-154.4050666122431
 21
-205.0042769437475
 31
0.0
  0
LINE
  5
F2
330
47
100
AcDbEntity
  8
0
  6
Continuous
 62
     7
100
AcDbLine
 10
-142.4389468695073
 20
-206.1491970943011
 30
0.0
 11
-148.7176310469446
 21
-204.336697094301
 31
0.0
  0
LINE
  5
F3
330
47
100
AcDbEntity
  8
0
  6
Continuous
 62
     7
100
AcDbLine
 10
-142.4389468695073
 20
-206.1491970943011
 30
0.0
 11
-146.9139468695072
 21
-210.0246607762365
 31
0.0
  0
LINE
  5
F4
330
47
100
AcDbEntity
  8
0
  6
Continuous
 62
     7
100
AcDbLine
 10
-153.1926310469447
 20
-205.3542769437476
 30
0.0
 11
-148.7176310469446
 21
-201.4788132618122
 31
0.0
  0
LINE
  5
F5
330
47
100
AcDbEntity
  8
0
  6
Continuous
 62
     7
100
AcDbLine
 10
-149.9300666122431
 20
-201.1288132618121
 30
0.0
 11
-148.7176310469446
 21
-201.4788132618122
 31
0.0
  0
LINE
  5
F6
330
47
100
AcDbEntity
  8
0
  6
Continuous
 62
     7
100
AcDbLine
 10
-148.7176310469446
 20
-201.4788132618122
 30
0.0
 11
-148.7176310469446
 21
-204.336697094301
 31
0.0
  0
LINE
  5
F7
330
47
100
AcDbEntity
  8
0
  6
Continuous
 62
     7
100
AcDbLine
 10
-149.9300666122431
 20
-198.7039421312157
 30
0.0
 11
-154.4050666122431
 21
-202.579405813151
 31
0.0
  0
LINE
  5
F8
330
47
100
AcDbEntity
  8
0
  6
Continuous
 62
     7
100
AcDbLine
 10
-149.9300666122431
 20
-198.7039421312157
 30
0.0
 11
-149.9300666122431
 21
-201.1288132618121
 31
0.0
  0
LINE
  5
F9
330
47
100
AcDbEntity
  8
0
  6
Continuous
 62
     7
100
AcDbLine
 10
-154.4050666122431
 20
-202.579405813151
 30
0.0
 11
-165.1437816191699
 21
-199.4794058131511
 31
0.0
  0
LINE
  5
FA
330
47
100
AcDbEntity
  8
0
  6
Continuous
 62
     7
100
AcDbLine
 10
-184.5860519341306
 20
-199.1496607762364
 30
0.0
 11
-178.3073677566934
 21
-200.9621607762364
 31
0.0
  0
LINE
  5
FB
330
47
100
AcDbEntity
  8
0
  6
Continuous
 62
     7
100
AcDbLine
 10
-170.1226890049618
 20
-166.7497344633449
 30
0.0
 11
-175.6226890049619
 21
-171.5128741841593
 31
0.0
  0
LINE
  5
FC
330
47
100
AcDbEntity
  8
0
  6
Continuous
 62
     7
100
AcDbLine
 10
-175.8121152948577
 20
-209.1447303457806
 30
0.0
 11
-181.3121152948577
 21
-213.907870066595
 31
0.0
  0
LINE
  5
FD
330
47
100
AcDbEntity
  8
0
  6
Continuous
 62
     7
100
AcDbLine
 10
-177.4724102432218
 20
-173.9520985999028
 30
0.0
 11
-175.6226890049618
 21
-173.418130072485
 31
0.0
  0
LINE
  5
FE
330
47
100
AcDbEntity
  8
0
  6
Continuous
 62
     7
100
AcDbLine
 10
-184.5860519341305
 20
-212.962765966598
 30
0.0
 11
-181.3121152948577
 21
-213.907870066595
 31
0.0
  0
LINE
  5
FF
330
47
100
AcDbEntity
  8
0
  6
Continuous
 62
     7
100
AcDbLine
 10
-183.6767252601569
 20
-212.3159392926244
 30
0.0
 11
-182.0096263578718
 21
-212.7971892926244
 31
0.0
  0
LINE
  5
100
330
47
100
AcDbEntity
  8
0
  6
Continuous
 62
     7
100
AcDbLine
 10
-182.0096263578718
 20
-212.7971892926244
 30
0.0
 11
-182.0096263578718
 21
-206.6917101959442
 31
0.0
  0
LINE
  5
101
330
47
100
AcDbEntity
  8
0
  6
Continuous
 62
     7
100
AcDbLine
 10
-183.0054268837686
 20
-203.0267482703416
 30
0.0
 11
-181.7238379746235
 21
-204.6783000303294
 31
0.0
  0
LINE
  5
102
330
47
100
AcDbEntity
  8
0
  6
Continuous
 62
     7
100
AcDbLine
 10
-183.6767252601569
 20
-211.4066126186507
 30
0.0
 11
-183.6767252601569
 21
-212.3159392926244
 31
0.0
  0
LINE
  5
103
330
47
100
AcDbEntity
  8
0
  6
Continuous
 62
     7
100
AcDbLine
 10
-155.8773097986762
 20
-177.2128741841594
 30
0.0
 11
-175.6226890049619
 21
-171.5128741841593
 31
0.0
  0
LINE
  5
104
330
47
100
AcDbEntity
  8
0
  6
Continuous
 62
     7
100
AcDbLine
 10
-150.3773097986762
 20
-172.449734463345
 30
0.0
 11
-155.8773097986762
 21
-177.2128741841594
 31
0.0
  0
LINE
  5
105
330
47
100
AcDbEntity
  8
0
  6
Continuous
 62
     7
100
AcDbLine
 10
-148.770573425645
 20
-177.8664648678996
 30
0.0
 11
-154.270573425645
 21
-182.629604588714
 31
0.0
  0
LINE
  5
106
330
47
100
AcDbEntity
  8
0
  6
Continuous
 62
     7
100
AcDbLine
 10
-155.8773097986763
 20
-179.118130072485
 30
0.0
 11
-150.3773097986764
 21
-174.3549903516706
 31
0.0
  0
LINE
  5
107
330
47
100
AcDbEntity
  8
0
  6
Continuous
 62
     7
100
AcDbLine
 10
-148.5275885604164
 20
-175.9568959339235
 30
0.0
 11
-154.0275885604164
 21
-180.7200356547379
 31
0.0
  0
LINE
  5
108
330
47
100
AcDbEntity
  8
0
  6
Continuous
 62
     7
100
AcDbLine
 10
-176.8257832412586
 20
-207.3964246358513
 30
0.0
 11
-176.7268713947867
 21
-207.5238898729164
 31
0.0
  0
LINE
  5
109
330
47
100
AcDbEntity
  8
0
  6
Continuous
 62
     7
100
AcDbLine
 10
-177.0949321913954
 20
-196.029405813151
 30
0.0
 11
-177.0949321913954
 21
-198.4542769437475
 31
0.0
  0
LINE
  5
10A
330
47
100
AcDbEntity
  8
0
  6
Continuous
 62
     7
100
AcDbLine
 10
-155.8773097986762
 20
-177.2128741841594
 30
0.0
 11
-155.8773097986763
 21
-179.118130072485
 31
0.0
  0
LINE
  5
10B
330
47
100
AcDbEntity
  8
0
  6
Continuous
 62
     7
100
AcDbLine
 10
-148.5275885604164
 20
-175.9568959339235
 30
0.0
 11
-148.770573425645
 21
-177.8664648678996
 31
0.0
  0
LINE
  5
10C
330
47
100
AcDbEntity
  8
0
  6
Continuous
 62
     7
100
AcDbLine
 10
-150.3773097986764
 20
-174.3549903516706
 30
0.0
 11
-148.5275885604164
 21
-175.9568959339235
 31
0.0
  0
LINE
  5
10D
330
47
100
AcDbEntity
  8
0
  6
Continuous
 62
     7
100
AcDbLine
 10
-154.8012457524079
 20
-175.2398712633581
 30
0.0
 11
-155.5720337836933
 21
-175.343137278618
 31
0.0
  0
LINE
  5
10E
330
47
100
AcDbEntity
  8
0
  6
Continuous
 62
     7
100
AcDbLine
 10
-155.5720337836941
 20
-175.5000181169206
 30
0.0
 11
-155.5720337836933
 21
-175.343137278618
 31
0.0
  0
LINE
  5
10F
330
47
100
AcDbEntity
  8
0
  6
Continuous
 62
     7
100
AcDbLine
 10
-150.3773097986762
 20
-172.449734463345
 30
0.0
 11
-150.3773097986764
 21
-174.3549903516706
 31
0.0
  0
LINE
  5
110
330
47
100
AcDbEntity
  8
0
  6
Continuous
 62
     7
100
AcDbLine
 10
-180.8807160064287
 20
-204.0785664097842
 30
0.0
 11
-181.7238379746235
 21
-204.6783000303294
 31
0.0
  0
LINE
  5
111
330
47
100
AcDbEntity
  8
0
  6
Continuous
 62
     7
100
AcDbLine
 10
-179.7579603080323
 20
-210.1129914880542
 30
0.0
 11
-179.7579603080323
 21
-210.2861965688137
 31
0.0
  0
LINE
  5
112
330
47
100
AcDbEntity
  8
0
  6
Continuous
 62
     7
100
AcDbLine
 10
-179.7579603080323
 20
-210.1129914880542
 30
0.0
 11
-180.6456363469114
 21
-209.6835364072974
 31
0.0
  0
LINE
  5
113
330
47
100
AcDbEntity
  8
0
  6
Continuous
 62
     7
100
AcDbLine
 10
-180.6456363469114
 20
-209.6835364072974
 30
0.0
 11
-180.7322388872898
 21
-208.6193059227563
 31
0.0
  0
LINE
  5
114
330
47
100
AcDbEntity
  8
0
  6
Continuous
 62
     7
100
AcDbLine
 10
-180.7322388872898
 20
-208.6193059227563
 30
0.0
 11
-179.8445628484109
 21
-208.7019941243111
 31
0.0
  0
LINE
  5
115
330
47
100
AcDbEntity
  8
0
  6
Continuous
 62
     7
100
AcDbLine
 10
-179.8445628484109
 20
-208.7019941243111
 30
0.0
 11
-179.8445628484107
 21
-208.0961330593502
 31
0.0
  0
LINE
  5
116
330
47
100
AcDbEntity
  8
0
  6
Continuous
 62
     7
100
AcDbLine
 10
-179.8445628484107
 20
-208.0961330593502
 30
0.0
 11
-179.8867238212625
 21
-208.0839622348376
 31
0.0
  0
LINE
  5
117
330
47
100
AcDbEntity
  8
0
  6
Continuous
 62
     7
100
AcDbLine
 10
-154.1236083560128
 20
-216.3005559227563
 30
0.0
 11
-154.5782716929998
 21
-214.1184521423062
 31
0.0
  0
LINE
  5
118
330
47
100
AcDbEntity
  8
0
  6
Continuous
 62
     7
100
AcDbLine
 10
-171.703924052837
 20
-208.9738898729165
 30
0.0
 11
-170.6059523079874
 21
-208.0230184492393
 31
0.0
  0
LINE
  5
119
330
47
100
AcDbEntity
  8
0
  6
Continuous
 62
     2
100
AcDbLine
 10
-171.4186385802962
 20
-207.9915448169164
 30
0.0
 11
-171.1710540408809
 21
-207.7771303161985
 31
0.0
  0
LINE
  5
11A
330
47
100
AcDbEntity
  8
0
  6
Continuous
 62
     2
100
AcDbLine
 10
-169.7795437188065
 20
-213.2583262372994
 30
0.0
 11
-168.7578197625173
 21
-212.3734873354979
 31
0.0
  0
LINE
  5
11B
330
47
100
AcDbEntity
  8
0
  6
Continuous
 62
     7
100
AcDbLine
 10
-168.5815078585038
 20
-212.3946229977265
 30
0.0
 11
-169.8615662226472
 21
-213.5031860594015
 31
0.0
  0
LINE
  5
11C
330
47
100
AcDbEntity
  8
0
  6
Continuous
 62
     7
100
AcDbLine
 10
-153.1926310469447
 20
-208.2121607762364
 30
0.0
 11
-153.1926310469447
 21
-205.3542769437476
 31
0.0
  0
LINE
  5
11D
330
47
100
AcDbEntity
  8
0
  6
Continuous
 62
     7
100
AcDbLine
 10
-154.4050666122431
 20
-205.0042769437475
 30
0.0
 11
-153.1926310469447
 21
-205.3542769437476
 31
0.0
  0
LINE
  5
11E
330
47
100
AcDbEntity
  8
0
  6
Continuous
 62
     7
100
AcDbLine
 10
-150.5945548355913
 20
-217.3193059227563
 30
0.0
 11
-154.1236083560128
 21
-216.3005559227563
 31
0.0
  0
LINE
  5
11F
330
47
100
AcDbEntity
  8
0
  6
Continuous
 62
     7
100
AcDbLine
 10
-150.5945548355913
 20
-218.3585364072975
 30
0.0
 11
-150.5945548355913
 21
-217.3193059227563
 31
0.0
  0
LINE
  5
120
330
47
100
AcDbEntity
  8
0
  6
Continuous
 62
     7
100
AcDbLine
 10
-151.2873751586189
 20
-218.3317414880546
 30
0.0
 11
-150.5945548355913
 21
-218.3585364072975
 31
0.0
  0
LINE
  5
121
330
47
100
AcDbEntity
  8
0
  6
Continuous
 62
     7
100
AcDbLine
 10
-151.2873751586188
 20
-218.721452919757
 30
0.0
 11
-151.2873751586189
 21
-218.3317414880546
 31
0.0
  0
LINE
  5
122
330
47
100
AcDbEntity
  8
0
  6
Continuous
 62
     7
100
AcDbLine
 10
-150.4646510250236
 20
-219.7816770533525
 30
0.0
 11
-151.2873751586188
 21
-218.721452919757
 31
0.0
  0
LINE
  5
123
330
47
100
AcDbEntity
  8
0
  6
Continuous
 62
     7
100
AcDbLine
 10
-142.4389468695073
 20
-206.1491970943011
 30
0.0
 11
-142.4389468695073
 21
-193.7650459445397
 31
0.0
  0
LINE
  5
124
330
47
100
AcDbEntity
  8
0
  6
Continuous
 62
     7
100
AcDbLine
 10
-166.3562171844681
 20
-199.1294058131511
 30
0.0
 11
-177.0949321913954
 21
-196.029405813151
 31
0.0
  0
LINE
  5
125
330
47
100
AcDbEntity
  8
0
  6
Continuous
 62
     7
100
AcDbLine
 10
-184.5860519341306
 20
-202.5704611211847
 30
0.0
 11
-183.0054268837686
 21
-203.0267482703416
 31
0.0
  0
LINE
  5
126
330
47
100
AcDbEntity
  8
0
  6
Continuous
 62
     7
100
AcDbLine
 10
-149.3796779596406
 20
-178.3939648679
 30
0.0
 11
-145.4224603623671
 21
-181.8210158354416
 31
0.0
  0
LINE
  5
127
330
47
100
AcDbEntity
  8
0
  6
Continuous
 62
     7
100
AcDbLine
 10
-150.3133558283722
 20
-186.0566555562563
 30
0.0
 11
-144.8133558283722
 21
-181.2935158354418
 31
0.0
  0
LINE
  5
128
330
47
100
AcDbEntity
  8
0
  6
Continuous
 62
     7
100
AcDbLine
 10
-173.890638197393
 20
-191.671650850066
 30
0.0
 11
-166.3562171844681
 21
-193.8466508500661
 31
0.0
  0
LINE
  5
129
330
47
100
AcDbEntity
  8
0
  6
Continuous
 62
     7
100
AcDbLine
 10
-175.7525928155292
 20
-189.3155096264744
 30
0.0
 11
-173.890638197393
 21
-191.671650850066
 31
0.0
  0
LINE
  5
12A
330
47
100
AcDbEntity
  8
0
  6
Continuous
 62
     7
100
AcDbLine
 10
-154.6544646270086
 20
-182.2971450560447
 30
0.0
 11
-155.1112930275049
 21
-182.9565200560446
 31
0.0
  0
LINE
  5
12B
330
47
100
AcDbEntity
  8
0
  6
Continuous
 62
     7
100
AcDbLine
 10
-150.3862930275049
 20
-187.0484900889261
 30
0.0
 11
-155.1112930275049
 21
-182.9565200560446
 31
0.0
  0
LINE
  5
12C
330
47
100
AcDbEntity
  8
0
  6
Continuous
 62
     7
100
AcDbLine
 10
-178.3073677566934
 20
-200.9621607762364
 30
0.0
 11
-178.3073677566934
 21
-198.1042769437476
 31
0.0
  0
LINE
  5
12D
330
47
100
AcDbEntity
  8
0
  6
Continuous
 62
     7
100
AcDbLine
 10
-166.3562171844681
 20
-193.8466508500661
 30
0.0
 11
-166.3562171844681
 21
-199.1294058131511
 31
0.0
  0
LINE
  5
12E
330
47
100
AcDbEntity
  8
0
  6
Continuous
 62
     7
100
AcDbLine
 10
-160.6687816191698
 20
-195.6039421312158
 30
0.0
 11
-160.6687816191698
 21
-195.488472077378
 31
0.0
  0
LINE
  5
12F
330
47
100
AcDbEntity
  8
0
  6
Continuous
 62
     7
100
AcDbLine
 10
-154.270573425645
 20
-182.629604588714
 30
0.0
 11
-154.6544646270086
 21
-182.2971450560447
 31
0.0
  0
LINE
  5
130
330
47
100
AcDbEntity
  8
0
  6
Continuous
 62
     7
100
AcDbLine
 10
-154.0275885604164
 20
-180.7200356547379
 30
0.0
 11
-154.270573425645
 21
-182.629604588714
 31
0.0
  0
LINE
  5
131
330
47
100
AcDbEntity
  8
0
  6
Continuous
 62
     7
100
AcDbLine
 10
-155.8773097986763
 20
-179.118130072485
 30
0.0
 11
-154.0275885604164
 21
-180.7200356547379
 31
0.0
  0
LINE
  5
132
330
47
100
AcDbEntity
  8
0
  6
Continuous
 62
     7
100
AcDbLine
 10
-143.2203668375777
 20
-180.5530847694181
 30
0.0
 11
-148.7203668375778
 21
-185.3162244902325
 31
0.0
  0
LINE
  5
133
330
47
100
AcDbEntity
  8
0
  6
Continuous
 62
     7
100
AcDbLine
 10
-143.2203668375777
 20
-180.5530847694181
 30
0.0
 11
-141.4139468695074
 21
-182.1174903516706
 31
0.0
  0
LINE
  5
134
330
47
100
AcDbEntity
  8
0
  6
Continuous
 62
     7
100
AcDbLine
 10
-144.8133558283722
 20
-181.2935158354418
 30
0.0
 11
-143.2203668375777
 21
-180.5530847694181
 31
0.0
  0
SPLINE
  5
135
330
47
100
AcDbEntity
  8
0
  6
Continuous
 62
     7
100
AcDbSpline
210
0.0
220
0.0
230
1.0
 70
     8
 71
     3
 72
    19
 73
    15
 74
    13
 42
0.000000001
 43
0.0000000001
 44
0.00000001
 40
0.0
 40
0.0
 40
0.0
 40
0.0
 40
0.2676406686770487
 40
0.5808314346120098
 40
0.9601912858929322
 40
1.403844025770298
 40
1.896442433304822
 40
2.41520068165378
 40
2.933958930002853
 40
3.426557337537483
 40
3.870210077414796
 40
4.249569928695592
 40
4.562760694630611
 40
4.830401363307716
 40
4.830401363307716
 40
4.830401363307716
 40
4.830401363307716
 10
-167.7210873898241
 20
-195.3434688914265
 30
0.0
 10
-167.7363269362393
 20
-195.4330831541519
 30
0.0
 10
-167.7693996846277
 20
-195.6275632346364
 30
0.0
 10
-167.998710645613
 20
-195.8710210964608
 30
0.0
 10
-168.319218440809
 20
-196.0726691270443
 30
0.0
 10
-168.7339113877804
 20
-196.225780149578
 30
0.0
 10
-169.210567325988
 20
-196.3218236586919
 30
0.0
 10
-169.721087389824
 20
-196.3545714616765
 30
0.0
 10
-170.23160745366
 20
-196.3218236586918
 30
0.0
 10
-170.7082633918678
 20
-196.225780149578
 30
0.0
 10
-171.1229563388391
 20
-196.0726691270443
 30
0.0
 10
-171.4434641340351
 20
-195.8710210964609
 30
0.0
 10
-171.6727750950203
 20
-195.6275632346363
 30
0.0
 10
-171.705847843409
 20
-195.433083154152
 30
0.0
 10
-171.7210873898241
 20
-195.3434688914265
 30
0.0
 11
-167.7210873898241
 21
-195.3434688914265
 31
0.0
 11
-167.7892362522887
 21
-195.6022878675263
 31
0.0
 11
-167.9890365822552
 21
-195.8434688914265
 31
0.0
 11
-168.3068742044885
 21
-196.0505754840944
 31
0.0
 11
-168.7210873898241
 21
-196.209494295211
 31
0.0
 11
-169.2034494376243
 21
-196.3093944601942
 31
0.0
 11
-169.721087389824
 21
-196.3434688914265
 31
0.0
 11
-170.2387253420238
 21
-196.3093944601942
 31
0.0
 11
-170.7210873898241
 21
-196.209494295211
 31
0.0
 11
-171.1353005751596
 21
-196.0505754840944
 31
0.0
 11
-171.4531381973929
 21
-195.8434688914265
 31
0.0
 11
-171.6529385273594
 21
-195.6022878675264
 31
0.0
 11
-171.7210873898241
 21
-195.3434688914265
 31
0.0
  0
SPLINE
  5
136
330
47
100
AcDbEntity
  8
0
  6
Continuous
 62
     7
100
AcDbSpline
210
0.0
220
0.0
230
1.0
 70
     8
 71
     3
 72
    19
 73
    15
 74
    13
 42
0.000000001
 43
0.0000000001
 44
0.00000001
 40
0.0
 40
0.0
 40
0.0
 40
0.0
 40
0.2676406686771457
 40
0.5808314346120668
 40
0.9601912858928712
 40
1.403844025770327
 40
1.896442433304873
 40
2.415200681653805
 40
2.933958930002821
 40
3.426557337537506
 40
3.870210077414846
 40
4.249569928695618
 40
4.562760694630597
 40
4.83040136330773
 40
4.83040136330773
 40
4.83040136330773
 40
4.83040136330773
 10
-154.9039114138141
 20
-199.0434688914266
 30
0.0
 10
-154.9191509602292
 20
-199.1330831541521
 30
0.0
 10
-154.9522237086178
 20
-199.3275632346366
 30
0.0
 10
-155.1815346696029
 20
-199.571021096461
 30
0.0
 10
-155.502042464799
 20
-199.7726691270444
 30
0.0
 10
-155.9167354117704
 20
-199.9257801495781
 30
0.0
 10
-156.393391349978
 20
-200.0218236586919
 30
0.0
 10
-156.903911413814
 20
-200.0545714616765
 30
0.0
 10
-157.41443147765
 20
-200.0218236586919
 30
0.0
 10
-157.8910874158578
 20
-199.9257801495782
 30
0.0
 10
-158.3057803628291
 20
-199.7726691270444
 30
0.0
 10
-158.6262881580251
 20
-199.5710210964609
 30
0.0
 10
-158.8555991190103
 20
-199.3275632346365
 30
0.0
 10
-158.8886718673989
 20
-199.1330831541521
 30
0.0
 10
-158.9039114138141
 20
-199.0434688914266
 30
0.0
 11
-154.9039114138141
 21
-199.0434688914266
 31
0.0
 11
-154.9720602762787
 21
-199.3022878675265
 31
0.0
 11
-155.1718606062452
 21
-199.5434688914266
 31
0.0
 11
-155.4896982284784
 21
-199.7505754840944
 31
0.0
 11
-155.9039114138141
 21
-199.9094942952111
 31
0.0
 11
-156.3862734616143
 21
-200.0093944601943
 31
0.0
 11
-156.903911413814
 21
-200.0434688914266
 31
0.0
 11
-157.4215493660137
 21
-200.0093944601943
 31
0.0
 11
-157.9039114138141
 21
-199.9094942952111
 31
0.0
 11
-158.3181245991497
 21
-199.7505754840945
 31
0.0
 11
-158.6359622213829
 21
-199.5434688914266
 31
0.0
 11
-158.8357625513494
 21
-199.3022878675265
 31
0.0
 11
-158.9039114138141
 21
-199.0434688914266
 31
0.0
  0
SPLINE
  5
137
330
47
100
AcDbEntity
  8
0
  6
Continuous
 62
     7
100
AcDbSpline
210
0.0
220
0.0
230
1.0
 70
     8
 71
     3
 72
    15
 73
    11
 74
     9
 42
0.000000001
 43
0.0000000001
 44
0.00000001
 40
0.0
 40
0.0
 40
0.0
 40
0.0
 40
0.1075605161160234
 40
0.2212191566791503
 40
0.3444594698632683
 40
0.4773441629483772
 40
0.617146874772136
 40
0.7594447323082697
 40
0.8992538434251431
 40
1.032150054400823
 40
1.032150054400823
 40
1.032150054400823
 40
1.032150054400823
 10
-183.6092060459382
 20
-211.3631669301462
 30
0.0
 10
-183.5846764969944
 20
-211.3364453183763
 30
0.0
 10
-183.5342267116512
 20
-211.2814871095347
 30
0.0
 10
-183.5017134894312
 20
-211.1676046536011
 30
0.0
 10
-183.5027304820948
 20
-211.0432976911193
 30
0.0
 10
-183.5387680730607
 20
-210.914807659147
 30
0.0
 10
-183.605614623913
 20
-210.7923899909032
 30
0.0
 10
-183.698545933916
 20
-210.6858342407173
 30
0.0
 10
-183.8093794810524
 20
-210.5999883279158
 30
0.0
 10
-183.8948707954598
 20
-210.5678510555215
 30
0.0
 10
-183.9365328812922
 20
-210.5521897552448
 30
0.0
 11
-183.6092060459382
 21
-211.3631669301462
 31
0.0
 11
-183.5426077429165
 21
-211.2787043242361
 31
0.0
 11
-183.5079149718856
 21
-211.1704698584017
 31
0.0
 11
-183.5079383743888
 21
-211.0472295444416
 31
0.0
 11
-183.5426753161383
 21
-210.9189654149756
 31
0.0
 11
-183.6093129957702
 21
-210.7960661958404
 31
0.0
 11
-183.7024534890295
 21
-210.688485859527
 31
0.0
 11
-183.8145533879137
 21
-210.6049382681529
 31
0.0
 11
-183.9365328812922
 21
-210.5521897552448
 31
0.0
  0
SPLINE
  5
138
330
47
100
AcDbEntity
  8
0
  6
Continuous
 62
     7
100
AcDbSpline
210
0.0
220
0.0
230
1.0
 70
     8
 71
     3
 72
    11
 73
     7
 74
     5
 42
0.000000001
 43
0.0000000001
 44
0.00000001
 40
0.0
 40
0.0
 40
0.0
 40
0.0
 40
0.0935705952108338
 40
0.1815181363974901
 40
0.2647690944695312
 40
0.3453217744505281
 40
0.3453217744505281
 40
0.3453217744505281
 40
0.3453217744505281
 10
-184.1530392322383
 20
-210.4896897552447
 30
0.0
 10
-184.1835695394946
 20
-210.4826493549283
 30
0.0
 10
-184.2427954606421
 20
-210.4689916562082
 30
0.0
 10
-184.3318277362486
 20
-210.4734651452827
 30
0.0
 10
-184.4140649717654
 20
-210.496429759746
 30
0.0
 10
-184.4585097457693
 20
-210.5288130513149
 30
0.0
 10
-184.4803660675922
 20
-210.5447379841278
 30
0.0
 11
-184.1530392322383
 21
-210.4896897552447
 31
0.0
 11
-184.2451116733803
 21
-210.4730127669642
 31
0.0
 11
-184.3329731600315
 21
-210.4769024411594
 31
0.0
 11
-184.4126052703464
 21
-210.5011810222563
 31
0.0
 11
-184.4803660675922
 21
-210.5447379841278
 31
0.0
  0
SPLINE
  5
139
330
47
100
AcDbEntity
  8
0
  6
Continuous
 62
     7
100
AcDbSpline
210
0.0
220
0.0
230
1.0
 70
     8
 71
     3
 72
     9
 73
     5
 74
     3
 42
0.000000001
 43
0.0000000001
 44
0.00000001
 40
0.0
 40
0.0
 40
0.0
 40
0.0
 40
0.1347351597550604
 40
0.2806984683897795
 40
0.2806984683897795
 40
0.2806984683897795
 40
0.2806984683897795
 10
-184.4803660675922
 20
-210.5447379841278
 30
0.0
 10
-184.5107585512933
 20
-210.579439450418
 30
0.0
 10
-184.5740762583669
 20
-210.6517342378417
 30
0.0
 10
-184.5819549967478
 20
-210.7477659354484
 30
0.0
 10
-184.5860519341305
 20
-210.797702457137
 30
0.0
 11
-184.4803660675922
 21
-210.5447379841278
 31
0.0
 11
-184.5587703934094
 21
-210.6543113638618
 31
0.0
 11
-184.5860519341305
 21
-210.797702457137
 31
0.0
  0
SPLINE
  5
13A
330
47
100
AcDbEntity
  8
0
  6
Continuous
 62
     7
100
AcDbSpline
210
0.0
220
0.0
230
1.0
 70
     8
 71
     3
 72
    17
 73
    13
 74
    11
 42
0.000000001
 43
0.0000000001
 44
0.00000001
 40
0.0
 40
0.0
 40
0.0
 40
0.0
 40
0.4148430342068208
 40
0.9002887269432086
 40
1.488296493983955
 40
2.175958237832544
 40
2.939485765404689
 40
3.743561045095408
 40
4.547636324563101
 40
5.31116385122619
 40
5.998825595681903
 40
6.586833368396308
 40
6.586833368396308
 40
6.586833368396308
 40
6.586833368396308
 10
-172.8185872891725
 20
-170.3997722279809
 30
0.0
 10
-172.7949659742918
 20
-170.5386743662168
 30
0.0
 10
-172.7437031922429
 20
-170.8401185674687
 30
0.0
 10
-172.3882715329869
 20
-171.2174776076101
 30
0.0
 10
-171.8914826738828
 20
-171.5300352004498
 30
0.0
 10
-171.2487169558106
 20
-171.7673425996749
 30
0.0
 10
-170.5098641318547
 20
-171.9162735531011
 30
0.0
 10
-169.7187025090116
 20
-171.9667786335867
 30
0.0
 10
-168.9268612386435
 20
-171.9169605028766
 30
0.0
 10
-168.1898820949482
 20
-171.7648622238083
 30
0.0
 10
-167.5412598625333
 20
-171.537822542345
 30
0.0
 10
-167.1939826663736
 20
-171.2893180317379
 30
0.0
 10
-167.0339085374408
 20
-171.1747722279809
 30
0.0
 11
-172.8185872891725
 21
-170.3997722279809
 31
0.0
 11
-172.7129565523522
 21
-170.8009416409357
 31
0.0
 11
-172.4032660409042
 21
-171.1747722279809
 31
0.0
 11
-171.9106177264427
 21
-171.495787446616
 31
0.0
 11
-171.2685872891724
 21
-171.7421116038468
 31
0.0
 11
-170.5209261150821
 21
-171.8969568595708
 31
0.0
 11
-169.7185872891725
 21
-171.9497722279809
 31
0.0
 11
-168.9162484632629
 21
-171.8969568595708
 31
0.0
 11
-168.1685872891725
 21
-171.7421116038468
 31
0.0
 11
-167.5265568519023
 21
-171.495787446616
 31
0.0
 11
-167.0339085374408
 21
-171.1747722279809
 31
0.0
  0
SPLINE
  5
13B
330
47
100
AcDbEntity
  8
0
  6
Continuous
 62
     7
100
AcDbSpline
210
0.0
220
0.0
230
1.0
 70
     8
 71
     3
 72
    15
 73
    11
 74
     9
 42
0.000000001
 43
0.0000000001
 44
0.00000001
 40
0.0
 40
0.0
 40
0.0
 40
0.0
 40
0.5720075578343096
 40
1.228054722747752
 40
1.946703607309322
 40
2.698499135690936
 40
3.450294664072607
 40
4.168943548634178
 40
4.8249907135477
 40
5.396998271382083
 40
5.396998271382083
 40
5.396998271382083
 40
5.396998271382083
 10
-167.1475952627361
 20
-171.2657976317653
 30
0.0
 10
-167.3095760228188
 20
-171.1640467535474
 30
0.0
 10
-167.6573358384879
 20
-170.945595731051
 30
0.0
 10
-168.2800069047918
 20
-170.7442843367895
 30
0.0
 10
-168.9769736035703
 20
-170.6106470811339
 30
0.0
 10
-169.7185872891725
 20
-170.5670861229458
 30
0.0
 10
-170.4602009747748
 20
-170.6106470811339
 30
0.0
 10
-171.1571676735532
 20
-170.7442843367896
 30
0.0
 10
-171.7798387398573
 20
-170.945595731051
 30
0.0
 10
-172.1275985555263
 20
-171.1640467535475
 30
0.0
 10
-172.2895793156091
 20
-171.2657976317653
 30
0.0
 11
-167.1475952627361
 21
-171.2657976317653
 31
0.0
 11
-167.6433102038644
 21
-170.9803867997272
 31
0.0
 11
-168.2624549983869
 21
-170.7634591629146
 31
0.0
 11
-168.968206188862
 21
-170.6279177189023
 31
0.0
 11
-169.7185872891725
 21
-170.5818230355497
 31
0.0
 11
-170.4689683894831
 21
-170.6279177189023
 31
0.0
 11
-171.1747195799581
 21
-170.7634591629146
 31
0.0
 11
-171.7938643744807
 21
-170.9803867997272
 31
0.0
 11
-172.2895793156091
 21
-171.2657976317653
 31
0.0
  0
SPLINE
  5
13C
330
47
100
AcDbEntity
  8
0
  6
Continuous
 62
     7
100
AcDbSpline
210
0.0
220
0.0
230
1.0
 70
     8
 71
     3
 72
    15
 73
    11
 74
     9
 42
0.000000001
 43
0.0000000001
 44
0.00000001
 40
0.0
 40
0.0
 40
0.0
 40
0.0
 40
0.3276172629160715
 40
0.7019331644975528
 40
1.108528056805793
 40
1.528663349502627
 40
1.941985899534996
 40
2.328942985496707
 40
2.673332960505885
 40
2.96555837096471
 40
2.96555837096471
 40
2.96555837096471
 40
2.96555837096471
 10
-168.3892095584012
 20
-171.6431373367286
 30
0.0
 10
-168.4842317055685
 20
-171.588621540012
 30
0.0
 10
-168.6878204863979
 20
-171.4718192697507
 30
0.0
 10
-169.0462628755043
 20
-171.3702062169619
 30
0.0
 10
-169.4424727078105
 20
-171.3092219735401
 30
0.0
 10
-169.8569635866122
 20
-171.3011643036548
 30
0.0
 10
-170.263034864362
 20
-171.3433231518635
 30
0.0
 10
-170.633394946904
 20
-171.4364603973965
 30
0.0
 10
-170.9536739489253
 20
-171.5657657217932
 30
0.0
 10
-171.1186510633093
 20
-171.7008516563247
 30
0.0
 10
-171.1943804639744
 20
-171.7628601291457
 30
0.0
 11
-168.3892095584012
 21
-171.6431373367286
 31
0.0
 11
-168.6793694148788
 21
-171.4910178866064
 31
0.0
 11
-169.0369984174391
 21
-171.3805014316528
 31
0.0
 11
-169.4388788245155
 21
-171.3187637018139
 31
0.0
 11
-169.8589187453273
 21
-171.3098122262513
 31
0.0
 11
-170.2698478013786
 21
-171.3542288943709
 31
0.0
 11
-170.6449873690588
 21
-171.4491293099327
 31
0.0
 11
-170.9599814349873
 21
-171.5883528614286
 31
0.0
 11
-171.1943804639744
 21
-171.7628601291457
 31
0.0
  0
SPLINE
  5
13D
330
47
100
AcDbEntity
  8
0
  6
Continuous
 62
     7
100
AcDbSpline
210
0.0
220
0.0
230
1.0
 70
     8
 71
     3
 72
     9
 73
     5
 74
     3
 42
0.000000001
 43
0.0000000001
 44
0.00000001
 40
0.0
 40
0.0
 40
0.0
 40
0.0
 40
0.4854456906796475
 40
0.9002887316768855
 40
0.9002887316768855
 40
0.9002887316768855
 40
0.9002887316768855
 10
-167.0339085374408
 20
-171.1747722279809
 30
0.0
 10
-166.9139554223435
 20
-171.0587547522778
 30
0.0
 10
-166.6914950482161
 20
-170.8435932355993
 30
0.0
 10
-166.6415851891193
 20
-170.5397704114536
 30
0.0
 10
-166.6185872891725
 20
-170.3997722279809
 30
0.0
 11
-167.0339085374408
 21
-171.1747722279809
 31
0.0
 11
-166.7242180259927
 21
-170.8009416409357
 31
0.0
 11
-166.6185872891725
 21
-170.3997722279809
 31
0.0
  0
SPLINE
  5
13E
330
47
100
AcDbEntity
  8
0
  6
Continuous
 62
     7
100
AcDbSpline
210
0.0
220
0.0
230
1.0
 70
     8
 71
     3
 72
    19
 73
    15
 74
    13
 42
0.000000001
 43
0.0000000001
 44
0.00000001
 40
0.0
 40
0.0
 40
0.0
 40
0.0
 40
0.4148430388277934
 40
0.9002887280266088
 40
1.488296496112448
 40
2.175958241578451
 40
2.939485771591229
 40
3.743561054513144
 40
4.547636337435002
 40
5.311163867447807
 40
5.998825612913843
 40
6.586833380999714
 40
7.072279070198511
 40
7.487122109026312
 40
7.487122109026312
 40
7.487122109026312
 40
7.487122109026312
 10
-166.6185872891725
 20
-170.3997722279809
 30
0.0
 10
-166.6422085862514
 20
-170.2608701199601
 30
0.0
 10
-166.6934713364611
 20
-169.9594259896431
 30
0.0
 10
-167.0489033445774
 20
-169.5820663157655
 30
0.0
 10
-167.5456904212812
 20
-169.2695118649001
 30
0.0
 10
-168.1884644899428
 20
-169.0321897825295
 30
0.0
 10
-168.9272811919988
 20
-168.8833223438542
 30
0.0
 10
-169.7185872891725
 20
-168.8325632497837
 30
0.0
 10
-170.5098933863462
 20
-168.8833223438542
 30
0.0
 10
-171.248710088402
 20
-169.0321897825296
 30
0.0
 10
-171.8914841570639
 20
-169.2695118649
 30
0.0
 10
-172.3882712337675
 20
-169.5820663157655
 30
0.0
 10
-172.7437032418838
 20
-169.9594259896431
 30
0.0
 10
-172.7949659920937
 20
-170.2608701199602
 30
0.0
 10
-172.8185872891725
 20
-170.3997722279809
 30
0.0
 11
-166.6185872891725
 21
-170.3997722279809
 31
0.0
 11
-166.7242180259927
 21
-169.9986028150261
 31
0.0
 11
-167.0339085374408
 21
-169.6247722279809
 31
0.0
 11
-167.5265568519023
 21
-169.3037570093459
 31
0.0
 11
-168.1685872891725
 21
-169.0574328521151
 31
0.0
 11
-168.9162484632629
 21
-168.902587596391
 31
0.0
 11
-169.7185872891725
 21
-168.8497722279809
 31
0.0
 11
-170.5209261150821
 21
-168.902587596391
 31
0.0
 11
-171.2685872891724
 21
-169.0574328521151
 31
0.0
 11
-171.9106177264427
 21
-169.3037570093458
 31
0.0
 11
-172.4032660409042
 21
-169.6247722279809
 31
0.0
 11
-172.7129565523522
 21
-169.9986028150261
 31
0.0
 11
-172.8185872891725
 21
-170.3997722279809
 31
0.0
  0
SPLINE
  5
13F
330
47
100
AcDbEntity
  8
0
  6
Continuous
 62
     7
100
AcDbSpline
210
0.0
220
0.0
230
1.0
 70
     8
 71
     3
 72
    11
 73
     7
 74
     5
 42
0.000000001
 43
0.0000000001
 44
0.00000001
 40
0.0
 40
0.0
 40
0.0
 40
0.0
 40
0.4826695327547777
 40
0.9661074661587754
 40
1.43815911535074
 40
1.888547215089176
 40
1.888547215089176
 40
1.888547215089176
 40
1.888547215089176
 10
-159.0960187132997
 20
-218.1368677671872
 30
0.0
 10
-159.0086154006445
 20
-218.2725615632299
 30
0.0
 10
-158.8336696188355
 20
-218.5441651685081
 30
0.0
 10
-158.4854170911957
 20
-218.8783209207025
 30
0.0
 10
-158.0976193869599
 20
-219.1487480908938
 30
0.0
 10
-157.8073691212822
 20
-219.2537876886632
 30
0.0
 10
-157.6656522574913
 20
-219.3050740503536
 30
0.0
 11
-159.0960187132997
 21
-218.1368677671872
 31
0.0
 11
-158.8190825531064
 21
-218.5321856665545
 31
0.0
 11
-158.4744196555303
 21
-218.8711837849788
 31
0.0
 11
-158.082267288076
 21
-219.1339560860481
 31
0.0
 11
-157.6656522574913
 21
-219.3050740503536
 31
0.0
  0
SPLINE
  5
140
330
47
100
AcDbEntity
  8
0
  6
Continuous
 62
     7
100
AcDbSpline
210
0.0
220
0.0
230
1.0
 70
     8
 71
     3
 72
    11
 73
     7
 74
     5
 42
0.000000001
 43
0.0000000001
 44
0.00000001
 40
0.0
 40
0.0
 40
0.0
 40
0.0
 40
1.501716589123583
 40
3.011982928025896
 40
4.507380582629419
 40
5.965940896288482
 40
5.965940896288482
 40
5.965940896288482
 40
5.965940896288482
 10
-159.0960187132997
 20
-218.1368677671872
 30
0.0
 10
-159.362577008543
 20
-217.7120265270036
 30
0.0
 10
-159.8972112124594
 20
-216.8599252989088
 30
0.0
 10
-160.9182270577242
 20
-215.7489725458242
 30
0.0
 10
-162.0549259130426
 20
-214.7776683670779
 30
0.0
 10
-162.9134805202678
 20
-214.2913657750002
 30
0.0
 10
-163.3374045240067
 20
-214.0512467041641
 30
0.0
 11
-159.0960187132997
 21
-218.1368677671872
 31
0.0
 11
-159.9323950626355
 21
-216.8896198695948
 31
0.0
 11
-160.9429217272063
 21
-215.767238348447
 31
0.0
 11
-162.0915746536927
 21
-214.8097360745854
 31
0.0
 11
-163.3374045240067
 21
-214.0512467041641
 31
0.0
  0
SPLINE
  5
141
330
47
100
AcDbEntity
  8
0
  6
Continuous
 62
     7
100
AcDbSpline
210
0.0
220
0.0
230
1.0
 70
     8
 71
     3
 72
     9
 73
     5
 74
     3
 42
0.000000001
 43
0.0000000001
 44
0.00000001
 40
0.0
 40
0.0
 40
0.0
 40
0.0
 40
3.017382863901019
 40
5.879923767077679
 40
5.879923767077679
 40
5.879923767077679
 40
5.879923767077679
 10
-163.3374045240067
 20
-214.0512467041641
 30
0.0
 10
-164.25632290257
 20
-213.6290194821952
 30
0.0
 10
-166.0470038593981
 20
-212.8062323408377
 30
0.0
 10
-167.9933918995733
 20
-212.5020666913557
 30
0.0
 10
-168.9409578226793
 20
-212.3539888263577
 30
0.0
 11
-163.3374045240067
 21
-214.0512467041641
 31
0.0
 11
-166.13516362511
 21
-212.9211390256153
 31
0.0
 11
-168.9409578226793
 21
-212.3539888263577
 31
0.0
  0
SPLINE
  5
142
330
47
100
AcDbEntity
  8
0
  6
Continuous
 62
     7
100
AcDbSpline
210
0.0
220
0.0
230
1.0
 70
     8
 71
     3
 72
    11
 73
     7
 74
     5
 42
0.000000001
 43
0.0000000001
 44
0.00000001
 40
0.0
 40
0.0
 40
0.0
 40
0.0
 40
0.1676014956987903
 40
0.3276192723756999
 40
0.4818199683817299
 40
0.6328501322471161
 40
0.6328501322471161
 40
0.6328501322471161
 40
0.6328501322471161
 10
-168.9409578226793
 20
-212.3539888263577
 30
0.0
 10
-168.996933793508
 20
-212.3510989220905
 30
0.0
 10
-169.1063529054679
 20
-212.34544989213
 30
0.0
 10
-169.2653786888572
 20
-212.3752869981602
 30
0.0
 10
-169.4117399779091
 20
-212.4314562661178
 30
0.0
 10
-169.4931794462916
 20
-212.4931970391254
 30
0.0
 10
-169.533476207284
 20
-212.5237467709935
 30
0.0
 11
-168.9409578226793
 21
-212.3539888263577
 31
0.0
 11
-169.108548754824
 21
-212.3521070710234
 31
0.0
 11
-169.2660383846727
 21
-212.3804391368304
 31
0.0
 11
-169.409015695483
 21
-212.4381915733826
 31
0.0
 11
-169.533476207284
 21
-212.5237467709935
 31
0.0
  0
SPLINE
  5
143
330
47
100
AcDbEntity
  8
0
  6
Continuous
 62
     7
100
AcDbSpline
210
0.0
220
0.0
230
1.0
 70
     8
 71
     3
 72
    11
 73
     7
 74
     5
 42
0.000000001
 43
0.0000000001
 44
0.00000001
 40
0.0
 40
0.0
 40
0.0
 40
0.0
 40
0.1882257032866395
 40
0.3824491697458167
 40
0.5871851159401511
 40
0.8046506808534997
 40
0.8046506808534997
 40
0.8046506808534997
 40
0.8046506808534997
 10
-169.533476207284
 20
-212.5237467709935
 30
0.0
 10
-169.5776910579589
 20
-212.5688600852071
 30
0.0
 10
-169.6675296428039
 20
-212.6605242472381
 30
0.0
 10
-169.749918547679
 20
-212.8416464709359
 30
0.0
 10
-169.7930543804392
 20
-213.0445953096557
 30
0.0
 10
-169.7841369000834
 20
-213.1856648190865
 30
0.0
 10
-169.7795437188065
 20
-213.2583262372994
 30
0.0
 11
-169.533476207284
 21
-212.5237467709935
 31
0.0
 11
-169.6573580729281
 21
-212.6654584482232
 31
0.0
 11
-169.7417932329934
 21
-212.8403683099897
 31
0.0
 11
-169.7831191762429
 21
-213.0408900669015
 31
0.0
 11
-169.7795437188065
 21
-213.2583262372994
 31
0.0
  0
SPLINE
  5
144
330
47
100
AcDbEntity
  8
0
  6
Continuous
 62
     7
100
AcDbSpline
210
0.0
220
0.0
230
1.0
 70
     8
 71
     3
 72
    11
 73
     7
 74
     5
 42
0.000000001
 43
0.0000000001
 44
0.00000001
 40
0.0
 40
0.0
 40
0.0
 40
0.0
 40
0.0627418998187531
 40
0.1274830534602139
 40
0.1957283673664097
 40
0.2682168887435249
 40
0.2682168887435249
 40
0.2682168887435249
 40
0.2682168887435249
 10
-169.8615662226472
 20
-213.5031860594015
 30
0.0
 10
-169.8468279393888
 20
-213.488148288303
 30
0.0
 10
-169.8168817526695
 20
-213.4575935620024
 30
0.0
 10
-169.7894187809158
 20
-213.39721949159
 30
0.0
 10
-169.7750401746978
 20
-213.3295698791492
 30
0.0
 10
-169.7780126583864
 20
-213.28254670995
 30
0.0
 10
-169.7795437188065
 20
-213.2583262372994
 30
0.0
 11
-169.8615662226472
 21
-213.5031860594015
 31
0.0
 11
-169.8202722674325
 21
-213.4559488336583
 31
0.0
 11
-169.7921272140774
 21
-213.3976455464028
 31
0.0
 11
-169.7783518996609
 21
-213.3308049607654
 31
0.0
 11
-169.7795437188065
 21
-213.2583262372994
 31
0.0
  0
SPLINE
  5
145
330
47
100
AcDbEntity
  8
0
  6
Continuous
 62
     7
100
AcDbSpline
210
0.0
220
0.0
230
1.0
 70
     8
 71
     3
 72
    13
 73
     9
 74
     7
 42
0.000000001
 43
0.0000000001
 44
0.00000001
 40
0.0
 40
0.0
 40
0.0
 40
0.0
 40
0.1045567286508343
 40
0.206141800753718
 40
0.3022745471529893
 40
0.3916590361759258
 40
0.4747389888150932
 40
0.5539452715656363
 40
0.5539452715656363
 40
0.5539452715656363
 40
0.5539452715656363
 10
-170.3521342877635
 20
-213.3949719202931
 30
0.0
 10
-170.3279315016558
 20
-213.4202120079372
 30
0.0
 10
-170.2802137986426
 20
-213.4699748124899
 30
0.0
 10
-170.1936772729904
 20
-213.5235414456567
 30
0.0
 10
-170.1029630248595
 20
-213.5566345490737
 30
0.0
 10
-170.0130585243648
 20
-213.5649747441684
 30
0.0
 10
-169.9282562213519
 20
-213.5496949337402
 30
0.0
 10
-169.8834396387433
 20
-213.5184403457016
 30
0.0
 10
-169.8615662226472
 20
-213.5031860594015
 30
0.0
 11
-170.3521342877635
 21
-213.3949719202931
 31
0.0
 11
-170.276619534739
 21
-213.4672881086365
 31
0.0
 11
-170.1905672515015
 21
-213.5212745097509
 31
0.0
 11
-170.0998966020115
 21
-213.5532172488348
 31
0.0
 11
-170.0108445736848
 21
-213.5609194361967
 31
0.0
 11
-169.9295368627898
 21
-213.5438508839479
 31
0.0
 11
-169.8615662226472
 21
-213.5031860594015
 31
0.0
  0
SPLINE
  5
146
330
47
100
AcDbEntity
  8
0
  6
Continuous
 62
     7
100
AcDbSpline
210
0.0
220
0.0
230
1.0
 70
     8
 71
     3
 72
    11
 73
     7
 74
     5
 42
0.000000001
 43
0.0000000001
 44
0.00000001
 40
0.0
 40
0.0
 40
0.0
 40
0.0
 40
0.6085423711960253
 40
1.247260111612612
 40
1.908517438562582
 40
2.581951841252646
 40
2.581951841252646
 40
2.581951841252646
 40
2.581951841252646
 10
-171.3353248147135
 20
-211.0543972448984
 30
0.0
 10
-171.3150469890689
 20
-211.2568432802552
 30
0.0
 10
-171.2734858203815
 20
-211.6717739001434
 30
0.0
 10
-171.0649483348219
 20
-212.2775348102967
 30
0.0
 10
-170.7663033912724
 20
-212.8671643616383
 30
0.0
 10
-170.4910278196487
 20
-213.2179692129135
 30
0.0
 10
-170.3521342877635
 20
-213.3949719202931
 30
0.0
 11
-171.3353248147135
 21
-211.0543972448984
 31
0.0
 11
-171.2519425824196
 21
-211.6572000503197
 31
0.0
 11
-171.0542093960637
 21
-212.2645401044531
 31
0.0
 11
-170.7501563550657
 21
-212.8517479065219
 31
0.0
 11
-170.3521342877635
 21
-213.3949719202931
 31
0.0
  0
SPLINE
  5
147
330
47
100
AcDbEntity
  8
0
  6
Continuous
 62
     7
100
AcDbSpline
210
0.0
220
0.0
230
1.0
 70
     8
 71
     3
 72
    11
 73
     7
 74
     5
 42
0.000000001
 43
0.0000000001
 44
0.00000001
 40
0.0
 40
0.0
 40
0.0
 40
0.0
 40
0.0994033217203136
 40
0.2014330550266455
 40
0.3081733529234387
 40
0.420834268514164
 40
0.420834268514164
 40
0.420834268514164
 40
0.420834268514164
 10
-171.187903043075
 20
-210.6745467692186
 30
0.0
 10
-171.2114166142605
 20
-210.698155531801
 30
0.0
 10
-171.2590650156312
 20
-210.7459968519724
 30
0.0
 10
-171.3058949407539
 20
-210.8390092218376
 30
0.0
 10
-171.3342898728444
 20
-210.9432869289669
 30
0.0
 10
-171.3349736880922
 20
-211.0167001125108
 30
0.0
 10
-171.3353248147135
 20
-211.0543972448984
 30
0.0
 11
-171.187903043075
 21
-210.6745467692186
 31
0.0
 11
-171.2542944360635
 21
-210.7485278724997
 31
0.0
 11
-171.302006772305
 21
-210.8387143457655
 31
0.0
 11
-171.3293412665869
 21
-210.9418953375341
 31
0.0
 11
-171.3353248147135
 21
-211.0543972448984
 31
0.0
  0
SPLINE
  5
148
330
47
100
AcDbEntity
  8
0
  6
Continuous
 62
     7
100
AcDbSpline
210
0.0
220
0.0
230
1.0
 70
     8
 71
     3
 72
    11
 73
     7
 74
     5
 42
0.000000001
 43
0.0000000001
 44
0.00000001
 40
0.0
 40
0.0
 40
0.0
 40
0.0
 40
0.1309988334402715
 40
0.2541253920137687
 40
0.3706767344517848
 40
0.4834504872165886
 40
0.4834504872165886
 40
0.4834504872165886
 40
0.4834504872165886
 10
-170.7296454735795
 20
-210.5974792487825
 30
0.0
 10
-170.7723879037857
 20
-210.5876226883285
 30
0.0
 10
-170.8553041928101
 20
-210.5685019042847
 30
0.0
 10
-170.9799493793919
 20
-210.5747647917183
 30
0.0
 10
-171.0950815112983
 20
-210.6069152495409
 30
0.0
 10
-171.1573041923082
 20
-210.6522518631242
 30
0.0
 10
-171.187903043075
 20
-210.6745467692186
 30
0.0
 11
-170.7296454735795
 21
-210.5974792487825
 31
0.0
 11
-170.8585468911783
 21
-210.5741314651896
 31
0.0
 11
-170.9815529724901
 21
-210.5795770090629
 31
0.0
 11
-171.0930379269308
 21
-210.6135670225986
 31
0.0
 11
-171.187903043075
 21
-210.6745467692186
 31
0.0
  0
SPLINE
  5
149
330
47
100
AcDbEntity
  8
0
  6
Continuous
 62
     7
100
AcDbSpline
210
0.0
220
0.0
230
1.0
 70
     8
 71
     3
 72
    11
 73
     7
 74
     5
 42
0.000000001
 43
0.0000000001
 44
0.00000001
 40
0.0
 40
0.0
 40
0.0
 40
0.0
 40
0.05614235698162
 40
0.1089108807814675
 40
0.1588614544874496
 40
0.2071930616846825
 40
0.2071930616846825
 40
0.2071930616846825
 40
0.2071930616846825
 10
-170.7296454735795
 20
-210.5974792487825
 30
0.0
 10
-170.711327289273
 20
-210.6017034889615
 30
0.0
 10
-170.6757917360023
 20
-210.6098981023581
 30
0.0
 10
-170.622372371371
 20
-210.6072140116425
 30
0.0
 10
-170.5730300322442
 20
-210.5934352405386
 30
0.0
 10
-170.546363165246
 20
-210.5740052709839
 30
0.0
 10
-170.533249372367
 20
-210.5644503114527
 30
0.0
 11
-170.7296454735795
 21
-210.5974792487825
 31
0.0
 11
-170.6744020088942
 21
-210.607485441751
 31
0.0
 11
-170.6216851169034
 21
-210.6051516372338
 31
0.0
 11
-170.5739058507145
 21
-210.5905844885756
 31
0.0
 11
-170.533249372367
 21
-210.5644503114527
 31
0.0
  0
SPLINE
  5
14A
330
47
100
AcDbEntity
  8
0
  6
Continuous
 62
     7
100
AcDbSpline
210
0.0
220
0.0
230
1.0
 70
     8
 71
     3
 72
     9
 73
     5
 74
     3
 42
0.000000001
 43
0.0000000001
 44
0.00000001
 40
0.0
 40
0.0
 40
0.0
 40
0.0
 40
0.0808410949937328
 40
0.1684190793152332
 40
0.1684190793152332
 40
0.1684190793152332
 40
0.1684190793152332
 10
-170.533249372367
 20
-210.5644503114527
 30
0.0
 10
-170.5150138823401
 20
-210.5436294318999
 30
0.0
 10
-170.4770232651562
 20
-210.5002525560452
 30
0.0
 10
-170.4722960148494
 20
-210.4426335403662
 30
0.0
 10
-170.469837852444
 20
-210.4126716276471
 30
0.0
 11
-170.533249372367
 21
-210.5644503114527
 31
0.0
 11
-170.4862067768766
 21
-210.4987062836123
 31
0.0
 11
-170.469837852444
 21
-210.4126716276471
 31
0.0
  0
SPLINE
  5
14B
330
47
100
AcDbEntity
  8
0
  6
Continuous
 62
     7
100
AcDbSpline
210
0.0
220
0.0
230
1.0
 70
     8
 71
     3
 72
    13
 73
     9
 74
     7
 42
0.000000001
 43
0.0000000001
 44
0.00000001
 40
0.0
 40
0.0
 40
0.0
 40
0.0
 40
0.1172631642635665
 40
0.2419307378213214
 40
0.3712960139461695
 40
0.501722114711
 40
0.629373771144795
 40
0.7509434390752399
 40
0.7509434390752399
 40
0.7509434390752399
 40
0.7509434390752399
 10
-170.4698378524441
 20
-208.3775119287537
 30
0.0
 10
-170.4729122266982
 20
-208.3383615662293
 30
0.0
 10
-170.4792551167165
 20
-208.2575887512535
 30
0.0
 10
-170.5251251498175
 20
-208.1409408369435
 30
0.0
 10
-170.5933946292993
 20
-208.0317330862089
 30
0.0
 10
-170.6829930494874
 20
-207.9377946806067
 30
0.0
 10
-170.7863949840297
 20
-207.8623916507418
 30
0.0
 10
-170.8646687591886
 20
-207.8335621792451
 30
0.0
 10
-170.9028505543363
 20
-207.8194992268614
 30
0.0
 11
-170.4698378524441
 21
-208.3775119287537
 31
0.0
 11
-170.4845925139775
 21
-208.2611807207077
 31
0.0
 11
-170.5278505543363
 21
-208.1442587532806
 31
0.0
 11
-170.5966644181194
 21
-208.0347141166202
 31
0.0
 11
-170.6863442033902
 21
-207.9400119287536
 31
0.0
 11
-170.7907786501943
 21
-207.8666062604073
 31
0.0
 11
-170.9028505543363
 21
-207.8194992268614
 31
0.0
  0
SPLINE
  5
14C
330
47
100
AcDbEntity
  8
0
  6
Continuous
 62
     7
100
AcDbSpline
210
0.0
220
0.0
230
1.0
 70
     8
 71
     3
 72
    11
 73
     7
 74
     5
 42
0.000000001
 43
0.0000000001
 44
0.00000001
 40
0.0
 40
0.0
 40
0.0
 40
0.0
 40
0.0935705952108669
 40
0.1815181363975503
 40
0.2647690944695996
 40
0.3453217744505179
 40
0.3453217744505179
 40
0.3453217744505179
 40
0.3453217744505179
 10
-171.0003804284272
 20
-207.7913447773312
 30
0.0
 10
-171.0309107356836
 20
-207.7843043770148
 30
0.0
 10
-171.090136656831
 20
-207.7706466782947
 30
0.0
 10
-171.1791689324376
 20
-207.7751201673691
 30
0.0
 10
-171.2614061679542
 20
-207.7980847818324
 30
0.0
 10
-171.3058509419582
 20
-207.8304680734014
 30
0.0
 10
-171.3277072637811
 20
-207.8463930062142
 30
0.0
 11
-171.0003804284272
 21
-207.7913447773312
 31
0.0
 11
-171.0924528695692
 21
-207.7746677890506
 31
0.0
 11
-171.1803143562205
 21
-207.7785574632458
 31
0.0
 11
-171.2599464665354
 21
-207.8028360443427
 31
0.0
 11
-171.3277072637811
 21
-207.8463930062142
 31
0.0
  0
SPLINE
  5
14D
330
47
100
AcDbEntity
  8
0
  6
Continuous
 62
     7
100
AcDbSpline
210
0.0
220
0.0
230
1.0
 70
     8
 71
     3
 72
     9
 73
     5
 74
     3
 42
0.000000001
 43
0.0000000001
 44
0.00000001
 40
0.0
 40
0.0
 40
0.0
 40
0.0
 40
0.0849727062786202
 40
0.1730887211059605
 40
0.1730887211059605
 40
0.1730887211059605
 40
0.1730887211059605
 10
-171.3277072637811
 20
-207.8463930062142
 30
0.0
 10
-171.3477993419669
 20
-207.8668612757668
 30
0.0
 10
-171.3887267282803
 20
-207.908554988361
 30
0.0
 10
-171.4085479835029
 20
-207.963548640832
 30
0.0
 10
-171.4186385802962
 20
-207.9915448169164
 30
0.0
 11
-171.3277072637811
 21
-207.8463930062142
 31
0.0
 11
-171.3828968631103
 21
-207.911003138416
 31
0.0
 11
-171.4186385802962
 21
-207.9915448169164
 31
0.0
  0
SPLINE
  5
14E
330
47
100
AcDbEntity
  8
0
  6
Continuous
 62
     7
100
AcDbSpline
210
0.0
220
0.0
230
1.0
 70
     8
 71
     3
 72
    11
 73
     7
 74
     5
 42
0.000000001
 43
0.0000000001
 44
0.00000001
 40
0.0
 40
0.0
 40
0.0
 40
0.0
 40
0.3920083270232004
 40
0.7798650148287087
 40
1.157457324409825
 40
1.519805444467263
 40
1.519805444467263
 40
1.519805444467263
 40
1.519805444467263
 10
-176.8257832412586
 20
-207.3964246358513
 30
0.0
 10
-176.9103306674854
 20
-207.2964327488962
 30
0.0
 10
-177.0785301151931
 20
-207.0975079683162
 30
0.0
 10
-177.3800161799279
 20
-206.8539872609415
 30
0.0
 10
-177.7025337573414
 20
-206.6564398843897
 30
0.0
 10
-177.936134197835
 20
-206.5752996146493
 30
0.0
 10
-178.0505281126501
 20
-206.5355653090809
 30
0.0
 11
-176.8257832412586
 21
-207.3964246358513
 31
0.0
 11
-177.0882522875287
 21
-207.1052536748335
 31
0.0
 11
-177.387700964579
 21
-206.8587515424497
 31
0.0
 11
-177.7126217788804
 21
-206.6663914166309
 31
0.0
 11
-178.0505281126501
 21
-206.5355653090809
 31
0.0
  0
SPLINE
  5
14F
330
47
100
AcDbEntity
  8
0
  6
Continuous
 62
     7
100
AcDbSpline
210
0.0
220
0.0
230
1.0
 70
     8
 71
     3
 72
    11
 73
     7
 74
     5
 42
0.000000001
 43
0.0000000001
 44
0.00000001
 40
0.0
 40
0.0
 40
0.0
 40
0.0
 40
0.098249124989578
 40
0.1905940433496562
 40
0.2780075494674417
 40
0.3625878635464249
 40
0.3625878635464249
 40
0.3625878635464249
 40
0.3625878635464249
 10
-178.047560135558
 20
-204.890973823077
 30
0.0
 10
-178.0155033129329
 20
-204.8983662434107
 30
0.0
 10
-177.9533160958008
 20
-204.9127068277963
 30
0.0
 10
-177.8598322063224
 20
-204.908009663927
 30
0.0
 10
-177.773483108757
 20
-204.8838968190437
 30
0.0
 10
-177.7268160963772
 20
-204.849894362223
 30
0.0
 10
-177.7038669584363
 20
-204.8331731827499
 30
0.0
 11
-178.047560135558
 21
-204.890973823077
 31
0.0
 11
-177.9508840723589
 21
-204.9084846607717
 31
0.0
 11
-177.858629511375
 21
-204.9044005028668
 31
0.0
 11
-177.7750157955444
 21
-204.878907992715
 31
0.0
 11
-177.7038669584363
 21
-204.8331731827499
 31
0.0
  0
SPLINE
  5
150
330
47
100
AcDbEntity
  8
0
  6
Continuous
 62
     7
100
AcDbSpline
210
0.0
220
0.0
230
1.0
 70
     8
 71
     3
 72
    15
 73
    11
 74
     9
 42
0.000000001
 43
0.0000000001
 44
0.00000001
 40
0.0
 40
0.0
 40
0.0
 40
0.0
 40
0.1129385421857897
 40
0.2322801150809642
 40
0.3616824440741631
 40
0.5012113718837906
 40
0.6480042193305118
 40
0.7974169697410425
 40
0.944216536378572
 40
1.083757557814089
 40
1.083757557814089
 40
1.083757557814089
 40
1.083757557814089
 10
-177.7038669584363
 20
-204.8331731827499
 30
0.0
 10
-177.678110931985
 20
-204.8051154903259
 30
0.0
 10
-177.6251386566961
 20
-204.7474093713134
 30
0.0
 10
-177.5909997737689
 20
-204.6278327920758
 30
0.0
 10
-177.5920676161613
 20
-204.4973104813656
 30
0.0
 10
-177.6299070868046
 20
-204.3623959477291
 30
0.0
 10
-177.7000959652282
 20
-204.2338573960472
 30
0.0
 10
-177.7976738407589
 20
-204.1219738584283
 30
0.0
 10
-177.9140490650796
 20
-204.0318356497069
 30
0.0
 10
-178.0038149454618
 20
-203.9980915143832
 30
0.0
 10
-178.047560135558
 20
-203.9816471491032
 30
0.0
 11
-177.7038669584363
 21
-204.8331731827499
 31
0.0
 11
-177.6339387402635
 21
-204.7444874465442
 31
0.0
 11
-177.5975113306811
 21
-204.630841257418
 31
0.0
 11
-177.5975359033094
 21
-204.5014389277599
 31
0.0
 11
-177.6340096921465
 21
-204.3667615918207
 31
0.0
 11
-177.7039792557599
 21
-204.2377174117286
 31
0.0
 11
-177.8017767736821
 21
-204.1247580585996
 31
0.0
 11
-177.9194816675106
 21
-204.0370330876567
 31
0.0
 11
-178.047560135558
 21
-203.9816471491032
 31
0.0
  0
SPLINE
  5
151
330
47
100
AcDbEntity
  8
0
  6
Continuous
 62
     7
100
AcDbSpline
210
0.0
220
0.0
230
1.0
 70
     8
 71
     3
 72
     9
 73
     5
 74
     3
 42
0.000000001
 43
0.0000000001
 44
0.00000001
 40
0.0
 40
0.0
 40
0.0
 40
0.0
 40
0.1347351597551067
 40
0.2806984683897487
 40
0.2806984683897487
 40
0.2806984683897487
 40
0.2806984683897487
 10
-155.7716239321381
 20
-212.3370474557444
 30
0.0
 10
-155.8020164158392
 20
-212.3717489220345
 30
0.0
 10
-155.8653341229128
 20
-212.4440437094584
 30
0.0
 10
-155.8732128612936
 20
-212.540075407065
 30
0.0
 10
-155.8773097986763
 20
-212.5900119287536
 30
0.0
 11
-155.7716239321381
 21
-212.3370474557444
 31
0.0
 11
-155.8500282579553
 21
-212.4466208354784
 31
0.0
 11
-155.8773097986763
 21
-212.5900119287536
 31
0.0
  0
SPLINE
  5
152
330
47
100
AcDbEntity
  8
0
  6
Continuous
 62
     7
100
AcDbSpline
210
0.0
220
0.0
230
1.0
 70
     8
 71
     3
 72
    11
 73
     7
 74
     5
 42
0.000000001
 43
0.0000000001
 44
0.00000001
 40
0.0
 40
0.0
 40
0.0
 40
0.0
 40
0.093570595211027
 40
0.1815181363976833
 40
0.2647690944696593
 40
0.3453217744506801
 40
0.3453217744506801
 40
0.3453217744506801
 40
0.3453217744506801
 10
-155.4442970967841
 20
-212.2819992268614
 30
0.0
 10
-155.4748274040406
 20
-212.2749588265449
 30
0.0
 10
-155.534053325188
 20
-212.2613011278247
 30
0.0
 10
-155.6230856007946
 20
-212.2657746168992
 30
0.0
 10
-155.7053228363112
 20
-212.2887392313626
 30
0.0
 10
-155.7497676103152
 20
-212.3211225229315
 30
0.0
 10
-155.7716239321381
 20
-212.3370474557444
 30
0.0
 11
-155.4442970967841
 21
-212.2819992268614
 31
0.0
 11
-155.5363695379263
 21
-212.2653222385807
 31
0.0
 11
-155.6242310245775
 21
-212.2692119127759
 31
0.0
 11
-155.7038631348923
 21
-212.2934904938729
 31
0.0
 11
-155.7716239321381
 21
-212.3370474557444
 31
0.0
  0
SPLINE
  5
153
330
47
100
AcDbEntity
  8
0
  6
Continuous
 62
     7
100
AcDbSpline
210
0.0
220
0.0
230
1.0
 70
     8
 71
     3
 72
    13
 73
     9
 74
     7
 42
0.000000001
 43
0.0000000001
 44
0.00000001
 40
0.0
 40
0.0
 40
0.0
 40
0.0
 40
0.1172631642635276
 40
0.2419307378212628
 40
0.371296013946102
 40
0.5017221147109737
 40
0.629373771144871
 40
0.7509434390753048
 40
0.7509434390753048
 40
0.7509434390753048
 40
0.7509434390753048
 10
-154.5782716929998
 20
-212.9650119287537
 30
0.0
 10
-154.581346067254
 20
-212.9258615662293
 30
0.0
 10
-154.5876889572721
 20
-212.8450887512536
 30
0.0
 10
-154.6335589903731
 20
-212.7284408369435
 30
0.0
 10
-154.701828469855
 20
-212.6192330862092
 30
0.0
 10
-154.791426890043
 20
-212.5252946806067
 30
0.0
 10
-154.8948288245854
 20
-212.4498916507418
 30
0.0
 10
-154.9731025997442
 20
-212.421062179245
 30
0.0
 10
-155.011284394892
 20
-212.4069992268614
 30
0.0
 11
-154.5782716929998
 21
-212.9650119287537
 31
0.0
 11
-154.5930263545331
 21
-212.8486807207077
 31
0.0
 11
-154.6362843948919
 21
-212.7317587532806
 31
0.0
 11
-154.705098258675
 21
-212.6222141166203
 31
0.0
 11
-154.7947780439458
 21
-212.5275119287537
 31
0.0
 11
-154.89921249075
 21
-212.4541062604072
 31
0.0
 11
-155.011284394892
 21
-212.4069992268614
 31
0.0
  0
SPLINE
  5
154
330
47
100
AcDbEntity
  8
0
  6
Continuous
 62
     7
100
AcDbSpline
210
0.0
220
0.0
230
1.0
 70
     8
 71
     3
 72
     9
 73
     5
 74
     3
 42
0.000000001
 43
0.0000000001
 44
0.00000001
 40
0.0
 40
0.0
 40
0.0
 40
0.0
 40
0.1347351597550704
 40
0.2806984683898905
 40
0.2806984683898905
 40
0.2806984683898905
 40
0.2806984683898905
 10
-180.8595753889226
 20
-204.0619563172972
 30
0.0
 10
-180.8291829052214
 20
-204.0272548510071
 30
0.0
 10
-180.7658651981478
 20
-203.9549600635832
 30
0.0
 10
-180.757986459767
 20
-203.8589283659766
 30
0.0
 10
-180.7538895223843
 20
-203.8089918442879
 30
0.0
 11
-180.8595753889226
 21
-204.0619563172972
 31
0.0
 11
-180.7811710631054
 21
-203.9523829375632
 31
0.0
 11
-180.7538895223843
 21
-203.8089918442879
 31
0.0
  0
SPLINE
  5
155
330
47
100
AcDbEntity
  8
0
  6
Continuous
 62
     7
100
AcDbSpline
210
0.0
220
0.0
230
1.0
 70
     8
 71
     3
 72
     9
 73
     5
 74
     3
 42
0.000000001
 43
0.0000000001
 44
0.00000001
 40
0.0
 40
0.0
 40
0.0
 40
0.0
 40
0.0134531932712464
 40
0.0268929861030599
 40
0.0268929861030599
 40
0.0268929861030599
 40
0.0268929861030599
 10
-180.8807160064287
 20
-204.0785664097842
 30
0.0
 10
-180.8770916594466
 20
-204.0759228789575
 30
0.0
 10
-180.8698465877792
 20
-204.0706384346044
 30
0.0
 10
-180.8629979801726
 20
-204.0648494000524
 30
0.0
 10
-180.8595753889226
 20
-204.0619563172972
 30
0.0
 11
-180.8807160064287
 21
-204.0785664097842
 31
0.0
 11
-180.8699421862885
 21
-204.0705095359983
 31
0.0
 11
-180.8595753889226
 21
-204.0619563172972
 31
0.0
  0
SPLINE
  5
156
330
47
100
AcDbEntity
  8
0
  6
Continuous
 62
     7
100
AcDbSpline
210
0.0
220
0.0
230
1.0
 70
     8
 71
     3
 72
    11
 73
     7
 74
     5
 42
0.000000001
 43
0.0000000001
 44
0.00000001
 40
0.0
 40
0.0
 40
0.0
 40
0.0
 40
0.4557965588129554
 40
0.9223879715742815
 40
1.408563928666877
 40
1.91981508294966
 40
1.91981508294966
 40
1.91981508294966
 40
1.91981508294966
 10
-181.2909624654119
 20
-204.9715517794814
 30
0.0
 10
-181.399177813027
 20
-205.0792818679558
 30
0.0
 10
-181.6181714144418
 20
-205.2972934793803
 30
0.0
 10
-181.8409008320095
 20
-205.7171702525862
 30
0.0
 10
-181.9847026047365
 20
-206.1876330516629
 30
0.0
 10
-182.0011803621976
 20
-206.5208917858585
 30
0.0
 10
-182.0096263578718
 20
-206.6917101959442
 30
0.0
 11
-181.2909624654119
 21
-204.9715517794814
 31
0.0
 11
-181.5977487802129
 21
-205.3086462195302
 31
0.0
 11
-181.8241166034251
 21
-205.7166476377686
 31
0.0
 11
-181.9628777370189
 21
-206.1826008661096
 31
0.0
 11
-182.0096263578718
 21
-206.6917101959442
 31
0.0
  0
SPLINE
  5
157
330
47
100
AcDbEntity
  8
0
  6
Continuous
 62
     7
100
AcDbSpline
210
0.0
220
0.0
230
1.0
 70
     8
 71
     3
 72
     9
 73
     5
 74
     3
 42
0.000000001
 43
0.0000000001
 44
0.00000001
 40
0.0
 40
0.0
 40
0.0
 40
0.0
 40
0.0404195285523132
 40
0.0804893436039664
 40
0.0804893436039664
 40
0.0804893436039664
 40
0.0804893436039664
 10
-183.6767252601569
 20
-211.4066126186507
 30
0.0
 10
-183.6646533810319
 20
-211.4005357288795
 30
0.0
 10
-183.6406140799851
 20
-211.3884345100399
 30
0.0
 10
-183.6196450177578
 20
-211.3715650304609
 30
0.0
 10
-183.6092060459382
 20
-211.3631669301462
 30
0.0
 11
-183.6767252601569
 21
-211.4066126186507
 31
0.0
 11
-183.6412838716468
 21
-211.3871794942023
 31
0.0
 11
-183.6092060459382
 21
-211.3631669301462
 31
0.0
  0
SPLINE
  5
158
330
47
100
AcDbEntity
  8
0
  6
Continuous
 62
     7
100
AcDbSpline
210
0.0
220
0.0
230
1.0
 70
     8
 71
     3
 72
    15
 73
    11
 74
     9
 42
0.000000001
 43
0.0000000001
 44
0.00000001
 40
0.0
 40
0.0
 40
0.0
 40
0.0
 40
0.3276172629174681
 40
0.7019331644990394
 40
1.108528056807407
 40
1.528663349504097
 40
1.941985899536271
 40
2.328942985497851
 40
2.673332960506877
 40
2.96555837096565
 40
2.96555837096565
 40
2.96555837096565
 40
2.96555837096565
 10
-155.5720337836933
 20
-175.343137278618
 30
0.0
 10
-155.6670559308611
 20
-175.2886214819013
 30
0.0
 10
-155.8706447116909
 20
-175.1718192116397
 30
0.0
 10
-156.2290871007978
 20
-175.0702061588507
 30
0.0
 10
-156.625296933104
 20
-175.0092219154291
 30
0.0
 10
-157.0397878119056
 20
-175.0011642455438
 30
0.0
 10
-157.4458590896554
 20
-175.0433230937525
 30
0.0
 10
-157.8162191721971
 20
-175.1364603392855
 30
0.0
 10
-158.1364981742183
 20
-175.2657656636822
 30
0.0
 10
-158.3014752886021
 20
-175.4008515982136
 30
0.0
 10
-158.3772046892673
 20
-175.4628600710347
 30
0.0
 11
-155.5720337836933
 21
-175.343137278618
 31
0.0
 11
-155.8621936401722
 21
-175.1910178284952
 31
0.0
 11
-156.2198226427325
 21
-175.0805013735416
 31
0.0
 11
-156.6217030498091
 21
-175.0187636437028
 31
0.0
 11
-157.0417429706208
 21
-175.0098121681403
 31
0.0
 11
-157.4526720266719
 21
-175.0542288362599
 31
0.0
 11
-157.8278115943519
 21
-175.1491292518218
 31
0.0
 11
-158.1428056602803
 21
-175.2883528033175
 31
0.0
 11
-158.3772046892673
 21
-175.4628600710347
 31
0.0
  0
SPLINE
  5
159
330
47
100
AcDbEntity
  8
0
  6
Continuous
 62
     7
100
AcDbSpline
210
0.0
220
0.0
230
1.0
 70
     8
 71
     3
 72
    17
 73
    13
 74
    11
 42
0.000000001
 43
0.0000000001
 44
0.00000001
 40
0.0
 40
0.0
 40
0.0
 40
0.0
 40
0.58800777271435
 40
1.275669517170074
 40
2.039197043833274
 40
2.843272323300939
 40
3.647347602991629
 40
4.410875130563801
 40
5.098536874412285
 40
5.686544641453095
 40
6.171990334189461
 40
6.586833368396247
 40
6.586833368396247
 40
6.586833368396247
 40
6.586833368396247
 10
-159.5860902661972
 20
-173.3247721698698
 30
0.0
 10
-159.4260161372644
 20
-173.2102263661128
 30
0.0
 10
-159.0787389411047
 20
-172.9617218555057
 30
0.0
 10
-158.4301167086898
 20
-172.7346821740423
 30
0.0
 10
-157.6931375649945
 20
-172.5825838949742
 30
0.0
 10
-156.9012962946263
 20
-172.532765764264
 30
0.0
 10
-156.1101346717833
 20
-172.5832708447496
 30
0.0
 10
-155.3712818478273
 20
-172.7322017981759
 30
0.0
 10
-154.7285161297552
 20
-172.969509197401
 30
0.0
 10
-154.2317272706511
 20
-173.2820667902406
 30
0.0
 10
-153.8762956113951
 20
-173.659425830382
 30
0.0
 10
-153.8250328293462
 20
-173.9608700316339
 30
0.0
 10
-153.8014115144655
 20
-174.0997721698698
 30
0.0
 11
-159.5860902661972
 21
-173.3247721698698
 31
0.0
 11
-159.0934419517357
 21
-173.0037569512347
 31
0.0
 11
-158.4514115144655
 21
-172.757432794004
 31
0.0
 11
-157.703750340375
 21
-172.6025875382799
 31
0.0
 11
-156.9014115144655
 21
-172.5497721698698
 31
0.0
 11
-156.0990726885559
 21
-172.6025875382799
 31
0.0
 11
-155.3514115144655
 21
-172.757432794004
 31
0.0
 11
-154.7093810771954
 21
-173.0037569512347
 31
0.0
 11
-154.2167327627338
 21
-173.3247721698698
 31
0.0
 11
-153.9070422512858
 21
-173.6986027569151
 31
0.0
 11
-153.8014115144655
 21
-174.0997721698698
 31
0.0
  0
SPLINE
  5
15A
330
47
100
AcDbEntity
  8
0
  6
Continuous
 62
     7
100
AcDbSpline
210
0.0
220
0.0
230
1.0
 70
     8
 71
     3
 72
     9
 73
     5
 74
     3
 42
0.000000001
 43
0.0000000001
 44
0.00000001
 40
0.0
 40
0.0
 40
0.0
 40
0.0
 40
0.414843040997238
 40
0.9002887316768855
 40
0.9002887316768855
 40
0.9002887316768855
 40
0.9002887316768855
 10
-160.0014115144655
 20
-174.0997721698698
 30
0.0
 10
-159.9784136145188
 20
-173.9597739863972
 30
0.0
 10
-159.9285037554218
 20
-173.6559511622514
 30
0.0
 10
-159.7060433812946
 20
-173.4407896455729
 30
0.0
 10
-159.5860902661972
 20
-173.3247721698698
 30
0.0
 11
-160.0014115144655
 21
-174.0997721698698
 31
0.0
 11
-159.8957807776453
 21
-173.698602756915
 31
0.0
 11
-159.5860902661972
 21
-173.3247721698698
 31
0.0
  0
SPLINE
  5
15B
330
47
100
AcDbEntity
  8
0
  6
Continuous
 62
     7
100
AcDbSpline
210
0.0
220
0.0
230
1.0
 70
     8
 71
     3
 72
    19
 73
    15
 74
    13
 42
0.000000001
 43
0.0000000001
 44
0.00000001
 40
0.0
 40
0.0
 40
0.0
 40
0.0
 40
0.4148430388278412
 40
0.9002887280266565
 40
1.488296496112559
 40
2.175958241578489
 40
2.939485771591267
 40
3.743561054513153
 40
4.547636337435038
 40
5.311163867447933
 40
5.998825612913915
 40
6.586833380999746
 40
7.072279070198543
 40
7.487122109026399
 40
7.487122109026399
 40
7.487122109026399
 40
7.487122109026399
 10
-153.8014115144655
 20
-174.0997721698698
 30
0.0
 10
-153.8250328115444
 20
-174.2386742778906
 30
0.0
 10
-153.8762955617541
 20
-174.5401184082077
 30
0.0
 10
-154.2317275698705
 20
-174.9174780820852
 30
0.0
 10
-154.7285146465741
 20
-175.2300325329507
 30
0.0
 10
-155.3712887152359
 20
-175.4673546153211
 30
0.0
 10
-156.1101054172917
 20
-175.6162220539966
 30
0.0
 10
-156.9014115144655
 20
-175.666981148067
 30
0.0
 10
-157.6927176116392
 20
-175.6162220539966
 30
0.0
 10
-158.4315343136951
 20
-175.4673546153211
 30
0.0
 10
-159.074308382357
 20
-175.2300325329507
 30
0.0
 10
-159.5710954590605
 20
-174.9174780820852
 30
0.0
 10
-159.9265274671769
 20
-174.5401184082077
 30
0.0
 10
-159.9777902173866
 20
-174.2386742778907
 30
0.0
 10
-160.0014115144655
 20
-174.0997721698698
 30
0.0
 11
-153.8014115144655
 21
-174.0997721698698
 31
0.0
 11
-153.9070422512857
 21
-174.5009415828246
 31
0.0
 11
-154.2167327627338
 21
-174.8747721698698
 31
0.0
 11
-154.7093810771954
 21
-175.1957873885049
 31
0.0
 11
-155.3514115144655
 21
-175.4421115457357
 31
0.0
 11
-156.0990726885559
 21
-175.5969568014597
 31
0.0
 11
-156.9014115144655
 21
-175.6497721698698
 31
0.0
 11
-157.7037503403751
 21
-175.5969568014597
 31
0.0
 11
-158.4514115144655
 21
-175.4421115457357
 31
0.0
 11
-159.0934419517357
 21
-175.1957873885049
 31
0.0
 11
-159.5860902661972
 21
-174.8747721698698
 31
0.0
 11
-159.8957807776452
 21
-174.5009415828246
 31
0.0
 11
-160.0014115144655
 21
-174.0997721698698
 31
0.0
  0
SPLINE
  5
15C
330
47
100
AcDbEntity
  8
0
  6
Continuous
 62
     7
100
AcDbSpline
210
0.0
220
0.0
230
1.0
 70
     8
 71
     3
 72
    15
 73
    11
 74
     9
 42
0.000000001
 43
0.0000000001
 44
0.00000001
 40
0.0
 40
0.0
 40
0.0
 40
0.0
 40
0.5720075578343938
 40
1.228054722747899
 40
1.946703607309424
 40
2.698499135690978
 40
3.45029466407259
 40
4.168943548634165
 40
4.824990713547724
 40
5.396998271382069
 40
5.396998271382069
 40
5.396998271382069
 40
5.396998271382069
 10
-159.472403540902
 20
-174.9657975736542
 30
0.0
 10
-159.3104227808192
 20
-174.8640466954364
 30
0.0
 10
-158.9626629651501
 20
-174.6455956729399
 30
0.0
 10
-158.3399918988461
 20
-174.4442842786785
 30
0.0
 10
-157.6430252000678
 20
-174.3106470230228
 30
0.0
 10
-156.9014115144655
 20
-174.2670860648346
 30
0.0
 10
-156.1597978288633
 20
-174.3106470230228
 30
0.0
 10
-155.4628311300849
 20
-174.4442842786785
 30
0.0
 10
-154.8401600637809
 20
-174.6455956729399
 30
0.0
 10
-154.4924002481117
 20
-174.8640466954364
 30
0.0
 10
-154.330419488029
 20
-174.9657975736542
 30
0.0
 11
-159.472403540902
 21
-174.9657975736542
 31
0.0
 11
-158.9766885997736
 21
-174.6803867416161
 31
0.0
 11
-158.357543805251
 21
-174.4634591048035
 31
0.0
 11
-157.651792614776
 21
-174.3279176607911
 31
0.0
 11
-156.9014115144656
 21
-174.2818229774386
 31
0.0
 11
-156.1510304141551
 21
-174.3279176607911
 31
0.0
 11
-155.44527922368
 21
-174.4634591048035
 31
0.0
 11
-154.8261344291574
 21
-174.6803867416161
 31
0.0
 11
-154.330419488029
 21
-174.9657975736542
 31
0.0
  0
SPLINE
  5
15D
330
47
100
AcDbEntity
  8
0
  6
Continuous
 62
     7
100
AcDbSpline
210
0.0
220
0.0
230
1.0
 70
     8
 71
     3
 72
    11
 73
     7
 74
     5
 42
0.000000001
 43
0.0000000001
 44
0.00000001
 40
0.0
 40
0.0
 40
0.0
 40
0.0
 40
0.9640445087998561
 40
1.949938633286639
 40
2.975075556818988
 40
4.050672365260823
 40
4.050672365260823
 40
4.050672365260823
 40
4.050672365260823
 10
-181.3121152948577
 20
-213.907870066595
 30
0.0
 10
-181.0843358578251
 20
-213.6790731816264
 30
0.0
 10
-180.6236144809977
 20
-213.2162938280066
 30
0.0
 10
-180.1477872224171
 20
-212.3333558229475
 30
0.0
 10
-179.8316802774956
 20
-211.345991735607
 30
0.0
 10
-179.7829240034655
 20
-210.6450736713355
 30
0.0
 10
-179.7579603080323
 20
-210.2861965688137
 30
0.0
 11
-181.3121152948577
 21
-213.907870066595
 31
0.0
 11
-180.6651607769972
 21
-213.1931451757032
 31
0.0
 11
-180.1818676004596
 21
-212.3338344433707
 31
0.0
 11
-179.8764695586675
 21
-211.3552447683621
 31
0.0
 11
-179.7579603080323
 21
-210.2861965688137
 31
0.0
  0
SPLINE
  5
15E
330
47
100
AcDbEntity
  8
0
  6
Continuous
 62
     7
100
AcDbSpline
210
0.0
220
0.0
230
1.0
 70
     8
 71
     3
 72
    11
 73
     7
 74
     5
 42
0.000000001
 43
0.0000000001
 44
0.00000001
 40
0.0
 40
0.0
 40
0.0
 40
0.0
 40
0.6362800495369789
 40
1.23432334283337
 40
1.800429874212816
 40
2.348188109558786
 40
2.348188109558786
 40
2.348188109558786
 40
2.348188109558786
 10
-179.0651399850047
 20
-204.597223823077
 30
0.0
 10
-179.272746075034
 20
-204.5493491007665
 30
0.0
 10
-179.6754823303964
 20
-204.4564766648534
 30
0.0
 10
-180.2809018151452
 20
-204.4868964301339
 30
0.0
 10
-180.8401150483136
 20
-204.6430557733084
 30
0.0
 10
-181.1423394739024
 20
-204.8632622340853
 30
0.0
 10
-181.2909624654119
 20
-204.9715517794814
 30
0.0
 11
-179.0651399850047
 21
-204.597223823077
 31
0.0
 11
-179.6912325847707
 21
-204.4838203027684
 31
0.0
 11
-180.2886906939992
 21
-204.5102700872957
 31
0.0
 11
-180.8301890441404
 21
-204.6753644387551
 31
0.0
 11
-181.2909624654119
 21
-204.9715517794814
 31
0.0
  0
SPLINE
  5
15F
330
47
100
AcDbEntity
  8
0
  6
Continuous
 62
     7
100
AcDbSpline
210
0.0
220
0.0
230
1.0
 70
     8
 71
     3
 72
    13
 73
     9
 74
     7
 42
0.000000001
 43
0.0000000001
 44
0.00000001
 40
0.0
 40
0.0
 40
0.0
 40
0.0
 40
0.1793689837942024
 40
0.3710881307364668
 40
0.5710219848031715
 40
0.7732735077558458
 40
0.9714811854860071
 40
1.160102973305614
 40
1.160102973305614
 40
1.160102973305614
 40
1.160102973305614
 10
-180.5353426393606
 20
-207.2130178440769
 30
0.0
 10
-180.5335215026903
 20
-207.2730938435788
 30
0.0
 10
-180.5297538231544
 20
-207.3973822777739
 30
0.0
 10
-180.4646929400362
 20
-207.5791310028156
 30
0.0
 10
-180.3631454347099
 20
-207.7502810702421
 30
0.0
 10
-180.2266156728892
 20
-207.8981279343146
 30
0.0
 10
-180.0673394066175
 20
-208.0169345155073
 30
0.0
 10
-179.9459261177452
 20
-208.0619918496681
 30
0.0
 10
-179.8867238212625
 20
-208.0839622348376
 30
0.0
 11
-180.5353426393606
 21
-207.2130178440769
 31
0.0
 11
-180.5208811341366
 21
-207.3918029042903
 31
0.0
 11
-180.460275273551
 21
-207.5736906774857
 31
0.0
 11
-180.3579343149711
 21
-207.7454459545531
 31
0.0
 11
-180.2213058002433
 21
-207.8945711646578
 31
0.0
 11
-180.0603310623055
 21
-208.0102146594439
 31
0.0
 11
-179.8867238212625
 21
-208.0839622348376
 31
0.0
  0
SPLINE
  5
160
330
47
100
AcDbEntity
  8
0
  6
Continuous
 62
     7
100
AcDbSpline
210
0.0
220
0.0
230
1.0
 70
     8
 71
     3
 72
    11
 73
     7
 74
     5
 42
0.000000001
 43
0.0000000001
 44
0.00000001
 40
0.0
 40
0.0
 40
0.0
 40
0.0
 40
0.2110327507966279
 40
0.4263801911949849
 40
0.6496619786868671
 40
0.8833257088414143
 40
0.8833257088414143
 40
0.8833257088414143
 40
0.8833257088414143
 10
-180.1780512252082
 20
-206.4298360684697
 30
0.0
 10
-180.2283835806142
 20
-206.4794147949448
 30
0.0
 10
-180.3300773552359
 20
-206.5795859242825
 30
0.0
 10
-180.4377583524254
 20
-206.7701075914032
 30
0.0
 10
-180.512104961314
 20
-206.9832457817793
 30
0.0
 10
-180.5274803074313
 20
-207.1352757665315
 30
0.0
 10
-180.5353426393606
 20
-207.2130178440769
 30
0.0
 11
-180.1780512252082
 21
-206.4298360684697
 31
0.0
 11
-180.3214490610823
 21
-206.5846646290709
 31
0.0
 11
-180.4306111230674
 21
-206.7702937357695
 31
0.0
 11
-180.5025625366867
 21
-206.9816648585521
 31
0.0
 11
-180.5353426393606
 21
-207.2130178440769
 31
0.0
  0
SPLINE
  5
161
330
47
100
AcDbEntity
  8
0
  6
Continuous
 62
     7
100
AcDbSpline
210
0.0
220
0.0
230
1.0
 70
     8
 71
     3
 72
    11
 73
     7
 74
     5
 42
0.000000001
 43
0.0000000001
 44
0.00000001
 40
0.0
 40
0.0
 40
0.0
 40
0.0
 40
0.3181400245871909
 40
0.6171616700950842
 40
0.9002149343632393
 40
1.174094051047033
 40
1.174094051047033
 40
1.174094051047033
 40
1.174094051047033
 10
-179.0651399850047
 20
-206.2426720902675
 30
0.0
 10
-179.1689430299602
 20
-206.2187347291259
 30
0.0
 10
-179.370311158369
 20
-206.1722985184639
 30
0.0
 10
-179.6730208998275
 20
-206.1875083976926
 30
0.0
 10
-179.9526275136828
 20
-206.2655880723122
 30
0.0
 10
-180.1037397297219
 20
-206.3756912959672
 30
0.0
 10
-180.1780512252082
 20
-206.4298360684697
 30
0.0
 11
-179.0651399850047
 21
-206.2426720902675
 31
0.0
 11
-179.3781862848877
 21
-206.1859703301133
 31
0.0
 11
-179.6769153395019
 21
-206.1991952223769
 31
0.0
 11
-179.9476645145724
 21
-206.2817423981065
 31
0.0
 11
-180.1780512252082
 21
-206.4298360684697
 31
0.0
  0
SPLINE
  5
162
330
47
100
AcDbEntity
  8
0
  6
Continuous
 62
     7
100
AcDbSpline
210
0.0
220
0.0
230
1.0
 70
     8
 71
     3
 72
     9
 73
     5
 74
     3
 42
0.000000001
 43
0.0000000001
 44
0.00000001
 40
0.0
 40
0.0
 40
0.0
 40
0.0
 40
0.7061553675333566
 40
1.421178862701582
 40
1.421178862701582
 40
1.421178862701582
 40
1.421178862701582
 10
-175.8121152948577
 20
-209.1447303457806
 30
0.0
 10
-175.6414163277925
 20
-208.9812122880384
 30
0.0
 10
-175.297874715669
 20
-208.6521226466778
 30
0.0
 10
-175.045478940466
 20
-208.2488287877683
 30
0.0
 10
-174.9184935885825
 20
-208.0459235795208
 30
0.0
 11
-175.8121152948577
 21
-209.1447303457806
 31
0.0
 11
-175.3225213730682
 21
-208.6358559054607
 31
0.0
 11
-174.9184935885825
 21
-208.0459235795208
 31
0.0
  0
ENDBLK
  5
49
330
47
100
AcDbEntity
  8
0
100
AcDbBlockEnd
  0
BLOCK
  5
4C
330
4A
100
AcDbEntity
  8
0
100
AcDbBlockBegin
  2
Allg1
 70
     0
 10
-163.0000000000026
 20
-194.000000021145
 30
0.0
  3
Allg1
  1

  0
INSERT
  5
4B
330
4A
100
AcDbEntity
  8
0
100
AcDbBlockReference
  2
OTTA_6-P_P-select__1
 10
-184.5860519341306
 20
-221.631515966598
 30
0.0
  0
MTEXT
  5
164
330
4A
100
AcDbEntity
  8
1
 62
     6
100
AcDbMText
 10
-163.0000000000021
 20
-228.8377675048224
 30
0.0
 40
5.0
 41
0.0
 71
     2
 72
     1
  1
 
  7
CONVERTER_11
 73
     1
 44
1.32052821128451
  0
ENDBLK
  5
4D
330
4A
100
AcDbEntity
  8
0
100
AcDbBlockEnd
  0
BLOCK
  5
4F
330
4E
100
AcDbEntity
  8
0
100
AcDbBlockBegin
  2
OTTA_6-P_P-select__2
 70
     0
 10
-326.9999993092718
 20
-194.4250020244181
 30
0.0
  3
OTTA_6-P_P-select__2
  1

  0
LINE
  5
165
330
4E
100
AcDbEntity
  8
1
  6
DOT_CENTER
 62
     2
100
AcDbLine
 10
-297.8499994254935
 20
-186.1350020244182
 30
0.0
 11
-297.8499994254935
 21
-192.955002024418
 31
0.0
  0
LINE
  5
166
330
4E
100
AcDbEntity
  8
1
  6
DOT_CENTER
 62
     2
100
AcDbLine
 10
-294.4399994254936
 20
-189.5450020244181
 30
0.0
 11
-301.2599994254934
 21
-189.5450020244181
 31
0.0
  0
LINE
  5
167
330
4E
100
AcDbEntity
  8
1
  6
DOT_CENTER
 62
     2
100
AcDbLine
 10
-312.6499991930492
 20
-186.1350020244182
 30
0.0
 11
-312.6499991930492
 21
-192.955002024418
 31
0.0
  0
LINE
  5
168
330
4E
100
AcDbEntity
  8
1
  6
DOT_CENTER
 62
     2
100
AcDbLine
 10
-309.2399991930492
 20
-189.5450020244181
 30
0.0
 11
-316.0599991930491
 21
-189.5450020244181
 31
0.0
  0
LINE
  5
169
330
4E
100
AcDbEntity
  8
0
  6
Continuous
 62
     7
100
AcDbLine
 10
-314.376316441098
 20
-192.1198474098906
 30
0.0
 11
-313.3125883803016
 21
-191.0561193490942
 31
0.0
  0
LINE
  5
16A
330
4E
100
AcDbEntity
  8
0
  6
Continuous
 62
     7
100
AcDbLine
 10
-318.785873418942
 20
-183.4250020244181
 30
0.0
 11
-316.6499993092716
 21
-183.4250020244181
 31
0.0
  0
LINE
  5
16B
330
4E
100
AcDbEntity
  8
0
  6
Continuous
 62
     7
100
AcDbLine
 10
-316.6499993092716
 20
-183.4250020244181
 30
0.0
 11
-316.6499993092716
 21
-194.4250020244181
 31
0.0
  0
LINE
  5
16C
330
4E
100
AcDbEntity
  8
0
  6
Continuous
 62
     7
100
AcDbLine
 10
-318.785873418942
 20
-194.4250020244181
 30
0.0
 11
-316.6499993092716
 21
-194.4250020244181
 31
0.0
  0
LINE
  5
16D
330
4E
100
AcDbEntity
  8
0
  6
Continuous
 62
     7
100
AcDbLine
 10
-318.785873418942
 20
-183.4250020244181
 30
0.0
 11
-318.785873418942
 21
-194.4250020244181
 31
0.0
  0
LINE
  5
16E
330
4E
100
AcDbEntity
  8
0
  6
Continuous
 62
     7
100
AcDbLine
 10
-314.1611165177255
 20
-190.2075912116704
 30
0.0
 11
-315.2248445785218
 21
-191.2713192724668
 31
0.0
  0
LINE
  5
16F
330
4E
100
AcDbEntity
  8
0
  6
Continuous
 62
     7
100
AcDbLine
 10
-310.9236819450006
 20
-186.9701566389455
 30
0.0
 11
-311.987410005797
 21
-188.0338846997419
 31
0.0
  0
LINE
  5
170
330
4E
100
AcDbEntity
  8
0
  6
Continuous
 62
     7
100
AcDbLine
 10
-311.1388818683732
 20
-188.8824128371658
 30
0.0
 11
-310.0751538075767
 21
-187.8186847763694
 31
0.0
  0
LINE
  5
171
330
4E
100
AcDbEntity
  8
0
  6
Continuous
 62
     7
100
AcDbLine
 10
-287.4252986642441
 20
-194.4250020244181
 30
0.0
 11
-287.4252986642441
 21
-183.4250020244181
 31
0.0
  0
LINE
  5
172
330
4E
100
AcDbEntity
  8
0
  6
Continuous
 62
     7
100
AcDbLine
 10
-293.8499993092714
 20
-183.4250020244181
 30
0.0
 11
-293.8499993092714
 21
-194.4250020244181
 31
0.0
  0
LINE
  5
173
330
4E
100
AcDbEntity
  8
0
  6
Continuous
 62
     7
100
AcDbLine
 10
-293.8499993092714
 20
-194.4250020244181
 30
0.0
 11
-316.6499993092716
 21
-194.4250020244181
 31
0.0
  0
LINE
  5
174
330
4E
100
AcDbEntity
  8
0
  6
Continuous
 62
     7
100
AcDbLine
 10
-293.8499993092714
 20
-194.4250020244181
 30
0.0
 11
-291.7141251996012
 21
-194.4250020244181
 31
0.0
  0
LINE
  5
175
330
4E
100
AcDbEntity
  8
0
  6
Continuous
 62
     7
100
AcDbLine
 10
-291.7141251996012
 20
-194.4250020244181
 30
0.0
 11
-287.5095192873506
 21
-194.4250020244181
 31
0.0
  0
LINE
  5
176
330
4E
100
AcDbEntity
  8
0
  6
Continuous
 62
     7
100
AcDbLine
 10
-293.8499993092714
 20
-183.4250020244181
 30
0.0
 11
-316.6499993092716
 21
-183.4250020244181
 31
0.0
  0
LINE
  5
177
330
4E
100
AcDbEntity
  8
0
  6
Continuous
 62
     7
100
AcDbLine
 10
-293.8499993092714
 20
-183.4250020244181
 30
0.0
 11
-291.7141251996012
 21
-183.4250020244181
 31
0.0
  0
LINE
  5
178
330
4E
100
AcDbEntity
  8
0
  6
Continuous
 62
     7
100
AcDbLine
 10
-285.5858734189415
 20
-183.4250020244181
 30
0.0
 11
-285.5858734189415
 21
-194.4250020244181
 31
0.0
  0
LINE
  5
179
330
4E
100
AcDbEntity
  8
0
  6
Continuous
 62
     7
100
AcDbLine
 10
-299.3611167501698
 20
-190.2075912116704
 30
0.0
 11
-300.4248448109661
 21
-191.2713192724668
 31
0.0
  0
LINE
  5
17A
330
4E
100
AcDbEntity
  8
0
  6
Continuous
 62
     7
100
AcDbLine
 10
-299.5763166735423
 20
-192.1198474098906
 30
0.0
 11
-298.512588612746
 21
-191.0561193490942
 31
0.0
  0
LINE
  5
17B
330
4E
100
AcDbEntity
  8
0
  6
Continuous
 62
     7
100
AcDbLine
 10
-296.1236821774449
 20
-186.9701566389455
 30
0.0
 11
-297.1874102382413
 21
-188.0338846997419
 31
0.0
  0
LINE
  5
17C
330
4E
100
AcDbEntity
  8
0
  6
Continuous
 62
     7
100
AcDbLine
 10
-296.3388821008174
 20
-188.8824128371658
 30
0.0
 11
-295.2751540400211
 21
-187.8186847763694
 31
0.0
  0
LINE
  5
17D
330
4E
100
AcDbEntity
  8
0
  6
Continuous
 62
     7
100
AcDbLine
 10
-287.5095192873506
 20
-183.4250020244181
 30
0.0
 11
-287.5095192873506
 21
-194.4250020244181
 31
0.0
  0
LINE
  5
17E
330
4E
100
AcDbEntity
  8
0
  6
Continuous
 62
     7
100
AcDbLine
 10
-322.9904793311934
 20
-194.4250020244181
 30
0.0
 11
-322.9904793311934
 21
-183.4250020244181
 31
0.0
  0
LINE
  5
17F
330
4E
100
AcDbEntity
  8
0
  6
Continuous
 62
     7
100
AcDbLine
 10
-318.785873418942
 20
-194.4250020244181
 30
0.0
 11
-322.9904793311934
 21
-194.4250020244181
 31
0.0
  0
LINE
  5
180
330
4E
100
AcDbEntity
  8
0
  6
Continuous
 62
     7
100
AcDbLine
 10
-322.9904793311934
 20
-183.4250020244181
 30
0.0
 11
-318.785873418942
 21
-183.4250020244181
 31
0.0
  0
LINE
  5
181
330
4E
100
AcDbEntity
  8
0
  6
Continuous
 62
     7
100
AcDbLine
 10
-291.7141251996012
 20
-183.4250020244181
 30
0.0
 11
-291.7141251996012
 21
-194.4250020244181
 31
0.0
  0
LINE
  5
182
330
4E
100
AcDbEntity
  8
0
  6
Continuous
 62
     7
100
AcDbLine
 10
-323.0746999542999
 20
-183.4250020244181
 30
0.0
 11
-322.9904793311934
 21
-183.4250020244181
 31
0.0
  0
LINE
  5
183
330
4E
100
AcDbEntity
  8
0
  6
Continuous
 62
     7
100
AcDbLine
 10
-324.9141251996018
 20
-183.4250020244181
 30
0.0
 11
-323.0746999542999
 21
-183.4250020244181
 31
0.0
  0
LINE
  5
184
330
4E
100
AcDbEntity
  8
0
  6
Continuous
 62
     7
100
AcDbLine
 10
-287.4252986642441
 20
-183.4250020244181
 30
0.0
 11
-285.5858734189415
 21
-183.4250020244181
 31
0.0
  0
LINE
  5
185
330
4E
100
AcDbEntity
  8
0
  6
Continuous
 62
     7
100
AcDbLine
 10
-285.5858734189415
 20
-183.4250020244181
 30
0.0
 11
-283.4999993092717
 21
-183.4250020244181
 31
0.0
  0
LINE
  5
186
330
4E
100
AcDbEntity
  8
0
  6
Continuous
 62
     7
100
AcDbLine
 10
-291.7141251996012
 20
-183.4250020244181
 30
0.0
 11
-287.5095192873506
 21
-183.4250020244181
 31
0.0
  0
LINE
  5
187
330
4E
100
AcDbEntity
  8
0
  6
Continuous
 62
     7
100
AcDbLine
 10
-287.5095192873506
 20
-183.4250020244181
 30
0.0
 11
-287.4252986642441
 21
-183.4250020244181
 31
0.0
  0
LINE
  5
188
330
4E
100
AcDbEntity
  8
0
  6
Continuous
 62
     7
100
AcDbLine
 10
-323.0746999542999
 20
-194.4250020244181
 30
0.0
 11
-323.0746999542999
 21
-183.4250020244181
 31
0.0
  0
LINE
  5
189
330
4E
100
AcDbEntity
  8
0
  6
Continuous
 62
     7
100
AcDbLine
 10
-324.9141251996018
 20
-194.4250020244181
 30
0.0
 11
-326.9999993092718
 21
-194.4250020244181
 31
0.0
  0
LINE
  5
18A
330
4E
100
AcDbEntity
  8
0
  6
Continuous
 62
     7
100
AcDbLine
 10
-326.9999993092718
 20
-183.4250020244181
 30
0.0
 11
-324.9141251996018
 21
-183.4250020244181
 31
0.0
  0
LINE
  5
18B
330
4E
100
AcDbEntity
  8
0
  6
Continuous
 62
     7
100
AcDbLine
 10
-324.9141251996018
 20
-183.4250020244181
 30
0.0
 11
-324.9141251996018
 21
-194.4250020244181
 31
0.0
  0
LINE
  5
18C
330
4E
100
AcDbEntity
  8
0
  6
Continuous
 62
     7
100
AcDbLine
 10
-283.4999993092717
 20
-183.4250020244181
 30
0.0
 11
-283.4999993092729
 21
-194.4250020244181
 31
0.0
  0
LINE
  5
18D
330
4E
100
AcDbEntity
  8
0
  6
Continuous
 62
     7
100
AcDbLine
 10
-324.9141251996018
 20
-194.4250020244181
 30
0.0
 11
-323.0746999542999
 21
-194.4250020244181
 31
0.0
  0
LINE
  5
18E
330
4E
100
AcDbEntity
  8
0
  6
Continuous
 62
     7
100
AcDbLine
 10
-323.0746999542999
 20
-194.4250020244181
 30
0.0
 11
-322.9904793311934
 21
-194.4250020244181
 31
0.0
  0
LINE
  5
18F
330
4E
100
AcDbEntity
  8
0
  6
Continuous
 62
     7
100
AcDbLine
 10
-285.5858734189415
 20
-194.4250020244181
 30
0.0
 11
-283.4999993092729
 21
-194.4250020244181
 31
0.0
  0
LINE
  5
190
330
4E
100
AcDbEntity
  8
0
  6
Continuous
 62
     7
100
AcDbLine
 10
-287.4252986642441
 20
-194.4250020244181
 30
0.0
 11
-285.5858734189415
 21
-194.4250020244181
 31
0.0
  0
LINE
  5
191
330
4E
100
AcDbEntity
  8
0
  6
Continuous
 62
     7
100
AcDbLine
 10
-287.5095192873506
 20
-194.4250020244181
 30
0.0
 11
-287.4252986642441
 21
-194.4250020244181
 31
0.0
  0
LINE
  5
192
330
4E
100
AcDbEntity
  8
0
  6
Continuous
 62
     7
100
AcDbLine
 10
-326.9999993092718
 20
-183.4250020244181
 30
0.0
 11
-326.9999993092718
 21
-194.4250020244181
 31
0.0
  0
ARC
  5
193
330
4E
100
AcDbEntity
  8
0
  6
Continuous
 62
     7
100
AcDbCircle
 10
-312.6499991930492
 20
-189.5450020244181
 30
0.0
 40
3.099999999999934
100
AcDbArc
 50
56.15993687218775
 51
213.840063127814
  0
ARC
  5
194
330
4E
100
AcDbEntity
  8
0
  6
Continuous
 62
     7
100
AcDbCircle
 10
-297.8499994254935
 20
-189.5450020244181
 30
0.0
 40
3.099999999999989
100
AcDbArc
 50
236.1599368721834
 51
33.84006312781634
  0
ARC
  5
195
330
4E
100
AcDbEntity
  8
0
  6
Continuous
 62
     7
100
AcDbCircle
 10
-312.6499991930492
 20
-189.5450020244181
 30
0.0
 40
1.65000000000003
100
AcDbArc
 50
66.32368626350159
 51
203.6763137365012
  0
ARC
  5
196
330
4E
100
AcDbEntity
  8
0
  6
Continuous
 62
     7
100
AcDbCircle
 10
-312.6499991930492
 20
-189.5450020244181
 30
0.0
 40
1.64999999999992
100
AcDbArc
 50
23.6763137365044
 51
66.32368626350159
  0
ARC
  5
197
330
4E
100
AcDbEntity
  8
0
  6
Continuous
 62
     7
100
AcDbCircle
 10
-312.6499991930492
 20
-189.5450020244181
 30
0.0
 40
1.650000000000128
100
AcDbArc
 50
203.6763137365012
 51
246.3236862634946
  0
ARC
  5
198
330
4E
100
AcDbEntity
  8
0
  6
Continuous
 62
     7
100
AcDbCircle
 10
-312.6499991930492
 20
-189.5450020244181
 30
0.0
 40
3.099999999999997
100
AcDbArc
 50
213.840063127814
 51
236.1599368721834
  0
ARC
  5
199
330
4E
100
AcDbEntity
  8
0
  6
Continuous
 62
     7
100
AcDbCircle
 10
-312.6499991930492
 20
-189.5450020244181
 30
0.0
 40
1.649999999999994
100
AcDbArc
 50
246.3236862634946
 51
23.6763137365044
  0
ARC
  5
19A
330
4E
100
AcDbEntity
  8
0
  6
Continuous
 62
     7
100
AcDbCircle
 10
-312.6499991930492
 20
-189.5450020244181
 30
0.0
 40
3.100000000000023
100
AcDbArc
 50
0.0
 51
33.84006312781517
  0
ARC
  5
19B
330
4E
100
AcDbEntity
  8
0
  6
Continuous
 62
     7
100
AcDbCircle
 10
-312.6499991930492
 20
-189.5450020244181
 30
0.0
 40
3.099999999999989
100
AcDbArc
 50
236.1599368721834
 51
0.0
  0
ARC
  5
19C
330
4E
100
AcDbEntity
  8
0
  6
Continuous
 62
     7
100
AcDbCircle
 10
-312.6499991930492
 20
-189.5450020244181
 30
0.0
 40
3.099999999999902
100
AcDbArc
 50
33.84006312781517
 51
56.15993687218775
  0
ARC
  5
19D
330
4E
100
AcDbEntity
  8
0
  6
Continuous
 62
     7
100
AcDbCircle
 10
-297.8499994254935
 20
-189.5450020244181
 30
0.0
 40
3.099999999999909
100
AcDbArc
 50
180.0
 51
213.840063127814
  0
ARC
  5
19E
330
4E
100
AcDbEntity
  8
0
  6
Continuous
 62
     7
100
AcDbCircle
 10
-297.8499994254935
 20
-189.5450020244181
 30
0.0
 40
3.099999999999997
100
AcDbArc
 50
213.840063127814
 51
236.1599368721834
  0
ARC
  5
19F
330
4E
100
AcDbEntity
  8
0
  6
Continuous
 62
     7
100
AcDbCircle
 10
-297.8499994254935
 20
-189.5450020244181
 30
0.0
 40
3.099999999999934
100
AcDbArc
 50
56.15993687218775
 51
180.0
  0
ARC
  5
1A0
330
4E
100
AcDbEntity
  8
0
  6
Continuous
 62
     7
100
AcDbCircle
 10
-297.8499994254935
 20
-189.5450020244181
 30
0.0
 40
3.099999999999808
100
AcDbArc
 50
33.84006312781634
 51
56.15993687218775
  0
ARC
  5
1A1
330
4E
100
AcDbEntity
  8
0
  6
Continuous
 62
     7
100
AcDbCircle
 10
-297.8499994254935
 20
-189.5450020244181
 30
0.0
 40
1.649999999999971
100
AcDbArc
 50
23.67631373650361
 51
66.32368626350159
  0
ARC
  5
1A2
330
4E
100
AcDbEntity
  8
0
  6
Continuous
 62
     7
100
AcDbCircle
 10
-297.8499994254935
 20
-189.5450020244181
 30
0.0
 40
1.650000000000063
100
AcDbArc
 50
246.3236862634892
 51
23.67631373650361
  0
ARC
  5
1A3
330
4E
100
AcDbEntity
  8
0
  6
Continuous
 62
     7
100
AcDbCircle
 10
-297.8499994254935
 20
-189.5450020244181
 30
0.0
 40
1.65000000000018
100
AcDbArc
 50
203.6763137365004
 51
246.3236862634892
  0
ARC
  5
1A4
330
4E
100
AcDbEntity
  8
0
  6
Continuous
 62
     7
100
AcDbCircle
 10
-297.8499994254935
 20
-189.5450020244181
 30
0.0
 40
1.65000000000003
100
AcDbArc
 50
66.32368626350159
 51
203.6763137365004
  0
ENDBLK
  5
50
330
4E
100
AcDbEntity
  8
0
100
AcDbBlockEnd
  0
BLOCK
  5
53
330
51
100
AcDbEntity
  8
0
100
AcDbBlockBegin
  2
Drfsicht1
 70
     0
 10
-305.2499999999986
 20
-188.925002024413
 30
0.0
  3
Drfsicht1
  1

  0
INSERT
  5
52
330
51
100
AcDbEntity
  8
0
100
AcDbBlockReference
  2
OTTA_6-P_P-select__2
 10
-326.9999993092718
 20
-194.4250020244181
 30
0.0
  0
MTEXT
  5
1A5
330
51
100
AcDbEntity
  8
1
 62
     6
100
AcDbMText
 10
-305.2499999999986
 20
-199.4250020244131
 30
0.0
 40
5.0
 41
0.0
 71
     2
 72
     1
  1
 
  7
CONVERTER_11
 73
     1
 44
1.32052821128451
  0
DIMENSION
  5
1B0
330
51
100
AcDbEntity
  8
1
100
AcDbDimension
  2
*D17
 10
-336.9999993092718
 20
-194.4250020244181
 30
0.0
 11
-340.2499993092718
 21
-189.415681519027
 31
0.0
 70
    33
  1
<>
 71
     5
 42
-1.0
 53
90.0
  3
ME10_DIM_10
100
AcDbAlignedDimension
 13
-326.9999993092718
 23
-183.4250020244181
 33
0.0
 14
-326.9999993092718
 24
-194.4250020244181
 34
0.0
  0
ENDBLK
  5
54
330
51
100
AcDbEntity
  8
0
100
AcDbBlockEnd
  0
BLOCK
  5
56
330
55
100
AcDbEntity
  8
0
100
AcDbBlockBegin
  2
OTTA_6-P_P-select__3
 70
     0
 10
-217.5000006907283
 20
-148.4250000488284
 30
0.0
  3
OTTA_6-P_P-select__3
  1

  0
LINE
  5
1B1
330
55
100
AcDbEntity
  8
0
  6
Continuous
 62
     7
100
AcDbLine
 10
-178.0095206688065
 20
-107.1018521056286
 30
0.0
 11
-183.4654807126489
 21
-103.9518521056288
 31
0.0
  0
LINE
  5
1B2
330
55
100
AcDbEntity
  8
0
  6
Continuous
 62
     7
100
AcDbLine
 10
-176.4750006907262
 20
-144.2073829979879
 30
0.0
 11
-174.250000690726
 21
-145.4919873469344
 31
0.0
  0
LINE
  5
1B3
330
55
100
AcDbEntity
  8
0
  6
Continuous
 62
     7
100
AcDbLine
 10
-177.3050006907259
 20
-137.904851452197
 30
0.0
 11
-175.8251492873551
 21
-136.4250000488266
 31
0.0
  0
LINE
  5
1B4
330
55
100
AcDbEntity
  8
0
  6
Continuous
 62
     7
100
AcDbLine
 10
-174.0000006907281
 20
-105.7505753349391
 30
0.0
 11
-174.0000006907265
 21
-136.4250000488265
 31
0.0
  0
LINE
  5
1B5
330
55
100
AcDbEntity
  8
0
  6
Continuous
 62
     7
100
AcDbLine
 10
-178.4250006907266
 20
-136.5777446710111
 30
0.0
 11
-178.4250006907267
 21
-135.875000048827
 31
0.0
  0
LINE
  5
1B6
330
55
100
AcDbEntity
  8
0
  6
Continuous
 62
     7
100
AcDbLine
 10
-178.5500006907261
 20
-143.3250000488268
 30
0.0
 11
-178.4500006907263
 21
-142.125000048827
 31
0.0
  0
LINE
  5
1B7
330
55
100
AcDbEntity
  8
0
  6
Continuous
 62
     7
100
AcDbLine
 10
-178.2785540813198
 20
-136.9312980616045
 30
0.0
 11
-177.3050006907259
 21
-137.904851452197
 31
0.0
  0
LINE
  5
1B8
330
55
100
AcDbEntity
  8
0
  6
Continuous
 62
     7
100
AcDbLine
 10
-175.8251492873551
 20
-136.4250000488266
 30
0.0
 11
-174.0000006907265
 21
-136.4250000488265
 31
0.0
  0
LINE
  5
1B9
330
55
100
AcDbEntity
  8
0
  6
Continuous
 62
     7
100
AcDbLine
 10
-176.9750006907262
 20
-143.3413575942029
 30
0.0
 11
-176.9750006907263
 21
-140.3250000488267
 31
0.0
  0
LINE
  5
1BA
330
55
100
AcDbEntity
  8
0
  6
Continuous
 62
     7
100
AcDbLine
 10
-174.0000006907259
 20
-148.4250000488265
 30
0.0
 11
-174.000000690726
 21
-145.9250000488265
 31
0.0
  0
LINE
  5
1BB
330
55
100
AcDbEntity
  8
0
  6
Continuous
 62
     7
100
AcDbLine
 10
-177.7804170907138
 20
-148.4250000488267
 30
0.0
 11
-174.0000006907259
 21
-148.4250000488265
 31
0.0
  0
LINE
  5
1BC
330
55
100
AcDbEntity
  8
0
  6
Continuous
 62
     7
100
AcDbLine
 10
-213.4904807126493
 20
-107.1018521056305
 30
0.0
 11
-214.0179807126496
 21
-106.1881953046382
 31
0.0
  0
LINE
  5
1BD
330
55
100
AcDbEntity
  8
0
  6
Continuous
 62
     7
100
AcDbLine
 10
-176.0858748003981
 20
-104.5462953562255
 30
0.0
 11
-177.9253000457001
 21
-105.9322678370608
 31
0.0
  0
LINE
  5
1BE
330
55
100
AcDbEntity
  8
0
  6
Continuous
 62
     7
100
AcDbLine
 10
-214.0179807126496
 20
-106.1881953046382
 30
0.0
 11
-213.5747013357559
 21
-105.9322678370626
 31
0.0
  0
LINE
  5
1BF
330
55
100
AcDbEntity
  8
0
  6
Continuous
 62
     7
100
AcDbLine
 10
-215.4141265810584
 20
-104.5462953562276
 30
0.0
 11
-217.5000006907283
 21
-105.7505753349414
 31
0.0
  0
LINE
  5
1C0
330
55
100
AcDbEntity
  8
0
  6
Continuous
 62
     7
100
AcDbLine
 10
-213.5747013357559
 20
-105.9322678370626
 30
0.0
 11
-215.4141265810584
 21
-104.5462953562276
 31
0.0
  0
LINE
  5
1C1
330
55
100
AcDbEntity
  8
0
  6
Continuous
 62
     7
100
AcDbLine
 10
-174.0000006907281
 20
-105.7505753349391
 30
0.0
 11
-176.0858748003981
 21
-104.5462953562255
 31
0.0
  0
LINE
  5
1C2
330
55
100
AcDbEntity
  8
0
  6
Continuous
 62
     7
100
AcDbLine
 10
-208.0345206688076
 20
-103.9518521056302
 30
0.0
 11
-213.4904807126493
 21
-107.1018521056305
 31
0.0
  0
LINE
  5
1C3
330
55
100
AcDbEntity
  8
0
  6
Continuous
 62
     7
100
AcDbLine
 10
-177.4820206688064
 20
-106.1881953046359
 30
0.0
 11
-178.0095206688065
 21
-107.1018521056286
 31
0.0
  0
LINE
  5
1C4
330
55
100
AcDbEntity
  8
0
  6
Continuous
 62
     7
100
AcDbLine
 10
-177.9253000457001
 20
-105.9322678370608
 30
0.0
 11
-177.4820206688064
 21
-106.1881953046359
 31
0.0
  0
LINE
  5
1C5
330
55
100
AcDbEntity
  8
0
  6
Continuous
 62
     7
100
AcDbLine
 10
-208.5620206688076
 20
-103.0381953046378
 30
0.0
 11
-208.0345206688076
 21
-103.9518521056302
 31
0.0
  0
LINE
  5
1C6
330
55
100
AcDbEntity
  8
0
  6
Continuous
 62
     7
100
AcDbLine
 10
-183.4654807126489
 20
-103.9518521056288
 30
0.0
 11
-182.9379807126491
 21
-103.0381953046359
 31
0.0
  0
LINE
  5
1C7
330
55
100
AcDbEntity
  8
0
  6
Continuous
 62
     7
100
AcDbLine
 10
-209.1750006907264
 20
-142.1250000488287
 30
0.0
 11
-208.6500006907264
 21
-139.7568780844059
 31
0.0
  0
LINE
  5
1C8
330
55
100
AcDbEntity
  8
0
  6
Continuous
 62
     7
100
AcDbLine
 10
-208.6500006907264
 20
-139.7568780844059
 30
0.0
 11
-208.6500006907264
 21
-138.4250000488284
 31
0.0
  0
LINE
  5
1C9
330
55
100
AcDbEntity
  8
0
  6
Continuous
 62
     7
100
AcDbLine
 10
-213.2500006907262
 20
-143.3250000488287
 30
0.0
 11
-213.2500006907263
 21
-142.1250000488289
 31
0.0
  0
LINE
  5
1CA
330
55
100
AcDbEntity
  8
0
  6
Continuous
 62
     7
100
AcDbLine
 10
-212.4500006907261
 20
-143.5250000488289
 30
0.0
 11
-213.2500006907262
 21
-143.3250000488287
 31
0.0
  0
LINE
  5
1CB
330
55
100
AcDbEntity
  8
0
  6
Continuous
 62
     7
100
AcDbLine
 10
-217.5000006907264
 20
-144.9250000488289
 30
0.0
 11
-217.5000006907283
 21
-105.7505753349414
 31
0.0
  0
LINE
  5
1CC
330
55
100
AcDbEntity
  8
0
  6
Continuous
 62
     7
100
AcDbLine
 10
-182.9607871283532
 20
-139.4107864864537
 30
0.0
 11
-183.0750006907264
 21
-139.5250000488268
 31
0.0
  0
LINE
  5
1CD
330
55
100
AcDbEntity
  8
0
  6
Continuous
 62
     7
100
AcDbLine
 10
-183.0750006907264
 20
-139.5250000488268
 30
0.0
 11
-188.8750006907264
 21
-139.5250000488272
 31
0.0
  0
LINE
  5
1CE
330
55
100
AcDbEntity
  8
0
  6
Continuous
 62
     7
100
AcDbLine
 10
-189.2044199794612
 20
-138.2955905262761
 30
0.0
 11
-188.8750006907264
 21
-139.5250000488272
 31
0.0
  0
LINE
  5
1CF
330
55
100
AcDbEntity
  8
0
  6
Continuous
 62
     7
100
AcDbLine
 10
-189.8000006907265
 20
-137.9250000488273
 30
0.0
 11
-189.6873828926058
 21
-137.9250000488273
 31
0.0
  0
LINE
  5
1D0
330
55
100
AcDbEntity
  8
0
  6
Continuous
 62
     7
100
AcDbLine
 10
-212.4500006907261
 20
-143.9750000488283
 30
0.0
 11
-212.4500006907261
 21
-143.5250000488289
 31
0.0
  0
LINE
  5
1D1
330
55
100
AcDbEntity
  8
0
  6
Continuous
 62
     7
100
AcDbLine
 10
-213.2500006907263
 20
-142.1250000488289
 30
0.0
 11
-209.1750006907264
 21
-142.1250000488287
 31
0.0
  0
LINE
  5
1D2
330
55
100
AcDbEntity
  8
0
  6
Continuous
 62
     7
100
AcDbLine
 10
-208.1500006907265
 20
-137.9250000488283
 30
0.0
 11
-207.6500006907265
 21
-137.9250000488283
 31
0.0
  0
LINE
  5
1D3
330
55
100
AcDbEntity
  8
0
  6
Continuous
 62
     7
100
AcDbLine
 10
-190.3000006907263
 20
-140.7750000488273
 30
0.0
 11
-190.3000006907265
 21
-138.4250000488273
 31
0.0
  0
LINE
  5
1D4
330
55
100
AcDbEntity
  8
0
  6
Continuous
 62
     7
100
AcDbLine
 10
-207.1500006907264
 20
-138.4250000488283
 30
0.0
 11
-207.1500006907264
 21
-139.4993821318425
 31
0.0
  0
LINE
  5
1D5
330
55
100
AcDbEntity
  8
0
  6
Continuous
 62
     7
100
AcDbLine
 10
-217.5000006907264
 20
-144.9250000488289
 30
0.0
 11
-213.4000006907261
 21
-144.9250000488286
 31
0.0
  0
LINE
  5
1D6
330
55
100
AcDbEntity
  8
0
  6
Continuous
 62
     7
100
AcDbLine
 10
-207.1500006907286
 20
-99.77500004882816
 30
0.0
 11
-209.2858748003988
 21
-101.0081475410019
 31
0.0
  0
LINE
  5
1D7
330
55
100
AcDbEntity
  8
0
  6
Continuous
 62
     7
100
AcDbLine
 10
-182.2141265810579
 20
-101.0081475410004
 30
0.0
 11
-184.3500006907283
 21
-99.77500004882711
 31
0.0
  0
LINE
  5
1D8
330
55
100
AcDbEntity
  8
0
  6
Continuous
 62
     7
100
AcDbLine
 10
-208.6750006907259
 20
-148.4250000488284
 30
0.0
 11
-205.7250006907259
 21
-148.4250000488282
 31
0.0
  0
LINE
  5
1D9
330
55
100
AcDbEntity
  8
0
  6
Continuous
 62
     7
100
AcDbLine
 10
-207.525000690726
 20
-147.0250000488282
 30
0.0
 11
-208.6750006907259
 21
-147.1500000488283
 31
0.0
  0
LINE
  5
1DA
330
55
100
AcDbEntity
  8
0
  6
Continuous
 62
     7
100
AcDbLine
 10
-207.1500006907264
 20
-139.4993821318425
 30
0.0
 11
-208.3750006907261
 21
-145.0250000488283
 31
0.0
  0
LINE
  5
1DB
330
55
100
AcDbEntity
  8
0
  6
Continuous
 62
     7
100
AcDbLine
 10
-184.3500006907283
 20
-99.77500004882711
 30
0.0
 11
-184.3500006907283
 21
-97.57500004882712
 31
0.0
  0
LINE
  5
1DC
330
55
100
AcDbEntity
  8
0
  6
Continuous
 62
     7
100
AcDbLine
 10
-208.3750006907261
 20
-145.0250000488283
 30
0.0
 11
-208.3750006907261
 21
-145.5250000488283
 31
0.0
  0
LINE
  5
1DD
330
55
100
AcDbEntity
  8
0
  6
Continuous
 62
     7
100
AcDbLine
 10
-208.3750006907261
 20
-145.5250000488283
 30
0.0
 11
-207.5250006907261
 21
-145.5250000488282
 31
0.0
  0
LINE
  5
1DE
330
55
100
AcDbEntity
  8
0
  6
Continuous
 62
     7
100
AcDbLine
 10
-208.6750006907259
 20
-147.1500000488283
 30
0.0
 11
-208.6750006907259
 21
-148.4250000488284
 31
0.0
  0
LINE
  5
1DF
330
55
100
AcDbEntity
  8
0
  6
Continuous
 62
     7
100
AcDbLine
 10
-205.7250006907259
 20
-148.4250000488282
 30
0.0
 11
-205.725000690726
 21
-146.7750000488281
 31
0.0
  0
LINE
  5
1E0
330
55
100
AcDbEntity
  8
0
  6
Continuous
 62
     7
100
AcDbLine
 10
-207.1500006907289
 20
-97.57500004882837
 30
0.0
 11
-207.1500006907286
 21
-99.77500004882816
 31
0.0
  0
LINE
  5
1E1
330
55
100
AcDbEntity
  8
0
  6
Continuous
 62
     7
100
AcDbLine
 10
-207.1500006907289
 20
-97.57500004882837
 30
0.0
 11
-184.3500006907283
 21
-97.57500004882712
 31
0.0
  0
LINE
  5
1E2
330
55
100
AcDbEntity
  8
0
  6
Continuous
 62
     7
100
AcDbLine
 10
-207.5250006907261
 20
-145.5250000488282
 30
0.0
 11
-207.525000690726
 21
-147.0250000488282
 31
0.0
  0
LINE
  5
1E3
330
55
100
AcDbEntity
  8
0
  6
Continuous
 62
     7
100
AcDbLine
 10
-205.725000690726
 20
-146.7750000488281
 30
0.0
 11
-205.085000690726
 21
-146.7750000488281
 31
0.0
  0
LINE
  5
1E4
330
55
100
AcDbEntity
  8
0
  6
Continuous
 62
     7
100
AcDbLine
 10
-213.4000006907261
 20
-144.9250000488286
 30
0.0
 11
-212.4500006907261
 21
-143.9750000488283
 31
0.0
  0
LINE
  5
1E5
330
55
100
AcDbEntity
  8
0
  6
Continuous
 62
     7
100
AcDbLine
 10
-209.2858748003988
 20
-101.0081475410019
 30
0.0
 11
-209.0053000457012
 21
-103.2941227722125
 31
0.0
  0
LINE
  5
1E6
330
55
100
AcDbEntity
  8
0
  6
Continuous
 62
     7
100
AcDbLine
 10
-182.9379807126491
 20
-103.0381953046359
 30
0.0
 11
-182.4947013357555
 21
-103.2941227722116
 31
0.0
  0
LINE
  5
1E7
330
55
100
AcDbEntity
  8
0
  6
Continuous
 62
     7
100
AcDbLine
 10
-209.0053000457012
 20
-103.2941227722125
 30
0.0
 11
-208.5620206688076
 21
-103.0381953046378
 31
0.0
  0
LINE
  5
1E8
330
55
100
AcDbEntity
  8
0
  6
Continuous
 62
     7
100
AcDbLine
 10
-179.5750006907261
 20
-143.5250000488267
 30
0.0
 11
-178.5500006907261
 21
-143.3250000488268
 31
0.0
  0
LINE
  5
1E9
330
55
100
AcDbEntity
  8
0
  6
Continuous
 62
     7
100
AcDbLine
 10
-178.4500006907263
 20
-142.125000048827
 30
0.0
 11
-179.4750006907261
 21
-141.9245881467203
 31
0.0
  0
LINE
  5
1EA
330
55
100
AcDbEntity
  8
0
  6
Continuous
 62
     7
100
AcDbLine
 10
-181.5500006907265
 20
-136.9250000488269
 30
0.0
 11
-180.3750006907266
 21
-136.9250000488268
 31
0.0
  0
LINE
  5
1EB
330
55
100
AcDbEntity
  8
0
  6
Continuous
 62
     7
100
AcDbLine
 10
-179.4750006907263
 20
-141.2250000488269
 30
0.0
 11
-179.4263173926758
 21
-141.2250000488269
 31
0.0
  0
LINE
  5
1EC
330
55
100
AcDbEntity
  8
0
  6
Continuous
 62
     7
100
AcDbLine
 10
-180.3750006907264
 20
-138.8250000488269
 30
0.0
 11
-181.5465735659802
 21
-138.825000048827
 31
0.0
  0
LINE
  5
1ED
330
55
100
AcDbEntity
  8
0
  6
Continuous
 62
     7
100
AcDbLine
 10
-182.4947013357555
 20
-103.2941227722116
 30
0.0
 11
-182.2141265810579
 21
-101.0081475410004
 31
0.0
  0
LINE
  5
1EE
330
55
100
AcDbEntity
  8
0
  6
Continuous
 62
     7
100
AcDbLine
 10
-179.4750006907261
 20
-141.9245881467203
 30
0.0
 11
-179.4750006907263
 21
-141.2250000488269
 31
0.0
  0
LINE
  5
1EF
330
55
100
AcDbEntity
  8
0
  6
Continuous
 62
     7
100
AcDbLine
 10
-179.5750006907261
 20
-143.5250000488267
 30
0.0
 11
-179.5750006907261
 21
-143.7250000488297
 31
0.0
  0
LINE
  5
1F0
330
55
100
AcDbEntity
  8
0
  6
Continuous
 62
     7
100
AcDbLine
 10
-178.4250006907267
 20
-135.875000048827
 30
0.0
 11
-181.5500006907266
 21
-135.8750000488271
 31
0.0
  0
ARC
  5
1F1
330
55
100
AcDbEntity
  8
0
  6
Continuous
 62
     7
100
AcDbCircle
 10
-172.110619686126
 20
-143.5675126900218
 30
0.0
 40
7.466042194497651
100
AcDbArc
 50
181.20867657075
 51
220.5876661228502
  0
ARC
  5
1F2
330
55
100
AcDbEntity
  8
0
  6
Continuous
 62
     7
100
AcDbCircle
 10
-177.9250006907266
 20
-136.5777446710111
 30
0.0
 40
0.5
100
AcDbArc
 50
180.0
 51
225.0000000000161
  0
ARC
  5
1F3
330
55
100
AcDbEntity
  8
0
  6
Continuous
 62
     7
100
AcDbCircle
 10
-174.500000690726
 20
-145.9250000488265
 30
0.0
 40
0.5
100
AcDbArc
 50
0.0
 51
59.99999999999295
  0
ARC
  5
1F4
330
55
100
AcDbEntity
  8
0
  6
Continuous
 62
     7
100
AcDbCircle
 10
-175.9750006907262
 20
-143.3413575942029
 30
0.0
 40
1.0
100
AcDbArc
 50
180.0
 51
240.0000000000165
  0
ARC
  5
1F5
330
55
100
AcDbEntity
  8
0
  6
Continuous
 62
     7
100
AcDbCircle
 10
-192.64764696562
 20
-141.6633344630743
 30
0.0
 40
3.350000000000029
100
AcDbArc
 50
311.3165829300517
 51
357.5849578586777
  0
ARC
  5
1F6
330
55
100
AcDbEntity
  8
0
  6
Continuous
 62
     7
100
AcDbCircle
 10
-195.0750006907254
 20
-158.4250000488276
 30
0.0
 40
16.19999999999988
100
AcDbArc
 50
79.29351303112367
 51
102.3352321792845
  0
ARC
  5
1F7
330
55
100
AcDbEntity
  8
0
  6
Continuous
 62
     7
100
AcDbCircle
 10
-192.2883327217324
 20
-143.6861235098715
 30
0.0
 40
1.200000000000103
100
AcDbArc
 50
353.0762791559378
 51
79.29351303112374
  0
ARC
  5
1F8
330
55
100
AcDbEntity
  8
0
  6
Continuous
 62
     7
100
AcDbCircle
 10
-189.6873828926057
 20
-138.4250000488273
 30
0.0
 40
0.4999999999999657
100
AcDbArc
 50
14.99999999999215
 51
90.00000000000978
  0
ARC
  5
1F9
330
55
100
AcDbEntity
  8
0
  6
Continuous
 62
     7
100
AcDbCircle
 10
-189.8000006907265
 20
-138.4250000488273
 30
0.0
 40
0.5
100
AcDbArc
 50
90.0
 51
180.0
  0
ARC
  5
1FA
330
55
100
AcDbEntity
  8
0
  6
Continuous
 62
     7
100
AcDbCircle
 10
-207.6500006907264
 20
-138.4250000488283
 30
0.0
 40
0.5
100
AcDbArc
 50
0.0
 51
90.00000000001303
  0
ARC
  5
1FB
330
55
100
AcDbEntity
  8
0
  6
Continuous
 62
     7
100
AcDbCircle
 10
-190.7000006907261
 20
-143.8790000488276
 30
0.0
 40
0.3999999999999607
100
AcDbArc
 50
173.076279155901
 51
311.3165829300582
  0
ARC
  5
1FC
330
55
100
AcDbEntity
  8
0
  6
Continuous
 62
     7
100
AcDbCircle
 10
-190.0000006907263
 20
-140.7750000488273
 30
0.0
 40
0.3000000000000114
100
AcDbArc
 50
180.0
 51
270.0
  0
ARC
  5
1FD
330
55
100
AcDbEntity
  8
0
  6
Continuous
 62
     7
100
AcDbCircle
 10
-190.0000006907262
 20
-141.7750000488273
 30
0.0
 40
0.6999999999997571
100
AcDbArc
 50
357.584957858667
 51
90.00000000000699
  0
ARC
  5
1FE
330
55
100
AcDbEntity
  8
0
  6
Continuous
 62
     7
100
AcDbCircle
 10
-208.1500006907264
 20
-138.4250000488283
 30
0.0
 40
0.5
100
AcDbArc
 50
90.00000000001303
 51
180.0000000000097
  0
ARC
  5
1FF
330
55
100
AcDbEntity
  8
0
  6
Continuous
 62
     7
100
AcDbCircle
 10
-196.8267761077175
 20
-150.4143020212882
 30
0.0
 40
7.999999999999793
100
AcDbArc
 50
102.3352321792852
 51
145.6719647666297
  0
ARC
  5
200
330
55
100
AcDbEntity
  8
0
  6
Continuous
 62
     7
100
AcDbCircle
 10
-205.0850006907261
 20
-144.7750000488281
 30
0.0
 40
2.0
100
AcDbArc
 50
270.0000000000032
 51
325.6719647666183
  0
ARC
  5
201
330
55
100
AcDbEntity
  8
0
  6
Continuous
 62
     7
100
AcDbCircle
 10
-180.3750006907264
 20
-140.3250000488269
 30
0.0
 40
3.400000000000119
100
AcDbArc
 50
0.00000000000335
 51
90.00000000000335
  0
ARC
  5
202
330
55
100
AcDbEntity
  8
0
  6
Continuous
 62
     7
100
AcDbCircle
 10
-181.5500006907266
 20
-136.4000000488268
 30
0.0
 40
0.524999999999693
100
AcDbArc
 50
90.0
 51
270.0000000000093
  0
ARC
  5
203
330
55
100
AcDbEntity
  8
0
  6
Continuous
 62
     7
100
AcDbCircle
 10
-179.4263173926757
 20
-140.4750000488269
 30
0.0
 40
0.75
100
AcDbArc
 50
269.9999999999935
 51
3.01696130980818
  0
ARC
  5
204
330
55
100
AcDbEntity
  8
0
  6
Continuous
 62
     7
100
AcDbCircle
 10
-180.3750006907264
 20
-140.5250000488267
 30
0.0
 40
1.699999999999839
100
AcDbArc
 50
3.01696130980591
 51
90.0
  0
ARC
  5
205
330
55
100
AcDbEntity
  8
0
  6
Continuous
 62
     7
100
AcDbCircle
 10
-181.5465735659801
 20
-140.825000048827
 30
0.0
 40
2.0
100
AcDbArc
 50
90.00000000000244
 51
134.9999999999954
  0
ENDBLK
  5
57
330
55
100
AcDbEntity
  8
0
100
AcDbBlockEnd
  0
BLOCK
  5
5A
330
58
100
AcDbEntity
  8
0
100
AcDbBlockBegin
  2
Rckans1
 70
     0
 10
-195.7500000000014
 20
-123.000000024414
 30
0.0
  3
Rckans1
  1

  0
INSERT
  5
59
330
58
100
AcDbEntity
  8
0
100
AcDbBlockReference
  2
OTTA_6-P_P-select__3
 10
-217.5000006907283
 20
-148.4250000488284
 30
0.0
  0
MTEXT
  5
206
330
58
100
AcDbEntity
  8
1
 62
     6
100
AcDbMText
 10
-195.7500000000014
 20
-153.4250020244151
 30
0.0
 40
5.0
 41
0.0
 71
     2
 72
     1
  1
 
  7
CONVERTER_11
 73
     1
 44
1.32052821128451
  0
ENDBLK
  5
5B
330
58
100
AcDbEntity
  8
0
100
AcDbBlockEnd
  0
BLOCK
  5
5D
330
5C
100
AcDbEntity
  8
0
100
AcDbBlockBegin
  2
OTTA_6-P_P-select__4
 70
     0
 10
-253.4999999999849
 20
-148.4250000732422
 30
0.0
  3
OTTA_6-P_P-select__4
  1

  0
LINE
  5
207
330
5C
100
AcDbEntity
  8
1
  6
DOT_CENTER
 62
     2
100
AcDbLine
 10
-247.3749999999849
 20
-120.2750000732413
 30
0.0
 11
-247.3749999999849
 21
-126.3750000732413
 31
0.0
  0
LINE
  5
208
330
5C
100
AcDbEntity
  8
0
  6
Continuous
 62
     7
100
AcDbLine
 10
-251.4499999999849
 20
-120.2750000732412
 30
0.0
 11
-251.4499999999849
 21
-126.3750000732409
 31
0.0
  0
LINE
  5
209
330
5C
100
AcDbEntity
  8
0
  6
Continuous
 62
     7
100
AcDbLine
 10
-251.4499999999849
 20
-129.1750000732409
 30
0.0
 11
-251.4499999999849
 21
-132.4750000732407
 31
0.0
  0
LINE
  5
20A
330
5C
100
AcDbEntity
  8
0
  6
Continuous
 62
     7
100
AcDbLine
 10
-253.4999999999849
 20
-144.2073830224019
 30
0.0
 11
-253.4999999999849
 21
-143.3413576186169
 31
0.0
  0
LINE
  5
20B
330
5C
100
AcDbEntity
  8
0
  6
Continuous
 62
     7
100
AcDbLine
 10
-253.4999999999849
 20
-144.2073830224019
 30
0.0
 11
-253.4999999999849
 21
-145.4919873713484
 31
0.0
  0
LINE
  5
20C
330
5C
100
AcDbEntity
  8
0
  6
Continuous
 62
     7
100
AcDbLine
 10
-253.4999999999849
 20
-145.9250000732405
 30
0.0
 11
-253.4999999999849
 21
-148.4250000732422
 31
0.0
  0
LINE
  5
20D
330
5C
100
AcDbEntity
  8
0
  6
Continuous
 62
     7
100
AcDbLine
 10
-253.4999999999849
 20
-145.9250000732405
 30
0.0
 11
-253.4999999999849
 21
-145.4919873713484
 31
0.0
  0
LINE
  5
20E
330
5C
100
AcDbEntity
  8
0
  6
Continuous
 62
     7
100
AcDbLine
 10
-251.4499999999849
 20
-118.1750140732405
 30
0.0
 11
-251.4499999999849
 21
-120.2750000732412
 31
0.0
  0
LINE
  5
20F
330
5C
100
AcDbEntity
  8
0
  6
Continuous
 62
     7
100
AcDbLine
 10
-251.4499999999849
 20
-126.3750000732409
 30
0.0
 11
-251.4499999999849
 21
-129.1750000732409
 31
0.0
  0
LINE
  5
210
330
5C
100
AcDbEntity
  8
0
  6
Continuous
 62
     7
100
AcDbLine
 10
-249.3749999999849
 20
-120.2750000732413
 30
0.0
 11
-249.3749999999849
 21
-126.3750000732413
 31
0.0
  0
LINE
  5
211
330
5C
100
AcDbEntity
  8
0
  6
Continuous
 62
     7
100
AcDbLine
 10
-251.4499999999849
 20
-126.3750000732409
 30
0.0
 11
-249.3749999999849
 21
-126.3750000732413
 31
0.0
  0
LINE
  5
212
330
5C
100
AcDbEntity
  8
0
  6
Continuous
 62
     7
100
AcDbLine
 10
-253.4999999999849
 20
-137.904851476611
 30
0.0
 11
-253.4999999999849
 21
-136.4250000732406
 31
0.0
  0
LINE
  5
213
330
5C
100
AcDbEntity
  8
0
  6
Continuous
 62
     7
100
AcDbLine
 10
-253.4999999999849
 20
-104.5462953806395
 30
0.0
 11
-253.4999999999849
 21
-103.9518521300428
 31
0.0
  0
LINE
  5
214
330
5C
100
AcDbEntity
  8
0
  6
Continuous
 62
     7
100
AcDbLine
 10
-242.4999999999849
 20
-120.2750000732412
 30
0.0
 11
-242.4999999999849
 21
-126.3750000732416
 31
0.0
  0
LINE
  5
215
330
5C
100
AcDbEntity
  8
0
  6
Continuous
 62
     7
100
AcDbLine
 10
-245.3749999999849
 20
-120.2750000732413
 30
0.0
 11
-245.3749999999849
 21
-126.3750000732413
 31
0.0
  0
LINE
  5
216
330
5C
100
AcDbEntity
  8
0
  6
Continuous
 62
     7
100
AcDbLine
 10
-245.3749999999849
 20
-120.2750000732413
 30
0.0
 11
-242.4999999999849
 21
-120.2750000732412
 31
0.0
  0
LINE
  5
217
330
5C
100
AcDbEntity
  8
0
  6
Continuous
 62
     7
100
AcDbLine
 10
-242.4999999999849
 20
-132.4750000732407
 30
0.0
 11
-242.4999999999849
 21
-129.1750000732409
 31
0.0
  0
LINE
  5
218
330
5C
100
AcDbEntity
  8
0
  6
Continuous
 62
     7
100
AcDbLine
 10
-245.3749999999849
 20
-126.3750000732413
 30
0.0
 11
-242.4999999999849
 21
-126.3750000732416
 31
0.0
  0
LINE
  5
219
330
5C
100
AcDbEntity
  8
0
  6
Continuous
 62
     7
100
AcDbLine
 10
-242.4999999999849
 20
-126.3750000732416
 30
0.0
 11
-242.4999999999849
 21
-129.1750000732409
 31
0.0
  0
LINE
  5
21A
330
5C
100
AcDbEntity
  8
0
  6
Continuous
 62
     7
100
AcDbLine
 10
-242.4999999999849
 20
-118.1750140732329
 30
0.0
 11
-242.4999999999849
 21
-120.2750000732412
 31
0.0
  0
LINE
  5
21B
330
5C
100
AcDbEntity
  8
0
  6
Continuous
 62
     7
100
AcDbLine
 10
-253.4999999999849
 20
-148.4250000732422
 30
0.0
 11
-242.4999999999849
 21
-148.4250000732422
 31
0.0
  0
LINE
  5
21C
330
5C
100
AcDbEntity
  8
0
  6
Continuous
 62
     2
100
AcDbLine
 10
-252.299999999985
 20
-145.4919873713485
 30
0.0
 11
-253.4999999999849
 21
-145.4919873713484
 31
0.0
  0
LINE
  5
21D
330
5C
100
AcDbEntity
  8
0
  6
Continuous
 62
     2
100
AcDbLine
 10
-252.299999999985
 20
-144.2073830224019
 30
0.0
 11
-253.4999999999849
 21
-144.2073830224019
 31
0.0
  0
LINE
  5
21E
330
5C
100
AcDbEntity
  8
0
  6
Continuous
 62
     7
100
AcDbLine
 10
-252.299999999985
 20
-145.4250000732407
 30
0.0
 11
-252.299999999985
 21
-144.2073830224019
 31
0.0
  0
LINE
  5
21F
330
5C
100
AcDbEntity
  8
0
  6
Continuous
 62
     7
100
AcDbLine
 10
-252.299999999985
 20
-145.4919873713485
 30
0.0
 11
-252.299999999985
 21
-145.4250000732407
 31
0.0
  0
LINE
  5
220
330
5C
100
AcDbEntity
  8
0
  6
Continuous
 62
     7
100
AcDbLine
 10
-252.299999999985
 20
-145.4250000732407
 30
0.0
 11
-242.4999999999849
 21
-145.4250000732407
 31
0.0
  0
LINE
  5
221
330
5C
100
AcDbEntity
  8
0
  6
Continuous
 62
     2
100
AcDbLine
 10
-242.4999999999849
 20
-145.9250000732405
 30
0.0
 11
-253.4999999999849
 21
-145.9250000732405
 31
0.0
  0
LINE
  5
222
330
5C
100
AcDbEntity
  8
0
  6
Continuous
 62
     7
100
AcDbLine
 10
-242.4999999999849
 20
-145.4250000732407
 30
0.0
 11
-242.4999999999849
 21
-145.9250000732405
 31
0.0
  0
LINE
  5
223
330
5C
100
AcDbEntity
  8
0
  6
Continuous
 62
     7
100
AcDbLine
 10
-252.299999999985
 20
-144.2073830224019
 30
0.0
 11
-252.299999999985
 21
-143.3413576186171
 31
0.0
  0
LINE
  5
224
330
5C
100
AcDbEntity
  8
0
  6
Continuous
 62
     2
100
AcDbLine
 10
-252.299999999985
 20
-143.3413576186171
 30
0.0
 11
-253.4999999999849
 21
-143.3413576186169
 31
0.0
  0
LINE
  5
225
330
5C
100
AcDbEntity
  8
0
  6
Continuous
 62
     7
100
AcDbLine
 10
-242.4999999999849
 20
-145.4250000732407
 30
0.0
 11
-242.4999999999849
 21
-140.3250000732407
 31
0.0
  0
LINE
  5
226
330
5C
100
AcDbEntity
  8
0
  6
Continuous
 62
     7
100
AcDbLine
 10
-242.4999999999849
 20
-148.4250000732422
 30
0.0
 11
-242.4999999999849
 21
-145.9250000732405
 31
0.0
  0
LINE
  5
227
330
5C
100
AcDbEntity
  8
0
  6
Continuous
 62
     7
100
AcDbLine
 10
-253.4999999999849
 20
-97.57500007324116
 30
0.0
 11
-242.4999999999849
 21
-97.57500007324116
 31
0.0
  0
LINE
  5
228
330
5C
100
AcDbEntity
  8
0
  6
Continuous
 62
     7
100
AcDbLine
 10
-253.4999999999849
 20
-105.7505753593532
 30
0.0
 11
-242.4999999999849
 21
-105.7505753593531
 31
0.0
  0
LINE
  5
229
330
5C
100
AcDbEntity
  8
0
  6
Continuous
 62
     7
100
AcDbLine
 10
-253.4999999999849
 20
-99.77500007324115
 30
0.0
 11
-253.4999999999849
 21
-97.57500007324116
 31
0.0
  0
LINE
  5
22A
330
5C
100
AcDbEntity
  8
0
  6
Continuous
 62
     7
100
AcDbLine
 10
-253.4999999999849
 20
-101.0081475654145
 30
0.0
 11
-242.4999999999849
 21
-101.0081475654145
 31
0.0
  0
LINE
  5
22B
330
5C
100
AcDbEntity
  8
0
  6
Continuous
 62
     7
100
AcDbLine
 10
-242.4999999999849
 20
-99.77500007324112
 30
0.0
 11
-242.4999999999849
 21
-97.57500007324116
 31
0.0
  0
LINE
  5
22C
330
5C
100
AcDbEntity
  8
0
  6
Continuous
 62
     7
100
AcDbLine
 10
-242.4999999999849
 20
-103.9518521300428
 30
0.0
 11
-242.4999999999849
 21
-104.5462953806395
 31
0.0
  0
LINE
  5
22D
330
5C
100
AcDbEntity
  8
0
  6
Continuous
 62
     7
100
AcDbLine
 10
-242.4999999999849
 20
-103.9518521300428
 30
0.0
 11
-242.4999999999849
 21
-103.2941227966257
 31
0.0
  0
LINE
  5
22E
330
5C
100
AcDbEntity
  8
0
  6
Continuous
 62
     7
100
AcDbLine
 10
-242.4999999999849
 20
-99.77500007324112
 30
0.0
 11
-253.4999999999849
 21
-99.77500007324115
 31
0.0
  0
LINE
  5
22F
330
5C
100
AcDbEntity
  8
0
  6
Continuous
 62
     7
100
AcDbLine
 10
-242.4999999999849
 20
-103.2941227966257
 30
0.0
 11
-242.4999999999849
 21
-101.0081475654145
 31
0.0
  0
LINE
  5
230
330
5C
100
AcDbEntity
  8
0
  6
Continuous
 62
     7
100
AcDbLine
 10
-253.4999999999849
 20
-103.2941227966257
 30
0.0
 11
-242.4999999999849
 21
-103.2941227966257
 31
0.0
  0
LINE
  5
231
330
5C
100
AcDbEntity
  8
0
  6
Continuous
 62
     7
100
AcDbLine
 10
-253.4999999999849
 20
-103.9518521300428
 30
0.0
 11
-242.4999999999849
 21
-103.9518521300428
 31
0.0
  0
LINE
  5
232
330
5C
100
AcDbEntity
  8
0
  6
Continuous
 62
     7
100
AcDbLine
 10
-242.4999999999849
 20
-101.0081475654145
 30
0.0
 11
-242.4999999999849
 21
-99.77500007324112
 31
0.0
  0
LINE
  5
233
330
5C
100
AcDbEntity
  8
0
  6
Continuous
 62
     7
100
AcDbLine
 10
-242.4999999999849
 20
-137.904851476611
 30
0.0
 11
-253.4999999999849
 21
-137.904851476611
 31
0.0
  0
LINE
  5
234
330
5C
100
AcDbEntity
  8
0
  6
Continuous
 62
     7
100
AcDbLine
 10
-242.4999999999849
 20
-137.904851476611
 30
0.0
 11
-242.4999999999849
 21
-140.3250000732407
 31
0.0
  0
LINE
  5
235
330
5C
100
AcDbEntity
  8
0
  6
Continuous
 62
     7
100
AcDbLine
 10
-251.4499999999849
 20
-120.2750000732412
 30
0.0
 11
-249.3749999999849
 21
-120.2750000732413
 31
0.0
  0
LINE
  5
236
330
5C
100
AcDbEntity
  8
0
  6
Continuous
 62
     7
100
AcDbLine
 10
-253.4999999999849
 20
-101.0081475654145
 30
0.0
 11
-253.4999999999849
 21
-99.77500007324115
 31
0.0
  0
LINE
  5
237
330
5C
100
AcDbEntity
  8
0
  6
Continuous
 62
     7
100
AcDbLine
 10
-253.4999999999849
 20
-105.7505753593532
 30
0.0
 11
-253.4999999999849
 21
-104.5462953806395
 31
0.0
  0
LINE
  5
238
330
5C
100
AcDbEntity
  8
0
  6
Continuous
 62
     7
100
AcDbLine
 10
-253.4999999999849
 20
-103.9518521300428
 30
0.0
 11
-253.4999999999849
 21
-103.2941227966257
 31
0.0
  0
LINE
  5
239
330
5C
100
AcDbEntity
  8
0
  6
Continuous
 62
     7
100
AcDbLine
 10
-253.4999999999849
 20
-103.2941227966257
 30
0.0
 11
-253.4999999999849
 21
-101.0081475654145
 31
0.0
  0
LINE
  5
23A
330
5C
100
AcDbEntity
  8
0
  6
Continuous
 62
     7
100
AcDbLine
 10
-249.3749999999849
 20
-120.2750000732413
 30
0.0
 11
-245.3749999999849
 21
-120.2750000732413
 31
0.0
  0
LINE
  5
23B
330
5C
100
AcDbEntity
  8
0
  6
Continuous
 62
     7
100
AcDbLine
 10
-253.4999999999849
 20
-140.3250000732407
 30
0.0
 11
-253.4999999999849
 21
-137.904851476611
 31
0.0
  0
LINE
  5
23C
330
5C
100
AcDbEntity
  8
0
  6
Continuous
 62
     2
100
AcDbLine
 10
-242.4999999999849
 20
-140.3250000732407
 30
0.0
 11
-253.4999999999849
 21
-140.3250000732407
 31
0.0
  0
LINE
  5
23D
330
5C
100
AcDbEntity
  8
0
  6
Continuous
 62
     7
100
AcDbLine
 10
-253.4999999999849
 20
-140.3250000732407
 30
0.0
 11
-253.4999999999849
 21
-143.3413576186169
 31
0.0
  0
LINE
  5
23E
330
5C
100
AcDbEntity
  8
0
  6
Continuous
 62
     7
100
AcDbLine
 10
-253.4999999999849
 20
-104.5462953806395
 30
0.0
 11
-242.4999999999849
 21
-104.5462953806395
 31
0.0
  0
LINE
  5
23F
330
5C
100
AcDbEntity
  8
0
  6
Continuous
 62
     7
100
AcDbLine
 10
-242.4999999999849
 20
-104.5462953806395
 30
0.0
 11
-242.4999999999849
 21
-105.7505753593531
 31
0.0
  0
LINE
  5
240
330
5C
100
AcDbEntity
  8
0
  6
Continuous
 62
     7
100
AcDbLine
 10
-242.4999999999849
 20
-118.1750140732329
 30
0.0
 11
-242.4999999999849
 21
-105.7505753593531
 31
0.0
  0
LINE
  5
241
330
5C
100
AcDbEntity
  8
0
  6
Continuous
 62
     7
100
AcDbLine
 10
-251.4499999999849
 20
-118.1750140732405
 30
0.0
 11
-242.4999999999849
 21
-118.1750140732329
 31
0.0
  0
LINE
  5
242
330
5C
100
AcDbEntity
  8
0
  6
Continuous
 62
     7
100
AcDbLine
 10
-249.3749999999849
 20
-126.3750000732413
 30
0.0
 11
-245.3749999999849
 21
-126.3750000732413
 31
0.0
  0
LINE
  5
243
330
5C
100
AcDbEntity
  8
0
  6
Continuous
 62
     7
100
AcDbLine
 10
-242.4999999999849
 20
-129.1750000732409
 30
0.0
 11
-251.4499999999849
 21
-129.1750000732409
 31
0.0
  0
LINE
  5
244
330
5C
100
AcDbEntity
  8
0
  6
Continuous
 62
     7
100
AcDbLine
 10
-253.4999999999849
 20
-136.4250000732406
 30
0.0
 11
-242.4999999999849
 21
-136.4250000732402
 31
0.0
  0
LINE
  5
245
330
5C
100
AcDbEntity
  8
0
  6
Continuous
 62
     7
100
AcDbLine
 10
-242.4999999999849
 20
-136.4250000732402
 30
0.0
 11
-242.4999999999849
 21
-132.4750000732407
 31
0.0
  0
LINE
  5
246
330
5C
100
AcDbEntity
  8
0
  6
Continuous
 62
     7
100
AcDbLine
 10
-242.4999999999849
 20
-137.904851476611
 30
0.0
 11
-242.4999999999849
 21
-136.4250000732402
 31
0.0
  0
LINE
  5
247
330
5C
100
AcDbEntity
  8
0
  6
Continuous
 62
     7
100
AcDbLine
 10
-253.4999999999849
 20
-136.4250000732406
 30
0.0
 11
-253.4999999999849
 21
-105.7505753593532
 31
0.0
  0
LINE
  5
248
330
5C
100
AcDbEntity
  8
0
  6
Continuous
 62
     7
100
AcDbLine
 10
-242.4999999999849
 20
-132.4750000732407
 30
0.0
 11
-251.4499999999849
 21
-132.4750000732407
 31
0.0
  0
ENDBLK
  5
5E
330
5C
100
AcDbEntity
  8
0
100
AcDbBlockEnd
  0
BLOCK
  5
61
330
5F
100
AcDbEntity
  8
0
100
AcDbBlockBegin
  2
SA_Links1
 70
     0
 10
-247.99999999999
 20
-123.0000000488281
 30
0.0
  3
SA_Links1
  1

  0
INSERT
  5
60
330
5F
100
AcDbEntity
  8
0
100
AcDbBlockReference
  2
OTTA_6-P_P-select__4
 10
-253.4999999999849
 20
-148.4250000732422
 30
0.0
  0
MTEXT
  5
249
330
5F
100
AcDbEntity
  8
1
 62
     6
100
AcDbMText
 10
-247.99999999999
 20
-153.4250020488291
 30
0.0
 40
5.0
 41
0.0
 71
     2
 72
     1
  1
 
  7
CONVERTER_11
 73
     1
 44
1.32052821128451
  0
ENDBLK
  5
62
330
5F
100
AcDbEntity
  8
0
100
AcDbBlockEnd
  0
BLOCK
  5
64
330
63
100
AcDbEntity
  8
0
100
AcDbBlockBegin
  2
OTTA_6-P_P-select__5
 70
     0
 10
-379.0000000000026
 20
-148.4250000488268
 30
0.0
  3
OTTA_6-P_P-select__5
  1

  0
LINE
  5
24A
330
63
100
AcDbEntity
  8
1
  6
DOT_CENTER
 62
     2
100
AcDbLine
 10
-374.1250000000027
 20
-120.2750000488283
 30
0.0
 11
-374.1250000000027
 21
-126.3750000488281
 31
0.0
  0
LINE
  5
24B
330
63
100
AcDbEntity
  8
0
  6
Continuous
 62
     7
100
AcDbLine
 10
-368.0000000000026
 20
-99.77500004882826
 30
0.0
 11
-368.0000000000026
 21
-101.008147541002
 31
0.0
  0
LINE
  5
24C
330
63
100
AcDbEntity
  8
0
  6
Continuous
 62
     7
100
AcDbLine
 10
-368.0000000000026
 20
-103.2941227722117
 30
0.0
 11
-368.0000000000026
 21
-103.9518521056303
 31
0.0
  0
LINE
  5
24D
330
63
100
AcDbEntity
  8
0
  6
Continuous
 62
     7
100
AcDbLine
 10
-368.0000000000026
 20
-97.57500004882847
 30
0.0
 11
-379.0000000000026
 21
-97.57500004882847
 31
0.0
  0
LINE
  5
24E
330
63
100
AcDbEntity
  8
0
  6
Continuous
 62
     7
100
AcDbLine
 10
-379.0000000000026
 20
-99.77500004882832
 30
0.0
 11
-368.0000000000026
 21
-99.77500004882826
 31
0.0
  0
LINE
  5
24F
330
63
100
AcDbEntity
  8
0
  6
Continuous
 62
     7
100
AcDbLine
 10
-368.0000000000026
 20
-101.008147541002
 30
0.0
 11
-379.0000000000026
 21
-101.0081475410019
 31
0.0
  0
LINE
  5
250
330
63
100
AcDbEntity
  8
0
  6
Continuous
 62
     7
100
AcDbLine
 10
-368.0000000000026
 20
-104.5462953562256
 30
0.0
 11
-379.0000000000026
 21
-104.5462953562256
 31
0.0
  0
LINE
  5
251
330
63
100
AcDbEntity
  8
0
  6
Continuous
 62
     7
100
AcDbLine
 10
-379.0000000000026
 20
-105.7505753349415
 30
0.0
 11
-379.0000000000026
 21
-104.5462953562256
 31
0.0
  0
LINE
  5
252
330
63
100
AcDbEntity
  8
0
  6
Continuous
 62
     7
100
AcDbLine
 10
-368.0000000000026
 20
-104.5462953562256
 30
0.0
 11
-368.0000000000026
 21
-105.7505753349415
 31
0.0
  0
LINE
  5
253
330
63
100
AcDbEntity
  8
0
  6
Continuous
 62
     7
100
AcDbLine
 10
-368.0000000000026
 20
-105.7505753349415
 30
0.0
 11
-379.0000000000026
 21
-105.7505753349415
 31
0.0
  0
LINE
  5
254
330
63
100
AcDbEntity
  8
0
  6
Continuous
 62
     7
100
AcDbLine
 10
-368.0000000000026
 20
-103.2941227722117
 30
0.0
 11
-379.0000000000026
 21
-103.2941227722117
 31
0.0
  0
LINE
  5
255
330
63
100
AcDbEntity
  8
0
  6
Continuous
 62
     7
100
AcDbLine
 10
-379.0000000000026
 20
-101.0081475410019
 30
0.0
 11
-379.0000000000026
 21
-103.2941227722117
 31
0.0
  0
LINE
  5
256
330
63
100
AcDbEntity
  8
0
  6
Continuous
 62
     7
100
AcDbLine
 10
-368.0000000000026
 20
-101.008147541002
 30
0.0
 11
-368.0000000000026
 21
-103.2941227722117
 31
0.0
  0
LINE
  5
257
330
63
100
AcDbEntity
  8
0
  6
Continuous
 62
     7
100
AcDbLine
 10
-379.0000000000026
 20
-103.2941227722117
 30
0.0
 11
-379.0000000000026
 21
-103.9518521056303
 31
0.0
  0
LINE
  5
258
330
63
100
AcDbEntity
  8
0
  6
Continuous
 62
     7
100
AcDbLine
 10
-379.0000000000026
 20
-103.9518521056303
 30
0.0
 11
-368.0000000000026
 21
-103.9518521056303
 31
0.0
  0
LINE
  5
259
330
63
100
AcDbEntity
  8
0
  6
Continuous
 62
     7
100
AcDbLine
 10
-379.0000000000026
 20
-104.5462953562256
 30
0.0
 11
-379.0000000000026
 21
-103.9518521056303
 31
0.0
  0
LINE
  5
25A
330
63
100
AcDbEntity
  8
0
  6
Continuous
 62
     7
100
AcDbLine
 10
-368.0000000000026
 20
-103.9518521056303
 30
0.0
 11
-368.0000000000026
 21
-104.5462953562256
 31
0.0
  0
LINE
  5
25B
330
63
100
AcDbEntity
  8
0
  6
Continuous
 62
     7
100
AcDbLine
 10
-379.0000000000026
 20
-99.77500004882832
 30
0.0
 11
-379.0000000000026
 21
-101.0081475410019
 31
0.0
  0
LINE
  5
25C
330
63
100
AcDbEntity
  8
0
  6
Continuous
 62
     7
100
AcDbLine
 10
-368.0000000000026
 20
-97.57500004882847
 30
0.0
 11
-368.0000000000026
 21
-99.77500004882826
 31
0.0
  0
LINE
  5
25D
330
63
100
AcDbEntity
  8
0
  6
Continuous
 62
     7
100
AcDbLine
 10
-379.0000000000026
 20
-97.57500004882847
 30
0.0
 11
-379.0000000000026
 21
-99.77500004882832
 31
0.0
  0
LINE
  5
25E
330
63
100
AcDbEntity
  8
0
  6
Continuous
 62
     7
100
AcDbLine
 10
-368.0000000000026
 20
-148.4250000488268
 30
0.0
 11
-379.0000000000026
 21
-148.4250000488268
 31
0.0
  0
LINE
  5
25F
330
63
100
AcDbEntity
  8
0
  6
Continuous
 62
     7
100
AcDbLine
 10
-368.0000000000026
 20
-147.0250000488283
 30
0.0
 11
-368.0000000000026
 21
-145.5250000488284
 31
0.0
  0
LINE
  5
260
330
63
100
AcDbEntity
  8
0
  6
Continuous
 62
     7
100
AcDbLine
 10
-368.0000000000026
 20
-145.5250000488284
 30
0.0
 11
-368.0000000000026
 21
-145.0250000488284
 31
0.0
  0
LINE
  5
261
330
63
100
AcDbEntity
  8
0
  6
Continuous
 62
     7
100
AcDbLine
 10
-368.0000000000026
 20
-145.0250000488284
 30
0.0
 11
-368.0000000000026
 21
-144.925000048829
 31
0.0
  0
LINE
  5
262
330
63
100
AcDbEntity
  8
0
  6
Continuous
 62
     7
100
AcDbLine
 10
-368.0000000000026
 20
-148.4250000488268
 30
0.0
 11
-368.0000000000026
 21
-147.1500000488284
 31
0.0
  0
LINE
  5
263
330
63
100
AcDbEntity
  8
0
  6
Continuous
 62
     7
100
AcDbLine
 10
-368.0000000000026
 20
-147.1500000488284
 30
0.0
 11
-368.0000000000026
 21
-147.0250000488283
 31
0.0
  0
LINE
  5
264
330
63
100
AcDbEntity
  8
0
  6
Continuous
 62
     7
100
AcDbLine
 10
-379.0000000000026
 20
-147.1500000488284
 30
0.0
 11
-368.0000000000026
 21
-147.1500000488284
 31
0.0
  0
LINE
  5
265
330
63
100
AcDbEntity
  8
0
  6
Continuous
 62
     7
100
AcDbLine
 10
-379.0000000000026
 20
-147.0250000488283
 30
0.0
 11
-368.0000000000026
 21
-147.0250000488283
 31
0.0
  0
LINE
  5
266
330
63
100
AcDbEntity
  8
0
  6
Continuous
 62
     7
100
AcDbLine
 10
-379.0000000000026
 20
-145.5250000488284
 30
0.0
 11
-368.0000000000026
 21
-145.5250000488284
 31
0.0
  0
LINE
  5
267
330
63
100
AcDbEntity
  8
0
  6
Continuous
 62
     7
100
AcDbLine
 10
-368.0000000000026
 20
-144.925000048829
 30
0.0
 11
-379.0000000000026
 21
-144.925000048829
 31
0.0
  0
LINE
  5
268
330
63
100
AcDbEntity
  8
0
  6
Continuous
 62
     7
100
AcDbLine
 10
-379.0000000000026
 20
-145.0250000488285
 30
0.0
 11
-368.0000000000026
 21
-145.0250000488284
 31
0.0
  0
LINE
  5
269
330
63
100
AcDbEntity
  8
0
  6
Continuous
 62
     7
100
AcDbLine
 10
-379.0000000000026
 20
-147.0250000488283
 30
0.0
 11
-379.0000000000026
 21
-145.5250000488284
 31
0.0
  0
LINE
  5
26A
330
63
100
AcDbEntity
  8
0
  6
Continuous
 62
     7
100
AcDbLine
 10
-379.0000000000026
 20
-147.1500000488284
 30
0.0
 11
-379.0000000000026
 21
-147.0250000488283
 31
0.0
  0
LINE
  5
26B
330
63
100
AcDbEntity
  8
0
  6
Continuous
 62
     7
100
AcDbLine
 10
-379.0000000000026
 20
-145.5250000488284
 30
0.0
 11
-379.0000000000026
 21
-145.0250000488285
 31
0.0
  0
LINE
  5
26C
330
63
100
AcDbEntity
  8
0
  6
Continuous
 62
     7
100
AcDbLine
 10
-379.0000000000026
 20
-145.0250000488285
 30
0.0
 11
-379.0000000000026
 21
-144.925000048829
 31
0.0
  0
LINE
  5
26D
330
63
100
AcDbEntity
  8
0
  6
Continuous
 62
     7
100
AcDbLine
 10
-379.0000000000026
 20
-148.4250000488268
 30
0.0
 11
-379.0000000000026
 21
-147.1500000488284
 31
0.0
  0
LINE
  5
26E
330
63
100
AcDbEntity
  8
0
  6
Continuous
 62
     7
100
AcDbLine
 10
-370.0500000000026
 20
-126.3750000488284
 30
0.0
 11
-370.0500000000026
 21
-120.2750000488284
 31
0.0
  0
LINE
  5
26F
330
63
100
AcDbEntity
  8
0
  6
Continuous
 62
     7
100
AcDbLine
 10
-372.1250000000027
 20
-126.3750000488281
 30
0.0
 11
-376.1250000000027
 21
-126.3750000488281
 31
0.0
  0
LINE
  5
270
330
63
100
AcDbEntity
  8
0
  6
Continuous
 62
     7
100
AcDbLine
 10
-379.0000000000026
 20
-144.925000048829
 30
0.0
 11
-379.0000000000026
 21
-132.4750000488288
 31
0.0
  0
LINE
  5
271
330
63
100
AcDbEntity
  8
0
  6
Continuous
 62
     7
100
AcDbLine
 10
-379.0000000000026
 20
-126.3750000488284
 30
0.0
 11
-379.0000000000026
 21
-129.1750000488285
 31
0.0
  0
LINE
  5
272
330
63
100
AcDbEntity
  8
0
  6
Continuous
 62
     7
100
AcDbLine
 10
-379.0000000000026
 20
-132.4750000488288
 30
0.0
 11
-379.0000000000026
 21
-129.1750000488285
 31
0.0
  0
LINE
  5
273
330
63
100
AcDbEntity
  8
0
  6
Continuous
 62
     7
100
AcDbLine
 10
-379.0000000000026
 20
-129.1750000488285
 30
0.0
 11
-370.0500000000026
 21
-129.1750000488285
 31
0.0
  0
LINE
  5
274
330
63
100
AcDbEntity
  8
0
  6
Continuous
 62
     7
100
AcDbLine
 10
-370.0500000000026
 20
-129.1750000488285
 30
0.0
 11
-370.0500000000026
 21
-126.3750000488284
 31
0.0
  0
LINE
  5
275
330
63
100
AcDbEntity
  8
0
  6
Continuous
 62
     7
100
AcDbLine
 10
-370.0500000000026
 20
-132.4750000488291
 30
0.0
 11
-370.0500000000026
 21
-129.1750000488285
 31
0.0
  0
LINE
  5
276
330
63
100
AcDbEntity
  8
0
  6
Continuous
 62
     7
100
AcDbLine
 10
-370.0500000000026
 20
-132.4750000488291
 30
0.0
 11
-379.0000000000026
 21
-132.4750000488288
 31
0.0
  0
LINE
  5
277
330
63
100
AcDbEntity
  8
0
  6
Continuous
 62
     7
100
AcDbLine
 10
-376.1250000000027
 20
-126.3750000488281
 30
0.0
 11
-379.0000000000026
 21
-126.3750000488284
 31
0.0
  0
LINE
  5
278
330
63
100
AcDbEntity
  8
0
  6
Continuous
 62
     7
100
AcDbLine
 10
-370.0500000000026
 20
-126.3750000488284
 30
0.0
 11
-372.1250000000027
 21
-126.3750000488281
 31
0.0
  0
LINE
  5
279
330
63
100
AcDbEntity
  8
0
  6
Continuous
 62
     7
100
AcDbLine
 10
-376.1250000000027
 20
-120.2750000488283
 30
0.0
 11
-376.1250000000027
 21
-126.3750000488281
 31
0.0
  0
LINE
  5
27A
330
63
100
AcDbEntity
  8
0
  6
Continuous
 62
     7
100
AcDbLine
 10
-372.1250000000027
 20
-120.2750000488283
 30
0.0
 11
-372.1250000000027
 21
-126.3750000488281
 31
0.0
  0
LINE
  5
27B
330
63
100
AcDbEntity
  8
0
  6
Continuous
 62
     7
100
AcDbLine
 10
-376.1250000000027
 20
-120.2750000488283
 30
0.0
 11
-379.0000000000026
 21
-120.2750000488279
 31
0.0
  0
LINE
  5
27C
330
63
100
AcDbEntity
  8
0
  6
Continuous
 62
     7
100
AcDbLine
 10
-372.1250000000027
 20
-120.2750000488283
 30
0.0
 11
-376.1250000000027
 21
-120.2750000488283
 31
0.0
  0
LINE
  5
27D
330
63
100
AcDbEntity
  8
0
  6
Continuous
 62
     7
100
AcDbLine
 10
-370.0500000000026
 20
-120.2750000488284
 30
0.0
 11
-372.1250000000027
 21
-120.2750000488283
 31
0.0
  0
LINE
  5
27E
330
63
100
AcDbEntity
  8
0
  6
Continuous
 62
     7
100
AcDbLine
 10
-379.0000000000026
 20
-126.3750000488284
 30
0.0
 11
-379.0000000000026
 21
-120.2750000488279
 31
0.0
  0
LINE
  5
27F
330
63
100
AcDbEntity
  8
0
  6
Continuous
 62
     7
100
AcDbLine
 10
-370.0500000000026
 20
-120.2750000488284
 30
0.0
 11
-370.0500000000026
 21
-118.1750140488296
 31
0.0
  0
LINE
  5
280
330
63
100
AcDbEntity
  8
0
  6
Continuous
 62
     7
100
AcDbLine
 10
-368.0000000000026
 20
-144.925000048829
 30
0.0
 11
-368.0000000000026
 21
-105.7505753349415
 31
0.0
  0
LINE
  5
281
330
63
100
AcDbEntity
  8
0
  6
Continuous
 62
     7
100
AcDbLine
 10
-379.0000000000026
 20
-120.2750000488279
 30
0.0
 11
-379.0000000000026
 21
-118.1750140488296
 31
0.0
  0
LINE
  5
282
330
63
100
AcDbEntity
  8
0
  6
Continuous
 62
     7
100
AcDbLine
 10
-370.0500000000026
 20
-118.1750140488296
 30
0.0
 11
-379.0000000000026
 21
-118.1750140488296
 31
0.0
  0
LINE
  5
283
330
63
100
AcDbEntity
  8
0
  6
Continuous
 62
     7
100
AcDbLine
 10
-379.0000000000026
 20
-118.1750140488296
 30
0.0
 11
-379.0000000000026
 21
-105.7505753349415
 31
0.0
  0
ENDBLK
  5
65
330
63
100
AcDbEntity
  8
0
100
AcDbBlockEnd
  0
BLOCK
  5
68
330
66
100
AcDbEntity
  8
0
100
AcDbBlockBegin
  2
SA_Rechts1
 70
     0
 10
-373.4999999999975
 20
-123.0000000244141
 30
0.0
  3
SA_Rechts1
  1

  0
INSERT
  5
67
330
66
100
AcDbEntity
  8
0
100
AcDbBlockReference
  2
OTTA_6-P_P-select__5
 10
-379.0000000000026
 20
-148.4250000488268
 30
0.0
  0
MTEXT
  5
284
330
66
100
AcDbEntity
  8
1
 62
     6
100
AcDbMText
 10
-373.4999999999973
 20
-153.4250020244151
 30
0.0
 40
5.0
 41
0.0
 71
     2
 72
     1
  1
 
  7
CONVERTER_11
 73
     1
 44
1.32052821128451
  0
ENDBLK
  5
69
330
66
100
AcDbEntity
  8
0
100
AcDbBlockEnd
  0
BLOCK
  5
6B
330
6A
100
AcDbEntity
  8
0
100
AcDbBlockBegin
  2
OTTA_6-P_P-select__6
 70
     0
 10
-326.999999309274
 20
-148.4250000488284
 30
0.0
  3
OTTA_6-P_P-select__6
  1

  0
LINE
  5
285
330
6A
100
AcDbEntity
  8
1
  6
DOT_CENTER
 62
     2
100
AcDbLine
 10
-312.6499993092727
 20
-120.2750000488272
 30
0.0
 11
-312.6499993092727
 21
-126.3750000488273
 31
0.0
  0
LINE
  5
286
330
6A
100
AcDbEntity
  8
1
  6
DOT_CENTER
 62
     2
100
AcDbLine
 10
-297.8499993092724
 20
-120.2750000488281
 30
0.0
 11
-297.8499993092724
 21
-126.3750000488281
 31
0.0
  0
LINE
  5
287
330
6A
100
AcDbEntity
  8
0
  6
Continuous
 62
     7
100
AcDbLine
 10
-317.534519287351
 20
-103.9518521056288
 30
0.0
 11
-322.9904793311934
 21
-107.1018521056286
 31
0.0
  0
LINE
  5
288
330
6A
100
AcDbEntity
  8
0
  6
Continuous
 62
     7
100
AcDbLine
 10
-316.7999993092724
 20
-118.175014048827
 30
0.0
 11
-314.6499993092727
 21
-120.2750000488272
 31
0.0
  0
LINE
  5
289
330
6A
100
AcDbEntity
  8
0
  6
Continuous
 62
     7
100
AcDbLine
 10
-318.0392128716467
 20
-139.4107864864537
 30
0.0
 11
-317.9249993092735
 21
-139.5250000488269
 31
0.0
  0
LINE
  5
28A
330
6A
100
AcDbEntity
  8
0
  6
Continuous
 62
     7
100
AcDbLine
 10
-318.3499993092731
 20
-126.3750000488269
 30
0.0
 11
-318.3499993092733
 21
-129.1750000488269
 31
0.0
  0
LINE
  5
28B
330
6A
100
AcDbEntity
  8
0
  6
Continuous
 62
     7
100
AcDbLine
 10
-295.8499993092725
 20
-120.2750000488283
 30
0.0
 11
-295.8499993092727
 21
-126.3750000488281
 31
0.0
  0
LINE
  5
28C
330
6A
100
AcDbEntity
  8
0
  6
Continuous
 62
     7
100
AcDbLine
 10
-293.8499993092711
 20
-97.57500004882837
 30
0.0
 11
-293.8499993092714
 21
-99.77500004882822
 31
0.0
  0
LINE
  5
28D
330
6A
100
AcDbEntity
  8
0
  6
Continuous
 62
     7
100
AcDbLine
 10
-293.8499993092711
 20
-97.57500004882837
 30
0.0
 11
-316.6499993092716
 21
-97.57500004882712
 31
0.0
  0
LINE
  5
28E
330
6A
100
AcDbEntity
  8
0
  6
Continuous
 62
     7
100
AcDbLine
 10
-317.534519287351
 20
-103.9518521056288
 30
0.0
 11
-318.0620192873508
 21
-103.0381953046359
 31
0.0
  0
LINE
  5
28F
330
6A
100
AcDbEntity
  8
0
  6
Continuous
 62
     7
100
AcDbLine
 10
-310.6499993092727
 20
-120.2750000488274
 30
0.0
 11
-305.9499993092725
 21
-120.2750000488277
 31
0.0
  0
LINE
  5
290
330
6A
100
AcDbEntity
  8
0
  6
Continuous
 62
     7
100
AcDbLine
 10
-314.6499993092727
 20
-120.2750000488272
 30
0.0
 11
-310.6499993092727
 21
-120.2750000488274
 31
0.0
  0
LINE
  5
291
330
6A
100
AcDbEntity
  8
0
  6
Continuous
 62
     7
100
AcDbLine
 10
-314.6499993092727
 20
-120.2750000488272
 30
0.0
 11
-314.6499993092731
 21
-126.3750000488271
 31
0.0
  0
LINE
  5
292
330
6A
100
AcDbEntity
  8
0
  6
Continuous
 62
     7
100
AcDbLine
 10
-316.6499993092716
 20
-99.77500004882708
 30
0.0
 11
-316.6499993092716
 21
-97.57500004882712
 31
0.0
  0
LINE
  5
293
330
6A
100
AcDbEntity
  8
0
  6
Continuous
 62
     7
100
AcDbLine
 10
-295.8499993092727
 20
-126.3750000488281
 30
0.0
 11
-299.8499993092727
 21
-126.3750000488279
 31
0.0
  0
LINE
  5
294
330
6A
100
AcDbEntity
  8
0
  6
Continuous
 62
     7
100
AcDbLine
 10
-299.8499993092723
 20
-120.2750000488281
 30
0.0
 11
-299.8499993092727
 21
-126.3750000488279
 31
0.0
  0
LINE
  5
295
330
6A
100
AcDbEntity
  8
0
  6
Continuous
 62
     7
100
AcDbLine
 10
-310.6499993092727
 20
-120.2750000488274
 30
0.0
 11
-310.6499993092731
 21
-126.3750000488273
 31
0.0
  0
LINE
  5
296
330
6A
100
AcDbEntity
  8
0
  6
Continuous
 62
     7
100
AcDbLine
 10
-305.9499993092728
 20
-126.3750000488276
 30
0.0
 11
-310.6499993092731
 21
-126.3750000488273
 31
0.0
  0
LINE
  5
297
330
6A
100
AcDbEntity
  8
0
  6
Continuous
 62
     7
100
AcDbLine
 10
-305.9499993092725
 20
-120.2750000488277
 30
0.0
 11
-305.9499993092728
 21
-126.3750000488276
 31
0.0
  0
LINE
  5
298
330
6A
100
AcDbEntity
  8
0
  6
Continuous
 62
     7
100
AcDbLine
 10
-310.6499993092731
 20
-126.3750000488273
 30
0.0
 11
-314.6499993092731
 21
-126.3750000488271
 31
0.0
  0
LINE
  5
299
330
6A
100
AcDbEntity
  8
0
  6
Continuous
 62
     7
100
AcDbLine
 10
-304.5499993092725
 20
-120.2750000488278
 30
0.0
 11
-299.8499993092723
 21
-120.2750000488281
 31
0.0
  0
LINE
  5
29A
330
6A
100
AcDbEntity
  8
0
  6
Continuous
 62
     7
100
AcDbLine
 10
-287.5095192873506
 20
-107.1018521056305
 30
0.0
 11
-292.9654793311924
 21
-103.9518521056302
 31
0.0
  0
LINE
  5
29B
330
6A
100
AcDbEntity
  8
0
  6
Continuous
 62
     7
100
AcDbLine
 10
-291.7141251996011
 20
-101.0081475410018
 30
0.0
 11
-291.9946999542987
 21
-103.2941227722125
 31
0.0
  0
LINE
  5
29C
330
6A
100
AcDbEntity
  8
0
  6
Continuous
 62
     7
100
AcDbLine
 10
-292.4379793311923
 20
-103.0381953046378
 30
0.0
 11
-292.9654793311924
 21
-103.9518521056302
 31
0.0
  0
LINE
  5
29D
330
6A
100
AcDbEntity
  8
0
  6
Continuous
 62
     7
100
AcDbLine
 10
-287.4252986642441
 20
-105.9322678370626
 30
0.0
 11
-285.5858734189415
 21
-104.5462953562276
 31
0.0
  0
LINE
  5
29E
330
6A
100
AcDbEntity
  8
0
  6
Continuous
 62
     7
100
AcDbLine
 10
-287.5095192873506
 20
-107.1018521056305
 30
0.0
 11
-286.9820192873505
 21
-106.1881953046381
 31
0.0
  0
LINE
  5
29F
330
6A
100
AcDbEntity
  8
0
  6
Continuous
 62
     7
100
AcDbLine
 10
-293.6999993092789
 20
-118.1750140488359
 30
0.0
 11
-283.4999993092723
 21
-118.1750140488295
 31
0.0
  0
LINE
  5
2A0
330
6A
100
AcDbEntity
  8
0
  6
Continuous
 62
     7
100
AcDbLine
 10
-295.8499993092725
 20
-120.2750000488283
 30
0.0
 11
-293.6999993092789
 21
-118.1750140488359
 31
0.0
  0
LINE
  5
2A1
330
6A
100
AcDbEntity
  8
0
  6
Continuous
 62
     7
100
AcDbLine
 10
-299.8499993092723
 20
-120.2750000488281
 30
0.0
 11
-295.8499993092725
 21
-120.2750000488283
 31
0.0
  0
LINE
  5
2A2
330
6A
100
AcDbEntity
  8
0
  6
Continuous
 62
     7
100
AcDbLine
 10
-299.8499993092727
 20
-126.3750000488279
 30
0.0
 11
-304.5499993092728
 21
-126.3750000488277
 31
0.0
  0
LINE
  5
2A3
330
6A
100
AcDbEntity
  8
0
  6
Continuous
 62
     7
100
AcDbLine
 10
-314.6499993092731
 20
-126.3750000488271
 30
0.0
 11
-318.3499993092731
 21
-126.3750000488269
 31
0.0
  0
LINE
  5
2A4
330
6A
100
AcDbEntity
  8
0
  6
Continuous
 62
     7
100
AcDbLine
 10
-292.1499993092731
 20
-126.3750000488283
 30
0.0
 11
-292.1499993092733
 21
-129.1750000488283
 31
0.0
  0
LINE
  5
2A5
330
6A
100
AcDbEntity
  8
0
  6
Continuous
 62
     7
100
AcDbLine
 10
-292.1499993092731
 20
-126.3750000488283
 30
0.0
 11
-295.8499993092727
 21
-126.3750000488281
 31
0.0
  0
LINE
  5
2A6
330
6A
100
AcDbEntity
  8
0
  6
Continuous
 62
     7
100
AcDbLine
 10
-304.5499993092728
 20
-126.3750000488277
 30
0.0
 11
-304.5499993092725
 21
-120.2750000488278
 31
0.0
  0
LINE
  5
2A7
330
6A
100
AcDbEntity
  8
0
  6
Continuous
 62
     7
100
AcDbLine
 10
-283.4999993092723
 20
-118.1750140488295
 30
0.0
 11
-283.4999993092716
 21
-105.7505753349414
 31
0.0
  0
LINE
  5
2A8
330
6A
100
AcDbEntity
  8
0
  6
Continuous
 62
     7
100
AcDbLine
 10
-286.9820192873505
 20
-106.1881953046381
 30
0.0
 11
-287.4252986642441
 21
-105.9322678370626
 31
0.0
  0
LINE
  5
2A9
330
6A
100
AcDbEntity
  8
0
  6
Continuous
 62
     7
100
AcDbLine
 10
-285.5858734189415
 20
-104.5462953562276
 30
0.0
 11
-283.4999993092716
 21
-105.7505753349414
 31
0.0
  0
LINE
  5
2AA
330
6A
100
AcDbEntity
  8
0
  6
Continuous
 62
     7
100
AcDbLine
 10
-291.9946999542987
 20
-103.2941227722125
 30
0.0
 11
-292.4379793311923
 21
-103.0381953046378
 31
0.0
  0
LINE
  5
2AB
330
6A
100
AcDbEntity
  8
0
  6
Continuous
 62
     7
100
AcDbLine
 10
-293.8499993092714
 20
-99.77500004882822
 30
0.0
 11
-291.7141251996011
 21
-101.0081475410018
 31
0.0
  0
LINE
  5
2AC
330
6A
100
AcDbEntity
  8
0
  6
Continuous
 62
     7
100
AcDbLine
 10
-293.8499993092735
 20
-139.4993821318424
 30
0.0
 11
-292.6249993092739
 21
-145.0250000488284
 31
0.0
  0
LINE
  5
2AD
330
6A
100
AcDbEntity
  8
0
  6
Continuous
 62
     7
100
AcDbLine
 10
-324.0249993092739
 20
-147.3750000488266
 30
0.0
 11
-324.0249993092738
 21
-143.3413575942031
 31
0.0
  0
LINE
  5
2AE
330
6A
100
AcDbEntity
  8
0
  6
Continuous
 62
     7
100
AcDbLine
 10
-324.0249993092738
 20
-143.3413575942031
 30
0.0
 11
-324.0249993092736
 21
-140.3250000488267
 31
0.0
  0
LINE
  5
2AF
330
6A
100
AcDbEntity
  8
0
  6
Continuous
 62
     7
100
AcDbLine
 10
-322.4499993092738
 20
-143.3250000488268
 30
0.0
 11
-322.5499993092737
 21
-142.125000048827
 31
0.0
  0
LINE
  5
2B0
330
6A
100
AcDbEntity
  8
0
  6
Continuous
 62
     7
100
AcDbLine
 10
-322.5499993092737
 20
-142.125000048827
 30
0.0
 11
-321.5249993092739
 21
-141.9245881467204
 31
0.0
  0
LINE
  5
2B1
330
6A
100
AcDbEntity
  8
0
  6
Continuous
 62
     7
100
AcDbLine
 10
-321.5249993092739
 20
-141.9245881467204
 30
0.0
 11
-321.5249993092737
 21
-141.2250000488269
 31
0.0
  0
LINE
  5
2B2
330
6A
100
AcDbEntity
  8
0
  6
Continuous
 62
     7
100
AcDbLine
 10
-321.5249993092737
 20
-141.2250000488269
 30
0.0
 11
-321.5736826073241
 21
-141.2250000488269
 31
0.0
  0
LINE
  5
2B3
330
6A
100
AcDbEntity
  8
0
  6
Continuous
 62
     7
100
AcDbLine
 10
-295.2749993092741
 20
-148.4250000488282
 30
0.0
 11
-295.274999309274
 21
-146.7750000488281
 31
0.0
  0
LINE
  5
2B4
330
6A
100
AcDbEntity
  8
0
  6
Continuous
 62
     7
100
AcDbLine
 10
-292.8499993092735
 20
-137.9250000488283
 30
0.0
 11
-293.3499993092735
 21
-137.9250000488283
 31
0.0
  0
LINE
  5
2B5
330
6A
100
AcDbEntity
  8
0
  6
Continuous
 62
     7
100
AcDbLine
 10
-292.3249993092741
 20
-148.4250000488284
 30
0.0
 11
-295.2749993092741
 21
-148.4250000488282
 31
0.0
  0
LINE
  5
2B6
330
6A
100
AcDbEntity
  8
0
  6
Continuous
 62
     7
100
AcDbLine
 10
-293.4749993092739
 20
-145.5250000488282
 30
0.0
 11
-293.4749993092739
 21
-147.0250000488282
 31
0.0
  0
LINE
  5
2B7
330
6A
100
AcDbEntity
  8
0
  6
Continuous
 62
     7
100
AcDbLine
 10
-292.6249993092739
 20
-145.5250000488283
 30
0.0
 11
-293.4749993092739
 21
-145.5250000488282
 31
0.0
  0
LINE
  5
2B8
330
6A
100
AcDbEntity
  8
0
  6
Continuous
 62
     7
100
AcDbLine
 10
-292.6249993092739
 20
-145.0250000488284
 30
0.0
 11
-292.6249993092739
 21
-145.5250000488283
 31
0.0
  0
LINE
  5
2B9
330
6A
100
AcDbEntity
  8
0
  6
Continuous
 62
     7
100
AcDbLine
 10
-293.4749993092739
 20
-147.0250000488282
 30
0.0
 11
-292.324999309274
 21
-147.1500000488283
 31
0.0
  0
LINE
  5
2BA
330
6A
100
AcDbEntity
  8
0
  6
Continuous
 62
     7
100
AcDbLine
 10
-293.8499993092735
 20
-138.4250000488283
 30
0.0
 11
-293.8499993092735
 21
-139.4993821318424
 31
0.0
  0
LINE
  5
2BB
330
6A
100
AcDbEntity
  8
0
  6
Continuous
 62
     7
100
AcDbLine
 10
-292.3499993092736
 20
-139.7568780844058
 30
0.0
 11
-292.3499993092735
 21
-138.4250000488284
 31
0.0
  0
LINE
  5
2BC
330
6A
100
AcDbEntity
  8
0
  6
Continuous
 62
     7
100
AcDbLine
 10
-292.324999309274
 20
-147.1500000488283
 30
0.0
 11
-292.3249993092741
 21
-148.4250000488284
 31
0.0
  0
LINE
  5
2BD
330
6A
100
AcDbEntity
  8
0
  6
Continuous
 62
     7
100
AcDbLine
 10
-283.4999993092735
 20
-144.9250000488289
 30
0.0
 11
-287.5999993092738
 21
-144.9250000488287
 31
0.0
  0
LINE
  5
2BE
330
6A
100
AcDbEntity
  8
0
  6
Continuous
 62
     7
100
AcDbLine
 10
-287.5999993092738
 20
-144.9250000488287
 30
0.0
 11
-288.5499993092737
 21
-143.9750000488283
 31
0.0
  0
LINE
  5
2BF
330
6A
100
AcDbEntity
  8
0
  6
Continuous
 62
     7
100
AcDbLine
 10
-288.5499993092737
 20
-143.9750000488283
 30
0.0
 11
-288.5499993092739
 21
-143.525000048829
 31
0.0
  0
LINE
  5
2C0
330
6A
100
AcDbEntity
  8
0
  6
Continuous
 62
     7
100
AcDbLine
 10
-288.5499993092739
 20
-143.525000048829
 30
0.0
 11
-287.7499993092737
 21
-143.3250000488287
 31
0.0
  0
LINE
  5
2C1
330
6A
100
AcDbEntity
  8
0
  6
Continuous
 62
     7
100
AcDbLine
 10
-287.7499993092737
 20
-142.1250000488289
 30
0.0
 11
-291.8249993092736
 21
-142.1250000488287
 31
0.0
  0
LINE
  5
2C2
330
6A
100
AcDbEntity
  8
0
  6
Continuous
 62
     7
100
AcDbLine
 10
-291.8249993092736
 20
-142.1250000488287
 30
0.0
 11
-292.3499993092736
 21
-139.7568780844058
 31
0.0
  0
LINE
  5
2C3
330
6A
100
AcDbEntity
  8
0
  6
Continuous
 62
     7
100
AcDbLine
 10
-321.4249993092738
 20
-143.5250000488267
 30
0.0
 11
-322.4499993092738
 21
-143.3250000488268
 31
0.0
  0
LINE
  5
2C4
330
6A
100
AcDbEntity
  8
0
  6
Continuous
 62
     7
100
AcDbLine
 10
-325.1748507126447
 20
-136.4250000488262
 30
0.0
 11
-323.694999309274
 21
-137.904851452197
 31
0.0
  0
LINE
  5
2C5
330
6A
100
AcDbEntity
  8
0
  6
Continuous
 62
     7
100
AcDbLine
 10
-322.7214459186801
 20
-136.9312980616045
 30
0.0
 11
-323.694999309274
 21
-137.904851452197
 31
0.0
  0
LINE
  5
2C6
330
6A
100
AcDbEntity
  8
0
  6
Continuous
 62
     7
100
AcDbLine
 10
-287.7499993092737
 20
-143.3250000488287
 30
0.0
 11
-287.7499993092737
 21
-142.1250000488289
 31
0.0
  0
LINE
  5
2C7
330
6A
100
AcDbEntity
  8
0
  6
Continuous
 62
     7
100
AcDbLine
 10
-290.7499993092732
 20
-132.4750000488286
 30
0.0
 11
-283.4999993092729
 21
-132.475000048829
 31
0.0
  0
LINE
  5
2C8
330
6A
100
AcDbEntity
  8
0
  6
Continuous
 62
     7
100
AcDbLine
 10
-283.4999993092735
 20
-144.9250000488289
 30
0.0
 11
-283.4999993092729
 21
-132.475000048829
 31
0.0
  0
LINE
  5
2C9
330
6A
100
AcDbEntity
  8
0
  6
Continuous
 62
     7
100
AcDbLine
 10
-323.0746999542999
 20
-105.9322678370608
 30
0.0
 11
-323.5179793311934
 21
-106.1881953046358
 31
0.0
  0
LINE
  5
2CA
330
6A
100
AcDbEntity
  8
0
  6
Continuous
 62
     7
100
AcDbLine
 10
-323.5179793311934
 20
-106.1881953046358
 30
0.0
 11
-322.9904793311934
 21
-107.1018521056286
 31
0.0
  0
LINE
  5
2CB
330
6A
100
AcDbEntity
  8
0
  6
Continuous
 62
     7
100
AcDbLine
 10
-321.4249993092738
 20
-143.5250000488267
 30
0.0
 11
-321.4249993092737
 21
-143.7250000488297
 31
0.0
  0
LINE
  5
2CC
330
6A
100
AcDbEntity
  8
0
  6
Continuous
 62
     7
100
AcDbLine
 10
-319.7499993092732
 20
-132.475000048827
 30
0.0
 11
-319.749999309273
 21
-129.1750000488268
 31
0.0
  0
LINE
  5
2CD
330
6A
100
AcDbEntity
  8
0
  6
Continuous
 62
     7
100
AcDbLine
 10
-318.785873418942
 20
-101.0081475410004
 30
0.0
 11
-316.6499993092716
 21
-99.77500004882708
 31
0.0
  0
LINE
  5
2CE
330
6A
100
AcDbEntity
  8
0
  6
Continuous
 62
     7
100
AcDbLine
 10
-319.749999309273
 20
-129.1750000488268
 30
0.0
 11
-318.3499993092733
 21
-129.1750000488269
 31
0.0
  0
LINE
  5
2CF
330
6A
100
AcDbEntity
  8
0
  6
Continuous
 62
     7
100
AcDbLine
 10
-318.5052986642444
 20
-103.2941227722116
 30
0.0
 11
-318.785873418942
 21
-101.0081475410004
 31
0.0
  0
LINE
  5
2D0
330
6A
100
AcDbEntity
  8
0
  6
Continuous
 62
     7
100
AcDbLine
 10
-318.0620192873508
 20
-103.0381953046359
 30
0.0
 11
-318.5052986642444
 21
-103.2941227722116
 31
0.0
  0
LINE
  5
2D1
330
6A
100
AcDbEntity
  8
0
  6
Continuous
 62
     7
100
AcDbLine
 10
-326.9999993092724
 20
-118.1750140488189
 30
0.0
 11
-316.7999993092724
 21
-118.175014048827
 31
0.0
  0
LINE
  5
2D2
330
6A
100
AcDbEntity
  8
0
  6
Continuous
 62
     7
100
AcDbLine
 10
-295.274999309274
 20
-146.7750000488281
 30
0.0
 11
-295.914999309274
 21
-146.7750000488281
 31
0.0
  0
LINE
  5
2D3
330
6A
100
AcDbEntity
  8
0
  6
Continuous
 62
     7
100
AcDbLine
 10
-310.6999993092734
 20
-140.7750000488273
 30
0.0
 11
-310.6999993092735
 21
-138.4250000488273
 31
0.0
  0
LINE
  5
2D4
330
6A
100
AcDbEntity
  8
0
  6
Continuous
 62
     7
100
AcDbLine
 10
-311.1999993092734
 20
-137.9250000488273
 30
0.0
 11
-311.3126171073942
 21
-137.9250000488273
 31
0.0
  0
LINE
  5
2D5
330
6A
100
AcDbEntity
  8
0
  6
Continuous
 62
     7
100
AcDbLine
 10
-311.7955800205388
 20
-138.2955905262761
 30
0.0
 11
-312.1249993092735
 21
-139.5250000488272
 31
0.0
  0
LINE
  5
2D6
330
6A
100
AcDbEntity
  8
0
  6
Continuous
 62
     7
100
AcDbLine
 10
-317.9249993092735
 20
-139.5250000488269
 30
0.0
 11
-312.1249993092735
 21
-139.5250000488272
 31
0.0
  0
LINE
  5
2D7
330
6A
100
AcDbEntity
  8
0
  6
Continuous
 62
     7
100
AcDbLine
 10
-322.5749993092733
 20
-135.875000048827
 30
0.0
 11
-319.4499993092733
 21
-135.8750000488267
 31
0.0
  0
LINE
  5
2D8
330
6A
100
AcDbEntity
  8
0
  6
Continuous
 62
     7
100
AcDbLine
 10
-322.5749993092733
 20
-136.5777446710111
 30
0.0
 11
-322.5749993092733
 21
-135.875000048827
 31
0.0
  0
LINE
  5
2D9
330
6A
100
AcDbEntity
  8
0
  6
Continuous
 62
     7
100
AcDbLine
 10
-319.4499993092734
 20
-136.9250000488269
 30
0.0
 11
-320.6249993092734
 21
-136.9250000488268
 31
0.0
  0
LINE
  5
2DA
330
6A
100
AcDbEntity
  8
0
  6
Continuous
 62
     7
100
AcDbLine
 10
-320.6249993092735
 20
-138.8250000488269
 30
0.0
 11
-319.4534264340197
 21
-138.8250000488268
 31
0.0
  0
LINE
  5
2DB
330
6A
100
AcDbEntity
  8
0
  6
Continuous
 62
     7
100
AcDbLine
 10
-326.749999309274
 20
-145.4919873469344
 30
0.0
 11
-324.5249993092738
 21
-144.2073829979879
 31
0.0
  0
LINE
  5
2DC
330
6A
100
AcDbEntity
  8
0
  6
Continuous
 62
     7
100
AcDbLine
 10
-326.9999993092739
 20
-145.9250000488265
 30
0.0
 11
-326.999999309274
 21
-148.4250000488265
 31
0.0
  0
LINE
  5
2DD
330
6A
100
AcDbEntity
  8
0
  6
Continuous
 62
     7
100
AcDbLine
 10
-326.9999993092735
 20
-136.4250000488265
 30
0.0
 11
-326.9999993092732
 21
-132.4750000488266
 31
0.0
  0
LINE
  5
2DE
330
6A
100
AcDbEntity
  8
0
  6
Continuous
 62
     7
100
AcDbLine
 10
-326.9999993092735
 20
-136.4250000488265
 30
0.0
 11
-325.1748507126447
 21
-136.4250000488262
 31
0.0
  0
LINE
  5
2DF
330
6A
100
AcDbEntity
  8
0
  6
Continuous
 62
     7
100
AcDbLine
 10
-325.9499993092739
 20
-146.3250000488266
 30
0.0
 11
-325.949999309274
 21
-147.3750000488265
 31
0.0
  0
LINE
  5
2E0
330
6A
100
AcDbEntity
  8
0
  6
Continuous
 62
     7
100
AcDbLine
 10
-325.949999309274
 20
-147.3750000488265
 30
0.0
 11
-324.0249993092739
 21
-147.3750000488266
 31
0.0
  0
LINE
  5
2E1
330
6A
100
AcDbEntity
  8
0
  6
Continuous
 62
     7
100
AcDbLine
 10
-326.4999993092739
 20
-145.4250000488265
 30
0.0
 11
-326.2499993092739
 21
-145.4250000488265
 31
0.0
  0
LINE
  5
2E2
330
6A
100
AcDbEntity
  8
0
  6
Continuous
 62
     7
100
AcDbLine
 10
-326.999999309274
 20
-148.4250000488265
 30
0.0
 11
-323.2195829092862
 21
-148.4250000488267
 31
0.0
  0
LINE
  5
2E3
330
6A
100
AcDbEntity
  8
0
  6
Continuous
 62
     7
100
AcDbLine
 10
-324.9141251996018
 20
-104.5462953562255
 30
0.0
 11
-326.9999993092717
 21
-105.7505753349391
 31
0.0
  0
LINE
  5
2E4
330
6A
100
AcDbEntity
  8
0
  6
Continuous
 62
     7
100
AcDbLine
 10
-326.9999993092717
 20
-105.7505753349391
 30
0.0
 11
-326.9999993092724
 21
-118.1750140488189
 31
0.0
  0
LINE
  5
2E5
330
6A
100
AcDbEntity
  8
0
  6
Continuous
 62
     7
100
AcDbLine
 10
-323.0746999542999
 20
-105.9322678370608
 30
0.0
 11
-324.9141251996018
 21
-104.5462953562255
 31
0.0
  0
LINE
  5
2E6
330
6A
100
AcDbEntity
  8
0
  6
Continuous
 62
     7
100
AcDbLine
 10
-326.9999993092724
 20
-118.1750140488189
 30
0.0
 11
-326.9999993092732
 21
-132.4750000488266
 31
0.0
  0
LINE
  5
2E7
330
6A
100
AcDbEntity
  8
0
  6
Continuous
 62
     7
100
AcDbLine
 10
-283.4999993092729
 20
-132.475000048829
 30
0.0
 11
-283.4999993092723
 21
-118.1750140488295
 31
0.0
  0
LINE
  5
2E8
330
6A
100
AcDbEntity
  8
0
  6
Continuous
 62
     7
100
AcDbLine
 10
-290.7499993092732
 20
-132.4750000488286
 30
0.0
 11
-290.749999309273
 21
-129.1750000488284
 31
0.0
  0
LINE
  5
2E9
330
6A
100
AcDbEntity
  8
0
  6
Continuous
 62
     7
100
AcDbLine
 10
-326.9999993092732
 20
-132.4750000488266
 30
0.0
 11
-319.7499993092732
 21
-132.475000048827
 31
0.0
  0
LINE
  5
2EA
330
6A
100
AcDbEntity
  8
0
  6
Continuous
 62
     7
100
AcDbLine
 10
-292.1499993092733
 20
-129.1750000488283
 30
0.0
 11
-290.749999309273
 21
-129.1750000488284
 31
0.0
  0
ARC
  5
2EB
330
6A
100
AcDbEntity
  8
0
  6
Continuous
 62
     7
100
AcDbCircle
 10
-320.6249993092736
 20
-140.3250000488269
 30
0.0
 40
3.400000000000091
100
AcDbArc
 50
89.99999999999618
 51
179.9999999999967
  0
ARC
  5
2EC
330
6A
100
AcDbEntity
  8
0
  6
Continuous
 62
     7
100
AcDbCircle
 10
-328.8893803138739
 20
-143.5675126900218
 30
0.0
 40
7.466042194497621
100
AcDbArc
 50
319.4123338771494
 51
358.79132342925
  0
ARC
  5
2ED
330
6A
100
AcDbEntity
  8
0
  6
Continuous
 62
     7
100
AcDbCircle
 10
-323.0749993092734
 20
-136.5777446710111
 30
0.0
 40
0.5000000000001045
100
AcDbArc
 50
314.9999999999885
 51
0.0
  0
ARC
  5
2EE
330
6A
100
AcDbEntity
  8
0
  6
Continuous
 62
     7
100
AcDbCircle
 10
-321.5736826073242
 20
-140.4750000488269
 30
0.0
 40
0.7499999999996385
100
AcDbArc
 50
176.9830386901917
 51
270.0000000000086
  0
ARC
  5
2EF
330
6A
100
AcDbEntity
  8
0
  6
Continuous
 62
     7
100
AcDbCircle
 10
-292.8499993092735
 20
-138.4250000488283
 30
0.0
 40
0.5
100
AcDbArc
 50
359.9999999999902
 51
90.0
  0
ARC
  5
2F0
330
6A
100
AcDbEntity
  8
0
  6
Continuous
 62
     7
100
AcDbCircle
 10
-293.3499993092735
 20
-138.4250000488283
 30
0.0
 40
0.5
100
AcDbArc
 50
90.0
 51
180.0
  0
ARC
  5
2F1
330
6A
100
AcDbEntity
  8
0
  6
Continuous
 62
     7
100
AcDbCircle
 10
-325.0249993092737
 20
-143.3413575942029
 30
0.0
 40
1.000000000000444
100
AcDbArc
 50
299.9999999999778
 51
359.9999999999886
  0
ARC
  5
2F2
330
6A
100
AcDbEntity
  8
0
  6
Continuous
 62
     7
100
AcDbCircle
 10
-305.9249993092746
 20
-158.4250000488276
 30
0.0
 40
16.19999999999991
100
AcDbArc
 50
77.66476782071508
 51
100.706486968876
  0
ARC
  5
2F3
330
6A
100
AcDbEntity
  8
0
  6
Continuous
 62
     7
100
AcDbCircle
 10
-319.4534264340198
 20
-140.825000048827
 30
0.0
 40
2.000000000000116
100
AcDbArc
 50
45.00000000000519
 51
89.99999999999837
  0
ARC
  5
2F4
330
6A
100
AcDbEntity
  8
0
  6
Continuous
 62
     7
100
AcDbCircle
 10
-304.1732238922825
 20
-150.4143020212882
 30
0.0
 40
7.999999999999895
100
AcDbArc
 50
34.32803523336987
 51
77.6647678207138
  0
ARC
  5
2F5
330
6A
100
AcDbEntity
  8
0
  6
Continuous
 62
     7
100
AcDbCircle
 10
-295.9149993092739
 20
-144.7750000488281
 30
0.0
 40
2.000000000000094
100
AcDbArc
 50
214.3280352333836
 51
269.9999999999984
  0
ARC
  5
2F6
330
6A
100
AcDbEntity
  8
0
  6
Continuous
 62
     7
100
AcDbCircle
 10
-308.7116672782676
 20
-143.6861235098715
 30
0.0
 40
1.199999999999787
100
AcDbArc
 50
100.7064869688723
 51
186.9237208440628
  0
ARC
  5
2F7
330
6A
100
AcDbEntity
  8
0
  6
Continuous
 62
     7
100
AcDbCircle
 10
-310.2999993092737
 20
-143.8790000488276
 30
0.0
 40
0.4000000000000218
100
AcDbArc
 50
228.6834170699311
 51
6.92372084410049
  0
ARC
  5
2F8
330
6A
100
AcDbEntity
  8
0
  6
Continuous
 62
     7
100
AcDbCircle
 10
-308.35235303438
 20
-141.6633344630743
 30
0.0
 40
3.349999999999854
100
AcDbArc
 50
182.4150421413222
 51
228.6834170699493
  0
ARC
  5
2F9
330
6A
100
AcDbEntity
  8
0
  6
Continuous
 62
     7
100
AcDbCircle
 10
-310.9999993092737
 20
-141.7750000488273
 30
0.0
 40
0.6999999999999034
100
AcDbArc
 50
89.99999999999535
 51
182.4150421413327
  0
ARC
  5
2FA
330
6A
100
AcDbEntity
  8
0
  6
Continuous
 62
     7
100
AcDbCircle
 10
-310.9999993092736
 20
-140.7750000488273
 30
0.0
 40
0.3000000000000966
100
AcDbArc
 50
270.0
 51
0.0
  0
ARC
  5
2FB
330
6A
100
AcDbEntity
  8
0
  6
Continuous
 62
     7
100
AcDbCircle
 10
-311.1999993092735
 20
-138.4250000488273
 30
0.0
 40
0.5
100
AcDbArc
 50
0.0
 51
89.99999999998697
  0
ARC
  5
2FC
330
6A
100
AcDbEntity
  8
0
  6
Continuous
 62
     7
100
AcDbCircle
 10
-311.3126171073942
 20
-138.4250000488273
 30
0.0
 40
0.5
100
AcDbArc
 50
90.0
 51
165.0000000000104
  0
ARC
  5
2FD
330
6A
100
AcDbEntity
  8
0
  6
Continuous
 62
     7
100
AcDbCircle
 10
-320.6249993092736
 20
-140.5250000488267
 30
0.0
 40
1.699999999999818
100
AcDbArc
 50
89.99999999999618
 51
176.9830386901938
  0
ARC
  5
2FE
330
6A
100
AcDbEntity
  8
0
  6
Continuous
 62
     7
100
AcDbCircle
 10
-319.4499993092734
 20
-136.4000000488268
 30
0.0
 40
0.525000000000091
100
AcDbArc
 50
270.0
 51
89.9999999999938
  0
ARC
  5
2FF
330
6A
100
AcDbEntity
  8
0
  6
Continuous
 62
     7
100
AcDbCircle
 10
-326.4999993092739
 20
-145.9250000488265
 30
0.0
 40
0.5
100
AcDbArc
 50
90.0
 51
120.0000000000183
  0
ARC
  5
300
330
6A
100
AcDbEntity
  8
0
  6
Continuous
 62
     7
100
AcDbCircle
 10
-326.2499993092739
 20
-145.9250000488265
 30
0.0
 40
0.5000000000001024
100
AcDbArc
 50
306.8698976458368
 51
90.0
  0
ARC
  5
301
330
6A
100
AcDbEntity
  8
0
  6
Continuous
 62
     7
100
AcDbCircle
 10
-326.4999993092739
 20
-145.9250000488265
 30
0.0
 40
0.4999999999999502
100
AcDbArc
 50
120.0000000000183
 51
180.0
  0
ENDBLK
  5
6C
330
6A
100
AcDbEntity
  8
0
100
AcDbBlockEnd
  0
BLOCK
  5
6F
330
6D
100
AcDbEntity
  8
0
100
AcDbBlockBegin
  2
Vordans1
 70
     0
 10
-305.2499999999986
 20
-123.000000024414
 30
0.0
  3
Vordans1
  1

  0
INSERT
  5
6E
330
6D
100
AcDbEntity
  8
0
100
AcDbBlockReference
  2
OTTA_6-P_P-select__6
 10
-326.999999309274
 20
-148.4250000488284
 30
0.0
  0
LINE
  5
302
330
6D
100
AcDbEntity
  8
1
  6
DOT_CENTER
 62
     2
100
AcDbLine
 10
-305.2499993092737
 20
-140.732332328394
 30
0.0
 11
-305.2499993092737
 21
-143.732332328394
 31
0.0
  0
MTEXT
  5
303
330
6D
100
AcDbEntity
  8
1
 62
     6
100
AcDbMText
 10
-305.2499999999986
 20
-153.4250020244153
 30
0.0
 40
5.0
 41
0.0
 71
     2
 72
     1
  1
 
  7
CONVERTER_11
 73
     1
 44
1.32052821128451
  0
DIMENSION
  5
30E
330
6D
100
AcDbEntity
  8
1
100
AcDbDimension
  2
*D18
 10
-305.2499993092737
 20
-157.430155920707
 30
0.0
 11
-296.663878430369
 21
-154.005155920707
 31
0.0
 70
    32
  1
<>
 71
     5
 42
-1.0
 53
0.00013888888889
  3
ME10_DIM_11
100
AcDbAlignedDimension
 13
-287.7499993092737
 23
-143.3250000488287
 33
0.0
 14
-305.2499993092737
 24
-143.732332328394
 34
0.0
100
AcDbRotatedDimension
  0
DIMENSION
  5
319
330
6D
100
AcDbEntity
  8
1
100
AcDbDimension
  2
*D19
 10
-305.2499993092737
 20
-165.430155920707
 30
0.0
 11
-294.294354076995
 21
-162.005155920707
 31
0.0
 70
    32
  1
<>
 71
     5
 42
-1.0
 53
0.00013888888889
  3
ME10_DIM_12
100
AcDbAlignedDimension
 13
-283.4999993092735
 23
-144.9250000488289
 33
0.0
 14
-305.2499993092737
 24
-143.732332328394
 34
0.0
100
AcDbRotatedDimension
  0
DIMENSION
  5
324
330
6D
100
AcDbEntity
  8
1
100
AcDbDimension
  2
*D20
 10
-326.999999309274
 20
-173.430155920707
 30
0.0
 11
-306.5755156750059
 21
-170.005155920707
 31
0.0
 70
    32
  1
<>
 71
     5
 42
-1.0
 53
0.00013888888889
  3
ME10_DIM_13
100
AcDbAlignedDimension
 13
-283.4999993092735
 23
-144.9250000488289
 33
0.0
 14
-326.999999309274
 24
-148.4250000488265
 34
0.0
100
AcDbRotatedDimension
  0
DIMENSION
  5
32F
330
6D
100
AcDbEntity
  8
1
100
AcDbDimension
  2
*D21
 10
-336.9999993092718
 20
-142.1250000488287
 30
0.0
 11
-340.4249993092718
 21
-118.629685721116
 31
0.0
 70
    32
  1
<>
 71
     5
 42
-1.0
 53
90.0
  3
ME10_DIM_14
100
AcDbAlignedDimension
 13
-293.8499993092711
 23
-97.57500004882837
 33
0.0
 14
-291.8249993092736
 24
-142.1250000488287
 34
0.0
 50
90.0
100
AcDbRotatedDimension
  0
DIMENSION
  5
33A
330
6D
100
AcDbEntity
  8
1
100
AcDbDimension
  2
*D22
 10
-344.9999993092718
 20
-148.4250000488267
 30
0.0
 11
-348.4249993092718
 21
-126.560408534698
 31
0.0
 70
    32
  1
<>
 71
     5
 42
-1.0
 53
90.0
  3
ME10_DIM_15
100
AcDbAlignedDimension
 13
-316.6499993092716
 23
-97.57500004882712
 33
0.0
 14
-323.2195829092862
 24
-148.4250000488267
 34
0.0
 50
90.0
100
AcDbRotatedDimension
  0
ENDBLK
  5
70
330
6D
100
AcDbEntity
  8
0
100
AcDbBlockEnd
  0
BLOCK
  5
72
330
71
100
AcDbEntity
  8
0
100
AcDbBlockBegin
  2
_rahmen
 70
     0
 10
-123.4999999999899
 20
-267.0000000000051
 30
0.0
  3
_rahmen
  1

  0
LINE
  5
33B
330
71
100
AcDbEntity
  8
1
  6
DOT_CENTER
 62
     2
100
AcDbLine
 10
-249.0581496401773
 20
-240.8750000000051
 30
0.0
 11
-243.5581496401773
 21
-240.8750000000051
 31
0.0
  0
LINE
  5
33C
330
71
100
AcDbEntity
  8
1
  6
PHANTOM
 62
     2
100
AcDbLine
 10
-240.3081496401773
 20
-238.1250000000051
 30
0.0
 11
-240.3081496401773
 21
-243.6250000000051
 31
0.0
  0
LINE
  5
33D
330
71
100
AcDbEntity
  8
1
  6
PHANTOM
 62
     2
100
AcDbLine
 10
-237.5581496401773
 20
-240.8750000000051
 30
0.0
 11
-243.0581496401773
 21
-240.8750000000051
 31
0.0
  0
LINE
  5
33E
330
71
100
AcDbEntity
  8
1
  6
Continuous
 62
     7
100
AcDbLine
 10
-188.7448045267399
 20
-253.5000000000051
 30
0.0
 11
-188.7448045267399
 21
-245.000000000005
 31
0.0
  0
LINE
  5
33F
330
71
100
AcDbEntity
  8
1
  6
Continuous
 62
     6
100
AcDbLine
 10
-216.64480452674
 20
-245.000000000005
 30
0.0
 11
-123.4999999999882
 21
-245.000000000005
 31
0.0
  0
LINE
  5
340
330
71
100
AcDbEntity
  8
1
  6
Continuous
 62
     7
100
AcDbLine
 10
-253.0448045267399
 20
-245.000000000005
 30
0.0
 11
-253.0448045267399
 21
-236.500000000005
 31
0.0
  0
LINE
  5
341
330
71
100
AcDbEntity
  8
1
  6
Continuous
 62
     7
100
AcDbLine
 10
-216.64480452674
 20
-245.000000000005
 30
0.0
 11
-216.64480452674
 21
-236.500000000005
 31
0.0
  0
LINE
  5
342
330
71
100
AcDbEntity
  8
1
  6
Continuous
 62
     7
100
AcDbLine
 10
-158.918408281667
 20
-236.500000000005
 30
0.0
 11
-158.918408281667
 21
-245.000000000005
 31
0.0
  0
LINE
  5
343
330
71
100
AcDbEntity
  8
1
  6
Continuous
 62
     7
100
AcDbLine
 10
-132.4184082816674
 20
-236.500000000005
 30
0.0
 11
-132.4184082816674
 21
-245.000000000005
 31
0.0
  0
LINE
  5
344
330
71
100
AcDbEntity
  8
1
  6
Continuous
 62
     6
100
AcDbLine
 10
-322.0448045267399
 20
-262.000000000005
 30
0.0
 11
-366.9999999999899
 21
-262.000000000005
 31
0.0
  0
LINE
  5
345
330
71
100
AcDbEntity
  8
1
  6
Continuous
 62
     7
100
AcDbLine
 10
-123.4999999999886
 20
-253.500000000005
 30
0.0
 11
-216.64480452674
 21
-253.500000000005
 31
0.0
  0
LINE
  5
346
102
{ACAD_REACTORS
330
458
330
459
102
}
330
71
100
AcDbEntity
  8
0
  6
Continuous
 62
     2
100
AcDbLine
 10
-239.3373755849725
 20
-252.6997108843417
 30
0.0
 11
-239.3373755849725
 21
-251.8271938775384
 31
0.0
  0
LINE
  5
347
102
{ACAD_REACTORS
330
458
330
459
102
}
330
71
100
AcDbEntity
  8
0
  6
Continuous
 62
     2
100
AcDbLine
 10
-239.3373755849725
 20
-253.6594795918246
 30
0.0
 11
-239.3373755849725
 21
-254.5319965986278
 31
0.0
  0
LINE
  5
348
102
{ACAD_REACTORS
330
45A
330
45B
102
}
330
71
100
AcDbEntity
  8
0
  6
Continuous
 62
     2
100
AcDbLine
 10
-224.004331448682
 20
-252.4379557823012
 30
0.0
 11
-222.9006921491139
 21
-252.4379557823012
 31
0.0
  0
LINE
  5
349
102
{ACAD_REACTORS
330
45A
330
45B
102
}
330
71
100
AcDbEntity
  8
0
  6
Continuous
 62
     2
100
AcDbLine
 10
-223.2346741057206
 20
-253.6594795918251
 30
0.0
 11
-223.2346741057206
 21
-254.5319965986284
 31
0.0
  0
LINE
  5
34A
102
{ACAD_REACTORS
330
464
330
465
102
}
330
71
100
AcDbEntity
  8
0
  6
Continuous
 62
     2
100
AcDbLine
 10
-225.0954307211005
 20
-251.3473095238144
 30
0.0
 11
-223.6974776741602
 21
-249.7664505300394
 31
0.0
  0
LINE
  5
34B
102
{ACAD_REACTORS
330
464
330
465
102
}
330
71
100
AcDbEntity
  8
0
  6
Continuous
 62
     2
100
AcDbLine
 10
-225.0000073049277
 20
-248.2935000000032
 30
0.0
 11
-223.6974776741602
 21
-249.7664505300394
 31
0.0
  0
LINE
  5
34C
102
{ACAD_REACTORS
330
464
330
465
102
}
330
71
100
AcDbEntity
  8
0
  6
Continuous
 62
     2
100
AcDbLine
 10
-222.3949480433938
 20
-248.2935000000032
 30
0.0
 11
-220.9922238256466
 21
-248.2935000000032
 31
0.0
  0
LINE
  5
34D
102
{ACAD_REACTORS
330
464
330
465
102
}
330
71
100
AcDbEntity
  8
0
  6
Continuous
 62
     2
100
AcDbLine
 10
-223.6927065033523
 20
-251.3473095238144
 30
0.0
 11
-222.9961155652866
 21
-250.5595777385207
 31
0.0
  0
LINE
  5
34E
102
{ACAD_REACTORS
330
464
330
465
102
}
330
71
100
AcDbEntity
  8
0
  6
Continuous
 62
     2
100
AcDbLine
 10
-223.6927065033523
 20
-251.3473095238144
 30
0.0
 11
-225.0954307211005
 21
-251.3473095238144
 31
0.0
  0
LINE
  5
34F
102
{ACAD_REACTORS
330
466
330
467
102
}
330
71
100
AcDbEntity
  8
0
  6
Continuous
 62
     2
100
AcDbLine
 10
-225.2147099913174
 20
-251.3473095238144
 30
0.0
 11
-226.4552144015703
 21
-251.3473095238144
 31
0.0
  0
LINE
  5
350
102
{ACAD_REACTORS
330
468
330
469
102
}
330
71
100
AcDbEntity
  8
0
  6
Continuous
 62
     2
100
AcDbLine
 10
-227.3231940097254
 20
-253.4849761904642
 30
0.0
 11
-227.6233592469155
 21
-252.7171612244775
 31
0.0
  0
LINE
  5
351
102
{ACAD_REACTORS
330
468
330
469
102
}
330
71
100
AcDbEntity
  8
0
  6
Continuous
 62
     2
100
AcDbLine
 10
-227.9235244841079
 20
-253.4849761904642
 30
0.0
 11
-227.3231940097254
 21
-253.4849761904642
 31
0.0
  0
LINE
  5
352
102
{ACAD_REACTORS
330
468
330
469
102
}
330
71
100
AcDbEntity
  8
0
  6
Continuous
 62
     2
100
AcDbLine
 10
-229.6415644989817
 20
-254.7064999999887
 30
0.0
 11
-228.4010600887287
 21
-254.7064999999887
 31
0.0
  0
LINE
  5
353
102
{ACAD_REACTORS
330
468
330
469
102
}
330
71
100
AcDbEntity
  8
0
  6
Continuous
 62
     2
100
AcDbLine
 10
-228.2436114520424
 20
-251.6526904761776
 30
0.0
 11
-227.0031070417897
 21
-251.6526904761776
 31
0.0
  0
LINE
  5
354
102
{ACAD_REACTORS
330
468
330
469
102
}
330
71
100
AcDbEntity
  8
0
  6
Continuous
 62
     2
100
AcDbLine
 10
-227.0031070417897
 20
-251.6526904761776
 30
0.0
 11
-225.6051539948494
 21
-254.7064999999887
 31
0.0
  0
LINE
  5
355
102
{ACAD_REACTORS
330
468
330
469
102
}
330
71
100
AcDbEntity
  8
0
  6
Continuous
 62
     2
100
AcDbLine
 10
-226.8456584051033
 20
-254.7064999999887
 30
0.0
 11
-227.0571384585791
 21
-254.1655394557708
 31
0.0
  0
LINE
  5
356
102
{ACAD_REACTORS
330
46A
330
46B
102
}
330
71
100
AcDbEntity
  8
0
  6
Continuous
 62
     2
100
AcDbLine
 10
-230.9879776006893
 20
-254.7064999999887
 30
0.0
 11
-229.7951848985228
 21
-254.7064999999887
 31
0.0
  0
LINE
  5
357
102
{ACAD_REACTORS
330
46A
330
46B
102
}
330
71
100
AcDbEntity
  8
0
  6
Continuous
 62
     2
100
AcDbLine
 10
-230.9879776006893
 20
-252.4379557823012
 30
0.0
 11
-230.9879776006893
 21
-254.7064999999887
 31
0.0
  0
LINE
  5
358
102
{ACAD_REACTORS
330
46A
330
46B
102
}
330
71
100
AcDbEntity
  8
0
  6
Continuous
 62
     2
100
AcDbLine
 10
-231.7990766381639
 20
-251.6526904761776
 30
0.0
 11
-231.7990766381639
 21
-252.4379557823012
 31
0.0
  0
LINE
  5
359
102
{ACAD_REACTORS
330
46C
330
46D
102
}
330
71
100
AcDbEntity
  8
0
  6
Continuous
 62
     2
100
AcDbLine
 10
-230.3198627565913
 20
-251.3473095238144
 30
0.0
 11
-229.1270700544248
 21
-251.3473095238144
 31
0.0
  0
LINE
  5
35A
102
{ACAD_REACTORS
330
46C
330
46D
102
}
330
71
100
AcDbEntity
  8
0
  6
Continuous
 62
     2
100
AcDbLine
 10
-227.8865656441708
 20
-249.6022755102084
 30
0.0
 11
-229.1270700544248
 21
-248.2935000000032
 31
0.0
  0
LINE
  5
35B
102
{ACAD_REACTORS
330
46C
330
46D
102
}
330
71
100
AcDbEntity
  8
0
  6
Continuous
 62
     2
100
AcDbLine
 10
-226.6937729420042
 20
-248.2935000000032
 30
0.0
 11
-227.8865656441708
 21
-248.2935000000032
 31
0.0
  0
LINE
  5
35C
102
{ACAD_REACTORS
330
46C
330
46D
102
}
330
71
100
AcDbEntity
  8
0
  6
Continuous
 62
     2
100
AcDbLine
 10
-226.6937729420042
 20
-251.3473095238144
 30
0.0
 11
-226.6937729420042
 21
-248.2935000000032
 31
0.0
  0
LINE
  5
35D
102
{ACAD_REACTORS
330
46C
330
46D
102
}
330
71
100
AcDbEntity
  8
0
  6
Continuous
 62
     2
100
AcDbLine
 10
-227.8865656441708
 20
-251.3473095238144
 30
0.0
 11
-226.6937729420042
 21
-251.3473095238144
 31
0.0
  0
LINE
  5
35E
102
{ACAD_REACTORS
330
46C
330
46D
102
}
330
71
100
AcDbEntity
  8
0
  6
Continuous
 62
     2
100
AcDbLine
 10
-229.1270700544248
 20
-250.0385340136097
 30
0.0
 11
-227.8865656441708
 21
-251.3473095238144
 31
0.0
  0
LINE
  5
35F
102
{ACAD_REACTORS
330
46E
330
46F
102
}
330
71
100
AcDbEntity
  8
0
  6
Continuous
 62
     2
100
AcDbLine
 10
-233.1350044645905
 20
-252.9614659863827
 30
0.0
 11
-234.3755088748434
 21
-251.6526904761776
 31
0.0
  0
LINE
  5
360
102
{ACAD_REACTORS
330
46E
330
46F
102
}
330
71
100
AcDbEntity
  8
0
  6
Continuous
 62
     2
100
AcDbLine
 10
-233.1350044645905
 20
-251.6526904761776
 30
0.0
 11
-233.1350044645905
 21
-252.9614659863827
 31
0.0
  0
LINE
  5
361
102
{ACAD_REACTORS
330
46E
330
46F
102
}
330
71
100
AcDbEntity
  8
0
  6
Continuous
 62
     2
100
AcDbLine
 10
-231.9422117624241
 20
-251.6526904761776
 30
0.0
 11
-233.1350044645905
 21
-251.6526904761776
 31
0.0
  0
LINE
  5
362
102
{ACAD_REACTORS
330
46E
330
46F
102
}
330
71
100
AcDbEntity
  8
0
  6
Continuous
 62
     2
100
AcDbLine
 10
-231.9422117624241
 20
-254.7064999999887
 30
0.0
 11
-231.9422117624241
 21
-251.6526904761776
 31
0.0
  0
LINE
  5
363
102
{ACAD_REACTORS
330
46E
330
46F
102
}
330
71
100
AcDbEntity
  8
0
  6
Continuous
 62
     2
100
AcDbLine
 10
-234.3755088748434
 20
-253.3977244897841
 30
0.0
 11
-233.1350044645905
 21
-254.7064999999887
 31
0.0
  0
LINE
  5
364
102
{ACAD_REACTORS
330
46E
330
46F
102
}
330
71
100
AcDbEntity
  8
0
  6
Continuous
 62
     2
100
AcDbLine
 10
-234.3755088748434
 20
-254.7064999999887
 30
0.0
 11
-234.3755088748434
 21
-253.3977244897841
 31
0.0
  0
LINE
  5
365
102
{ACAD_REACTORS
330
45E
330
45F
102
}
330
71
100
AcDbEntity
  8
0
  6
Continuous
 62
     2
100
AcDbLine
 10
-231.8943491234519
 20
-248.9915136054462
 30
0.0
 11
-230.5584212970242
 21
-248.9915136054462
 31
0.0
  0
LINE
  5
366
102
{ACAD_REACTORS
330
45E
330
45F
102
}
330
71
100
AcDbEntity
  8
0
  6
Continuous
 62
     2
100
AcDbLine
 10
-231.8943491234519
 20
-250.6492959183719
 30
0.0
 11
-231.8943491234519
 21
-250.1694115646302
 31
0.0
  0
LINE
  5
367
102
{ACAD_REACTORS
330
45E
330
45F
102
}
330
71
100
AcDbEntity
  8
0
  6
Continuous
 62
     2
100
AcDbLine
 10
-230.5584212970242
 20
-250.6492959183719
 30
0.0
 11
-231.8943491234519
 21
-250.6492959183719
 31
0.0
  0
LINE
  5
368
102
{ACAD_REACTORS
330
45E
330
45F
102
}
330
71
100
AcDbEntity
  8
0
  6
Continuous
 62
     2
100
AcDbLine
 10
-230.5584212970242
 20
-251.3473095238144
 30
0.0
 11
-230.5584212970242
 21
-250.6492959183719
 31
0.0
  0
LINE
  5
369
102
{ACAD_REACTORS
330
45E
330
45F
102
}
330
71
100
AcDbEntity
  8
0
  6
Continuous
 62
     2
100
AcDbLine
 10
-233.7087410208052
 20
-251.3473095238144
 30
0.0
 11
-230.5584212970242
 21
-251.3473095238144
 31
0.0
  0
LINE
  5
36A
102
{ACAD_REACTORS
330
45E
330
45F
102
}
330
71
100
AcDbEntity
  8
0
  6
Continuous
 62
     2
100
AcDbLine
 10
-233.7087410208052
 20
-248.2935000000032
 30
0.0
 11
-230.5584212970242
 21
-248.2935000000032
 31
0.0
  0
LINE
  5
36B
102
{ACAD_REACTORS
330
45E
330
45F
102
}
330
71
100
AcDbEntity
  8
0
  6
Continuous
 62
     2
100
AcDbLine
 10
-230.5584212970242
 20
-248.9915136054462
 30
0.0
 11
-230.5584212970242
 21
-248.2935000000032
 31
0.0
  0
LINE
  5
36C
102
{ACAD_REACTORS
330
470
330
471
102
}
330
71
100
AcDbEntity
  8
0
  6
Continuous
 62
     2
100
AcDbLine
 10
-236.5700965159452
 20
-249.3623333333378
 30
0.0
 11
-236.5700965159452
 21
-248.2935000000032
 31
0.0
  0
LINE
  5
36D
102
{ACAD_REACTORS
330
470
330
471
102
}
330
71
100
AcDbEntity
  8
0
  6
Continuous
 62
     2
100
AcDbLine
 10
-236.5700965159452
 20
-248.2935000000032
 30
0.0
 11
-235.3773038137788
 21
-248.2935000000032
 31
0.0
  0
LINE
  5
36E
102
{ACAD_REACTORS
330
470
330
471
102
}
330
71
100
AcDbEntity
  8
0
  6
Continuous
 62
     2
100
AcDbLine
 10
-236.5700965159452
 20
-250.2130374149706
 30
0.0
 11
-237.6197540938527
 21
-250.2130374149706
 31
0.0
  0
LINE
  5
36F
102
{ACAD_REACTORS
330
470
330
471
102
}
330
71
100
AcDbEntity
  8
0
  6
Continuous
 62
     2
100
AcDbLine
 10
-237.6197540938527
 20
-250.2130374149706
 30
0.0
 11
-237.6197540938527
 21
-251.3473095238144
 31
0.0
  0
LINE
  5
370
102
{ACAD_REACTORS
330
470
330
471
102
}
330
71
100
AcDbEntity
  8
0
  6
Continuous
 62
     2
100
AcDbLine
 10
-238.8125467960193
 20
-248.2935000000032
 30
0.0
 11
-238.8125467960193
 21
-251.3473095238144
 31
0.0
  0
LINE
  5
371
102
{ACAD_REACTORS
330
462
330
463
102
}
330
71
100
AcDbEntity
  8
0
  6
Continuous
 62
     2
100
AcDbLine
 10
-240.7687268275729
 20
-249.6623334947855
 30
0.0
 11
-240.7687268275729
 21
-248.9566058454433
 31
0.0
  0
LINE
  5
372
102
{ACAD_REACTORS
330
462
330
463
102
}
330
71
100
AcDbEntity
  8
0
  6
Continuous
 62
     2
100
AcDbLine
 10
-242.009231237827
 20
-251.3473095238144
 30
0.0
 11
-240.7687268275729
 21
-251.3473095238144
 31
0.0
  0
LINE
  5
373
102
{ACAD_REACTORS
330
462
330
463
102
}
330
71
100
AcDbEntity
  8
0
  6
Continuous
 62
     2
100
AcDbLine
 10
-240.7687268275729
 20
-251.3473095238144
 30
0.0
 11
-240.7687268275729
 21
-250.4042312826706
 31
0.0
  0
LINE
  5
374
102
{ACAD_REACTORS
330
45C
330
45D
102
}
330
71
100
AcDbEntity
  8
0
  6
Continuous
 62
     2
100
AcDbLine
 10
-246.3141770870384
 20
-253.9939444444318
 30
0.0
 11
-247.790010348048
 21
-253.9939444444318
 31
0.0
  0
LINE
  5
375
102
{ACAD_REACTORS
330
45C
330
45D
102
}
330
71
100
AcDbEntity
  8
0
  6
Continuous
 62
     2
100
AcDbLine
 10
-248.8081496401773
 20
-248.7177446154052
 30
0.0
 11
-248.8081496401773
 21
-254.2822553846054
 31
0.0
  0
LINE
  5
376
102
{ACAD_REACTORS
330
45C
330
45D
102
}
330
71
100
AcDbEntity
  8
0
  6
Continuous
 62
     2
100
AcDbLine
 10
-248.3839050247945
 20
-248.2935000000214
 30
0.0
 11
-242.9105929340777
 21
-248.2935000000214
 31
0.0
  0
LINE
  5
377
102
{ACAD_REACTORS
330
45C
330
45D
102
}
330
71
100
AcDbEntity
  8
0
  6
Continuous
 62
     2
100
AcDbLine
 10
-242.4863483186938
 20
-248.7177446154052
 30
0.0
 11
-242.4863483186938
 21
-254.2822553846054
 31
0.0
  0
LINE
  5
378
102
{ACAD_REACTORS
330
45C
330
45D
102
}
330
71
100
AcDbEntity
  8
0
  6
Continuous
 62
     2
100
AcDbLine
 10
-242.9105929340777
 20
-254.7064999999887
 30
0.0
 11
-248.3839050247945
 21
-254.7064999999887
 31
0.0
  0
LINE
  5
379
102
{ACAD_REACTORS
330
45C
330
45D
102
}
330
71
100
AcDbEntity
  8
0
  6
Continuous
 62
     2
100
AcDbLine
 10
-245.9984601639618
 20
-253.6782275213551
 30
0.0
 11
-245.9984601639618
 21
-252.1474565898235
 31
0.0
  0
LINE
  5
37A
102
{ACAD_REACTORS
330
45C
330
45D
102
}
330
71
100
AcDbEntity
  8
0
  6
Continuous
 62
     2
100
AcDbLine
 10
-245.9984601639618
 20
-249.9257970976985
 30
0.0
 11
-245.9984601639618
 21
-249.321772478638
 31
0.0
  0
LINE
  5
37B
102
{ACAD_REACTORS
330
45C
330
45D
102
}
330
71
100
AcDbEntity
  8
0
  6
Continuous
 62
     2
100
AcDbLine
 10
-247.790010348048
 20
-249.0060555555618
 30
0.0
 11
-246.3141770870384
 21
-249.0060555555618
 31
0.0
  0
LINE
  5
37C
102
{ACAD_REACTORS
330
45C
330
45D
102
}
330
71
100
AcDbEntity
  8
0
  6
Continuous
 62
     2
100
AcDbLine
 10
-248.1057272711237
 20
-249.321772478638
 30
0.0
 11
-248.1057272711237
 21
-253.6782275213551
 31
0.0
  0
LINE
  5
37D
102
{ACAD_REACTORS
330
462
330
463
102
}
330
71
100
AcDbEntity
  8
0
  6
Continuous
 62
     2
100
AcDbLine
 10
-240.7687268275729
 20
-250.4042312826706
 30
0.0
 11
-240.0099592397926
 21
-250.4042312826706
 31
0.0
  0
LINE
  5
37E
102
{ACAD_REACTORS
330
462
330
463
102
}
330
71
100
AcDbEntity
  8
0
  6
Continuous
 62
     2
100
AcDbLine
 10
-242.009231237827
 20
-248.2935000000032
 30
0.0
 11
-240.0099592397926
 21
-248.2935000000032
 31
0.0
  0
LINE
  5
37F
102
{ACAD_REACTORS
330
462
330
463
102
}
330
71
100
AcDbEntity
  8
0
  6
Continuous
 62
     2
100
AcDbLine
 10
-242.009231237827
 20
-248.2935000000032
 30
0.0
 11
-242.009231237827
 21
-251.3473095238144
 31
0.0
  0
LINE
  5
380
102
{ACAD_REACTORS
330
462
330
463
102
}
330
71
100
AcDbEntity
  8
0
  6
Continuous
 62
     2
100
AcDbLine
 10
-240.7687268275729
 20
-249.6623334947855
 30
0.0
 11
-240.451431766031
 21
-249.6623334947855
 31
0.0
  0
LINE
  5
381
102
{ACAD_REACTORS
330
462
330
463
102
}
330
71
100
AcDbEntity
  8
0
  6
Continuous
 62
     2
100
AcDbLine
 10
-240.7687268275729
 20
-248.9566058454433
 30
0.0
 11
-240.451431766031
 21
-248.9566058454433
 31
0.0
  0
LINE
  5
382
102
{ACAD_REACTORS
330
470
330
471
102
}
330
71
100
AcDbEntity
  8
0
  6
Continuous
 62
     2
100
AcDbLine
 10
-237.6197540938527
 20
-249.3623333333378
 30
0.0
 11
-236.5700965159452
 21
-249.3623333333378
 31
0.0
  0
LINE
  5
383
102
{ACAD_REACTORS
330
470
330
471
102
}
330
71
100
AcDbEntity
  8
0
  6
Continuous
 62
     2
100
AcDbLine
 10
-237.6197540938527
 20
-248.2935000000032
 30
0.0
 11
-237.6197540938527
 21
-249.3623333333378
 31
0.0
  0
LINE
  5
384
102
{ACAD_REACTORS
330
470
330
471
102
}
330
71
100
AcDbEntity
  8
0
  6
Continuous
 62
     2
100
AcDbLine
 10
-238.8125467960193
 20
-248.2935000000032
 30
0.0
 11
-237.6197540938527
 21
-248.2935000000032
 31
0.0
  0
LINE
  5
385
102
{ACAD_REACTORS
330
470
330
471
102
}
330
71
100
AcDbEntity
  8
0
  6
Continuous
 62
     2
100
AcDbLine
 10
-237.6197540938527
 20
-251.3473095238144
 30
0.0
 11
-238.8125467960193
 21
-251.3473095238144
 31
0.0
  0
LINE
  5
386
102
{ACAD_REACTORS
330
470
330
471
102
}
330
71
100
AcDbEntity
  8
0
  6
Continuous
 62
     2
100
AcDbLine
 10
-236.5700965159452
 20
-251.3473095238144
 30
0.0
 11
-236.5700965159452
 21
-250.2130374149706
 31
0.0
  0
LINE
  5
387
102
{ACAD_REACTORS
330
470
330
471
102
}
330
71
100
AcDbEntity
  8
0
  6
Continuous
 62
     2
100
AcDbLine
 10
-235.3773038137788
 20
-251.3473095238144
 30
0.0
 11
-236.5700965159452
 21
-251.3473095238144
 31
0.0
  0
LINE
  5
388
102
{ACAD_REACTORS
330
470
330
471
102
}
330
71
100
AcDbEntity
  8
0
  6
Continuous
 62
     2
100
AcDbLine
 10
-235.3773038137788
 20
-248.2935000000032
 30
0.0
 11
-235.3773038137788
 21
-251.3473095238144
 31
0.0
  0
LINE
  5
389
102
{ACAD_REACTORS
330
45E
330
45F
102
}
330
71
100
AcDbEntity
  8
0
  6
Continuous
 62
     2
100
AcDbLine
 10
-231.8943491234519
 20
-250.1694115646302
 30
0.0
 11
-230.5584212970242
 21
-250.1694115646302
 31
0.0
  0
LINE
  5
38A
102
{ACAD_REACTORS
330
45E
330
45F
102
}
330
71
100
AcDbEntity
  8
0
  6
Continuous
 62
     2
100
AcDbLine
 10
-230.5584212970242
 20
-250.1694115646302
 30
0.0
 11
-230.5584212970242
 21
-249.4713979591879
 31
0.0
  0
LINE
  5
38B
102
{ACAD_REACTORS
330
45E
330
45F
102
}
330
71
100
AcDbEntity
  8
0
  6
Continuous
 62
     2
100
AcDbLine
 10
-230.5584212970242
 20
-249.4713979591879
 30
0.0
 11
-231.8943491234519
 21
-249.4713979591879
 31
0.0
  0
LINE
  5
38C
102
{ACAD_REACTORS
330
45E
330
45F
102
}
330
71
100
AcDbEntity
  8
0
  6
Continuous
 62
     2
100
AcDbLine
 10
-231.8943491234519
 20
-249.4713979591879
 30
0.0
 11
-231.8943491234519
 21
-248.9915136054462
 31
0.0
  0
LINE
  5
38D
102
{ACAD_REACTORS
330
46E
330
46F
102
}
330
71
100
AcDbEntity
  8
0
  6
Continuous
 62
     2
100
AcDbLine
 10
-235.568301577011
 20
-254.7064999999887
 30
0.0
 11
-234.3755088748434
 21
-254.7064999999887
 31
0.0
  0
LINE
  5
38E
102
{ACAD_REACTORS
330
46E
330
46F
102
}
330
71
100
AcDbEntity
  8
0
  6
Continuous
 62
     2
100
AcDbLine
 10
-233.1350044645905
 20
-254.7064999999887
 30
0.0
 11
-231.9422117624241
 21
-254.7064999999887
 31
0.0
  0
LINE
  5
38F
102
{ACAD_REACTORS
330
46E
330
46F
102
}
330
71
100
AcDbEntity
  8
0
  6
Continuous
 62
     2
100
AcDbLine
 10
-234.3755088748434
 20
-251.6526904761776
 30
0.0
 11
-235.568301577011
 21
-251.6526904761776
 31
0.0
  0
LINE
  5
390
102
{ACAD_REACTORS
330
46E
330
46F
102
}
330
71
100
AcDbEntity
  8
0
  6
Continuous
 62
     2
100
AcDbLine
 10
-235.568301577011
 20
-251.6526904761776
 30
0.0
 11
-235.568301577011
 21
-254.7064999999887
 31
0.0
  0
LINE
  5
391
102
{ACAD_REACTORS
330
46C
330
46D
102
}
330
71
100
AcDbEntity
  8
0
  6
Continuous
 62
     2
100
AcDbLine
 10
-227.8865656441708
 20
-248.2935000000032
 30
0.0
 11
-227.8865656441708
 21
-249.6022755102084
 31
0.0
  0
LINE
  5
392
102
{ACAD_REACTORS
330
46C
330
46D
102
}
330
71
100
AcDbEntity
  8
0
  6
Continuous
 62
     2
100
AcDbLine
 10
-229.1270700544248
 20
-248.2935000000032
 30
0.0
 11
-230.3198627565913
 21
-248.2935000000032
 31
0.0
  0
LINE
  5
393
102
{ACAD_REACTORS
330
46C
330
46D
102
}
330
71
100
AcDbEntity
  8
0
  6
Continuous
 62
     2
100
AcDbLine
 10
-230.3198627565913
 20
-248.2935000000032
 30
0.0
 11
-230.3198627565913
 21
-251.3473095238144
 31
0.0
  0
LINE
  5
394
102
{ACAD_REACTORS
330
46C
330
46D
102
}
330
71
100
AcDbEntity
  8
0
  6
Continuous
 62
     2
100
AcDbLine
 10
-229.1270700544248
 20
-251.3473095238144
 30
0.0
 11
-229.1270700544248
 21
-250.0385340136097
 31
0.0
  0
LINE
  5
395
102
{ACAD_REACTORS
330
46A
330
46B
102
}
330
71
100
AcDbEntity
  8
0
  6
Continuous
 62
     2
100
AcDbLine
 10
-229.7951848985228
 20
-254.7064999999887
 30
0.0
 11
-229.7951848985228
 21
-252.4379557823012
 31
0.0
  0
LINE
  5
396
102
{ACAD_REACTORS
330
46A
330
46B
102
}
330
71
100
AcDbEntity
  8
0
  6
Continuous
 62
     2
100
AcDbLine
 10
-229.7951848985228
 20
-252.4379557823012
 30
0.0
 11
-228.9840858610503
 21
-252.4379557823012
 31
0.0
  0
LINE
  5
397
102
{ACAD_REACTORS
330
46A
330
46B
102
}
330
71
100
AcDbEntity
  8
0
  6
Continuous
 62
     2
100
AcDbLine
 10
-228.9840858610503
 20
-252.4379557823012
 30
0.0
 11
-228.9840858610503
 21
-251.6526904761776
 31
0.0
  0
LINE
  5
398
102
{ACAD_REACTORS
330
46A
330
46B
102
}
330
71
100
AcDbEntity
  8
0
  6
Continuous
 62
     2
100
AcDbLine
 10
-228.9840858610503
 20
-251.6526904761776
 30
0.0
 11
-231.7990766381639
 21
-251.6526904761776
 31
0.0
  0
LINE
  5
399
102
{ACAD_REACTORS
330
46A
330
46B
102
}
330
71
100
AcDbEntity
  8
0
  6
Continuous
 62
     2
100
AcDbLine
 10
-231.7990766381639
 20
-252.4379557823012
 30
0.0
 11
-230.9879776006893
 21
-252.4379557823012
 31
0.0
  0
LINE
  5
39A
102
{ACAD_REACTORS
330
468
330
469
102
}
330
71
100
AcDbEntity
  8
0
  6
Continuous
 62
     2
100
AcDbLine
 10
-228.1895800352529
 20
-254.1655394557708
 30
0.0
 11
-227.0571384585791
 21
-254.1655394557708
 31
0.0
  0
LINE
  5
39B
102
{ACAD_REACTORS
330
468
330
469
102
}
330
71
100
AcDbEntity
  8
0
  6
Continuous
 62
     2
100
AcDbLine
 10
-225.6051539948494
 20
-254.7064999999887
 30
0.0
 11
-226.8456584051033
 21
-254.7064999999887
 31
0.0
  0
LINE
  5
39C
102
{ACAD_REACTORS
330
468
330
469
102
}
330
71
100
AcDbEntity
  8
0
  6
Continuous
 62
     2
100
AcDbLine
 10
-228.2436114520424
 20
-251.6526904761776
 30
0.0
 11
-229.6415644989817
 21
-254.7064999999887
 31
0.0
  0
LINE
  5
39D
102
{ACAD_REACTORS
330
468
330
469
102
}
330
71
100
AcDbEntity
  8
0
  6
Continuous
 62
     2
100
AcDbLine
 10
-228.4010600887287
 20
-254.7064999999887
 30
0.0
 11
-228.1895800352529
 21
-254.1655394557708
 31
0.0
  0
LINE
  5
39E
102
{ACAD_REACTORS
330
468
330
469
102
}
330
71
100
AcDbEntity
  8
0
  6
Continuous
 62
     2
100
AcDbLine
 10
-227.9235244841079
 20
-253.4849761904642
 30
0.0
 11
-227.6233592469155
 21
-252.7171612244775
 31
0.0
  0
LINE
  5
39F
102
{ACAD_REACTORS
330
466
330
467
102
}
330
71
100
AcDbEntity
  8
0
  6
Continuous
 62
     2
100
AcDbLine
 10
-226.4552144015703
 20
-251.3473095238144
 30
0.0
 11
-226.4552144015703
 21
-248.2935000000032
 31
0.0
  0
LINE
  5
3A0
102
{ACAD_REACTORS
330
466
330
467
102
}
330
71
100
AcDbEntity
  8
0
  6
Continuous
 62
     2
100
AcDbLine
 10
-225.2147099913174
 20
-248.2935000000032
 30
0.0
 11
-225.2147099913174
 21
-251.3473095238144
 31
0.0
  0
LINE
  5
3A1
102
{ACAD_REACTORS
330
466
330
467
102
}
330
71
100
AcDbEntity
  8
0
  6
Continuous
 62
     2
100
AcDbLine
 10
-226.4552144015703
 20
-248.2935000000032
 30
0.0
 11
-225.2147099913174
 21
-248.2935000000032
 31
0.0
  0
LINE
  5
3A2
102
{ACAD_REACTORS
330
464
330
465
102
}
330
71
100
AcDbEntity
  8
0
  6
Continuous
 62
     2
100
AcDbLine
 10
-222.9961155652866
 20
-250.5595777385207
 30
0.0
 11
-222.2995246272211
 21
-251.3473095238144
 31
0.0
  0
LINE
  5
3A3
102
{ACAD_REACTORS
330
464
330
465
102
}
330
71
100
AcDbEntity
  8
0
  6
Continuous
 62
     2
100
AcDbLine
 10
-222.2995246272211
 20
-251.3473095238144
 30
0.0
 11
-220.8968004094728
 21
-251.3473095238144
 31
0.0
  0
LINE
  5
3A4
102
{ACAD_REACTORS
330
464
330
465
102
}
330
71
100
AcDbEntity
  8
0
  6
Continuous
 62
     2
100
AcDbLine
 10
-222.2947534564131
 20
-249.7664505300394
 30
0.0
 11
-220.8968004094728
 21
-251.3473095238144
 31
0.0
  0
LINE
  5
3A5
102
{ACAD_REACTORS
330
464
330
465
102
}
330
71
100
AcDbEntity
  8
0
  6
Continuous
 62
     2
100
AcDbLine
 10
-222.2947534564131
 20
-249.7664505300394
 30
0.0
 11
-220.9922238256466
 21
-248.2935000000032
 31
0.0
  0
LINE
  5
3A6
102
{ACAD_REACTORS
330
464
330
465
102
}
330
71
100
AcDbEntity
  8
0
  6
Continuous
 62
     2
100
AcDbLine
 10
-222.9961155652866
 20
-248.9733233215587
 30
0.0
 11
-222.3949480433938
 21
-248.2935000000032
 31
0.0
  0
LINE
  5
3A7
102
{ACAD_REACTORS
330
464
330
465
102
}
330
71
100
AcDbEntity
  8
0
  6
Continuous
 62
     2
100
AcDbLine
 10
-223.5972830871784
 20
-248.2935000000032
 30
0.0
 11
-222.9961155652866
 21
-248.9733233215587
 31
0.0
  0
LINE
  5
3A8
102
{ACAD_REACTORS
330
464
330
465
102
}
330
71
100
AcDbEntity
  8
0
  6
Continuous
 62
     2
100
AcDbLine
 10
-223.5972830871784
 20
-248.2935000000032
 30
0.0
 11
-225.0000073049277
 21
-248.2935000000032
 31
0.0
  0
LINE
  5
3A9
102
{ACAD_REACTORS
330
45A
330
45B
102
}
330
71
100
AcDbEntity
  8
0
  6
Continuous
 62
     2
100
AcDbLine
 10
-222.9006921491139
 20
-254.7064999999887
 30
0.0
 11
-221.7078994469462
 21
-254.7064999999887
 31
0.0
  0
LINE
  5
3AA
102
{ACAD_REACTORS
330
45A
330
45B
102
}
330
71
100
AcDbEntity
  8
0
  6
Continuous
 62
     2
100
AcDbLine
 10
-221.7078994469462
 20
-254.7064999999887
 30
0.0
 11
-221.7078994469462
 21
-252.4379557823012
 31
0.0
  0
LINE
  5
3AB
102
{ACAD_REACTORS
330
45A
330
45B
102
}
330
71
100
AcDbEntity
  8
0
  6
Continuous
 62
     2
100
AcDbLine
 10
-221.7078994469462
 20
-252.4379557823012
 30
0.0
 11
-220.8968004094728
 21
-252.4379557823012
 31
0.0
  0
LINE
  5
3AC
102
{ACAD_REACTORS
330
45A
330
45B
102
}
330
71
100
AcDbEntity
  8
0
  6
Continuous
 62
     2
100
AcDbLine
 10
-220.8968004094728
 20
-252.4379557823012
 30
0.0
 11
-220.8968004094728
 21
-251.6526904761776
 31
0.0
  0
LINE
  5
3AD
102
{ACAD_REACTORS
330
45A
330
45B
102
}
330
71
100
AcDbEntity
  8
0
  6
Continuous
 62
     2
100
AcDbLine
 10
-224.2817459281015
 20
-251.6526904761781
 30
0.0
 11
-220.8968004094728
 21
-251.6526904761776
 31
0.0
  0
LINE
  5
3AE
102
{ACAD_REACTORS
330
45A
330
45B
102
}
330
71
100
AcDbEntity
  8
0
  6
Continuous
 62
     2
100
AcDbLine
 10
-222.9006921491139
 20
-252.4379557823012
 30
0.0
 11
-222.9006921491139
 21
-254.7064999999887
 31
0.0
  0
LINE
  5
3AF
102
{ACAD_REACTORS
330
45C
330
45D
102
}
330
71
100
AcDbEntity
  8
0
  6
Continuous
 62
     2
100
AcDbLine
 10
-245.5301785845931
 20
-252.7276198504242
 30
0.0
 11
-245.5301785845931
 21
-252.1457684437291
 31
0.0
  0
LINE
  5
3B0
102
{ACAD_REACTORS
330
45C
330
45D
102
}
330
71
100
AcDbEntity
  8
0
  6
Continuous
 62
     2
100
AcDbLine
 10
-245.5301785845931
 20
-249.9274852437929
 30
0.0
 11
-245.5301785845931
 21
-249.3219499552861
 31
0.0
  0
LINE
  5
3B1
330
71
100
AcDbEntity
  8
1
  6
Continuous
 62
     6
100
AcDbLine
 10
-266.9999999999899
 20
-262.000000000005
 30
0.0
 11
-253.0448045267399
 21
-262.0000000000051
 31
0.0
  0
LINE
  5
3B2
330
71
100
AcDbEntity
  8
1
  6
Continuous
 62
     6
100
AcDbLine
 10
-316.9999999999901
 20
-262.000000000005
 30
0.0
 11
-322.0448045267399
 21
-262.000000000005
 31
0.0
  0
LINE
  5
3B3
330
71
100
AcDbEntity
  8
1
  6
Continuous
 62
     6
100
AcDbLine
 10
-166.9999999999899
 20
-262.000000000005
 30
0.0
 11
-123.4999999999899
 21
-262.000000000005
 31
0.0
  0
LINE
  5
3B4
330
71
100
AcDbEntity
  8
1
  6
Continuous
 62
     6
100
AcDbLine
 10
-216.9999999999899
 20
-262.000000000005
 30
0.0
 11
-234.8448045267399
 21
-262.000000000005
 31
0.0
  0
LINE
  5
3B5
330
71
100
AcDbEntity
  8
1
  6
Continuous
 62
     2
100
AcDbLine
 10
-123.4999999999899
 20
-262.000000000005
 30
0.0
 11
-118.4999999999909
 21
-262.000000000005
 31
0.0
  0
LINE
  5
3B6
330
71
100
AcDbEntity
  8
1
  6
Continuous
 62
     2
100
AcDbLine
 10
-123.4999999999899
 20
-262.000000000005
 30
0.0
 11
-123.4999999999899
 21
-267.0000000000051
 31
0.0
  0
LINE
  5
3B7
330
71
100
AcDbEntity
  8
1
  6
Continuous
 62
     6
100
AcDbLine
 10
-253.0448045267399
 20
-245.000000000005
 30
0.0
 11
-216.64480452674
 21
-245.000000000005
 31
0.0
  0
LINE
  5
3B8
330
71
100
AcDbEntity
  8
1
  6
Continuous
 62
     2
100
AcDbLine
 10
-118.4999999999909
 20
-267.0000000000051
 30
0.0
 11
-118.4999999999909
 21
-262.000000000005
 31
0.0
  0
LINE
  5
3B9
330
71
100
AcDbEntity
  8
1
  6
Continuous
 62
     2
100
AcDbLine
 10
-118.4999999999909
 20
-267.0000000000051
 30
0.0
 11
-123.4999999999899
 21
-267.0000000000051
 31
0.0
  0
LINE
  5
3BA
330
71
100
AcDbEntity
  8
1
  6
Continuous
 62
     2
100
AcDbLine
 10
-123.4999999999899
 20
-267.0000000000051
 30
0.0
 11
-166.9999999999899
 21
-267.0000000000051
 31
0.0
  0
LINE
  5
3BB
330
71
100
AcDbEntity
  8
1
  6
Continuous
 62
     6
100
AcDbLine
 10
-123.4999999999882
 20
-245.000000000005
 30
0.0
 11
-123.499999999989
 21
-212.0000000000049
 31
0.0
  0
LINE
  5
3BC
330
71
100
AcDbEntity
  8
1
  6
Continuous
 62
     2
100
AcDbLine
 10
-118.4999999999909
 20
-57.000000000005
 30
0.0
 11
-266.9999999999899
 21
-57.000000000005
 31
0.0
  0
LINE
  5
3BD
330
71
100
AcDbEntity
  8
1
  6
Continuous
 62
     6
100
AcDbLine
 10
-123.4999999999909
 20
-77.000000000005
 30
0.0
 11
-410.499999999989
 21
-77.000000000005
 31
0.0
  0
LINE
  5
3BE
330
71
100
AcDbEntity
  8
1
  6
Continuous
 62
     2
100
AcDbLine
 10
-123.499999999989
 20
-212.0000000000049
 30
0.0
 11
-118.4999999999909
 21
-212.0000000000049
 31
0.0
  0
LINE
  5
3BF
330
71
100
AcDbEntity
  8
1
  6
Continuous
 62
     6
100
AcDbLine
 10
-123.499999999989
 20
-212.0000000000049
 30
0.0
 11
-123.4999999999895
 21
-162.0000000000051
 31
0.0
  0
LINE
  5
3C0
330
71
100
AcDbEntity
  8
1
  6
Continuous
 62
     2
100
AcDbLine
 10
-118.4999999999909
 20
-212.0000000000049
 30
0.0
 11
-118.4999999999909
 21
-162.0000000000051
 31
0.0
  0
LINE
  5
3C1
330
71
100
AcDbEntity
  8
1
  6
Continuous
 62
     2
100
AcDbLine
 10
-123.4999999999895
 20
-162.0000000000051
 30
0.0
 11
-118.4999999999909
 21
-162.0000000000051
 31
0.0
  0
LINE
  5
3C2
330
71
100
AcDbEntity
  8
1
  6
Continuous
 62
     6
100
AcDbLine
 10
-123.4999999999895
 20
-162.0000000000051
 30
0.0
 11
-123.4999999999907
 21
-112.000000000005
 31
0.0
  0
LINE
  5
3C3
330
71
100
AcDbEntity
  8
1
  6
Continuous
 62
     2
100
AcDbLine
 10
-118.4999999999909
 20
-162.0000000000051
 30
0.0
 11
-118.4999999999909
 21
-112.000000000005
 31
0.0
  0
LINE
  5
3C4
330
71
100
AcDbEntity
  8
1
  6
Continuous
 62
     2
100
AcDbLine
 10
-123.4999999999907
 20
-112.000000000005
 30
0.0
 11
-118.4999999999909
 21
-112.000000000005
 31
0.0
  0
LINE
  5
3C5
330
71
100
AcDbEntity
  8
1
  6
Continuous
 62
     6
100
AcDbLine
 10
-123.4999999999907
 20
-112.000000000005
 30
0.0
 11
-123.4999999999909
 21
-77.000000000005
 31
0.0
  0
LINE
  5
3C6
330
71
100
AcDbEntity
  8
1
  6
Continuous
 62
     2
100
AcDbLine
 10
-118.4999999999909
 20
-112.000000000005
 30
0.0
 11
-118.4999999999909
 21
-57.000000000005
 31
0.0
  0
LINE
  5
3C7
330
71
100
AcDbEntity
  8
1
  6
Continuous
 62
     2
100
AcDbLine
 10
-118.4999999999909
 20
-262.000000000005
 30
0.0
 11
-118.4999999999909
 21
-212.0000000000049
 31
0.0
  0
LINE
  5
3C8
330
71
100
AcDbEntity
  8
1
  6
Continuous
 62
     2
100
AcDbLine
 10
-266.9999999999899
 20
-57.000000000005
 30
0.0
 11
-415.499999999989
 21
-57.000000000005
 31
0.0
  0
LINE
  5
3C9
330
71
100
AcDbEntity
  8
1
  6
Continuous
 62
     2
100
AcDbLine
 10
-266.9999999999899
 20
-57.000000000005
 30
0.0
 11
-266.9999999999899
 21
-66.20869184470632
 31
0.0
  0
LINE
  5
3CA
330
71
100
AcDbEntity
  8
1
  6
Continuous
 62
     2
100
AcDbLine
 10
-415.499999999989
 20
-267.0000000000051
 30
0.0
 11
-410.499999999988
 21
-267.0000000000051
 31
0.0
  0
LINE
  5
3CB
330
71
100
AcDbEntity
  8
1
  6
Continuous
 62
     2
100
AcDbLine
 10
-415.499999999989
 20
-57.000000000005
 30
0.0
 11
-415.499999999989
 21
-112.000000000005
 31
0.0
  0
LINE
  5
3CC
330
71
100
AcDbEntity
  8
1
  6
Continuous
 62
     6
100
AcDbLine
 10
-410.499999999989
 20
-77.000000000005
 30
0.0
 11
-410.4999999999889
 21
-112.000000000005
 31
0.0
  0
LINE
  5
3CD
330
71
100
AcDbEntity
  8
1
  6
Continuous
 62
     2
100
AcDbLine
 10
-415.499999999989
 20
-112.000000000005
 30
0.0
 11
-410.4999999999889
 21
-112.000000000005
 31
0.0
  0
LINE
  5
3CE
330
71
100
AcDbEntity
  8
1
  6
Continuous
 62
     2
100
AcDbLine
 10
-415.499999999989
 20
-112.000000000005
 30
0.0
 11
-415.499999999989
 21
-162.0000000000051
 31
0.0
  0
LINE
  5
3CF
330
71
100
AcDbEntity
  8
1
  6
Continuous
 62
     6
100
AcDbLine
 10
-410.4999999999889
 20
-112.000000000005
 30
0.0
 11
-410.4999999999884
 21
-162.0000000000051
 31
0.0
  0
LINE
  5
3D0
330
71
100
AcDbEntity
  8
1
  6
Continuous
 62
     2
100
AcDbLine
 10
-415.499999999989
 20
-162.0000000000051
 30
0.0
 11
-410.4999999999884
 21
-162.0000000000051
 31
0.0
  0
LINE
  5
3D1
330
71
100
AcDbEntity
  8
1
  6
Continuous
 62
     2
100
AcDbLine
 10
-415.499999999989
 20
-162.0000000000051
 30
0.0
 11
-415.499999999989
 21
-212.0000000000049
 31
0.0
  0
LINE
  5
3D2
330
71
100
AcDbEntity
  8
1
  6
Continuous
 62
     6
100
AcDbLine
 10
-410.4999999999884
 20
-162.0000000000051
 30
0.0
 11
-410.4999999999882
 21
-212.0000000000049
 31
0.0
  0
LINE
  5
3D3
330
71
100
AcDbEntity
  8
1
  6
Continuous
 62
     2
100
AcDbLine
 10
-415.499999999989
 20
-212.0000000000049
 30
0.0
 11
-410.4999999999882
 21
-212.0000000000049
 31
0.0
  0
LINE
  5
3D4
330
71
100
AcDbEntity
  8
1
  6
Continuous
 62
     2
100
AcDbLine
 10
-415.499999999989
 20
-212.0000000000049
 30
0.0
 11
-415.499999999989
 21
-262.000000000005
 31
0.0
  0
LINE
  5
3D5
330
71
100
AcDbEntity
  8
1
  6
Continuous
 62
     6
100
AcDbLine
 10
-410.4999999999882
 20
-212.0000000000049
 30
0.0
 11
-410.499999999988
 21
-262.000000000005
 31
0.0
  0
LINE
  5
3D6
330
71
100
AcDbEntity
  8
1
  6
Continuous
 62
     2
100
AcDbLine
 10
-366.9999999999899
 20
-267.0000000000051
 30
0.0
 11
-366.9999999999899
 21
-262.000000000005
 31
0.0
  0
LINE
  5
3D7
330
71
100
AcDbEntity
  8
1
  6
Continuous
 62
     2
100
AcDbLine
 10
-366.9999999999899
 20
-267.0000000000051
 30
0.0
 11
-316.9999999999901
 21
-267.0000000000051
 31
0.0
  0
LINE
  5
3D8
330
71
100
AcDbEntity
  8
1
  6
Continuous
 62
     2
100
AcDbLine
 10
-316.9999999999901
 20
-267.0000000000051
 30
0.0
 11
-316.9999999999901
 21
-262.000000000005
 31
0.0
  0
LINE
  5
3D9
330
71
100
AcDbEntity
  8
1
  6
Continuous
 62
     2
100
AcDbLine
 10
-316.9999999999901
 20
-267.0000000000051
 30
0.0
 11
-266.9999999999899
 21
-267.0000000000051
 31
0.0
  0
LINE
  5
3DA
330
71
100
AcDbEntity
  8
1
  6
Continuous
 62
     2
100
AcDbLine
 10
-266.9999999999899
 20
-267.0000000000051
 30
0.0
 11
-266.9999999999899
 21
-262.000000000005
 31
0.0
  0
LINE
  5
3DB
330
71
100
AcDbEntity
  8
1
  6
Continuous
 62
     2
100
AcDbLine
 10
-266.9999999999899
 20
-267.0000000000051
 30
0.0
 11
-216.9999999999899
 21
-267.0000000000051
 31
0.0
  0
LINE
  5
3DC
330
71
100
AcDbEntity
  8
1
  6
Continuous
 62
     2
100
AcDbLine
 10
-216.9999999999899
 20
-267.0000000000051
 30
0.0
 11
-216.9999999999899
 21
-262.000000000005
 31
0.0
  0
LINE
  5
3DD
330
71
100
AcDbEntity
  8
1
  6
Continuous
 62
     2
100
AcDbLine
 10
-166.9999999999899
 20
-267.0000000000051
 30
0.0
 11
-166.9999999999899
 21
-262.000000000005
 31
0.0
  0
LINE
  5
3DE
330
71
100
AcDbEntity
  8
1
  6
Continuous
 62
     2
100
AcDbLine
 10
-166.9999999999899
 20
-267.0000000000051
 30
0.0
 11
-216.9999999999899
 21
-267.0000000000051
 31
0.0
  0
LINE
  5
3DF
330
71
100
AcDbEntity
  8
1
  6
Continuous
 62
     2
100
AcDbLine
 10
-410.499999999988
 20
-262.000000000005
 30
0.0
 11
-410.499999999988
 21
-267.0000000000051
 31
0.0
  0
LINE
  5
3E0
330
71
100
AcDbEntity
  8
1
  6
Continuous
 62
     2
100
AcDbLine
 10
-410.499999999988
 20
-267.0000000000051
 30
0.0
 11
-366.9999999999899
 21
-267.0000000000051
 31
0.0
  0
LINE
  5
3E1
330
71
100
AcDbEntity
  8
1
  6
Continuous
 62
     2
100
AcDbLine
 10
-410.499999999988
 20
-262.000000000005
 30
0.0
 11
-415.499999999989
 21
-262.000000000005
 31
0.0
  0
LINE
  5
3E2
330
71
100
AcDbEntity
  8
1
  6
Continuous
 62
     2
100
AcDbLine
 10
-415.499999999989
 20
-262.000000000005
 30
0.0
 11
-415.499999999989
 21
-267.0000000000051
 31
0.0
  0
LINE
  5
3E3
330
71
100
AcDbEntity
  8
1
  6
Continuous
 62
     6
100
AcDbLine
 10
-123.4999999999899
 20
-262.000000000005
 30
0.0
 11
-123.4999999999886
 21
-253.500000000005
 31
0.0
  0
LINE
  5
3E4
330
71
100
AcDbEntity
  8
1
  6
Continuous
 62
     6
100
AcDbLine
 10
-216.64480452674
 20
-262.0000000000051
 30
0.0
 11
-166.9999999999899
 21
-262.000000000005
 31
0.0
  0
LINE
  5
3E5
330
71
100
AcDbEntity
  8
1
  6
Continuous
 62
     6
100
AcDbLine
 10
-369.2999999999901
 20
-262.0000000000051
 30
0.0
 11
-366.9999999999899
 21
-262.000000000005
 31
0.0
  0
LINE
  5
3E6
330
71
100
AcDbEntity
  8
1
  6
Continuous
 62
     6
100
AcDbLine
 10
-266.9999999999899
 20
-262.000000000005
 30
0.0
 11
-316.9999999999901
 21
-262.000000000005
 31
0.0
  0
LINE
  5
3E7
330
71
100
AcDbEntity
  8
1
  6
Continuous
 62
     7
100
AcDbLine
 10
-253.0448045267399
 20
-245.000000000005
 30
0.0
 11
-253.0448045267399
 21
-257.7500000000051
 31
0.0
  0
LINE
  5
3E8
330
71
100
AcDbEntity
  8
1
  6
Continuous
 62
     7
100
AcDbLine
 10
-216.64480452674
 20
-245.000000000005
 30
0.0
 11
-216.64480452674
 21
-257.750000000005
 31
0.0
  0
LINE
  5
3E9
330
71
100
AcDbEntity
  8
1
  6
Continuous
 62
     6
100
AcDbLine
 10
-369.2999999999901
 20
-262.0000000000051
 30
0.0
 11
-375.4999999999881
 21
-262.000000000005
 31
0.0
  0
LINE
  5
3EA
330
71
100
AcDbEntity
  8
1
  6
Continuous
 62
     6
100
AcDbLine
 10
-216.64480452674
 20
-262.0000000000051
 30
0.0
 11
-216.9999999999899
 21
-262.000000000005
 31
0.0
  0
LINE
  5
3EB
330
71
100
AcDbEntity
  8
1
  6
Continuous
 62
     6
100
AcDbLine
 10
-123.4999999999882
 20
-245.000000000005
 30
0.0
 11
-123.4999999999886
 21
-253.500000000005
 31
0.0
  0
LINE
  5
3EC
330
71
100
AcDbEntity
  8
1
  6
Continuous
 62
     6
100
AcDbLine
 10
-375.4999999999881
 20
-262.000000000005
 30
0.0
 11
-410.499999999988
 21
-262.000000000005
 31
0.0
  0
LINE
  5
3ED
330
71
100
AcDbEntity
  8
1
  6
Continuous
 62
     2
100
AcDbLine
 10
-248.8081496401773
 20
-239.6250000000051
 30
0.0
 11
-243.8081496401773
 21
-238.3750000000051
 31
0.0
  0
LINE
  5
3EE
330
71
100
AcDbEntity
  8
1
  6
Continuous
 62
     2
100
AcDbLine
 10
-248.8081496401773
 20
-242.1250000000051
 30
0.0
 11
-248.8081496401773
 21
-239.6250000000051
 31
0.0
  0
LINE
  5
3EF
330
71
100
AcDbEntity
  8
1
  6
Continuous
 62
     2
100
AcDbLine
 10
-243.8081496401773
 20
-243.3750000000051
 30
0.0
 11
-248.8081496401773
 21
-242.1250000000051
 31
0.0
  0
LINE
  5
3F0
330
71
100
AcDbEntity
  8
1
  6
Continuous
 62
     2
100
AcDbLine
 10
-243.8081496401773
 20
-238.3750000000051
 30
0.0
 11
-243.8081496401773
 21
-243.3750000000051
 31
0.0
  0
LINE
  5
3F1
330
71
100
AcDbEntity
  8
1
  6
Continuous
 62
     7
100
AcDbLine
 10
-253.0448045267399
 20
-257.7500000000051
 30
0.0
 11
-234.8448045267399
 21
-257.750000000005
 31
0.0
  0
LINE
  5
3F2
330
71
100
AcDbEntity
  8
1
  6
Continuous
 62
     7
100
AcDbLine
 10
-253.0448045267399
 20
-257.7500000000051
 30
0.0
 11
-253.0448045267399
 21
-262.0000000000051
 31
0.0
  0
LINE
  5
3F3
330
71
100
AcDbEntity
  8
1
  6
Continuous
 62
     7
100
AcDbLine
 10
-216.64480452674
 20
-257.750000000005
 30
0.0
 11
-216.64480452674
 21
-262.0000000000051
 31
0.0
  0
LINE
  5
3F4
330
71
100
AcDbEntity
  8
1
  6
Continuous
 62
     7
100
AcDbLine
 10
-234.8448045267399
 20
-257.750000000005
 30
0.0
 11
-234.8448045267399
 21
-262.000000000005
 31
0.0
  0
LINE
  5
3F5
330
71
100
AcDbEntity
  8
1
  6
Continuous
 62
     6
100
AcDbLine
 10
-234.8448045267399
 20
-262.000000000005
 30
0.0
 11
-253.0448045267399
 21
-262.0000000000051
 31
0.0
  0
LINE
  5
3F6
330
71
100
AcDbEntity
  8
1
  6
Continuous
 62
     7
100
AcDbLine
 10
-234.8448045267399
 20
-257.750000000005
 30
0.0
 11
-216.64480452674
 21
-257.750000000005
 31
0.0
  0
LINE
  5
3F7
330
71
100
AcDbEntity
  8
1
  6
Continuous
 62
     6
100
AcDbLine
 10
-253.0448045267399
 20
-236.500000000005
 30
0.0
 11
-123.4999999999882
 21
-236.500000000005
 31
0.0
  0
ARC
  5
3F8
102
{ACAD_REACTORS
330
460
330
461
102
}
330
71
100
AcDbEntity
  8
0
  6
Continuous
 62
     2
100
AcDbCircle
 10
-237.6531565277799
 20
-253.1795952380834
 30
0.0
 40
0.7717997786796947
100
AcDbArc
 50
321.8795802028417
 51
38.12041979715329
  0
ARC
  5
3F9
102
{ACAD_REACTORS
330
460
330
461
102
}
330
71
100
AcDbEntity
  8
0
  6
Continuous
 62
     2
100
AcDbCircle
 10
-237.4534164914335
 20
-253.3363264162034
 30
0.0
 40
0.5179085730137354
100
AcDbArc
 50
218.1204197971931
 51
321.879580202801
  0
ARC
  5
3FA
102
{ACAD_REACTORS
330
460
330
461
102
}
330
71
100
AcDbEntity
  8
0
  6
Continuous
 62
     2
100
AcDbCircle
 10
-237.2536764550874
 20
-253.1795952380834
 30
0.0
 40
0.7717997786794633
100
AcDbArc
 50
141.8795802028363
 51
218.1204197971687
  0
ARC
  5
3FB
102
{ACAD_REACTORS
330
460
330
461
102
}
330
71
100
AcDbEntity
  8
0
  6
Continuous
 62
     2
100
AcDbCircle
 10
-237.4534164914335
 20
-253.0228640599629
 30
0.0
 40
0.5179085730132998
100
AcDbArc
 50
38.12041979714704
 51
141.8795802028588
  0
ARC
  5
3FC
102
{ACAD_REACTORS
330
458
330
459
102
}
330
71
100
AcDbEntity
  8
0
  6
Continuous
 62
     2
100
AcDbCircle
 10
-240.5154306269974
 20
-254.5900616034916
 30
0.0
 40
2.227384008973478
100
AcDbArc
 50
58.06909105004071
 51
71.55192388186722
  0
ARC
  5
3FD
102
{ACAD_REACTORS
330
458
330
459
102
}
330
71
100
AcDbEntity
  8
0
  6
Continuous
 62
     2
100
AcDbCircle
 10
-240.2537029260386
 20
-252.9745238087444
 30
0.0
 40
0.5115800601948779
100
AcDbArc
 50
113.3722778881992
 51
151.4785267423044
  0
ARC
  5
3FE
102
{ACAD_REACTORS
330
458
330
459
102
}
330
71
100
AcDbEntity
  8
0
  6
Continuous
 62
     2
100
AcDbCircle
 10
-239.8763456679583
 20
-253.1795952380834
 30
0.0
 40
0.9410597353332545
100
AcDbArc
 50
151.4785267422669
 51
208.5214732577057
  0
ARC
  5
3FF
102
{ACAD_REACTORS
330
458
330
459
102
}
330
71
100
AcDbEntity
  8
0
  6
Continuous
 62
     2
100
AcDbCircle
 10
-240.6733035020903
 20
-249.866914292827
 30
0.0
 40
4.852596863498138
100
AcDbArc
 50
275.1581447696249
 51
285.9799912583529
  0
ARC
  5
400
102
{ACAD_REACTORS
330
458
330
459
102
}
330
71
100
AcDbEntity
  8
0
  6
Continuous
 62
     2
100
AcDbCircle
 10
-240.3844474073544
 20
-253.0668048760486
 30
0.0
 40
1.639695123939387
100
AcDbArc
 50
195.0618917770896
 51
275.1581447696395
  0
ARC
  5
401
102
{ACAD_REACTORS
330
458
330
459
102
}
330
71
100
AcDbEntity
  8
0
  6
Continuous
 62
     2
100
AcDbCircle
 10
-240.8035752508172
 20
-253.1795952380834
 30
0.0
 40
1.205656168390944
100
AcDbArc
 50
164.9381082228765
 51
195.0618917770948
  0
ARC
  5
402
102
{ACAD_REACTORS
330
458
330
459
102
}
330
71
100
AcDbEntity
  8
0
  6
Continuous
 62
     2
100
AcDbCircle
 10
-240.3844474073544
 20
-253.2923856001183
 30
0.0
 40
1.639695123940507
100
AcDbArc
 50
84.84185523036236
 51
164.9381082228864
  0
ARC
  5
403
102
{ACAD_REACTORS
330
45C
330
45D
102
}
330
71
100
AcDbEntity
  8
0
  6
Continuous
 62
     2
100
AcDbCircle
 10
-245.2144616615163
 20
-252.1457684437291
 30
0.0
 40
0.3157169230765328
100
AcDbArc
 50
115.3740086783519
 51
180.0
  0
ARC
  5
404
102
{ACAD_REACTORS
330
45C
330
45D
102
}
330
71
100
AcDbEntity
  8
0
  6
Continuous
 62
     2
100
AcDbCircle
 10
-245.2144616615163
 20
-249.9274852437929
 30
0.0
 40
0.315716923076792
100
AcDbArc
 50
180.0
 51
244.6259913216482
  0
ARC
  5
405
102
{ACAD_REACTORS
330
45C
330
45D
102
}
330
71
100
AcDbEntity
  8
0
  6
Continuous
 62
     2
100
AcDbCircle
 10
-245.2088455262063
 20
-251.0247849028552
 30
0.0
 40
2.018561131933266
100
AcDbArc
 50
269.8110329575858
 51
90.18896704241416
  0
ARC
  5
406
102
{ACAD_REACTORS
330
45C
330
45D
102
}
330
71
100
AcDbEntity
  8
0
  6
Continuous
 62
     2
100
AcDbCircle
 10
-245.2144616615163
 20
-252.7276198504242
 30
0.0
 40
0.315716923076792
100
AcDbArc
 50
180.0
 51
269.8110329574542
  0
ARC
  5
407
102
{ACAD_REACTORS
330
45A
330
45B
102
}
330
71
100
AcDbEntity
  8
0
  6
Continuous
 62
     2
100
AcDbCircle
 10
-224.1510014467857
 20
-252.9745238087444
 30
0.0
 40
0.5115800601944143
100
AcDbArc
 50
109.3371432194853
 51
151.4785267424225
  0
ARC
  5
408
102
{ACAD_REACTORS
330
45A
330
45B
102
}
330
71
100
AcDbEntity
  8
0
  6
Continuous
 62
     2
100
AcDbCircle
 10
-224.1510014467857
 20
-253.3846666674219
 30
0.0
 40
0.5115800601960215
100
AcDbArc
 50
208.5214732576866
 51
246.6277221118449
  0
ARC
  5
409
102
{ACAD_REACTORS
330
45A
330
45B
102
}
330
71
100
AcDbEntity
  8
0
  6
Continuous
 62
     2
100
AcDbCircle
 10
-224.7008737715631
 20
-253.1795952380834
 30
0.0
 40
1.205656168393002
100
AcDbArc
 50
164.9381082229028
 51
195.0618917770959
  0
ARC
  5
40A
102
{ACAD_REACTORS
330
45A
330
45B
102
}
330
71
100
AcDbEntity
  8
0
  6
Continuous
 62
     2
100
AcDbCircle
 10
-224.2817459281015
 20
-253.2923856001183
 30
0.0
 40
1.639695123940214
100
AcDbArc
 50
90.0
 51
164.938108222895
  0
ARC
  5
40B
102
{ACAD_REACTORS
330
45E
330
45F
102
}
330
71
100
AcDbEntity
  8
0
  6
Continuous
 62
     2
100
AcDbCircle
 10
-233.7087410208052
 20
-249.8204047619091
 30
0.0
 40
1.526904761905882
100
AcDbArc
 50
90.0
 51
270.0
  0
ARC
  5
40C
102
{ACAD_REACTORS
330
462
330
463
102
}
330
71
100
AcDbEntity
  8
0
  6
Continuous
 62
     2
100
AcDbCircle
 10
-240.451431766031
 20
-249.3094696701144
 30
0.0
 40
0.3528638246711182
100
AcDbArc
 50
270.0
 51
90.0
  0
ARC
  5
40D
102
{ACAD_REACTORS
330
45C
330
45D
102
}
330
71
100
AcDbEntity
  8
0
  6
Continuous
 62
     2
100
AcDbCircle
 10
-247.790010348048
 20
-249.321772478638
 30
0.0
 40
0.3157169230761951
100
AcDbArc
 50
90.0
 51
180.0
  0
ARC
  5
40E
102
{ACAD_REACTORS
330
45C
330
45D
102
}
330
71
100
AcDbEntity
  8
0
  6
Continuous
 62
     2
100
AcDbCircle
 10
-245.7915926394634
 20
-251.0366268437607
 30
0.0
 40
0.9118975235576147
100
AcDbArc
 50
115.1944106485282
 51
244.8055893514878
  0
ARC
  5
40F
102
{ACAD_REACTORS
330
45C
330
45D
102
}
330
71
100
AcDbEntity
  8
0
  6
Continuous
 62
     2
100
AcDbCircle
 10
-246.3141770870384
 20
-252.1474565898235
 30
0.0
 40
0.315716923076593
100
AcDbArc
 50
0.0
 51
64.80558935146027
  0
ARC
  5
410
102
{ACAD_REACTORS
330
45C
330
45D
102
}
330
71
100
AcDbEntity
  8
0
  6
Continuous
 62
     2
100
AcDbCircle
 10
-248.3839050247945
 20
-254.2822553846054
 30
0.0
 40
0.4242446153828041
100
AcDbArc
 50
180.0
 51
270.0
  0
ARC
  5
411
102
{ACAD_REACTORS
330
45E
330
45F
102
}
330
71
100
AcDbEntity
  8
0
  6
Continuous
 62
     2
100
AcDbCircle
 10
-233.49246901064
 20
-249.6636735837886
 30
0.0
 40
0.5179085730135266
100
AcDbArc
 50
38.12041979714334
 51
141.8795802028489
  0
ARC
  5
412
102
{ACAD_REACTORS
330
45E
330
45F
102
}
330
71
100
AcDbEntity
  8
0
  6
Continuous
 62
     2
100
AcDbCircle
 10
-233.2927289742937
 20
-249.8204047619091
 30
0.0
 40
0.7717997786796724
100
AcDbArc
 50
141.8795802028404
 51
218.1204197971562
  0
ARC
  5
413
102
{ACAD_REACTORS
330
460
330
461
102
}
330
71
100
AcDbEntity
  8
0
  6
Continuous
 62
     2
100
AcDbCircle
 10
-237.4534164914335
 20
-252.6410202277801
 30
0.0
 40
2.065479772208509
100
AcDbArc
 50
242.4518518243402
 51
297.5481481756871
  0
ARC
  5
414
102
{ACAD_REACTORS
330
460
330
461
102
}
330
71
100
AcDbEntity
  8
0
  6
Continuous
 62
     2
100
AcDbCircle
 10
-237.4534164914335
 20
-253.7181702483862
 30
0.0
 40
2.065479772208568
100
AcDbArc
 50
62.45185182430637
 51
117.5481481756664
  0
ARC
  5
415
102
{ACAD_REACTORS
330
460
330
461
102
}
330
71
100
AcDbEntity
  8
0
  6
Continuous
 62
     2
100
AcDbCircle
 10
-237.7343563832668
 20
-253.1795952380834
 30
0.0
 40
1.45803408365149
100
AcDbArc
 50
117.5481481756624
 51
242.4518518243375
  0
ARC
  5
416
102
{ACAD_REACTORS
330
460
330
461
102
}
330
71
100
AcDbEntity
  8
0
  6
Continuous
 62
     2
100
AcDbCircle
 10
-237.1724765996002
 20
-253.1795952380834
 30
0.0
 40
1.458034083652003
100
AcDbArc
 50
297.548148175701
 51
62.45185182429896
  0
ARC
  5
417
102
{ACAD_REACTORS
330
45E
330
45F
102
}
330
71
100
AcDbEntity
  8
0
  6
Continuous
 62
     2
100
AcDbCircle
 10
-233.49246901064
 20
-249.9771359400295
 30
0.0
 40
0.5179085730134372
100
AcDbArc
 50
218.1204197971511
 51
321.8795802028566
  0
ARC
  5
418
102
{ACAD_REACTORS
330
45E
330
45F
102
}
330
71
100
AcDbEntity
  8
0
  6
Continuous
 62
     2
100
AcDbCircle
 10
-233.6922090469862
 20
-249.8204047619091
 30
0.0
 40
0.7717997786796373
100
AcDbArc
 50
321.8795802028437
 51
38.12041979715956
  0
ARC
  5
419
102
{ACAD_REACTORS
330
45C
330
45D
102
}
330
71
100
AcDbEntity
  8
0
  6
Continuous
 62
     2
100
AcDbCircle
 10
-242.9105929340777
 20
-254.2822553846054
 30
0.0
 40
0.4242446153832873
100
AcDbArc
 50
270.0
 51
0.0
  0
ARC
  5
41A
102
{ACAD_REACTORS
330
45C
330
45D
102
}
330
71
100
AcDbEntity
  8
0
  6
Continuous
 62
     2
100
AcDbCircle
 10
-242.9105929340777
 20
-248.7177446154052
 30
0.0
 40
0.4242446153838841
100
AcDbArc
 50
0.0
 51
90.0
  0
ARC
  5
41B
102
{ACAD_REACTORS
330
45C
330
45D
102
}
330
71
100
AcDbEntity
  8
0
  6
Continuous
 62
     2
100
AcDbCircle
 10
-248.3839050247945
 20
-248.7177446154052
 30
0.0
 40
0.4242446153837989
100
AcDbArc
 50
90.0
 51
180.0
  0
ARC
  5
41C
102
{ACAD_REACTORS
330
45C
330
45D
102
}
330
71
100
AcDbEntity
  8
0
  6
Continuous
 62
     2
100
AcDbCircle
 10
-246.3141770870384
 20
-253.6782275213551
 30
0.0
 40
0.3157169230767067
100
AcDbArc
 50
270.0
 51
0.0
  0
ARC
  5
41D
102
{ACAD_REACTORS
330
45C
330
45D
102
}
330
71
100
AcDbEntity
  8
0
  6
Continuous
 62
     2
100
AcDbCircle
 10
-246.3141770870384
 20
-249.9257970976985
 30
0.0
 40
0.3157169230761203
100
AcDbArc
 50
295.1944106485397
 51
0.0
  0
ARC
  5
41E
102
{ACAD_REACTORS
330
45C
330
45D
102
}
330
71
100
AcDbEntity
  8
0
  6
Continuous
 62
     2
100
AcDbCircle
 10
-246.3141770870384
 20
-249.321772478638
 30
0.0
 40
0.315716923076593
100
AcDbArc
 50
0.0
 51
90.0
  0
ARC
  5
41F
102
{ACAD_REACTORS
330
45C
330
45D
102
}
330
71
100
AcDbEntity
  8
0
  6
Continuous
 62
     2
100
AcDbCircle
 10
-247.790010348048
 20
-253.6782275213551
 30
0.0
 40
0.3157169230756836
100
AcDbArc
 50
180.0
 51
270.0
  0
ARC
  5
420
102
{ACAD_REACTORS
330
462
330
463
102
}
330
71
100
AcDbEntity
  8
0
  6
Continuous
 62
     2
100
AcDbCircle
 10
-240.0099592397926
 20
-249.3488656413369
 30
0.0
 40
1.055365641333708
100
AcDbArc
 50
270.0
 51
90.0
  0
ARC
  5
421
102
{ACAD_REACTORS
330
45A
330
45B
102
}
330
71
100
AcDbEntity
  8
0
  6
Continuous
 62
     2
100
AcDbCircle
 10
-224.2817459281015
 20
-253.0668048760486
 30
0.0
 40
1.639695123940448
100
AcDbArc
 50
195.0618917771012
 51
275.1581447696762
  0
ARC
  5
422
102
{ACAD_REACTORS
330
45A
330
45B
102
}
330
71
100
AcDbEntity
  8
0
  6
Continuous
 62
     2
100
AcDbCircle
 10
-224.5706020228373
 20
-249.866914292827
 30
0.0
 40
4.852596863498825
100
AcDbArc
 50
275.1581447696364
 51
285.9799912583387
  0
ARC
  5
423
102
{ACAD_REACTORS
330
45A
330
45B
102
}
330
71
100
AcDbEntity
  8
0
  6
Continuous
 62
     2
100
AcDbCircle
 10
-224.4127291477445
 20
-251.7691288726753
 30
0.0
 40
2.227384008972746
100
AcDbArc
 50
288.4480761181335
 51
301.9309089499397
  0
ARC
  5
424
102
{ACAD_REACTORS
330
45A
330
45B
102
}
330
71
100
AcDbEntity
  8
0
  6
Continuous
 62
     2
100
AcDbCircle
 10
-223.9945614140826
 20
-253.0226746487119
 30
0.0
 40
0.9059297849852801
100
AcDbArc
 50
246.6277221118183
 51
288.4480761180817
  0
ARC
  5
425
102
{ACAD_REACTORS
330
45A
330
45B
102
}
330
71
100
AcDbEntity
  8
0
  6
Continuous
 62
     2
100
AcDbCircle
 10
-223.7736441887043
 20
-253.1795952380834
 30
0.0
 40
0.9410597353348924
100
AcDbArc
 50
151.4785267423624
 51
208.5214732576695
  0
ARC
  5
426
102
{ACAD_REACTORS
330
45A
330
45B
102
}
330
71
100
AcDbEntity
  8
0
  6
Continuous
 62
     2
100
AcDbCircle
 10
-224.004331448682
 20
-253.3924787891273
 30
0.0
 40
0.9545230068260935
100
AcDbArc
 50
90.0
 51
109.337143219432
  0
ARC
  5
427
102
{ACAD_REACTORS
330
45C
330
45D
102
}
330
71
100
AcDbEntity
  8
0
  6
Continuous
 62
     2
100
AcDbCircle
 10
-245.2144616615163
 20
-249.3219499552861
 30
0.0
 40
0.3157169230760711
100
AcDbArc
 50
90.18896704254594
 51
180.0
  0
ARC
  5
428
102
{ACAD_REACTORS
330
45C
330
45D
102
}
330
71
100
AcDbEntity
  8
0
  6
Continuous
 62
     2
100
AcDbCircle
 10
-245.7405043596042
 20
-251.0366268437607
 30
0.0
 40
0.911848150144459
100
AcDbArc
 50
295.3740086781764
 51
64.62599132180748
  0
ARC
  5
429
102
{ACAD_REACTORS
330
458
330
459
102
}
330
71
100
AcDbEntity
  8
0
  6
Continuous
 62
     2
100
AcDbCircle
 10
-240.5154306269974
 20
-251.7691288726747
 30
0.0
 40
2.227384008972737
100
AcDbArc
 50
288.4480761181328
 51
301.9309089499593
  0
ARC
  5
42A
102
{ACAD_REACTORS
330
458
330
459
102
}
330
71
100
AcDbEntity
  8
0
  6
Continuous
 62
     2
100
AcDbCircle
 10
-240.0972628933366
 20
-253.0226746487119
 30
0.0
 40
0.9059297849849192
100
AcDbArc
 50
246.627722111871
 51
288.4480761181584
  0
ARC
  5
42B
102
{ACAD_REACTORS
330
458
330
459
102
}
330
71
100
AcDbEntity
  8
0
  6
Continuous
 62
     2
100
AcDbCircle
 10
-240.2537029260386
 20
-253.3846666674219
 30
0.0
 40
0.5115800601948034
100
AcDbArc
 50
208.5214732576956
 51
246.6277221118274
  0
ARC
  5
42C
102
{ACAD_REACTORS
330
458
330
459
102
}
330
71
100
AcDbEntity
  8
0
  6
Continuous
 62
     2
100
AcDbCircle
 10
-240.0972628933366
 20
-253.336515827455
 30
0.0
 40
0.9059297849853228
100
AcDbArc
 50
71.55192388185348
 51
113.372277888129
  0
ARC
  5
42D
102
{ACAD_REACTORS
330
458
330
459
102
}
330
71
100
AcDbEntity
  8
0
  6
Continuous
 62
     2
100
AcDbCircle
 10
-240.6733035020903
 20
-256.4922761833393
 30
0.0
 40
4.852596863498068
100
AcDbArc
 50
74.02000874164739
 51
84.84185523037506
  0
CIRCLE
  5
42E
102
{ACAD_REACTORS
330
45C
330
45D
102
}
330
71
100
AcDbEntity
  8
0
  6
Continuous
 62
     2
100
AcDbCircle
 10
-245.764319374277
 20
-251.0366268437607
 30
0.0
 40
0.4709789327785074
  0
CIRCLE
  5
42F
330
71
100
AcDbEntity
  8
1
  6
Continuous
 62
     2
100
AcDbCircle
 10
-240.3081496401773
 20
-240.8750000000051
 30
0.0
 40
1.249999999999915
  0
CIRCLE
  5
430
330
71
100
AcDbEntity
  8
1
  6
Continuous
 62
     2
100
AcDbCircle
 10
-240.3081496401773
 20
-240.8750000000051
 30
0.0
 40
2.5
  0
TEXT
  5
431
330
71
100
AcDbEntity
  8
1
 62
     7
100
AcDbText
 10
-197.6712568047261
 20
-243.7000000000051
 30
0.0
 40
2.5
  1
/
 41
0.9
  7
CONVERTER_11
100
AcDbText
  0
TEXT
  5
433
330
71
100
AcDbEntity
  8
1
 62
     7
100
AcDbText
 10
-195.5148923076841
 20
-243.7000000000051
 30
0.0
 40
2.5
  1
00
 41
0.81
  7
CONVERTER_12
100
AcDbText
  0
TEXT
  5
434
330
71
100
AcDbEntity
  8
1
 62
     3
100
AcDbText
 10
-157.918408281667
 20
-243.7000000000051
 30
0.0
 40
2.5
  1
14.12.2017
 41
0.81
  7
CONVERTER_12
100
AcDbText
  0
MTEXT
  5
435
330
71
100
AcDbEntity
  8
1
 62
     2
100
AcDbMText
 10
-157.918408281667
 20
-237.5000000000051
 30
0.0
 40
1.8
 41
0.0
 71
     1
 72
     1
  1
date
  7
CONVERTER_11
 73
     1
 44
1.32052821128451
  0
MTEXT
  5
436
330
71
100
AcDbEntity
  8
1
 62
     2
100
AcDbMText
 10
-187.7448045267399
 20
-246.0000000000051
 30
0.0
 40
1.8
 41
0.0
 71
     1
 72
     1
  1
document-type
  7
CONVERTER_11
 73
     1
 44
1.20048019207683
  0
TEXT
  5
437
330
71
100
AcDbEntity
  8
1
 62
     3
100
AcDbText
 10
-187.7448045267399
 20
-252.2000000000051
 30
0.0
 40
2.5
  1
TECDOC 2D_Productdrawing
 41
0.81
  7
CONVERTER_12
100
AcDbText
  0
MTEXT
  5
439
330
71
100
AcDbEntity
  8
1
 62
     2
100
AcDbMText
 10
-215.5448045267399
 20
-237.500000000005
 30
0.0
 40
1.8
 41
0.0
 71
     1
 72
     1
  1
document-No. / RI
  7
CONVERTER_13
 73
     1
 44
1.32052821128451
  0
TEXT
  5
43A
330
71
100
AcDbEntity
  8
1
 62
     7
100
AcDbText
 10
-215.5448045267399
 20
-243.7000000000051
 30
0.0
 40
2.5
  1
01094067
 41
0.81
  7
CONVERTER_12
100
AcDbText
  0
MTEXT
  5
43C
330
71
100
AcDbEntity
  8
1
 62
     3
100
AcDbMText
 10
-127.9592041408276
 20
-243.7000000000049
 30
0.0
 40
2.5
 41
0.0
 71
     8
 72
     1
  1
1:1
  7
CONVERTER_14
 73
     1
 44
1.32052821128451
  0
MTEXT
  5
43D
330
71
100
AcDbEntity
  8
1
 62
     2
100
AcDbMText
 10
-131.3184082816672
 20
-237.500000000005
 30
0.0
 40
1.8
 41
0.0
 71
     1
 72
     1
  1
scale
  7
CONVERTER_11
 73
     1
 44
1.20048019207683
  0
MTEXT
  5
43E
330
71
100
AcDbEntity
  8
1
 62
     2
100
AcDbMText
 10
-215.5448045267399
 20
-246.000000000005
 30
0.0
 40
1.8
 41
0.0
 71
     1
 72
     1
  1
ident.-No.
  7
CONVERTER_11
 73
     1
 44
1.20048019207683
  0
TEXT
  5
43F
330
71
100
AcDbEntity
  8
1
 62
     7
100
AcDbText
 10
-215.1448045267402
 20
-252.2000000000051
 30
0.0
 40
2.5
  1
0790404
 41
0.81
  7
CONVERTER_12
100
AcDbText
  0
MTEXT
  5
440
330
71
100
AcDbEntity
  8
1
 62
     2
100
AcDbMText
 10
-287.4828192517874
 20
-249.2500000000051
 30
0.0
 40
2.0
 41
0.0
 71
     5
 72
     1
  1
General Information\P- Simplified representation\P- Document excluded from change process\P- Linear dimensions [mm]
  7
CONVERTER_11
 73
     1
 44
1.20048019207683
  0
MTEXT
  5
441
330
71
100
AcDbEntity
  8
1
 62
     7
100
AcDbMText
 10
-120.9999999999909
 20
-187.0000000000031
 30
0.0
 40
3.5
 41
0.0
 71
     5
 72
     1
  1
C
  7
CONVERTER_11
 73
     1
 44
1.20048019207683
  0
MTEXT
  5
442
330
71
100
AcDbEntity
  8
1
 62
     7
100
AcDbMText
 10
-120.9999999999909
 20
-84.500000000005
 30
0.0
 40
3.5
 41
0.0
 71
     5
 72
     1
  1
A
  7
CONVERTER_11
 73
     1
 44
1.20048019207683
  0
MTEXT
  5
443
330
71
100
AcDbEntity
  8
1
 62
     7
100
AcDbMText
 10
-120.9999999999909
 20
-137.0000000000031
 30
0.0
 40
3.5
 41
0.0
 71
     5
 72
     1
  1
B
  7
CONVERTER_11
 73
     1
 44
1.20048019207683
  0
MTEXT
  5
444
330
71
100
AcDbEntity
  8
1
 62
     7
100
AcDbMText
 10
-120.9999999999909
 20
-239.500000000005
 30
0.0
 40
3.5
 41
0.0
 71
     5
 72
     1
  1
D
  7
CONVERTER_11
 73
     1
 44
1.20048019207683
  0
MTEXT
  5
445
330
71
100
AcDbEntity
  8
1
 62
     7
100
AcDbMText
 10
-391.2499999999895
 20
-264.5000000000051
 30
0.0
 40
3.5
 41
0.0
 71
     5
 72
     1
  1
1
  7
CONVERTER_11
 73
     1
 44
1.20048019207683
  0
MTEXT
  5
446
330
71
100
AcDbEntity
  8
1
 62
     7
100
AcDbMText
 10
-341.9999999999899
 20
-264.5000000000051
 30
0.0
 40
3.5
 41
0.0
 71
     5
 72
     1
  1
2
  7
CONVERTER_11
 73
     1
 44
1.20048019207683
  0
MTEXT
  5
447
330
71
100
AcDbEntity
  8
1
 62
     7
100
AcDbMText
 10
-291.9999999999899
 20
-264.5000000000051
 30
0.0
 40
3.5
 41
0.0
 71
     5
 72
     1
  1
3
  7
CONVERTER_11
 73
     1
 44
1.20048019207683
  0
MTEXT
  5
448
330
71
100
AcDbEntity
  8
1
 62
     7
100
AcDbMText
 10
-241.99999999999
 20
-264.5000000000051
 30
0.0
 40
3.5
 41
0.0
 71
     5
 72
     1
  1
4
  7
CONVERTER_11
 73
     1
 44
1.20048019207683
  0
MTEXT
  5
449
330
71
100
AcDbEntity
  8
1
 62
     7
100
AcDbMText
 10
-191.9999999999899
 20
-264.5000000000051
 30
0.0
 40
3.5
 41
0.0
 71
     5
 72
     1
  1
5
  7
CONVERTER_11
 73
     1
 44
1.20048019207683
  0
MTEXT
  5
44A
330
71
100
AcDbEntity
  8
1
 62
     7
100
AcDbMText
 10
-142.7499999999907
 20
-264.5000000000051
 30
0.0
 40
3.5
 41
0.0
 71
     5
 72
     1
  1
6
  7
CONVERTER_11
 73
     1
 44
1.20048019207683
  0
MTEXT
  5
44B
330
71
100
AcDbEntity
  8
1
 62
     7
100
AcDbMText
 10
-412.999999999989
 20
-84.500000000005
 30
0.0
 40
3.5
 41
0.0
 71
     5
 72
     1
  1
A
  7
CONVERTER_11
 73
     1
 44
1.20048019207683
  0
MTEXT
  5
44C
330
71
100
AcDbEntity
  8
1
 62
     7
100
AcDbMText
 10
-412.999999999989
 20
-137.000000000005
 30
0.0
 40
3.5
 41
0.0
 71
     5
 72
     1
  1
B
  7
CONVERTER_11
 73
     1
 44
1.20048019207683
  0
MTEXT
  5
44D
330
71
100
AcDbEntity
  8
1
 62
     7
100
AcDbMText
 10
-412.999999999989
 20
-187.000000000005
 30
0.0
 40
3.5
 41
0.0
 71
     5
 72
     1
  1
C
  7
CONVERTER_11
 73
     1
 44
1.20048019207683
  0
MTEXT
  5
44E
330
71
100
AcDbEntity
  8
1
 62
     7
100
AcDbMText
 10
-412.999999999989
 20
-239.500000000005
 30
0.0
 40
3.5
 41
0.0
 71
     5
 72
     1
  1
D
  7
CONVERTER_11
 73
     1
 44
1.20048019207683
  0
MTEXT
  5
44F
330
71
100
AcDbEntity
  8
1
 62
     3
100
AcDbMText
 10
-226.84480452674
 20
-240.875000000005
 30
0.0
 40
2.5
 41
0.0
 71
     5
 72
     1
  1
DIN A4
  7
CONVERTER_11
 73
     1
 44
1.20048019207683
  0
MTEXT
  5
450
330
71
100
AcDbEntity
  8
1
 62
     2
100
AcDbMText
 10
-215.64480452674
 20
-254.500000000005
 30
0.0
 40
1.8
 41
0.0
 71
     1
 72
     1
  1
description
  7
CONVERTER_11
 73
     1
 44
1.20048019207683
  0
MTEXT
  5
451
330
71
100
AcDbEntity
  8
1
 62
     7
100
AcDbMText
 10
-170.0724022633644
 20
-258.7500000000048
 30
0.0
 40
3.0
 41
0.0
 71
     5
 72
     1
  1
OTTA  6-P/P
  7
CONVERTER_12
 73
     1
 44
1.20048019207683
  0
TEXT
  5
452
330
71
100
AcDbEntity
  8
1
 62
     2
100
AcDbText
 10
-228.6094957169264
 20
-260.7500000000051
 30
0.0
 40
1.8
  1
1
 41
0.9
  7
CONVERTER_11
100
AcDbText
  0
TEXT
  5
453
330
71
100
AcDbEntity
  8
1
 62
     2
100
AcDbText
 10
-243.3985395563979
 20
-260.799248653807
 30
0.0
 40
1.8
  1
1
 41
0.9
  7
CONVERTER_11
100
AcDbText
  0
TEXT
  5
454
330
71
100
AcDbEntity
  8
1
 62
     2
100
AcDbText
 10
-252.0448045267399
 20
-260.7590172149967
 30
0.0
 40
1.8
  1
page
 41
0.9
  7
CONVERTER_11
100
AcDbText
  0
TEXT
  5
455
330
71
100
AcDbEntity
  8
1
 62
     2
100
AcDbText
 10
-233.8448045267401
 20
-260.7590172149966
 30
0.0
 40
1.8
  1
of
 41
0.9
  7
CONVERTER_11
100
AcDbText
  0
MTEXT
  5
456
330
71
100
AcDbEntity
  8
1
 62
     3
100
AcDbMText
 10
-227.64182237513
 20
-75.20869184470621
 30
0.0
 40
1.8
 41
0.0
 71
     7
 72
     1
  3
Transfer or duplication of this document as well as the utilisation or\Pcommunication of its content are not permitted unless express consent\Pis granted. Violations give rise to claims for damages. All rights reserved\Pin case of patent, utility mo
  1
del or design patent registrations.
  7
CONVERTER_11
 73
     1
 44
0.99639855942377
  0
MTEXT
  5
457
330
71
100
AcDbEntity
  8
1
 62
     3
100
AcDbMText
 10
-410.4949322139181
 20
-75.20869184470621
 30
0.0
 40
1.8
 41
0.0
 71
     7
 72
     1
  3
Weitergabe sowie Vervielf\U+00e4ltigung dieses Dokuments, Verwertung und \PMitteilung seines Inhalts sind verboten, soweit nicht ausdr\U+00fccklich gestattet. \PZuwiderhandlungen verpflichten zu Schadenersatz. Alle Rechte f\U+00fcr den Fall\Pder Pat
  1
ent-, Gebrauchsmuster- oder Designeintragung vorbehalten.
  7
CONVERTER_11
 73
     1
 44
0.99639855942377
  0
HATCH
  5
458
330
71
100
AcDbEntity
  8
1
  6
Continuous
 62
     2
100
AcDbHatch
 10
0.0
 20
0.0
 30
0.0
210
0.0
220
0.0
230
1.0
  2
_USER
 70
     0
 71
     1
 91
        1
 92
        1
 93
       14
 72
     2
 10
-240.8035752508172
 20
-253.1795952380834
 40
1.205656168390944
 50
164.9381082228765
 51
195.0618917770948
 73
     1
 72
     2
 10
-240.3844474073544
 20
-253.0668048760486
 40
1.639695123939387
 50
195.0618917770896
 51
275.1581447696395
 73
     1
 72
     2
 10
-240.6733035020903
 20
-249.866914292827
 40
4.852596863498138
 50
275.1581447696249
 51
285.9799912583529
 73
     1
 72
     1
 10
-239.3373755849725
 20
-254.5319965986278
 11
-239.3373755849725
 21
-253.6594795918246
 72
     2
 10
-240.5154306269974
 20
-251.7691288726747
 40
2.227384008972737
 50
58.0690910500407
 51
71.55192388186722
 73
     0
 72
     2
 10
-240.0972628933366
 20
-253.0226746487119
 40
0.9059297849849192
 50
71.55192388184153
 51
113.372277888129
 73
     0
 72
     2
 10
-240.2537029260386
 20
-253.3846666674219
 40
0.5115800601948034
 50
113.3722778881726
 51
151.4785267423044
 73
     0
 72
     2
 10
-239.8763456679583
 20
-253.1795952380834
 40
0.9410597353332545
 50
151.4785267422943
 51
208.5214732577331
 73
     0
 72
     2
 10
-240.2537029260386
 20
-252.9745238087444
 40
0.5115800601948779
 50
208.5214732576956
 51
246.6277221118009
 73
     0
 72
     2
 10
-240.0972628933366
 20
-253.336515827455
 40
0.9059297849853228
 50
246.627722111871
 51
288.4480761181465
 73
     0
 72
     2
 10
-240.5154306269974
 20
-254.5900616034916
 40
2.227384008973478
 50
288.4480761181328
 51
301.9309089499592
 73
     0
 72
     1
 10
-239.3373755849725
 20
-252.6997108843417
 11
-239.3373755849725
 21
-251.8271938775384
 72
     2
 10
-240.6733035020903
 20
-256.4922761833393
 40
4.852596863498068
 50
74.02000874164739
 51
84.84185523037506
 73
     1
 72
     2
 10
-240.3844474073544
 20
-253.2923856001183
 40
1.639695123940507
 50
84.84185523036236
 51
164.9381082228864
 73
     1
 97
       14
330
42D
330
346
330
3FC
330
42C
330
3FD
330
3FE
330
42B
330
42A
330
429
330
347
330
3FF
330
400
330
401
330
402
 75
     1
 76
     0
 52
45.0
 41
0.1
 77
     0
 78
     1
 53
45.0
 43
0.0
 44
0.0
 45
-0.0707106781186548
 46
0.0707106781186548
 79
     0
 98
        1
 10
0.0
 20
0.0
  0
HATCH
  5
459
330
71
100
AcDbEntity
  8
1
  6
Continuous
 62
     2
100
AcDbHatch
 10
0.0
 20
0.0
 30
0.0
210
0.0
220
0.0
230
1.0
  2
_USER
 70
     0
 71
     1
 91
        1
 92
        1
 93
       14
 72
     2
 10
-240.8035752508172
 20
-253.1795952380834
 40
1.205656168390944
 50
164.9381082228765
 51
195.0618917770948
 73
     1
 72
     2
 10
-240.3844474073544
 20
-253.0668048760486
 40
1.639695123939387
 50
195.0618917770896
 51
275.1581447696395
 73
     1
 72
     2
 10
-240.6733035020903
 20
-249.866914292827
 40
4.852596863498138
 50
275.1581447696249
 51
285.9799912583529
 73
     1
 72
     1
 10
-239.3373755849725
 20
-254.5319965986278
 11
-239.3373755849725
 21
-253.6594795918246
 72
     2
 10
-240.5154306269974
 20
-251.7691288726747
 40
2.227384008972737
 50
58.0690910500407
 51
71.55192388186722
 73
     0
 72
     2
 10
-240.0972628933366
 20
-253.0226746487119
 40
0.9059297849849192
 50
71.55192388184153
 51
113.372277888129
 73
     0
 72
     2
 10
-240.2537029260386
 20
-253.3846666674219
 40
0.5115800601948034
 50
113.3722778881726
 51
151.4785267423044
 73
     0
 72
     2
 10
-239.8763456679583
 20
-253.1795952380834
 40
0.9410597353332545
 50
151.4785267422943
 51
208.5214732577331
 73
     0
 72
     2
 10
-240.2537029260386
 20
-252.9745238087444
 40
0.5115800601948779
 50
208.5214732576956
 51
246.6277221118009
 73
     0
 72
     2
 10
-240.0972628933366
 20
-253.336515827455
 40
0.9059297849853228
 50
246.627722111871
 51
288.4480761181465
 73
     0
 72
     2
 10
-240.5154306269974
 20
-254.5900616034916
 40
2.227384008973478
 50
288.4480761181328
 51
301.9309089499592
 73
     0
 72
     1
 10
-239.3373755849725
 20
-252.6997108843417
 11
-239.3373755849725
 21
-251.8271938775384
 72
     2
 10
-240.6733035020903
 20
-256.4922761833393
 40
4.852596863498068
 50
74.02000874164739
 51
84.84185523037506
 73
     1
 72
     2
 10
-240.3844474073544
 20
-253.2923856001183
 40
1.639695123940507
 50
84.84185523036236
 51
164.9381082228864
 73
     1
 97
       14
330
42D
330
346
330
3FC
330
42C
330
3FD
330
3FE
330
42B
330
42A
330
429
330
347
330
3FF
330
400
330
401
330
402
 75
     1
 76
     0
 52
45.0
 41
0.1
 77
     0
 78
     1
 53
45.0
 43
0.0
 44
0.0
 45
-0.0707106781186548
 46
0.0707106781186548
 79
     0
 98
        1
 10
0.0
 20
0.0
  0
HATCH
  5
45A
330
71
100
AcDbEntity
  8
1
  6
Continuous
 62
     2
100
AcDbHatch
 10
0.0
 20
0.0
 30
0.0
210
0.0
220
0.0
230
1.0
  2
_USER
 70
     0
 71
     1
 91
        1
 92
        1
 93
       18
 72
     2
 10
-224.2817459281015
 20
-253.2923856001183
 40
1.639695123940214
 50
90.0
 51
164.938108222895
 73
     1
 72
     2
 10
-224.7008737715631
 20
-253.1795952380834
 40
1.205656168393002
 50
164.9381082229028
 51
195.0618917770959
 73
     1
 72
     2
 10
-224.2817459281015
 20
-253.0668048760486
 40
1.639695123940448
 50
195.0618917771012
 51
275.1581447696762
 73
     1
 72
     2
 10
-224.5706020228373
 20
-249.866914292827
 40
4.852596863498825
 50
275.1581447696364
 51
285.9799912583387
 73
     1
 72
     1
 10
-223.2346741057206
 20
-254.5319965986284
 11
-223.2346741057206
 21
-253.6594795918251
 72
     2
 10
-224.4127291477445
 20
-251.7691288726753
 40
2.227384008972746
 50
58.06909105006029
 51
71.55192388186651
 73
     0
 72
     2
 10
-223.9945614140826
 20
-253.0226746487119
 40
0.9059297849852801
 50
71.55192388191827
 51
113.3722778881817
 73
     0
 72
     2
 10
-224.1510014467857
 20
-253.3846666674219
 40
0.5115800601960215
 50
113.3722778881551
 51
151.4785267423134
 73
     0
 72
     2
 10
-223.7736441887043
 20
-253.1795952380834
 40
0.9410597353348924
 50
151.4785267423305
 51
208.5214732576376
 73
     0
 72
     2
 10
-224.1510014467857
 20
-252.9745238087444
 40
0.5115800601944143
 50
208.5214732575775
 51
250.6628567805147
 73
     0
 72
     2
 10
-224.004331448682
 20
-253.3924787891273
 40
0.9545230068260935
 50
250.662856780568
 51
270.0
 73
     0
 72
     1
 10
-224.004331448682
 20
-252.4379557823012
 11
-222.9006921491139
 21
-252.4379557823012
 72
     1
 10
-222.9006921491139
 20
-252.4379557823012
 11
-222.9006921491139
 21
-254.7064999999887
 72
     1
 10
-222.9006921491139
 20
-254.7064999999887
 11
-221.7078994469462
 21
-254.7064999999887
 72
     1
 10
-221.7078994469462
 20
-254.7064999999887
 11
-221.7078994469462
 21
-252.4379557823012
 72
     1
 10
-221.7078994469462
 20
-252.4379557823012
 11
-220.8968004094728
 21
-252.4379557823012
 72
     1
 10
-220.8968004094728
 20
-252.4379557823012
 11
-220.8968004094728
 21
-251.6526904761776
 72
     1
 10
-220.8968004094728
 20
-251.6526904761776
 11
-224.2817459281015
 21
-251.6526904761781
 97
       18
330
3AC
330
3AB
330
3AA
330
3A9
330
3AE
330
348
330
426
330
407
330
425
330
408
330
424
330
423
330
349
330
422
330
421
330
409
330
40A
330
3AD
 75
     1
 76
     0
 52
45.0
 41
0.1
 77
     0
 78
     1
 53
45.0
 43
0.0
 44
0.0
 45
-0.0707106781186548
 46
0.0707106781186548
 79
     0
 98
        1
 10
0.0
 20
0.0
  0
HATCH
  5
45B
330
71
100
AcDbEntity
  8
1
  6
Continuous
 62
     2
100
AcDbHatch
 10
0.0
 20
0.0
 30
0.0
210
0.0
220
0.0
230
1.0
  2
_USER
 70
     0
 71
     1
 91
        1
 92
        1
 93
       18
 72
     2
 10
-224.2817459281015
 20
-253.2923856001183
 40
1.639695123940214
 50
90.0
 51
164.938108222895
 73
     1
 72
     2
 10
-224.7008737715631
 20
-253.1795952380834
 40
1.205656168393002
 50
164.9381082229028
 51
195.0618917770959
 73
     1
 72
     2
 10
-224.2817459281015
 20
-253.0668048760486
 40
1.639695123940448
 50
195.0618917771012
 51
275.1581447696762
 73
     1
 72
     2
 10
-224.5706020228373
 20
-249.866914292827
 40
4.852596863498825
 50
275.1581447696364
 51
285.9799912583387
 73
     1
 72
     1
 10
-223.2346741057206
 20
-254.5319965986284
 11
-223.2346741057206
 21
-253.6594795918251
 72
     2
 10
-224.4127291477445
 20
-251.7691288726753
 40
2.227384008972746
 50
58.06909105006029
 51
71.55192388186651
 73
     0
 72
     2
 10
-223.9945614140826
 20
-253.0226746487119
 40
0.9059297849852801
 50
71.55192388191827
 51
113.3722778881817
 73
     0
 72
     2
 10
-224.1510014467857
 20
-253.3846666674219
 40
0.5115800601960215
 50
113.3722778881551
 51
151.4785267423134
 73
     0
 72
     2
 10
-223.7736441887043
 20
-253.1795952380834
 40
0.9410597353348924
 50
151.4785267423305
 51
208.5214732576376
 73
     0
 72
     2
 10
-224.1510014467857
 20
-252.9745238087444
 40
0.5115800601944143
 50
208.5214732575775
 51
250.6628567805147
 73
     0
 72
     2
 10
-224.004331448682
 20
-253.3924787891273
 40
0.9545230068260935
 50
250.662856780568
 51
270.0
 73
     0
 72
     1
 10
-224.004331448682
 20
-252.4379557823012
 11
-222.9006921491139
 21
-252.4379557823012
 72
     1
 10
-222.9006921491139
 20
-252.4379557823012
 11
-222.9006921491139
 21
-254.7064999999887
 72
     1
 10
-222.9006921491139
 20
-254.7064999999887
 11
-221.7078994469462
 21
-254.7064999999887
 72
     1
 10
-221.7078994469462
 20
-254.7064999999887
 11
-221.7078994469462
 21
-252.4379557823012
 72
     1
 10
-221.7078994469462
 20
-252.4379557823012
 11
-220.8968004094728
 21
-252.4379557823012
 72
     1
 10
-220.8968004094728
 20
-252.4379557823012
 11
-220.8968004094728
 21
-251.6526904761776
 72
     1
 10
-220.8968004094728
 20
-251.6526904761776
 11
-224.2817459281015
 21
-251.6526904761781
 97
       18
330
3AC
330
3AB
330
3AA
330
3A9
330
3AE
330
348
330
426
330
407
330
425
330
408
330
424
330
423
330
349
330
422
330
421
330
409
330
40A
330
3AD
 75
     1
 76
     0
 52
45.0
 41
0.1
 77
     0
 78
     1
 53
45.0
 43
0.0
 44
0.0
 45
-0.0707106781186548
 46
0.0707106781186548
 79
     0
 98
        1
 10
0.0
 20
0.0
  0
HATCH
  5
45C
330
71
100
AcDbEntity
  8
1
  6
Continuous
 62
     2
100
AcDbHatch
 10
0.0
 20
0.0
 30
0.0
210
0.0
220
0.0
230
1.0
  2
_USER
 70
     0
 71
     1
 91
        4
 92
        1
 93
        8
 72
     2
 10
-248.3839050247945
 20
-248.7177446154052
 40
0.4242446153837989
 50
90.0
 51
180.0
 73
     1
 72
     1
 10
-248.8081496401773
 20
-248.7177446154052
 11
-248.8081496401773
 21
-254.2822553846054
 72
     2
 10
-248.3839050247945
 20
-254.2822553846054
 40
0.4242446153828041
 50
180.0
 51
270.0
 73
     1
 72
     1
 10
-248.3839050247945
 20
-254.7064999999887
 11
-242.9105929340777
 21
-254.7064999999887
 72
     2
 10
-242.9105929340777
 20
-254.2822553846054
 40
0.4242446153832873
 50
270.0
 51
360.0
 73
     1
 72
     1
 10
-242.4863483186938
 20
-254.2822553846054
 11
-242.4863483186938
 21
-248.7177446154052
 72
     2
 10
-242.9105929340777
 20
-248.7177446154052
 40
0.4242446153838841
 50
0.0
 51
90.0
 73
     1
 72
     1
 10
-242.9105929340777
 20
-248.2935000000214
 11
-248.3839050247945
 21
-248.2935000000214
 97
        8
330
41A
330
377
330
419
330
378
330
410
330
375
330
41B
330
376
 92
       16
 93
        1
 72
     2
 10
-245.764319374277
 20
-251.0366268437607
 40
0.4709789327785074
 50
0.0
 51
360.0
 73
     1
 97
        1
330
42E
 92
       16
 93
        8
 72
     2
 10
-245.7405043596042
 20
-251.0366268437607
 40
0.911848150144459
 50
295.3740086781764
 51
424.6259913218075
 73
     1
 72
     2
 10
-245.2144616615163
 20
-249.9274852437929
 40
0.315716923076792
 50
115.3740086783518
 51
180.0
 73
     0
 72
     1
 10
-245.5301785845931
 20
-249.9274852437929
 11
-245.5301785845931
 21
-249.3219499552861
 72
     2
 10
-245.2144616615163
 20
-249.3219499552861
 40
0.3157169230760711
 50
180.0
 51
269.8110329574541
 73
     0
 72
     2
 10
-245.2088455262063
 20
-251.0247849028552
 40
2.018561131933266
 50
269.8110329575858
 51
450.1889670424142
 73
     0
 72
     2
 10
-245.2144616615163
 20
-252.7276198504242
 40
0.315716923076792
 50
90.18896704254585
 51
180.0
 73
     0
 72
     1
 10
-245.5301785845931
 20
-252.7276198504242
 11
-245.5301785845931
 21
-252.1457684437291
 72
     2
 10
-245.2144616615163
 20
-252.1457684437291
 40
0.3157169230765328
 50
180.0
 51
244.6259913216482
 73
     0
 97
        8
330
428
330
404
330
3B0
330
427
330
405
330
406
330
3AF
330
403
 92
       16
 93
       12
 72
     1
 10
-247.790010348048
 20
-253.9939444444318
 11
-246.3141770870384
 21
-253.9939444444318
 72
     2
 10
-246.3141770870384
 20
-253.6782275213551
 40
0.3157169230767067
 50
270.0
 51
360.0
 73
     1
 72
     1
 10
-245.9984601639618
 20
-253.6782275213551
 11
-245.9984601639618
 21
-252.1474565898235
 72
     2
 10
-246.3141770870384
 20
-252.1474565898235
 40
0.315716923076593
 50
0.0
 51
64.80558935146027
 73
     1
 72
     2
 10
-245.7915926394634
 20
-251.0366268437607
 40
0.9118975235576147
 50
115.1944106485122
 51
244.8055893514718
 73
     0
 72
     2
 10
-246.3141770870384
 20
-249.9257970976985
 40
0.3157169230761203
 50
295.1944106485397
 51
360.0
 73
     1
 72
     1
 10
-245.9984601639618
 20
-249.9257970976985
 11
-245.9984601639618
 21
-249.321772478638
 72
     2
 10
-246.3141770870384
 20
-249.321772478638
 40
0.315716923076593
 50
0.0
 51
90.0
 73
     1
 72
     1
 10
-246.3141770870384
 20
-249.0060555555618
 11
-247.790010348048
 21
-249.0060555555618
 72
     2
 10
-247.790010348048
 20
-249.321772478638
 40
0.3157169230761951
 50
90.0
 51
180.0
 73
     1
 72
     1
 10
-248.1057272711237
 20
-249.321772478638
 11
-248.1057272711237
 21
-253.6782275213551
 72
     2
 10
-247.790010348048
 20
-253.6782275213551
 40
0.3157169230756836
 50
180.0
 51
270.0
 73
     1
 97
       12
330
37C
330
40D
330
37B
330
41E
330
37A
330
41D
330
40E
330
40F
330
379
330
41C
330
374
330
41F
 75
     1
 76
     0
 52
45.0
 41
0.1
 77
     0
 78
     1
 53
45.0
 43
0.0
 44
0.0
 45
-0.0707106781186548
 46
0.0707106781186548
 79
     0
 98
        1
 10
0.0
 20
0.0
  0
HATCH
  5
45D
330
71
100
AcDbEntity
  8
1
  6
Continuous
 62
     2
100
AcDbHatch
 10
0.0
 20
0.0
 30
0.0
210
0.0
220
0.0
230
1.0
  2
_USER
 70
     0
 71
     1
 91
        4
 92
        1
 93
        8
 72
     2
 10
-248.3839050247945
 20
-248.7177446154052
 40
0.4242446153837989
 50
90.0
 51
180.0
 73
     1
 72
     1
 10
-248.8081496401773
 20
-248.7177446154052
 11
-248.8081496401773
 21
-254.2822553846054
 72
     2
 10
-248.3839050247945
 20
-254.2822553846054
 40
0.4242446153828041
 50
180.0
 51
270.0
 73
     1
 72
     1
 10
-248.3839050247945
 20
-254.7064999999887
 11
-242.9105929340777
 21
-254.7064999999887
 72
     2
 10
-242.9105929340777
 20
-254.2822553846054
 40
0.4242446153832873
 50
270.0
 51
360.0
 73
     1
 72
     1
 10
-242.4863483186938
 20
-254.2822553846054
 11
-242.4863483186938
 21
-248.7177446154052
 72
     2
 10
-242.9105929340777
 20
-248.7177446154052
 40
0.4242446153838841
 50
0.0
 51
90.0
 73
     1
 72
     1
 10
-242.9105929340777
 20
-248.2935000000214
 11
-248.3839050247945
 21
-248.2935000000214
 97
        8
330
41A
330
377
330
419
330
378
330
410
330
375
330
41B
330
376
 92
       16
 93
        1
 72
     2
 10
-245.764319374277
 20
-251.0366268437607
 40
0.4709789327785074
 50
0.0
 51
360.0
 73
     1
 97
        1
330
42E
 92
       16
 93
        8
 72
     2
 10
-245.7405043596042
 20
-251.0366268437607
 40
0.911848150144459
 50
295.3740086781764
 51
424.6259913218075
 73
     1
 72
     2
 10
-245.2144616615163
 20
-249.9274852437929
 40
0.315716923076792
 50
115.3740086783518
 51
180.0
 73
     0
 72
     1
 10
-245.5301785845931
 20
-249.9274852437929
 11
-245.5301785845931
 21
-249.3219499552861
 72
     2
 10
-245.2144616615163
 20
-249.3219499552861
 40
0.3157169230760711
 50
180.0
 51
269.8110329574541
 73
     0
 72
     2
 10
-245.2088455262063
 20
-251.0247849028552
 40
2.018561131933266
 50
269.8110329575858
 51
450.1889670424142
 73
     0
 72
     2
 10
-245.2144616615163
 20
-252.7276198504242
 40
0.315716923076792
 50
90.18896704254585
 51
180.0
 73
     0
 72
     1
 10
-245.5301785845931
 20
-252.7276198504242
 11
-245.5301785845931
 21
-252.1457684437291
 72
     2
 10
-245.2144616615163
 20
-252.1457684437291
 40
0.3157169230765328
 50
180.0
 51
244.6259913216482
 73
     0
 97
        8
330
428
330
404
330
3B0
330
427
330
405
330
406
330
3AF
330
403
 92
       16
 93
       12
 72
     1
 10
-247.790010348048
 20
-253.9939444444318
 11
-246.3141770870384
 21
-253.9939444444318
 72
     2
 10
-246.3141770870384
 20
-253.6782275213551
 40
0.3157169230767067
 50
270.0
 51
360.0
 73
     1
 72
     1
 10
-245.9984601639618
 20
-253.6782275213551
 11
-245.9984601639618
 21
-252.1474565898235
 72
     2
 10
-246.3141770870384
 20
-252.1474565898235
 40
0.315716923076593
 50
0.0
 51
64.80558935146027
 73
     1
 72
     2
 10
-245.7915926394634
 20
-251.0366268437607
 40
0.9118975235576147
 50
115.1944106485122
 51
244.8055893514718
 73
     0
 72
     2
 10
-246.3141770870384
 20
-249.9257970976985
 40
0.3157169230761203
 50
295.1944106485397
 51
360.0
 73
     1
 72
     1
 10
-245.9984601639618
 20
-249.9257970976985
 11
-245.9984601639618
 21
-249.321772478638
 72
     2
 10
-246.3141770870384
 20
-249.321772478638
 40
0.315716923076593
 50
0.0
 51
90.0
 73
     1
 72
     1
 10
-246.3141770870384
 20
-249.0060555555618
 11
-247.790010348048
 21
-249.0060555555618
 72
     2
 10
-247.790010348048
 20
-249.321772478638
 40
0.3157169230761951
 50
90.0
 51
180.0
 73
     1
 72
     1
 10
-248.1057272711237
 20
-249.321772478638
 11
-248.1057272711237
 21
-253.6782275213551
 72
     2
 10
-247.790010348048
 20
-253.6782275213551
 40
0.3157169230756836
 50
180.0
 51
270.0
 73
     1
 97
       12
330
37C
330
40D
330
37B
330
41E
330
37A
330
41D
330
40E
330
40F
330
379
330
41C
330
374
330
41F
 75
     1
 76
     0
 52
45.0
 41
0.1
 77
     0
 78
     1
 53
45.0
 43
0.0
 44
0.0
 45
-0.0707106781186548
 46
0.0707106781186548
 79
     0
 98
        1
 10
0.0
 20
0.0
  0
HATCH
  5
45E
330
71
100
AcDbEntity
  8
1
  6
Continuous
 62
     2
100
AcDbHatch
 10
0.0
 20
0.0
 30
0.0
210
0.0
220
0.0
230
1.0
  2
_USER
 70
     0
 71
     1
 91
        2
 92
        1
 93
       12
 72
     2
 10
-233.7087410208052
 20
-249.8204047619091
 40
1.526904761905882
 50
90.0
 51
270.0
 73
     1
 72
     1
 10
-233.7087410208052
 20
-251.3473095238144
 11
-230.5584212970242
 21
-251.3473095238144
 72
     1
 10
-230.5584212970242
 20
-251.3473095238144
 11
-230.5584212970242
 21
-250.6492959183719
 72
     1
 10
-230.5584212970242
 20
-250.6492959183719
 11
-231.8943491234519
 21
-250.6492959183719
 72
     1
 10
-231.8943491234519
 20
-250.6492959183719
 11
-231.8943491234519
 21
-250.1694115646302
 72
     1
 10
-231.8943491234519
 20
-250.1694115646302
 11
-230.5584212970242
 21
-250.1694115646302
 72
     1
 10
-230.5584212970242
 20
-250.1694115646302
 11
-230.5584212970242
 21
-249.4713979591879
 72
     1
 10
-230.5584212970242
 20
-249.4713979591879
 11
-231.8943491234519
 21
-249.4713979591879
 72
     1
 10
-231.8943491234519
 20
-249.4713979591879
 11
-231.8943491234519
 21
-248.9915136054462
 72
     1
 10
-231.8943491234519
 20
-248.9915136054462
 11
-230.5584212970242
 21
-248.9915136054462
 72
     1
 10
-230.5584212970242
 20
-248.9915136054462
 11
-230.5584212970242
 21
-248.2935000000032
 72
     1
 10
-230.5584212970242
 20
-248.2935000000032
 11
-233.7087410208052
 21
-248.2935000000032
 97
       12
330
36B
330
365
330
38C
330
38B
330
38A
330
389
330
366
330
367
330
368
330
369
330
40B
330
36A
 92
       16
 93
        4
 72
     2
 10
-233.2927289742937
 20
-249.8204047619091
 40
0.7717997786796724
 50
141.8795802028404
 51
218.1204197971562
 73
     1
 72
     2
 10
-233.49246901064
 20
-249.9771359400295
 40
0.5179085730134372
 50
218.1204197971511
 51
321.8795802028566
 73
     1
 72
     2
 10
-233.6922090469862
 20
-249.8204047619091
 40
0.7717997786796373
 50
321.8795802028437
 51
398.1204197971596
 73
     1
 72
     2
 10
-233.49246901064
 20
-249.6636735837886
 40
0.5179085730135266
 50
38.12041979714334
 51
141.8795802028489
 73
     1
 97
        4
330
418
330
417
330
412
330
411
 75
     1
 76
     0
 52
45.0
 41
0.1
 77
     0
 78
     1
 53
45.0
 43
0.0
 44
0.0
 45
-0.0707106781186548
 46
0.0707106781186548
 79
     0
 98
        1
 10
0.0
 20
0.0
  0
HATCH
  5
45F
330
71
100
AcDbEntity
  8
1
  6
Continuous
 62
     2
100
AcDbHatch
 10
0.0
 20
0.0
 30
0.0
210
0.0
220
0.0
230
1.0
  2
_USER
 70
     0
 71
     1
 91
        2
 92
        1
 93
       12
 72
     2
 10
-233.7087410208052
 20
-249.8204047619091
 40
1.526904761905882
 50
90.0
 51
270.0
 73
     1
 72
     1
 10
-233.7087410208052
 20
-251.3473095238144
 11
-230.5584212970242
 21
-251.3473095238144
 72
     1
 10
-230.5584212970242
 20
-251.3473095238144
 11
-230.5584212970242
 21
-250.6492959183719
 72
     1
 10
-230.5584212970242
 20
-250.6492959183719
 11
-231.8943491234519
 21
-250.6492959183719
 72
     1
 10
-231.8943491234519
 20
-250.6492959183719
 11
-231.8943491234519
 21
-250.1694115646302
 72
     1
 10
-231.8943491234519
 20
-250.1694115646302
 11
-230.5584212970242
 21
-250.1694115646302
 72
     1
 10
-230.5584212970242
 20
-250.1694115646302
 11
-230.5584212970242
 21
-249.4713979591879
 72
     1
 10
-230.5584212970242
 20
-249.4713979591879
 11
-231.8943491234519
 21
-249.4713979591879
 72
     1
 10
-231.8943491234519
 20
-249.4713979591879
 11
-231.8943491234519
 21
-248.9915136054462
 72
     1
 10
-231.8943491234519
 20
-248.9915136054462
 11
-230.5584212970242
 21
-248.9915136054462
 72
     1
 10
-230.5584212970242
 20
-248.9915136054462
 11
-230.5584212970242
 21
-248.2935000000032
 72
     1
 10
-230.5584212970242
 20
-248.2935000000032
 11
-233.7087410208052
 21
-248.2935000000032
 97
       12
330
36B
330
365
330
38C
330
38B
330
38A
330
389
330
366
330
367
330
368
330
369
330
40B
330
36A
 92
       16
 93
        4
 72
     2
 10
-233.2927289742937
 20
-249.8204047619091
 40
0.7717997786796724
 50
141.8795802028404
 51
218.1204197971562
 73
     1
 72
     2
 10
-233.49246901064
 20
-249.9771359400295
 40
0.5179085730134372
 50
218.1204197971511
 51
321.8795802028566
 73
     1
 72
     2
 10
-233.6922090469862
 20
-249.8204047619091
 40
0.7717997786796373
 50
321.8795802028437
 51
398.1204197971596
 73
     1
 72
     2
 10
-233.49246901064
 20
-249.6636735837886
 40
0.5179085730135266
 50
38.12041979714334
 51
141.8795802028489
 73
     1
 97
        4
330
418
330
417
330
412
330
411
 75
     1
 76
     0
 52
45.0
 41
0.1
 77
     0
 78
     1
 53
45.0
 43
0.0
 44
0.0
 45
-0.0707106781186548
 46
0.0707106781186548
 79
     0
 98
        1
 10
0.0
 20
0.0
  0
HATCH
  5
460
330
71
100
AcDbEntity
  8
1
  6
Continuous
 62
     2
100
AcDbHatch
 10
0.0
 20
0.0
 30
0.0
210
0.0
220
0.0
230
1.0
  2
_USER
 70
     0
 71
     1
 91
        2
 92
        1
 93
        4
 72
     2
 10
-237.7343563832668
 20
-253.1795952380834
 40
1.45803408365149
 50
117.5481481756624
 51
242.4518518243375
 73
     1
 72
     2
 10
-237.4534164914335
 20
-252.6410202277801
 40
2.065479772208509
 50
242.4518518243402
 51
297.5481481756871
 73
     1
 72
     2
 10
-237.1724765996002
 20
-253.1795952380834
 40
1.458034083652003
 50
297.548148175701
 51
422.451851824299
 73
     1
 72
     2
 10
-237.4534164914335
 20
-253.7181702483862
 40
2.065479772208568
 50
62.45185182430637
 51
117.5481481756664
 73
     1
 97
        4
330
416
330
413
330
415
330
414
 92
       16
 93
        4
 72
     2
 10
-237.4534164914335
 20
-253.0228640599629
 40
0.5179085730132998
 50
38.12041979714704
 51
141.8795802028588
 73
     1
 72
     2
 10
-237.2536764550874
 20
-253.1795952380834
 40
0.7717997786794633
 50
141.8795802028363
 51
218.1204197971687
 73
     1
 72
     2
 10
-237.4534164914335
 20
-253.3363264162034
 40
0.5179085730137354
 50
218.1204197971931
 51
321.879580202801
 73
     1
 72
     2
 10
-237.6531565277799
 20
-253.1795952380834
 40
0.7717997786796947
 50
321.8795802028417
 51
398.1204197971533
 73
     1
 97
        4
330
3F9
330
3FA
330
3FB
330
3F8
 75
     1
 76
     0
 52
45.0
 41
0.1
 77
     0
 78
     1
 53
45.0
 43
0.0
 44
0.0
 45
-0.0707106781186548
 46
0.0707106781186548
 79
     0
 98
        1
 10
0.0
 20
0.0
  0
HATCH
  5
461
330
71
100
AcDbEntity
  8
1
  6
Continuous
 62
     2
100
AcDbHatch
 10
0.0
 20
0.0
 30
0.0
210
0.0
220
0.0
230
1.0
  2
_USER
 70
     0
 71
     1
 91
        2
 92
        1
 93
        4
 72
     2
 10
-237.7343563832668
 20
-253.1795952380834
 40
1.45803408365149
 50
117.5481481756624
 51
242.4518518243375
 73
     1
 72
     2
 10
-237.4534164914335
 20
-252.6410202277801
 40
2.065479772208509
 50
242.4518518243402
 51
297.5481481756871
 73
     1
 72
     2
 10
-237.1724765996002
 20
-253.1795952380834
 40
1.458034083652003
 50
297.548148175701
 51
422.451851824299
 73
     1
 72
     2
 10
-237.4534164914335
 20
-253.7181702483862
 40
2.065479772208568
 50
62.45185182430637
 51
117.5481481756664
 73
     1
 97
        4
330
416
330
413
330
415
330
414
 92
       16
 93
        4
 72
     2
 10
-237.4534164914335
 20
-253.0228640599629
 40
0.5179085730132998
 50
38.12041979714704
 51
141.8795802028588
 73
     1
 72
     2
 10
-237.2536764550874
 20
-253.1795952380834
 40
0.7717997786794633
 50
141.8795802028363
 51
218.1204197971687
 73
     1
 72
     2
 10
-237.4534164914335
 20
-253.3363264162034
 40
0.5179085730137354
 50
218.1204197971931
 51
321.879580202801
 73
     1
 72
     2
 10
-237.6531565277799
 20
-253.1795952380834
 40
0.7717997786796947
 50
321.8795802028417
 51
398.1204197971533
 73
     1
 97
        4
330
3F9
330
3FA
330
3FB
330
3F8
 75
     1
 76
     0
 52
45.0
 41
0.1
 77
     0
 78
     1
 53
45.0
 43
0.0
 44
0.0
 45
-0.0707106781186548
 46
0.0707106781186548
 79
     0
 98
        1
 10
0.0
 20
0.0
  0
HATCH
  5
462
330
71
100
AcDbEntity
  8
1
  6
Continuous
 62
     2
100
AcDbHatch
 10
0.0
 20
0.0
 30
0.0
210
0.0
220
0.0
230
1.0
  2
_USER
 70
     0
 71
     1
 91
        2
 92
        1
 93
        6
 72
     1
 10
-242.009231237827
 20
-248.2935000000032
 11
-242.009231237827
 21
-251.3473095238144
 72
     1
 10
-242.009231237827
 20
-251.3473095238144
 11
-240.7687268275729
 21
-251.3473095238144
 72
     1
 10
-240.7687268275729
 20
-251.3473095238144
 11
-240.7687268275729
 21
-250.4042312826706
 72
     1
 10
-240.7687268275729
 20
-250.4042312826706
 11
-240.0099592397926
 21
-250.4042312826706
 72
     2
 10
-240.0099592397926
 20
-249.3488656413369
 40
1.055365641333708
 50
270.0
 51
450.0
 73
     1
 72
     1
 10
-240.0099592397926
 20
-248.2935000000032
 11
-242.009231237827
 21
-248.2935000000032
 97
        6
330
420
330
37D
330
373
330
372
330
37F
330
37E
 92
       16
 93
        4
 72
     1
 10
-240.451431766031
 20
-248.9566058454433
 11
-240.7687268275729
 21
-248.9566058454433
 72
     1
 10
-240.7687268275729
 20
-248.9566058454433
 11
-240.7687268275729
 21
-249.6623334947855
 72
     1
 10
-240.7687268275729
 20
-249.6623334947855
 11
-240.451431766031
 21
-249.6623334947855
 72
     2
 10
-240.451431766031
 20
-249.3094696701144
 40
0.3528638246711182
 50
270.0
 51
450.0
 73
     1
 97
        4
330
380
330
371
330
381
330
40C
 75
     1
 76
     0
 52
45.0
 41
0.1
 77
     0
 78
     1
 53
45.0
 43
0.0
 44
0.0
 45
-0.0707106781186548
 46
0.0707106781186548
 79
     0
 98
        1
 10
0.0
 20
0.0
  0
HATCH
  5
463
330
71
100
AcDbEntity
  8
1
  6
Continuous
 62
     2
100
AcDbHatch
 10
0.0
 20
0.0
 30
0.0
210
0.0
220
0.0
230
1.0
  2
_USER
 70
     0
 71
     1
 91
        2
 92
        1
 93
        6
 72
     1
 10
-242.009231237827
 20
-248.2935000000032
 11
-242.009231237827
 21
-251.3473095238144
 72
     1
 10
-242.009231237827
 20
-251.3473095238144
 11
-240.7687268275729
 21
-251.3473095238144
 72
     1
 10
-240.7687268275729
 20
-251.3473095238144
 11
-240.7687268275729
 21
-250.4042312826706
 72
     1
 10
-240.7687268275729
 20
-250.4042312826706
 11
-240.0099592397926
 21
-250.4042312826706
 72
     2
 10
-240.0099592397926
 20
-249.3488656413369
 40
1.055365641333708
 50
270.0
 51
450.0
 73
     1
 72
     1
 10
-240.0099592397926
 20
-248.2935000000032
 11
-242.009231237827
 21
-248.2935000000032
 97
        6
330
420
330
37D
330
373
330
372
330
37F
330
37E
 92
       16
 93
        4
 72
     1
 10
-240.451431766031
 20
-248.9566058454433
 11
-240.7687268275729
 21
-248.9566058454433
 72
     1
 10
-240.7687268275729
 20
-248.9566058454433
 11
-240.7687268275729
 21
-249.6623334947855
 72
     1
 10
-240.7687268275729
 20
-249.6623334947855
 11
-240.451431766031
 21
-249.6623334947855
 72
     2
 10
-240.451431766031
 20
-249.3094696701144
 40
0.3528638246711182
 50
270.0
 51
450.0
 73
     1
 97
        4
330
380
330
371
330
381
330
40C
 75
     1
 76
     0
 52
45.0
 41
0.1
 77
     0
 78
     1
 53
45.0
 43
0.0
 44
0.0
 45
-0.0707106781186548
 46
0.0707106781186548
 79
     0
 98
        1
 10
0.0
 20
0.0
  0
HATCH
  5
464
330
71
100
AcDbEntity
  8
1
  6
Continuous
 62
     2
100
AcDbHatch
 10
0.0
 20
0.0
 30
0.0
210
0.0
220
0.0
230
1.0
  2
_USER
 70
     0
 71
     1
 91
        1
 92
        1
 93
       12
 72
     1
 10
-222.3949480433938
 20
-248.2935000000032
 11
-220.9922238256466
 21
-248.2935000000032
 72
     1
 10
-220.9922238256466
 20
-248.2935000000032
 11
-222.2947534564131
 21
-249.7664505300394
 72
     1
 10
-222.2947534564131
 20
-249.7664505300394
 11
-220.8968004094728
 21
-251.3473095238144
 72
     1
 10
-220.8968004094728
 20
-251.3473095238144
 11
-222.2995246272211
 21
-251.3473095238144
 72
     1
 10
-222.2995246272211
 20
-251.3473095238144
 11
-222.9961155652866
 21
-250.5595777385207
 72
     1
 10
-222.9961155652866
 20
-250.5595777385207
 11
-223.6927065033523
 21
-251.3473095238144
 72
     1
 10
-223.6927065033523
 20
-251.3473095238144
 11
-225.0954307211005
 21
-251.3473095238144
 72
     1
 10
-225.0954307211005
 20
-251.3473095238144
 11
-223.6974776741602
 21
-249.7664505300394
 72
     1
 10
-223.6974776741602
 20
-249.7664505300394
 11
-225.0000073049277
 21
-248.2935000000032
 72
     1
 10
-225.0000073049277
 20
-248.2935000000032
 11
-223.5972830871784
 21
-248.2935000000032
 72
     1
 10
-223.5972830871784
 20
-248.2935000000032
 11
-222.9961155652866
 21
-248.9733233215587
 72
     1
 10
-222.9961155652866
 20
-248.9733233215587
 11
-222.3949480433938
 21
-248.2935000000032
 97
       12
330
34C
330
3A5
330
3A4
330
3A3
330
3A2
330
34D
330
34E
330
34A
330
34B
330
3A8
330
3A7
330
3A6
 75
     1
 76
     0
 52
45.0
 41
0.1
 77
     0
 78
     1
 53
45.0
 43
0.0
 44
0.0
 45
-0.0707106781186548
 46
0.0707106781186548
 79
     0
 98
        1
 10
0.0
 20
0.0
  0
HATCH
  5
465
330
71
100
AcDbEntity
  8
1
  6
Continuous
 62
     2
100
AcDbHatch
 10
0.0
 20
0.0
 30
0.0
210
0.0
220
0.0
230
1.0
  2
_USER
 70
     0
 71
     1
 91
        1
 92
        1
 93
       12
 72
     1
 10
-222.3949480433938
 20
-248.2935000000032
 11
-220.9922238256466
 21
-248.2935000000032
 72
     1
 10
-220.9922238256466
 20
-248.2935000000032
 11
-222.2947534564131
 21
-249.7664505300394
 72
     1
 10
-222.2947534564131
 20
-249.7664505300394
 11
-220.8968004094728
 21
-251.3473095238144
 72
     1
 10
-220.8968004094728
 20
-251.3473095238144
 11
-222.2995246272211
 21
-251.3473095238144
 72
     1
 10
-222.2995246272211
 20
-251.3473095238144
 11
-222.9961155652866
 21
-250.5595777385207
 72
     1
 10
-222.9961155652866
 20
-250.5595777385207
 11
-223.6927065033523
 21
-251.3473095238144
 72
     1
 10
-223.6927065033523
 20
-251.3473095238144
 11
-225.0954307211005
 21
-251.3473095238144
 72
     1
 10
-225.0954307211005
 20
-251.3473095238144
 11
-223.6974776741602
 21
-249.7664505300394
 72
     1
 10
-223.6974776741602
 20
-249.7664505300394
 11
-225.0000073049277
 21
-248.2935000000032
 72
     1
 10
-225.0000073049277
 20
-248.2935000000032
 11
-223.5972830871784
 21
-248.2935000000032
 72
     1
 10
-223.5972830871784
 20
-248.2935000000032
 11
-222.9961155652866
 21
-248.9733233215587
 72
     1
 10
-222.9961155652866
 20
-248.9733233215587
 11
-222.3949480433938
 21
-248.2935000000032
 97
       12
330
34C
330
3A5
330
3A4
330
3A3
330
3A2
330
34D
330
34E
330
34A
330
34B
330
3A8
330
3A7
330
3A6
 75
     1
 76
     0
 52
45.0
 41
0.1
 77
     0
 78
     1
 53
45.0
 43
0.0
 44
0.0
 45
-0.0707106781186548
 46
0.0707106781186548
 79
     0
 98
        1
 10
0.0
 20
0.0
  0
HATCH
  5
466
330
71
100
AcDbEntity
  8
1
  6
Continuous
 62
     2
100
AcDbHatch
 10
0.0
 20
0.0
 30
0.0
210
0.0
220
0.0
230
1.0
  2
_USER
 70
     0
 71
     1
 91
        1
 92
        1
 93
        4
 72
     1
 10
-225.2147099913174
 20
-248.2935000000032
 11
-225.2147099913174
 21
-251.3473095238144
 72
     1
 10
-225.2147099913174
 20
-251.3473095238144
 11
-226.4552144015703
 21
-251.3473095238144
 72
     1
 10
-226.4552144015703
 20
-251.3473095238144
 11
-226.4552144015703
 21
-248.2935000000032
 72
     1
 10
-226.4552144015703
 20
-248.2935000000032
 11
-225.2147099913174
 21
-248.2935000000032
 97
        4
330
3A0
330
34F
330
39F
330
3A1
 75
     1
 76
     0
 52
45.0
 41
0.1
 77
     0
 78
     1
 53
45.0
 43
0.0
 44
0.0
 45
-0.0707106781186548
 46
0.0707106781186548
 79
     0
 98
        1
 10
0.0
 20
0.0
  0
HATCH
  5
467
330
71
100
AcDbEntity
  8
1
  6
Continuous
 62
     2
100
AcDbHatch
 10
0.0
 20
0.0
 30
0.0
210
0.0
220
0.0
230
1.0
  2
_USER
 70
     0
 71
     1
 91
        1
 92
        1
 93
        4
 72
     1
 10
-225.2147099913174
 20
-248.2935000000032
 11
-225.2147099913174
 21
-251.3473095238144
 72
     1
 10
-225.2147099913174
 20
-251.3473095238144
 11
-226.4552144015703
 21
-251.3473095238144
 72
     1
 10
-226.4552144015703
 20
-251.3473095238144
 11
-226.4552144015703
 21
-248.2935000000032
 72
     1
 10
-226.4552144015703
 20
-248.2935000000032
 11
-225.2147099913174
 21
-248.2935000000032
 97
        4
330
3A0
330
34F
330
39F
330
3A1
 75
     1
 76
     0
 52
45.0
 41
0.1
 77
     0
 78
     1
 53
45.0
 43
0.0
 44
0.0
 45
-0.0707106781186548
 46
0.0707106781186548
 79
     0
 98
        1
 10
0.0
 20
0.0
  0
HATCH
  5
468
330
71
100
AcDbEntity
  8
1
  6
Continuous
 62
     2
100
AcDbHatch
 10
0.0
 20
0.0
 30
0.0
210
0.0
220
0.0
230
1.0
  2
_USER
 70
     0
 71
     1
 91
        2
 92
        1
 93
        8
 72
     1
 10
-225.6051539948494
 20
-254.7064999999887
 11
-226.8456584051033
 21
-254.7064999999887
 72
     1
 10
-226.8456584051033
 20
-254.7064999999887
 11
-227.0571384585791
 21
-254.1655394557708
 72
     1
 10
-227.0571384585791
 20
-254.1655394557708
 11
-228.1895800352529
 21
-254.1655394557708
 72
     1
 10
-228.1895800352529
 20
-254.1655394557708
 11
-228.4010600887287
 21
-254.7064999999887
 72
     1
 10
-228.4010600887287
 20
-254.7064999999887
 11
-229.6415644989817
 21
-254.7064999999887
 72
     1
 10
-229.6415644989817
 20
-254.7064999999887
 11
-228.2436114520424
 21
-251.6526904761776
 72
     1
 10
-228.2436114520424
 20
-251.6526904761776
 11
-227.0031070417897
 21
-251.6526904761776
 72
     1
 10
-227.0031070417897
 20
-251.6526904761776
 11
-225.6051539948494
 21
-254.7064999999887
 97
        8
330
39B
330
355
330
39A
330
39D
330
352
330
39C
330
353
330
354
 92
       16
 93
        3
 72
     1
 10
-227.9235244841079
 20
-253.4849761904642
 11
-227.3231940097254
 21
-253.4849761904642
 72
     1
 10
-227.3231940097254
 20
-253.4849761904642
 11
-227.6233592469155
 21
-252.7171612244775
 72
     1
 10
-227.6233592469155
 20
-252.7171612244775
 11
-227.9235244841079
 21
-253.4849761904642
 97
        3
330
351
330
350
330
39E
 75
     1
 76
     0
 52
45.0
 41
0.1
 77
     0
 78
     1
 53
45.0
 43
0.0
 44
0.0
 45
-0.0707106781186548
 46
0.0707106781186548
 79
     0
 98
        1
 10
0.0
 20
0.0
  0
HATCH
  5
469
330
71
100
AcDbEntity
  8
1
  6
Continuous
 62
     2
100
AcDbHatch
 10
0.0
 20
0.0
 30
0.0
210
0.0
220
0.0
230
1.0
  2
_USER
 70
     0
 71
     1
 91
        2
 92
        1
 93
        8
 72
     1
 10
-225.6051539948494
 20
-254.7064999999887
 11
-226.8456584051033
 21
-254.7064999999887
 72
     1
 10
-226.8456584051033
 20
-254.7064999999887
 11
-227.0571384585791
 21
-254.1655394557708
 72
     1
 10
-227.0571384585791
 20
-254.1655394557708
 11
-228.1895800352529
 21
-254.1655394557708
 72
     1
 10
-228.1895800352529
 20
-254.1655394557708
 11
-228.4010600887287
 21
-254.7064999999887
 72
     1
 10
-228.4010600887287
 20
-254.7064999999887
 11
-229.6415644989817
 21
-254.7064999999887
 72
     1
 10
-229.6415644989817
 20
-254.7064999999887
 11
-228.2436114520424
 21
-251.6526904761776
 72
     1
 10
-228.2436114520424
 20
-251.6526904761776
 11
-227.0031070417897
 21
-251.6526904761776
 72
     1
 10
-227.0031070417897
 20
-251.6526904761776
 11
-225.6051539948494
 21
-254.7064999999887
 97
        8
330
39B
330
355
330
39A
330
39D
330
352
330
39C
330
353
330
354
 92
       16
 93
        3
 72
     1
 10
-227.9235244841079
 20
-253.4849761904642
 11
-227.3231940097254
 21
-253.4849761904642
 72
     1
 10
-227.3231940097254
 20
-253.4849761904642
 11
-227.6233592469155
 21
-252.7171612244775
 72
     1
 10
-227.6233592469155
 20
-252.7171612244775
 11
-227.9235244841079
 21
-253.4849761904642
 97
        3
330
351
330
350
330
39E
 75
     1
 76
     0
 52
45.0
 41
0.1
 77
     0
 78
     1
 53
45.0
 43
0.0
 44
0.0
 45
-0.0707106781186548
 46
0.0707106781186548
 79
     0
 98
        1
 10
0.0
 20
0.0
  0
HATCH
  5
46A
330
71
100
AcDbEntity
  8
1
  6
Continuous
 62
     2
100
AcDbHatch
 10
0.0
 20
0.0
 30
0.0
210
0.0
220
0.0
230
1.0
  2
_USER
 70
     0
 71
     1
 91
        1
 92
        1
 93
        8
 72
     1
 10
-231.7990766381639
 20
-251.6526904761776
 11
-231.7990766381639
 21
-252.4379557823012
 72
     1
 10
-231.7990766381639
 20
-252.4379557823012
 11
-230.9879776006893
 21
-252.4379557823012
 72
     1
 10
-230.9879776006893
 20
-252.4379557823012
 11
-230.9879776006893
 21
-254.7064999999887
 72
     1
 10
-230.9879776006893
 20
-254.7064999999887
 11
-229.7951848985228
 21
-254.7064999999887
 72
     1
 10
-229.7951848985228
 20
-254.7064999999887
 11
-229.7951848985228
 21
-252.4379557823012
 72
     1
 10
-229.7951848985228
 20
-252.4379557823012
 11
-228.9840858610503
 21
-252.4379557823012
 72
     1
 10
-228.9840858610503
 20
-252.4379557823012
 11
-228.9840858610503
 21
-251.6526904761776
 72
     1
 10
-228.9840858610503
 20
-251.6526904761776
 11
-231.7990766381639
 21
-251.6526904761776
 97
        8
330
397
330
396
330
395
330
356
330
357
330
399
330
358
330
398
 75
     1
 76
     0
 52
45.0
 41
0.1
 77
     0
 78
     1
 53
45.0
 43
0.0
 44
0.0
 45
-0.0707106781186548
 46
0.0707106781186548
 79
     0
 98
        1
 10
0.0
 20
0.0
  0
HATCH
  5
46B
330
71
100
AcDbEntity
  8
1
  6
Continuous
 62
     2
100
AcDbHatch
 10
0.0
 20
0.0
 30
0.0
210
0.0
220
0.0
230
1.0
  2
_USER
 70
     0
 71
     1
 91
        1
 92
        1
 93
        8
 72
     1
 10
-231.7990766381639
 20
-251.6526904761776
 11
-231.7990766381639
 21
-252.4379557823012
 72
     1
 10
-231.7990766381639
 20
-252.4379557823012
 11
-230.9879776006893
 21
-252.4379557823012
 72
     1
 10
-230.9879776006893
 20
-252.4379557823012
 11
-230.9879776006893
 21
-254.7064999999887
 72
     1
 10
-230.9879776006893
 20
-254.7064999999887
 11
-229.7951848985228
 21
-254.7064999999887
 72
     1
 10
-229.7951848985228
 20
-254.7064999999887
 11
-229.7951848985228
 21
-252.4379557823012
 72
     1
 10
-229.7951848985228
 20
-252.4379557823012
 11
-228.9840858610503
 21
-252.4379557823012
 72
     1
 10
-228.9840858610503
 20
-252.4379557823012
 11
-228.9840858610503
 21
-251.6526904761776
 72
     1
 10
-228.9840858610503
 20
-251.6526904761776
 11
-231.7990766381639
 21
-251.6526904761776
 97
        8
330
397
330
396
330
395
330
356
330
357
330
399
330
358
330
398
 75
     1
 76
     0
 52
45.0
 41
0.1
 77
     0
 78
     1
 53
45.0
 43
0.0
 44
0.0
 45
-0.0707106781186548
 46
0.0707106781186548
 79
     0
 98
        1
 10
0.0
 20
0.0
  0
HATCH
  5
46C
330
71
100
AcDbEntity
  8
1
  6
Continuous
 62
     2
100
AcDbHatch
 10
0.0
 20
0.0
 30
0.0
210
0.0
220
0.0
230
1.0
  2
_USER
 70
     0
 71
     1
 91
        1
 92
        1
 93
       10
 72
     1
 10
-229.1270700544248
 20
-248.2935000000032
 11
-230.3198627565913
 21
-248.2935000000032
 72
     1
 10
-230.3198627565913
 20
-248.2935000000032
 11
-230.3198627565913
 21
-251.3473095238144
 72
     1
 10
-230.3198627565913
 20
-251.3473095238144
 11
-229.1270700544248
 21
-251.3473095238144
 72
     1
 10
-229.1270700544248
 20
-251.3473095238144
 11
-229.1270700544248
 21
-250.0385340136097
 72
     1
 10
-229.1270700544248
 20
-250.0385340136097
 11
-227.8865656441708
 21
-251.3473095238144
 72
     1
 10
-227.8865656441708
 20
-251.3473095238144
 11
-226.6937729420042
 21
-251.3473095238144
 72
     1
 10
-226.6937729420042
 20
-251.3473095238144
 11
-226.6937729420042
 21
-248.2935000000032
 72
     1
 10
-226.6937729420042
 20
-248.2935000000032
 11
-227.8865656441708
 21
-248.2935000000032
 72
     1
 10
-227.8865656441708
 20
-248.2935000000032
 11
-227.8865656441708
 21
-249.6022755102084
 72
     1
 10
-227.8865656441708
 20
-249.6022755102084
 11
-229.1270700544248
 21
-248.2935000000032
 97
       10
330
391
330
35B
330
35C
330
35D
330
35E
330
394
330
359
330
393
330
392
330
35A
 75
     1
 76
     0
 52
45.0
 41
0.1
 77
     0
 78
     1
 53
45.0
 43
0.0
 44
0.0
 45
-0.0707106781186548
 46
0.0707106781186548
 79
     0
 98
        1
 10
0.0
 20
0.0
  0
HATCH
  5
46D
330
71
100
AcDbEntity
  8
1
  6
Continuous
 62
     2
100
AcDbHatch
 10
0.0
 20
0.0
 30
0.0
210
0.0
220
0.0
230
1.0
  2
_USER
 70
     0
 71
     1
 91
        1
 92
        1
 93
       10
 72
     1
 10
-229.1270700544248
 20
-248.2935000000032
 11
-230.3198627565913
 21
-248.2935000000032
 72
     1
 10
-230.3198627565913
 20
-248.2935000000032
 11
-230.3198627565913
 21
-251.3473095238144
 72
     1
 10
-230.3198627565913
 20
-251.3473095238144
 11
-229.1270700544248
 21
-251.3473095238144
 72
     1
 10
-229.1270700544248
 20
-251.3473095238144
 11
-229.1270700544248
 21
-250.0385340136097
 72
     1
 10
-229.1270700544248
 20
-250.0385340136097
 11
-227.8865656441708
 21
-251.3473095238144
 72
     1
 10
-227.8865656441708
 20
-251.3473095238144
 11
-226.6937729420042
 21
-251.3473095238144
 72
     1
 10
-226.6937729420042
 20
-251.3473095238144
 11
-226.6937729420042
 21
-248.2935000000032
 72
     1
 10
-226.6937729420042
 20
-248.2935000000032
 11
-227.8865656441708
 21
-248.2935000000032
 72
     1
 10
-227.8865656441708
 20
-248.2935000000032
 11
-227.8865656441708
 21
-249.6022755102084
 72
     1
 10
-227.8865656441708
 20
-249.6022755102084
 11
-229.1270700544248
 21
-248.2935000000032
 97
       10
330
391
330
35B
330
35C
330
35D
330
35E
330
394
330
359
330
393
330
392
330
35A
 75
     1
 76
     0
 52
45.0
 41
0.1
 77
     0
 78
     1
 53
45.0
 43
0.0
 44
0.0
 45
-0.0707106781186548
 46
0.0707106781186548
 79
     0
 98
        1
 10
0.0
 20
0.0
  0
HATCH
  5
46E
330
71
100
AcDbEntity
  8
1
  6
Continuous
 62
     2
100
AcDbHatch
 10
0.0
 20
0.0
 30
0.0
210
0.0
220
0.0
230
1.0
  2
_USER
 70
     0
 71
     1
 91
        1
 92
        1
 93
       10
 72
     1
 10
-234.3755088748434
 20
-251.6526904761776
 11
-235.568301577011
 21
-251.6526904761776
 72
     1
 10
-235.568301577011
 20
-251.6526904761776
 11
-235.568301577011
 21
-254.7064999999887
 72
     1
 10
-235.568301577011
 20
-254.7064999999887
 11
-234.3755088748434
 21
-254.7064999999887
 72
     1
 10
-234.3755088748434
 20
-254.7064999999887
 11
-234.3755088748434
 21
-253.3977244897841
 72
     1
 10
-234.3755088748434
 20
-253.3977244897841
 11
-233.1350044645905
 21
-254.7064999999887
 72
     1
 10
-233.1350044645905
 20
-254.7064999999887
 11
-231.9422117624241
 21
-254.7064999999887
 72
     1
 10
-231.9422117624241
 20
-254.7064999999887
 11
-231.9422117624241
 21
-251.6526904761776
 72
     1
 10
-231.9422117624241
 20
-251.6526904761776
 11
-233.1350044645905
 21
-251.6526904761776
 72
     1
 10
-233.1350044645905
 20
-251.6526904761776
 11
-233.1350044645905
 21
-252.9614659863827
 72
     1
 10
-233.1350044645905
 20
-252.9614659863827
 11
-234.3755088748434
 21
-251.6526904761776
 97
       10
330
360
330
361
330
362
330
38E
330
363
330
364
330
38D
330
390
330
38F
330
35F
 75
     1
 76
     0
 52
45.0
 41
0.1
 77
     0
 78
     1
 53
45.0
 43
0.0
 44
0.0
 45
-0.0707106781186548
 46
0.0707106781186548
 79
     0
 98
        1
 10
0.0
 20
0.0
  0
HATCH
  5
46F
330
71
100
AcDbEntity
  8
1
  6
Continuous
 62
     2
100
AcDbHatch
 10
0.0
 20
0.0
 30
0.0
210
0.0
220
0.0
230
1.0
  2
_USER
 70
     0
 71
     1
 91
        1
 92
        1
 93
       10
 72
     1
 10
-234.3755088748434
 20
-251.6526904761776
 11
-235.568301577011
 21
-251.6526904761776
 72
     1
 10
-235.568301577011
 20
-251.6526904761776
 11
-235.568301577011
 21
-254.7064999999887
 72
     1
 10
-235.568301577011
 20
-254.7064999999887
 11
-234.3755088748434
 21
-254.7064999999887
 72
     1
 10
-234.3755088748434
 20
-254.7064999999887
 11
-234.3755088748434
 21
-253.3977244897841
 72
     1
 10
-234.3755088748434
 20
-253.3977244897841
 11
-233.1350044645905
 21
-254.7064999999887
 72
     1
 10
-233.1350044645905
 20
-254.7064999999887
 11
-231.9422117624241
 21
-254.7064999999887
 72
     1
 10
-231.9422117624241
 20
-254.7064999999887
 11
-231.9422117624241
 21
-251.6526904761776
 72
     1
 10
-231.9422117624241
 20
-251.6526904761776
 11
-233.1350044645905
 21
-251.6526904761776
 72
     1
 10
-233.1350044645905
 20
-251.6526904761776
 11
-233.1350044645905
 21
-252.9614659863827
 72
     1
 10
-233.1350044645905
 20
-252.9614659863827
 11
-234.3755088748434
 21
-251.6526904761776
 97
       10
330
360
330
361
330
362
330
38E
330
363
330
364
330
38D
330
390
330
38F
330
35F
 75
     1
 76
     0
 52
45.0
 41
0.1
 77
     0
 78
     1
 53
45.0
 43
0.0
 44
0.0
 45
-0.0707106781186548
 46
0.0707106781186548
 79
     0
 98
        1
 10
0.0
 20
0.0
  0
HATCH
  5
470
330
71
100
AcDbEntity
  8
1
  6
Continuous
 62
     2
100
AcDbHatch
 10
0.0
 20
0.0
 30
0.0
210
0.0
220
0.0
230
1.0
  2
_USER
 70
     0
 71
     1
 91
        1
 92
        1
 93
       12
 72
     1
 10
-235.3773038137788
 20
-248.2935000000032
 11
-235.3773038137788
 21
-251.3473095238144
 72
     1
 10
-235.3773038137788
 20
-251.3473095238144
 11
-236.5700965159452
 21
-251.3473095238144
 72
     1
 10
-236.5700965159452
 20
-251.3473095238144
 11
-236.5700965159452
 21
-250.2130374149706
 72
     1
 10
-236.5700965159452
 20
-250.2130374149706
 11
-237.6197540938527
 21
-250.2130374149706
 72
     1
 10
-237.6197540938527
 20
-250.2130374149706
 11
-237.6197540938527
 21
-251.3473095238144
 72
     1
 10
-237.6197540938527
 20
-251.3473095238144
 11
-238.8125467960193
 21
-251.3473095238144
 72
     1
 10
-238.8125467960193
 20
-251.3473095238144
 11
-238.8125467960193
 21
-248.2935000000032
 72
     1
 10
-238.8125467960193
 20
-248.2935000000032
 11
-237.6197540938527
 21
-248.2935000000032
 72
     1
 10
-237.6197540938527
 20
-248.2935000000032
 11
-237.6197540938527
 21
-249.3623333333378
 72
     1
 10
-237.6197540938527
 20
-249.3623333333378
 11
-236.5700965159452
 21
-249.3623333333378
 72
     1
 10
-236.5700965159452
 20
-249.3623333333378
 11
-236.5700965159452
 21
-248.2935000000032
 72
     1
 10
-236.5700965159452
 20
-248.2935000000032
 11
-235.3773038137788
 21
-248.2935000000032
 97
       12
330
388
330
387
330
386
330
36E
330
36F
330
385
330
370
330
384
330
383
330
382
330
36C
330
36D
 75
     1
 76
     0
 52
45.0
 41
0.1
 77
     0
 78
     1
 53
45.0
 43
0.0
 44
0.0
 45
-0.0707106781186548
 46
0.0707106781186548
 79
     0
 98
        1
 10
0.0
 20
0.0
  0
HATCH
  5
471
330
71
100
AcDbEntity
  8
1
  6
Continuous
 62
     2
100
AcDbHatch
 10
0.0
 20
0.0
 30
0.0
210
0.0
220
0.0
230
1.0
  2
_USER
 70
     0
 71
     1
 91
        1
 92
        1
 93
       12
 72
     1
 10
-235.3773038137788
 20
-248.2935000000032
 11
-235.3773038137788
 21
-251.3473095238144
 72
     1
 10
-235.3773038137788
 20
-251.3473095238144
 11
-236.5700965159452
 21
-251.3473095238144
 72
     1
 10
-236.5700965159452
 20
-251.3473095238144
 11
-236.5700965159452
 21
-250.2130374149706
 72
     1
 10
-236.5700965159452
 20
-250.2130374149706
 11
-237.6197540938527
 21
-250.2130374149706
 72
     1
 10
-237.6197540938527
 20
-250.2130374149706
 11
-237.6197540938527
 21
-251.3473095238144
 72
     1
 10
-237.6197540938527
 20
-251.3473095238144
 11
-238.8125467960193
 21
-251.3473095238144
 72
     1
 10
-238.8125467960193
 20
-251.3473095238144
 11
-238.8125467960193
 21
-248.2935000000032
 72
     1
 10
-238.8125467960193
 20
-248.2935000000032
 11
-237.6197540938527
 21
-248.2935000000032
 72
     1
 10
-237.6197540938527
 20
-248.2935000000032
 11
-237.6197540938527
 21
-249.3623333333378
 72
     1
 10
-237.6197540938527
 20
-249.3623333333378
 11
-236.5700965159452
 21
-249.3623333333378
 72
     1
 10
-236.5700965159452
 20
-249.3623333333378
 11
-236.5700965159452
 21
-248.2935000000032
 72
     1
 10
-236.5700965159452
 20
-248.2935000000032
 11
-235.3773038137788
 21
-248.2935000000032
 97
       12
330
388
330
387
330
386
330
36E
330
36F
330
385
330
370
330
384
330
383
330
382
330
36C
330
36D
 75
     1
 76
     0
 52
45.0
 41
0.1
 77
     0
 78
     1
 53
45.0
 43
0.0
 44
0.0
 45
-0.0707106781186548
 46
0.0707106781186548
 79
     0
 98
        1
 10
0.0
 20
0.0
  0
ENDBLK
  5
73
330
71
100
AcDbEntity
  8
0
100
AcDbBlockEnd
  0
BLOCK
  5
75
330
74
100
AcDbEntity
  8
0
100
AcDbBlockBegin
  2
_punkt
 70
     0
 10
-123.4999999999899
 20
-262.000000000005
 30
0.0
  3
_punkt
  1

  0
LINE
  5
472
330
74
100
AcDbEntity
  8
1
  6
Continuous
 62
     2
100
AcDbLine
 10
-123.4999999999899
 20
-262.000000000005
 30
0.0
 11
-123.4999999999899
 21
-267.0000000000051
 31
0.0
  0
LINE
  5
473
330
74
100
AcDbEntity
  8
1
  6
Continuous
 62
     2
100
AcDbLine
 10
-123.4999999999899
 20
-262.000000000005
 30
0.0
 11
-118.4999999999909
 21
-262.000000000005
 31
0.0
  0
ENDBLK
  5
76
330
74
100
AcDbEntity
  8
0
100
AcDbBlockEnd
  0
BLOCK
  5
7A
330
77
100
AcDbEntity
  8
0
100
AcDbBlockBegin
  2
A4I_CS
 70
     0
 10
-123.4999999999899
 20
-267.0000000000051
 30
0.0
  3
A4I_CS
  1

  0
INSERT
  5
78
330
77
100
AcDbEntity
  8
1
100
AcDbBlockReference
  2
_rahmen
 10
-123.4999999999899
 20
-267.0000000000051
 30
0.0
  0
INSERT
  5
79
330
77
100
AcDbEntity
  8
1
100
AcDbBlockReference
  2
_punkt
 10
-123.4999999999899
 20
-262.000000000005
 30
0.0
  0
ENDBLK
  5
7B
330
77
100
AcDbEntity
  8
0
100
AcDbBlockEnd
  0
BLOCK
  5
84
330
7C
100
AcDbEntity
  8
0
100
AcDbBlockBegin
  2
1
 70
     0
 10
0.0
 20
0.0
 30
0.0
  3
1
  1

  0
INSERT
  5
7D
330
7C
100
AcDbEntity
  8
0
100
AcDbBlockReference
  2
Allg1
 10
-163.0000000000026
 20
-194.000000021145
 30
0.0
  0
INSERT
  5
7E
330
7C
100
AcDbEntity
  8
0
100
AcDbBlockReference
  2
Drfsicht1
 10
-305.2499999999986
 20
-188.925002024413
 30
0.0
  0
INSERT
  5
7F
330
7C
100
AcDbEntity
  8
0
100
AcDbBlockReference
  2
Rckans1
 10
-195.7500000000014
 20
-123.000000024414
 30
0.0
  0
INSERT
  5
80
330
7C
100
AcDbEntity
  8
0
100
AcDbBlockReference
  2
SA_Links1
 10
-247.99999999999
 20
-123.0000000488281
 30
0.0
  0
INSERT
  5
81
330
7C
100
AcDbEntity
  8
0
100
AcDbBlockReference
  2
SA_Rechts1
 10
-373.4999999999975
 20
-123.0000000244141
 30
0.0
  0
INSERT
  5
82
330
7C
100
AcDbEntity
  8
0
100
AcDbBlockReference
  2
Vordans1
 10
-305.2499999999986
 20
-123.000000024414
 30
0.0
  0
INSERT
  5
83
330
7C
100
AcDbEntity
  8
0
100
AcDbBlockReference
  2
A4I_CS
 10
-123.4999999999899
 20
-267.0000000000051
 30
0.0
  0
ENDBLK
  5
85
330
7C
100
AcDbEntity
  8
0
100
AcDbBlockEnd
  0
BLOCK
  5
1AD
330
1A6
100
AcDbEntity
  8
0
100
AcDbBlockBegin
  2
*D17
 70
     1
 10
0.0
 20
0.0
 30
0.0
  3
*D17
  1

  0
LINE
  5
1A7
330
1A6
100
AcDbEntity
  8
1
  6
Continuous
 62
     2
100
AcDbLine
 10
-336.9999993092718
 20
-194.4250020244181
 30
0.0
 11
-336.9999993092718
 21
-183.4250020244181
 31
0.0
  0
LINE
  5
1A8
330
1A6
100
AcDbEntity
  8
1
  6
Continuous
 62
     2
100
AcDbLine
 10
-326.9999993092718
 20
-183.4250020244181
 30
0.0
 11
-338.4999993092718
 21
-183.4250020244181
 31
0.0
  0
LINE
  5
1A9
330
1A6
100
AcDbEntity
  8
1
  6
Continuous
 62
     2
100
AcDbLine
 10
-326.9999993092718
 20
-194.4250020244181
 30
0.0
 11
-338.4999993092718
 21
-194.4250020244181
 31
0.0
  0
SOLID
  5
1AA
330
1A6
100
AcDbEntity
  8
1
 62
     2
100
AcDbTrace
 10
-337.4607830508277
 20
-190.9250020244181
 30
0.0
 11
-336.5392155677159
 21
-190.9250020244181
 31
0.0
 12
-336.9999993092718
 22
-194.4250020244181
 32
0.0
 13
-336.9999993092718
 23
-194.4250020244181
 33
0.0
  0
SOLID
  5
1AB
330
1A6
100
AcDbEntity
  8
1
 62
     2
100
AcDbTrace
 10
-336.5392155677159
 20
-186.9250020244181
 30
0.0
 11
-337.4607830508277
 21
-186.9250020244181
 31
0.0
 12
-336.9999993092718
 22
-183.4250020244181
 32
0.0
 13
-336.9999993092718
 23
-183.4250020244181
 33
0.0
  0
MTEXT
  5
1AC
330
1A6
100
AcDbEntity
  8
1
 62
     3
100
AcDbMText
 10
-338.4999993092718
 20
-190.990681519027
 30
0.0
 40
3.5
 41
0.0
 71
     7
 72
     1
  1
11
  7
CONVERTER_11
 11
0.0
 21
1.0
 31
0.0
 73
     1
 44
0.60024009603842
  0
ENDBLK
  5
1AE
330
1A6
100
AcDbEntity
  8
0
100
AcDbBlockEnd
  0
BLOCK
  5
30B
330
304
100
AcDbEntity
  8
0
100
AcDbBlockBegin
  2
*D18
 70
     1
 10
0.0
 20
0.0
 30
0.0
  3
*D18
  1

  0
LINE
  5
305
330
304
100
AcDbEntity
  8
1
  6
Continuous
 62
     2
100
AcDbLine
 10
-305.2499993092737
 20
-157.430155920707
 30
0.0
 11
-287.7499993092737
 21
-157.430155920707
 31
0.0
  0
LINE
  5
306
330
304
100
AcDbEntity
  8
1
  6
Continuous
 62
     2
100
AcDbLine
 10
-287.7499993092737
 20
-143.3250000488287
 30
0.0
 11
-287.7499993092737
 21
-158.930155920707
 31
0.0
  0
LINE
  5
307
330
304
100
AcDbEntity
  8
1
  6
Continuous
 62
     2
100
AcDbLine
 10
-305.2499993092737
 20
-143.732332328394
 30
0.0
 11
-305.2499993092737
 21
-158.930155920707
 31
0.0
  0
SOLID
  5
308
330
304
100
AcDbEntity
  8
1
 62
     2
100
AcDbTrace
 10
-301.7499993092737
 20
-156.9693721791512
 30
0.0
 11
-301.7499993092737
 21
-157.8909396622629
 31
0.0
 12
-305.2499993092737
 22
-157.430155920707
 32
0.0
 13
-305.2499993092737
 23
-157.430155920707
 33
0.0
  0
SOLID
  5
309
330
304
100
AcDbEntity
  8
1
 62
     2
100
AcDbTrace
 10
-291.2499993092737
 20
-157.8909396622629
 30
0.0
 11
-291.2499993092737
 21
-156.9693721791512
 31
0.0
 12
-287.7499993092737
 22
-157.430155920707
 32
0.0
 13
-287.7499993092737
 23
-157.430155920707
 33
0.0
  0
MTEXT
  5
30A
330
304
100
AcDbEntity
  8
1
 62
     3
100
AcDbMText
 10
-300.951378430369
 20
-155.580155920707
 30
0.0
 40
3.5
 41
0.0
 71
     7
 72
     1
  1
17,5
  7
CONVERTER_11
 11
0.9999999999970619
 21
2.424068405545306E-6
 31
0.0
 73
     1
 44
0.60024009603842
  0
ENDBLK
  5
30C
330
304
100
AcDbEntity
  8
0
100
AcDbBlockEnd
  0
BLOCK
  5
316
330
30F
100
AcDbEntity
  8
0
100
AcDbBlockBegin
  2
*D19
 70
     1
 10
0.0
 20
0.0
 30
0.0
  3
*D19
  1

  0
LINE
  5
310
330
30F
100
AcDbEntity
  8
1
  6
Continuous
 62
     2
100
AcDbLine
 10
-305.2499993092737
 20
-165.430155920707
 30
0.0
 11
-283.4999993092735
 21
-165.430155920707
 31
0.0
  0
LINE
  5
311
330
30F
100
AcDbEntity
  8
1
  6
Continuous
 62
     2
100
AcDbLine
 10
-283.4999993092735
 20
-144.9250000488289
 30
0.0
 11
-283.4999993092735
 21
-166.930155920707
 31
0.0
  0
LINE
  5
312
330
30F
100
AcDbEntity
  8
1
  6
Continuous
 62
     2
100
AcDbLine
 10
-305.2499993092737
 20
-143.732332328394
 30
0.0
 11
-305.2499993092737
 21
-166.930155920707
 31
0.0
  0
SOLID
  5
313
330
30F
100
AcDbEntity
  8
1
 62
     2
100
AcDbTrace
 10
-301.7499993092737
 20
-164.9693721791512
 30
0.0
 11
-301.7499993092737
 21
-165.8909396622629
 31
0.0
 12
-305.2499993092737
 22
-165.430155920707
 32
0.0
 13
-305.2499993092737
 23
-165.430155920707
 33
0.0
  0
SOLID
  5
314
330
30F
100
AcDbEntity
  8
1
 62
     2
100
AcDbTrace
 10
-286.9999993092735
 20
-165.8909396622629
 30
0.0
 11
-286.9999993092735
 21
-164.9693721791512
 31
0.0
 12
-283.4999993092735
 22
-165.430155920707
 32
0.0
 13
-283.4999993092735
 23
-165.430155920707
 33
0.0
  0
MTEXT
  5
315
330
30F
100
AcDbEntity
  8
1
 62
     3
100
AcDbMText
 10
-300.156854076995
 20
-163.580155920707
 30
0.0
 40
3.5
 41
0.0
 71
     7
 72
     1
  1
21,75
  7
CONVERTER_11
 11
0.9999999999970619
 21
2.424068405545306E-6
 31
0.0
 73
     1
 44
0.60024009603842
  0
ENDBLK
  5
317
330
30F
100
AcDbEntity
  8
0
100
AcDbBlockEnd
  0
BLOCK
  5
321
330
31A
100
AcDbEntity
  8
0
100
AcDbBlockBegin
  2
*D20
 70
     1
 10
0.0
 20
0.0
 30
0.0
  3
*D20
  1

  0
LINE
  5
31B
330
31A
100
AcDbEntity
  8
1
  6
Continuous
 62
     2
100
AcDbLine
 10
-326.999999309274
 20
-173.430155920707
 30
0.0
 11
-283.4999993092734
 21
-173.430155920707
 31
0.0
  0
LINE
  5
31C
330
31A
100
AcDbEntity
  8
1
  6
Continuous
 62
     2
100
AcDbLine
 10
-283.4999993092734
 20
-144.9250000488289
 30
0.0
 11
-283.4999993092734
 21
-174.930155920707
 31
0.0
  0
LINE
  5
31D
330
31A
100
AcDbEntity
  8
1
  6
Continuous
 62
     2
100
AcDbLine
 10
-326.999999309274
 20
-148.4250000488265
 30
0.0
 11
-326.999999309274
 21
-174.930155920707
 31
0.0
  0
SOLID
  5
31E
330
31A
100
AcDbEntity
  8
1
 62
     2
100
AcDbTrace
 10
-323.499999309274
 20
-172.9693721791512
 30
0.0
 11
-323.499999309274
 21
-173.8909396622629
 31
0.0
 12
-326.999999309274
 22
-173.430155920707
 32
0.0
 13
-326.999999309274
 23
-173.430155920707
 33
0.0
  0
SOLID
  5
31F
330
31A
100
AcDbEntity
  8
1
 62
     2
100
AcDbTrace
 10
-286.9999993092734
 20
-173.8909396622629
 30
0.0
 11
-286.9999993092734
 21
-172.9693721791512
 31
0.0
 12
-283.4999993092734
 22
-173.430155920707
 32
0.0
 13
-283.4999993092734
 23
-173.430155920707
 33
0.0
  0
MTEXT
  5
320
330
31A
100
AcDbEntity
  8
1
 62
     3
100
AcDbMText
 10
-311.3880156750059
 20
-171.580155920707
 30
0.0
 40
3.5
 41
0.0
 71
     7
 72
     1
  1
43,5
  7
CONVERTER_11
 11
0.9999999999970619
 21
2.424068405545306E-6
 31
0.0
 73
     1
 44
0.60024009603842
  0
ENDBLK
  5
322
330
31A
100
AcDbEntity
  8
0
100
AcDbBlockEnd
  0
BLOCK
  5
32C
330
325
100
AcDbEntity
  8
0
100
AcDbBlockBegin
  2
*D21
 70
     1
 10
0.0
 20
0.0
 30
0.0
  3
*D21
  1

  0
LINE
  5
326
330
325
100
AcDbEntity
  8
1
  6
Continuous
 62
     2
100
AcDbLine
 10
-336.9999993092718
 20
-142.1250000488287
 30
0.0
 11
-336.9999993092718
 21
-97.57500004882837
 31
0.0
  0
LINE
  5
327
330
325
100
AcDbEntity
  8
1
  6
Continuous
 62
     2
100
AcDbLine
 10
-293.8499993092711
 20
-97.57500004882837
 30
0.0
 11
-338.4999993092718
 21
-97.57500004882837
 31
0.0
  0
LINE
  5
328
330
325
100
AcDbEntity
  8
1
  6
Continuous
 62
     2
100
AcDbLine
 10
-291.8249993092736
 20
-142.1250000488287
 30
0.0
 11
-338.4999993092718
 21
-142.1250000488287
 31
0.0
  0
SOLID
  5
329
330
325
100
AcDbEntity
  8
1
 62
     2
100
AcDbTrace
 10
-337.4607830508277
 20
-138.6250000488287
 30
0.0
 11
-336.5392155677159
 21
-138.6250000488287
 31
0.0
 12
-336.9999993092718
 22
-142.1250000488287
 32
0.0
 13
-336.9999993092718
 23
-142.1250000488287
 33
0.0
  0
SOLID
  5
32A
330
325
100
AcDbEntity
  8
1
 62
     2
100
AcDbTrace
 10
-336.5392155677159
 20
-101.0750000488284
 30
0.0
 11
-337.4607830508277
 21
-101.0750000488284
 31
0.0
 12
-336.9999993092718
 22
-97.57500004882837
 32
0.0
 13
-336.9999993092718
 23
-97.57500004882837
 33
0.0
  0
MTEXT
  5
32B
330
325
100
AcDbEntity
  8
1
 62
     3
100
AcDbMText
 10
-338.8499993092718
 20
-125.017185721116
 30
0.0
 40
3.5
 41
0.0
 71
     7
 72
     1
  1
44,55
  7
CONVERTER_11
 11
0.0
 21
1.0
 31
0.0
 73
     1
 44
0.60024009603842
  0
ENDBLK
  5
32D
330
325
100
AcDbEntity
  8
0
100
AcDbBlockEnd
  0
BLOCK
  5
337
330
330
100
AcDbEntity
  8
0
100
AcDbBlockBegin
  2
*D22
 70
     1
 10
0.0
 20
0.0
 30
0.0
  3
*D22
  1

  0
LINE
  5
331
330
330
100
AcDbEntity
  8
1
  6
Continuous
 62
     2
100
AcDbLine
 10
-344.9999993092718
 20
-148.4250000488267
 30
0.0
 11
-344.9999993092718
 21
-97.57500004882712
 31
0.0
  0
LINE
  5
332
330
330
100
AcDbEntity
  8
1
  6
Continuous
 62
     2
100
AcDbLine
 10
-316.6499993092717
 20
-97.57500004882712
 30
0.0
 11
-346.4999993092718
 21
-97.57500004882712
 31
0.0
  0
LINE
  5
333
330
330
100
AcDbEntity
  8
1
  6
Continuous
 62
     2
100
AcDbLine
 10
-323.2195829092862
 20
-148.4250000488267
 30
0.0
 11
-346.4999993092718
 21
-148.4250000488267
 31
0.0
  0
SOLID
  5
334
330
330
100
AcDbEntity
  8
1
 62
     2
100
AcDbTrace
 10
-345.4607830508277
 20
-144.9250000488267
 30
0.0
 11
-344.5392155677159
 21
-144.9250000488267
 31
0.0
 12
-344.9999993092718
 22
-148.4250000488267
 32
0.0
 13
-344.9999993092718
 23
-148.4250000488267
 33
0.0
  0
SOLID
  5
335
330
330
100
AcDbEntity
  8
1
 62
     2
100
AcDbTrace
 10
-344.5392155677159
 20
-101.0750000488271
 30
0.0
 11
-345.4607830508277
 21
-101.0750000488271
 31
0.0
 12
-344.9999993092718
 22
-97.57500004882712
 32
0.0
 13
-344.9999993092718
 23
-97.57500004882712
 33
0.0
  0
MTEXT
  5
336
330
330
100
AcDbEntity
  8
1
 62
     3
100
AcDbMText
 10
-346.8499993092718
 20
-132.947908534698
 30
0.0
 40
3.5
 41
0.0
 71
     7
 72
     1
  1
50,85
  7
CONVERTER_11
 11
0.0
 21
1.0
 31
0.0
 73
     1
 44
0.60024009603842
  0
ENDBLK
  5
338
330
330
100
AcDbEntity
  8
0
100
AcDbBlockEnd
  0
ENDSEC
  0
SECTION
  2
ENTITIES
  0
INSERT
  5
86
330
1F
100
AcDbEntity
  8
1
100
AcDbBlockReference
  2
1
 10
0.0
 20
0.0
 30
0.0
  0
ENDSEC
  0
SECTION
  2
OBJECTS
  0
DICTIONARY
  5
C
330
0
100
AcDbDictionary
281
     1
  3
ACAD_GROUP
350
D
  3
ACAD_LAYOUT
350
1A
  3
ACAD_MATERIAL
350
3B
  3
ACAD_MLEADERSTYLE
350
49B
  3
ACAD_MLINESTYLE
350
17
  3
ACAD_PLOTSETTINGS
350
19
  3
ACAD_PLOTSTYLENAME
350
E
  3
ACAD_TABLESTYLE
350
49A
  3
ACAD_VISUALSTYLE
350
2A
  0
DICTIONARY
  5
D
102
{ACAD_REACTORS
330
C
102
}
330
C
100
AcDbDictionary
281
     1
  0
DICTIONARY
  5
1A
102
{ACAD_REACTORS
330
C
102
}
330
C
100
AcDbDictionary
281
     1
  3
Layout1
350
1E
  3
Layout2
350
26
  3
Model
350
22
  0
DICTIONARY
  5
3B
102
{ACAD_REACTORS
330
C
102
}
330
C
100
AcDbDictionary
281
     1
  3
ByBlock
350
3D
  3
ByLayer
350
3C
  3
Global
350
3E
  0
DICTIONARY
  5
49B
102
{ACAD_REACTORS
330
C
102
}
330
C
100
AcDbDictionary
281
     1
  0
DICTIONARY
  5
17
102
{ACAD_REACTORS
330
C
102
}
330
C
100
AcDbDictionary
281
     1
  3
Standard
350
18
  0
DICTIONARY
  5
19
102
{ACAD_REACTORS
330
C
102
}
330
C
100
AcDbDictionary
281
     1
  0
ACDBDICTIONARYWDFLT
  5
E
102
{ACAD_REACTORS
330
C
102
}
330
C
100
AcDbDictionary
281
     1
  3
Normal
350
F
100
AcDbDictionaryWithDefault
340
F
  0
DICTIONARY
  5
49A
102
{ACAD_REACTORS
330
C
102
}
330
C
100
AcDbDictionary
281
     1
  0
DICTIONARY
  5
2A
102
{ACAD_REACTORS
330
C
102
}
330
C
100
AcDbDictionary
281
     1
  3
2dWireframe
350
2F
  3
3D Hidden
350
31
  3
3dWireframe
350
30
  3
Basic
350
32
  3
Brighten
350
36
  3
ColorChange
350
3A
  3
Conceptual
350
34
  3
Dim
350
35
  3
Facepattern
350
39
  3
Flat
350
2B
  3
FlatWithEdges
350
2C
  3
Gouraud
350
2D
  3
GouraudWithEdges
350
2E
  3
Linepattern
350
38
  3
Realistic
350
33
  3
Thicken
350
37
  0
LAYOUT
  5
1E
102
{ACAD_REACTORS
330
1A
102
}
330
1A
100
AcDbPlotSettings
  1

  2
none_device
  4

  6

 40
0.0
 41
0.0
 42
0.0
 43
0.0
 44
0.0
 45
0.0
 46
0.0
 47
0.0
 48
0.0
 49
0.0
140
0.0
141
0.0
142
1.0
143
1.0
 70
   688
 72
     0
 73
     0
 74
     5
  7

 75
    16
 76
     0
 77
     2
 78
   300
147
1.0
148
0.0
149
0.0
100
AcDbLayout
  1
Layout1
 70
     1
 71
     1
 10
0.0
 20
0.0
 11
12.0
 21
9.0
 12
0.0
 22
0.0
 32
0.0
 14
1.00000000000000E+20
 24
1.00000000000000E+20
 34
1.00000000000000E+20
 15
-1.00000000000000E+20
 25
-1.00000000000000E+20
 35
-1.00000000000000E+20
146
0.0
 13
0.0
 23
0.0
 33
0.0
 16
1.0
 26
0.0
 36
0.0
 17
0.0
 27
1.0
 37
0.0
 76
     0
330
1B
  0
LAYOUT
  5
26
102
{ACAD_REACTORS
330
1A
102
}
330
1A
100
AcDbPlotSettings
  1

  2
none_device
  4

  6

 40
0.0
 41
0.0
 42
0.0
 43
0.0
 44
0.0
 45
0.0
 46
0.0
 47
0.0
 48
0.0
 49
0.0
140
0.0
141
0.0
142
1.0
143
1.0
 70
   688
 72
     0
 73
     0
 74
     5
  7

 75
    16
 76
     0
 77
     2
 78
   300
147
1.0
148
0.0
149
0.0
100
AcDbLayout
  1
Layout2
 70
     1
 71
     2
 10
0.0
 20
0.0
 11
0.0
 21
0.0
 12
0.0
 22
0.0
 32
0.0
 14
0.0
 24
0.0
 34
0.0
 15
0.0
 25
0.0
 35
0.0
146
0.0
 13
0.0
 23
0.0
 33
0.0
 16
1.0
 26
0.0
 36
0.0
 17
0.0
 27
1.0
 37
0.0
 76
     0
330
23
  0
LAYOUT
  5
22
102
{ACAD_REACTORS
330
1A
102
}
330
1A
100
AcDbPlotSettings
  1

  2
none_device
  4

  6

 40
0.0
 41
0.0
 42
0.0
 43
0.0
 44
0.0
 45
0.0
 46
0.0
 47
0.0
 48
0.0
 49
0.0
140
0.0
141
0.0
142
1.0
143
1.0
 70
  1712
 72
     0
 73
     0
 74
     0
  7

 75
     0
 76
     0
 77
     2
 78
   300
147
1.0
148
0.0
149
0.0
100
AcDbLayout
  1
Model
 70
     1
 71
     0
 10
0.0
 20
0.0
 11
12.0
 21
9.0
 12
0.0
 22
0.0
 32
0.0
 14
-415.499999999989
 24
-267.0000000000051
 34
0.0
 15
-118.4999999999909
 25
-57.000000000005
 35
0.0
146
0.0
 13
0.0
 23
0.0
 33
0.0
 16
1.0
 26
0.0
 36
0.0
 17
0.0
 27
1.0
 37
0.0
 76
     0
330
1F
331
29
  0
MATERIAL
  5
3D
102
{ACAD_REACTORS
330
3B
102
}
102
{ACAD_XDICTIONARY
360
496
102
}
330
3B
100
AcDbMaterial
  1
ByBlock
  0
MATERIAL
  5
3C
102
{ACAD_REACTORS
330
3B
102
}
102
{ACAD_XDICTIONARY
360
494
102
}
330
3B
100
AcDbMaterial
  1
ByLayer
  0
MATERIAL
  5
3E
102
{ACAD_REACTORS
330
3B
102
}
102
{ACAD_XDICTIONARY
360
498
102
}
330
3B
100
AcDbMaterial
  1
Global
  0
MLINESTYLE
  5
18
102
{ACAD_REACTORS
330
17
102
}
330
17
100
AcDbMlineStyle
  2
Standard
 70
     0
  3

 62
   256
 51
90.0
 52
90.0
 71
     2
 49
0.5
 62
   256
  6
BYLAYER
 49
-0.5
 62
   256
  6
BYLAYER
  0
ACDBPLACEHOLDER
  5
F
102
{ACAD_REACTORS
330
E
102
}
330
E
  0
VISUALSTYLE
  5
2F
102
{ACAD_REACTORS
330
2A
102
}
102
{ACAD_XDICTIONARY
360
47C
102
}
330
2A
100
AcDbVisualStyle
  2
2dWireframe
 70
     4
 71
     0
 72
     2
 73
     0
 90
        0
 40
-0.6
 41
-30.0
 62
     5
 63
     7
421
 16777215
 74
     1
 91
        4
 64
     7
 65
   257
 75
     1
175
     1
 42
1.0
 92
        0
 66
   257
 43
1.0
 76
     1
 77
     6
 78
     2
 67
     7
 79
     5
170
     0
171
     0
290
     0
174
     0
 93
        1
 44
0.0
173
     0
291
     0
 45
0.0
1001
ACAD
1000
AcDbSavedByObjectVersion
1070
     0
  0
VISUALSTYLE
  5
31
102
{ACAD_REACTORS
330
2A
102
}
102
{ACAD_XDICTIONARY
360
480
102
}
330
2A
100
AcDbVisualStyle
  2
3D Hidden
 70
     6
 71
     1
 72
     2
 73
     2
 90
        0
 40
-0.6
 41
-30.0
 62
     5
 63
     7
421
 16777215
 74
     2
 91
        2
 64
     7
 65
   257
 75
     2
175
     1
 42
40.0
 92
        0
 66
   257
 43
1.0
 76
     1
 77
     6
 78
     2
 67
     7
 79
     3
170
     0
171
     0
290
     0
174
     0
 93
        1
 44
0.0
173
     0
291
     0
 45
0.0
1001
ACAD
1000
AcDbSavedByObjectVersion
1070
     0
  0
VISUALSTYLE
  5
30
102
{ACAD_REACTORS
330
2A
102
}
102
{ACAD_XDICTIONARY
360
47E
102
}
330
2A
100
AcDbVisualStyle
  2
3dWireframe
 70
     5
 71
     0
 72
     2
 73
     0
 90
        0
 40
-0.6
 41
-30.0
 62
     5
 63
     7
421
 16777215
 74
     1
 91
        4
 64
     7
 65
   257
 75
     1
175
     1
 42
1.0
 92
        0
 66
   257
 43
1.0
 76
     1
 77
     6
 78
     2
 67
     7
 79
     5
170
     0
171
     0
290
     0
174
     0
 93
        1
 44
0.0
173
     0
291
     0
 45
0.0
1001
ACAD
1000
AcDbSavedByObjectVersion
1070
     0
  0
VISUALSTYLE
  5
32
102
{ACAD_REACTORS
330
2A
102
}
102
{ACAD_XDICTIONARY
360
482
102
}
330
2A
100
AcDbVisualStyle
  2
Basic
 70
     7
 71
     1
 72
     0
 73
     1
 90
        0
 40
-0.6
 41
-30.0
 62
     5
 63
     7
421
 16777215
 74
     0
 91
        4
 64
     7
 65
   257
 75
     1
175
     1
 42
1.0
 92
        8
 66
     7
 43
1.0
 76
     1
 77
     6
 78
     2
 67
     7
 79
     5
170
     0
171
     0
290
     0
174
     0
 93
        1
 44
0.0
173
     0
291
     1
 45
0.0
1001
ACAD
1000
AcDbSavedByObjectVersion
1070
     0
  0
VISUALSTYLE
  5
36
102
{ACAD_REACTORS
330
2A
102
}
102
{ACAD_XDICTIONARY
360
48A
102
}
330
2A
100
AcDbVisualStyle
  2
Brighten
 70
    12
 71
     2
 72
     2
 73
     0
 90
        0
 40
-0.6
 41
-30.0
 62
     5
 63
     7
421
 16777215
 74
     1
 91
        4
 64
     7
 65
   257
 75
     1
175
     1
 42
1.0
 92
        8
 66
     7
 43
1.0
 76
     1
 77
     6
 78
     2
 67
     7
 79
     5
170
     0
171
     0
290
     0
174
     0
 93
        1
 44
50.0
173
     0
291
     1
 45
0.0
1001
ACAD
1000
AcDbSavedByObjectVersion
1070
     0
  0
VISUALSTYLE
  5
3A
102
{ACAD_REACTORS
330
2A
102
}
102
{ACAD_XDICTIONARY
360
492
102
}
330
2A
100
AcDbVisualStyle
  2
ColorChange
 70
    16
 71
     2
 72
     2
 73
     3
 90
        0
 40
-0.6
 41
-30.0
 62
     5
 63
     8
421
  8421504
 74
     1
 91
        4
 64
     7
 65
   257
 75
     1
175
     1
 42
1.0
 92
        8
 66
     8
424
  8421504
 43
1.0
 76
     1
 77
     6
 78
     2
 67
     7
 79
     5
170
     0
171
     0
290
     0
174
     0
 93
        1
 44
0.0
173
     0
291
     1
 45
0.0
1001
ACAD
1000
AcDbSavedByObjectVersion
1070
     0
  0
VISUALSTYLE
  5
34
102
{ACAD_REACTORS
330
2A
102
}
102
{ACAD_XDICTIONARY
360
486
102
}
330
2A
100
AcDbVisualStyle
  2
Conceptual
 70
     9
 71
     3
 72
     2
 73
     0
 90
        0
 40
-0.6
 41
-30.0
 62
     5
 63
     7
421
 16777215
 74
     2
 91
        2
 64
     7
 65
   257
 75
     1
175
     1
 42
40.0
 92
        8
 66
     7
 43
1.0
 76
     1
 77
     6
 78
     2
 67
     7
 79
     3
170
     0
171
     0
290
     0
174
     0
 93
        1
 44
0.0
173
     0
291
     0
 45
0.0
1001
ACAD
1000
AcDbSavedByObjectVersion
1070
     0
  0
VISUALSTYLE
  5
35
102
{ACAD_REACTORS
330
2A
102
}
102
{ACAD_XDICTIONARY
360
488
102
}
330
2A
100
AcDbVisualStyle
  2
Dim
 70
    11
 71
     2
 72
     2
 73
     0
 90
        0
 40
-0.6
 41
-30.0
 62
     5
 63
     7
421
 16777215
 74
     1
 91
        4
 64
     7
 65
   257
 75
     1
175
     1
 42
1.0
 92
        8
 66
     7
 43
1.0
 76
     1
 77
     6
 78
     2
 67
     7
 79
     5
170
     0
171
     0
290
     0
174
     0
 93
        1
 44
-50.0
173
     0
291
     1
 45
0.0
1001
ACAD
1000
AcDbSavedByObjectVersion
1070
     0
  0
VISUALSTYLE
  5
39
102
{ACAD_REACTORS
330
2A
102
}
102
{ACAD_XDICTIONARY
360
490
102
}
330
2A
100
AcDbVisualStyle
  2
Facepattern
 70
    15
 71
     2
 72
     2
 73
     0
 90
        0
 40
-0.6
 41
-30.0
 62
     5
 63
     7
421
 16777215
 74
     1
 91
        4
 64
     7
 65
   257
 75
     1
175
     1
 42
1.0
 92
        8
 66
     7
 43
1.0
 76
     1
 77
     6
 78
     2
 67
     7
 79
     5
170
     0
171
     0
290
     0
174
     0
 93
        1
 44
0.0
173
     0
291
     1
 45
0.0
1001
ACAD
1000
AcDbSavedByObjectVersion
1070
     0
  0
VISUALSTYLE
  5
2B
102
{ACAD_REACTORS
330
2A
102
}
102
{ACAD_XDICTIONARY
360
474
102
}
330
2A
100
AcDbVisualStyle
  2
Flat
 70
     0
 71
     2
 72
     1
 73
     1
 90
        2
 40
-0.6
 41
30.0
 62
     5
 63
     7
421
 16777215
 74
     0
 91
        4
 64
     7
 65
   257
 75
     1
175
     1
 42
1.0
 92
        8
 66
     7
 43
1.0
 76
     1
 77
     6
 78
     2
 67
     7
 79
     5
170
     0
171
     0
290
     0
174
     0
 93
       13
 44
0.0
173
     0
291
     1
 45
0.0
1001
ACAD
1000
AcDbSavedByObjectVersion
1070
     0
  0
VISUALSTYLE
  5
2C
102
{ACAD_REACTORS
330
2A
102
}
102
{ACAD_XDICTIONARY
360
476
102
}
330
2A
100
AcDbVisualStyle
  2
FlatWithEdges
 70
     1
 71
     2
 72
     1
 73
     1
 90
        2
 40
-0.6
 41
30.0
 62
     5
 63
     7
421
 16777215
 74
     1
 91
        4
 64
     7
 65
   257
 75
     1
175
     1
 42
1.0
 92
        0
 66
   257
 43
1.0
 76
     1
 77
     6
 78
     2
 67
     7
 79
     5
170
     0
171
     0
290
     0
174
     0
 93
       13
 44
0.0
173
     0
291
     1
 45
0.0
1001
ACAD
1000
AcDbSavedByObjectVersion
1070
     0
  0
VISUALSTYLE
  5
2D
102
{ACAD_REACTORS
330
2A
102
}
102
{ACAD_XDICTIONARY
360
478
102
}
330
2A
100
AcDbVisualStyle
  2
Gouraud
 70
     2
 71
     2
 72
     2
 73
     1
 90
        2
 40
-0.6
 41
30.0
 62
     5
 63
     7
421
 16777215
 74
     0
 91
        4
 64
     7
 65
   257
 75
     1
175
     1
 42
1.0
 92
        0
 66
     7
 43
1.0
 76
     1
 77
     6
 78
     2
 67
     7
 79
     5
170
     0
171
     0
290
     0
174
     0
 93
       13
 44
0.0
173
     0
291
     1
 45
0.0
1001
ACAD
1000
AcDbSavedByObjectVersion
1070
     0
  0
VISUALSTYLE
  5
2E
102
{ACAD_REACTORS
330
2A
102
}
102
{ACAD_XDICTIONARY
360
47A
102
}
330
2A
100
AcDbVisualStyle
  2
GouraudWithEdges
 70
     3
 71
     2
 72
     2
 73
     1
 90
        2
 40
-0.6
 41
30.0
 62
     5
 63
     7
421
 16777215
 74
     1
 91
        4
 64
     7
 65
   257
 75
     1
175
     1
 42
1.0
 92
        0
 66
   257
 43
1.0
 76
     1
 77
     6
 78
     2
 67
     7
 79
     5
170
     0
171
     0
290
     0
174
     0
 93
       13
 44
0.0
173
     0
291
     1
 45
0.0
1001
ACAD
1000
AcDbSavedByObjectVersion
1070
     0
  0
VISUALSTYLE
  5
38
102
{ACAD_REACTORS
330
2A
102
}
102
{ACAD_XDICTIONARY
360
48E
102
}
330
2A
100
AcDbVisualStyle
  2
Linepattern
 70
    14
 71
     2
 72
     2
 73
     0
 90
        0
 40
-0.6
 41
-30.0
 62
     5
 63
     7
421
 16777215
 74
     1
 91
        4
 64
     7
 65
   257
 75
     7
175
     7
 42
1.0
 92
        8
 66
     7
 43
1.0
 76
     1
 77
     6
 78
     2
 67
     7
 79
     5
170
     0
171
     0
290
     0
174
     0
 93
        1
 44
0.0
173
     0
291
     1
 45
0.0
1001
ACAD
1000
AcDbSavedByObjectVersion
1070
     0
  0
VISUALSTYLE
  5
33
102
{ACAD_REACTORS
330
2A
102
}
102
{ACAD_XDICTIONARY
360
484
102
}
330
2A
100
AcDbVisualStyle
  2
Realistic
 70
     8
 71
     2
 72
     2
 73
     0
 90
        0
 40
-0.6
 41
-30.0
 62
     5
 63
     7
421
 16777215
 74
     1
 91
        0
 64
     7
 65
   257
 75
     1
175
     1
 42
1.0
 92
        8
 66
     8
424
  7895160
 43
1.0
 76
     1
 77
     6
 78
     2
 67
     7
 79
     5
170
     0
171
     0
290
     0
174
     0
 93
       13
 44
0.0
173
     0
291
     0
 45
0.0
1001
ACAD
1000
AcDbSavedByObjectVersion
1070
     0
  0
VISUALSTYLE
  5
37
102
{ACAD_REACTORS
330
2A
102
}
102
{ACAD_XDICTIONARY
360
48C
102
}
330
2A
100
AcDbVisualStyle
  2
Thicken
 70
    13
 71
     2
 72
     2
 73
     0
 90
        0
 40
-0.6
 41
-30.0
 62
     5
 63
     7
421
 16777215
 74
     1
 91
        4
 64
     7
 65
   257
 75
     1
175
     1
 42
1.0
 92
       12
 66
     7
 43
1.0
 76
     1
 77
     6
 78
     2
 67
     7
 79
     5
170
     0
171
     0
290
     0
174
     0
 93
        1
 44
0.0
173
     0
291
     1
 45
0.0
1001
ACAD
1000
AcDbSavedByObjectVersion
1070
     0
  0
DICTIONARY
  5
496
330
3D
100
AcDbDictionary
280
     1
281
     1
  3
ACAD_XREC_ROUNDTRIP
360
497
  0
DICTIONARY
  5
494
330
3C
100
AcDbDictionary
280
     1
281
     1
  3
ACAD_XREC_ROUNDTRIP
360
495
  0
DICTIONARY
  5
498
330
3E
100
AcDbDictionary
280
     1
281
     1
  3
ACAD_XREC_ROUNDTRIP
360
499
  0
DICTIONARY
  5
47C
330
2F
100
AcDbDictionary
280
     1
281
     1
  3
ACAD_XREC_ROUNDTRIP
360
47D
  0
DICTIONARY
  5
480
330
31
100
AcDbDictionary
280
     1
281
     1
  3
ACAD_XREC_ROUNDTRIP
360
481
  0
DICTIONARY
  5
47E
330
30
100
AcDbDictionary
280
     1
281
     1
  3
ACAD_XREC_ROUNDTRIP
360
47F
  0
DICTIONARY
  5
482
330
32
100
AcDbDictionary
280
     1
281
     1
  3
ACAD_XREC_ROUNDTRIP
360
483
  0
DICTIONARY
  5
48A
330
36
100
AcDbDictionary
280
     1
281
     1
  3
ACAD_XREC_ROUNDTRIP
360
48B
  0
DICTIONARY
  5
492
330
3A
100
AcDbDictionary
280
     1
281
     1
  3
ACAD_XREC_ROUNDTRIP
360
493
  0
DICTIONARY
  5
486
330
34
100
AcDbDictionary
280
     1
281
     1
  3
ACAD_XREC_ROUNDTRIP
360
487
  0
DICTIONARY
  5
488
330
35
100
AcDbDictionary
280
     1
281
     1
  3
ACAD_XREC_ROUNDTRIP
360
489
  0
DICTIONARY
  5
490
330
39
100
AcDbDictionary
280
     1
281
     1
  3
ACAD_XREC_ROUNDTRIP
360
491
  0
DICTIONARY
  5
474
330
2B
100
AcDbDictionary
280
     1
281
     1
  3
ACAD_XREC_ROUNDTRIP
360
475
  0
DICTIONARY
  5
476
330
2C
100
AcDbDictionary
280
     1
281
     1
  3
ACAD_XREC_ROUNDTRIP
360
477
  0
DICTIONARY
  5
478
330
2D
100
AcDbDictionary
280
     1
281
     1
  3
ACAD_XREC_ROUNDTRIP
360
479
  0
DICTIONARY
  5
47A
330
2E
100
AcDbDictionary
280
     1
281
     1
  3
ACAD_XREC_ROUNDTRIP
360
47B
  0
DICTIONARY
  5
48E
330
38
100
AcDbDictionary
280
     1
281
     1
  3
ACAD_XREC_ROUNDTRIP
360
48F
  0
DICTIONARY
  5
484
330
33
100
AcDbDictionary
280
     1
281
     1
  3
ACAD_XREC_ROUNDTRIP
360
485
  0
DICTIONARY
  5
48C
330
37
100
AcDbDictionary
280
     1
281
     1
  3
ACAD_XREC_ROUNDTRIP
360
48D
  0
XRECORD
  5
497
102
{ACAD_REACTORS
330
496
102
}
330
496
100
AcDbXrecord
280
     1
102
MATERIAL
148
0.0
149
0.0
149
0.0
 93
        0
 94
      127
282
     0
 72
     1
 77
     1
171
     1
175
     1
179
     1
273
     0
  0
XRECORD
  5
495
102
{ACAD_REACTORS
330
494
102
}
330
494
100
AcDbXrecord
280
     1
102
MATERIAL
148
0.0
149
0.0
149
0.0
 93
        0
 94
      127
282
     0
 72
     1
 77
     1
171
     1
175
     1
179
     1
273
     0
  0
XRECORD
  5
499
102
{ACAD_REACTORS
330
498
102
}
330
498
100
AcDbXrecord
280
     1
102
MATERIAL
148
0.0
149
0.0
149
0.0
 93
        0
 94
      127
282
     0
 72
     1
 77
     1
171
     1
175
     1
179
     1
273
     0
  0
XRECORD
  5
47D
102
{ACAD_REACTORS
330
47C
102
}
330
47C
100
AcDbXrecord
280
     1
102
RTVSPropertyOp0
 70
     1
102
RTVSPropertyOp1
 70
     1
102
RTVSPropertyOp2
 70
     1
102
RTVSPropertyOp3
 70
     1
102
RTVSPropertyOp4
 70
     1
102
RTVSPropertyOp5
 70
     1
102
RTVSPropertyOp6
 70
     1
102
RTVSPropertyOp7
 70
     1
102
RTVSPropertyOp8
 70
     1
102
RTVSPropertyOp9
 70
     1
102
RTVSPropertyOp10
 70
     1
102
RTVSPropertyOp11
 70
     1
102
RTVSPropertyOp12
 70
     1
102
RTVSPropertyOp13
 70
     1
102
RTVSPropertyOp14
 70
     1
102
RTVSPropertyOp15
 70
     1
102
RTVSPropertyOp16
 70
     1
102
RTVSPropertyOp17
 70
     1
102
RTVSPropertyOp18
 70
     1
102
RTVSPropertyOp19
 70
     1
102
RTVSPropertyOp20
 70
     1
102
RTVSPropertyOp21
 70
     1
102
RTVSPropertyOp22
 70
     1
102
RTVSPropertyOp23
 70
     1
102
RTVSPropertyOp24
 70
     1
102
RTVSPropertyOp25
 70
     1
102
RTVSPropertyOp26
 70
     1
102
RTVSPropertyOp27
 70
     1
102
RTVSPropertyOp28
 70
     1
102
RTVSPropertyOp29
 70
     1
102
RTVSPropertyOp30
 70
     1
102
RTVSPropertyOp31
 70
     1
102
RTVSPropertyOp32
 70
     1
  0
XRECORD
  5
481
102
{ACAD_REACTORS
330
480
102
}
330
480
100
AcDbXrecord
280
     1
102
RTVSPropertyOp0
 70
     1
102
RTVSPropertyOp1
 70
     1
102
RTVSPropertyOp2
 70
     1
102
RTVSPropertyOp3
 70
     1
102
RTVSPropertyOp4
 70
     1
102
RTVSPropertyOp5
 70
     1
102
RTVSPropertyOp6
 70
     1
102
RTVSPropertyOp7
 70
     1
102
RTVSPropertyOp8
 70
     1
102
RTVSPropertyOp9
 70
     1
102
RTVSPropertyOp10
 70
     1
102
RTVSPropertyOp11
 70
     1
102
RTVSPropertyOp12
 70
     1
102
RTVSPropertyOp13
 70
     1
102
RTVSPropertyOp14
 70
     1
102
RTVSPropertyOp15
 70
     1
102
RTVSPropertyOp16
 70
     1
102
RTVSPropertyOp17
 70
     1
102
RTVSPropertyOp18
 70
     1
102
RTVSPropertyOp19
 70
     1
102
RTVSPropertyOp20
 70
     1
102
RTVSPropertyOp21
 70
     1
102
RTVSPropertyOp22
 70
     1
102
RTVSPropertyOp23
 70
     1
102
RTVSPropertyOp24
 70
     1
102
RTVSPropertyOp25
 70
     1
102
RTVSPropertyOp26
 70
     1
102
RTVSPropertyOp27
 70
     1
102
RTVSPropertyOp28
 70
     1
102
RTVSPropertyOp29
 70
     1
102
RTVSPropertyOp30
 70
     1
102
RTVSPropertyOp31
 70
     1
102
RTVSPropertyOp32
 70
     1
  0
XRECORD
  5
47F
102
{ACAD_REACTORS
330
47E
102
}
330
47E
100
AcDbXrecord
280
     1
102
RTVSPropertyOp0
 70
     1
102
RTVSPropertyOp1
 70
     1
102
RTVSPropertyOp2
 70
     1
102
RTVSPropertyOp3
 70
     1
102
RTVSPropertyOp4
 70
     1
102
RTVSPropertyOp5
 70
     1
102
RTVSPropertyOp6
 70
     1
102
RTVSPropertyOp7
 70
     1
102
RTVSPropertyOp8
 70
     1
102
RTVSPropertyOp9
 70
     1
102
RTVSPropertyOp10
 70
     1
102
RTVSPropertyOp11
 70
     1
102
RTVSPropertyOp12
 70
     1
102
RTVSPropertyOp13
 70
     1
102
RTVSPropertyOp14
 70
     1
102
RTVSPropertyOp15
 70
     1
102
RTVSPropertyOp16
 70
     1
102
RTVSPropertyOp17
 70
     1
102
RTVSPropertyOp18
 70
     1
102
RTVSPropertyOp19
 70
     1
102
RTVSPropertyOp20
 70
     1
102
RTVSPropertyOp21
 70
     1
102
RTVSPropertyOp22
 70
     1
102
RTVSPropertyOp23
 70
     1
102
RTVSPropertyOp24
 70
     1
102
RTVSPropertyOp25
 70
     1
102
RTVSPropertyOp26
 70
     1
102
RTVSPropertyOp27
 70
     1
102
RTVSPropertyOp28
 70
     1
102
RTVSPropertyOp29
 70
     1
102
RTVSPropertyOp30
 70
     1
102
RTVSPropertyOp31
 70
     1
102
RTVSPropertyOp32
 70
     1
  0
XRECORD
  5
483
102
{ACAD_REACTORS
330
482
102
}
330
482
100
AcDbXrecord
280
     1
102
RTVSPropertyOp0
 70
     1
102
RTVSPropertyOp1
 70
     1
102
RTVSPropertyOp2
 70
     1
102
RTVSPropertyOp3
 70
     1
102
RTVSPropertyOp4
 70
     1
102
RTVSPropertyOp5
 70
     1
102
RTVSPropertyOp6
 70
     1
102
RTVSPropertyOp7
 70
     1
102
RTVSPropertyOp8
 70
     1
102
RTVSPropertyOp9
 70
     1
102
RTVSPropertyOp10
 70
     1
102
RTVSPropertyOp11
 70
     1
102
RTVSPropertyOp12
 70
     1
102
RTVSPropertyOp13
 70
     1
102
RTVSPropertyOp14
 70
     1
102
RTVSPropertyOp15
 70
     1
102
RTVSPropertyOp16
 70
     1
102
RTVSPropertyOp17
 70
     1
102
RTVSPropertyOp18
 70
     1
102
RTVSPropertyOp19
 70
     1
102
RTVSPropertyOp20
 70
     1
102
RTVSPropertyOp21
 70
     1
102
RTVSPropertyOp22
 70
     1
102
RTVSPropertyOp23
 70
     1
102
RTVSPropertyOp24
 70
     1
102
RTVSPropertyOp25
 70
     1
102
RTVSPropertyOp26
 70
     1
102
RTVSPropertyOp27
 70
     1
102
RTVSPropertyOp28
 70
     1
102
RTVSPropertyOp29
 70
     1
102
RTVSPropertyOp30
 70
     1
102
RTVSPropertyOp31
 70
     1
102
RTVSPropertyOp32
 70
     1
  0
XRECORD
  5
48B
102
{ACAD_REACTORS
330
48A
102
}
330
48A
100
AcDbXrecord
280
     1
102
RTVSPropertyOp0
 70
     1
102
RTVSPropertyOp1
 70
     1
102
RTVSPropertyOp2
 70
     1
102
RTVSPropertyOp3
 70
     1
102
RTVSPropertyOp4
 70
     1
102
RTVSPropertyOp5
 70
     1
102
RTVSPropertyOp6
 70
     1
102
RTVSPropertyOp7
 70
     1
102
RTVSPropertyOp8
 70
     1
102
RTVSPropertyOp9
 70
     1
102
RTVSPropertyOp10
 70
     1
102
RTVSPropertyOp11
 70
     1
102
RTVSPropertyOp12
 70
     1
102
RTVSPropertyOp13
 70
     1
102
RTVSPropertyOp14
 70
     1
102
RTVSPropertyOp15
 70
     1
102
RTVSPropertyOp16
 70
     1
102
RTVSPropertyOp17
 70
     1
102
RTVSPropertyOp18
 70
     1
102
RTVSPropertyOp19
 70
     1
102
RTVSPropertyOp20
 70
     1
102
RTVSPropertyOp21
 70
     1
102
RTVSPropertyOp22
 70
     1
102
RTVSPropertyOp23
 70
     1
102
RTVSPropertyOp24
 70
     1
102
RTVSPropertyOp25
 70
     1
102
RTVSPropertyOp26
 70
     1
102
RTVSPropertyOp27
 70
     1
102
RTVSPropertyOp28
 70
     1
102
RTVSPropertyOp29
 70
     1
102
RTVSPropertyOp30
 70
     1
102
RTVSPropertyOp31
 70
     1
102
RTVSPropertyOp32
 70
     1
  0
XRECORD
  5
493
102
{ACAD_REACTORS
330
492
102
}
330
492
100
AcDbXrecord
280
     1
102
RTVSPropertyOp0
 70
     1
102
RTVSPropertyOp1
 70
     1
102
RTVSPropertyOp2
 70
     1
102
RTVSPropertyOp3
 70
     1
102
RTVSPropertyOp4
 70
     1
102
RTVSPropertyOp5
 70
     1
102
RTVSPropertyOp6
 70
     1
102
RTVSPropertyOp7
 70
     1
102
RTVSPropertyOp8
 70
     1
102
RTVSPropertyOp9
 70
     1
102
RTVSPropertyOp10
 70
     1
102
RTVSPropertyOp11
 70
     1
102
RTVSPropertyOp12
 70
     1
102
RTVSPropertyOp13
 70
     1
102
RTVSPropertyOp14
 70
     1
102
RTVSPropertyOp15
 70
     1
102
RTVSPropertyOp16
 70
     1
102
RTVSPropertyOp17
 70
     1
102
RTVSPropertyOp18
 70
     1
102
RTVSPropertyOp19
 70
     1
102
RTVSPropertyOp20
 70
     1
102
RTVSPropertyOp21
 70
     1
102
RTVSPropertyOp22
 70
     1
102
RTVSPropertyOp23
 70
     1
102
RTVSPropertyOp24
 70
     1
102
RTVSPropertyOp25
 70
     1
102
RTVSPropertyOp26
 70
     1
102
RTVSPropertyOp27
 70
     1
102
RTVSPropertyOp28
 70
     1
102
RTVSPropertyOp29
 70
     1
102
RTVSPropertyOp30
 70
     1
102
RTVSPropertyOp31
 70
     1
102
RTVSPropertyOp32
 70
     1
  0
XRECORD
  5
487
102
{ACAD_REACTORS
330
486
102
}
330
486
100
AcDbXrecord
280
     1
102
RTVSPropertyOp0
 70
     1
102
RTVSPropertyOp1
 70
     1
102
RTVSPropertyOp2
 70
     1
102
RTVSPropertyOp3
 70
     1
102
RTVSPropertyOp4
 70
     1
102
RTVSPropertyOp5
 70
     1
102
RTVSPropertyOp6
 70
     1
102
RTVSPropertyOp7
 70
     1
102
RTVSPropertyOp8
 70
     1
102
RTVSPropertyOp9
 70
     1
102
RTVSPropertyOp10
 70
     1
102
RTVSPropertyOp11
 70
     1
102
RTVSPropertyOp12
 70
     1
102
RTVSPropertyOp13
 70
     1
102
RTVSPropertyOp14
 70
     1
102
RTVSPropertyOp15
 70
     1
102
RTVSPropertyOp16
 70
     1
102
RTVSPropertyOp17
 70
     1
102
RTVSPropertyOp18
 70
     1
102
RTVSPropertyOp19
 70
     1
102
RTVSPropertyOp20
 70
     1
102
RTVSPropertyOp21
 70
     1
102
RTVSPropertyOp22
 70
     1
102
RTVSPropertyOp23
 70
     1
102
RTVSPropertyOp24
 70
     1
102
RTVSPropertyOp25
 70
     1
102
RTVSPropertyOp26
 70
     1
102
RTVSPropertyOp27
 70
     1
102
RTVSPropertyOp28
 70
     1
102
RTVSPropertyOp29
 70
     1
102
RTVSPropertyOp30
 70
     1
102
RTVSPropertyOp31
 70
     1
102
RTVSPropertyOp32
 70
     1
  0
XRECORD
  5
489
102
{ACAD_REACTORS
330
488
102
}
330
488
100
AcDbXrecord
280
     1
102
RTVSPropertyOp0
 70
     1
102
RTVSPropertyOp1
 70
     1
102
RTVSPropertyOp2
 70
     1
102
RTVSPropertyOp3
 70
     1
102
RTVSPropertyOp4
 70
     1
102
RTVSPropertyOp5
 70
     1
102
RTVSPropertyOp6
 70
     1
102
RTVSPropertyOp7
 70
     1
102
RTVSPropertyOp8
 70
     1
102
RTVSPropertyOp9
 70
     1
102
RTVSPropertyOp10
 70
     1
102
RTVSPropertyOp11
 70
     1
102
RTVSPropertyOp12
 70
     1
102
RTVSPropertyOp13
 70
     1
102
RTVSPropertyOp14
 70
     1
102
RTVSPropertyOp15
 70
     1
102
RTVSPropertyOp16
 70
     1
102
RTVSPropertyOp17
 70
     1
102
RTVSPropertyOp18
 70
     1
102
RTVSPropertyOp19
 70
     1
102
RTVSPropertyOp20
 70
     1
102
RTVSPropertyOp21
 70
     1
102
RTVSPropertyOp22
 70
     1
102
RTVSPropertyOp23
 70
     1
102
RTVSPropertyOp24
 70
     1
102
RTVSPropertyOp25
 70
     1
102
RTVSPropertyOp26
 70
     1
102
RTVSPropertyOp27
 70
     1
102
RTVSPropertyOp28
 70
     1
102
RTVSPropertyOp29
 70
     1
102
RTVSPropertyOp30
 70
     1
102
RTVSPropertyOp31
 70
     1
102
RTVSPropertyOp32
 70
     1
  0
XRECORD
  5
491
102
{ACAD_REACTORS
330
490
102
}
330
490
100
AcDbXrecord
280
     1
102
RTVSPropertyOp0
 70
     1
102
RTVSPropertyOp1
 70
     1
102
RTVSPropertyOp2
 70
     1
102
RTVSPropertyOp3
 70
     1
102
RTVSPropertyOp4
 70
     1
102
RTVSPropertyOp5
 70
     1
102
RTVSPropertyOp6
 70
     1
102
RTVSPropertyOp7
 70
     1
102
RTVSPropertyOp8
 70
     1
102
RTVSPropertyOp9
 70
     1
102
RTVSPropertyOp10
 70
     1
102
RTVSPropertyOp11
 70
     1
102
RTVSPropertyOp12
 70
     1
102
RTVSPropertyOp13
 70
     1
102
RTVSPropertyOp14
 70
     1
102
RTVSPropertyOp15
 70
     1
102
RTVSPropertyOp16
 70
     1
102
RTVSPropertyOp17
 70
     1
102
RTVSPropertyOp18
 70
     1
102
RTVSPropertyOp19
 70
     1
102
RTVSPropertyOp20
 70
     1
102
RTVSPropertyOp21
 70
     1
102
RTVSPropertyOp22
 70
     1
102
RTVSPropertyOp23
 70
     1
102
RTVSPropertyOp24
 70
     1
102
RTVSPropertyOp25
 70
     1
102
RTVSPropertyOp26
 70
     1
102
RTVSPropertyOp27
 70
     1
102
RTVSPropertyOp28
 70
     1
102
RTVSPropertyOp29
 70
     1
102
RTVSPropertyOp30
 70
     1
102
RTVSPropertyOp31
 70
     1
102
RTVSPropertyOp32
 70
     1
  0
XRECORD
  5
475
102
{ACAD_REACTORS
330
474
102
}
330
474
100
AcDbXrecord
280
     1
102
RTVSPropertyOp0
 70
     1
102
RTVSPropertyOp1
 70
     1
102
RTVSPropertyOp2
 70
     1
102
RTVSPropertyOp3
 70
     1
102
RTVSPropertyOp4
 70
     1
102
RTVSPropertyOp5
 70
     1
102
RTVSPropertyOp6
 70
     1
102
RTVSPropertyOp7
 70
     1
102
RTVSPropertyOp8
 70
     1
102
RTVSPropertyOp9
 70
     1
102
RTVSPropertyOp10
 70
     1
102
RTVSPropertyOp11
 70
     1
102
RTVSPropertyOp12
 70
     1
102
RTVSPropertyOp13
 70
     1
102
RTVSPropertyOp14
 70
     1
102
RTVSPropertyOp15
 70
     1
102
RTVSPropertyOp16
 70
     1
102
RTVSPropertyOp17
 70
     1
102
RTVSPropertyOp18
 70
     1
102
RTVSPropertyOp19
 70
     1
102
RTVSPropertyOp20
 70
     1
102
RTVSPropertyOp21
 70
     1
102
RTVSPropertyOp22
 70
     1
102
RTVSPropertyOp23
 70
     1
102
RTVSPropertyOp24
 70
     1
102
RTVSPropertyOp25
 70
     1
102
RTVSPropertyOp26
 70
     1
102
RTVSPropertyOp27
 70
     1
102
RTVSPropertyOp28
 70
     1
102
RTVSPropertyOp29
 70
     1
102
RTVSPropertyOp30
 70
     1
102
RTVSPropertyOp31
 70
     1
102
RTVSPropertyOp32
 70
     1
  0
XRECORD
  5
477
102
{ACAD_REACTORS
330
476
102
}
330
476
100
AcDbXrecord
280
     1
102
RTVSPropertyOp0
 70
     1
102
RTVSPropertyOp1
 70
     1
102
RTVSPropertyOp2
 70
     1
102
RTVSPropertyOp3
 70
     1
102
RTVSPropertyOp4
 70
     1
102
RTVSPropertyOp5
 70
     1
102
RTVSPropertyOp6
 70
     1
102
RTVSPropertyOp7
 70
     1
102
RTVSPropertyOp8
 70
     1
102
RTVSPropertyOp9
 70
     1
102
RTVSPropertyOp10
 70
     1
102
RTVSPropertyOp11
 70
     1
102
RTVSPropertyOp12
 70
     1
102
RTVSPropertyOp13
 70
     1
102
RTVSPropertyOp14
 70
     1
102
RTVSPropertyOp15
 70
     1
102
RTVSPropertyOp16
 70
     1
102
RTVSPropertyOp17
 70
     1
102
RTVSPropertyOp18
 70
     1
102
RTVSPropertyOp19
 70
     1
102
RTVSPropertyOp20
 70
     1
102
RTVSPropertyOp21
 70
     1
102
RTVSPropertyOp22
 70
     1
102
RTVSPropertyOp23
 70
     1
102
RTVSPropertyOp24
 70
     1
102
RTVSPropertyOp25
 70
     1
102
RTVSPropertyOp26
 70
     1
102
RTVSPropertyOp27
 70
     1
102
RTVSPropertyOp28
 70
     1
102
RTVSPropertyOp29
 70
     1
102
RTVSPropertyOp30
 70
     1
102
RTVSPropertyOp31
 70
     1
102
RTVSPropertyOp32
 70
     1
  0
XRECORD
  5
479
102
{ACAD_REACTORS
330
478
102
}
330
478
100
AcDbXrecord
280
     1
102
RTVSPropertyOp0
 70
     1
102
RTVSPropertyOp1
 70
     1
102
RTVSPropertyOp2
 70
     1
102
RTVSPropertyOp3
 70
     1
102
RTVSPropertyOp4
 70
     1
102
RTVSPropertyOp5
 70
     1
102
RTVSPropertyOp6
 70
     1
102
RTVSPropertyOp7
 70
     1
102
RTVSPropertyOp8
 70
     1
102
RTVSPropertyOp9
 70
     1
102
RTVSPropertyOp10
 70
     1
102
RTVSPropertyOp11
 70
     1
102
RTVSPropertyOp12
 70
     1
102
RTVSPropertyOp13
 70
     1
102
RTVSPropertyOp14
 70
     1
102
RTVSPropertyOp15
 70
     1
102
RTVSPropertyOp16
 70
     1
102
RTVSPropertyOp17
 70
     1
102
RTVSPropertyOp18
 70
     1
102
RTVSPropertyOp19
 70
     1
102
RTVSPropertyOp20
 70
     1
102
RTVSPropertyOp21
 70
     1
102
RTVSPropertyOp22
 70
     1
102
RTVSPropertyOp23
 70
     1
102
RTVSPropertyOp24
 70
     1
102
RTVSPropertyOp25
 70
     1
102
RTVSPropertyOp26
 70
     1
102
RTVSPropertyOp27
 70
     1
102
RTVSPropertyOp28
 70
     1
102
RTVSPropertyOp29
 70
     1
102
RTVSPropertyOp30
 70
     1
102
RTVSPropertyOp31
 70
     1
102
RTVSPropertyOp32
 70
     1
  0
XRECORD
  5
47B
102
{ACAD_REACTORS
330
47A
102
}
330
47A
100
AcDbXrecord
280
     1
102
RTVSPropertyOp0
 70
     1
102
RTVSPropertyOp1
 70
     1
102
RTVSPropertyOp2
 70
     1
102
RTVSPropertyOp3
 70
     1
102
RTVSPropertyOp4
 70
     1
102
RTVSPropertyOp5
 70
     1
102
RTVSPropertyOp6
 70
     1
102
RTVSPropertyOp7
 70
     1
102
RTVSPropertyOp8
 70
     1
102
RTVSPropertyOp9
 70
     1
102
RTVSPropertyOp10
 70
     1
102
RTVSPropertyOp11
 70
     1
102
RTVSPropertyOp12
 70
     1
102
RTVSPropertyOp13
 70
     1
102
RTVSPropertyOp14
 70
     1
102
RTVSPropertyOp15
 70
     1
102
RTVSPropertyOp16
 70
     1
102
RTVSPropertyOp17
 70
     1
102
RTVSPropertyOp18
 70
     1
102
RTVSPropertyOp19
 70
     1
102
RTVSPropertyOp20
 70
     1
102
RTVSPropertyOp21
 70
     1
102
RTVSPropertyOp22
 70
     1
102
RTVSPropertyOp23
 70
     1
102
RTVSPropertyOp24
 70
     1
102
RTVSPropertyOp25
 70
     1
102
RTVSPropertyOp26
 70
     1
102
RTVSPropertyOp27
 70
     1
102
RTVSPropertyOp28
 70
     1
102
RTVSPropertyOp29
 70
     1
102
RTVSPropertyOp30
 70
     1
102
RTVSPropertyOp31
 70
     1
102
RTVSPropertyOp32
 70
     1
  0
XRECORD
  5
48F
102
{ACAD_REACTORS
330
48E
102
}
330
48E
100
AcDbXrecord
280
     1
102
RTVSPropertyOp0
 70
     1
102
RTVSPropertyOp1
 70
     1
102
RTVSPropertyOp2
 70
     1
102
RTVSPropertyOp3
 70
     1
102
RTVSPropertyOp4
 70
     1
102
RTVSPropertyOp5
 70
     1
102
RTVSPropertyOp6
 70
     1
102
RTVSPropertyOp7
 70
     1
102
RTVSPropertyOp8
 70
     1
102
RTVSPropertyOp9
 70
     1
102
RTVSPropertyOp10
 70
     1
102
RTVSPropertyOp11
 70
     1
102
RTVSPropertyOp12
 70
     1
102
RTVSPropertyOp13
 70
     1
102
RTVSPropertyOp14
 70
     1
102
RTVSPropertyOp15
 70
     1
102
RTVSPropertyOp16
 70
     1
102
RTVSPropertyOp17
 70
     1
102
RTVSPropertyOp18
 70
     1
102
RTVSPropertyOp19
 70
     1
102
RTVSPropertyOp20
 70
     1
102
RTVSPropertyOp21
 70
     1
102
RTVSPropertyOp22
 70
     1
102
RTVSPropertyOp23
 70
     1
102
RTVSPropertyOp24
 70
     1
102
RTVSPropertyOp25
 70
     1
102
RTVSPropertyOp26
 70
     1
102
RTVSPropertyOp27
 70
     1
102
RTVSPropertyOp28
 70
     1
102
RTVSPropertyOp29
 70
     1
102
RTVSPropertyOp30
 70
     1
102
RTVSPropertyOp31
 70
     1
102
RTVSPropertyOp32
 70
     1
  0
XRECORD
  5
485
102
{ACAD_REACTORS
330
484
102
}
330
484
100
AcDbXrecord
280
     1
102
RTVSPropertyOp0
 70
     1
102
RTVSPropertyOp1
 70
     1
102
RTVSPropertyOp2
 70
     1
102
RTVSPropertyOp3
 70
     1
102
RTVSPropertyOp4
 70
     1
102
RTVSPropertyOp5
 70
     1
102
RTVSPropertyOp6
 70
     1
102
RTVSPropertyOp7
 70
     1
102
RTVSPropertyOp8
 70
     1
102
RTVSPropertyOp9
 70
     1
102
RTVSPropertyOp10
 70
     1
102
RTVSPropertyOp11
 70
     1
102
RTVSPropertyOp12
 70
     1
102
RTVSPropertyOp13
 70
     1
102
RTVSPropertyOp14
 70
     1
102
RTVSPropertyOp15
 70
     1
102
RTVSPropertyOp16
 70
     1
102
RTVSPropertyOp17
 70
     1
102
RTVSPropertyOp18
 70
     1
102
RTVSPropertyOp19
 70
     1
102
RTVSPropertyOp20
 70
     1
102
RTVSPropertyOp21
 70
     1
102
RTVSPropertyOp22
 70
     1
102
RTVSPropertyOp23
 70
     1
102
RTVSPropertyOp24
 70
     1
102
RTVSPropertyOp25
 70
     1
102
RTVSPropertyOp26
 70
     1
102
RTVSPropertyOp27
 70
     1
102
RTVSPropertyOp28
 70
     1
102
RTVSPropertyOp29
 70
     1
102
RTVSPropertyOp30
 70
     1
102
RTVSPropertyOp31
 70
     1
102
RTVSPropertyOp32
 70
     1
  0
XRECORD
  5
48D
102
{ACAD_REACTORS
330
48C
102
}
330
48C
100
AcDbXrecord
280
     1
102
RTVSPropertyOp0
 70
     1
102
RTVSPropertyOp1
 70
     1
102
RTVSPropertyOp2
 70
     1
102
RTVSPropertyOp3
 70
     1
102
RTVSPropertyOp4
 70
     1
102
RTVSPropertyOp5
 70
     1
102
RTVSPropertyOp6
 70
     1
102
RTVSPropertyOp7
 70
     1
102
RTVSPropertyOp8
 70
     1
102
RTVSPropertyOp9
 70
     1
102
RTVSPropertyOp10
 70
     1
102
RTVSPropertyOp11
 70
     1
102
RTVSPropertyOp12
 70
     1
102
RTVSPropertyOp13
 70
     1
102
RTVSPropertyOp14
 70
     1
102
RTVSPropertyOp15
 70
     1
102
RTVSPropertyOp16
 70
     1
102
RTVSPropertyOp17
 70
     1
102
RTVSPropertyOp18
 70
     1
102
RTVSPropertyOp19
 70
     1
102
RTVSPropertyOp20
 70
     1
102
RTVSPropertyOp21
 70
     1
102
RTVSPropertyOp22
 70
     1
102
RTVSPropertyOp23
 70
     1
102
RTVSPropertyOp24
 70
     1
102
RTVSPropertyOp25
 70
     1
102
RTVSPropertyOp26
 70
     1
102
RTVSPropertyOp27
 70
     1
102
RTVSPropertyOp28
 70
     1
102
RTVSPropertyOp29
 70
     1
102
RTVSPropertyOp30
 70
     1
102
RTVSPropertyOp31
 70
     1
102
RTVSPropertyOp32
 70
     1
  0
ENDSEC
  0
EOF
