  0
SECTION
  2
HEADER
  9
$ACADVER
  1
AC1018
  9
$ACADMAINTVER
 70
     0
  9
$DWGCODEPAGE
  3
ANSI_1252
  9
$INSBASE
 10
0.0
 20
0.0
 30
0.0
  9
$EXTMIN
 10
-415.499999999989
 20
-267.0000000000051
 30
0.0
  9
$EXTMAX
 10
-118.4999999999909
 20
-57.000000000005
 30
0.0
  9
$LIMMIN
 10
0.0
 20
0.0
  9
$LIMMAX
 10
12.0
 20
9.0
  9
$ORTHOMODE
 70
     0
  9
$REGENMODE
 70
     1
  9
$FILLMODE
 70
     1
  9
$QTEXTMODE
 70
     0
  9
$MIRRTEXT
 70
     1
  9
$LTSCALE
 40
1.0
  9
$ATTMODE
 70
     1
  9
$TEXTSIZE
 40
0.2
  9
$TRACEWID
 40
0.05
  9
$TEXTSTYLE
  7
Standard
  9
$CLAYER
  8
0
  9
$CELTYPE
  6
ByLayer
  9
$CECOLOR
 62
   256
  9
$CELTSCALE
 40
1.0
  9
$DISPSILH
 70
     0
  9
$DIMSCALE
 40
1.0
  9
$DIMASZ
 40
0.18
  9
$DIMEXO
 40
0.0625
  9
$DIMDLI
 40
0.38
  9
$DIMRND
 40
0.0
  9
$DIMDLE
 40
0.0
  9
$DIMEXE
 40
0.18
  9
$DIMTP
 40
0.0
  9
$DIMTM
 40
0.0
  9
$DIMTXT
 40
0.18
  9
$DIMCEN
 40
0.09
  9
$DIMTSZ
 40
0.0
  9
$DIMTOL
 70
     0
  9
$DIMLIM
 70
     0
  9
$DIMTIH
 70
     1
  9
$DIMTOH
 70
     1
  9
$DIMSE1
 70
     0
  9
$DIMSE2
 70
     0
  9
$DIMTAD
 70
     0
  9
$DIMZIN
 70
     0
  9
$DIMBLK
  1

  9
$DIMASO
 70
     1
  9
$DIMSHO
 70
     1
  9
$DIMPOST
  1

  9
$DIMAPOST
  1

  9
$DIMALT
 70
     0
  9
$DIMALTD
 70
     2
  9
$DIMALTF
 40
25.4
  9
$DIMLFAC
 40
1.0
  9
$DIMTOFL
 70
     0
  9
$DIMTVP
 40
0.0
  9
$DIMTIX
 70
     0
  9
$DIMSOXD
 70
     0
  9
$DIMSAH
 70
     0
  9
$DIMBLK1
  1

  9
$DIMBLK2
  1

  9
$DIMSTYLE
  2
Standard
  9
$DIMCLRD
 70
     0
  9
$DIMCLRE
 70
     0
  9
$DIMCLRT
 70
     0
  9
$DIMTFAC
 40
1.0
  9
$DIMGAP
 40
0.09
  9
$DIMJUST
 70
     0
  9
$DIMSD1
 70
     0
  9
$DIMSD2
 70
     0
  9
$DIMTOLJ
 70
     1
  9
$DIMTZIN
 70
     0
  9
$DIMALTZ
 70
     0
  9
$DIMALTTZ
 70
     0
  9
$DIMUPT
 70
     0
  9
$DIMDEC
 70
     4
  9
$DIMTDEC
 70
     4
  9
$DIMALTU
 70
     2
  9
$DIMALTTD
 70
     2
  9
$DIMTXSTY
  7
Standard
  9
$DIMAUNIT
 70
     0
  9
$DIMADEC
 70
     0
  9
$DIMALTRND
 40
0.0
  9
$DIMAZIN
 70
     0
  9
$DIMDSEP
 70
    46
  9
$DIMATFIT
 70
     3
  9
$DIMFRAC
 70
     0
  9
$DIMLDRBLK
  1

  9
$DIMLUNIT
 70
     2
  9
$DIMLWD
 70
    -2
  9
$DIMLWE
 70
    -2
  9
$DIMTMOVE
 70
     0
  9
$LUNITS
 70
     2
  9
$LUPREC
 70
     4
  9
$SKETCHINC
 40
0.1
  9
$FILLETRAD
 40
0.5
  9
$AUNITS
 70
     0
  9
$AUPREC
 70
     0
  9
$MENU
  1
.
  9
$ELEVATION
 40
0.0
  9
$PELEVATION
 40
0.0
  9
$THICKNESS
 40
0.0
  9
$LIMCHECK
 70
     0
  9
$CHAMFERA
 40
0.5
  9
$CHAMFERB
 40
0.5
  9
$CHAMFERC
 40
1.0
  9
$CHAMFERD
 40
0.0
  9
$SKPOLY
 70
     0
  9
$TDCREATE
 40
2458102.624789468
  9
$TDUCREATE
 40
2458102.583122801
  9
$TDUPDATE
 40
2458102.62479
  9
$TDUUPDATE
 40
2458102.583123333
  9
$TDINDWG
 40
0.0000000116
  9
$TDUSRTIMER
 40
0.0000000116
  9
$USRTIMER
 70
     1
  9
$ANGBASE
 50
0.0
  9
$ANGDIR
 70
     0
  9
$PDMODE
 70
     0
  9
$PDSIZE
 40
0.0
  9
$PLINEWID
 40
0.0
  9
$SPLFRAME
 70
     0
  9
$SPLINETYPE
 70
     6
  9
$SPLINESEGS
 70
     8
  9
$HANDSEED
  5
468
  9
$SURFTAB1
 70
     6
  9
$SURFTAB2
 70
     6
  9
$SURFTYPE
 70
     6
  9
$SURFU
 70
     6
  9
$SURFV
 70
     6
  9
$UCSBASE
  2

  9
$UCSNAME
  2

  9
$UCSORG
 10
0.0
 20
0.0
 30
0.0
  9
$UCSXDIR
 10
1.0
 20
0.0
 30
0.0
  9
$UCSYDIR
 10
0.0
 20
1.0
 30
0.0
  9
$UCSORTHOREF
  2

  9
$UCSORTHOVIEW
 70
     0
  9
$UCSORGTOP
 10
0.0
 20
0.0
 30
0.0
  9
$UCSORGBOTTOM
 10
0.0
 20
0.0
 30
0.0
  9
$UCSORGLEFT
 10
0.0
 20
0.0
 30
0.0
  9
$UCSORGRIGHT
 10
0.0
 20
0.0
 30
0.0
  9
$UCSORGFRONT
 10
0.0
 20
0.0
 30
0.0
  9
$UCSORGBACK
 10
0.0
 20
0.0
 30
0.0
  9
$PUCSBASE
  2

  9
$PUCSNAME
  2

  9
$PUCSORG
 10
0.0
 20
0.0
 30
0.0
  9
$PUCSXDIR
 10
1.0
 20
0.0
 30
0.0
  9
$PUCSYDIR
 10
0.0
 20
1.0
 30
0.0
  9
$PUCSORTHOREF
  2

  9
$PUCSORTHOVIEW
 70
     0
  9
$PUCSORGTOP
 10
0.0
 20
0.0
 30
0.0
  9
$PUCSORGBOTTOM
 10
0.0
 20
0.0
 30
0.0
  9
$PUCSORGLEFT
 10
0.0
 20
0.0
 30
0.0
  9
$PUCSORGRIGHT
 10
0.0
 20
0.0
 30
0.0
  9
$PUCSORGFRONT
 10
0.0
 20
0.0
 30
0.0
  9
$PUCSORGBACK
 10
0.0
 20
0.0
 30
0.0
  9
$USERI1
 70
     0
  9
$USERI2
 70
     0
  9
$USERI3
 70
     0
  9
$USERI4
 70
     0
  9
$USERI5
 70
     0
  9
$USERR1
 40
18.1
  9
$USERR2
 40
0.0
  9
$USERR3
 40
0.0
  9
$USERR4
 40
0.0
  9
$USERR5
 40
0.0
  9
$WORLDVIEW
 70
     1
  9
$SHADEDGE
 70
     3
  9
$SHADEDIF
 70
    70
  9
$TILEMODE
 70
     1
  9
$MAXACTVP
 70
    64
  9
$PINSBASE
 10
0.0
 20
0.0
 30
0.0
  9
$PLIMCHECK
 70
     0
  9
$PEXTMIN
 10
1.00000000000000E+20
 20
1.00000000000000E+20
 30
1.00000000000000E+20
  9
$PEXTMAX
 10
-1.00000000000000E+20
 20
-1.00000000000000E+20
 30
-1.00000000000000E+20
  9
$PLIMMIN
 10
0.0
 20
0.0
  9
$PLIMMAX
 10
12.0
 20
9.0
  9
$UNITMODE
 70
     0
  9
$VISRETAIN
 70
     1
  9
$PLINEGEN
 70
     0
  9
$PSLTSCALE
 70
     1
  9
$TREEDEPTH
 70
  3020
  9
$CMLSTYLE
  2
Standard
  9
$CMLJUST
 70
     0
  9
$CMLSCALE
 40
1.0
  9
$PROXYGRAPHICS
 70
     1
  9
$MEASUREMENT
 70
     1
  9
$CELWEIGHT
370
    -1
  9
$ENDCAPS
280
     0
  9
$JOINSTYLE
280
     0
  9
$LWDISPLAY
290
     0
  9
$INSUNITS
 70
     4
  9
$HYPERLINKBASE
  1

  9
$STYLESHEET
  1

  9
$XEDIT
290
     1
  9
$CEPSNTYPE
380
     0
  9
$PSTYLEMODE
290
     1
  9
$FINGERPRINTGUID
  2
{E9C0D355-C993-4C33-9466-BA1768A16FDF}
  9
$VERSIONGUID
  2
{FAEB1C32-E019-11D5-929B-00C0DF256EC4}
  9
$EXTNAMES
290
     1
  9
$PSVPSCALE
 40
0.0
  9
$OLESTARTUP
290
     0
  9
$SORTENTS
280
   127
  9
$INDEXCTL
280
     0
  9
$HIDETEXT
280
     1
  9
$XCLIPFRAME
290
     0
  9
$HALOGAP
280
     0
  9
$OBSCOLOR
 70
   257
  9
$OBSLTYPE
280
     0
  9
$INTERSECTIONDISPLAY
280
     0
  9
$INTERSECTIONCOLOR
 70
   257
  9
$DIMASSOC
280
     2
  9
$PROJECTNAME
  1

  0
ENDSEC
  0
SECTION
  2
CLASSES
  0
CLASS
  1
ACDBDICTIONARYWDFLT
  2
AcDbDictionaryWithDefault
  3
ObjectDBX Classes
 90
        0
 91
        4
280
     0
281
     0
  0
CLASS
  1
VISUALSTYLE
  2
AcDbVisualStyle
  3
ObjectDBX Classes
 90
     4095
 91
        4
280
     0
281
     0
  0
CLASS
  1
MATERIAL
  2
AcDbMaterial
  3
ObjectDBX Classes
 90
     1153
 91
        4
280
     0
281
     0
  0
ENDSEC
  0
SECTION
  2
TABLES
  0
TABLE
  2
VPORT
  5
8
330
0
100
AcDbSymbolTable
 70
     1
  0
VPORT
  5
29
330
8
100
AcDbSymbolTableRecord
100
AcDbViewportTableRecord
  2
*Active
 70
     0
 10
0.0
 20
0.0
 11
1.0
 21
1.0
 12
-266.9999999999899
 22
-162.0000000000051
 13
0.0
 23
0.0
 14
0.5
 24
0.5
 15
0.5
 25
0.5
 16
0.0
 26
0.0
 36
1.0
 17
0.0
 27
0.0
 37
0.0
 40
231.0000000000001
 41
1.60267857142857
 42
50.0
 43
0.0
 44
0.0
 50
0.0
 51
0.0
 71
     0
 72
   100
 73
     1
 74
     3
 75
     0
 76
     0
 77
     0
 78
     0
281
     0
 65
     1
110
0.0
120
0.0
130
0.0
111
1.0
121
0.0
131
0.0
112
0.0
122
1.0
132
0.0
 79
     0
146
0.0
  0
ENDTAB
  0
TABLE
  2
LTYPE
  5
5
330
0
100
AcDbSymbolTable
 70
     8
  0
LTYPE
  5
14
330
5
100
AcDbSymbolTableRecord
100
AcDbLinetypeTableRecord
  2
ByBlock
 70
     0
  3

 72
    65
 73
     0
 40
0.0
  0
LTYPE
  5
15
330
5
100
AcDbSymbolTableRecord
100
AcDbLinetypeTableRecord
  2
ByLayer
 70
     0
  3

 72
    65
 73
     0
 40
0.0
  0
LTYPE
  5
16
330
5
100
AcDbSymbolTableRecord
100
AcDbLinetypeTableRecord
  2
Continuous
 70
     0
  3
Solid line
 72
    65
 73
     0
 40
0.0
  0
LTYPE
  5
3F
330
5
100
AcDbSymbolTableRecord
100
AcDbLinetypeTableRecord
  2
DASHED
 70
     0
  3
Dashed
 72
    65
 73
     2
 40
15.0
 49
7.0
 74
     0
 49
-8.0
 74
     0
  0
LTYPE
  5
40
330
5
100
AcDbSymbolTableRecord
100
AcDbLinetypeTableRecord
  2
DOTTED
 70
     0
  3
Dotted
 72
    65
 73
     2
 40
1.0
 49
0.0
 74
     0
 49
-1.0
 74
     0
  0
LTYPE
  5
41
330
5
100
AcDbSymbolTableRecord
100
AcDbLinetypeTableRecord
  2
DOT_CENTER
 70
     0
  3
Dot_Center
 72
    65
 73
     4
 40
14.0
 49
12.0
 74
     0
 49
-1.0
 74
     0
 49
0.0
 74
     0
 49
-1.0
 74
     0
  0
LTYPE
  5
42
330
5
100
AcDbSymbolTableRecord
100
AcDbLinetypeTableRecord
  2
LONG_DASHED
 70
     0
  3
Long_Dashed
 72
    65
 73
     2
 40
15.0
 49
10.0
 74
     0
 49
-5.0
 74
     0
  0
LTYPE
  5
43
330
5
100
AcDbSymbolTableRecord
100
AcDbLinetypeTableRecord
  2
DASH_CENTER
 70
     0
  3
Dash_Center
 72
    65
 73
     4
 40
14.0
 49
11.0
 74
     0
 49
-1.0
 74
     0
 49
1.0
 74
     0
 49
-1.0
 74
     0
  0
LTYPE
  5
44
330
5
100
AcDbSymbolTableRecord
100
AcDbLinetypeTableRecord
  2
PHANTOM
 70
     0
  3
Phantom
 72
    65
 73
     6
 40
13.0
 49
10.0
 74
     0
 49
-1.0
 74
     0
 49
0.0
 74
     0
 49
-1.0
 74
     0
 49
0.0
 74
     0
 49
-1.0
 74
     0
  0
LTYPE
  5
45
330
5
100
AcDbSymbolTableRecord
100
AcDbLinetypeTableRecord
  2
CENTER_DASH_DASH
 70
     0
  3
Center_Dash_Dash
 72
    65
 73
     6
 40
14.0
 49
9.0
 74
     0
 49
-1.0
 74
     0
 49
1.0
 74
     0
 49
-1.0
 74
     0
 49
1.0
 74
     0
 49
-1.0
 74
     0
  0
ENDTAB
  0
TABLE
  2
LAYER
  5
2
330
0
100
AcDbSymbolTable
 70
     2
  0
LAYER
  5
10
330
2
100
AcDbSymbolTableRecord
100
AcDbLayerTableRecord
  2
0
 70
     0
 62
     7
  6
Continuous
370
    -3
390
F
  0
LAYER
  5
46
330
2
100
AcDbSymbolTableRecord
100
AcDbLayerTableRecord
  2
1
 70
     0
 62
     7
  6
Continuous
370
    -3
390
F
  0
ENDTAB
  0
TABLE
  2
STYLE
  5
3
330
0
100
AcDbSymbolTable
 70
     5
  0
STYLE
  5
11
330
3
100
AcDbSymbolTableRecord
100
AcDbTextStyleTableRecord
  2
Standard
 70
     0
 40
0.0
 41
1.0
 50
0.0
 71
     0
 42
0.2
  3
txt
  4

  0
STYLE
  5
152
330
3
100
AcDbSymbolTableRecord
100
AcDbTextStyleTableRecord
  2
CONVERTER_11
 70
     0
 40
0.0
 41
0.9
 50
0.0
 71
     0
 42
0.2
  3
txt.shx
  4

  0
STYLE
  5
403
330
3
100
AcDbSymbolTableRecord
100
AcDbTextStyleTableRecord
  2
CONVERTER_12
 70
     0
 40
0.0
 41
0.81
 50
0.0
 71
     0
 42
0.2
  3
txt.shx
  4

  0
STYLE
  5
419
330
3
100
AcDbSymbolTableRecord
100
AcDbTextStyleTableRecord
  2
CONVERTER_13
 70
     0
 40
0.0
 41
0.72
 50
0.0
 71
     0
 42
0.2
  3
txt.shx
  4

  0
STYLE
  5
41C
330
3
100
AcDbSymbolTableRecord
100
AcDbTextStyleTableRecord
  2
CONVERTER_14
 70
     0
 40
0.0
 41
0.855
 50
0.0
 71
     0
 42
0.2
  3
txt.shx
  4

  0
ENDTAB
  0
TABLE
  2
VIEW
  5
6
330
0
100
AcDbSymbolTable
 70
     0
  0
ENDTAB
  0
TABLE
  2
UCS
  5
7
330
0
100
AcDbSymbolTable
 70
     0
  0
ENDTAB
  0
TABLE
  2
APPID
  5
9
330
0
100
AcDbSymbolTable
 70
     1
  0
APPID
  5
12
330
9
100
AcDbSymbolTableRecord
100
AcDbRegAppTableRecord
  2
ACAD
 70
     0
  0
ENDTAB
  0
TABLE
  2
DIMSTYLE
  5
A
330
0
100
AcDbSymbolTable
 70
     7
100
AcDbDimStyleTable
  0
DIMSTYLE
105
27
330
A
100
AcDbSymbolTableRecord
100
AcDbDimStyleTableRecord
  2
Standard
 70
     0
178
     0
340
11
  0
DIMSTYLE
105
1A7
102
{ACAD_REACTORS
330
1A8
102
}
330
A
100
AcDbSymbolTableRecord
100
AcDbDimStyleTableRecord
  2
ME10_DIM_10
 70
     0
 41
3.5
 42
0.0
 44
1.5
 73
     0
 74
     0
 77
     1
 78
     8
140
3.5
147
1.5
172
     1
173
     1
174
     1
175
     1
176
     2
177
     2
178
     3
340
152
  0
DIMSTYLE
105
2D9
102
{ACAD_REACTORS
330
2DA
102
}
330
A
100
AcDbSymbolTableRecord
100
AcDbDimStyleTableRecord
  2
ME10_DIM_11
 70
     0
 41
3.5
 42
0.0
 44
1.5
 73
     0
 74
     0
 77
     1
 78
     8
140
3.5
147
1.5
172
     1
173
     1
174
     1
175
     1
176
     2
177
     2
178
     3
340
152
  0
DIMSTYLE
105
2E4
102
{ACAD_REACTORS
330
2E5
102
}
330
A
100
AcDbSymbolTableRecord
100
AcDbDimStyleTableRecord
  2
ME10_DIM_12
 70
     0
 41
3.5
 42
0.0
 44
1.5
 73
     0
 74
     0
 77
     1
 78
     8
140
3.5
147
1.5
172
     1
173
     1
174
     1
175
     1
176
     2
177
     2
178
     3
340
152
  0
DIMSTYLE
105
2EF
102
{ACAD_REACTORS
330
2F0
102
}
330
A
100
AcDbSymbolTableRecord
100
AcDbDimStyleTableRecord
  2
ME10_DIM_13
 70
     0
 41
3.5
 42
0.0
 44
1.5
 73
     0
 74
     0
 77
     1
 78
     8
140
3.5
147
1.5
172
     1
173
     1
174
     1
175
     1
176
     2
177
     2
178
     3
340
152
  0
DIMSTYLE
105
2FA
102
{ACAD_REACTORS
330
2FB
102
}
330
A
100
AcDbSymbolTableRecord
100
AcDbDimStyleTableRecord
  2
ME10_DIM_14
 70
     0
 41
3.5
 42
0.0
 44
1.5
 73
     0
 74
     0
 77
     1
 78
     8
140
3.5
147
1.5
172
     1
173
     1
174
     1
175
     1
176
     2
177
     2
178
     3
340
152
  0
DIMSTYLE
105
305
102
{ACAD_REACTORS
330
306
102
}
330
A
100
AcDbSymbolTableRecord
100
AcDbDimStyleTableRecord
  2
ME10_DIM_15
 70
     0
 41
3.5
 42
0.0
 44
1.5
 73
     0
 74
     0
 77
     1
 78
     8
140
3.5
147
1.5
172
     1
173
     1
174
     1
175
     1
176
     2
177
     2
178
     3
340
152
  0
ENDTAB
  0
TABLE
  2
BLOCK_RECORD
  5
1
330
0
100
AcDbSymbolTable
 70
    23
  0
BLOCK_RECORD
  5
1F
330
1
100
AcDbSymbolTableRecord
100
AcDbBlockTableRecord
  2
*Model_Space
340
22
  0
BLOCK_RECORD
  5
1B
330
1
100
AcDbSymbolTableRecord
100
AcDbBlockTableRecord
  2
*Paper_Space
340
1E
  0
BLOCK_RECORD
  5
23
330
1
100
AcDbSymbolTableRecord
100
AcDbBlockTableRecord
  2
*Paper_Space0
340
26
  0
BLOCK_RECORD
  5
47
330
1
100
AcDbSymbolTableRecord
100
AcDbBlockTableRecord
  2
OTTA_25-M6_PH3-select__1
340
0
102
{BLKREFS
331
4B
102
}
  0
BLOCK_RECORD
  5
4A
330
1
100
AcDbSymbolTableRecord
100
AcDbBlockTableRecord
  2
Allg1
340
0
102
{BLKREFS
331
7D
102
}
  0
BLOCK_RECORD
  5
4E
330
1
100
AcDbSymbolTableRecord
100
AcDbBlockTableRecord
  2
OTTA_25-M6_PH3-select__2
340
0
102
{BLKREFS
331
52
102
}
  0
BLOCK_RECORD
  5
51
330
1
100
AcDbSymbolTableRecord
100
AcDbBlockTableRecord
  2
Drfsicht1
340
0
102
{BLKREFS
331
7E
102
}
  0
BLOCK_RECORD
  5
55
330
1
100
AcDbSymbolTableRecord
100
AcDbBlockTableRecord
  2
OTTA_25-M6_PH3-select__3
340
0
102
{BLKREFS
331
59
102
}
  0
BLOCK_RECORD
  5
58
330
1
100
AcDbSymbolTableRecord
100
AcDbBlockTableRecord
  2
Rckans1
340
0
102
{BLKREFS
331
7F
102
}
  0
BLOCK_RECORD
  5
5C
330
1
100
AcDbSymbolTableRecord
100
AcDbBlockTableRecord
  2
OTTA_25-M6_PH3-select__4
340
0
102
{BLKREFS
331
60
102
}
  0
BLOCK_RECORD
  5
5F
330
1
100
AcDbSymbolTableRecord
100
AcDbBlockTableRecord
  2
SA_Links1
340
0
102
{BLKREFS
331
80
102
}
  0
BLOCK_RECORD
  5
63
330
1
100
AcDbSymbolTableRecord
100
AcDbBlockTableRecord
  2
OTTA_25-M6_PH3-select__5
340
0
102
{BLKREFS
331
67
102
}
  0
BLOCK_RECORD
  5
66
330
1
100
AcDbSymbolTableRecord
100
AcDbBlockTableRecord
  2
SA_Rechts1
340
0
102
{BLKREFS
331
81
102
}
  0
BLOCK_RECORD
  5
6A
330
1
100
AcDbSymbolTableRecord
100
AcDbBlockTableRecord
  2
OTTA_25-M6_PH3-select__6
340
0
102
{BLKREFS
331
6E
102
}
  0
BLOCK_RECORD
  5
6D
330
1
100
AcDbSymbolTableRecord
100
AcDbBlockTableRecord
  2
Vordans1
340
0
102
{BLKREFS
331
82
102
}
  0
BLOCK_RECORD
  5
71
330
1
100
AcDbSymbolTableRecord
100
AcDbBlockTableRecord
  2
_rahmen
340
0
102
{BLKREFS
331
78
102
}
  0
BLOCK_RECORD
  5
74
330
1
100
AcDbSymbolTableRecord
100
AcDbBlockTableRecord
  2
_punkt
340
0
102
{BLKREFS
331
79
102
}
  0
BLOCK_RECORD
  5
77
330
1
100
AcDbSymbolTableRecord
100
AcDbBlockTableRecord
  2
A4I_CS
340
0
102
{BLKREFS
331
83
102
}
  0
BLOCK_RECORD
  5
7C
330
1
100
AcDbSymbolTableRecord
100
AcDbBlockTableRecord
  2
1
340
0
102
{BLKREFS
331
86
102
}
  0
BLOCK_RECORD
  5
19D
330
1
100
AcDbSymbolTableRecord
100
AcDbBlockTableRecord
  2
*D17
340
0
  0
BLOCK_RECORD
  5
2D0
330
1
100
AcDbSymbolTableRecord
100
AcDbBlockTableRecord
  2
*D18
340
0
  0
BLOCK_RECORD
  5
2DB
330
1
100
AcDbSymbolTableRecord
100
AcDbBlockTableRecord
  2
*D19
340
0
  0
BLOCK_RECORD
  5
2E6
330
1
100
AcDbSymbolTableRecord
100
AcDbBlockTableRecord
  2
*D20
340
0
  0
BLOCK_RECORD
  5
2F1
330
1
100
AcDbSymbolTableRecord
100
AcDbBlockTableRecord
  2
*D21
340
0
  0
BLOCK_RECORD
  5
2FC
330
1
100
AcDbSymbolTableRecord
100
AcDbBlockTableRecord
  2
*D22
340
0
  0
ENDTAB
  0
ENDSEC
  0
SECTION
  2
BLOCKS
  0
BLOCK
  5
20
330
1F
100
AcDbEntity
  8
0
100
AcDbBlockBegin
  2
*Model_Space
 70
     0
 10
0.0
 20
0.0
 30
0.0
  3
*Model_Space
  1

  0
ENDBLK
  5
21
330
1F
100
AcDbEntity
  8
0
100
AcDbBlockEnd
  0
BLOCK
  5
1C
330
1B
100
AcDbEntity
 67
     1
  8
0
100
AcDbBlockBegin
  2
*Paper_Space
 70
     0
 10
0.0
 20
0.0
 30
0.0
  3
*Paper_Space
  1

  0
ENDBLK
  5
1D
330
1B
100
AcDbEntity
 67
     1
  8
0
100
AcDbBlockEnd
  0
BLOCK
  5
24
330
23
100
AcDbEntity
  8
0
100
AcDbBlockBegin
  2
*Paper_Space0
 70
     0
 10
0.0
 20
0.0
 30
0.0
  3
*Paper_Space0
  1

  0
ENDBLK
  5
25
330
23
100
AcDbEntity
  8
0
100
AcDbBlockEnd
  0
BLOCK
  5
48
330
47
100
AcDbEntity
  8
0
100
AcDbBlockBegin
  2
OTTA_25-M6_PH3-select__1
 70
     0
 10
-193.4932619247565
 20
-226.4610402990707
 30
0.0
  3
OTTA_25-M6_PH3-select__1
  1

  0
LINE
  5
87
330
47
100
AcDbEntity
  8
0
  6
Continuous
 62
     7
100
AcDbLine
 10
-142.8990425376296
 20
-165.2689580531386
 30
0.0
 11
-174.0759570738695
 21
-156.268958050016
 31
0.0
  0
LINE
  5
88
330
47
100
AcDbEntity
  8
0
  6
Continuous
 62
     7
100
AcDbLine
 10
-150.211701314061
 20
-195.6916629647895
 30
0.0
 11
-143.9155488917419
 21
-197.5092056133624
 31
0.0
  0
LINE
  5
89
330
47
100
AcDbEntity
  8
0
  6
Continuous
 62
     7
100
AcDbLine
 10
-151.9240425376294
 20
-173.084837322293
 30
0.0
 11
-142.8990425376296
 21
-165.2689580531386
 31
0.0
  0
LINE
  5
8A
330
47
100
AcDbEntity
  8
0
  6
Continuous
 62
     7
100
AcDbLine
 10
-142.8990425378078
 20
-167.0486402578642
 30
0.0
 11
-151.9240425378077
 21
-174.8645195270186
 31
0.0
  0
LINE
  5
8B
330
47
100
AcDbEntity
  8
0
  6
Continuous
 62
     7
100
AcDbLine
 10
-152.8766704868984
 20
-223.7847590074118
 30
0.0
 11
-152.3570552446795
 21
-224.4543742497196
 31
0.0
  0
LINE
  5
8C
330
47
100
AcDbEntity
  8
0
  6
Continuous
 62
     7
100
AcDbLine
 10
-157.5532076675919
 20
-225.006188036173
 30
0.0
 11
-157.5532076674506
 21
-223.5945666280452
 31
0.0
  0
LINE
  5
8D
330
47
100
AcDbEntity
  8
0
  6
Continuous
 62
     7
100
AcDbLine
 10
-145.7308304442851
 20
-183.4029985320449
 30
0.0
 11
-150.4745804440107
 21
-179.2947905224466
 31
0.0
  0
LINE
  5
8E
330
47
100
AcDbEntity
  8
0
  6
Continuous
 62
     7
100
AcDbLine
 10
-156.2117013144485
 20
-199.5599097680577
 30
0.0
 11
-156.2117013138673
 21
-193.7575395632829
 31
0.0
  0
LINE
  5
8F
330
47
100
AcDbEntity
  8
0
  6
Continuous
 62
     7
100
AcDbLine
 10
-150.2117013144485
 20
-199.5599097686587
 30
0.0
 11
-150.2117013138113
 21
-193.1990864133238
 31
0.0
  0
LINE
  5
90
330
47
100
AcDbEntity
  8
0
  6
Continuous
 62
     7
100
AcDbLine
 10
-152.7311872427005
 20
-168.8328832463989
 30
0.0
 11
-150.114942983902
 21
-168.4823729783912
 31
0.0
  0
LINE
  5
91
330
47
100
AcDbEntity
  8
0
  6
Continuous
 62
     7
100
AcDbLine
 10
-153.4322077790481
 20
-167.5247611168335
 30
0.0
 11
-152.7311872427005
 21
-168.8328832463989
 31
0.0
  0
LINE
  5
92
330
47
100
AcDbEntity
  8
0
  6
Continuous
 62
     7
100
AcDbLine
 10
-150.114942983902
 20
-168.4823729783912
 30
0.0
 11
-150.1149429839157
 21
-168.6192023322115
 31
0.0
  0
LINE
  5
93
330
47
100
AcDbEntity
  8
0
  6
Continuous
 62
     7
100
AcDbLine
 10
-153.8902982342474
 20
-168.9881746733868
 30
0.0
 11
-154.591318770595
 21
-167.6800525438214
 31
0.0
  0
LINE
  5
94
330
47
100
AcDbEntity
  8
0
  6
Continuous
 62
     7
100
AcDbLine
 10
-155.3345931974455
 20
-169.1816735078057
 30
0.0
 11
-153.8902982342474
 21
-168.9881746733868
 31
0.0
  0
LINE
  5
95
330
47
100
AcDbEntity
  8
0
  6
Continuous
 62
     7
100
AcDbLine
 10
-153.0262763737759
 20
-169.5812775372435
 30
0.0
 11
-153.4322077791782
 21
-168.8237992224726
 31
0.0
  0
LINE
  5
96
330
47
100
AcDbEntity
  8
0
  6
Continuous
 62
     7
100
AcDbLine
 10
-153.8902982343028
 20
-169.5418787212238
 30
0.0
 11
-153.8902982342474
 21
-168.9881746733868
 31
0.0
  0
LINE
  5
97
330
47
100
AcDbEntity
  8
0
  6
Continuous
 62
     7
100
AcDbLine
 10
-153.578965393647
 20
-169.5691296630532
 30
0.0
 11
-153.5797153801243
 21
-169.5677301692339
 31
0.0
  0
LINE
  5
98
330
47
100
AcDbEntity
  8
0
  6
Continuous
 62
     7
100
AcDbLine
 10
-153.5797153801243
 20
-169.5677301692339
 30
0.0
 11
-153.5865397444896
 21
-169.5686444606937
 31
0.0
  0
LINE
  5
99
330
47
100
AcDbEntity
  8
0
  6
Continuous
 62
     7
100
AcDbLine
 10
-152.4206043885904
 20
-169.5418787213716
 30
0.0
 11
-152.4206043885775
 21
-169.412438742246
 31
0.0
  0
LINE
  5
9A
330
47
100
AcDbEntity
  8
0
  6
Continuous
 62
     7
100
AcDbLine
 10
-153.4322077790481
 20
-167.5247611168335
 30
0.0
 11
-153.4322077791782
 21
-168.8237992224726
 31
0.0
  0
LINE
  5
9B
330
47
100
AcDbEntity
  8
0
  6
Continuous
 62
     7
100
AcDbLine
 10
-152.7311872427005
 20
-168.8328832463989
 30
0.0
 11
-152.7311872427742
 21
-169.5690820099458
 31
0.0
  0
LINE
  5
9C
330
47
100
AcDbEntity
  8
0
  6
Continuous
 62
     7
100
AcDbLine
 10
-142.8990425378078
 20
-167.0486402578642
 30
0.0
 11
-142.8990425376296
 21
-165.2689580531386
 31
0.0
  0
LINE
  5
9D
330
47
100
AcDbEntity
  8
0
  6
Continuous
 62
     7
100
AcDbLine
 10
-158.6509711371343
 20
-193.2554556118867
 30
0.0
 11
-156.2117013138875
 21
-193.9596121566698
 31
0.0
  0
LINE
  5
9E
330
47
100
AcDbEntity
  8
0
  6
Continuous
 62
     7
100
AcDbLine
 10
-152.1405488917419
 20
-204.6322645594895
 30
0.0
 11
-143.9155488917419
 21
-197.5092056133624
 31
0.0
  0
LINE
  5
9F
330
47
100
AcDbEntity
  8
0
  6
Continuous
 62
     7
100
AcDbLine
 10
-141.5317376966587
 20
-220.4360766339214
 30
0.0
 11
-132.5067376966588
 21
-212.620197364767
 31
0.0
  0
LINE
  5
A0
330
47
100
AcDbEntity
  8
0
  6
Continuous
 62
     7
100
AcDbLine
 10
-141.5317376940162
 20
-194.0548644513415
 30
0.0
 11
-133.3067376940161
 21
-186.9318055052144
 31
0.0
  0
LINE
  5
A1
330
47
100
AcDbEntity
  8
0
  6
Continuous
 62
     7
100
AcDbLine
 10
-149.6153330026141
 20
-178.9689206348857
 30
0.0
 11
-149.3976308964792
 21
-177.0524561891633
 31
0.0
  0
LINE
  5
A2
330
47
100
AcDbEntity
  8
0
  6
Continuous
 62
     7
100
AcDbLine
 10
-150.4745804440107
 20
-179.2947905224466
 30
0.0
 11
-150.0112568529057
 21
-178.6260405225162
 31
0.0
  0
LINE
  5
A3
330
47
100
AcDbEntity
  8
0
  6
Continuous
 62
     7
100
AcDbLine
 10
-152.3570552446795
 20
-224.4543742497196
 30
0.0
 11
-150.2510644653757
 21
-225.2354076796423
 31
0.0
  0
LINE
  5
A4
330
47
100
AcDbEntity
  8
0
  6
Continuous
 62
     7
100
AcDbLine
 10
-156.3234515942181
 20
-225.3611880362962
 30
0.0
 11
-157.5532076675919
 21
-225.006188036173
 31
0.0
  0
LINE
  5
A5
330
47
100
AcDbEntity
  8
0
  6
Continuous
 62
     7
100
AcDbLine
 10
-150.0112568529057
 20
-178.6260405225162
 30
0.0
 11
-149.6153330026141
 21
-178.9689206348857
 31
0.0
  0
LINE
  5
A6
330
47
100
AcDbEntity
  8
0
  6
Continuous
 62
     7
100
AcDbLine
 10
-151.9240425378077
 20
-174.8645195270186
 30
0.0
 11
-149.3976308964792
 21
-177.0524561891633
 31
0.0
  0
LINE
  5
A7
330
47
100
AcDbEntity
  8
0
  6
Continuous
 62
     7
100
AcDbLine
 10
-132.5067376966588
 20
-212.620197364767
 30
0.0
 11
-132.5067376929955
 21
-176.0486402587316
 31
0.0
  0
LINE
  5
A8
330
47
100
AcDbEntity
  8
0
  6
Continuous
 62
     7
100
AcDbLine
 10
-133.3067376940161
 20
-186.9318055052144
 30
0.0
 11
-133.3067376963019
 21
-209.7515748942747
 31
0.0
  0
LINE
  5
A9
330
47
100
AcDbEntity
  8
0
  6
Continuous
 62
     7
100
AcDbLine
 10
-133.3067376963019
 20
-209.7515748942747
 30
0.0
 11
-141.5317376963019
 21
-216.8746338404017
 31
0.0
  0
LINE
  5
AA
330
47
100
AcDbEntity
  8
0
  6
Continuous
 62
     7
100
AcDbLine
 10
-143.9155488917419
 20
-197.5092056133624
 30
0.0
 11
-143.9155488926615
 21
-206.6890748932121
 31
0.0
  0
LINE
  5
AB
330
47
100
AcDbEntity
  8
0
  6
Continuous
 62
     7
100
AcDbLine
 10
-143.9155488926615
 20
-206.6890748932121
 30
0.0
 11
-133.3067376963019
 21
-209.7515748942747
 31
0.0
  0
LINE
  5
AC
330
47
100
AcDbEntity
  8
0
  6
Continuous
 62
     7
100
AcDbLine
 10
-141.5317376929954
 20
-183.864519527886
 30
0.0
 11
-132.5067376929955
 21
-176.0486402587316
 31
0.0
  0
LINE
  5
AD
330
47
100
AcDbEntity
  8
0
  6
Continuous
 62
     7
100
AcDbLine
 10
-135.0331493343241
 20
-173.8607035965869
 30
0.0
 11
-132.5067376929955
 21
-176.0486402587316
 31
0.0
  0
LINE
  5
AE
330
47
100
AcDbEntity
  8
0
  6
Continuous
 62
     7
100
AcDbLine
 10
-166.8759711371341
 20
-200.3785145580137
 30
0.0
 11
-152.1405488917419
 21
-204.6322645594895
 31
0.0
  0
LINE
  5
AF
330
47
100
AcDbEntity
  8
0
  6
Continuous
 62
     7
100
AcDbLine
 10
-158.7050214547354
 20
-225.7735402988321
 30
0.0
 11
-156.3234515943282
 21
-226.4610402990707
 31
0.0
  0
LINE
  5
B0
330
47
100
AcDbEntity
  8
0
  6
Continuous
 62
     7
100
AcDbLine
 10
-153.7807076679192
 20
-221.7391072006796
 30
0.0
 11
-157.5532076675919
 21
-225.006188036173
 31
0.0
  0
LINE
  5
B1
330
47
100
AcDbEntity
  8
0
  6
Continuous
 62
     7
100
AcDbLine
 10
-166.8759711371341
 20
-200.3785145580137
 30
0.0
 11
-158.6509711371343
 21
-193.2554556118867
 31
0.0
  0
LINE
  5
B2
330
47
100
AcDbEntity
  8
0
  6
Continuous
 62
     7
100
AcDbLine
 10
-158.6509711371343
 20
-193.2554556118867
 30
0.0
 11
-158.6509711371141
 21
-193.0533830184998
 31
0.0
  0
LINE
  5
B3
330
47
100
AcDbEntity
  8
0
  6
Continuous
 62
     7
100
AcDbLine
 10
-170.5632983029955
 20
-189.8166629627512
 30
0.0
 11
-168.1490284797459
 21
-190.5136026291678
 31
0.0
  0
LINE
  5
B4
330
47
100
AcDbEntity
  8
0
  6
Continuous
 62
     7
100
AcDbLine
 10
-173.0827842316349
 20
-162.9578832443605
 30
0.0
 11
-170.4665399728364
 21
-162.6073729763529
 31
0.0
  0
LINE
  5
B5
330
47
100
AcDbEntity
  8
0
  6
Continuous
 62
     7
100
AcDbLine
 10
-173.7838047679825
 20
-161.6497611147951
 30
0.0
 11
-173.0827842316349
 21
-162.9578832443605
 31
0.0
  0
LINE
  5
B6
330
47
100
AcDbEntity
  8
0
  6
Continuous
 62
     7
100
AcDbLine
 10
-173.7838047679825
 20
-161.6497611147951
 30
0.0
 11
-173.7838047681126
 21
-162.9487992204342
 31
0.0
  0
LINE
  5
B7
330
47
100
AcDbEntity
  8
0
  6
Continuous
 62
     7
100
AcDbLine
 10
-170.4665399728364
 20
-162.6073729763529
 30
0.0
 11
-170.4665399728501
 21
-162.7442023301732
 31
0.0
  0
LINE
  5
B8
330
47
100
AcDbEntity
  8
0
  6
Continuous
 62
     7
100
AcDbLine
 10
-175.6861901863799
 20
-163.3066735057674
 30
0.0
 11
-174.2418952231818
 21
-163.1131746713485
 31
0.0
  0
LINE
  5
B9
330
47
100
AcDbEntity
  8
0
  6
Continuous
 62
     7
100
AcDbLine
 10
-174.2418952231818
 20
-163.1131746713485
 30
0.0
 11
-174.9429157595294
 21
-161.805052541783
 31
0.0
  0
LINE
  5
BA
330
47
100
AcDbEntity
  8
0
  6
Continuous
 62
     7
100
AcDbLine
 10
-173.0827842316349
 20
-162.9578832443605
 30
0.0
 11
-173.0827842317086
 21
-163.6940820079075
 31
0.0
  0
LINE
  5
BB
330
47
100
AcDbEntity
  8
0
  6
Continuous
 62
     7
100
AcDbLine
 10
-173.9305623825814
 20
-163.6941296610148
 30
0.0
 11
-173.9313123690587
 21
-163.6927301671955
 31
0.0
  0
LINE
  5
BC
330
47
100
AcDbEntity
  8
0
  6
Continuous
 62
     7
100
AcDbLine
 10
-173.9313123690587
 20
-163.6927301671955
 30
0.0
 11
-173.9381367334236
 21
-163.6936444586553
 31
0.0
  0
LINE
  5
BD
330
47
100
AcDbEntity
  8
0
  6
Continuous
 62
     7
100
AcDbLine
 10
-173.3778733627103
 20
-163.7062775352051
 30
0.0
 11
-173.7838047681126
 21
-162.9487992204342
 31
0.0
  0
LINE
  5
BE
330
47
100
AcDbEntity
  8
0
  6
Continuous
 62
     7
100
AcDbLine
 10
-174.2418952232372
 20
-163.6668787191852
 30
0.0
 11
-174.2418952231818
 21
-163.1131746713485
 31
0.0
  0
LINE
  5
BF
330
47
100
AcDbEntity
  8
0
  6
Continuous
 62
     7
100
AcDbLine
 10
-172.7722013775119
 20
-163.5374387402076
 30
0.0
 11
-172.7069347526774
 21
-163.6592279201833
 31
0.0
  0
LINE
  5
C0
330
47
100
AcDbEntity
  8
0
  6
Continuous
 62
     7
100
AcDbLine
 10
-171.4663389073777
 20
-163.3624863431412
 30
0.0
 11
-172.7722013775119
 21
-163.5374387402076
 31
0.0
  0
LINE
  5
C1
330
47
100
AcDbEntity
  8
0
  6
Continuous
 62
     7
100
AcDbLine
 10
-172.7722013775248
 20
-163.6668787193332
 30
0.0
 11
-172.7722013775119
 21
-163.5374387402076
 31
0.0
  0
LINE
  5
C2
330
47
100
AcDbEntity
  8
0
  6
Continuous
 62
     7
100
AcDbLine
 10
-172.2409985152117
 20
-215.1305058683332
 30
0.0
 11
-172.895652186052
 21
-215.6974525779617
 31
0.0
  0
LINE
  5
C3
330
47
100
AcDbEntity
  8
0
  6
Continuous
 62
     7
100
AcDbLine
 10
-176.563298303383
 20
-193.6849097660194
 30
0.0
 11
-176.5632983028018
 21
-187.8825395612445
 31
0.0
  0
LINE
  5
C4
330
47
100
AcDbEntity
  8
0
  6
Continuous
 62
     7
100
AcDbLine
 10
-170.563298303383
 20
-193.6849097666204
 30
0.0
 11
-170.5632983029753
 21
-189.6145903693642
 31
0.0
  0
LINE
  5
C5
330
47
100
AcDbEntity
  8
0
  6
Continuous
 62
     7
100
AcDbLine
 10
-193.493261920062
 20
-168.8645195226817
 30
0.0
 11
-184.4682619200621
 21
-161.0486402535271
 31
0.0
  0
LINE
  5
C6
330
47
100
AcDbEntity
  8
0
  6
Continuous
 62
     7
100
AcDbLine
 10
-190.9668502784412
 20
-168.1352073023323
 30
0.0
 11
-181.9418502784414
 21
-160.3193280331778
 31
0.0
  0
LINE
  5
C7
330
47
100
AcDbEntity
  8
0
  6
Continuous
 62
     7
100
AcDbLine
 10
-182.8844507260896
 20
-195.7572645564103
 30
0.0
 11
-176.5632983030422
 21
-190.2829859768577
 31
0.0
  0
LINE
  5
C8
330
47
100
AcDbEntity
  8
0
  6
Continuous
 62
     7
100
AcDbLine
 10
-182.8844507260896
 20
-195.7572645564103
 30
0.0
 11
-168.1490284806972
 21
-200.0110145578861
 31
0.0
  0
LINE
  5
C9
330
47
100
AcDbEntity
  8
0
  6
Continuous
 62
     7
100
AcDbLine
 10
-168.1490284797257
 20
-190.3115300357809
 30
0.0
 11
-181.7802683352928
 21
-186.3765300344156
 31
0.0
  0
LINE
  5
CA
330
47
100
AcDbEntity
  8
0
  6
Continuous
 62
     7
100
AcDbLine
 10
-166.8759711371341
 20
-200.3785145580137
 30
0.0
 11
-166.8759711361625
 21
-190.6790300359084
 31
0.0
  0
LINE
  5
CB
330
47
100
AcDbEntity
  8
0
  6
Continuous
 62
     7
100
AcDbLine
 10
-159.441143047534
 20
-221.3862872902407
 30
0.0
 11
-158.7050214547354
 21
-225.7735402988321
 31
0.0
  0
LINE
  5
CC
330
47
100
AcDbEntity
  8
0
  6
Continuous
 62
     7
100
AcDbLine
 10
-182.8844507270092
 20
-204.9371338362599
 30
0.0
 11
-182.8844507260896
 21
-195.7572645564103
 31
0.0
  0
LINE
  5
CD
330
47
100
AcDbEntity
  8
0
  6
Continuous
 62
     7
100
AcDbLine
 10
-168.1490284806972
 20
-200.0110145578861
 30
0.0
 11
-168.1490284797257
 21
-190.3115300357809
 31
0.0
  0
LINE
  5
CE
330
47
100
AcDbEntity
  8
0
  6
Continuous
 62
     7
100
AcDbLine
 10
-182.8238289501321
 20
-218.8110402964164
 30
0.0
 11
-181.7845984651874
 21
-215.0840221690393
 31
0.0
  0
LINE
  5
CF
330
47
100
AcDbEntity
  8
0
  6
Continuous
 62
     7
100
AcDbLine
 10
-173.1009014912676
 20
-216.3079442083778
 30
0.0
 11
-172.6524939672292
 21
-220.1884060658216
 31
0.0
  0
LINE
  5
D0
330
47
100
AcDbEntity
  8
0
  6
Continuous
 62
     7
100
AcDbLine
 10
-172.6524939672292
 20
-220.1884060658216
 30
0.0
 11
-170.0066529739663
 21
-220.9521945709332
 31
0.0
  0
LINE
  5
D1
330
47
100
AcDbEntity
  8
0
  6
Continuous
 62
     7
100
AcDbLine
 10
-170.0066529739663
 20
-220.9521945709332
 30
0.0
 11
-170.0066529732116
 21
-213.4177735582264
 31
0.0
  0
LINE
  5
D2
330
47
100
AcDbEntity
  8
0
  6
Continuous
 62
     7
100
AcDbLine
 10
-183.1009570738694
 20
-164.0848373191704
 30
0.0
 11
-183.1009570740476
 21
-165.864519523896
 31
0.0
  0
LINE
  5
D3
330
47
100
AcDbEntity
  8
0
  6
Continuous
 62
     7
100
AcDbLine
 10
-185.6273687156684
 20
-166.5938317442454
 30
0.0
 11
-185.40966660993
 21
-168.6359865594771
 31
0.0
  0
LINE
  5
D4
330
47
100
AcDbEntity
  8
0
  6
Continuous
 62
     7
100
AcDbLine
 10
-185.40966660993
 20
-168.6359865594771
 30
0.0
 11
-185.0137427595926
 21
-168.5216931887445
 31
0.0
  0
LINE
  5
D5
330
47
100
AcDbEntity
  8
0
  6
Continuous
 62
     7
100
AcDbLine
 10
-185.0137427595926
 20
-168.5216931887445
 30
0.0
 11
-184.5504191686483
 21
-169.4579431887678
 31
0.0
  0
LINE
  5
D6
330
47
100
AcDbEntity
  8
0
  6
Continuous
 62
     7
100
AcDbLine
 10
-185.6273687156684
 20
-166.5938317442454
 30
0.0
 11
-183.1009570739016
 21
-164.4058950820586
 31
0.0
  0
LINE
  5
D7
330
47
100
AcDbEntity
  8
0
  6
Continuous
 62
     7
100
AcDbLine
 10
-185.6273687156684
 20
-166.5938317442454
 30
0.0
 11
-183.1009570740476
 21
-165.864519523896
 31
0.0
  0
LINE
  5
D8
330
47
100
AcDbEntity
  8
0
  6
Continuous
 62
     7
100
AcDbLine
 10
-185.2682619233687
 20
-194.7515748890705
 30
0.0
 11
-185.2682619221651
 21
-182.7355465725127
 31
0.0
  0
LINE
  5
D9
330
47
100
AcDbEntity
  8
0
  6
Continuous
 62
     7
100
AcDbLine
 10
-185.2682619233687
 20
-194.7515748890705
 30
0.0
 11
-182.6094507254002
 21
-195.5191075697725
 31
0.0
  0
LINE
  5
DA
330
47
100
AcDbEntity
  8
0
  6
Continuous
 62
     7
100
AcDbLine
 10
-180.47958996847
 20
-161.8146668132496
 30
0.0
 11
-181.9418502784414
 21
-160.3193280331778
 31
0.0
  0
LINE
  5
DB
330
47
100
AcDbEntity
  8
0
  6
Continuous
 62
     7
100
AcDbLine
 10
-184.4682619200621
 20
-161.0486402535271
 30
0.0
 11
-181.9418502784414
 21
-160.3193280331778
 31
0.0
  0
LINE
  5
DC
330
47
100
AcDbEntity
  8
0
  6
Continuous
 62
     7
100
AcDbLine
 10
-189.3615689095296
 20
-169.7768024871918
 30
0.0
 11
-183.1009570738964
 21
-164.3549535942999
 31
0.0
  0
LINE
  5
DD
330
47
100
AcDbEntity
  8
0
  6
Continuous
 62
     7
100
AcDbLine
 10
-185.5241169665954
 20
-167.5623848771387
 30
0.0
 11
-189.2941691689227
 21
-170.8273458579476
 31
0.0
  0
LINE
  5
DE
330
47
100
AcDbEntity
  8
0
  6
Continuous
 62
     7
100
AcDbLine
 10
-191.5177279693285
 20
-210.8276509632906
 30
0.0
 11
-193.3875760579146
 21
-212.446986909224
 31
0.0
  0
LINE
  5
DF
330
47
100
AcDbEntity
  8
0
  6
Continuous
 62
     7
100
AcDbLine
 10
-149.6153330026141
 20
-178.9689206348857
 30
0.0
 11
-140.5903330026142
 21
-171.1530413657312
 31
0.0
  0
LINE
  5
E0
330
47
100
AcDbEntity
  8
0
  6
Continuous
 62
     7
100
AcDbLine
 10
-152.5509515945453
 20
-222.0941072008028
 30
0.0
 11
-156.3234515942181
 21
-225.3611880362962
 31
0.0
  0
LINE
  5
E1
330
47
100
AcDbEntity
  8
0
  6
Continuous
 62
     7
100
AcDbLine
 10
-156.3234515943282
 20
-226.4610402990707
 30
0.0
 11
-152.8766704868674
 21
-223.4760402987253
 31
0.0
  0
LINE
  5
E2
330
47
100
AcDbEntity
  8
0
  6
Continuous
 62
     7
100
AcDbLine
 10
-141.5317376940162
 20
-194.0548644513415
 30
0.0
 11
-148.0269282223996
 21
-192.1798644506909
 31
0.0
  0
LINE
  5
E3
330
47
100
AcDbEntity
  8
0
  6
Continuous
 62
     7
100
AcDbLine
 10
-148.0269282223996
 20
-192.1798644506909
 30
0.0
 11
-153.2447312805955
 21
-194.6140300372736
 31
0.0
  0
LINE
  5
E4
330
47
100
AcDbEntity
  8
0
  6
Continuous
 62
     7
100
AcDbLine
 10
-152.1405488917419
 20
-204.6322645594895
 30
0.0
 11
-152.1405488926615
 21
-213.8121338393391
 31
0.0
  0
LINE
  5
E5
330
47
100
AcDbEntity
  8
0
  6
Continuous
 62
     7
100
AcDbLine
 10
-156.7131303566004
 20
-218.6798511677932
 30
0.0
 11
-155.9077593999652
 21
-221.125080255428
 31
0.0
  0
LINE
  5
E6
330
47
100
AcDbEntity
  8
0
  6
Continuous
 62
     7
100
AcDbLine
 10
-156.3234515943282
 20
-226.4610402990707
 30
0.0
 11
-156.3234515942181
 21
-225.3611880362962
 31
0.0
  0
LINE
  5
E7
330
47
100
AcDbEntity
  8
0
  6
Continuous
 62
     7
100
AcDbLine
 10
-141.5317376940162
 20
-194.0548644513415
 30
0.0
 11
-141.5317376929954
 21
-183.864519527886
 31
0.0
  0
LINE
  5
E8
330
47
100
AcDbEntity
  8
0
  6
Continuous
 62
     7
100
AcDbLine
 10
-144.0581493343239
 20
-181.6765828657414
 30
0.0
 11
-145.6634307034715
 21
-182.3913684197451
 31
0.0
  0
LINE
  5
E9
330
47
100
AcDbEntity
  8
0
  6
Continuous
 62
     7
100
AcDbLine
 10
-145.6634307034715
 20
-182.3913684197451
 30
0.0
 11
-145.26750685318
 21
-182.7342485321146
 31
0.0
  0
LINE
  5
EA
330
47
100
AcDbEntity
  8
0
  6
Continuous
 62
     7
100
AcDbLine
 10
-145.26750685318
 20
-182.7342485321146
 30
0.0
 11
-145.7308304442851
 21
-183.4029985320449
 31
0.0
  0
LINE
  5
EB
330
47
100
AcDbEntity
  8
0
  6
Continuous
 62
     7
100
AcDbLine
 10
-144.0581493343239
 20
-181.6765828657414
 30
0.0
 11
-141.5317376929954
 21
-183.864519527886
 31
0.0
  0
LINE
  5
EC
330
47
100
AcDbEntity
  8
0
  6
Continuous
 62
     7
100
AcDbLine
 10
-140.5903330026142
 20
-171.1530413657312
 30
0.0
 11
-140.3726308964793
 21
-169.2365769200088
 31
0.0
  0
LINE
  5
ED
330
47
100
AcDbEntity
  8
0
  6
Continuous
 62
     7
100
AcDbLine
 10
-142.8990425378078
 20
-167.0486402578642
 30
0.0
 11
-140.3726308964793
 21
-169.2365769200088
 31
0.0
  0
LINE
  5
EE
330
47
100
AcDbEntity
  8
0
  6
Continuous
 62
     7
100
AcDbLine
 10
-151.1147419184429
 20
-169.2374863451796
 30
0.0
 11
-152.4206043885775
 21
-169.412438742246
 31
0.0
  0
LINE
  5
EF
330
47
100
AcDbEntity
  8
0
  6
Continuous
 62
     7
100
AcDbLine
 10
-182.8238289501321
 20
-218.8110402964164
 30
0.0
 11
-176.1488289507111
 21
-213.0303207266566
 31
0.0
  0
LINE
  5
F0
330
47
100
AcDbEntity
  8
0
  6
Continuous
 62
     7
100
AcDbLine
 10
-170.0066529739663
 20
-220.9521945709332
 30
0.0
 11
-165.8816529743241
 21
-217.3798397806323
 31
0.0
  0
LINE
  5
F1
330
47
100
AcDbEntity
  8
0
  6
Continuous
 62
     7
100
AcDbLine
 10
-141.5317376966587
 20
-220.4360766339214
 30
0.0
 11
-141.5317376963019
 21
-216.8746338404017
 31
0.0
  0
LINE
  5
F2
330
47
100
AcDbEntity
  8
0
  6
Continuous
 62
     7
100
AcDbLine
 10
-160.2226717411615
 20
-219.0134469503518
 30
0.0
 11
-159.441143047534
 21
-221.3862872902407
 31
0.0
  0
LINE
  5
F3
330
47
100
AcDbEntity
  8
0
  6
Continuous
 62
     7
100
AcDbLine
 10
-193.4932619244529
 20
-212.6999513821899
 30
0.0
 11
-193.4932619247565
 21
-215.7310402953478
 31
0.0
  0
LINE
  5
F4
330
47
100
AcDbEntity
  8
0
  6
Continuous
 62
     7
100
AcDbLine
 10
-193.4932619247565
 20
-215.7310402953478
 30
0.0
 11
-182.8238289501321
 21
-218.8110402964164
 31
0.0
  0
LINE
  5
F5
330
47
100
AcDbEntity
  8
0
  6
Continuous
 62
     7
100
AcDbLine
 10
-151.9240425376294
 20
-173.084837322293
 30
0.0
 11
-183.1009570738694
 21
-164.0848373191704
 31
0.0
  0
LINE
  5
F6
330
47
100
AcDbEntity
  8
0
  6
Continuous
 62
     7
100
AcDbLine
 10
-183.1009570738694
 20
-164.0848373191704
 30
0.0
 11
-174.0759570738695
 21
-156.268958050016
 31
0.0
  0
LINE
  5
F7
330
47
100
AcDbEntity
  8
0
  6
Continuous
 62
     7
100
AcDbLine
 10
-154.0505797235088
 20
-221.6612018486818
 30
0.0
 11
-156.6005797232876
 21
-223.8695666281406
 31
0.0
  0
LINE
  5
F8
330
47
100
AcDbEntity
  8
0
  6
Continuous
 62
     7
100
AcDbLine
 10
-156.6005797232443
 20
-223.4365539262609
 30
0.0
 11
-158.6601345403033
 21
-218.425282102734
 31
0.0
  0
LINE
  5
F9
330
47
100
AcDbEntity
  8
0
  6
Continuous
 62
     7
100
AcDbLine
 10
-156.6005797232876
 20
-223.8695666281406
 30
0.0
 11
-156.6005797232443
 21
-223.4365539262609
 31
0.0
  0
LINE
  5
FA
330
47
100
AcDbEntity
  8
0
  6
Continuous
 62
     7
100
AcDbLine
 10
-151.9240425378077
 20
-174.8645195270186
 30
0.0
 11
-151.9240425376294
 21
-173.084837322293
 31
0.0
  0
LINE
  5
FB
330
47
100
AcDbEntity
  8
0
  6
Continuous
 62
     7
100
AcDbLine
 10
-154.4255797234329
 20
-221.5529486731931
 30
0.0
 11
-156.6005797232443
 21
-223.4365539262609
 31
0.0
  0
LINE
  5
FC
330
47
100
AcDbEntity
  8
0
  6
Continuous
 62
     7
100
AcDbLine
 10
-152.3570552445069
 20
-222.7285412247282
 30
0.0
 11
-152.8766704868376
 21
-223.1785412247802
 31
0.0
  0
LINE
  5
FD
330
47
100
AcDbEntity
  8
0
  6
Continuous
 62
     7
100
AcDbLine
 10
-157.5017086099273
 20
-217.4220558186258
 30
0.0
 11
-158.6601345403033
 21
-218.425282102734
 31
0.0
  0
LINE
  5
FE
330
47
100
AcDbEntity
  8
0
  6
Continuous
 62
     7
100
AcDbLine
 10
-152.4206043885775
 20
-169.412438742246
 30
0.0
 11
-152.355337763743
 21
-169.5342279222217
 31
0.0
  0
LINE
  5
FF
330
47
100
AcDbEntity
  8
0
  6
Continuous
 62
     7
100
AcDbLine
 10
-181.7802683352928
 20
-186.3765300344156
 30
0.0
 11
-186.9980713926995
 21
-180.9298644467876
 31
0.0
  0
LINE
  5
100
330
47
100
AcDbEntity
  8
0
  6
Continuous
 62
     7
100
AcDbLine
 10
-189.8559552287754
 20
-215.9150148919526
 30
0.0
 11
-192.4540314401284
 21
-215.1650148916925
 31
0.0
  0
LINE
  5
101
330
47
100
AcDbEntity
  8
0
  6
Continuous
 62
     7
100
AcDbLine
 10
-189.3615689095296
 20
-169.7768024871918
 30
0.0
 11
-190.9668502784412
 21
-168.1352073023323
 31
0.0
  0
LINE
  5
102
330
47
100
AcDbEntity
  8
0
  6
Continuous
 62
     7
100
AcDbLine
 10
-189.2941691689227
 20
-170.8273458579476
 30
0.0
 11
-189.757492759867
 21
-169.8910958579244
 31
0.0
  0
LINE
  5
103
330
47
100
AcDbEntity
  8
0
  6
Continuous
 62
     7
100
AcDbLine
 10
-184.5504191686483
 20
-169.4579431887678
 30
0.0
 11
-189.2941691689227
 21
-170.8273458579476
 31
0.0
  0
LINE
  5
104
330
47
100
AcDbEntity
  8
0
  6
Continuous
 62
     7
100
AcDbLine
 10
-153.2447312805955
 20
-194.6140300372736
 30
0.0
 11
-166.8759711361625
 21
-190.6790300359084
 31
0.0
  0
LINE
  5
105
330
47
100
AcDbEntity
  8
0
  6
Continuous
 62
     7
100
AcDbLine
 10
-168.2746021659203
 20
-216.68905485043
 30
0.0
 11
-160.2226717411615
 21
-219.0134469503518
 31
0.0
  0
LINE
  5
106
330
47
100
AcDbEntity
  8
0
  6
Continuous
 62
     7
100
AcDbLine
 10
-158.6601345403033
 20
-218.425282102734
 30
0.0
 11
-158.6602058866467
 21
-216.6949762690876
 31
0.0
  0
LINE
  5
107
330
47
100
AcDbEntity
  8
0
  6
Continuous
 62
     7
100
AcDbLine
 10
-189.757492759867
 20
-169.8910958579244
 30
0.0
 11
-189.3615689095296
 21
-169.7768024871918
 31
0.0
  0
LINE
  5
108
330
47
100
AcDbEntity
  8
0
  6
Continuous
 62
     7
100
AcDbLine
 10
-193.493261920062
 20
-168.8645195226817
 30
0.0
 11
-190.9668502784412
 21
-168.1352073023323
 31
0.0
  0
LINE
  5
109
330
47
100
AcDbEntity
  8
0
  6
Continuous
 62
     7
100
AcDbLine
 10
-192.4540314401284
 20
-215.1650148916925
 30
0.0
 11
-192.4540314399115
 21
-212.999951382294
 31
0.0
  0
LINE
  5
10A
330
47
100
AcDbEntity
  8
0
  6
Continuous
 62
     7
100
AcDbLine
 10
-192.8870441417604
 20
-212.4419386803709
 30
0.0
 11
-193.0602492225172
 21
-212.3919386803536
 31
0.0
  0
LINE
  5
10B
330
47
100
AcDbEntity
  8
0
  6
Continuous
 62
     7
100
AcDbLine
 10
-193.493261920062
 20
-168.8645195226817
 30
0.0
 11
-193.4932619210827
 21
-179.0548644461371
 31
0.0
  0
LINE
  5
10C
330
47
100
AcDbEntity
  8
0
  6
Continuous
 62
     7
100
AcDbLine
 10
-186.9980713926995
 20
-180.9298644467876
 30
0.0
 11
-193.4932619210827
 21
-179.0548644461371
 31
0.0
  0
LINE
  5
10D
330
47
100
AcDbEntity
  8
0
  6
Continuous
 62
     7
100
AcDbLine
 10
-137.2561954914927
 20
-175.1104891505803
 30
0.0
 11
-141.2080977906352
 21
-171.6880413657209
 31
0.0
  0
LINE
  5
10E
330
47
100
AcDbEntity
  8
0
  6
Continuous
 62
     7
100
AcDbLine
 10
-145.6634307034715
 20
-182.3913684197451
 30
0.0
 11
-136.6384307034716
 21
-174.5754891505906
 31
0.0
  0
LINE
  5
10F
330
47
100
AcDbEntity
  8
0
  6
Continuous
 62
     7
100
AcDbLine
 10
-149.3976308964792
 20
-177.0524561891633
 30
0.0
 11
-140.3726308964793
 21
-169.2365769200088
 31
0.0
  0
LINE
  5
110
330
47
100
AcDbEntity
  8
0
  6
Continuous
 62
     7
100
AcDbLine
 10
-150.2510644653757
 20
-225.2354076796423
 30
0.0
 11
-141.5317376966587
 21
-220.4360766339214
 31
0.0
  0
LINE
  5
111
330
47
100
AcDbEntity
  8
0
  6
Continuous
 62
     7
100
AcDbLine
 10
-155.9077593999652
 20
-221.125080255428
 30
0.0
 11
-152.3570552444489
 21
-222.1500802557837
 31
0.0
  0
LINE
  5
112
330
47
100
AcDbEntity
  8
0
  6
Continuous
 62
     7
100
AcDbLine
 10
-157.5532076674506
 20
-223.5945666280452
 30
0.0
 11
-156.6005797232876
 21
-223.8695666281406
 31
0.0
  0
LINE
  5
113
330
47
100
AcDbEntity
  8
0
  6
Continuous
 62
     7
100
AcDbLine
 10
-152.3570552444489
 20
-222.1500802557837
 30
0.0
 11
-152.357055244553
 21
-223.189310740295
 31
0.0
  0
LINE
  5
114
330
47
100
AcDbEntity
  8
0
  6
Continuous
 62
     7
100
AcDbLine
 10
-152.357055244553
 20
-223.189310740295
 30
0.0
 11
-152.8766704868376
 21
-223.1785412247802
 31
0.0
  0
LINE
  5
115
330
47
100
AcDbEntity
  8
0
  6
Continuous
 62
     7
100
AcDbLine
 10
-152.8766704868376
 20
-223.1785412247802
 30
0.0
 11
-152.8766704868984
 21
-223.7847590074118
 31
0.0
  0
LINE
  5
116
330
47
100
AcDbEntity
  8
0
  6
Continuous
 62
     7
100
AcDbLine
 10
-149.8568156559897
 20
-178.7597905224569
 30
0.0
 11
-150.4745804440107
 21
-179.2947905224466
 31
0.0
  0
LINE
  5
117
330
47
100
AcDbEntity
  8
0
  6
Continuous
 62
     7
100
AcDbLine
 10
-144.0581493343239
 20
-181.6765828657414
 30
0.0
 11
-135.0331493343241
 21
-173.8607035965869
 31
0.0
  0
LINE
  5
118
330
47
100
AcDbEntity
  8
0
  6
Continuous
 62
     7
100
AcDbLine
 10
-135.0331493343241
 20
-173.8607035965869
 30
0.0
 11
-136.6384307034716
 21
-174.5754891505906
 31
0.0
  0
LINE
  5
119
330
47
100
AcDbEntity
  8
0
  6
Continuous
 62
     7
100
AcDbLine
 10
-193.4932619233685
 20
-201.8746338351974
 30
0.0
 11
-185.2682619233687
 21
-194.7515748890705
 31
0.0
  0
LINE
  5
11A
330
47
100
AcDbEntity
  8
0
  6
Continuous
 62
     7
100
AcDbLine
 10
-152.1405488926615
 20
-213.8121338393391
 30
0.0
 11
-143.9155488926615
 21
-206.6890748932121
 31
0.0
  0
LINE
  5
11B
330
47
100
AcDbEntity
  8
0
  6
Continuous
 62
     7
100
AcDbLine
 10
-179.0268630107524
 20
-211.2760417768343
 30
0.0
 11
-182.6766046310462
 21
-214.4368107372583
 31
0.0
  0
LINE
  5
11C
330
47
100
AcDbEntity
  8
0
  6
Continuous
 62
     7
100
AcDbLine
 10
-178.5350605444461
 20
-212.2698397791164
 30
0.0
 11
-181.7845984651874
 21
-215.0840221690393
 31
0.0
  0
LINE
  5
11D
330
47
100
AcDbEntity
  8
0
  6
Continuous
 62
     7
100
AcDbLine
 10
-172.2409985149755
 20
-212.7727735580026
 30
0.0
 11
-172.2409985152574
 21
-215.5873561202207
 31
0.0
  0
LINE
  5
11E
330
47
100
AcDbEntity
  8
0
  6
Continuous
 62
     7
100
AcDbLine
 10
-181.7845984651874
 20
-215.0840221690393
 30
0.0
 11
-181.7845984651657
 21
-214.8675158180994
 31
0.0
  0
LINE
  5
11F
330
47
100
AcDbEntity
  8
0
  6
Continuous
 62
     7
100
AcDbLine
 10
-174.7264914239755
 20
-213.4409142037688
 30
0.0
 11
-173.9264914238368
 21
-212.2862136655097
 31
0.0
  0
LINE
  5
120
330
47
100
AcDbEntity
  8
0
  6
Continuous
 62
     7
100
AcDbLine
 10
-178.4937019304379
 20
-212.3534142033914
 30
0.0
 11
-174.7264914239755
 21
-213.4409142037688
 31
0.0
  0
LINE
  5
121
330
47
100
AcDbEntity
  8
0
  6
Continuous
 62
     7
100
AcDbLine
 10
-182.8598490045415
 20
-213.344682158516
 30
0.0
 11
-181.8712010054052
 21
-213.4557549361646
 31
0.0
  0
LINE
  5
122
330
47
100
AcDbEntity
  8
0
  6
Continuous
 62
     7
100
AcDbLine
 10
-173.5264914240796
 20
-212.4016837193176
 30
0.0
 11
-174.7264914239755
 21
-213.4409142037688
 31
0.0
  0
LINE
  5
123
330
47
100
AcDbEntity
  8
0
  6
Continuous
 62
     7
100
AcDbLine
 10
-178.6100605444271
 20
-212.1182853334626
 30
0.0
 11
-181.7845984651657
 21
-214.8675158180994
 31
0.0
  0
LINE
  5
124
330
47
100
AcDbEntity
  8
0
  6
Continuous
 62
     7
100
AcDbLine
 10
-181.8712010053404
 20
-212.8073561192561
 30
0.0
 11
-182.6766046307201
 21
-211.1798561192157
 31
0.0
  0
LINE
  5
125
330
47
100
AcDbEntity
  8
0
  6
Continuous
 62
     7
100
AcDbLine
 10
-181.8712010054052
 20
-213.4557549361646
 30
0.0
 11
-181.8712010053404
 21
-212.8073561192561
 31
0.0
  0
LINE
  5
126
330
47
100
AcDbEntity
  8
0
  6
Continuous
 62
     7
100
AcDbLine
 10
-179.2471711583902
 20
-211.1832784283609
 30
0.0
 11
-181.8712010054052
 21
-213.4557549361646
 31
0.0
  0
LINE
  5
127
330
47
100
AcDbEntity
  8
0
  6
Continuous
 62
     7
100
AcDbLine
 10
-152.1405488926615
 20
-213.8121338393391
 30
0.0
 11
-141.5317376963019
 21
-216.8746338404017
 31
0.0
  0
LINE
  5
128
330
47
100
AcDbEntity
  8
0
  6
Continuous
 62
     7
100
AcDbLine
 10
-168.2746021656427
 20
-213.9177735583999
 30
0.0
 11
-168.2746021659203
 21
-216.68905485043
 31
0.0
  0
LINE
  5
129
330
47
100
AcDbEntity
  8
0
  6
Continuous
 62
     7
100
AcDbLine
 10
-181.7845984651657
 20
-214.8675158180994
 30
0.0
 11
-182.6766046310462
 21
-214.4368107372583
 31
0.0
  0
LINE
  5
12A
330
47
100
AcDbEntity
  8
0
  6
Continuous
 62
     7
100
AcDbLine
 10
-182.6766046307201
 20
-211.1798561192157
 30
0.0
 11
-182.6766046306213
 21
-210.1932862588371
 31
0.0
  0
LINE
  5
12B
330
47
100
AcDbEntity
  8
0
  6
Continuous
 62
     2
100
AcDbLine
 10
-191.459566539812
 20
-211.005706813733
 30
0.0
 11
-193.0602492225172
 21
-212.3919386803536
 31
0.0
  0
LINE
  5
12C
330
47
100
AcDbEntity
  8
0
  6
Continuous
 62
     2
100
AcDbLine
 10
-191.1710797188621
 20
-211.8888826000362
 30
0.0
 11
-192.4540314399115
 21
-212.999951382294
 31
0.0
  0
LINE
  5
12D
330
47
100
AcDbEntity
  8
0
  6
Continuous
 62
     2
100
AcDbLine
 10
-191.4086426939469
 20
-211.1616054695727
 30
0.0
 11
-192.8870441417604
 21
-212.4419386803709
 31
0.0
  0
LINE
  5
12E
330
47
100
AcDbEntity
  8
0
  6
Continuous
 62
     7
100
AcDbLine
 10
-179.8087010055193
 20
-211.0211787241057
 30
0.0
 11
-181.8712010053404
 21
-212.8073561192561
 31
0.0
  0
LINE
  5
12F
330
47
100
AcDbEntity
  8
0
  6
Continuous
 62
     7
100
AcDbLine
 10
-170.0066529732116
 20
-213.4177735582264
 30
0.0
 11
-168.2746021656427
 21
-213.9177735583999
 31
0.0
  0
LINE
  5
130
330
47
100
AcDbEntity
  8
0
  6
Continuous
 62
     7
100
AcDbLine
 10
-182.6766046310462
 20
-214.4368107372583
 30
0.0
 11
-182.8598490045415
 21
-213.344682158516
 31
0.0
  0
LINE
  5
131
330
47
100
AcDbEntity
  8
0
  6
Continuous
 62
     7
100
AcDbLine
 10
-181.8107804028046
 20
-210.4300303426288
 30
0.0
 11
-182.6766046307201
 21
-211.1798561192157
 31
0.0
  0
LINE
  5
132
330
47
100
AcDbEntity
  8
0
  6
Continuous
 62
     2
100
AcDbLine
 10
-182.3054508861852
 20
-209.8718576874458
 30
0.0
 11
-182.6766046306213
 21
-210.1932862588371
 31
0.0
  0
LINE
  5
133
330
47
100
AcDbEntity
  8
0
  6
Continuous
 62
     7
100
AcDbLine
 10
-193.4932619233685
 20
-201.8746338351974
 30
0.0
 11
-182.8844507270092
 21
-204.9371338362599
 31
0.0
  0
LINE
  5
134
330
47
100
AcDbEntity
  8
0
  6
Continuous
 62
     7
100
AcDbLine
 10
-190.619812916753
 20
-213.5765350543574
 30
0.0
 11
-192.4540314401284
 21
-215.1650148916925
 31
0.0
  0
LINE
  5
135
330
47
100
AcDbEntity
  8
0
  6
Continuous
 62
     7
100
AcDbLine
 10
-173.9264914238368
 20
-212.2862136655097
 30
0.0
 11
-172.2409985149755
 21
-212.7727735580026
 31
0.0
  0
LINE
  5
136
330
47
100
AcDbEntity
  8
0
  6
Continuous
 62
     7
100
AcDbLine
 10
-179.0437019303425
 20
-211.2420149351739
 30
0.0
 11
-178.4937019304379
 21
-212.3534142033914
 31
0.0
  0
LINE
  5
137
330
47
100
AcDbEntity
  8
0
  6
Continuous
 62
     7
100
AcDbLine
 10
-181.8105792268369
 20
-210.4432862589239
 30
0.0
 11
-179.0437019303425
 21
-211.2420149351739
 31
0.0
  0
LINE
  5
138
330
47
100
AcDbEntity
  8
0
  6
Continuous
 62
     7
100
AcDbLine
 10
-193.4932619233685
 20
-201.8746338351974
 30
0.0
 11
-193.4932619236595
 21
-204.7797360265195
 31
0.0
  0
LINE
  5
139
330
47
100
AcDbEntity
  8
0
  6
Continuous
 62
     7
100
AcDbLine
 10
-193.4932619236595
 20
-204.7797360265195
 30
0.0
 11
-189.8559552287754
 21
-215.9150148919526
 31
0.0
  0
SPLINE
  5
13A
330
47
100
AcDbEntity
  8
0
  6
Continuous
 62
     7
100
AcDbSpline
210
0.0
220
0.0
230
1.0
 70
     8
 71
     3
 72
    13
 73
     9
 74
     7
 42
0.000000001
 43
0.0000000001
 44
0.00000001
 40
0.0
 40
0.0
 40
0.0
 40
0.0
 40
0.4547151881484035
 40
0.9773719888171664
 40
1.562059597527642
 40
2.195916130484958
 40
2.861699548737939
 40
3.539680963898338
 40
3.539680963898338
 40
3.539680963898338
 40
3.539680963898338
 10
-150.114942983902
 20
-168.4823729783912
 30
0.0
 10
-150.2279593691194
 20
-168.3805435823964
 30
0.0
 10
-150.4708785776775
 20
-168.1616698863086
 30
0.0
 10
-150.9392223296232
 20
-167.9232019352741
 30
0.0
 10
-151.4861845969118
 20
-167.7271757645383
 30
0.0
 10
-152.1013613789023
 20
-167.5928839628056
 30
0.0
 10
-152.7577434938057
 20
-167.5165103419392
 30
0.0
 10
-153.206029913714
 20
-167.5219942605863
 30
0.0
 10
-153.4322077790481
 20
-167.5247611168335
 30
0.0
 11
-150.114942983902
 21
-168.4823729783912
 31
0.0
 11
-150.4648408450803
 21
-168.191963971449
 31
0.0
 11
-150.9241528207268
 21
-167.9425593867226
 31
0.0
 11
-151.4742014059551
 21
-167.7443015795802
 31
0.0
 11
-152.0926182934357
 21
-167.6052524590019
 31
0.0
 11
-152.7542556935484
 21
-167.5310668316947
 31
0.0
 11
-153.4322077790481
 21
-167.5247611168335
 31
0.0
  0
SPLINE
  5
13B
330
47
100
AcDbEntity
  8
0
  6
Continuous
 62
     7
100
AcDbSpline
210
0.0
220
0.0
230
1.0
 70
     8
 71
     3
 72
    11
 73
     7
 74
     5
 42
0.000000001
 43
0.0000000001
 44
0.00000001
 40
0.0
 40
0.0
 40
0.0
 40
0.0
 40
0.5525405851249895
 40
1.058727270695256
 40
1.510990795011662
 40
1.907370977133125
 40
1.907370977133125
 40
1.907370977133125
 40
1.907370977133125
 10
-154.591318770595
 20
-167.6800525438214
 30
0.0
 10
-154.7695869713445
 20
-167.7275060784598
 30
0.0
 10
-155.1111680394467
 20
-167.8184321754924
 30
0.0
 10
-155.5733981905044
 20
-168.0210693302202
 30
0.0
 10
-155.9654052433688
 20
-168.253217064023
 30
0.0
 10
-156.1640878262161
 20
-168.4560496416482
 30
0.0
 10
-156.2568874706759
 20
-168.5507876546862
 30
0.0
 11
-154.591318770595
 21
-167.6800525438214
 31
0.0
 11
-155.1213013930803
 21
-167.8363199959213
 31
0.0
 11
-155.5854637938639
 21
-168.0382561938794
 31
0.0
 11
-155.96826467557
 21
-168.2791000911772
 31
0.0
 11
-156.2568874706759
 21
-168.5507876546862
 31
0.0
  0
SPLINE
  5
13C
330
47
100
AcDbEntity
  8
0
  6
Continuous
 62
     7
100
AcDbSpline
210
0.0
220
0.0
230
1.0
 70
     8
 71
     3
 72
     9
 73
     5
 74
     3
 42
0.000000001
 43
0.0000000001
 44
0.00000001
 40
0.0
 40
0.0
 40
0.0
 40
0.0
 40
0.2638533554775733
 40
0.5251932710137825
 40
0.5251932710137825
 40
0.5251932710137825
 40
0.5251932710137825
 10
-153.4322077791782
 20
-168.8237992224726
 30
0.0
 10
-153.5200666787721
 20
-168.8282884323704
 30
0.0
 10
-153.6949475416889
 20
-168.8372241083565
 30
0.0
 10
-153.8689700295154
 20
-168.85669608775
 30
0.0
 10
-153.9555648590818
 20
-168.8663854934111
 30
0.0
 11
-153.4322077791782
 21
-168.8237992224726
 31
0.0
 11
-153.6955678246714
 21
-168.8399262104373
 31
0.0
 11
-153.9555648590818
 21
-168.8663854934111
 31
0.0
  0
SPLINE
  5
13D
330
47
100
AcDbEntity
  8
0
  6
Continuous
 62
     7
100
AcDbSpline
210
0.0
220
0.0
230
1.0
 70
     8
 71
     3
 72
    19
 73
    15
 74
    13
 42
0.000000001
 43
0.0000000001
 44
0.00000001
 40
0.0
 40
0.0
 40
0.0
 40
0.0
 40
0.4499708771957477
 40
0.9765228549278291
 40
1.61432160317679
 40
2.360212770439252
 40
3.188393841046496
 40
4.060556143582676
 40
4.932718446118885
 40
5.760899516726029
 40
6.506790683988516
 40
7.14458943223755
 40
7.671141409969565
 40
8.121112287165397
 40
8.121112287165397
 40
8.121112287165397
 40
8.121112287165397
 10
-149.7929513112823
 20
-167.9012686025141
 30
0.0
 10
-149.8185727988447
 20
-167.7506046223057
 30
0.0
 10
-149.8741763449084
 20
-167.4236349800695
 30
0.0
 10
-150.2597054210456
 20
-167.0143214646021
 30
0.0
 10
-150.7985591444411
 20
-166.6753007088108
 30
0.0
 10
-151.4957616625727
 20
-166.4178828052495
 30
0.0
 10
-152.2971394559869
 20
-166.2564096560157
 30
0.0
 10
-153.155451311112
 20
-166.2013524128452
 30
0.0
 10
-154.0137631662482
 20
-166.2564096558436
 30
0.0
 10
-154.8151409596947
 20
-166.417882804917
 30
0.0
 10
-155.5123434778779
 20
-166.6753007083387
 30
0.0
 10
-156.0511972013413
 20
-167.0143214640219
 30
0.0
 10
-156.4367262775605
 20
-167.4236349794122
 30
0.0
 10
-156.4923298236897
 20
-167.7506046216371
 30
0.0
 10
-156.5179513112823
 20
-167.9012686018405
 30
0.0
 11
-149.7929513112823
 21
-167.9012686025141
 31
0.0
 11
-149.9075265862574
 21
-167.466129198897
 31
0.0
 11
-150.243440890973
 21
-167.0606436023961
 31
0.0
 11
-150.7778053933177
 21
-166.7124456433896
 31
0.0
 11
-151.4742013111364
 21
-166.4452633921069
 31
0.0
 11
-152.2851725039838
 21
-166.277306239633
 31
0.0
 11
-153.1554513111139
 21
-166.2200186020314
 31
0.0
 11
-154.0257301182555
 21
-166.2773062394586
 31
0.0
 11
-154.8367013111364
 21
-166.44526339177
 31
0.0
 11
-155.5330972290087
 21
-166.7124456429133
 31
0.0
 11
-156.0674617314232
 21
-167.0606436018127
 31
0.0
 11
-156.40337603622
 21
-167.4661291982463
 31
0.0
 11
-156.5179513112823
 21
-167.9012686018405
 31
0.0
  0
SPLINE
  5
13E
330
47
100
AcDbEntity
  8
0
  6
Continuous
 62
     7
100
AcDbSpline
210
0.0
220
0.0
230
1.0
 70
     8
 71
     3
 72
    17
 73
    13
 74
    11
 42
0.000000001
 43
0.0000000001
 44
0.00000001
 40
0.0
 40
0.0
 40
0.0
 40
0.0
 40
0.4014610005973303
 40
0.8712471548908937
 40
1.440286929525262
 40
2.105766036528065
 40
2.844663643896604
 40
3.622801011370599
 40
4.400938378617028
 40
5.139835985063251
 40
5.805315092653147
 40
6.374354872937704
 40
6.374354872937704
 40
6.374354872937704
 40
6.374354872937704
 10
-156.2117013144485
 20
-199.5599097680577
 30
0.0
 10
-156.1888419774967
 20
-199.6943311920763
 30
0.0
 10
-156.1392328332707
 20
-199.9860513866052
 30
0.0
 10
-155.7952667122599
 20
-200.3512375550719
 30
0.0
 10
-155.3145032999943
 20
-200.6537126448744
 30
0.0
 10
-154.6924719599891
 20
-200.883364966887
 30
0.0
 10
-153.97745309805
 20
-201.0274916960965
 30
0.0
 10
-153.211812817857
 20
-201.0763675805457
 30
0.0
 10
-152.4455148142681
 20
-201.0281564863513
 30
0.0
 10
-151.7323091912449
 20
-200.8809646035246
 30
0.0
 10
-151.1046102567703
 20
-200.6612487822675
 30
0.0
 10
-150.7685355505158
 20
-200.4207605464928
 30
0.0
 10
-150.6136251030952
 20
-200.3099097686184
 30
0.0
 11
-156.2117013144485
 21
-199.5599097680577
 31
0.0
 11
-156.1094780207866
 21
-199.9481382322587
 31
0.0
 11
-155.8097775258619
 21
-200.3099097681761
 31
0.0
 11
-155.3330210925263
 21
-200.6205696572553
 31
0.0
 11
-154.7117013145266
 21
-200.8589478740123
 31
0.0
 11
-153.9881582428207
 21
-201.0087981215674
 31
0.0
 11
-153.2117013145086
 21
-201.0599097684883
 31
0.0
 11
-152.4352443861924
 21
-201.0087981216995
 31
0.0
 11
-151.7117013144745
 21
-200.8589478742678
 31
0.0
 11
-151.0903815364557
 21
-200.6205696576165
 31
0.0
 11
-150.6136251030952
 21
-200.3099097686184
 31
0.0
  0
SPLINE
  5
13F
330
47
100
AcDbEntity
  8
0
  6
Continuous
 62
     7
100
AcDbSpline
210
0.0
220
0.0
230
1.0
 70
     8
 71
     3
 72
     9
 73
     5
 74
     3
 42
0.000000001
 43
0.0000000001
 44
0.00000001
 40
0.0
 40
0.0
 40
0.0
 40
0.0
 40
0.4697861521675336
 40
0.871247159507238
 40
0.871247159507238
 40
0.871247159507238
 40
0.871247159507238
 10
-150.6136251030952
 20
-200.3099097686184
 30
0.0
 10
-150.4975414433508
 20
-200.197634792156
 30
0.0
 10
-150.2822572108963
 20
-199.9894139692734
 30
0.0
 10
-150.233957346659
 20
-199.6953918816688
 30
0.0
 10
-150.2117013144485
 20
-199.5599097686587
 30
0.0
 11
-150.6136251030952
 21
-200.3099097686184
 31
0.0
 11
-150.3139246081649
 21
-199.9481382327957
 31
0.0
 11
-150.2117013144485
 21
-199.5599097686587
 31
0.0
  0
SPLINE
  5
140
330
47
100
AcDbEntity
  8
0
  6
Continuous
 62
     7
100
AcDbSpline
210
0.0
220
0.0
230
1.0
 70
     8
 71
     3
 72
    17
 73
    13
 74
    11
 42
0.000000001
 43
0.0000000001
 44
0.00000001
 40
0.0
 40
0.0
 40
0.0
 40
0.0
 40
0.4014610005973781
 40
0.8712471548909195
 40
1.440286929525312
 40
2.105766036528088
 40
2.844663643896643
 40
3.622801011370698
 40
4.4009383786171
 40
5.139835985063358
 40
5.805315092653212
 40
6.37435487293784
 40
6.37435487293784
 40
6.37435487293784
 40
6.37435487293784
 10
-176.563298303383
 20
-193.6849097660194
 30
0.0
 10
-176.5404389664313
 20
-193.819331190038
 30
0.0
 10
-176.4908298222053
 20
-194.111051384567
 30
0.0
 10
-176.1468637011944
 20
-194.4762375530336
 30
0.0
 10
-175.6661002889289
 20
-194.7787126428362
 30
0.0
 10
-175.0440689489236
 20
-195.0083649648487
 30
0.0
 10
-174.3290500869846
 20
-195.1524916940583
 30
0.0
 10
-173.5634098067914
 20
-195.2013675785073
 30
0.0
 10
-172.7971118032025
 20
-195.1531564843131
 30
0.0
 10
-172.0839061801795
 20
-195.0059646014863
 30
0.0
 10
-171.4562072457046
 20
-194.7862487802292
 30
0.0
 10
-171.1201325394502
 20
-194.5457605444545
 30
0.0
 10
-170.9652220920296
 20
-194.4349097665801
 30
0.0
 11
-176.563298303383
 21
-193.6849097660194
 31
0.0
 11
-176.4610750097211
 21
-194.0731382302204
 31
0.0
 11
-176.1613745147964
 21
-194.4349097661378
 31
0.0
 11
-175.6846180814608
 21
-194.7455696552171
 31
0.0
 11
-175.0632983034611
 21
-194.983947871974
 31
0.0
 11
-174.3397552317552
 21
-195.133798119529
 31
0.0
 11
-173.563298303443
 21
-195.18490976645
 31
0.0
 11
-172.7868413751269
 21
-195.1337981196612
 31
0.0
 11
-172.0632983034089
 21
-194.9839478722294
 31
0.0
 11
-171.4419785253902
 21
-194.7455696555783
 31
0.0
 11
-170.9652220920296
 21
-194.4349097665801
 31
0.0
  0
SPLINE
  5
141
330
47
100
AcDbEntity
  8
0
  6
Continuous
 62
     7
100
AcDbSpline
210
0.0
220
0.0
230
1.0
 70
     8
 71
     3
 72
    13
 73
     9
 74
     7
 42
0.000000001
 43
0.0000000001
 44
0.00000001
 40
0.0
 40
0.0
 40
0.0
 40
0.0
 40
0.4547151881484798
 40
0.9773719888172311
 40
1.562059597527697
 40
2.195916130485035
 40
2.861699548738044
 40
3.539680963898415
 40
3.539680963898415
 40
3.539680963898415
 40
3.539680963898415
 10
-170.4665399728364
 20
-162.6073729763529
 30
0.0
 10
-170.5795563580538
 20
-162.5055435803582
 30
0.0
 10
-170.8224755666119
 20
-162.2866698842702
 30
0.0
 10
-171.2908193185576
 20
-162.0482019332356
 30
0.0
 10
-171.8377815858462
 20
-161.8521757625
 30
0.0
 10
-172.4529583678367
 20
-161.7178839607671
 30
0.0
 10
-173.1093404827402
 20
-161.6415103399009
 30
0.0
 10
-173.5576269026484
 20
-161.6469942585479
 30
0.0
 10
-173.7838047679825
 20
-161.6497611147951
 30
0.0
 11
-170.4665399728364
 21
-162.6073729763529
 31
0.0
 11
-170.8164378340147
 21
-162.3169639694106
 31
0.0
 11
-171.2757498096611
 21
-162.0675593846842
 31
0.0
 11
-171.8257983948895
 21
-161.8693015775418
 31
0.0
 11
-172.4442152823701
 21
-161.7302524569635
 31
0.0
 11
-173.1058526824829
 21
-161.6560668296564
 31
0.0
 11
-173.7838047679825
 21
-161.6497611147951
 31
0.0
  0
SPLINE
  5
142
330
47
100
AcDbEntity
  8
0
  6
Continuous
 62
     7
100
AcDbSpline
210
0.0
220
0.0
230
1.0
 70
     8
 71
     3
 72
     9
 73
     5
 74
     3
 42
0.000000001
 43
0.0000000001
 44
0.00000001
 40
0.0
 40
0.0
 40
0.0
 40
0.0
 40
0.2638533554776318
 40
0.5251932710138099
 40
0.5251932710138099
 40
0.5251932710138099
 40
0.5251932710138099
 10
-173.7838047681126
 20
-162.9487992204342
 30
0.0
 10
-173.8716636677064
 20
-162.953288430332
 30
0.0
 10
-174.0465445306233
 20
-162.9622241063181
 30
0.0
 10
-174.2205670184499
 20
-162.9816960857117
 30
0.0
 10
-174.3071618480162
 20
-162.9913854913727
 30
0.0
 11
-173.7838047681126
 21
-162.9487992204342
 31
0.0
 11
-174.0471648136058
 21
-162.9649262083989
 31
0.0
 11
-174.3071618480162
 21
-162.9913854913727
 31
0.0
  0
SPLINE
  5
143
330
47
100
AcDbEntity
  8
0
  6
Continuous
 62
     7
100
AcDbSpline
210
0.0
220
0.0
230
1.0
 70
     8
 71
     3
 72
     9
 73
     5
 74
     3
 42
0.000000001
 43
0.0000000001
 44
0.00000001
 40
0.0
 40
0.0
 40
0.0
 40
0.0
 40
0.4697861521674935
 40
0.871247159507211
 40
0.871247159507211
 40
0.871247159507211
 40
0.871247159507211
 10
-170.9652220920296
 20
-194.4349097665801
 30
0.0
 10
-170.8491384322852
 20
-194.3226347901177
 30
0.0
 10
-170.6338541998306
 20
-194.114413967235
 30
0.0
 10
-170.5855543355935
 20
-193.8203918796305
 30
0.0
 10
-170.563298303383
 20
-193.6849097666204
 30
0.0
 11
-170.9652220920296
 21
-194.4349097665801
 31
0.0
 11
-170.6655215970994
 21
-194.0731382307574
 31
0.0
 11
-170.563298303383
 21
-193.6849097666204
 31
0.0
  0
SPLINE
  5
144
330
47
100
AcDbEntity
  8
0
  6
Continuous
 62
     7
100
AcDbSpline
210
0.0
220
0.0
230
1.0
 70
     8
 71
     3
 72
    11
 73
     7
 74
     5
 42
0.000000001
 43
0.0000000001
 44
0.00000001
 40
0.0
 40
0.0
 40
0.0
 40
0.0
 40
0.5525405851249975
 40
1.058727270695275
 40
1.51099079501169
 40
1.90737097713305
 40
1.90737097713305
 40
1.90737097713305
 40
1.90737097713305
 10
-174.9429157595294
 20
-161.805052541783
 30
0.0
 10
-175.1211839602789
 20
-161.8525060764213
 30
0.0
 10
-175.4627650283812
 20
-161.943432173454
 30
0.0
 10
-175.9249951794387
 20
-162.1460693281819
 30
0.0
 10
-176.3170022323032
 20
-162.3782170619846
 30
0.0
 10
-176.5156848151505
 20
-162.5810496396099
 30
0.0
 10
-176.6084844596102
 20
-162.6757876526478
 30
0.0
 11
-174.9429157595294
 21
-161.805052541783
 31
0.0
 11
-175.4728983820147
 21
-161.9613199938829
 31
0.0
 11
-175.9370607827983
 21
-162.1632561918411
 31
0.0
 11
-176.3198616645044
 21
-162.4041000891388
 31
0.0
 11
-176.6084844596102
 21
-162.6757876526478
 31
0.0
  0
SPLINE
  5
145
330
47
100
AcDbEntity
  8
0
  6
Continuous
 62
     7
100
AcDbSpline
210
0.0
220
0.0
230
1.0
 70
     8
 71
     3
 72
    17
 73
    13
 74
    11
 42
0.000000001
 43
0.0000000001
 44
0.00000001
 40
0.0
 40
0.0
 40
0.0
 40
0.0
 40
0.4499708725836403
 40
0.9765228538662004
 40
1.614321601087743
 40
2.360212766753514
 40
3.188393834941352
 40
4.060556134265353
 40
4.93271843336119
 40
5.760899500625158
 40
6.506790666875585
 40
7.14458941974451
 40
7.14458941974451
 40
7.14458941974451
 40
7.14458941974451
 10
-156.5179513112823
 20
-167.9012686018405
 30
0.0
 10
-156.4923298043873
 20
-168.0519326149566
 30
0.0
 10
-156.4367262231621
 20
-168.3789023339717
 30
0.0
 10
-156.0511975261122
 20
-168.7882151625368
 30
0.0
 10
-155.5123418691012
 20
-169.1272393261435
 30
0.0
 10
-154.8151484086116
 20
-169.3846413033596
 30
0.0
 10
-154.0137314343363
 20
-169.5461833456517
 30
0.0
 10
-153.1555762869883
 20
-169.6009650660011
 30
0.0
 10
-152.2966839412602
 20
-169.5469284646597
 30
0.0
 10
-151.4972993057324
 20
-169.3819508956175
 30
0.0
 10
-150.7937534161554
 20
-169.1356860812073
 30
0.0
 10
-150.4170696839717
 20
-168.8661388491676
 30
0.0
 10
-150.2434408910571
 20
-168.7418936024689
 30
0.0
 11
-156.5179513112823
 21
-167.9012686018405
 31
0.0
 11
-156.4033760363028
 21
-168.3364080054657
 31
0.0
 11
-156.0674617315748
 21
-168.7418936019731
 31
0.0
 11
-155.5330972292111
 21
-169.0900915609828
 31
0.0
 11
-154.8367013113698
 21
-169.3572738122646
 31
0.0
 11
-154.0257301184995
 21
-169.5252309647325
 31
0.0
 11
-153.1554513113497
 21
-169.5825186023231
 31
0.0
 11
-152.2851725041952
 21
-169.5252309648807
 31
0.0
 11
-151.4742013113114
 21
-169.3572738125509
 31
0.0
 11
-150.7778053934487
 21
-169.0900915613877
 31
0.0
 11
-150.2434408910571
 21
-168.7418936024689
 31
0.0
  0
SPLINE
  5
146
330
47
100
AcDbEntity
  8
0
  6
Continuous
 62
     7
100
AcDbSpline
210
0.0
220
0.0
230
1.0
 70
     8
 71
     3
 72
     9
 73
     5
 74
     3
 42
0.000000001
 43
0.0000000001
 44
0.00000001
 40
0.0
 40
0.0
 40
0.0
 40
0.0
 40
0.5265519791481449
 40
0.976522858468416
 40
0.976522858468416
 40
0.976522858468416
 40
0.976522858468416
 10
-150.2434408910571
 20
-168.7418936024689
 30
0.0
 10
-150.1133304556959
 20
-168.6160520662884
 30
0.0
 10
-149.8720327097284
 20
-168.3826712284321
 30
0.0
 10
-149.8178966140661
 20
-168.0531214709341
 30
0.0
 10
-149.7929513112823
 20
-167.9012686025141
 30
0.0
 11
-150.2434408910571
 21
-168.7418936024689
 31
0.0
 11
-149.9075265863228
 21
-168.3364080060676
 31
0.0
 11
-149.7929513112823
 21
-167.9012686025141
 31
0.0
  0
SPLINE
  5
147
330
47
100
AcDbEntity
  8
0
  6
Continuous
 62
     7
100
AcDbSpline
210
0.0
220
0.0
230
1.0
 70
     8
 71
     3
 72
     9
 73
     5
 74
     3
 42
0.000000001
 43
0.0000000001
 44
0.00000001
 40
0.0
 40
0.0
 40
0.0
 40
0.0
 40
0.1347351597359771
 40
0.2806984683473381
 40
0.2806984683473381
 40
0.2806984683473381
 40
0.2806984683473381
 10
-193.3875760579146
 20
-212.446986909224
 30
0.0
 10
-193.4179685416121
 20
-212.4816883755082
 30
0.0
 10
-193.4812862486773
 20
-212.5539831629193
 30
0.0
 10
-193.4891649870661
 20
-212.65001486051
 30
0.0
 10
-193.4932619244529
 20
-212.6999513821899
 30
0.0
 11
-193.3875760579146
 21
-212.446986909224
 31
0.0
 11
-193.4659803837242
 21
-212.5565602889399
 31
0.0
 11
-193.4932619244529
 21
-212.6999513821899
 31
0.0
  0
SPLINE
  5
148
330
47
100
AcDbEntity
  8
0
  6
Continuous
 62
     7
100
AcDbSpline
210
0.0
220
0.0
230
1.0
 70
     8
 71
     3
 72
    17
 73
    13
 74
    11
 42
0.000000001
 43
0.0000000001
 44
0.00000001
 40
0.0
 40
0.0
 40
0.0
 40
0.0
 40
0.4499708725837706
 40
0.9765228538662468
 40
1.614321601087774
 40
2.360212766753598
 40
3.188393834941403
 40
4.060556134265346
 40
4.932718433361155
 40
5.760899500625123
 40
6.506790666875604
 40
7.144589419744515
 40
7.144589419744515
 40
7.144589419744515
 40
7.144589419744515
 10
-170.1445483002167
 20
-162.0262686004757
 30
0.0
 10
-170.1701698071118
 20
-161.8756045873596
 30
0.0
 10
-170.2257733883368
 20
-161.5486348683444
 30
0.0
 10
-170.6113020853867
 20
-161.1393220397793
 30
0.0
 10
-171.1501577423978
 20
-160.8002978761727
 30
0.0
 10
-171.8473512028874
 20
-160.5428958989566
 30
0.0
 10
-172.6487681771627
 20
-160.3813538566646
 30
0.0
 10
-173.5069233245106
 20
-160.3265721363151
 30
0.0
 10
-174.3658156702388
 20
-160.3806087376565
 30
0.0
 10
-175.1652003057665
 20
-160.5455863066987
 30
0.0
 10
-175.8687461953435
 20
-160.791851121109
 30
0.0
 10
-176.2454299275273
 20
-161.0613983531485
 30
0.0
 10
-176.4190587204419
 20
-161.1856435998472
 30
0.0
 11
-170.1445483002167
 21
-162.0262686004757
 31
0.0
 11
-170.2591235751962
 21
-161.5911291968504
 31
0.0
 11
-170.5950378799242
 21
-161.1856436003431
 31
0.0
 11
-171.1294023822879
 21
-160.8374456413333
 31
0.0
 11
-171.8257983001292
 21
-160.5702633900516
 31
0.0
 11
-172.6367694929995
 21
-160.4023062375837
 31
0.0
 11
-173.5070483001493
 21
-160.3450185999932
 31
0.0
 11
-174.3773271073037
 21
-160.4023062374355
 31
0.0
 11
-175.1882983001875
 21
-160.5702633897654
 31
0.0
 11
-175.8846942180502
 21
-160.8374456409285
 31
0.0
 11
-176.4190587204419
 21
-161.1856435998472
 31
0.0
  0
SPLINE
  5
149
330
47
100
AcDbEntity
  8
0
  6
Continuous
 62
     7
100
AcDbSpline
210
0.0
220
0.0
230
1.0
 70
     8
 71
     3
 72
    19
 73
    15
 74
    13
 42
0.000000001
 43
0.0000000001
 44
0.00000001
 40
0.0
 40
0.0
 40
0.0
 40
0.0
 40
0.4499708771957622
 40
0.9765228549278072
 40
1.6143216031768
 40
2.360212770439315
 40
3.188393841046482
 40
4.060556143582628
 40
4.932718446118895
 40
5.760899516726061
 40
6.506790683988575
 40
7.144589432237592
 40
7.671141409969564
 40
8.121112287165367
 40
8.121112287165367
 40
8.121112287165367
 40
8.121112287165367
 10
-176.8695483002167
 20
-162.0262685998021
 30
0.0
 10
-176.8439268126543
 20
-162.1769325800106
 30
0.0
 10
-176.7883232665905
 20
-162.5039022222467
 30
0.0
 10
-176.4027941904534
 20
-162.9132157377141
 30
0.0
 10
-175.8639404670579
 20
-163.2522364935054
 30
0.0
 10
-175.1667379489262
 20
-163.5096543970666
 30
0.0
 10
-174.365360155512
 20
-163.6711275463005
 30
0.0
 10
-173.5070483003869
 20
-163.7261847894709
 30
0.0
 10
-172.6487364452508
 20
-163.6711275464725
 30
0.0
 10
-171.8473586518043
 20
-163.5096543973991
 30
0.0
 10
-171.150156133621
 20
-163.2522364939775
 30
0.0
 10
-170.6113024101577
 20
-162.9132157382942
 30
0.0
 10
-170.2257733339383
 20
-162.503902222904
 30
0.0
 10
-170.1701697878093
 20
-162.1769325806791
 30
0.0
 10
-170.1445483002167
 20
-162.0262686004757
 30
0.0
 11
-176.8695483002167
 21
-162.0262685998021
 31
0.0
 11
-176.7549730252416
 21
-162.4614080034192
 31
0.0
 11
-176.419058720526
 21
-162.8668935999202
 31
0.0
 11
-175.8846942181812
 21
-163.2150915589266
 31
0.0
 11
-175.1882983003625
 21
-163.4822738102093
 31
0.0
 11
-174.3773271075152
 21
-163.6502309626832
 31
0.0
 11
-173.5070483003851
 21
-163.7075186002847
 31
0.0
 11
-172.6367694932435
 21
-163.6502309628575
 31
0.0
 11
-171.8257983003625
 21
-163.4822738105461
 31
0.0
 11
-171.1294023824902
 21
-163.2150915594029
 31
0.0
 11
-170.5950378800757
 21
-162.8668936005035
 31
0.0
 11
-170.2591235752789
 21
-162.4614080040699
 31
0.0
 11
-170.1445483002167
 21
-162.0262686004757
 31
0.0
  0
SPLINE
  5
14A
330
47
100
AcDbEntity
  8
0
  6
Continuous
 62
     7
100
AcDbSpline
210
0.0
220
0.0
230
1.0
 70
     8
 71
     3
 72
     9
 73
     5
 74
     3
 42
0.000000001
 43
0.0000000001
 44
0.00000001
 40
0.0
 40
0.0
 40
0.0
 40
0.0
 40
0.5265519791481306
 40
0.9765228584684986
 40
0.9765228584684986
 40
0.9765228584684986
 40
0.9765228584684986
 10
-176.4190587204419
 20
-161.1856435998472
 30
0.0
 10
-176.549169155803
 20
-161.3114851360277
 30
0.0
 10
-176.7904669017705
 20
-161.544865973884
 30
0.0
 10
-176.844602997433
 20
-161.8744157313821
 30
0.0
 10
-176.8695483002167
 20
-162.0262685998021
 30
0.0
 11
-176.4190587204419
 21
-161.1856435998472
 31
0.0
 11
-176.7549730251762
 21
-161.5911291962485
 31
0.0
 11
-176.8695483002167
 21
-162.0262685998021
 31
0.0
  0
SPLINE
  5
14B
330
47
100
AcDbEntity
  8
0
  6
Continuous
 62
     7
100
AcDbSpline
210
0.0
220
0.0
230
1.0
 70
     8
 71
     3
 72
    13
 73
     9
 74
     7
 42
0.000000001
 43
0.0000000001
 44
0.00000001
 40
0.0
 40
0.0
 40
0.0
 40
0.0
 40
0.4740788173873357
 40
0.9606973516793589
 40
1.452101951343401
 40
1.940033122227332
 40
2.416597177713829
 40
2.875145083323537
 40
2.875145083323537
 40
2.875145083323537
 40
2.875145083323537
 10
-156.7131303566004
 20
-218.6798511677932
 30
0.0
 10
-156.7698759884917
 20
-218.5320148136968
 30
0.0
 10
-156.8848682275764
 20
-218.2324317360915
 30
0.0
 10
-157.1451229871613
 20
-217.8209666149901
 30
0.0
 10
-157.4604778020925
 20
-217.4457522888769
 30
0.0
 10
-157.8268784019374
 20
-217.1253473974
 30
0.0
 10
-158.2261580440863
 20
-216.8635637142473
 30
0.0
 10
-158.5173936147503
 20
-216.7504456239237
 30
0.0
 10
-158.6602058866467
 20
-216.6949762690876
 30
0.0
 11
-156.7131303566004
 21
-218.6798511677932
 31
0.0
 11
-156.8972939319839
 21
-218.2430050815796
 31
0.0
 11
-157.1529555290761
 21
-217.828958288359
 31
0.0
 11
-157.4702365132094
 21
-217.4537100250174
 31
0.0
 11
-157.8368766318228
 21
-217.1317599472629
 31
0.0
 11
-158.2387088360642
 21
-216.8755487447444
 31
0.0
 11
-158.6602058866467
 21
-216.6949762690876
 31
0.0
  0
SPLINE
  5
14C
330
47
100
AcDbEntity
  8
0
  6
Continuous
 62
     7
100
AcDbSpline
210
0.0
220
0.0
230
1.0
 70
     8
 71
     3
 72
    13
 73
     9
 74
     7
 42
0.000000001
 43
0.0000000001
 44
0.00000001
 40
0.0
 40
0.0
 40
0.0
 40
0.0
 40
0.1172631642604022
 40
0.2419307378157708
 40
0.3712960139394427
 40
0.5017221147046422
 40
0.6293737711402447
 40
0.7509434390735424
 40
0.7509434390735424
 40
0.7509434390735424
 40
0.7509434390735424
 10
-192.4540314399115
 20
-212.999951382294
 30
0.0
 10
-192.4571058141619
 20
-212.9608010197703
 30
0.0
 10
-192.4634487041721
 20
-212.8800282047957
 30
0.0
 10
-192.5093187372631
 20
-212.763380290484
 30
0.0
 10
-192.5775882167361
 20
-212.6541725397454
 30
0.0
 10
-192.6671866369174
 20
-212.5602341341361
 30
0.0
 10
-192.7705885714553
 20
-212.4848311042623
 30
0.0
 10
-192.8488623466131
 20
-212.4560016327583
 30
0.0
 10
-192.8870441417604
 20
-212.4419386803709
 30
0.0
 11
-192.4540314399115
 21
-212.999951382294
 31
0.0
 11
-192.4687861014336
 21
-212.8836201742497
 31
0.0
 11
-192.512044141782
 21
-212.7666982068213
 31
0.0
 11
-192.5808580055561
 21
-212.6571535701567
 31
0.0
 11
-192.67053779082
 21
-212.5624513822831
 31
0.0
 11
-192.7749722376198
 21
-212.4890457139275
 31
0.0
 11
-192.8870441417604
 21
-212.4419386803709
 31
0.0
  0
SPLINE
  5
14D
330
47
100
AcDbEntity
  8
0
  6
Continuous
 62
     7
100
AcDbSpline
210
0.0
220
0.0
230
1.0
 70
     8
 71
     3
 72
    11
 73
     7
 74
     5
 42
0.000000001
 43
0.0000000001
 44
0.00000001
 40
0.0
 40
0.0
 40
0.0
 40
0.0
 40
0.0935705952241643
 40
0.1815181364226688
 40
0.2647690945051112
 40
0.3453217744955602
 40
0.3453217744955602
 40
0.3453217744955602
 40
0.3453217744955602
 10
-193.0602492225172
 20
-212.3919386803536
 30
0.0
 10
-193.0907795297773
 20
-212.3848982800334
 30
0.0
 10
-193.1500054509318
 20
-212.371240581306
 30
0.0
 10
-193.2390377265507
 20
-212.3757140703748
 30
0.0
 10
-193.3212749620791
 20
-212.3986786848369
 30
0.0
 10
-193.3657197360889
 20
-212.4310619764095
 30
0.0
 10
-193.3875760579146
 20
-212.446986909224
 30
0.0
 11
-193.0602492225172
 21
-212.3919386803536
 31
0.0
 11
-193.1523216636708
 21
-212.3752616920626
 31
0.0
 11
-193.2401831503342
 21
-212.3791513662522
 31
0.0
 11
-193.3198152606601
 21
-212.4034299473485
 31
0.0
 11
-193.3875760579146
 21
-212.446986909224
 31
0.0
  0
SPLINE
  5
14E
330
47
100
AcDbEntity
  8
0
  6
Continuous
 62
     7
100
AcDbSpline
210
0.0
220
0.0
230
1.0
 70
     8
 71
     3
 72
    11
 73
     7
 74
     5
 42
0.000000001
 43
0.0000000001
 44
0.00000001
 40
0.0
 40
0.0
 40
0.0
 40
0.0
 40
0.156502881841682
 40
0.3179717651825829
 40
0.4881496749055371
 40
0.668883144676427
 40
0.668883144676427
 40
0.668883144676427
 40
0.668883144676427
 10
-172.895652186052
 20
-215.6974525779617
 30
0.0
 10
-172.9324213668957
 20
-215.7349545584836
 30
0.0
 10
-173.0071264422294
 20
-215.8111485064834
 30
0.0
 10
-173.0757551208368
 20
-215.9616480569791
 30
0.0
 10
-173.1118319196142
 20
-216.1302901087295
 30
0.0
 10
-173.104617311859
 20
-216.2475504287636
 30
0.0
 10
-173.1009014912676
 20
-216.3079442083778
 30
0.0
 11
-172.895652186052
 21
-215.6974525779617
 31
0.0
 11
-172.9986917729415
 21
-215.8152489962274
 31
0.0
 11
-173.0690136396111
 21
-215.9606004194991
 31
0.0
 11
-173.1035810207731
 21
-216.1272306024726
 31
0.0
 11
-173.1009014912676
 21
-216.3079442083778
 31
0.0
  0
SPLINE
  5
14F
330
47
100
AcDbEntity
  8
0
  6
Continuous
 62
     7
100
AcDbSpline
210
0.0
220
0.0
230
1.0
 70
     8
 71
     3
 72
    11
 73
     7
 74
     5
 42
0.000000001
 43
0.0000000001
 44
0.00000001
 40
0.0
 40
0.0
 40
0.0
 40
0.0
 40
0.1871411908108363
 40
0.3630362754882512
 40
0.5295381944960593
 40
0.6906435564554239
 40
0.6906435564554239
 40
0.6906435564554239
 40
0.6906435564554239
 10
-172.2409985152574
 20
-215.5873561202207
 30
0.0
 10
-172.3020591298958
 20
-215.573275319553
 30
0.0
 10
-172.4205109707495
 20
-215.5459599075093
 30
0.0
 10
-172.598575523819
 20
-215.5549068924702
 30
0.0
 10
-172.7630500003336
 20
-215.6008361153297
 30
0.0
 10
-172.8519395418638
 20
-215.6656027119415
 30
0.0
 10
-172.895652186052
 20
-215.6974525779617
 30
0.0
 11
-172.2409985152574
 21
-215.5873561202207
 31
0.0
 11
-172.4251433975647
 21
-215.5540021436389
 31
0.0
 11
-172.6008663708913
 21
-215.5617814920182
 31
0.0
 11
-172.7601305915431
 21
-215.6103386542107
 31
0.0
 11
-172.895652186052
 21
-215.6974525779617
 31
0.0
  0
SPLINE
  5
150
330
47
100
AcDbEntity
  8
0
  6
Continuous
 62
     7
100
AcDbSpline
210
0.0
220
0.0
230
1.0
 70
     8
 71
     3
 72
    15
 73
    11
 74
     9
 42
0.000000001
 43
0.0000000001
 44
0.00000001
 40
0.0
 40
0.0
 40
0.0
 40
0.0
 40
0.1365579681602456
 40
0.2825721232420839
 40
0.4334129693786718
 40
0.5831949397811691
 40
0.726299339008386
 40
0.85890556484837
 40
0.980499735259236
 40
1.0948727614844
 40
1.0948727614844
 40
1.0948727614844
 40
1.0948727614844
 10
-181.8105792268369
 20
-210.4432862589239
 30
0.0
 10
-181.8147512622341
 20
-210.3976831455362
 30
0.0
 10
-181.8233842474212
 20
-210.3033190564007
 30
0.0
 10
-181.8843861461846
 20
-210.1696990777597
 30
0.0
 10
-181.9734705411885
 20
-210.0493560543111
 30
0.0
 10
-182.0872120931332
 20
-209.952688428929
 30
0.0
 10
-182.2151733080526
 20
-209.8876991274944
 30
0.0
 10
-182.3462047995607
 20
-209.8615915339019
 30
0.0
 10
-182.4727073124292
 20
-209.8743489923154
 30
0.0
 10
-182.538856387387
 20
-209.9187841234838
 30
0.0
 10
-182.5709187640831
 20
-209.9403217858713
 30
0.0
 11
-181.8105792268369
 21
-210.4432862589239
 31
0.0
 11
-181.8303676378234
 21
-210.3081696531225
 31
0.0
 11
-181.8879232138707
 21
-210.1739776675043
 31
0.0
 11
-181.9779864677691
 21
-210.0529753075226
 31
0.0
 11
-182.0923250740751
 21
-209.956221382865
 31
0.0
 11
-182.2204892826205
 21
-209.8925597372272
 31
0.0
 11
-182.350764987194
 21
-209.8678079140947
 31
0.0
 11
-182.4712452076179
 21
-209.8842292509829
 31
0.0
 11
-182.5709187640831
 21
-209.9403217858713
 31
0.0
  0
SPLINE
  5
151
330
47
100
AcDbEntity
  8
0
  6
Continuous
 62
     7
100
AcDbSpline
210
0.0
220
0.0
230
1.0
 70
     8
 71
     3
 72
     9
 73
     5
 74
     3
 42
0.000000001
 43
0.0000000001
 44
0.00000001
 40
0.0
 40
0.0
 40
0.0
 40
0.0
 40
0.1347351597359705
 40
0.2806984683472265
 40
0.2806984683472265
 40
0.2806984683472265
 40
0.2806984683472265
 10
-182.5709187640831
 20
-209.9403217858713
 30
0.0
 10
-182.6013112477806
 20
-209.9750232521556
 30
0.0
 10
-182.6646289548459
 20
-210.0473180395666
 30
0.0
 10
-182.6725076932346
 20
-210.1433497371573
 30
0.0
 10
-182.6766046306213
 20
-210.1932862588371
 30
0.0
 11
-182.5709187640831
 21
-209.9403217858713
 31
0.0
 11
-182.6493230898928
 21
-210.0498951655872
 31
0.0
 11
-182.6766046306213
 21
-210.1932862588371
 31
0.0
  0
ENDBLK
  5
49
330
47
100
AcDbEntity
  8
0
100
AcDbBlockEnd
  0
BLOCK
  5
4C
330
4A
100
AcDbEntity
  8
0
100
AcDbBlockBegin
  2
Allg1
 70
     0
 10
-162.9999999996086
 20
-192.000000000335
 30
0.0
  3
Allg1
  1

  0
INSERT
  5
4B
330
4A
100
AcDbEntity
  8
0
100
AcDbBlockReference
  2
OTTA_25-M6_PH3-select__1
 10
-193.4932619247565
 20
-226.4610402990707
 30
0.0
  0
MTEXT
  5
153
330
4A
100
AcDbEntity
  8
1
 62
     6
100
AcDbMText
 10
-162.9999999996101
 20
-235.7310403002174
 30
0.0
 40
5.0
 41
0.0
 71
     2
 72
     1
  1
 
  7
CONVERTER_11
 73
     1
 44
1.32052821128451
  0
ENDBLK
  5
4D
330
4A
100
AcDbEntity
  8
0
100
AcDbBlockEnd
  0
BLOCK
  5
4F
330
4E
100
AcDbEntity
  8
0
100
AcDbBlockBegin
  2
OTTA_25-M6_PH3-select__2
 70
     0
 10
-333.0250003806683
 20
-203.599998759939
 30
0.0
  3
OTTA_25-M6_PH3-select__2
  1

  0
LINE
  5
154
330
4E
100
AcDbEntity
  8
1
  6
DOT_CENTER
 62
     2
100
AcDbLine
 10
-291.2750003748483
 20
-191.5387487599381
 30
0.0
 11
-291.2750003748483
 21
-198.9362487599381
 31
0.0
  0
LINE
  5
155
330
4E
100
AcDbEntity
  8
1
  6
DOT_CENTER
 62
     2
100
AcDbLine
 10
-287.5762503748484
 20
-195.2374987599381
 30
0.0
 11
-294.9737503748483
 21
-195.2374987599381
 31
0.0
  0
LINE
  5
156
330
4E
100
AcDbEntity
  8
1
  6
DOT_CENTER
 62
     2
100
AcDbLine
 10
-314.7750003746981
 20
-191.5387487600742
 30
0.0
 11
-314.7750003746981
 21
-198.9362487598024
 31
0.0
  0
LINE
  5
157
330
4E
100
AcDbEntity
  8
1
  6
DOT_CENTER
 62
     2
100
AcDbLine
 10
-311.0762503748339
 20
-195.2374987599383
 30
0.0
 11
-318.4737503745623
 21
-195.2374987599383
 31
0.0
  0
LINE
  5
158
330
4E
100
AcDbEntity
  8
0
  6
Continuous
 62
     7
100
AcDbLine
 10
-312.0112485149736
 20
-193.3222750374874
 30
0.0
 11
-313.9264722374245
 21
-195.2374987599383
 31
0.0
  0
LINE
  5
159
330
4E
100
AcDbEntity
  8
0
  6
Continuous
 62
     7
100
AcDbLine
 10
-333.0250003806683
 20
-185.5499987599389
 30
0.0
 11
-333.0250003806682
 21
-203.599998759939
 31
0.0
  0
LINE
  5
15A
330
4E
100
AcDbEntity
  8
0
  6
Continuous
 62
     7
100
AcDbLine
 10
-328.2541322319186
 20
-185.5499987599385
 30
0.0
 11
-330.107751492851
 21
-185.5499987599385
 31
0.0
  0
LINE
  5
15B
330
4E
100
AcDbEntity
  8
0
  6
Continuous
 62
     7
100
AcDbLine
 10
-323.942249257651
 20
-185.5499987599384
 30
0.0
 11
-328.1763057151532
 21
-185.5499987599385
 31
0.0
  0
LINE
  5
15C
330
4E
100
AcDbEntity
  8
0
  6
Continuous
 62
     7
100
AcDbLine
 10
-321.025000374904
 20
-185.5499987599384
 30
0.0
 11
-323.942249257651
 21
-185.5499987599384
 31
0.0
  0
LINE
  5
15D
330
4E
100
AcDbEntity
  8
0
  6
Continuous
 62
     7
100
AcDbLine
 10
-275.9422492580077
 20
-185.549998759938
 30
0.0
 11
-273.025000375598
 21
-185.549998759938
 31
0.0
  0
LINE
  5
15E
330
4E
100
AcDbEntity
  8
0
  6
Continuous
 62
     7
100
AcDbLine
 10
-277.8736950362167
 20
-185.549998759938
 30
0.0
 11
-282.1077514924944
 21
-185.549998759938
 31
0.0
  0
LINE
  5
15F
330
4E
100
AcDbEntity
  8
0
  6
Continuous
 62
     7
100
AcDbLine
 10
-321.0250003749039
 20
-203.5999987599384
 30
0.0
 11
-321.025000374904
 21
-185.5499987599384
 31
0.0
  0
LINE
  5
160
330
4E
100
AcDbEntity
  8
0
  6
Continuous
 62
     7
100
AcDbLine
 10
-330.1077514928508
 20
-203.5999987599385
 30
0.0
 11
-330.107751492851
 21
-185.5499987599385
 31
0.0
  0
LINE
  5
161
330
4E
100
AcDbEntity
  8
0
  6
Continuous
 62
     7
100
AcDbLine
 10
-328.1763057151532
 20
-185.5499987599385
 30
0.0
 11
-328.176305715153
 21
-203.5999987599385
 31
0.0
  0
LINE
  5
162
330
4E
100
AcDbEntity
  8
0
  6
Continuous
 62
     7
100
AcDbLine
 10
-328.2541322319184
 20
-203.5999987599385
 30
0.0
 11
-328.2541322319186
 21
-185.5499987599385
 31
0.0
  0
LINE
  5
163
330
4E
100
AcDbEntity
  8
0
  6
Continuous
 62
     7
100
AcDbLine
 10
-333.0250003806683
 20
-185.5499987599389
 30
0.0
 11
-330.107751492851
 21
-185.5499987599385
 31
0.0
  0
LINE
  5
164
330
4E
100
AcDbEntity
  8
0
  6
Continuous
 62
     7
100
AcDbLine
 10
-323.9422492576509
 20
-203.5999987599384
 30
0.0
 11
-323.942249257651
 21
-185.5499987599384
 31
0.0
  0
LINE
  5
165
330
4E
100
AcDbEntity
  8
0
  6
Continuous
 62
     7
100
AcDbLine
 10
-330.1077514928508
 20
-203.5999987599385
 30
0.0
 11
-333.0250003806682
 21
-203.599998759939
 31
0.0
  0
LINE
  5
166
330
4E
100
AcDbEntity
  8
0
  6
Continuous
 62
     7
100
AcDbLine
 10
-328.176305715153
 20
-203.5999987599385
 30
0.0
 11
-328.2541322319184
 21
-203.5999987599385
 31
0.0
  0
LINE
  5
167
330
4E
100
AcDbEntity
  8
0
  6
Continuous
 62
     7
100
AcDbLine
 10
-275.9422492580075
 20
-203.599998759938
 30
0.0
 11
-277.7958685192124
 21
-203.5999987599381
 31
0.0
  0
LINE
  5
168
330
4E
100
AcDbEntity
  8
0
  6
Continuous
 62
     7
100
AcDbLine
 10
-275.9422492580075
 20
-203.599998759938
 30
0.0
 11
-273.0250003755979
 21
-203.599998759938
 31
0.0
  0
LINE
  5
169
330
4E
100
AcDbEntity
  8
0
  6
Continuous
 62
     7
100
AcDbLine
 10
-277.8736950362164
 20
-203.5999987599381
 30
0.0
 11
-282.1077514924942
 21
-203.5999987599381
 31
0.0
  0
LINE
  5
16A
330
4E
100
AcDbEntity
  8
0
  6
Continuous
 62
     7
100
AcDbLine
 10
-277.7958685192124
 20
-203.5999987599381
 30
0.0
 11
-277.8736950362164
 21
-203.5999987599381
 31
0.0
  0
LINE
  5
16B
330
4E
100
AcDbEntity
  8
0
  6
Continuous
 62
     7
100
AcDbLine
 10
-285.0250003749039
 20
-203.5999987599381
 30
0.0
 11
-282.1077514924942
 21
-203.5999987599381
 31
0.0
  0
LINE
  5
16C
330
4E
100
AcDbEntity
  8
0
  6
Continuous
 62
     7
100
AcDbLine
 10
-291.2750003748484
 20
-194.3889706225143
 30
0.0
 11
-289.3597766523975
 21
-192.4737469000633
 31
0.0
  0
LINE
  5
16D
330
4E
100
AcDbEntity
  8
0
  6
Continuous
 62
     7
100
AcDbLine
 10
-289.3597766523974
 20
-198.0012506198129
 30
0.0
 11
-291.2750003748483
 21
-196.086026897362
 31
0.0
  0
LINE
  5
16E
330
4E
100
AcDbEntity
  8
0
  6
Continuous
 62
     7
100
AcDbLine
 10
-288.5112485149736
 20
-193.3222750374872
 30
0.0
 11
-290.4264722374245
 21
-195.2374987599381
 31
0.0
  0
LINE
  5
16F
330
4E
100
AcDbEntity
  8
0
  6
Continuous
 62
     7
100
AcDbLine
 10
-282.1077514924942
 20
-203.5999987599381
 30
0.0
 11
-282.1077514924944
 21
-185.549998759938
 31
0.0
  0
LINE
  5
170
330
4E
100
AcDbEntity
  8
0
  6
Continuous
 62
     7
100
AcDbLine
 10
-290.4264722374245
 20
-195.2374987599381
 30
0.0
 11
-288.5112485149736
 21
-197.152722482389
 31
0.0
  0
LINE
  5
171
330
4E
100
AcDbEntity
  8
0
  6
Continuous
 62
     7
100
AcDbLine
 10
-285.0250003749039
 20
-203.5999987599381
 30
0.0
 11
-285.025000374904
 21
-185.549998759938
 31
0.0
  0
LINE
  5
172
330
4E
100
AcDbEntity
  8
0
  6
Continuous
 62
     7
100
AcDbLine
 10
-277.7958685192124
 20
-203.5999987599381
 30
0.0
 11
-277.7958685192125
 21
-185.549998759938
 31
0.0
  0
LINE
  5
173
330
4E
100
AcDbEntity
  8
0
  6
Continuous
 62
     7
100
AcDbLine
 10
-275.9422492580077
 20
-185.549998759938
 30
0.0
 11
-277.7958685192125
 21
-185.549998759938
 31
0.0
  0
LINE
  5
174
330
4E
100
AcDbEntity
  8
0
  6
Continuous
 62
     7
100
AcDbLine
 10
-277.7958685192125
 20
-185.549998759938
 30
0.0
 11
-277.8736950362167
 21
-185.549998759938
 31
0.0
  0
LINE
  5
175
330
4E
100
AcDbEntity
  8
0
  6
Continuous
 62
     7
100
AcDbLine
 10
-277.8736950362167
 20
-185.549998759938
 30
0.0
 11
-277.8736950362164
 21
-203.5999987599381
 31
0.0
  0
LINE
  5
176
330
4E
100
AcDbEntity
  8
0
  6
Continuous
 62
     7
100
AcDbLine
 10
-275.9422492580075
 20
-203.599998759938
 30
0.0
 11
-275.9422492580077
 21
-185.549998759938
 31
0.0
  0
LINE
  5
177
330
4E
100
AcDbEntity
  8
0
  6
Continuous
 62
     7
100
AcDbLine
 10
-273.0250003755979
 20
-203.599998759938
 30
0.0
 11
-273.025000375598
 21
-185.549998759938
 31
0.0
  0
LINE
  5
178
330
4E
100
AcDbEntity
  8
0
  6
Continuous
 62
     7
100
AcDbLine
 10
-291.2750003748483
 20
-196.086026897362
 30
0.0
 11
-293.1902240972993
 21
-198.0012506198129
 31
0.0
  0
LINE
  5
179
330
4E
100
AcDbEntity
  8
0
  6
Continuous
 62
     7
100
AcDbLine
 10
-285.025000374904
 20
-185.549998759938
 30
0.0
 11
-282.1077514924944
 21
-185.549998759938
 31
0.0
  0
LINE
  5
17A
330
4E
100
AcDbEntity
  8
0
  6
Continuous
 62
     7
100
AcDbLine
 10
-293.1902240972993
 20
-192.4737469000634
 30
0.0
 11
-291.2750003748484
 21
-194.3889706225143
 31
0.0
  0
LINE
  5
17B
330
4E
100
AcDbEntity
  8
0
  6
Continuous
 62
     7
100
AcDbLine
 10
-292.1235285122722
 20
-195.2374987599381
 30
0.0
 11
-294.0387522347231
 21
-193.3222750374872
 31
0.0
  0
LINE
  5
17C
330
4E
100
AcDbEntity
  8
0
  6
Continuous
 62
     7
100
AcDbLine
 10
-294.0387522347231
 20
-197.152722482389
 30
0.0
 11
-292.1235285122722
 21
-195.2374987599381
 31
0.0
  0
LINE
  5
17D
330
4E
100
AcDbEntity
  8
0
  6
Continuous
 62
     7
100
AcDbLine
 10
-313.9264722374245
 20
-195.2374987599383
 30
0.0
 11
-312.0112485149735
 21
-197.1527224823892
 31
0.0
  0
LINE
  5
17E
330
4E
100
AcDbEntity
  8
0
  6
Continuous
 62
     7
100
AcDbLine
 10
-328.2541322319184
 20
-203.5999987599385
 30
0.0
 11
-330.1077514928508
 21
-203.5999987599385
 31
0.0
  0
LINE
  5
17F
330
4E
100
AcDbEntity
  8
0
  6
Continuous
 62
     7
100
AcDbLine
 10
-323.9422492576509
 20
-203.5999987599384
 30
0.0
 11
-328.176305715153
 21
-203.5999987599385
 31
0.0
  0
LINE
  5
180
330
4E
100
AcDbEntity
  8
0
  6
Continuous
 62
     7
100
AcDbLine
 10
-323.9422492576509
 20
-203.5999987599384
 30
0.0
 11
-321.0250003749039
 21
-203.5999987599384
 31
0.0
  0
LINE
  5
181
330
4E
100
AcDbEntity
  8
0
  6
Continuous
 62
     7
100
AcDbLine
 10
-328.1763057151532
 20
-185.5499987599385
 30
0.0
 11
-328.2541322319186
 21
-185.5499987599385
 31
0.0
  0
LINE
  5
182
330
4E
100
AcDbEntity
  8
0
  6
Continuous
 62
     7
100
AcDbLine
 10
-285.025000374904
 20
-185.549998759938
 30
0.0
 11
-321.025000374904
 21
-185.5499987599384
 31
0.0
  0
LINE
  5
183
330
4E
100
AcDbEntity
  8
0
  6
Continuous
 62
     7
100
AcDbLine
 10
-285.0250003749039
 20
-203.5999987599381
 30
0.0
 11
-321.0250003749039
 21
-203.5999987599384
 31
0.0
  0
LINE
  5
184
330
4E
100
AcDbEntity
  8
0
  6
Continuous
 62
     7
100
AcDbLine
 10
-314.7750003748483
 20
-194.3889706225144
 30
0.0
 11
-312.8597766523975
 21
-192.4737469000635
 31
0.0
  0
LINE
  5
185
330
4E
100
AcDbEntity
  8
0
  6
Continuous
 62
     7
100
AcDbLine
 10
-316.6902240972993
 20
-192.4737469000635
 30
0.0
 11
-314.7750003748483
 21
-194.3889706225144
 31
0.0
  0
LINE
  5
186
330
4E
100
AcDbEntity
  8
0
  6
Continuous
 62
     7
100
AcDbLine
 10
-317.5387522347231
 20
-197.1527224823892
 30
0.0
 11
-315.6235285122722
 21
-195.2374987599383
 31
0.0
  0
LINE
  5
187
330
4E
100
AcDbEntity
  8
0
  6
Continuous
 62
     7
100
AcDbLine
 10
-314.7750003748483
 20
-196.0860268973622
 30
0.0
 11
-316.6902240972992
 21
-198.0012506198131
 31
0.0
  0
LINE
  5
188
330
4E
100
AcDbEntity
  8
0
  6
Continuous
 62
     7
100
AcDbLine
 10
-312.8597766523974
 20
-198.0012506198131
 30
0.0
 11
-314.7750003748483
 21
-196.0860268973622
 31
0.0
  0
LINE
  5
189
330
4E
100
AcDbEntity
  8
0
  6
Continuous
 62
     7
100
AcDbLine
 10
-315.6235285122722
 20
-195.2374987599383
 30
0.0
 11
-317.5387522347231
 21
-193.3222750374874
 31
0.0
  0
ARC
  5
18A
330
4E
100
AcDbEntity
  8
0
  6
Continuous
 62
     7
100
AcDbCircle
 10
-291.2750003747732
 20
-195.2374987598629
 30
0.0
 40
3.362499999895351
100
AcDbArc
 50
34.72117053906543
 51
55.27882946093457
  0
ARC
  5
18B
330
4E
100
AcDbEntity
  8
0
  6
Continuous
 62
     7
100
AcDbCircle
 10
-291.2750003746364
 20
-195.2374987597406
 30
0.0
 40
3.362499999938284
100
AcDbArc
 50
325.2788294557874
 51
359.9999999966361
  0
ARC
  5
18C
330
4E
100
AcDbEntity
  8
0
  6
Continuous
 62
     7
100
AcDbCircle
 10
-291.2750003746364
 20
-195.2374987601356
 30
0.0
 40
3.362499999938336
100
AcDbArc
 50
0.00000000336682
 51
34.72117054421219
  0
ARC
  5
18D
330
4E
100
AcDbEntity
  8
0
  6
Continuous
 62
     7
100
AcDbCircle
 10
-291.2750003748483
 20
-195.2374987599381
 30
0.0
 40
3.362499999999934
100
AcDbArc
 50
55.27882946061278
 51
124.7211705393912
  0
ARC
  5
18E
330
4E
100
AcDbEntity
  8
0
  6
Continuous
 62
     7
100
AcDbCircle
 10
-291.2750003747732
 20
-195.2374987600132
 30
0.0
 40
3.362500000104506
100
AcDbArc
 50
124.7211705397138
 51
145.2788294602885
  0
ARC
  5
18F
330
4E
100
AcDbEntity
  8
0
  6
Continuous
 62
     7
100
AcDbCircle
 10
-291.2750003746981
 20
-195.2374987599381
 30
0.0
 40
3.362500000123483
100
AcDbArc
 50
145.2788294620693
 51
214.7211705379311
  0
ARC
  5
190
330
4E
100
AcDbEntity
  8
0
  6
Continuous
 62
     7
100
AcDbCircle
 10
-291.2750003747732
 20
-195.2374987600132
 30
0.0
 40
3.362499999895509
100
AcDbArc
 50
304.7211705390659
 51
325.278829460933
  0
ARC
  5
191
330
4E
100
AcDbEntity
  8
0
  6
Continuous
 62
     7
100
AcDbCircle
 10
-291.2750003748483
 20
-195.2374987599381
 30
0.0
 40
3.362500000000086
100
AcDbArc
 50
235.2788294606099
 51
304.7211705393885
  0
ARC
  5
192
330
4E
100
AcDbEntity
  8
0
  6
Continuous
 62
     7
100
AcDbCircle
 10
-291.2750003747732
 20
-195.2374987598629
 30
0.0
 40
3.362500000104615
100
AcDbArc
 50
214.7211705397131
 51
235.2788294602881
  0
ARC
  5
193
330
4E
100
AcDbEntity
  8
0
  6
Continuous
 62
     7
100
AcDbCircle
 10
-314.7750003748483
 20
-195.2374987599383
 30
0.0
 40
3.362499999999934
100
AcDbArc
 50
55.27882946061278
 51
124.7211705393904
  0
ARC
  5
194
330
4E
100
AcDbEntity
  8
0
  6
Continuous
 62
     7
100
AcDbCircle
 10
-314.7750003747732
 20
-195.2374987600134
 30
0.0
 40
3.362500000104576
100
AcDbArc
 50
124.721170539713
 51
145.2788294602885
  0
ARC
  5
195
330
4E
100
AcDbEntity
  8
0
  6
Continuous
 62
     7
100
AcDbCircle
 10
-314.7750003746364
 20
-195.2374987601358
 30
0.0
 40
3.362500000061686
100
AcDbArc
 50
179.9999999966346
 51
214.7211705345664
  0
ARC
  5
196
330
4E
100
AcDbEntity
  8
0
  6
Continuous
 62
     7
100
AcDbCircle
 10
-314.7750003747732
 20
-195.2374987598632
 30
0.0
 40
3.36250000010455
100
AcDbArc
 50
214.7211705397115
 51
235.2788294602878
  0
ARC
  5
197
330
4E
100
AcDbEntity
  8
0
  6
Continuous
 62
     7
100
AcDbCircle
 10
-314.7750003748483
 20
-195.2374987599383
 30
0.0
 40
3.362500000000054
100
AcDbArc
 50
235.2788294606107
 51
304.7211705393885
  0
ARC
  5
198
330
4E
100
AcDbEntity
  8
0
  6
Continuous
 62
     7
100
AcDbCircle
 10
-314.7750003746364
 20
-195.2374987597408
 30
0.0
 40
3.362500000061682
100
AcDbArc
 50
145.278829465434
 51
180.0000000033654
  0
ARC
  5
199
330
4E
100
AcDbEntity
  8
0
  6
Continuous
 62
     7
100
AcDbCircle
 10
-314.7750003746981
 20
-195.2374987599383
 30
0.0
 40
3.362499999876576
100
AcDbArc
 50
325.2788294591533
 51
34.72117054084749
  0
ARC
  5
19A
330
4E
100
AcDbEntity
  8
0
  6
Continuous
 62
     7
100
AcDbCircle
 10
-314.7750003747732
 20
-195.2374987598632
 30
0.0
 40
3.362499999895416
100
AcDbArc
 50
34.72117053906703
 51
55.27882946093568
  0
ARC
  5
19B
330
4E
100
AcDbEntity
  8
0
  6
Continuous
 62
     7
100
AcDbCircle
 10
-314.7750003747732
 20
-195.2374987600134
 30
0.0
 40
3.362499999895509
100
AcDbArc
 50
304.7211705390659
 51
325.2788294609341
  0
ENDBLK
  5
50
330
4E
100
AcDbEntity
  8
0
100
AcDbBlockEnd
  0
BLOCK
  5
53
330
51
100
AcDbEntity
  8
0
100
AcDbBlockBegin
  2
Drfsicht1
 70
     0
 10
-303.0250003783086
 20
-194.5749991414033
 30
0.0
  3
Drfsicht1
  1

  0
INSERT
  5
52
330
51
100
AcDbEntity
  8
0
100
AcDbBlockReference
  2
OTTA_25-M6_PH3-select__2
 10
-333.0250003806683
 20
-203.599998759939
 30
0.0
  0
MTEXT
  5
19C
330
51
100
AcDbEntity
  8
1
 62
     6
100
AcDbMText
 10
-303.0250003783084
 20
-208.5999987599341
 30
0.0
 40
5.0
 41
0.0
 71
     2
 72
     1
  1
 
  7
CONVERTER_11
 73
     1
 44
1.32052821128451
  0
DIMENSION
  5
1A8
330
51
100
AcDbEntity
  8
1
100
AcDbDimension
  2
*D17
 10
-343.0250003806684
 20
-203.599998759939
 30
0.0
 11
-346.4500003806684
 21
-213.220816920765
 31
0.0
 70
    32
  1
<>
 71
     5
 42
-1.0
 53
90.0
  3
ME10_DIM_10
100
AcDbAlignedDimension
 13
-333.0250003806683
 23
-185.5499987599389
 33
0.0
 14
-333.0250003806682
 24
-203.599998759939
 34
0.0
 50
90.0
100
AcDbRotatedDimension
  0
ENDBLK
  5
54
330
51
100
AcDbEntity
  8
0
100
AcDbBlockEnd
  0
BLOCK
  5
56
330
55
100
AcDbEntity
  8
0
100
AcDbBlockBegin
  2
OTTA_25-M6_PH3-select__3
 70
     0
 10
-214.9750003814696
 20
-149.549999238863
 30
0.0
  3
OTTA_25-M6_PH3-select__3
  1

  0
LINE
  5
1A9
330
55
100
AcDbEntity
  8
0
  6
Continuous
 62
     7
100
AcDbLine
 10
-204.9067890630974
 20
-146.1106315503699
 30
0.0
 11
-214.9750003772395
 21
-137.6623991517769
 31
0.0
  0
LINE
  5
1AA
330
55
100
AcDbEntity
  8
0
  6
Continuous
 62
     7
100
AcDbLine
 10
-176.6450003769403
 20
-140.6499992367344
 30
0.0
 11
-177.5687608078039
 21
-139.0499992368269
 31
0.0
  0
LINE
  5
1AB
330
55
100
AcDbEntity
  8
0
  6
Continuous
 62
     7
100
AcDbLine
 10
-166.9750003823695
 20
-86.44999923576574
 30
0.0
 11
-166.9750003821636
 21
-88.5049992357657
 31
0.0
  0
LINE
  5
1AC
330
55
100
AcDbEntity
  8
0
  6
Continuous
 62
     7
100
AcDbLine
 10
-197.5750003763893
 20
-146.1499992388309
 30
0.0
 11
-195.1968313203097
 21
-141.0499992385926
 31
0.0
  0
LINE
  5
1AD
330
55
100
AcDbEntity
  8
0
  6
Continuous
 62
     7
100
AcDbLine
 10
-184.09500037678
 20
-142.2499992374807
 30
0.0
 11
-193.3925687732412
 21
-142.249999238412
 31
0.0
  0
LINE
  5
1AE
330
55
100
AcDbEntity
  8
0
  6
Continuous
 62
     7
100
AcDbLine
 10
-201.8750003765435
 20
-144.6107687547204
 30
0.0
 11
-201.8750003764734
 21
-145.3107687547204
 31
0.0
  0
LINE
  5
1AF
330
55
100
AcDbEntity
  8
0
  6
Continuous
 62
     7
100
AcDbLine
 10
-202.4750003765597
 20
-144.4499992393218
 30
0.0
 11
-201.8750003765435
 21
-144.6107687547204
 31
0.0
  0
LINE
  5
1B0
330
55
100
AcDbEntity
  8
0
  6
Continuous
 62
     7
100
AcDbLine
 10
-202.4750003766798
 20
-143.2499992393218
 30
0.0
 11
-202.4750003765597
 21
-144.4499992393218
 31
0.0
  0
LINE
  5
1B1
330
55
100
AcDbEntity
  8
0
  6
Continuous
 62
     7
100
AcDbLine
 10
-198.3750003766798
 20
-143.2499992389111
 30
0.0
 11
-202.4750003766798
 21
-143.2499992393218
 31
0.0
  0
LINE
  5
1B2
330
55
100
AcDbEntity
  8
0
  6
Continuous
 62
     7
100
AcDbLine
 10
-201.8750003764734
 20
-145.3107687547204
 30
0.0
 11
-202.4750003764135
 21
-145.9107687547805
 31
0.0
  0
LINE
  5
1B3
330
55
100
AcDbEntity
  8
0
  6
Continuous
 62
     7
100
AcDbLine
 10
-197.4450380994582
 20
-140.6949488805036
 30
0.0
 11
-198.3750003766798
 21
-143.2499992389111
 31
0.0
  0
LINE
  5
1B4
330
55
100
AcDbEntity
  8
0
  6
Continuous
 62
     7
100
AcDbLine
 10
-195.1968313203097
 20
-141.0499992385926
 30
0.0
 11
-195.1967489366486
 21
-139.0520379430347
 31
0.0
  0
LINE
  5
1B5
330
55
100
AcDbEntity
  8
0
  6
Continuous
 62
     7
100
AcDbLine
 10
-193.3925687732412
 20
-142.249999238412
 30
0.0
 11
-194.2950003765316
 21
-144.7294096918273
 31
0.0
  0
LINE
  5
1B6
330
55
100
AcDbEntity
  8
0
  6
Continuous
 62
     7
100
AcDbLine
 10
-184.0950003771005
 20
-139.0499992374807
 30
0.0
 11
-184.09500037678
 21
-142.2499992374807
 31
0.0
  0
LINE
  5
1B7
330
55
100
AcDbEntity
  8
0
  6
Continuous
 62
     7
100
AcDbLine
 10
-182.095000376229
 20
-147.7499992372803
 30
0.0
 11
-182.0950003771005
 21
-139.0499992372803
 31
0.0
  0
LINE
  5
1B8
330
55
100
AcDbEntity
  8
0
  6
Continuous
 62
     7
100
AcDbLine
 10
-202.4750003764135
 20
-145.9107687547805
 30
0.0
 11
-204.9067890630974
 21
-146.1106315503699
 31
0.0
  0
LINE
  5
1B9
330
55
100
AcDbEntity
  8
0
  6
Continuous
 62
     7
100
AcDbLine
 10
-154.9750003763994
 20
-146.0499992345637
 30
0.0
 11
-154.9750003760487
 21
-149.5499992345637
 31
0.0
  0
LINE
  5
1BA
330
55
100
AcDbEntity
  8
0
  6
Continuous
 62
     7
100
AcDbLine
 10
-154.9750003760487
 20
-149.5499992345637
 30
0.0
 11
-167.2950003760488
 21
-149.5499992357977
 31
0.0
  0
LINE
  5
1BB
330
55
100
AcDbEntity
  8
0
  6
Continuous
 62
     7
100
AcDbLine
 10
-179.0398463568425
 20
-147.7499992369743
 30
0.0
 11
-182.095000376229
 21
-147.7499992372803
 31
0.0
  0
LINE
  5
1BC
330
55
100
AcDbEntity
  8
0
  6
Continuous
 62
     7
100
AcDbLine
 10
-197.5750003763392
 20
-146.649999238831
 30
0.0
 11
-197.5750003763893
 21
-146.1499992388309
 31
0.0
  0
LINE
  5
1BD
330
55
100
AcDbEntity
  8
0
  6
Continuous
 62
     7
100
AcDbLine
 10
-196.4750003763392
 20
-146.6499992387207
 30
0.0
 11
-197.5750003763392
 21
-146.649999238831
 31
0.0
  0
LINE
  5
1BE
330
55
100
AcDbEntity
  8
0
  6
Continuous
 62
     7
100
AcDbLine
 10
-196.475000376176
 20
-148.2799992387208
 30
0.0
 11
-196.4750003763392
 21
-146.6499992387207
 31
0.0
  0
LINE
  5
1BF
330
55
100
AcDbEntity
  8
0
  6
Continuous
 62
     7
100
AcDbLine
 10
-197.8950003761759
 20
-148.279999238863
 30
0.0
 11
-196.475000376176
 21
-148.2799992387208
 31
0.0
  0
LINE
  5
1C0
330
55
100
AcDbEntity
  8
0
  6
Continuous
 62
     7
100
AcDbLine
 10
-197.8950003760487
 20
-149.549999238863
 30
0.0
 11
-197.8950003761759
 21
-148.279999238863
 31
0.0
  0
LINE
  5
1C1
330
55
100
AcDbEntity
  8
0
  6
Continuous
 62
     7
100
AcDbLine
 10
-195.1450003760488
 20
-149.5499992385875
 30
0.0
 11
-197.8950003760487
 21
-149.549999238863
 31
0.0
  0
LINE
  5
1C2
330
55
100
AcDbEntity
  8
0
  6
Continuous
 62
     7
100
AcDbLine
 10
-154.9750003814696
 20
-95.43320246483916
 30
0.0
 11
-157.8922492642167
 21
-93.74892803748166
 31
0.0
  0
LINE
  5
1C3
330
55
100
AcDbEntity
  8
0
  6
Continuous
 62
     7
100
AcDbLine
 10
-154.9750003814696
 20
-95.43320246483916
 30
0.0
 11
-154.9750003773154
 21
-136.9045222990272
 31
0.0
  0
LINE
  5
1C4
330
55
100
AcDbEntity
  8
0
  6
Continuous
 62
     7
100
AcDbLine
 10
-168.4950003765397
 20
-144.6499992359179
 30
0.0
 11
-167.4650003765598
 21
-144.4499992358149
 31
0.0
  0
LINE
  5
1C5
330
55
100
AcDbEntity
  8
0
  6
Continuous
 62
     7
100
AcDbLine
 10
-168.395000376775
 20
-142.2999992359079
 30
0.0
 11
-167.4650003769363
 21
-140.6891919847757
 31
0.0
  0
LINE
  5
1C6
330
55
100
AcDbEntity
  8
0
  6
Continuous
 62
     7
100
AcDbLine
 10
-167.4650003769363
 20
-140.6891919847757
 30
0.0
 11
-167.4650003770504
 21
-139.5499992358148
 31
0.0
  0
LINE
  5
1C7
330
55
100
AcDbEntity
  8
0
  6
Continuous
 62
     7
100
AcDbLine
 10
-171.6599150809419
 20
-139.549999236235
 30
0.0
 11
-172.2950003769403
 21
-140.6499992362986
 31
0.0
  0
LINE
  5
1C8
330
55
100
AcDbEntity
  8
0
  6
Continuous
 62
     7
100
AcDbLine
 10
-159.2886950420074
 20
-95.37333432509982
 30
0.0
 11
-159.7458685251491
 21
-95.1093850916026
 31
0.0
  0
LINE
  5
1C9
330
55
100
AcDbEntity
  8
0
  6
Continuous
 62
     7
100
AcDbLine
 10
-159.8236950419145
 20
-96.29998150720274
 30
0.0
 11
-159.2886950420074
 21
-95.37333432509982
 31
0.0
  0
LINE
  5
1CA
330
55
100
AcDbEntity
  8
0
  6
Continuous
 62
     7
100
AcDbLine
 10
-214.9750003772395
 20
-137.6623991517769
 30
0.0
 11
-214.9750003814696
 21
-95.4332024708495
 31
0.0
  0
LINE
  5
1CB
330
55
100
AcDbEntity
  8
0
  6
Continuous
 62
     7
100
AcDbLine
 10
-212.05775149906
 20
-93.7489280429075
 30
0.0
 11
-214.9750003814696
 21
-95.4332024708495
 31
0.0
  0
LINE
  5
1CC
330
55
100
AcDbEntity
  8
0
  6
Continuous
 62
     7
100
AcDbLine
 10
-212.05775149906
 20
-93.7489280429075
 30
0.0
 11
-210.2041322378551
 21
-95.10938509665708
 31
0.0
  0
LINE
  5
1CD
330
55
100
AcDbEntity
  8
0
  6
Continuous
 62
     7
100
AcDbLine
 10
-210.2041322378551
 20
-95.10938509665708
 30
0.0
 11
-210.6613057209439
 21
-95.37333433024585
 31
0.0
  0
LINE
  5
1CE
330
55
100
AcDbEntity
  8
0
  6
Continuous
 62
     7
100
AcDbLine
 10
-210.6613057209439
 20
-95.37333433024585
 30
0.0
 11
-210.1263057208511
 21
-96.29998151224154
 31
0.0
  0
LINE
  5
1CF
330
55
100
AcDbEntity
  8
0
  6
Continuous
 62
     7
100
AcDbLine
 10
-210.1263057208511
 20
-96.29998151224154
 30
0.0
 11
-204.6486950422313
 21
-93.13748151169285
 31
0.0
  0
LINE
  5
1D0
330
55
100
AcDbEntity
  8
0
  6
Continuous
 62
     7
100
AcDbLine
 10
-204.6486950422313
 20
-93.13748151169285
 30
0.0
 11
-205.1836950423241
 21
-92.21083432969711
 31
0.0
  0
LINE
  5
1D1
330
55
100
AcDbEntity
  8
0
  6
Continuous
 62
     7
100
AcDbLine
 10
-205.1836950423241
 20
-92.21083432969711
 30
0.0
 11
-205.640868525413
 21
-92.47478356328585
 31
0.0
  0
LINE
  5
1D2
330
55
100
AcDbEntity
  8
0
  6
Continuous
 62
     7
100
AcDbLine
 10
-205.640868525413
 20
-92.47478356328585
 30
0.0
 11
-205.8922492645733
 21
-90.18927366731393
 31
0.0
  0
LINE
  5
1D3
330
55
100
AcDbEntity
  8
0
  6
Continuous
 62
     7
100
AcDbLine
 10
-202.9750003821636
 20
-88.50499923937194
 30
0.0
 11
-205.8922492645733
 21
-90.18927366731393
 31
0.0
  0
LINE
  5
1D4
330
55
100
AcDbEntity
  8
0
  6
Continuous
 62
     7
100
AcDbLine
 10
-154.9750003773154
 20
-136.9045222990272
 30
0.0
 11
-157.4873743191962
 21
-143.8706634425511
 31
0.0
  0
LINE
  5
1D5
330
55
100
AcDbEntity
  8
0
  6
Continuous
 62
     7
100
AcDbLine
 10
-167.2534079998299
 20
-143.2499992357936
 30
0.0
 11
-168.3950003767001
 21
-143.0487056988982
 31
0.0
  0
LINE
  5
1D6
330
55
100
AcDbEntity
  8
0
  6
Continuous
 62
     7
100
AcDbLine
 10
-168.3950003767001
 20
-143.0487056988982
 30
0.0
 11
-168.395000376775
 21
-142.2999992359079
 31
0.0
  0
LINE
  5
1D7
330
55
100
AcDbEntity
  8
0
  6
Continuous
 62
     7
100
AcDbLine
 10
-156.8055024895986
 20
-145.1758541778059
 30
0.0
 11
-155.3455908538965
 21
-145.5670363214563
 31
0.0
  0
LINE
  5
1D8
330
55
100
AcDbEntity
  8
0
  6
Continuous
 62
     7
100
AcDbLine
 10
-164.0577514994166
 20
-90.1892736631232
 30
0.0
 11
-166.9750003821636
 21
-88.5049992357657
 31
0.0
  0
LINE
  5
1D9
330
55
100
AcDbEntity
  8
0
  6
Continuous
 62
     7
100
AcDbLine
 10
-164.0577514994166
 20
-90.1892736631232
 30
0.0
 11
-164.309132238119
 21
-92.47478355914566
 31
0.0
  0
LINE
  5
1DA
330
55
100
AcDbEntity
  8
0
  6
Continuous
 62
     7
100
AcDbLine
 10
-164.309132238119
 20
-92.47478355914566
 30
0.0
 11
-164.7663057212608
 21
-92.21083432564849
 31
0.0
  0
LINE
  5
1DB
330
55
100
AcDbEntity
  8
0
  6
Continuous
 62
     7
100
AcDbLine
 10
-164.7663057212608
 20
-92.21083432564849
 30
0.0
 11
-165.3013057211679
 21
-93.13748150775143
 31
0.0
  0
LINE
  5
1DC
330
55
100
AcDbEntity
  8
0
  6
Continuous
 62
     7
100
AcDbLine
 10
-172.2950003769403
 20
-140.6499992362986
 30
0.0
 11
-176.6450003769403
 21
-140.6499992367344
 31
0.0
  0
LINE
  5
1DD
330
55
100
AcDbEntity
  8
0
  6
Continuous
 62
     7
100
AcDbLine
 10
-165.3013057211679
 20
-93.13748150775143
 30
0.0
 11
-159.8236950419145
 21
-96.29998150720274
 31
0.0
  0
LINE
  5
1DE
330
55
100
AcDbEntity
  8
0
  6
Continuous
 62
     7
100
AcDbLine
 10
-159.7458685251491
 20
-95.1093850916026
 30
0.0
 11
-157.8922492642167
 21
-93.74892803748166
 31
0.0
  0
LINE
  5
1DF
330
55
100
AcDbEntity
  8
0
  6
Continuous
 62
     7
100
AcDbLine
 10
-167.2950003760488
 20
-149.5499992357977
 30
0.0
 11
-168.4950003765146
 21
-144.899999235918
 31
0.0
  0
LINE
  5
1E0
330
55
100
AcDbEntity
  8
0
  6
Continuous
 62
     7
100
AcDbLine
 10
-168.4950003765146
 20
-144.899999235918
 30
0.0
 11
-168.4950003765397
 21
-144.6499992359179
 31
0.0
  0
LINE
  5
1E1
330
55
100
AcDbEntity
  8
0
  6
Continuous
 62
     7
100
AcDbLine
 10
-167.4650003765598
 20
-144.4499992358149
 30
0.0
 11
-167.2534079998299
 21
-143.2499992357936
 31
0.0
  0
LINE
  5
1E2
330
55
100
AcDbEntity
  8
0
  6
Continuous
 62
     7
100
AcDbLine
 10
-168.4650003770504
 20
-139.549999235915
 30
0.0
 11
-171.6599150809419
 21
-139.549999236235
 31
0.0
  0
LINE
  5
1E3
330
55
100
AcDbEntity
  8
0
  6
Continuous
 62
     7
100
AcDbLine
 10
-202.9750003823695
 20
-86.44999923937186
 30
0.0
 11
-166.9750003823695
 21
-86.44999923576574
 31
0.0
  0
LINE
  5
1E4
330
55
100
AcDbEntity
  8
0
  6
Continuous
 62
     7
100
AcDbLine
 10
-182.0950003771005
 20
-139.0499992372803
 30
0.0
 11
-184.0950003771005
 21
-139.0499992374807
 31
0.0
  0
LINE
  5
1E5
330
55
100
AcDbEntity
  8
0
  6
Continuous
 62
     7
100
AcDbLine
 10
-177.5687608078039
 20
-139.0499992368269
 30
0.0
 11
-179.5150003771004
 21
-139.0499992370219
 31
0.0
  0
LINE
  5
1E6
330
55
100
AcDbEntity
  8
0
  6
Continuous
 62
     7
100
AcDbLine
 10
-202.9750003821636
 20
-88.50499923937194
 30
0.0
 11
-202.9750003823695
 21
-86.44999923937186
 31
0.0
  0
LINE
  5
1E7
330
55
100
AcDbEntity
  8
0
  6
Continuous
 62
     7
100
AcDbLine
 10
-194.2950003765316
 20
-144.7294096918273
 30
0.0
 11
-195.1450003760488
 21
-149.5499992385875
 31
0.0
  0
LINE
  5
1E8
330
55
100
AcDbEntity
  8
0
  6
Continuous
 62
     7
100
AcDbLine
 10
-178.522069947422
 20
-143.4186970157033
 30
0.0
 11
-179.0398463568425
 21
-147.7499992369743
 31
0.0
  0
LINE
  5
1E9
330
55
100
AcDbEntity
  8
0
  6
Continuous
 62
     7
100
AcDbLine
 10
-179.5150003771004
 20
-139.0499992370219
 30
0.0
 11
-179.5150003767749
 21
-142.2999992370219
 31
0.0
  0
ARC
  5
1EA
330
55
100
AcDbEntity
  8
0
  6
Continuous
 62
     7
100
AcDbCircle
 10
-195.0958065474078
 20
-141.5499992385826
 30
0.0
 40
2.500000000000192
100
AcDbArc
 50
92.3140582092927
 51
160.0000000057364
  0
ARC
  5
1EB
330
55
100
AcDbEntity
  8
0
  6
Continuous
 62
     7
100
AcDbCircle
 10
-156.5466834445928
 20
-144.2099283514908
 30
0.0
 40
0.9999999999999897
100
AcDbArc
 50
160.1679053121845
 51
255.0000000057377
  0
ARC
  5
1EC
330
55
100
AcDbEntity
  8
0
  6
Continuous
 62
     7
100
AcDbCircle
 10
-179.5150003766748
 20
-143.2999992370219
 30
0.0
 40
1.000000000000018
100
AcDbArc
 50
353.1830463479794
 51
90.00000000573537
  0
ARC
  5
1ED
330
55
100
AcDbEntity
  8
0
  6
Continuous
 62
     7
100
AcDbCircle
 10
-155.4750003763994
 20
-146.0499992346138
 30
0.0
 40
0.5
100
AcDbArc
 50
0.00000000574189
 51
75.00000000573799
  0
ARC
  5
1EE
330
55
100
AcDbEntity
  8
0
  6
Continuous
 62
     7
100
AcDbCircle
 10
-167.9650003770504
 20
-139.5499992358649
 30
0.0
 40
0.5
100
AcDbArc
 50
0.00000000574189
 51
180.0000000057419
  0
ENDBLK
  5
57
330
55
100
AcDbEntity
  8
0
100
AcDbBlockEnd
  0
BLOCK
  5
5A
330
58
100
AcDbEntity
  8
0
100
AcDbBlockBegin
  2
Rckans1
 70
     0
 10
-184.9750003787586
 20
-118.000000000254
 30
0.0
  3
Rckans1
  1

  0
INSERT
  5
59
330
58
100
AcDbEntity
  8
0
100
AcDbBlockReference
  2
OTTA_25-M6_PH3-select__3
 10
-214.9750003814696
 20
-149.549999238863
 30
0.0
  0
MTEXT
  5
1EF
330
58
100
AcDbEntity
  8
1
 62
     6
100
AcDbMText
 10
-184.9750003787586
 20
-154.5499992403197
 30
0.0
 40
5.0
 41
0.0
 71
     2
 72
     1
  1
 
  7
CONVERTER_11
 73
     1
 44
1.32052821128451
  0
ENDBLK
  5
5B
330
58
100
AcDbEntity
  8
0
100
AcDbBlockEnd
  0
BLOCK
  5
5D
330
5C
100
AcDbEntity
  8
0
100
AcDbBlockBegin
  2
OTTA_25-M6_PH3-select__4
 70
     0
 10
-253.0250003814649
 20
-149.5499992345637
 30
0.0
  3
OTTA_25-M6_PH3-select__4
  1

  0
LINE
  5
1F0
330
5C
100
AcDbEntity
  8
1
  6
DOT_CENTER
 62
     2
100
AcDbLine
 10
-243.2250003814647
 20
-122.9499992363917
 30
0.0
 11
-243.2250003814647
 21
-111.7499992363917
 31
0.0
  0
LINE
  5
1F1
330
5C
100
AcDbEntity
  8
0
  6
Continuous
 62
     7
100
AcDbLine
 10
-253.0250003814643
 20
-145.1758541778058
 30
0.0
 11
-253.0250003814643
 21
-145.5670363214563
 31
0.0
  0
LINE
  5
1F2
330
5C
100
AcDbEntity
  8
0
  6
Continuous
 62
     7
100
AcDbLine
 10
-253.0250003814649
 20
-90.1892736631232
 30
0.0
 11
-253.0250003814649
 21
-92.47478355914566
 31
0.0
  0
LINE
  5
1F3
330
5C
100
AcDbEntity
  8
0
  6
Continuous
 62
     7
100
AcDbLine
 10
-253.0250003814647
 20
-95.43320246483913
 30
0.0
 11
-253.0250003814644
 21
-136.9045222990271
 31
0.0
  0
LINE
  5
1F4
330
5C
100
AcDbEntity
  8
0
  6
Continuous
 62
     7
100
AcDbLine
 10
-253.0250003814649
 20
-93.13748150775143
 30
0.0
 11
-253.0250003814648
 21
-93.74892803748165
 31
0.0
  0
LINE
  5
1F5
330
5C
100
AcDbEntity
  8
0
  6
Continuous
 62
     7
100
AcDbLine
 10
-253.0250003814648
 20
-93.74892803748165
 30
0.0
 11
-253.0250003814647
 21
-95.43320246483913
 31
0.0
  0
LINE
  5
1F6
330
5C
100
AcDbEntity
  8
0
  6
Continuous
 62
     7
100
AcDbLine
 10
-253.0250003814649
 20
-92.47478355914566
 30
0.0
 11
-253.0250003814649
 21
-93.13748150775143
 31
0.0
  0
LINE
  5
1F7
330
5C
100
AcDbEntity
  8
0
  6
Continuous
 62
     7
100
AcDbLine
 10
-234.9750003814644
 20
-133.5499992345635
 30
0.0
 11
-251.4250003814643
 21
-133.5499992345637
 31
0.0
  0
LINE
  5
1F8
330
5C
100
AcDbEntity
  8
0
  6
Continuous
 62
     7
100
AcDbLine
 10
-234.9750003814644
 20
-136.904522299027
 30
0.0
 11
-253.0250003814644
 21
-136.9045222990271
 31
0.0
  0
LINE
  5
1F9
330
5C
100
AcDbEntity
  8
0
  6
Continuous
 62
     2
100
AcDbLine
 10
-253.0250003814643
 20
-145.1758541778058
 30
0.0
 11
-251.5250003814642
 21
-145.1758541778058
 31
0.0
  0
LINE
  5
1FA
330
5C
100
AcDbEntity
  8
0
  6
Continuous
 62
     7
100
AcDbLine
 10
-246.2250003814647
 20
-122.9499992363917
 30
0.0
 11
-251.4250003814646
 21
-122.9499992357908
 31
0.0
  0
LINE
  5
1FB
330
5C
100
AcDbEntity
  8
0
  6
Continuous
 62
     7
100
AcDbLine
 10
-234.9750003814646
 20
-122.9499992357906
 30
0.0
 11
-240.2250003814647
 21
-122.9499992363917
 31
0.0
  0
LINE
  5
1FC
330
5C
100
AcDbEntity
  8
0
  6
Continuous
 62
     7
100
AcDbLine
 10
-240.2250003814647
 20
-122.9499992363917
 30
0.0
 11
-246.2250003814647
 21
-122.9499992363917
 31
0.0
  0
LINE
  5
1FD
330
5C
100
AcDbEntity
  8
0
  6
Continuous
 62
     7
100
AcDbLine
 10
-234.9750003814649
 20
-86.44999923576557
 30
0.0
 11
-253.0250003814649
 21
-86.44999923576574
 31
0.0
  0
LINE
  5
1FE
330
5C
100
AcDbEntity
  8
0
  6
Continuous
 62
     7
100
AcDbLine
 10
-253.0250003814649
 20
-86.44999923576574
 30
0.0
 11
-253.0250003814649
 21
-88.5049992357657
 31
0.0
  0
LINE
  5
1FF
330
5C
100
AcDbEntity
  8
0
  6
Continuous
 62
     2
100
AcDbLine
 10
-253.0250003814643
 20
-146.0499992345637
 30
0.0
 11
-234.9750003814643
 21
-146.0499992345635
 31
0.0
  0
LINE
  5
200
330
5C
100
AcDbEntity
  8
0
  6
Continuous
 62
     7
100
AcDbLine
 10
-251.5250003814642
 20
-145.5499992346137
 30
0.0
 11
-251.5250003814642
 21
-145.1758541778058
 31
0.0
  0
LINE
  5
201
330
5C
100
AcDbEntity
  8
0
  6
Continuous
 62
     7
100
AcDbLine
 10
-251.5250003814642
 20
-145.5670363214563
 30
0.0
 11
-251.5250003814642
 21
-145.5499992346137
 31
0.0
  0
LINE
  5
202
330
5C
100
AcDbEntity
  8
0
  6
Continuous
 62
     7
100
AcDbLine
 10
-251.4250003814646
 20
-122.9499992357908
 30
0.0
 11
-251.4250003814647
 21
-111.7499992359185
 31
0.0
  0
LINE
  5
203
330
5C
100
AcDbEntity
  8
0
  6
Continuous
 62
     2
100
AcDbLine
 10
-253.0250003814643
 20
-145.5670363214563
 30
0.0
 11
-251.5250003814642
 21
-145.5670363214563
 31
0.0
  0
LINE
  5
204
330
5C
100
AcDbEntity
  8
0
  6
Continuous
 62
     7
100
AcDbLine
 10
-251.4250003814643
 20
-133.5499992345637
 30
0.0
 11
-251.4250003814646
 21
-122.9499992357908
 31
0.0
  0
LINE
  5
205
330
5C
100
AcDbEntity
  8
0
  6
Continuous
 62
     7
100
AcDbLine
 10
-251.4250003814647
 20
-111.7499992359185
 30
0.0
 11
-251.4250003814645
 21
-107.1999992345637
 31
0.0
  0
LINE
  5
206
330
5C
100
AcDbEntity
  8
0
  6
Continuous
 62
     7
100
AcDbLine
 10
-251.5250003814642
 20
-145.5499992346137
 30
0.0
 11
-234.9750003814643
 21
-145.5499992346136
 31
0.0
  0
LINE
  5
207
330
5C
100
AcDbEntity
  8
0
  6
Continuous
 62
     2
100
AcDbLine
 10
-253.0250003814643
 20
-143.8706634425511
 30
0.0
 11
-251.5250003814642
 21
-143.8706634425511
 31
0.0
  0
LINE
  5
208
330
5C
100
AcDbEntity
  8
0
  6
Continuous
 62
     7
100
AcDbLine
 10
-251.5250003814642
 20
-145.1758541778058
 30
0.0
 11
-251.5250003814642
 21
-143.8706634425511
 31
0.0
  0
LINE
  5
209
330
5C
100
AcDbEntity
  8
0
  6
Continuous
 62
     7
100
AcDbLine
 10
-253.0250003814643
 20
-143.8706634425511
 30
0.0
 11
-253.0250003814643
 21
-145.1758541778058
 31
0.0
  0
LINE
  5
20A
330
5C
100
AcDbEntity
  8
0
  6
Continuous
 62
     7
100
AcDbLine
 10
-253.0250003814644
 20
-136.9045222990271
 30
0.0
 11
-253.0250003814643
 21
-143.8706634425511
 31
0.0
  0
LINE
  5
20B
330
5C
100
AcDbEntity
  8
0
  6
Continuous
 62
     7
100
AcDbLine
 10
-234.9750003814643
 20
-149.5499992345635
 30
0.0
 11
-253.0250003814643
 21
-149.5499992345637
 31
0.0
  0
LINE
  5
20C
330
5C
100
AcDbEntity
  8
0
  6
Continuous
 62
     7
100
AcDbLine
 10
-246.2250003814647
 20
-122.9499992363917
 30
0.0
 11
-246.2250003814648
 21
-111.7499992363917
 31
0.0
  0
LINE
  5
20D
330
5C
100
AcDbEntity
  8
0
  6
Continuous
 62
     7
100
AcDbLine
 10
-253.0250003814643
 20
-145.5670363214563
 30
0.0
 11
-253.0250003814643
 21
-146.0499992345637
 31
0.0
  0
LINE
  5
20E
330
5C
100
AcDbEntity
  8
0
  6
Continuous
 62
     7
100
AcDbLine
 10
-253.0250003814643
 20
-146.0499992345637
 30
0.0
 11
-253.0250003814643
 21
-149.5499992345637
 31
0.0
  0
LINE
  5
20F
330
5C
100
AcDbEntity
  8
0
  6
Continuous
 62
     7
100
AcDbLine
 10
-240.2250003814648
 20
-111.7499992363917
 30
0.0
 11
-246.2250003814648
 21
-111.7499992363917
 31
0.0
  0
LINE
  5
210
330
5C
100
AcDbEntity
  8
0
  6
Continuous
 62
     7
100
AcDbLine
 10
-234.9750003814648
 20
-92.4747835591455
 30
0.0
 11
-253.0250003814649
 21
-92.47478355914566
 31
0.0
  0
LINE
  5
211
330
5C
100
AcDbEntity
  8
0
  6
Continuous
 62
     7
100
AcDbLine
 10
-253.0250003814649
 20
-93.13748150775143
 30
0.0
 11
-234.9750003814649
 21
-93.13748150775127
 31
0.0
  0
LINE
  5
212
330
5C
100
AcDbEntity
  8
0
  6
Continuous
 62
     7
100
AcDbLine
 10
-234.9750003814649
 20
-88.50499923576561
 30
0.0
 11
-253.0250003814649
 21
-88.5049992357657
 31
0.0
  0
LINE
  5
213
330
5C
100
AcDbEntity
  8
0
  6
Continuous
 62
     7
100
AcDbLine
 10
-234.9750003814649
 20
-90.18927366312312
 30
0.0
 11
-234.9750003814648
 21
-92.4747835591455
 31
0.0
  0
LINE
  5
214
330
5C
100
AcDbEntity
  8
0
  6
Continuous
 62
     7
100
AcDbLine
 10
-234.9750003814649
 20
-90.18927366312312
 30
0.0
 11
-253.0250003814649
 21
-90.1892736631232
 31
0.0
  0
LINE
  5
215
330
5C
100
AcDbEntity
  8
0
  6
Continuous
 62
     7
100
AcDbLine
 10
-253.0250003814649
 20
-90.1892736631232
 30
0.0
 11
-253.0250003814649
 21
-88.5049992357657
 31
0.0
  0
LINE
  5
216
330
5C
100
AcDbEntity
  8
0
  6
Continuous
 62
     7
100
AcDbLine
 10
-234.9750003814648
 20
-92.4747835591455
 30
0.0
 11
-234.9750003814649
 21
-93.13748150775127
 31
0.0
  0
LINE
  5
217
330
5C
100
AcDbEntity
  8
0
  6
Continuous
 62
     7
100
AcDbLine
 10
-234.9750003814648
 20
-95.43320246483907
 30
0.0
 11
-253.0250003814647
 21
-95.43320246483913
 31
0.0
  0
LINE
  5
218
330
5C
100
AcDbEntity
  8
0
  6
Continuous
 62
     7
100
AcDbLine
 10
-234.9750003814648
 20
-93.74892803748155
 30
0.0
 11
-253.0250003814648
 21
-93.74892803748165
 31
0.0
  0
LINE
  5
219
330
5C
100
AcDbEntity
  8
0
  6
Continuous
 62
     7
100
AcDbLine
 10
-251.4250003814645
 20
-107.1999992345637
 30
0.0
 11
-234.9750003814646
 21
-107.1999992345635
 31
0.0
  0
LINE
  5
21A
330
5C
100
AcDbEntity
  8
0
  6
Continuous
 62
     7
100
AcDbLine
 10
-246.2250003814648
 20
-111.7499992363917
 30
0.0
 11
-251.4250003814647
 21
-111.7499992359185
 31
0.0
  0
LINE
  5
21B
330
5C
100
AcDbEntity
  8
0
  6
Continuous
 62
     7
100
AcDbLine
 10
-234.9750003814647
 20
-111.7499992359183
 30
0.0
 11
-240.2250003814648
 21
-111.7499992363917
 31
0.0
  0
LINE
  5
21C
330
5C
100
AcDbEntity
  8
0
  6
Continuous
 62
     7
100
AcDbLine
 10
-240.2250003814647
 20
-122.9499992363917
 30
0.0
 11
-240.2250003814648
 21
-111.7499992363917
 31
0.0
  0
LINE
  5
21D
330
5C
100
AcDbEntity
  8
0
  6
Continuous
 62
     7
100
AcDbLine
 10
-234.9750003814646
 20
-122.9499992357906
 30
0.0
 11
-234.9750003814647
 21
-111.7499992359183
 31
0.0
  0
LINE
  5
21E
330
5C
100
AcDbEntity
  8
0
  6
Continuous
 62
     7
100
AcDbLine
 10
-234.9750003814643
 20
-145.5499992346136
 30
0.0
 11
-234.9750003814643
 21
-146.0499992345635
 31
0.0
  0
LINE
  5
21F
330
5C
100
AcDbEntity
  8
0
  6
Continuous
 62
     7
100
AcDbLine
 10
-234.9750003814643
 20
-146.0499992345635
 30
0.0
 11
-234.9750003814643
 21
-149.5499992345635
 31
0.0
  0
LINE
  5
220
330
5C
100
AcDbEntity
  8
0
  6
Continuous
 62
     7
100
AcDbLine
 10
-234.9750003814649
 20
-86.44999923576557
 30
0.0
 11
-234.9750003814649
 21
-88.50499923576561
 31
0.0
  0
LINE
  5
221
330
5C
100
AcDbEntity
  8
0
  6
Continuous
 62
     7
100
AcDbLine
 10
-234.9750003814644
 20
-136.904522299027
 30
0.0
 11
-234.9750003814643
 21
-145.5499992346136
 31
0.0
  0
LINE
  5
222
330
5C
100
AcDbEntity
  8
0
  6
Continuous
 62
     7
100
AcDbLine
 10
-234.9750003814644
 20
-133.5499992345635
 30
0.0
 11
-234.9750003814646
 21
-122.9499992357906
 31
0.0
  0
LINE
  5
223
330
5C
100
AcDbEntity
  8
0
  6
Continuous
 62
     7
100
AcDbLine
 10
-234.9750003814644
 20
-133.5499992345635
 30
0.0
 11
-234.9750003814644
 21
-136.904522299027
 31
0.0
  0
LINE
  5
224
330
5C
100
AcDbEntity
  8
0
  6
Continuous
 62
     7
100
AcDbLine
 10
-234.9750003814649
 20
-93.13748150775127
 30
0.0
 11
-234.9750003814648
 21
-93.74892803748155
 31
0.0
  0
LINE
  5
225
330
5C
100
AcDbEntity
  8
0
  6
Continuous
 62
     7
100
AcDbLine
 10
-234.9750003814649
 20
-90.18927366312312
 30
0.0
 11
-234.9750003814649
 21
-88.50499923576561
 31
0.0
  0
LINE
  5
226
330
5C
100
AcDbEntity
  8
0
  6
Continuous
 62
     7
100
AcDbLine
 10
-234.9750003814648
 20
-93.74892803748155
 30
0.0
 11
-234.9750003814648
 21
-95.43320246483907
 31
0.0
  0
LINE
  5
227
330
5C
100
AcDbEntity
  8
0
  6
Continuous
 62
     7
100
AcDbLine
 10
-234.9750003814647
 20
-111.7499992359183
 30
0.0
 11
-234.9750003814646
 21
-107.1999992345635
 31
0.0
  0
LINE
  5
228
330
5C
100
AcDbEntity
  8
0
  6
Continuous
 62
     7
100
AcDbLine
 10
-234.9750003814648
 20
-95.43320246483907
 30
0.0
 11
-234.9750003814646
 21
-107.1999992345635
 31
0.0
  0
ENDBLK
  5
5E
330
5C
100
AcDbEntity
  8
0
100
AcDbBlockEnd
  0
BLOCK
  5
61
330
5F
100
AcDbEntity
  8
0
100
AcDbBlockBegin
  2
SA_Links1
 70
     0
 10
-244.0
 20
-118.000000000254
 30
0.0
  3
SA_Links1
  1

  0
INSERT
  5
60
330
5F
100
AcDbEntity
  8
0
100
AcDbBlockReference
  2
OTTA_25-M6_PH3-select__4
 10
-253.0250003814649
 20
-149.5499992345637
 30
0.0
  0
MTEXT
  5
229
330
5F
100
AcDbEntity
  8
1
 62
     6
100
AcDbMText
 10
-244.0
 20
-154.5499992403197
 30
0.0
 40
5.0
 41
0.0
 71
     2
 72
     1
  1
 
  7
CONVERTER_11
 73
     1
 44
1.32052821128451
  0
ENDBLK
  5
62
330
5F
100
AcDbEntity
  8
0
100
AcDbBlockEnd
  0
BLOCK
  5
64
330
63
100
AcDbEntity
  8
0
100
AcDbBlockBegin
  2
OTTA_25-M6_PH3-select__5
 70
     0
 10
-389.0749992406813
 20
-149.5499992357976
 30
0.0
  3
OTTA_25-M6_PH3-select__5
  1

  0
LINE
  5
22A
330
63
100
AcDbEntity
  8
1
  6
DOT_CENTER
 62
     2
100
AcDbLine
 10
-380.824999240681
 20
-122.9499992363916
 30
0.0
 11
-380.824999240681
 21
-111.7499992363916
 31
0.0
  0
LINE
  5
22B
330
63
100
AcDbEntity
  8
0
  6
Continuous
 62
     7
100
AcDbLine
 10
-372.6249992406804
 20
-111.749999239219
 30
0.0
 11
-372.6249992406805
 21
-122.9499992393467
 31
0.0
  0
LINE
  5
22C
330
63
100
AcDbEntity
  8
0
  6
Continuous
 62
     7
100
AcDbLine
 10
-371.0249992406813
 20
-149.5499992357976
 30
0.0
 11
-371.024999240681
 21
-148.2799992388629
 31
0.0
  0
LINE
  5
22D
330
63
100
AcDbEntity
  8
0
  6
Continuous
 62
     7
100
AcDbLine
 10
-371.024999240681
 20
-148.2799992388629
 30
0.0
 11
-371.024999240681
 21
-146.6499992387206
 31
0.0
  0
LINE
  5
22E
330
63
100
AcDbEntity
  8
0
  6
Continuous
 62
     7
100
AcDbLine
 10
-371.024999240681
 20
-146.6499992387206
 30
0.0
 11
-371.024999240681
 21
-146.1499992388308
 31
0.0
  0
LINE
  5
22F
330
63
100
AcDbEntity
  8
0
  6
Continuous
 62
     7
100
AcDbLine
 10
-371.024999240681
 20
-146.1499992388308
 30
0.0
 11
-371.024999240681
 21
-146.1106315503697
 31
0.0
  0
LINE
  5
230
330
63
100
AcDbEntity
  8
0
  6
Continuous
 62
     7
100
AcDbLine
 10
-372.6249992406805
 20
-122.9499992393467
 30
0.0
 11
-372.6249992406804
 21
-133.5499992405738
 31
0.0
  0
LINE
  5
231
330
63
100
AcDbEntity
  8
0
  6
Continuous
 62
     7
100
AcDbLine
 10
-372.6249992406802
 20
-107.1999992405738
 30
0.0
 11
-372.6249992406804
 21
-111.749999239219
 31
0.0
  0
LINE
  5
232
330
63
100
AcDbEntity
  8
0
  6
Continuous
 62
     7
100
AcDbLine
 10
-383.824999240681
 20
-122.9499992363916
 30
0.0
 11
-383.8249992406809
 21
-111.7499992363916
 31
0.0
  0
LINE
  5
233
330
63
100
AcDbEntity
  8
0
  6
Continuous
 62
     7
100
AcDbLine
 10
-389.0749992406808
 20
-122.9499992393466
 30
0.0
 11
-389.0749992406807
 21
-111.7499992392189
 31
0.0
  0
LINE
  5
234
330
63
100
AcDbEntity
  8
0
  6
Continuous
 62
     7
100
AcDbLine
 10
-389.074999240681
 20
-148.2799992388627
 30
0.0
 11
-389.074999240681
 21
-146.6499992387205
 31
0.0
  0
LINE
  5
235
330
63
100
AcDbEntity
  8
0
  6
Continuous
 62
     7
100
AcDbLine
 10
-389.0749992406813
 20
-149.5499992357974
 30
0.0
 11
-389.074999240681
 21
-148.2799992388627
 31
0.0
  0
LINE
  5
236
330
63
100
AcDbEntity
  8
0
  6
Continuous
 62
     7
100
AcDbLine
 10
-389.074999240681
 20
-146.6499992387205
 30
0.0
 11
-389.074999240681
 21
-146.1499992388307
 31
0.0
  0
LINE
  5
237
330
63
100
AcDbEntity
  8
0
  6
Continuous
 62
     7
100
AcDbLine
 10
-389.074999240681
 20
-146.1499992388307
 30
0.0
 11
-389.0749992406809
 21
-146.1106315503696
 31
0.0
  0
LINE
  5
238
330
63
100
AcDbEntity
  8
0
  6
Continuous
 62
     7
100
AcDbLine
 10
-389.0749992406808
 20
-122.9499992393466
 30
0.0
 11
-389.0749992406807
 21
-133.5499992405736
 31
0.0
  0
LINE
  5
239
330
63
100
AcDbEntity
  8
0
  6
Continuous
 62
     7
100
AcDbLine
 10
-389.0749992406808
 20
-137.6623991517766
 30
0.0
 11
-389.0749992406807
 21
-133.5499992405736
 31
0.0
  0
LINE
  5
23A
330
63
100
AcDbEntity
  8
0
  6
Continuous
 62
     7
100
AcDbLine
 10
-389.0749992406805
 20
-107.1999992405737
 30
0.0
 11
-389.0749992406807
 21
-111.7499992392189
 31
0.0
  0
LINE
  5
23B
330
63
100
AcDbEntity
  8
0
  6
Continuous
 62
     7
100
AcDbLine
 10
-389.0749992406809
 20
-146.1106315503696
 30
0.0
 11
-371.024999240681
 21
-146.1106315503697
 31
0.0
  0
LINE
  5
23C
330
63
100
AcDbEntity
  8
0
  6
Continuous
 62
     7
100
AcDbLine
 10
-371.024999240681
 20
-146.1499992388308
 30
0.0
 11
-389.074999240681
 21
-146.1499992388307
 31
0.0
  0
LINE
  5
23D
330
63
100
AcDbEntity
  8
0
  6
Continuous
 62
     7
100
AcDbLine
 10
-371.024999240681
 20
-148.2799992388629
 30
0.0
 11
-389.074999240681
 21
-148.2799992388627
 31
0.0
  0
LINE
  5
23E
330
63
100
AcDbEntity
  8
0
  6
Continuous
 62
     7
100
AcDbLine
 10
-389.0749992406813
 20
-149.5499992357974
 30
0.0
 11
-371.0249992406813
 21
-149.5499992357976
 31
0.0
  0
LINE
  5
23F
330
63
100
AcDbEntity
  8
0
  6
Continuous
 62
     7
100
AcDbLine
 10
-371.024999240681
 20
-146.6499992387206
 30
0.0
 11
-389.074999240681
 21
-146.6499992387205
 31
0.0
  0
LINE
  5
240
330
63
100
AcDbEntity
  8
0
  6
Continuous
 62
     7
100
AcDbLine
 10
-383.824999240681
 20
-122.9499992363916
 30
0.0
 11
-377.824999240681
 21
-122.9499992363916
 31
0.0
  0
LINE
  5
241
330
63
100
AcDbEntity
  8
0
  6
Continuous
 62
     7
100
AcDbLine
 10
-372.6249992406804
 20
-133.5499992405738
 30
0.0
 11
-389.0749992406807
 21
-133.5499992405736
 31
0.0
  0
LINE
  5
242
330
63
100
AcDbEntity
  8
0
  6
Continuous
 62
     7
100
AcDbLine
 10
-389.0749992406808
 20
-137.6623991517766
 30
0.0
 11
-371.0249992406808
 21
-137.6623991517768
 31
0.0
  0
LINE
  5
243
330
63
100
AcDbEntity
  8
0
  6
Continuous
 62
     7
100
AcDbLine
 10
-389.0749992406808
 20
-122.9499992393466
 30
0.0
 11
-383.824999240681
 21
-122.9499992363916
 31
0.0
  0
LINE
  5
244
330
63
100
AcDbEntity
  8
0
  6
Continuous
 62
     7
100
AcDbLine
 10
-377.824999240681
 20
-122.9499992363916
 30
0.0
 11
-372.6249992406805
 21
-122.9499992393467
 31
0.0
  0
LINE
  5
245
330
63
100
AcDbEntity
  8
0
  6
Continuous
 62
     7
100
AcDbLine
 10
-371.0249992406805
 20
-88.50499923937183
 30
0.0
 11
-389.0749992406805
 21
-88.50499923937159
 31
0.0
  0
LINE
  5
246
330
63
100
AcDbEntity
  8
0
  6
Continuous
 62
     7
100
AcDbLine
 10
-389.0749992406805
 20
-88.50499923937159
 30
0.0
 11
-389.0749992406805
 21
-90.18927366731356
 31
0.0
  0
LINE
  5
247
330
63
100
AcDbEntity
  8
0
  6
Continuous
 62
     7
100
AcDbLine
 10
-371.0249992406805
 20
-88.50499923937183
 30
0.0
 11
-371.0249992406804
 21
-86.44999923937175
 31
0.0
  0
LINE
  5
248
330
63
100
AcDbEntity
  8
0
  6
Continuous
 62
     7
100
AcDbLine
 10
-389.0749992406805
 20
-86.44999923937159
 30
0.0
 11
-371.0249992406804
 21
-86.44999923937175
 31
0.0
  0
LINE
  5
249
330
63
100
AcDbEntity
  8
0
  6
Continuous
 62
     7
100
AcDbLine
 10
-383.8249992406809
 20
-111.7499992363916
 30
0.0
 11
-377.8249992406809
 21
-111.7499992363916
 31
0.0
  0
LINE
  5
24A
330
63
100
AcDbEntity
  8
0
  6
Continuous
 62
     7
100
AcDbLine
 10
-371.0249992406805
 20
-93.13748151169276
 30
0.0
 11
-389.0749992406805
 21
-93.13748151169258
 31
0.0
  0
LINE
  5
24B
330
63
100
AcDbEntity
  8
0
  6
Continuous
 62
     7
100
AcDbLine
 10
-389.0749992406804
 20
-95.43320247084914
 30
0.0
 11
-371.0249992406804
 21
-95.43320247084938
 31
0.0
  0
LINE
  5
24C
330
63
100
AcDbEntity
  8
0
  6
Continuous
 62
     7
100
AcDbLine
 10
-389.0749992406809
 20
-93.74892803748145
 30
0.0
 11
-371.0249992406809
 21
-93.74892803748155
 31
0.0
  0
LINE
  5
24D
330
63
100
AcDbEntity
  8
0
  6
Continuous
 62
     7
100
AcDbLine
 10
-389.0749992406808
 20
-92.4747835591454
 30
0.0
 11
-371.0249992406808
 21
-92.47478355914555
 31
0.0
  0
LINE
  5
24E
330
63
100
AcDbEntity
  8
0
  6
Continuous
 62
     7
100
AcDbLine
 10
-389.0749992406805
 20
-90.18927366731356
 30
0.0
 11
-371.0249992406804
 21
-90.18927366731381
 31
0.0
  0
LINE
  5
24F
330
63
100
AcDbEntity
  8
0
  6
Continuous
 62
     7
100
AcDbLine
 10
-371.0249992406805
 20
-93.13748151169276
 30
0.0
 11
-371.0249992406808
 21
-92.47478355914555
 31
0.0
  0
LINE
  5
250
330
63
100
AcDbEntity
  8
0
  6
Continuous
 62
     7
100
AcDbLine
 10
-371.0249992406808
 20
-92.47478355914555
 30
0.0
 11
-371.0249992406804
 21
-90.18927366731381
 31
0.0
  0
LINE
  5
251
330
63
100
AcDbEntity
  8
0
  6
Continuous
 62
     7
100
AcDbLine
 10
-371.0249992406809
 20
-93.74892803748155
 30
0.0
 11
-371.0249992406805
 21
-93.13748151169276
 31
0.0
  0
LINE
  5
252
330
63
100
AcDbEntity
  8
0
  6
Continuous
 62
     7
100
AcDbLine
 10
-389.0749992406805
 20
-107.1999992405737
 30
0.0
 11
-372.6249992406802
 21
-107.1999992405738
 31
0.0
  0
LINE
  5
253
330
63
100
AcDbEntity
  8
0
  6
Continuous
 62
     7
100
AcDbLine
 10
-371.0249992406808
 20
-137.6623991517768
 30
0.0
 11
-371.0249992406804
 21
-95.43320247084938
 31
0.0
  0
LINE
  5
254
330
63
100
AcDbEntity
  8
0
  6
Continuous
 62
     7
100
AcDbLine
 10
-371.0249992406804
 20
-95.43320247084938
 30
0.0
 11
-371.0249992406809
 21
-93.74892803748155
 31
0.0
  0
LINE
  5
255
330
63
100
AcDbEntity
  8
0
  6
Continuous
 62
     7
100
AcDbLine
 10
-389.0749992406805
 20
-107.1999992405737
 30
0.0
 11
-389.0749992406804
 21
-95.43320247084914
 31
0.0
  0
LINE
  5
256
330
63
100
AcDbEntity
  8
0
  6
Continuous
 62
     7
100
AcDbLine
 10
-389.0749992406807
 20
-111.7499992392189
 30
0.0
 11
-383.8249992406809
 21
-111.7499992363916
 31
0.0
  0
LINE
  5
257
330
63
100
AcDbEntity
  8
0
  6
Continuous
 62
     7
100
AcDbLine
 10
-377.8249992406809
 20
-111.7499992363916
 30
0.0
 11
-372.6249992406804
 21
-111.749999239219
 31
0.0
  0
LINE
  5
258
330
63
100
AcDbEntity
  8
0
  6
Continuous
 62
     7
100
AcDbLine
 10
-371.024999240681
 20
-146.1106315503697
 30
0.0
 11
-371.0249992406808
 21
-137.6623991517768
 31
0.0
  0
LINE
  5
259
330
63
100
AcDbEntity
  8
0
  6
Continuous
 62
     7
100
AcDbLine
 10
-389.0749992406805
 20
-88.50499923937159
 30
0.0
 11
-389.0749992406805
 21
-86.44999923937159
 31
0.0
  0
LINE
  5
25A
330
63
100
AcDbEntity
  8
0
  6
Continuous
 62
     7
100
AcDbLine
 10
-389.0749992406808
 20
-137.6623991517766
 30
0.0
 11
-389.0749992406809
 21
-146.1106315503696
 31
0.0
  0
LINE
  5
25B
330
63
100
AcDbEntity
  8
0
  6
Continuous
 62
     7
100
AcDbLine
 10
-389.0749992406809
 20
-93.74892803748145
 30
0.0
 11
-389.0749992406804
 21
-95.43320247084914
 31
0.0
  0
LINE
  5
25C
330
63
100
AcDbEntity
  8
0
  6
Continuous
 62
     7
100
AcDbLine
 10
-389.0749992406808
 20
-92.4747835591454
 30
0.0
 11
-389.0749992406805
 21
-90.18927366731356
 31
0.0
  0
LINE
  5
25D
330
63
100
AcDbEntity
  8
0
  6
Continuous
 62
     7
100
AcDbLine
 10
-389.0749992406805
 20
-93.13748151169258
 30
0.0
 11
-389.0749992406808
 21
-92.4747835591454
 31
0.0
  0
LINE
  5
25E
330
63
100
AcDbEntity
  8
0
  6
Continuous
 62
     7
100
AcDbLine
 10
-389.0749992406809
 20
-93.74892803748145
 30
0.0
 11
-389.0749992406805
 21
-93.13748151169258
 31
0.0
  0
LINE
  5
25F
330
63
100
AcDbEntity
  8
0
  6
Continuous
 62
     7
100
AcDbLine
 10
-377.824999240681
 20
-122.9499992363916
 30
0.0
 11
-377.8249992406809
 21
-111.7499992363916
 31
0.0
  0
LINE
  5
260
330
63
100
AcDbEntity
  8
0
  6
Continuous
 62
     7
100
AcDbLine
 10
-371.0249992406805
 20
-88.50499923937183
 30
0.0
 11
-371.0249992406804
 21
-90.18927366731381
 31
0.0
  0
ENDBLK
  5
65
330
63
100
AcDbEntity
  8
0
100
AcDbBlockEnd
  0
BLOCK
  5
68
330
66
100
AcDbEntity
  8
0
100
AcDbBlockBegin
  2
SA_Rechts1
 70
     0
 10
-380.0499996221457
 20
-118.0000000002539
 30
0.0
  3
SA_Rechts1
  1

  0
INSERT
  5
67
330
66
100
AcDbEntity
  8
0
100
AcDbBlockReference
  2
OTTA_25-M6_PH3-select__5
 10
-389.0749992406813
 20
-149.5499992357976
 30
0.0
  0
MTEXT
  5
261
330
66
100
AcDbEntity
  8
1
 62
     6
100
AcDbMText
 10
-380.0499996221462
 20
-154.5499992403197
 30
0.0
 40
5.0
 41
0.0
 71
     2
 72
     1
  1
 
  7
CONVERTER_11
 73
     1
 44
1.32052821128451
  0
ENDBLK
  5
69
330
66
100
AcDbEntity
  8
0
100
AcDbBlockEnd
  0
BLOCK
  5
6B
330
6A
100
AcDbEntity
  8
0
100
AcDbBlockBegin
  2
OTTA_25-M6_PH3-select__6
 70
     0
 10
-333.0250000027106
 20
-149.5499992388629
 30
0.0
  3
OTTA_25-M6_PH3-select__6
  1

  0
LINE
  5
262
330
6A
100
AcDbEntity
  8
1
  6
DOT_CENTER
 62
     2
100
AcDbLine
 10
-291.2750000000461
 20
-122.9499992390463
 30
0.0
 11
-291.2750000000461
 21
-111.7499992384452
 31
0.0
  0
LINE
  5
263
330
6A
100
AcDbEntity
  8
1
  6
DOT_CENTER
 62
     2
100
AcDbLine
 10
-314.7750000000461
 20
-122.9499992366923
 30
0.0
 11
-314.7750000000461
 21
-111.7499992360912
 31
0.0
  0
LINE
  5
264
330
6A
100
AcDbEntity
  8
0
  6
Continuous
 62
     7
100
AcDbLine
 10
-283.093211315662
 20
-146.1106315503697
 30
0.0
 11
-273.0250000015199
 21
-137.6623991517768
 31
0.0
  0
LINE
  5
265
330
6A
100
AcDbEntity
  8
0
  6
Continuous
 62
     7
100
AcDbLine
 10
-288.2750000000461
 20
-122.9499992390463
 30
0.0
 11
-288.2749999989242
 21
-111.7499992390463
 31
0.0
  0
LINE
  5
266
330
6A
100
AcDbEntity
  8
0
  6
Continuous
 62
     7
100
AcDbLine
 10
-290.42500000237
 20
-146.1499992388308
 30
0.0
 11
-292.8031690584497
 21
-141.0499992385925
 31
0.0
  0
LINE
  5
267
330
6A
100
AcDbEntity
  8
0
  6
Continuous
 62
     7
100
AcDbLine
 10
-291.5250000024201
 20
-146.6499992387206
 30
0.0
 11
-290.4250000024201
 21
-146.6499992388308
 31
0.0
  0
LINE
  5
268
330
6A
100
AcDbEntity
  8
0
  6
Continuous
 62
     7
100
AcDbLine
 10
-290.4250000024201
 20
-146.6499992388308
 30
0.0
 11
-290.42500000237
 21
-146.1499992388308
 31
0.0
  0
LINE
  5
269
330
6A
100
AcDbEntity
  8
0
  6
Continuous
 62
     7
100
AcDbLine
 10
-285.0249999965957
 20
-88.50499923937171
 30
0.0
 11
-285.0249999963899
 21
-86.44999923937172
 31
0.0
  0
LINE
  5
26A
330
6A
100
AcDbEntity
  8
0
  6
Continuous
 62
     7
100
AcDbLine
 10
-286.5499999989243
 20
-111.749999239219
 30
0.0
 11
-288.2749999989242
 21
-111.7499992390463
 31
0.0
  0
LINE
  5
26B
330
6A
100
AcDbEntity
  8
0
  6
Continuous
 62
     7
100
AcDbLine
 10
-277.8736946579083
 20
-96.29998151224142
 30
0.0
 11
-283.3513053365281
 21
-93.13748151169271
 31
0.0
  0
LINE
  5
26C
330
6A
100
AcDbEntity
  8
0
  6
Continuous
 62
     7
100
AcDbLine
 10
-286.125000002286
 20
-145.3107687547202
 30
0.0
 11
-285.5250000023458
 21
-145.9107687547804
 31
0.0
  0
LINE
  5
26D
330
6A
100
AcDbEntity
  8
0
  6
Continuous
 62
     7
100
AcDbLine
 10
-291.5250000025834
 20
-148.2799992387206
 30
0.0
 11
-291.5250000024201
 21
-146.6499992387206
 31
0.0
  0
LINE
  5
26E
330
6A
100
AcDbEntity
  8
0
  6
Continuous
 62
     7
100
AcDbLine
 10
-319.4999999989242
 20
-111.7499992359184
 30
0.0
 11
-325.5249999984685
 21
-107.1999992353148
 31
0.0
  0
LINE
  5
26F
330
6A
100
AcDbEntity
  8
0
  6
Continuous
 62
     7
100
AcDbLine
 10
-322.6986946575914
 20
-93.1374815077513
 30
0.0
 11
-328.1763053368449
 21
-96.2999815072026
 31
0.0
  0
LINE
  5
270
330
6A
100
AcDbEntity
  8
0
  6
Continuous
 62
     7
100
AcDbLine
 10
-319.6050000019844
 20
-142.2999992359078
 30
0.0
 11
-320.5350000018231
 21
-140.6891919847755
 31
0.0
  0
LINE
  5
271
330
6A
100
AcDbEntity
  8
0
  6
Continuous
 62
     7
100
AcDbLine
 10
-323.9422488793427
 20
-90.18927366312315
 30
0.0
 11
-321.0249999965957
 21
-88.50499923576564
 31
0.0
  0
LINE
  5
272
330
6A
100
AcDbEntity
  8
0
  6
Continuous
 62
     7
100
AcDbLine
 10
-308.4850000016589
 20
-139.0499992370217
 30
0.0
 11
-308.4850000019845
 21
-142.2999992370218
 31
0.0
  0
LINE
  5
273
330
6A
100
AcDbEntity
  8
0
  6
Continuous
 62
     7
100
AcDbLine
 10
-311.3550000018191
 20
-140.6499992367342
 30
0.0
 11
-310.4312395709554
 21
-139.0499992368268
 31
0.0
  0
LINE
  5
274
330
6A
100
AcDbEntity
  8
0
  6
Continuous
 62
     7
100
AcDbLine
 10
-316.3400852978175
 20
-139.5499992362349
 30
0.0
 11
-315.7050000018191
 21
-140.6499992362985
 31
0.0
  0
LINE
  5
275
330
6A
100
AcDbEntity
  8
0
  6
Continuous
 62
     7
100
AcDbLine
 10
-319.5350000017089
 20
-139.5499992359148
 30
0.0
 11
-316.3400852978175
 21
-139.5499992362349
 31
0.0
  0
LINE
  5
276
330
6A
100
AcDbEntity
  8
0
  6
Continuous
 62
     7
100
AcDbLine
 10
-319.6050000020592
 20
-143.048705698898
 30
0.0
 11
-319.6050000019844
 21
-142.2999992359078
 31
0.0
  0
LINE
  5
277
330
6A
100
AcDbEntity
  8
0
  6
Continuous
 62
     7
100
AcDbLine
 10
-320.7465923789295
 20
-143.2499992357934
 30
0.0
 11
-319.6050000020592
 21
-143.048705698898
 31
0.0
  0
LINE
  5
278
330
6A
100
AcDbEntity
  8
0
  6
Continuous
 62
     7
100
AcDbLine
 10
-310.4312395709554
 20
-139.0499992368268
 30
0.0
 11
-308.4850000016589
 21
-139.0499992370217
 31
0.0
  0
LINE
  5
279
330
6A
100
AcDbEntity
  8
0
  6
Continuous
 62
     7
100
AcDbLine
 10
-323.6908681406404
 20
-92.47478355914552
 30
0.0
 11
-323.2336946574986
 21
-92.21083432564835
 31
0.0
  0
LINE
  5
27A
330
6A
100
AcDbEntity
  8
0
  6
Continuous
 62
     7
100
AcDbLine
 10
-323.2336946574986
 20
-92.21083432564835
 30
0.0
 11
-322.6986946575914
 21
-93.1374815077513
 31
0.0
  0
LINE
  5
27B
330
6A
100
AcDbEntity
  8
0
  6
Continuous
 62
     7
100
AcDbLine
 10
-317.7750000000461
 20
-122.9499992360912
 30
0.0
 11
-317.7749999989242
 21
-111.7499992360912
 31
0.0
  0
LINE
  5
27C
330
6A
100
AcDbEntity
  8
0
  6
Continuous
 62
     7
100
AcDbLine
 10
-320.775000001108
 20
-133.5499992357906
 30
0.0
 11
-320.7750000000461
 21
-122.9499992357906
 31
0.0
  0
LINE
  5
27D
330
6A
100
AcDbEntity
  8
0
  6
Continuous
 62
     7
100
AcDbLine
 10
-294.6074316055182
 20
-142.2499992384119
 30
0.0
 11
-293.7050000022277
 21
-144.7294096918272
 31
0.0
  0
LINE
  5
27E
330
6A
100
AcDbEntity
  8
0
  6
Continuous
 62
     7
100
AcDbLine
 10
-311.7750000000461
 20
-122.9499992366923
 30
0.0
 11
-303.760000000046
 21
-122.949999237495
 31
0.0
  0
LINE
  5
27F
330
6A
100
AcDbEntity
  8
0
  6
Continuous
 62
     7
100
AcDbLine
 10
-320.7750000000461
 20
-122.9499992357906
 30
0.0
 11
-317.7750000000461
 21
-122.9499992360912
 31
0.0
  0
LINE
  5
280
330
6A
100
AcDbEntity
  8
0
  6
Continuous
 62
     7
100
AcDbLine
 10
-317.7750000000461
 20
-122.9499992360912
 30
0.0
 11
-311.7750000000461
 21
-122.9499992366923
 31
0.0
  0
LINE
  5
281
330
6A
100
AcDbEntity
  8
0
  6
Continuous
 62
     7
100
AcDbLine
 10
-305.9050000016588
 20
-139.0499992372802
 30
0.0
 11
-303.9050000016588
 21
-139.0499992374805
 31
0.0
  0
LINE
  5
282
330
6A
100
AcDbEntity
  8
0
  6
Continuous
 62
     7
100
AcDbLine
 10
-303.760000000046
 20
-122.949999237495
 30
0.0
 11
-303.7599999989242
 21
-111.7499992374951
 31
0.0
  0
LINE
  5
283
330
6A
100
AcDbEntity
  8
0
  6
Continuous
 62
     7
100
AcDbLine
 10
-315.7050000018191
 20
-140.6499992362985
 30
0.0
 11
-311.3550000018191
 21
-140.6499992367342
 31
0.0
  0
LINE
  5
284
330
6A
100
AcDbEntity
  8
0
  6
Continuous
 62
     7
100
AcDbLine
 10
-319.5050000022197
 20
-144.6499992359178
 30
0.0
 11
-320.5350000021996
 21
-144.4499992358147
 31
0.0
  0
LINE
  5
285
330
6A
100
AcDbEntity
  8
0
  6
Continuous
 62
     7
100
AcDbLine
 10
-320.5350000018231
 20
-140.6891919847755
 30
0.0
 11
-320.5350000017089
 21
-139.5499992358147
 31
0.0
  0
LINE
  5
286
330
6A
100
AcDbEntity
  8
0
  6
Continuous
 62
     7
100
AcDbLine
 10
-320.5350000021996
 20
-144.4499992358147
 30
0.0
 11
-320.7465923789295
 21
-143.2499992357934
 31
0.0
  0
LINE
  5
287
330
6A
100
AcDbEntity
  8
0
  6
Continuous
 62
     7
100
AcDbLine
 10
-294.2750000000461
 20
-122.9499992384452
 30
0.0
 11
-294.2749999989242
 21
-111.7499992384452
 31
0.0
  0
LINE
  5
288
330
6A
100
AcDbEntity
  8
0
  6
Continuous
 62
     7
100
AcDbLine
 10
-311.7750000000461
 20
-122.9499992366923
 30
0.0
 11
-311.7749999989242
 21
-111.7499992366923
 31
0.0
  0
LINE
  5
289
330
6A
100
AcDbEntity
  8
0
  6
Continuous
 62
     7
100
AcDbLine
 10
-303.7599999989242
 20
-111.7499992374951
 30
0.0
 11
-311.7749999989242
 21
-111.7499992366923
 31
0.0
  0
LINE
  5
28A
330
6A
100
AcDbEntity
  8
0
  6
Continuous
 62
     7
100
AcDbLine
 10
-317.7749999989242
 20
-111.7499992360912
 30
0.0
 11
-319.4999999989242
 21
-111.7499992359184
 31
0.0
  0
LINE
  5
28B
330
6A
100
AcDbEntity
  8
0
  6
Continuous
 62
     7
100
AcDbLine
 10
-311.7749999989242
 20
-111.7499992366923
 30
0.0
 11
-317.7749999989242
 21
-111.7499992360912
 31
0.0
  0
LINE
  5
28C
330
6A
100
AcDbEntity
  8
0
  6
Continuous
 62
     7
100
AcDbLine
 10
-302.2900000000461
 20
-122.9499992376423
 30
0.0
 11
-294.2750000000461
 21
-122.9499992384452
 31
0.0
  0
LINE
  5
28D
330
6A
100
AcDbEntity
  8
0
  6
Continuous
 62
     7
100
AcDbLine
 10
-323.9422488793427
 20
-90.18927366312315
 30
0.0
 11
-323.6908681406404
 21
-92.47478355914552
 31
0.0
  0
LINE
  5
28E
330
6A
100
AcDbEntity
  8
0
  6
Continuous
 62
     7
100
AcDbLine
 10
-328.2541318536103
 20
-95.10938509160246
 30
0.0
 11
-330.1077511145426
 21
-93.74892803748158
 31
0.0
  0
LINE
  5
28F
330
6A
100
AcDbEntity
  8
0
  6
Continuous
 62
     7
100
AcDbLine
 10
-333.0250000014439
 20
-136.904522299027
 30
0.0
 11
-330.5126260595632
 21
-143.8706634425511
 31
0.0
  0
LINE
  5
290
330
6A
100
AcDbEntity
  8
0
  6
Continuous
 62
     7
100
AcDbLine
 10
-285.275000001108
 20
-133.5499992393467
 30
0.0
 11
-273.0250000011079
 21
-133.5499992405738
 31
0.0
  0
LINE
  5
291
330
6A
100
AcDbEntity
  8
0
  6
Continuous
 62
     7
100
AcDbLine
 10
-285.5250000021997
 20
-144.4499992393216
 30
0.0
 11
-286.1250000022159
 21
-144.6107687547202
 31
0.0
  0
LINE
  5
292
330
6A
100
AcDbEntity
  8
0
  6
Continuous
 62
     7
100
AcDbLine
 10
-285.5250000020795
 20
-143.2499992393217
 30
0.0
 11
-285.5250000021997
 21
-144.4499992393216
 31
0.0
  0
LINE
  5
293
330
6A
100
AcDbEntity
  8
0
  6
Continuous
 62
     7
100
AcDbLine
 10
-289.6250000020796
 20
-143.249999238911
 30
0.0
 11
-285.5250000020795
 21
-143.2499992393217
 31
0.0
  0
LINE
  5
294
330
6A
100
AcDbEntity
  8
0
  6
Continuous
 62
     7
100
AcDbLine
 10
-290.5549622793012
 20
-140.6949488805034
 30
0.0
 11
-289.6250000020796
 21
-143.249999238911
 31
0.0
  0
LINE
  5
295
330
6A
100
AcDbEntity
  8
0
  6
Continuous
 62
     7
100
AcDbLine
 10
-273.0250000015199
 20
-137.6623991517768
 30
0.0
 11
-273.0250000011079
 21
-133.5499992405738
 31
0.0
  0
LINE
  5
296
330
6A
100
AcDbEntity
  8
0
  6
Continuous
 62
     7
100
AcDbLine
 10
-333.0250000011079
 20
-133.5499992345636
 30
0.0
 11
-320.775000001108
 21
-133.5499992357906
 31
0.0
  0
LINE
  5
297
330
6A
100
AcDbEntity
  8
0
  6
Continuous
 62
     7
100
AcDbLine
 10
-285.0249999965957
 20
-88.50499923937171
 30
0.0
 11
-282.1077511141861
 21
-90.1892736673137
 31
0.0
  0
LINE
  5
298
330
6A
100
AcDbEntity
  8
0
  6
Continuous
 62
     7
100
AcDbLine
 10
-282.3591318533464
 20
-92.47478356328571
 30
0.0
 11
-282.1077511141861
 21
-90.1892736673137
 31
0.0
  0
LINE
  5
299
330
6A
100
AcDbEntity
  8
0
  6
Continuous
 62
     7
100
AcDbLine
 10
-282.8163053364352
 20
-92.21083432969697
 30
0.0
 11
-282.3591318533464
 21
-92.47478356328571
 31
0.0
  0
LINE
  5
29A
330
6A
100
AcDbEntity
  8
0
  6
Continuous
 62
     7
100
AcDbLine
 10
-283.3513053365281
 20
-93.13748151169271
 30
0.0
 11
-282.8163053364352
 21
-92.21083432969697
 31
0.0
  0
LINE
  5
29B
330
6A
100
AcDbEntity
  8
0
  6
Continuous
 62
     7
100
AcDbLine
 10
-285.5250000023458
 20
-145.9107687547804
 30
0.0
 11
-283.093211315662
 21
-146.1106315503697
 31
0.0
  0
LINE
  5
29C
330
6A
100
AcDbEntity
  8
0
  6
Continuous
 62
     7
100
AcDbLine
 10
-290.1050000025834
 20
-148.2799992388628
 30
0.0
 11
-291.5250000025834
 21
-148.2799992387206
 31
0.0
  0
LINE
  5
29D
330
6A
100
AcDbEntity
  8
0
  6
Continuous
 62
     7
100
AcDbLine
 10
-330.5126260595632
 20
-143.8706634425511
 30
0.0
 11
-328.8250000026108
 21
-148.5499992349843
 31
0.0
  0
LINE
  5
29E
330
6A
100
AcDbEntity
  8
0
  6
Continuous
 62
     7
100
AcDbLine
 10
-292.8550000027107
 20
-149.5499992385874
 30
0.0
 11
-290.1050000027107
 21
-149.5499992388629
 31
0.0
  0
LINE
  5
29F
330
6A
100
AcDbEntity
  8
0
  6
Continuous
 62
     7
100
AcDbLine
 10
-333.02500000236
 20
-146.0499992345636
 30
0.0
 11
-333.0250000027106
 21
-149.5499992345636
 31
0.0
  0
LINE
  5
2A0
330
6A
100
AcDbEntity
  8
0
  6
Continuous
 62
     7
100
AcDbLine
 10
-333.0250000027106
 20
-149.5499992345636
 30
0.0
 11
-320.7050000027106
 21
-149.5499992357976
 31
0.0
  0
LINE
  5
2A1
330
6A
100
AcDbEntity
  8
0
  6
Continuous
 62
     7
100
AcDbLine
 10
-320.7050000027106
 20
-149.5499992357976
 30
0.0
 11
-319.5050000022448
 21
-144.8999992359178
 31
0.0
  0
LINE
  5
2A2
330
6A
100
AcDbEntity
  8
0
  6
Continuous
 62
     7
100
AcDbLine
 10
-309.4779304313373
 20
-143.4186970157032
 30
0.0
 11
-308.9601540219169
 21
-147.7499992369741
 31
0.0
  0
LINE
  5
2A3
330
6A
100
AcDbEntity
  8
0
  6
Continuous
 62
     7
100
AcDbLine
 10
-328.1763053368449
 20
-96.2999815072026
 30
0.0
 11
-328.711305336752
 21
-95.37333432509968
 31
0.0
  0
LINE
  5
2A4
330
6A
100
AcDbEntity
  8
0
  6
Continuous
 62
     7
100
AcDbLine
 10
-292.8031690584497
 20
-141.0499992385925
 30
0.0
 11
-292.8032514421108
 21
-139.0520379430345
 31
0.0
  0
LINE
  5
2A5
330
6A
100
AcDbEntity
  8
0
  6
Continuous
 62
     7
100
AcDbLine
 10
-293.7050000022277
 20
-144.7294096918272
 30
0.0
 11
-292.8550000027107
 21
-149.5499992385874
 31
0.0
  0
LINE
  5
2A6
330
6A
100
AcDbEntity
  8
0
  6
Continuous
 62
     7
100
AcDbLine
 10
-319.5050000022448
 20
-144.8999992359178
 30
0.0
 11
-319.5050000022197
 21
-144.6499992359178
 31
0.0
  0
LINE
  5
2A7
330
6A
100
AcDbEntity
  8
0
  6
Continuous
 62
     7
100
AcDbLine
 10
-308.9601540219169
 20
-147.7499992369741
 30
0.0
 11
-305.9050000025303
 21
-147.7499992372802
 31
0.0
  0
LINE
  5
2A8
330
6A
100
AcDbEntity
  8
0
  6
Continuous
 62
     7
100
AcDbLine
 10
-305.9050000025303
 20
-147.7499992372802
 30
0.0
 11
-305.9050000016588
 21
-139.0499992372802
 31
0.0
  0
LINE
  5
2A9
330
6A
100
AcDbEntity
  8
0
  6
Continuous
 62
     7
100
AcDbLine
 10
-328.711305336752
 20
-95.37333432509968
 30
0.0
 11
-328.2541318536103
 21
-95.10938509160246
 31
0.0
  0
LINE
  5
2AA
330
6A
100
AcDbEntity
  8
0
  6
Continuous
 62
     7
100
AcDbLine
 10
-325.5249999984685
 20
-107.1999992353148
 30
0.0
 11
-333.0249999984684
 21
-107.1999992345636
 31
0.0
  0
LINE
  5
2AB
330
6A
100
AcDbEntity
  8
0
  6
Continuous
 62
     7
100
AcDbLine
 10
-332.6544095248629
 20
-145.5670363214563
 30
0.0
 11
-331.1944978891609
 21
-145.1758541778059
 31
0.0
  0
LINE
  5
2AC
330
6A
100
AcDbEntity
  8
0
  6
Continuous
 62
     7
100
AcDbLine
 10
-328.8250000026108
 20
-148.5499992349843
 30
0.0
 11
-331.8250000026104
 21
-148.5499992346838
 31
0.0
  0
LINE
  5
2AD
330
6A
100
AcDbEntity
  8
0
  6
Continuous
 62
     7
100
AcDbLine
 10
-331.8250000026104
 20
-148.5499992346838
 30
0.0
 11
-331.82500000236
 21
-146.0499992346838
 31
0.0
  0
LINE
  5
2AE
330
6A
100
AcDbEntity
  8
0
  6
Continuous
 62
     7
100
AcDbLine
 10
-333.0249999972897
 20
-95.4332024648391
 30
0.0
 11
-333.0249999984684
 21
-107.1999992345636
 31
0.0
  0
LINE
  5
2AF
330
6A
100
AcDbEntity
  8
0
  6
Continuous
 62
     7
100
AcDbLine
 10
-332.3250000023099
 20
-145.5499992346337
 30
0.0
 11
-332.5250000023099
 21
-145.5499992346136
 31
0.0
  0
LINE
  5
2B0
330
6A
100
AcDbEntity
  8
0
  6
Continuous
 62
     7
100
AcDbLine
 10
-333.0250000011079
 20
-133.5499992345636
 30
0.0
 11
-333.0249999984684
 21
-107.1999992345636
 31
0.0
  0
LINE
  5
2B1
330
6A
100
AcDbEntity
  8
0
  6
Continuous
 62
     7
100
AcDbLine
 10
-333.0250000011079
 20
-133.5499992345636
 30
0.0
 11
-333.0250000014439
 21
-136.904522299027
 31
0.0
  0
LINE
  5
2B2
330
6A
100
AcDbEntity
  8
0
  6
Continuous
 62
     7
100
AcDbLine
 10
-333.0249999972897
 20
-95.4332024648391
 30
0.0
 11
-330.1077511145426
 21
-93.74892803748158
 31
0.0
  0
LINE
  5
2B3
330
6A
100
AcDbEntity
  8
0
  6
Continuous
 62
     7
100
AcDbLine
 10
-285.0249999963899
 20
-86.44999923937172
 30
0.0
 11
-321.0249999963899
 21
-86.4499992357656
 31
0.0
  0
LINE
  5
2B4
330
6A
100
AcDbEntity
  8
0
  6
Continuous
 62
     7
100
AcDbLine
 10
-275.9422488796993
 20
-93.74892804290731
 30
0.0
 11
-273.0249999972897
 21
-95.43320247084925
 31
0.0
  0
LINE
  5
2B5
330
6A
100
AcDbEntity
  8
0
  6
Continuous
 62
     7
100
AcDbLine
 10
-273.0249999984684
 20
-107.1999992405738
 30
0.0
 11
-273.0249999972897
 21
-95.43320247084925
 31
0.0
  0
LINE
  5
2B6
330
6A
100
AcDbEntity
  8
0
  6
Continuous
 62
     7
100
AcDbLine
 10
-288.2749999989242
 20
-111.7499992390463
 30
0.0
 11
-294.2749999989242
 21
-111.7499992384452
 31
0.0
  0
LINE
  5
2B7
330
6A
100
AcDbEntity
  8
0
  6
Continuous
 62
     7
100
AcDbLine
 10
-280.5249999984685
 20
-107.1999992398225
 30
0.0
 11
-286.5499999989243
 21
-111.749999239219
 31
0.0
  0
LINE
  5
2B8
330
6A
100
AcDbEntity
  8
0
  6
Continuous
 62
     7
100
AcDbLine
 10
-294.2749999989242
 20
-111.7499992384452
 30
0.0
 11
-302.2899999989242
 21
-111.7499992376423
 31
0.0
  0
LINE
  5
2B9
330
6A
100
AcDbEntity
  8
0
  6
Continuous
 62
     7
100
AcDbLine
 10
-302.2900000000461
 20
-122.9499992376423
 30
0.0
 11
-302.2899999989242
 21
-111.7499992376423
 31
0.0
  0
LINE
  5
2BA
330
6A
100
AcDbEntity
  8
0
  6
Continuous
 62
     7
100
AcDbLine
 10
-294.2750000000461
 20
-122.9499992384452
 30
0.0
 11
-288.2750000000461
 21
-122.9499992390463
 31
0.0
  0
LINE
  5
2BB
330
6A
100
AcDbEntity
  8
0
  6
Continuous
 62
     7
100
AcDbLine
 10
-273.0249999984684
 20
-107.1999992405738
 30
0.0
 11
-280.5249999984685
 21
-107.1999992398225
 31
0.0
  0
LINE
  5
2BC
330
6A
100
AcDbEntity
  8
0
  6
Continuous
 62
     7
100
AcDbLine
 10
-277.7958681409042
 20
-95.10938509665695
 30
0.0
 11
-277.3386946578155
 21
-95.37333433024571
 31
0.0
  0
LINE
  5
2BD
330
6A
100
AcDbEntity
  8
0
  6
Continuous
 62
     7
100
AcDbLine
 10
-277.3386946578155
 20
-95.37333433024571
 30
0.0
 11
-277.8736946579083
 21
-96.29998151224142
 31
0.0
  0
LINE
  5
2BE
330
6A
100
AcDbEntity
  8
0
  6
Continuous
 62
     7
100
AcDbLine
 10
-321.0249999963899
 20
-86.4499992357656
 30
0.0
 11
-321.0249999965957
 21
-88.50499923576564
 31
0.0
  0
LINE
  5
2BF
330
6A
100
AcDbEntity
  8
0
  6
Continuous
 62
     7
100
AcDbLine
 10
-288.2750000000461
 20
-122.9499992390463
 30
0.0
 11
-285.2750000000461
 21
-122.9499992393467
 31
0.0
  0
LINE
  5
2C0
330
6A
100
AcDbEntity
  8
0
  6
Continuous
 62
     7
100
AcDbLine
 10
-303.9050000016588
 20
-139.0499992374805
 30
0.0
 11
-303.9050000019794
 21
-142.2499992374806
 31
0.0
  0
LINE
  5
2C1
330
6A
100
AcDbEntity
  8
0
  6
Continuous
 62
     7
100
AcDbLine
 10
-303.9050000019794
 20
-142.2499992374806
 30
0.0
 11
-294.6074316055182
 21
-142.2499992384119
 31
0.0
  0
LINE
  5
2C2
330
6A
100
AcDbEntity
  8
0
  6
Continuous
 62
     7
100
AcDbLine
 10
-273.0249999984684
 20
-107.1999992405738
 30
0.0
 11
-273.0250000011079
 21
-133.5499992405738
 31
0.0
  0
LINE
  5
2C3
330
6A
100
AcDbEntity
  8
0
  6
Continuous
 62
     7
100
AcDbLine
 10
-275.9422488796993
 20
-93.74892804290731
 30
0.0
 11
-277.7958681409042
 21
-95.10938509665695
 31
0.0
  0
LINE
  5
2C4
330
6A
100
AcDbEntity
  8
0
  6
Continuous
 62
     7
100
AcDbLine
 10
-285.2750000000461
 20
-122.9499992393467
 30
0.0
 11
-285.275000001108
 21
-133.5499992393467
 31
0.0
  0
LINE
  5
2C5
330
6A
100
AcDbEntity
  8
0
  6
Continuous
 62
     7
100
AcDbLine
 10
-286.1250000022159
 20
-144.6107687547202
 30
0.0
 11
-286.125000002286
 21
-145.3107687547202
 31
0.0
  0
LINE
  5
2C6
330
6A
100
AcDbEntity
  8
0
  6
Continuous
 62
     7
100
AcDbLine
 10
-290.1050000027107
 20
-149.5499992388629
 30
0.0
 11
-290.1050000025834
 21
-148.2799992388628
 31
0.0
  0
ARC
  5
2C7
330
6A
100
AcDbEntity
  8
0
  6
Continuous
 62
     7
100
AcDbCircle
 10
-292.9041938313516
 20
-141.5499992385825
 30
0.0
 40
2.500000000000076
100
AcDbArc
 50
19.99999999426609
 51
87.68594179070742
  0
ARC
  5
2C8
330
6A
100
AcDbEntity
  8
0
  6
Continuous
 62
     7
100
AcDbCircle
 10
-320.0350000017089
 20
-139.5499992358648
 30
0.0
 40
0.5
100
AcDbArc
 50
359.9999999942679
 51
179.9999999942614
  0
ARC
  5
2C9
330
6A
100
AcDbEntity
  8
0
  6
Continuous
 62
     7
100
AcDbCircle
 10
-308.4850000020846
 20
-143.2999992370217
 30
0.0
 40
0.9999999999998863
100
AcDbArc
 50
89.99999999426461
 51
186.8169536520275
  0
ARC
  5
2CA
330
6A
100
AcDbEntity
  8
0
  6
Continuous
 62
     7
100
AcDbCircle
 10
-332.32500000236
 20
-146.0499992346337
 30
0.0
 40
0.5
100
AcDbArc
 50
359.9999999942581
 51
89.99999999425485
  0
ARC
  5
2CB
330
6A
100
AcDbEntity
  8
0
  6
Continuous
 62
     7
100
AcDbCircle
 10
-332.52500000236
 20
-146.0499992346136
 30
0.0
 40
0.4999999999998217
100
AcDbArc
 50
104.9999999942679
 51
179.9999999942679
  0
ARC
  5
2CC
330
6A
100
AcDbEntity
  8
0
  6
Continuous
 62
     7
100
AcDbCircle
 10
-332.52500000236
 20
-146.0499992346136
 30
0.0
 40
0.5
100
AcDbArc
 50
89.99999999426136
 51
104.9999999942679
  0
ARC
  5
2CD
330
6A
100
AcDbEntity
  8
0
  6
Continuous
 62
     7
100
AcDbCircle
 10
-331.4533169341666
 20
-144.2099283514908
 30
0.0
 40
1.000000000000081
100
AcDbArc
 50
284.9999999942544
 51
19.83209468781603
  0
ENDBLK
  5
6C
330
6A
100
AcDbEntity
  8
0
100
AcDbBlockEnd
  0
BLOCK
  5
6F
330
6D
100
AcDbEntity
  8
0
100
AcDbBlockBegin
  2
Vordans1
 70
     0
 10
-303.025
 20
-118.000000000254
 30
0.0
  3
Vordans1
  1

  0
INSERT
  5
6E
330
6D
100
AcDbEntity
  8
0
100
AcDbBlockReference
  2
OTTA_25-M6_PH3-select__6
 10
-333.0250000027106
 20
-149.5499992388629
 30
0.0
  0
LINE
  5
2CE
330
6D
100
AcDbEntity
  8
1
  6
DOT_CENTER
 62
     2
100
AcDbLine
 10
-303.025000001829
 20
-140.7474957842319
 30
0.0
 11
-303.025000001829
 21
-143.7474957842319
 31
0.0
  0
MTEXT
  5
2CF
330
6D
100
AcDbEntity
  8
1
 62
     6
100
AcDbMText
 10
-303.025
 20
-154.5499992403197
 30
0.0
 40
5.0
 41
0.0
 71
     2
 72
     1
  1
 
  7
CONVERTER_11
 73
     1
 44
1.32052821128451
  0
DIMENSION
  5
2DA
330
6D
100
AcDbEntity
  8
1
100
AcDbDimension
  2
*D18
 10
-303.0250000018289
 20
-160.744930507239
 30
0.0
 11
-294.1704857935069
 21
-157.319930507239
 31
0.0
 70
    32
  1
<>
 71
     5
 42
-1.0
 53
0.00013888888889
  3
ME10_DIM_11
100
AcDbAlignedDimension
 13
-285.5250000020795
 23
-143.2499992393217
 33
0.0
 14
-303.025000001829
 24
-143.7474957842319
 34
0.0
100
AcDbRotatedDimension
  0
DIMENSION
  5
2E5
330
6D
100
AcDbEntity
  8
1
100
AcDbDimension
  2
*D19
 10
-303.025000001829
 20
-168.744930507239
 30
0.0
 11
-287.936956304212
 21
-165.494930507239
 31
0.0
 70
    32
  1
<>
 71
     5
 42
-1.0
 53
0.00013888888889
  3
ME10_DIM_12
100
AcDbAlignedDimension
 13
-273.0250000015199
 23
-137.6623991517768
 33
0.0
 14
-303.025000001829
 24
-143.7474957842319
 34
0.0
100
AcDbRotatedDimension
  0
DIMENSION
  5
2F0
330
6D
100
AcDbEntity
  8
1
100
AcDbDimension
  2
*D20
 10
-333.0250000027106
 20
-176.7449305072391
 30
0.0
 11
-303.1952183137839
 21
-173.4949305072391
 31
0.0
 70
    32
  1
<>
 71
     5
 42
-1.0
 53
0.00013888888889
  3
ME10_DIM_13
100
AcDbAlignedDimension
 13
-273.0250000015199
 23
-137.6623991517768
 33
0.0
 14
-333.0250000027106
 24
-149.5499992345636
 34
0.0
100
AcDbRotatedDimension
  0
DIMENSION
  5
2FB
330
6D
100
AcDbEntity
  8
1
100
AcDbDimension
  2
*D21
 10
-343.0250003806684
 20
-143.2499992389109
 30
0.0
 11
-346.4500003806684
 21
-114.760234427016
 31
0.0
 70
    32
  1
<>
 71
     5
 42
-1.0
 53
90.0
  3
ME10_DIM_14
100
AcDbAlignedDimension
 13
-321.0249999963899
 23
-86.4499992357656
 33
0.0
 14
-289.6250000020796
 24
-143.249999238911
 34
0.0
 50
90.0
100
AcDbRotatedDimension
  0
DIMENSION
  5
306
330
6D
100
AcDbEntity
  8
1
100
AcDbDimension
  2
*D22
 10
-351.0250003806684
 20
-149.5499992357977
 30
0.0
 11
-354.4500003806684
 21
-120.7050118333431
 31
0.0
 70
    32
  1
<>
 71
     5
 42
-1.0
 53
90.0
  3
ME10_DIM_15
100
AcDbAlignedDimension
 13
-321.0249999963899
 23
-86.4499992357656
 33
0.0
 14
-320.7050000027106
 24
-149.5499992357976
 34
0.0
 50
90.0
100
AcDbRotatedDimension
  0
ENDBLK
  5
70
330
6D
100
AcDbEntity
  8
0
100
AcDbBlockEnd
  0
BLOCK
  5
72
330
71
100
AcDbEntity
  8
0
100
AcDbBlockBegin
  2
_rahmen
 70
     0
 10
-123.4999999999899
 20
-267.0000000000051
 30
0.0
  3
_rahmen
  1

  0
LINE
  5
307
330
71
100
AcDbEntity
  8
1
  6
Continuous
 62
     6
100
AcDbLine
 10
-253.0448045267399
 20
-236.500000000005
 30
0.0
 11
-123.4999999999882
 21
-236.500000000005
 31
0.0
  0
LINE
  5
308
330
71
100
AcDbEntity
  8
1
  6
Continuous
 62
     7
100
AcDbLine
 10
-234.8448045267399
 20
-257.750000000005
 30
0.0
 11
-216.64480452674
 21
-257.750000000005
 31
0.0
  0
LINE
  5
309
330
71
100
AcDbEntity
  8
1
  6
Continuous
 62
     6
100
AcDbLine
 10
-234.8448045267399
 20
-262.000000000005
 30
0.0
 11
-253.0448045267399
 21
-262.0000000000051
 31
0.0
  0
LINE
  5
30A
330
71
100
AcDbEntity
  8
1
  6
Continuous
 62
     7
100
AcDbLine
 10
-234.8448045267399
 20
-257.750000000005
 30
0.0
 11
-234.8448045267399
 21
-262.000000000005
 31
0.0
  0
LINE
  5
30B
330
71
100
AcDbEntity
  8
1
  6
Continuous
 62
     7
100
AcDbLine
 10
-216.64480452674
 20
-257.750000000005
 30
0.0
 11
-216.64480452674
 21
-262.0000000000051
 31
0.0
  0
LINE
  5
30C
330
71
100
AcDbEntity
  8
1
  6
Continuous
 62
     7
100
AcDbLine
 10
-253.0448045267399
 20
-257.7500000000051
 30
0.0
 11
-253.0448045267399
 21
-262.0000000000051
 31
0.0
  0
LINE
  5
30D
330
71
100
AcDbEntity
  8
1
  6
Continuous
 62
     7
100
AcDbLine
 10
-253.0448045267399
 20
-257.7500000000051
 30
0.0
 11
-234.8448045267399
 21
-257.750000000005
 31
0.0
  0
LINE
  5
30E
330
71
100
AcDbEntity
  8
1
  6
Continuous
 62
     2
100
AcDbLine
 10
-243.8081496401773
 20
-238.3750000000051
 30
0.0
 11
-243.8081496401773
 21
-243.3750000000051
 31
0.0
  0
LINE
  5
30F
330
71
100
AcDbEntity
  8
1
  6
Continuous
 62
     2
100
AcDbLine
 10
-243.8081496401773
 20
-243.3750000000051
 30
0.0
 11
-248.8081496401773
 21
-242.1250000000051
 31
0.0
  0
LINE
  5
310
330
71
100
AcDbEntity
  8
1
  6
Continuous
 62
     2
100
AcDbLine
 10
-248.8081496401773
 20
-242.1250000000051
 30
0.0
 11
-248.8081496401773
 21
-239.6250000000051
 31
0.0
  0
LINE
  5
311
330
71
100
AcDbEntity
  8
1
  6
Continuous
 62
     2
100
AcDbLine
 10
-248.8081496401773
 20
-239.6250000000051
 30
0.0
 11
-243.8081496401773
 21
-238.3750000000051
 31
0.0
  0
LINE
  5
312
330
71
100
AcDbEntity
  8
1
  6
Continuous
 62
     6
100
AcDbLine
 10
-375.4999999999881
 20
-262.000000000005
 30
0.0
 11
-410.499999999988
 21
-262.000000000005
 31
0.0
  0
LINE
  5
313
330
71
100
AcDbEntity
  8
1
  6
Continuous
 62
     6
100
AcDbLine
 10
-123.4999999999882
 20
-245.000000000005
 30
0.0
 11
-123.4999999999886
 21
-253.500000000005
 31
0.0
  0
LINE
  5
314
330
71
100
AcDbEntity
  8
1
  6
Continuous
 62
     6
100
AcDbLine
 10
-216.64480452674
 20
-262.0000000000051
 30
0.0
 11
-216.9999999999899
 21
-262.000000000005
 31
0.0
  0
LINE
  5
315
330
71
100
AcDbEntity
  8
1
  6
Continuous
 62
     6
100
AcDbLine
 10
-369.2999999999901
 20
-262.0000000000051
 30
0.0
 11
-375.4999999999881
 21
-262.000000000005
 31
0.0
  0
LINE
  5
316
330
71
100
AcDbEntity
  8
1
  6
Continuous
 62
     7
100
AcDbLine
 10
-216.64480452674
 20
-245.000000000005
 30
0.0
 11
-216.64480452674
 21
-257.750000000005
 31
0.0
  0
LINE
  5
317
330
71
100
AcDbEntity
  8
1
  6
Continuous
 62
     7
100
AcDbLine
 10
-253.0448045267399
 20
-245.000000000005
 30
0.0
 11
-253.0448045267399
 21
-257.7500000000051
 31
0.0
  0
LINE
  5
318
330
71
100
AcDbEntity
  8
1
  6
Continuous
 62
     6
100
AcDbLine
 10
-266.9999999999899
 20
-262.000000000005
 30
0.0
 11
-316.9999999999901
 21
-262.000000000005
 31
0.0
  0
LINE
  5
319
330
71
100
AcDbEntity
  8
1
  6
Continuous
 62
     6
100
AcDbLine
 10
-369.2999999999901
 20
-262.0000000000051
 30
0.0
 11
-366.9999999999899
 21
-262.000000000005
 31
0.0
  0
LINE
  5
31A
330
71
100
AcDbEntity
  8
1
  6
Continuous
 62
     6
100
AcDbLine
 10
-216.64480452674
 20
-262.0000000000051
 30
0.0
 11
-166.9999999999899
 21
-262.000000000005
 31
0.0
  0
LINE
  5
31B
330
71
100
AcDbEntity
  8
1
  6
Continuous
 62
     6
100
AcDbLine
 10
-123.4999999999899
 20
-262.000000000005
 30
0.0
 11
-123.4999999999886
 21
-253.500000000005
 31
0.0
  0
LINE
  5
31C
330
71
100
AcDbEntity
  8
1
  6
Continuous
 62
     2
100
AcDbLine
 10
-415.499999999989
 20
-262.000000000005
 30
0.0
 11
-415.499999999989
 21
-267.0000000000051
 31
0.0
  0
LINE
  5
31D
330
71
100
AcDbEntity
  8
1
  6
Continuous
 62
     2
100
AcDbLine
 10
-410.499999999988
 20
-262.000000000005
 30
0.0
 11
-415.499999999989
 21
-262.000000000005
 31
0.0
  0
LINE
  5
31E
330
71
100
AcDbEntity
  8
1
  6
Continuous
 62
     2
100
AcDbLine
 10
-410.499999999988
 20
-267.0000000000051
 30
0.0
 11
-366.9999999999899
 21
-267.0000000000051
 31
0.0
  0
LINE
  5
31F
330
71
100
AcDbEntity
  8
1
  6
Continuous
 62
     2
100
AcDbLine
 10
-410.499999999988
 20
-262.000000000005
 30
0.0
 11
-410.499999999988
 21
-267.0000000000051
 31
0.0
  0
LINE
  5
320
330
71
100
AcDbEntity
  8
1
  6
Continuous
 62
     2
100
AcDbLine
 10
-166.9999999999899
 20
-267.0000000000051
 30
0.0
 11
-216.9999999999899
 21
-267.0000000000051
 31
0.0
  0
LINE
  5
321
330
71
100
AcDbEntity
  8
1
  6
Continuous
 62
     2
100
AcDbLine
 10
-166.9999999999899
 20
-267.0000000000051
 30
0.0
 11
-166.9999999999899
 21
-262.000000000005
 31
0.0
  0
LINE
  5
322
330
71
100
AcDbEntity
  8
1
  6
Continuous
 62
     2
100
AcDbLine
 10
-216.9999999999899
 20
-267.0000000000051
 30
0.0
 11
-216.9999999999899
 21
-262.000000000005
 31
0.0
  0
LINE
  5
323
330
71
100
AcDbEntity
  8
1
  6
Continuous
 62
     2
100
AcDbLine
 10
-266.9999999999899
 20
-267.0000000000051
 30
0.0
 11
-216.9999999999899
 21
-267.0000000000051
 31
0.0
  0
LINE
  5
324
330
71
100
AcDbEntity
  8
1
  6
Continuous
 62
     2
100
AcDbLine
 10
-266.9999999999899
 20
-267.0000000000051
 30
0.0
 11
-266.9999999999899
 21
-262.000000000005
 31
0.0
  0
LINE
  5
325
330
71
100
AcDbEntity
  8
1
  6
Continuous
 62
     2
100
AcDbLine
 10
-316.9999999999901
 20
-267.0000000000051
 30
0.0
 11
-266.9999999999899
 21
-267.0000000000051
 31
0.0
  0
LINE
  5
326
330
71
100
AcDbEntity
  8
1
  6
Continuous
 62
     2
100
AcDbLine
 10
-316.9999999999901
 20
-267.0000000000051
 30
0.0
 11
-316.9999999999901
 21
-262.000000000005
 31
0.0
  0
LINE
  5
327
330
71
100
AcDbEntity
  8
1
  6
Continuous
 62
     2
100
AcDbLine
 10
-366.9999999999899
 20
-267.0000000000051
 30
0.0
 11
-316.9999999999901
 21
-267.0000000000051
 31
0.0
  0
LINE
  5
328
330
71
100
AcDbEntity
  8
1
  6
Continuous
 62
     2
100
AcDbLine
 10
-366.9999999999899
 20
-267.0000000000051
 30
0.0
 11
-366.9999999999899
 21
-262.000000000005
 31
0.0
  0
LINE
  5
329
330
71
100
AcDbEntity
  8
1
  6
Continuous
 62
     6
100
AcDbLine
 10
-410.4999999999882
 20
-212.0000000000049
 30
0.0
 11
-410.499999999988
 21
-262.000000000005
 31
0.0
  0
LINE
  5
32A
330
71
100
AcDbEntity
  8
1
  6
Continuous
 62
     2
100
AcDbLine
 10
-415.499999999989
 20
-212.0000000000049
 30
0.0
 11
-415.499999999989
 21
-262.000000000005
 31
0.0
  0
LINE
  5
32B
330
71
100
AcDbEntity
  8
1
  6
Continuous
 62
     2
100
AcDbLine
 10
-415.499999999989
 20
-212.0000000000049
 30
0.0
 11
-410.4999999999882
 21
-212.0000000000049
 31
0.0
  0
LINE
  5
32C
330
71
100
AcDbEntity
  8
1
  6
Continuous
 62
     6
100
AcDbLine
 10
-410.4999999999884
 20
-162.0000000000051
 30
0.0
 11
-410.4999999999882
 21
-212.0000000000049
 31
0.0
  0
LINE
  5
32D
330
71
100
AcDbEntity
  8
1
  6
Continuous
 62
     2
100
AcDbLine
 10
-415.499999999989
 20
-162.0000000000051
 30
0.0
 11
-415.499999999989
 21
-212.0000000000049
 31
0.0
  0
LINE
  5
32E
330
71
100
AcDbEntity
  8
1
  6
Continuous
 62
     2
100
AcDbLine
 10
-415.499999999989
 20
-162.0000000000051
 30
0.0
 11
-410.4999999999884
 21
-162.0000000000051
 31
0.0
  0
LINE
  5
32F
330
71
100
AcDbEntity
  8
1
  6
Continuous
 62
     6
100
AcDbLine
 10
-410.4999999999889
 20
-112.000000000005
 30
0.0
 11
-410.4999999999884
 21
-162.0000000000051
 31
0.0
  0
LINE
  5
330
330
71
100
AcDbEntity
  8
1
  6
Continuous
 62
     2
100
AcDbLine
 10
-415.499999999989
 20
-112.000000000005
 30
0.0
 11
-415.499999999989
 21
-162.0000000000051
 31
0.0
  0
LINE
  5
331
330
71
100
AcDbEntity
  8
1
  6
Continuous
 62
     2
100
AcDbLine
 10
-415.499999999989
 20
-112.000000000005
 30
0.0
 11
-410.4999999999889
 21
-112.000000000005
 31
0.0
  0
LINE
  5
332
330
71
100
AcDbEntity
  8
1
  6
Continuous
 62
     6
100
AcDbLine
 10
-410.499999999989
 20
-77.000000000005
 30
0.0
 11
-410.4999999999889
 21
-112.000000000005
 31
0.0
  0
LINE
  5
333
330
71
100
AcDbEntity
  8
1
  6
Continuous
 62
     2
100
AcDbLine
 10
-415.499999999989
 20
-57.000000000005
 30
0.0
 11
-415.499999999989
 21
-112.000000000005
 31
0.0
  0
LINE
  5
334
330
71
100
AcDbEntity
  8
1
  6
Continuous
 62
     2
100
AcDbLine
 10
-415.499999999989
 20
-267.0000000000051
 30
0.0
 11
-410.499999999988
 21
-267.0000000000051
 31
0.0
  0
LINE
  5
335
330
71
100
AcDbEntity
  8
1
  6
Continuous
 62
     2
100
AcDbLine
 10
-266.9999999999899
 20
-57.000000000005
 30
0.0
 11
-266.9999999999899
 21
-66.20869184470632
 31
0.0
  0
LINE
  5
336
330
71
100
AcDbEntity
  8
1
  6
Continuous
 62
     2
100
AcDbLine
 10
-266.9999999999899
 20
-57.000000000005
 30
0.0
 11
-415.499999999989
 21
-57.000000000005
 31
0.0
  0
LINE
  5
337
330
71
100
AcDbEntity
  8
1
  6
Continuous
 62
     2
100
AcDbLine
 10
-118.4999999999909
 20
-262.000000000005
 30
0.0
 11
-118.4999999999909
 21
-212.0000000000049
 31
0.0
  0
LINE
  5
338
330
71
100
AcDbEntity
  8
1
  6
Continuous
 62
     2
100
AcDbLine
 10
-118.4999999999909
 20
-112.000000000005
 30
0.0
 11
-118.4999999999909
 21
-57.000000000005
 31
0.0
  0
LINE
  5
339
330
71
100
AcDbEntity
  8
1
  6
Continuous
 62
     6
100
AcDbLine
 10
-123.4999999999907
 20
-112.000000000005
 30
0.0
 11
-123.4999999999909
 21
-77.000000000005
 31
0.0
  0
LINE
  5
33A
330
71
100
AcDbEntity
  8
1
  6
Continuous
 62
     2
100
AcDbLine
 10
-123.4999999999907
 20
-112.000000000005
 30
0.0
 11
-118.4999999999909
 21
-112.000000000005
 31
0.0
  0
LINE
  5
33B
330
71
100
AcDbEntity
  8
1
  6
Continuous
 62
     2
100
AcDbLine
 10
-118.4999999999909
 20
-162.0000000000051
 30
0.0
 11
-118.4999999999909
 21
-112.000000000005
 31
0.0
  0
LINE
  5
33C
330
71
100
AcDbEntity
  8
1
  6
Continuous
 62
     6
100
AcDbLine
 10
-123.4999999999895
 20
-162.0000000000051
 30
0.0
 11
-123.4999999999907
 21
-112.000000000005
 31
0.0
  0
LINE
  5
33D
330
71
100
AcDbEntity
  8
1
  6
Continuous
 62
     2
100
AcDbLine
 10
-123.4999999999895
 20
-162.0000000000051
 30
0.0
 11
-118.4999999999909
 21
-162.0000000000051
 31
0.0
  0
LINE
  5
33E
330
71
100
AcDbEntity
  8
1
  6
Continuous
 62
     2
100
AcDbLine
 10
-118.4999999999909
 20
-212.0000000000049
 30
0.0
 11
-118.4999999999909
 21
-162.0000000000051
 31
0.0
  0
LINE
  5
33F
330
71
100
AcDbEntity
  8
1
  6
Continuous
 62
     6
100
AcDbLine
 10
-123.499999999989
 20
-212.0000000000049
 30
0.0
 11
-123.4999999999895
 21
-162.0000000000051
 31
0.0
  0
LINE
  5
340
330
71
100
AcDbEntity
  8
1
  6
Continuous
 62
     2
100
AcDbLine
 10
-123.499999999989
 20
-212.0000000000049
 30
0.0
 11
-118.4999999999909
 21
-212.0000000000049
 31
0.0
  0
LINE
  5
341
330
71
100
AcDbEntity
  8
1
  6
Continuous
 62
     6
100
AcDbLine
 10
-123.4999999999909
 20
-77.000000000005
 30
0.0
 11
-410.499999999989
 21
-77.000000000005
 31
0.0
  0
LINE
  5
342
330
71
100
AcDbEntity
  8
1
  6
Continuous
 62
     2
100
AcDbLine
 10
-118.4999999999909
 20
-57.000000000005
 30
0.0
 11
-266.9999999999899
 21
-57.000000000005
 31
0.0
  0
LINE
  5
343
330
71
100
AcDbEntity
  8
1
  6
Continuous
 62
     6
100
AcDbLine
 10
-123.4999999999882
 20
-245.000000000005
 30
0.0
 11
-123.499999999989
 21
-212.0000000000049
 31
0.0
  0
LINE
  5
344
330
71
100
AcDbEntity
  8
1
  6
Continuous
 62
     2
100
AcDbLine
 10
-123.4999999999899
 20
-267.0000000000051
 30
0.0
 11
-166.9999999999899
 21
-267.0000000000051
 31
0.0
  0
LINE
  5
345
330
71
100
AcDbEntity
  8
1
  6
Continuous
 62
     2
100
AcDbLine
 10
-118.4999999999909
 20
-267.0000000000051
 30
0.0
 11
-123.4999999999899
 21
-267.0000000000051
 31
0.0
  0
LINE
  5
346
330
71
100
AcDbEntity
  8
1
  6
Continuous
 62
     2
100
AcDbLine
 10
-118.4999999999909
 20
-267.0000000000051
 30
0.0
 11
-118.4999999999909
 21
-262.000000000005
 31
0.0
  0
LINE
  5
347
330
71
100
AcDbEntity
  8
1
  6
Continuous
 62
     6
100
AcDbLine
 10
-253.0448045267399
 20
-245.000000000005
 30
0.0
 11
-216.64480452674
 21
-245.000000000005
 31
0.0
  0
LINE
  5
348
330
71
100
AcDbEntity
  8
1
  6
Continuous
 62
     2
100
AcDbLine
 10
-123.4999999999899
 20
-262.000000000005
 30
0.0
 11
-123.4999999999899
 21
-267.0000000000051
 31
0.0
  0
LINE
  5
349
330
71
100
AcDbEntity
  8
1
  6
Continuous
 62
     2
100
AcDbLine
 10
-123.4999999999899
 20
-262.000000000005
 30
0.0
 11
-118.4999999999909
 21
-262.000000000005
 31
0.0
  0
LINE
  5
34A
330
71
100
AcDbEntity
  8
1
  6
Continuous
 62
     6
100
AcDbLine
 10
-216.9999999999899
 20
-262.000000000005
 30
0.0
 11
-234.8448045267399
 21
-262.000000000005
 31
0.0
  0
LINE
  5
34B
330
71
100
AcDbEntity
  8
1
  6
Continuous
 62
     6
100
AcDbLine
 10
-166.9999999999899
 20
-262.000000000005
 30
0.0
 11
-123.4999999999899
 21
-262.000000000005
 31
0.0
  0
LINE
  5
34C
330
71
100
AcDbEntity
  8
1
  6
Continuous
 62
     6
100
AcDbLine
 10
-316.9999999999901
 20
-262.000000000005
 30
0.0
 11
-322.0448045267399
 21
-262.000000000005
 31
0.0
  0
LINE
  5
34D
330
71
100
AcDbEntity
  8
1
  6
Continuous
 62
     6
100
AcDbLine
 10
-266.9999999999899
 20
-262.000000000005
 30
0.0
 11
-253.0448045267399
 21
-262.0000000000051
 31
0.0
  0
LINE
  5
34E
102
{ACAD_REACTORS
330
438
330
439
102
}
330
71
100
AcDbEntity
  8
0
  6
Continuous
 62
     2
100
AcDbLine
 10
-245.5301785845931
 20
-249.9274852437929
 30
0.0
 11
-245.5301785845931
 21
-249.3219499552861
 31
0.0
  0
LINE
  5
34F
102
{ACAD_REACTORS
330
438
330
439
102
}
330
71
100
AcDbEntity
  8
0
  6
Continuous
 62
     2
100
AcDbLine
 10
-245.5301785845931
 20
-252.7276198504242
 30
0.0
 11
-245.5301785845931
 21
-252.1457684437291
 31
0.0
  0
LINE
  5
350
102
{ACAD_REACTORS
330
43A
330
43B
102
}
330
71
100
AcDbEntity
  8
0
  6
Continuous
 62
     2
100
AcDbLine
 10
-222.9006921491139
 20
-252.4379557823012
 30
0.0
 11
-222.9006921491139
 21
-254.7064999999887
 31
0.0
  0
LINE
  5
351
102
{ACAD_REACTORS
330
43A
330
43B
102
}
330
71
100
AcDbEntity
  8
0
  6
Continuous
 62
     2
100
AcDbLine
 10
-224.2817459281015
 20
-251.6526904761781
 30
0.0
 11
-220.8968004094728
 21
-251.6526904761776
 31
0.0
  0
LINE
  5
352
102
{ACAD_REACTORS
330
43A
330
43B
102
}
330
71
100
AcDbEntity
  8
0
  6
Continuous
 62
     2
100
AcDbLine
 10
-220.8968004094728
 20
-252.4379557823012
 30
0.0
 11
-220.8968004094728
 21
-251.6526904761776
 31
0.0
  0
LINE
  5
353
102
{ACAD_REACTORS
330
43A
330
43B
102
}
330
71
100
AcDbEntity
  8
0
  6
Continuous
 62
     2
100
AcDbLine
 10
-221.7078994469462
 20
-252.4379557823012
 30
0.0
 11
-220.8968004094728
 21
-252.4379557823012
 31
0.0
  0
LINE
  5
354
102
{ACAD_REACTORS
330
43A
330
43B
102
}
330
71
100
AcDbEntity
  8
0
  6
Continuous
 62
     2
100
AcDbLine
 10
-221.7078994469462
 20
-254.7064999999887
 30
0.0
 11
-221.7078994469462
 21
-252.4379557823012
 31
0.0
  0
LINE
  5
355
102
{ACAD_REACTORS
330
43A
330
43B
102
}
330
71
100
AcDbEntity
  8
0
  6
Continuous
 62
     2
100
AcDbLine
 10
-222.9006921491139
 20
-254.7064999999887
 30
0.0
 11
-221.7078994469462
 21
-254.7064999999887
 31
0.0
  0
LINE
  5
356
102
{ACAD_REACTORS
330
430
330
431
102
}
330
71
100
AcDbEntity
  8
0
  6
Continuous
 62
     2
100
AcDbLine
 10
-223.5972830871784
 20
-248.2935000000032
 30
0.0
 11
-225.0000073049277
 21
-248.2935000000032
 31
0.0
  0
LINE
  5
357
102
{ACAD_REACTORS
330
430
330
431
102
}
330
71
100
AcDbEntity
  8
0
  6
Continuous
 62
     2
100
AcDbLine
 10
-223.5972830871784
 20
-248.2935000000032
 30
0.0
 11
-222.9961155652866
 21
-248.9733233215587
 31
0.0
  0
LINE
  5
358
102
{ACAD_REACTORS
330
430
330
431
102
}
330
71
100
AcDbEntity
  8
0
  6
Continuous
 62
     2
100
AcDbLine
 10
-222.9961155652866
 20
-248.9733233215587
 30
0.0
 11
-222.3949480433938
 21
-248.2935000000032
 31
0.0
  0
LINE
  5
359
102
{ACAD_REACTORS
330
430
330
431
102
}
330
71
100
AcDbEntity
  8
0
  6
Continuous
 62
     2
100
AcDbLine
 10
-222.2947534564131
 20
-249.7664505300394
 30
0.0
 11
-220.9922238256466
 21
-248.2935000000032
 31
0.0
  0
LINE
  5
35A
102
{ACAD_REACTORS
330
430
330
431
102
}
330
71
100
AcDbEntity
  8
0
  6
Continuous
 62
     2
100
AcDbLine
 10
-222.2947534564131
 20
-249.7664505300394
 30
0.0
 11
-220.8968004094728
 21
-251.3473095238144
 31
0.0
  0
LINE
  5
35B
102
{ACAD_REACTORS
330
430
330
431
102
}
330
71
100
AcDbEntity
  8
0
  6
Continuous
 62
     2
100
AcDbLine
 10
-222.2995246272211
 20
-251.3473095238144
 30
0.0
 11
-220.8968004094728
 21
-251.3473095238144
 31
0.0
  0
LINE
  5
35C
102
{ACAD_REACTORS
330
430
330
431
102
}
330
71
100
AcDbEntity
  8
0
  6
Continuous
 62
     2
100
AcDbLine
 10
-222.9961155652866
 20
-250.5595777385207
 30
0.0
 11
-222.2995246272211
 21
-251.3473095238144
 31
0.0
  0
LINE
  5
35D
102
{ACAD_REACTORS
330
42E
330
42F
102
}
330
71
100
AcDbEntity
  8
0
  6
Continuous
 62
     2
100
AcDbLine
 10
-226.4552144015703
 20
-248.2935000000032
 30
0.0
 11
-225.2147099913174
 21
-248.2935000000032
 31
0.0
  0
LINE
  5
35E
102
{ACAD_REACTORS
330
42E
330
42F
102
}
330
71
100
AcDbEntity
  8
0
  6
Continuous
 62
     2
100
AcDbLine
 10
-225.2147099913174
 20
-248.2935000000032
 30
0.0
 11
-225.2147099913174
 21
-251.3473095238144
 31
0.0
  0
LINE
  5
35F
102
{ACAD_REACTORS
330
42E
330
42F
102
}
330
71
100
AcDbEntity
  8
0
  6
Continuous
 62
     2
100
AcDbLine
 10
-226.4552144015703
 20
-251.3473095238144
 30
0.0
 11
-226.4552144015703
 21
-248.2935000000032
 31
0.0
  0
LINE
  5
360
102
{ACAD_REACTORS
330
42C
330
42D
102
}
330
71
100
AcDbEntity
  8
0
  6
Continuous
 62
     2
100
AcDbLine
 10
-227.9235244841079
 20
-253.4849761904642
 30
0.0
 11
-227.6233592469155
 21
-252.7171612244775
 31
0.0
  0
LINE
  5
361
102
{ACAD_REACTORS
330
42C
330
42D
102
}
330
71
100
AcDbEntity
  8
0
  6
Continuous
 62
     2
100
AcDbLine
 10
-228.4010600887287
 20
-254.7064999999887
 30
0.0
 11
-228.1895800352529
 21
-254.1655394557708
 31
0.0
  0
LINE
  5
362
102
{ACAD_REACTORS
330
42C
330
42D
102
}
330
71
100
AcDbEntity
  8
0
  6
Continuous
 62
     2
100
AcDbLine
 10
-228.2436114520424
 20
-251.6526904761776
 30
0.0
 11
-229.6415644989817
 21
-254.7064999999887
 31
0.0
  0
LINE
  5
363
102
{ACAD_REACTORS
330
42C
330
42D
102
}
330
71
100
AcDbEntity
  8
0
  6
Continuous
 62
     2
100
AcDbLine
 10
-225.6051539948494
 20
-254.7064999999887
 30
0.0
 11
-226.8456584051033
 21
-254.7064999999887
 31
0.0
  0
LINE
  5
364
102
{ACAD_REACTORS
330
42C
330
42D
102
}
330
71
100
AcDbEntity
  8
0
  6
Continuous
 62
     2
100
AcDbLine
 10
-228.1895800352529
 20
-254.1655394557708
 30
0.0
 11
-227.0571384585791
 21
-254.1655394557708
 31
0.0
  0
LINE
  5
365
102
{ACAD_REACTORS
330
42A
330
42B
102
}
330
71
100
AcDbEntity
  8
0
  6
Continuous
 62
     2
100
AcDbLine
 10
-231.7990766381639
 20
-252.4379557823012
 30
0.0
 11
-230.9879776006893
 21
-252.4379557823012
 31
0.0
  0
LINE
  5
366
102
{ACAD_REACTORS
330
42A
330
42B
102
}
330
71
100
AcDbEntity
  8
0
  6
Continuous
 62
     2
100
AcDbLine
 10
-228.9840858610503
 20
-251.6526904761776
 30
0.0
 11
-231.7990766381639
 21
-251.6526904761776
 31
0.0
  0
LINE
  5
367
102
{ACAD_REACTORS
330
42A
330
42B
102
}
330
71
100
AcDbEntity
  8
0
  6
Continuous
 62
     2
100
AcDbLine
 10
-228.9840858610503
 20
-252.4379557823012
 30
0.0
 11
-228.9840858610503
 21
-251.6526904761776
 31
0.0
  0
LINE
  5
368
102
{ACAD_REACTORS
330
42A
330
42B
102
}
330
71
100
AcDbEntity
  8
0
  6
Continuous
 62
     2
100
AcDbLine
 10
-229.7951848985228
 20
-252.4379557823012
 30
0.0
 11
-228.9840858610503
 21
-252.4379557823012
 31
0.0
  0
LINE
  5
369
102
{ACAD_REACTORS
330
42A
330
42B
102
}
330
71
100
AcDbEntity
  8
0
  6
Continuous
 62
     2
100
AcDbLine
 10
-229.7951848985228
 20
-254.7064999999887
 30
0.0
 11
-229.7951848985228
 21
-252.4379557823012
 31
0.0
  0
LINE
  5
36A
102
{ACAD_REACTORS
330
428
330
429
102
}
330
71
100
AcDbEntity
  8
0
  6
Continuous
 62
     2
100
AcDbLine
 10
-229.1270700544248
 20
-251.3473095238144
 30
0.0
 11
-229.1270700544248
 21
-250.0385340136097
 31
0.0
  0
LINE
  5
36B
102
{ACAD_REACTORS
330
428
330
429
102
}
330
71
100
AcDbEntity
  8
0
  6
Continuous
 62
     2
100
AcDbLine
 10
-230.3198627565913
 20
-248.2935000000032
 30
0.0
 11
-230.3198627565913
 21
-251.3473095238144
 31
0.0
  0
LINE
  5
36C
102
{ACAD_REACTORS
330
428
330
429
102
}
330
71
100
AcDbEntity
  8
0
  6
Continuous
 62
     2
100
AcDbLine
 10
-229.1270700544248
 20
-248.2935000000032
 30
0.0
 11
-230.3198627565913
 21
-248.2935000000032
 31
0.0
  0
LINE
  5
36D
102
{ACAD_REACTORS
330
428
330
429
102
}
330
71
100
AcDbEntity
  8
0
  6
Continuous
 62
     2
100
AcDbLine
 10
-227.8865656441708
 20
-248.2935000000032
 30
0.0
 11
-227.8865656441708
 21
-249.6022755102084
 31
0.0
  0
LINE
  5
36E
102
{ACAD_REACTORS
330
426
330
427
102
}
330
71
100
AcDbEntity
  8
0
  6
Continuous
 62
     2
100
AcDbLine
 10
-235.568301577011
 20
-251.6526904761776
 30
0.0
 11
-235.568301577011
 21
-254.7064999999887
 31
0.0
  0
LINE
  5
36F
102
{ACAD_REACTORS
330
426
330
427
102
}
330
71
100
AcDbEntity
  8
0
  6
Continuous
 62
     2
100
AcDbLine
 10
-234.3755088748434
 20
-251.6526904761776
 30
0.0
 11
-235.568301577011
 21
-251.6526904761776
 31
0.0
  0
LINE
  5
370
102
{ACAD_REACTORS
330
426
330
427
102
}
330
71
100
AcDbEntity
  8
0
  6
Continuous
 62
     2
100
AcDbLine
 10
-233.1350044645905
 20
-254.7064999999887
 30
0.0
 11
-231.9422117624241
 21
-254.7064999999887
 31
0.0
  0
LINE
  5
371
102
{ACAD_REACTORS
330
426
330
427
102
}
330
71
100
AcDbEntity
  8
0
  6
Continuous
 62
     2
100
AcDbLine
 10
-235.568301577011
 20
-254.7064999999887
 30
0.0
 11
-234.3755088748434
 21
-254.7064999999887
 31
0.0
  0
LINE
  5
372
102
{ACAD_REACTORS
330
436
330
437
102
}
330
71
100
AcDbEntity
  8
0
  6
Continuous
 62
     2
100
AcDbLine
 10
-231.8943491234519
 20
-249.4713979591879
 30
0.0
 11
-231.8943491234519
 21
-248.9915136054462
 31
0.0
  0
LINE
  5
373
102
{ACAD_REACTORS
330
436
330
437
102
}
330
71
100
AcDbEntity
  8
0
  6
Continuous
 62
     2
100
AcDbLine
 10
-230.5584212970242
 20
-249.4713979591879
 30
0.0
 11
-231.8943491234519
 21
-249.4713979591879
 31
0.0
  0
LINE
  5
374
102
{ACAD_REACTORS
330
436
330
437
102
}
330
71
100
AcDbEntity
  8
0
  6
Continuous
 62
     2
100
AcDbLine
 10
-230.5584212970242
 20
-250.1694115646302
 30
0.0
 11
-230.5584212970242
 21
-249.4713979591879
 31
0.0
  0
LINE
  5
375
102
{ACAD_REACTORS
330
436
330
437
102
}
330
71
100
AcDbEntity
  8
0
  6
Continuous
 62
     2
100
AcDbLine
 10
-231.8943491234519
 20
-250.1694115646302
 30
0.0
 11
-230.5584212970242
 21
-250.1694115646302
 31
0.0
  0
LINE
  5
376
102
{ACAD_REACTORS
330
424
330
425
102
}
330
71
100
AcDbEntity
  8
0
  6
Continuous
 62
     2
100
AcDbLine
 10
-235.3773038137788
 20
-248.2935000000032
 30
0.0
 11
-235.3773038137788
 21
-251.3473095238144
 31
0.0
  0
LINE
  5
377
102
{ACAD_REACTORS
330
424
330
425
102
}
330
71
100
AcDbEntity
  8
0
  6
Continuous
 62
     2
100
AcDbLine
 10
-235.3773038137788
 20
-251.3473095238144
 30
0.0
 11
-236.5700965159452
 21
-251.3473095238144
 31
0.0
  0
LINE
  5
378
102
{ACAD_REACTORS
330
424
330
425
102
}
330
71
100
AcDbEntity
  8
0
  6
Continuous
 62
     2
100
AcDbLine
 10
-236.5700965159452
 20
-251.3473095238144
 30
0.0
 11
-236.5700965159452
 21
-250.2130374149706
 31
0.0
  0
LINE
  5
379
102
{ACAD_REACTORS
330
424
330
425
102
}
330
71
100
AcDbEntity
  8
0
  6
Continuous
 62
     2
100
AcDbLine
 10
-237.6197540938527
 20
-251.3473095238144
 30
0.0
 11
-238.8125467960193
 21
-251.3473095238144
 31
0.0
  0
LINE
  5
37A
102
{ACAD_REACTORS
330
424
330
425
102
}
330
71
100
AcDbEntity
  8
0
  6
Continuous
 62
     2
100
AcDbLine
 10
-238.8125467960193
 20
-248.2935000000032
 30
0.0
 11
-237.6197540938527
 21
-248.2935000000032
 31
0.0
  0
LINE
  5
37B
102
{ACAD_REACTORS
330
424
330
425
102
}
330
71
100
AcDbEntity
  8
0
  6
Continuous
 62
     2
100
AcDbLine
 10
-237.6197540938527
 20
-248.2935000000032
 30
0.0
 11
-237.6197540938527
 21
-249.3623333333378
 31
0.0
  0
LINE
  5
37C
102
{ACAD_REACTORS
330
424
330
425
102
}
330
71
100
AcDbEntity
  8
0
  6
Continuous
 62
     2
100
AcDbLine
 10
-237.6197540938527
 20
-249.3623333333378
 30
0.0
 11
-236.5700965159452
 21
-249.3623333333378
 31
0.0
  0
LINE
  5
37D
102
{ACAD_REACTORS
330
432
330
433
102
}
330
71
100
AcDbEntity
  8
0
  6
Continuous
 62
     2
100
AcDbLine
 10
-240.7687268275729
 20
-248.9566058454433
 30
0.0
 11
-240.451431766031
 21
-248.9566058454433
 31
0.0
  0
LINE
  5
37E
102
{ACAD_REACTORS
330
432
330
433
102
}
330
71
100
AcDbEntity
  8
0
  6
Continuous
 62
     2
100
AcDbLine
 10
-240.7687268275729
 20
-249.6623334947855
 30
0.0
 11
-240.451431766031
 21
-249.6623334947855
 31
0.0
  0
LINE
  5
37F
102
{ACAD_REACTORS
330
432
330
433
102
}
330
71
100
AcDbEntity
  8
0
  6
Continuous
 62
     2
100
AcDbLine
 10
-242.009231237827
 20
-248.2935000000032
 30
0.0
 11
-242.009231237827
 21
-251.3473095238144
 31
0.0
  0
LINE
  5
380
102
{ACAD_REACTORS
330
432
330
433
102
}
330
71
100
AcDbEntity
  8
0
  6
Continuous
 62
     2
100
AcDbLine
 10
-242.009231237827
 20
-248.2935000000032
 30
0.0
 11
-240.0099592397926
 21
-248.2935000000032
 31
0.0
  0
LINE
  5
381
102
{ACAD_REACTORS
330
432
330
433
102
}
330
71
100
AcDbEntity
  8
0
  6
Continuous
 62
     2
100
AcDbLine
 10
-240.7687268275729
 20
-250.4042312826706
 30
0.0
 11
-240.0099592397926
 21
-250.4042312826706
 31
0.0
  0
LINE
  5
382
102
{ACAD_REACTORS
330
438
330
439
102
}
330
71
100
AcDbEntity
  8
0
  6
Continuous
 62
     2
100
AcDbLine
 10
-248.1057272711237
 20
-249.321772478638
 30
0.0
 11
-248.1057272711237
 21
-253.6782275213551
 31
0.0
  0
LINE
  5
383
102
{ACAD_REACTORS
330
438
330
439
102
}
330
71
100
AcDbEntity
  8
0
  6
Continuous
 62
     2
100
AcDbLine
 10
-247.790010348048
 20
-249.0060555555618
 30
0.0
 11
-246.3141770870384
 21
-249.0060555555618
 31
0.0
  0
LINE
  5
384
102
{ACAD_REACTORS
330
438
330
439
102
}
330
71
100
AcDbEntity
  8
0
  6
Continuous
 62
     2
100
AcDbLine
 10
-245.9984601639618
 20
-249.9257970976985
 30
0.0
 11
-245.9984601639618
 21
-249.321772478638
 31
0.0
  0
LINE
  5
385
102
{ACAD_REACTORS
330
438
330
439
102
}
330
71
100
AcDbEntity
  8
0
  6
Continuous
 62
     2
100
AcDbLine
 10
-245.9984601639618
 20
-253.6782275213551
 30
0.0
 11
-245.9984601639618
 21
-252.1474565898235
 31
0.0
  0
LINE
  5
386
102
{ACAD_REACTORS
330
438
330
439
102
}
330
71
100
AcDbEntity
  8
0
  6
Continuous
 62
     2
100
AcDbLine
 10
-242.9105929340777
 20
-254.7064999999887
 30
0.0
 11
-248.3839050247945
 21
-254.7064999999887
 31
0.0
  0
LINE
  5
387
102
{ACAD_REACTORS
330
438
330
439
102
}
330
71
100
AcDbEntity
  8
0
  6
Continuous
 62
     2
100
AcDbLine
 10
-242.4863483186938
 20
-248.7177446154052
 30
0.0
 11
-242.4863483186938
 21
-254.2822553846054
 31
0.0
  0
LINE
  5
388
102
{ACAD_REACTORS
330
438
330
439
102
}
330
71
100
AcDbEntity
  8
0
  6
Continuous
 62
     2
100
AcDbLine
 10
-248.3839050247945
 20
-248.2935000000214
 30
0.0
 11
-242.9105929340777
 21
-248.2935000000214
 31
0.0
  0
LINE
  5
389
102
{ACAD_REACTORS
330
438
330
439
102
}
330
71
100
AcDbEntity
  8
0
  6
Continuous
 62
     2
100
AcDbLine
 10
-248.8081496401773
 20
-248.7177446154052
 30
0.0
 11
-248.8081496401773
 21
-254.2822553846054
 31
0.0
  0
LINE
  5
38A
102
{ACAD_REACTORS
330
438
330
439
102
}
330
71
100
AcDbEntity
  8
0
  6
Continuous
 62
     2
100
AcDbLine
 10
-246.3141770870384
 20
-253.9939444444318
 30
0.0
 11
-247.790010348048
 21
-253.9939444444318
 31
0.0
  0
LINE
  5
38B
102
{ACAD_REACTORS
330
432
330
433
102
}
330
71
100
AcDbEntity
  8
0
  6
Continuous
 62
     2
100
AcDbLine
 10
-240.7687268275729
 20
-251.3473095238144
 30
0.0
 11
-240.7687268275729
 21
-250.4042312826706
 31
0.0
  0
LINE
  5
38C
102
{ACAD_REACTORS
330
432
330
433
102
}
330
71
100
AcDbEntity
  8
0
  6
Continuous
 62
     2
100
AcDbLine
 10
-242.009231237827
 20
-251.3473095238144
 30
0.0
 11
-240.7687268275729
 21
-251.3473095238144
 31
0.0
  0
LINE
  5
38D
102
{ACAD_REACTORS
330
432
330
433
102
}
330
71
100
AcDbEntity
  8
0
  6
Continuous
 62
     2
100
AcDbLine
 10
-240.7687268275729
 20
-249.6623334947855
 30
0.0
 11
-240.7687268275729
 21
-248.9566058454433
 31
0.0
  0
LINE
  5
38E
102
{ACAD_REACTORS
330
424
330
425
102
}
330
71
100
AcDbEntity
  8
0
  6
Continuous
 62
     2
100
AcDbLine
 10
-238.8125467960193
 20
-248.2935000000032
 30
0.0
 11
-238.8125467960193
 21
-251.3473095238144
 31
0.0
  0
LINE
  5
38F
102
{ACAD_REACTORS
330
424
330
425
102
}
330
71
100
AcDbEntity
  8
0
  6
Continuous
 62
     2
100
AcDbLine
 10
-237.6197540938527
 20
-250.2130374149706
 30
0.0
 11
-237.6197540938527
 21
-251.3473095238144
 31
0.0
  0
LINE
  5
390
102
{ACAD_REACTORS
330
424
330
425
102
}
330
71
100
AcDbEntity
  8
0
  6
Continuous
 62
     2
100
AcDbLine
 10
-236.5700965159452
 20
-250.2130374149706
 30
0.0
 11
-237.6197540938527
 21
-250.2130374149706
 31
0.0
  0
LINE
  5
391
102
{ACAD_REACTORS
330
424
330
425
102
}
330
71
100
AcDbEntity
  8
0
  6
Continuous
 62
     2
100
AcDbLine
 10
-236.5700965159452
 20
-248.2935000000032
 30
0.0
 11
-235.3773038137788
 21
-248.2935000000032
 31
0.0
  0
LINE
  5
392
102
{ACAD_REACTORS
330
424
330
425
102
}
330
71
100
AcDbEntity
  8
0
  6
Continuous
 62
     2
100
AcDbLine
 10
-236.5700965159452
 20
-249.3623333333378
 30
0.0
 11
-236.5700965159452
 21
-248.2935000000032
 31
0.0
  0
LINE
  5
393
102
{ACAD_REACTORS
330
436
330
437
102
}
330
71
100
AcDbEntity
  8
0
  6
Continuous
 62
     2
100
AcDbLine
 10
-230.5584212970242
 20
-248.9915136054462
 30
0.0
 11
-230.5584212970242
 21
-248.2935000000032
 31
0.0
  0
LINE
  5
394
102
{ACAD_REACTORS
330
436
330
437
102
}
330
71
100
AcDbEntity
  8
0
  6
Continuous
 62
     2
100
AcDbLine
 10
-233.7087410208052
 20
-248.2935000000032
 30
0.0
 11
-230.5584212970242
 21
-248.2935000000032
 31
0.0
  0
LINE
  5
395
102
{ACAD_REACTORS
330
436
330
437
102
}
330
71
100
AcDbEntity
  8
0
  6
Continuous
 62
     2
100
AcDbLine
 10
-233.7087410208052
 20
-251.3473095238144
 30
0.0
 11
-230.5584212970242
 21
-251.3473095238144
 31
0.0
  0
LINE
  5
396
102
{ACAD_REACTORS
330
436
330
437
102
}
330
71
100
AcDbEntity
  8
0
  6
Continuous
 62
     2
100
AcDbLine
 10
-230.5584212970242
 20
-251.3473095238144
 30
0.0
 11
-230.5584212970242
 21
-250.6492959183719
 31
0.0
  0
LINE
  5
397
102
{ACAD_REACTORS
330
436
330
437
102
}
330
71
100
AcDbEntity
  8
0
  6
Continuous
 62
     2
100
AcDbLine
 10
-230.5584212970242
 20
-250.6492959183719
 30
0.0
 11
-231.8943491234519
 21
-250.6492959183719
 31
0.0
  0
LINE
  5
398
102
{ACAD_REACTORS
330
436
330
437
102
}
330
71
100
AcDbEntity
  8
0
  6
Continuous
 62
     2
100
AcDbLine
 10
-231.8943491234519
 20
-250.6492959183719
 30
0.0
 11
-231.8943491234519
 21
-250.1694115646302
 31
0.0
  0
LINE
  5
399
102
{ACAD_REACTORS
330
436
330
437
102
}
330
71
100
AcDbEntity
  8
0
  6
Continuous
 62
     2
100
AcDbLine
 10
-231.8943491234519
 20
-248.9915136054462
 30
0.0
 11
-230.5584212970242
 21
-248.9915136054462
 31
0.0
  0
LINE
  5
39A
102
{ACAD_REACTORS
330
426
330
427
102
}
330
71
100
AcDbEntity
  8
0
  6
Continuous
 62
     2
100
AcDbLine
 10
-234.3755088748434
 20
-254.7064999999887
 30
0.0
 11
-234.3755088748434
 21
-253.3977244897841
 31
0.0
  0
LINE
  5
39B
102
{ACAD_REACTORS
330
426
330
427
102
}
330
71
100
AcDbEntity
  8
0
  6
Continuous
 62
     2
100
AcDbLine
 10
-234.3755088748434
 20
-253.3977244897841
 30
0.0
 11
-233.1350044645905
 21
-254.7064999999887
 31
0.0
  0
LINE
  5
39C
102
{ACAD_REACTORS
330
426
330
427
102
}
330
71
100
AcDbEntity
  8
0
  6
Continuous
 62
     2
100
AcDbLine
 10
-231.9422117624241
 20
-254.7064999999887
 30
0.0
 11
-231.9422117624241
 21
-251.6526904761776
 31
0.0
  0
LINE
  5
39D
102
{ACAD_REACTORS
330
426
330
427
102
}
330
71
100
AcDbEntity
  8
0
  6
Continuous
 62
     2
100
AcDbLine
 10
-231.9422117624241
 20
-251.6526904761776
 30
0.0
 11
-233.1350044645905
 21
-251.6526904761776
 31
0.0
  0
LINE
  5
39E
102
{ACAD_REACTORS
330
426
330
427
102
}
330
71
100
AcDbEntity
  8
0
  6
Continuous
 62
     2
100
AcDbLine
 10
-233.1350044645905
 20
-251.6526904761776
 30
0.0
 11
-233.1350044645905
 21
-252.9614659863827
 31
0.0
  0
LINE
  5
39F
102
{ACAD_REACTORS
330
426
330
427
102
}
330
71
100
AcDbEntity
  8
0
  6
Continuous
 62
     2
100
AcDbLine
 10
-233.1350044645905
 20
-252.9614659863827
 30
0.0
 11
-234.3755088748434
 21
-251.6526904761776
 31
0.0
  0
LINE
  5
3A0
102
{ACAD_REACTORS
330
428
330
429
102
}
330
71
100
AcDbEntity
  8
0
  6
Continuous
 62
     2
100
AcDbLine
 10
-229.1270700544248
 20
-250.0385340136097
 30
0.0
 11
-227.8865656441708
 21
-251.3473095238144
 31
0.0
  0
LINE
  5
3A1
102
{ACAD_REACTORS
330
428
330
429
102
}
330
71
100
AcDbEntity
  8
0
  6
Continuous
 62
     2
100
AcDbLine
 10
-227.8865656441708
 20
-251.3473095238144
 30
0.0
 11
-226.6937729420042
 21
-251.3473095238144
 31
0.0
  0
LINE
  5
3A2
102
{ACAD_REACTORS
330
428
330
429
102
}
330
71
100
AcDbEntity
  8
0
  6
Continuous
 62
     2
100
AcDbLine
 10
-226.6937729420042
 20
-251.3473095238144
 30
0.0
 11
-226.6937729420042
 21
-248.2935000000032
 31
0.0
  0
LINE
  5
3A3
102
{ACAD_REACTORS
330
428
330
429
102
}
330
71
100
AcDbEntity
  8
0
  6
Continuous
 62
     2
100
AcDbLine
 10
-226.6937729420042
 20
-248.2935000000032
 30
0.0
 11
-227.8865656441708
 21
-248.2935000000032
 31
0.0
  0
LINE
  5
3A4
102
{ACAD_REACTORS
330
428
330
429
102
}
330
71
100
AcDbEntity
  8
0
  6
Continuous
 62
     2
100
AcDbLine
 10
-227.8865656441708
 20
-249.6022755102084
 30
0.0
 11
-229.1270700544248
 21
-248.2935000000032
 31
0.0
  0
LINE
  5
3A5
102
{ACAD_REACTORS
330
428
330
429
102
}
330
71
100
AcDbEntity
  8
0
  6
Continuous
 62
     2
100
AcDbLine
 10
-230.3198627565913
 20
-251.3473095238144
 30
0.0
 11
-229.1270700544248
 21
-251.3473095238144
 31
0.0
  0
LINE
  5
3A6
102
{ACAD_REACTORS
330
42A
330
42B
102
}
330
71
100
AcDbEntity
  8
0
  6
Continuous
 62
     2
100
AcDbLine
 10
-231.7990766381639
 20
-251.6526904761776
 30
0.0
 11
-231.7990766381639
 21
-252.4379557823012
 31
0.0
  0
LINE
  5
3A7
102
{ACAD_REACTORS
330
42A
330
42B
102
}
330
71
100
AcDbEntity
  8
0
  6
Continuous
 62
     2
100
AcDbLine
 10
-230.9879776006893
 20
-252.4379557823012
 30
0.0
 11
-230.9879776006893
 21
-254.7064999999887
 31
0.0
  0
LINE
  5
3A8
102
{ACAD_REACTORS
330
42A
330
42B
102
}
330
71
100
AcDbEntity
  8
0
  6
Continuous
 62
     2
100
AcDbLine
 10
-230.9879776006893
 20
-254.7064999999887
 30
0.0
 11
-229.7951848985228
 21
-254.7064999999887
 31
0.0
  0
LINE
  5
3A9
102
{ACAD_REACTORS
330
42C
330
42D
102
}
330
71
100
AcDbEntity
  8
0
  6
Continuous
 62
     2
100
AcDbLine
 10
-226.8456584051033
 20
-254.7064999999887
 30
0.0
 11
-227.0571384585791
 21
-254.1655394557708
 31
0.0
  0
LINE
  5
3AA
102
{ACAD_REACTORS
330
42C
330
42D
102
}
330
71
100
AcDbEntity
  8
0
  6
Continuous
 62
     2
100
AcDbLine
 10
-227.0031070417897
 20
-251.6526904761776
 30
0.0
 11
-225.6051539948494
 21
-254.7064999999887
 31
0.0
  0
LINE
  5
3AB
102
{ACAD_REACTORS
330
42C
330
42D
102
}
330
71
100
AcDbEntity
  8
0
  6
Continuous
 62
     2
100
AcDbLine
 10
-228.2436114520424
 20
-251.6526904761776
 30
0.0
 11
-227.0031070417897
 21
-251.6526904761776
 31
0.0
  0
LINE
  5
3AC
102
{ACAD_REACTORS
330
42C
330
42D
102
}
330
71
100
AcDbEntity
  8
0
  6
Continuous
 62
     2
100
AcDbLine
 10
-229.6415644989817
 20
-254.7064999999887
 30
0.0
 11
-228.4010600887287
 21
-254.7064999999887
 31
0.0
  0
LINE
  5
3AD
102
{ACAD_REACTORS
330
42C
330
42D
102
}
330
71
100
AcDbEntity
  8
0
  6
Continuous
 62
     2
100
AcDbLine
 10
-227.9235244841079
 20
-253.4849761904642
 30
0.0
 11
-227.3231940097254
 21
-253.4849761904642
 31
0.0
  0
LINE
  5
3AE
102
{ACAD_REACTORS
330
42C
330
42D
102
}
330
71
100
AcDbEntity
  8
0
  6
Continuous
 62
     2
100
AcDbLine
 10
-227.3231940097254
 20
-253.4849761904642
 30
0.0
 11
-227.6233592469155
 21
-252.7171612244775
 31
0.0
  0
LINE
  5
3AF
102
{ACAD_REACTORS
330
42E
330
42F
102
}
330
71
100
AcDbEntity
  8
0
  6
Continuous
 62
     2
100
AcDbLine
 10
-225.2147099913174
 20
-251.3473095238144
 30
0.0
 11
-226.4552144015703
 21
-251.3473095238144
 31
0.0
  0
LINE
  5
3B0
102
{ACAD_REACTORS
330
430
330
431
102
}
330
71
100
AcDbEntity
  8
0
  6
Continuous
 62
     2
100
AcDbLine
 10
-223.6927065033523
 20
-251.3473095238144
 30
0.0
 11
-225.0954307211005
 21
-251.3473095238144
 31
0.0
  0
LINE
  5
3B1
102
{ACAD_REACTORS
330
430
330
431
102
}
330
71
100
AcDbEntity
  8
0
  6
Continuous
 62
     2
100
AcDbLine
 10
-223.6927065033523
 20
-251.3473095238144
 30
0.0
 11
-222.9961155652866
 21
-250.5595777385207
 31
0.0
  0
LINE
  5
3B2
102
{ACAD_REACTORS
330
430
330
431
102
}
330
71
100
AcDbEntity
  8
0
  6
Continuous
 62
     2
100
AcDbLine
 10
-222.3949480433938
 20
-248.2935000000032
 30
0.0
 11
-220.9922238256466
 21
-248.2935000000032
 31
0.0
  0
LINE
  5
3B3
102
{ACAD_REACTORS
330
430
330
431
102
}
330
71
100
AcDbEntity
  8
0
  6
Continuous
 62
     2
100
AcDbLine
 10
-225.0000073049277
 20
-248.2935000000032
 30
0.0
 11
-223.6974776741602
 21
-249.7664505300394
 31
0.0
  0
LINE
  5
3B4
102
{ACAD_REACTORS
330
430
330
431
102
}
330
71
100
AcDbEntity
  8
0
  6
Continuous
 62
     2
100
AcDbLine
 10
-225.0954307211005
 20
-251.3473095238144
 30
0.0
 11
-223.6974776741602
 21
-249.7664505300394
 31
0.0
  0
LINE
  5
3B5
102
{ACAD_REACTORS
330
43A
330
43B
102
}
330
71
100
AcDbEntity
  8
0
  6
Continuous
 62
     2
100
AcDbLine
 10
-223.2346741057206
 20
-253.6594795918251
 30
0.0
 11
-223.2346741057206
 21
-254.5319965986284
 31
0.0
  0
LINE
  5
3B6
102
{ACAD_REACTORS
330
43A
330
43B
102
}
330
71
100
AcDbEntity
  8
0
  6
Continuous
 62
     2
100
AcDbLine
 10
-224.004331448682
 20
-252.4379557823012
 30
0.0
 11
-222.9006921491139
 21
-252.4379557823012
 31
0.0
  0
LINE
  5
3B7
102
{ACAD_REACTORS
330
43C
330
43D
102
}
330
71
100
AcDbEntity
  8
0
  6
Continuous
 62
     2
100
AcDbLine
 10
-239.3373755849725
 20
-253.6594795918246
 30
0.0
 11
-239.3373755849725
 21
-254.5319965986278
 31
0.0
  0
LINE
  5
3B8
102
{ACAD_REACTORS
330
43C
330
43D
102
}
330
71
100
AcDbEntity
  8
0
  6
Continuous
 62
     2
100
AcDbLine
 10
-239.3373755849725
 20
-252.6997108843417
 30
0.0
 11
-239.3373755849725
 21
-251.8271938775384
 31
0.0
  0
LINE
  5
3B9
330
71
100
AcDbEntity
  8
1
  6
Continuous
 62
     7
100
AcDbLine
 10
-123.4999999999886
 20
-253.500000000005
 30
0.0
 11
-216.64480452674
 21
-253.500000000005
 31
0.0
  0
LINE
  5
3BA
330
71
100
AcDbEntity
  8
1
  6
Continuous
 62
     6
100
AcDbLine
 10
-322.0448045267399
 20
-262.000000000005
 30
0.0
 11
-366.9999999999899
 21
-262.000000000005
 31
0.0
  0
LINE
  5
3BB
330
71
100
AcDbEntity
  8
1
  6
Continuous
 62
     7
100
AcDbLine
 10
-132.4184082816674
 20
-236.500000000005
 30
0.0
 11
-132.4184082816674
 21
-245.000000000005
 31
0.0
  0
LINE
  5
3BC
330
71
100
AcDbEntity
  8
1
  6
Continuous
 62
     7
100
AcDbLine
 10
-158.918408281667
 20
-236.500000000005
 30
0.0
 11
-158.918408281667
 21
-245.000000000005
 31
0.0
  0
LINE
  5
3BD
330
71
100
AcDbEntity
  8
1
  6
Continuous
 62
     7
100
AcDbLine
 10
-216.64480452674
 20
-245.000000000005
 30
0.0
 11
-216.64480452674
 21
-236.500000000005
 31
0.0
  0
LINE
  5
3BE
330
71
100
AcDbEntity
  8
1
  6
Continuous
 62
     7
100
AcDbLine
 10
-253.0448045267399
 20
-245.000000000005
 30
0.0
 11
-253.0448045267399
 21
-236.500000000005
 31
0.0
  0
LINE
  5
3BF
330
71
100
AcDbEntity
  8
1
  6
Continuous
 62
     6
100
AcDbLine
 10
-216.64480452674
 20
-245.000000000005
 30
0.0
 11
-123.4999999999882
 21
-245.000000000005
 31
0.0
  0
LINE
  5
3C0
330
71
100
AcDbEntity
  8
1
  6
Continuous
 62
     7
100
AcDbLine
 10
-188.7448045267399
 20
-253.5000000000051
 30
0.0
 11
-188.7448045267399
 21
-245.000000000005
 31
0.0
  0
LINE
  5
3C1
330
71
100
AcDbEntity
  8
1
  6
PHANTOM
 62
     2
100
AcDbLine
 10
-237.5581496401773
 20
-240.8750000000051
 30
0.0
 11
-243.0581496401773
 21
-240.8750000000051
 31
0.0
  0
LINE
  5
3C2
330
71
100
AcDbEntity
  8
1
  6
PHANTOM
 62
     2
100
AcDbLine
 10
-240.3081496401773
 20
-238.1250000000051
 30
0.0
 11
-240.3081496401773
 21
-243.6250000000051
 31
0.0
  0
LINE
  5
3C3
330
71
100
AcDbEntity
  8
1
  6
DOT_CENTER
 62
     2
100
AcDbLine
 10
-249.0581496401773
 20
-240.8750000000051
 30
0.0
 11
-243.5581496401773
 21
-240.8750000000051
 31
0.0
  0
ARC
  5
3C4
102
{ACAD_REACTORS
330
43C
330
43D
102
}
330
71
100
AcDbEntity
  8
0
  6
Continuous
 62
     2
100
AcDbCircle
 10
-240.6733035020903
 20
-256.4922761833393
 30
0.0
 40
4.852596863498068
100
AcDbArc
 50
74.02000874164739
 51
84.84185523037506
  0
ARC
  5
3C5
102
{ACAD_REACTORS
330
43C
330
43D
102
}
330
71
100
AcDbEntity
  8
0
  6
Continuous
 62
     2
100
AcDbCircle
 10
-240.0972628933366
 20
-253.336515827455
 30
0.0
 40
0.9059297849853228
100
AcDbArc
 50
71.55192388185348
 51
113.372277888129
  0
ARC
  5
3C6
102
{ACAD_REACTORS
330
43C
330
43D
102
}
330
71
100
AcDbEntity
  8
0
  6
Continuous
 62
     2
100
AcDbCircle
 10
-240.2537029260386
 20
-253.3846666674219
 30
0.0
 40
0.5115800601948034
100
AcDbArc
 50
208.5214732576956
 51
246.6277221118274
  0
ARC
  5
3C7
102
{ACAD_REACTORS
330
43C
330
43D
102
}
330
71
100
AcDbEntity
  8
0
  6
Continuous
 62
     2
100
AcDbCircle
 10
-240.0972628933366
 20
-253.0226746487119
 30
0.0
 40
0.9059297849849192
100
AcDbArc
 50
246.627722111871
 51
288.4480761181584
  0
ARC
  5
3C8
102
{ACAD_REACTORS
330
43C
330
43D
102
}
330
71
100
AcDbEntity
  8
0
  6
Continuous
 62
     2
100
AcDbCircle
 10
-240.5154306269974
 20
-251.7691288726747
 30
0.0
 40
2.227384008972737
100
AcDbArc
 50
288.4480761181328
 51
301.9309089499593
  0
ARC
  5
3C9
102
{ACAD_REACTORS
330
438
330
439
102
}
330
71
100
AcDbEntity
  8
0
  6
Continuous
 62
     2
100
AcDbCircle
 10
-245.7405043596042
 20
-251.0366268437607
 30
0.0
 40
0.911848150144459
100
AcDbArc
 50
295.3740086781764
 51
64.62599132180748
  0
ARC
  5
3CA
102
{ACAD_REACTORS
330
438
330
439
102
}
330
71
100
AcDbEntity
  8
0
  6
Continuous
 62
     2
100
AcDbCircle
 10
-245.2144616615163
 20
-249.3219499552861
 30
0.0
 40
0.3157169230760711
100
AcDbArc
 50
90.18896704254594
 51
180.0
  0
ARC
  5
3CB
102
{ACAD_REACTORS
330
43A
330
43B
102
}
330
71
100
AcDbEntity
  8
0
  6
Continuous
 62
     2
100
AcDbCircle
 10
-224.004331448682
 20
-253.3924787891273
 30
0.0
 40
0.9545230068260935
100
AcDbArc
 50
90.0
 51
109.337143219432
  0
ARC
  5
3CC
102
{ACAD_REACTORS
330
43A
330
43B
102
}
330
71
100
AcDbEntity
  8
0
  6
Continuous
 62
     2
100
AcDbCircle
 10
-223.7736441887043
 20
-253.1795952380834
 30
0.0
 40
0.9410597353348924
100
AcDbArc
 50
151.4785267423624
 51
208.5214732576695
  0
ARC
  5
3CD
102
{ACAD_REACTORS
330
43A
330
43B
102
}
330
71
100
AcDbEntity
  8
0
  6
Continuous
 62
     2
100
AcDbCircle
 10
-223.9945614140826
 20
-253.0226746487119
 30
0.0
 40
0.9059297849852801
100
AcDbArc
 50
246.6277221118183
 51
288.4480761180817
  0
ARC
  5
3CE
102
{ACAD_REACTORS
330
43A
330
43B
102
}
330
71
100
AcDbEntity
  8
0
  6
Continuous
 62
     2
100
AcDbCircle
 10
-224.4127291477445
 20
-251.7691288726753
 30
0.0
 40
2.227384008972746
100
AcDbArc
 50
288.4480761181335
 51
301.9309089499397
  0
ARC
  5
3CF
102
{ACAD_REACTORS
330
43A
330
43B
102
}
330
71
100
AcDbEntity
  8
0
  6
Continuous
 62
     2
100
AcDbCircle
 10
-224.5706020228373
 20
-249.866914292827
 30
0.0
 40
4.852596863498825
100
AcDbArc
 50
275.1581447696364
 51
285.9799912583387
  0
ARC
  5
3D0
102
{ACAD_REACTORS
330
43A
330
43B
102
}
330
71
100
AcDbEntity
  8
0
  6
Continuous
 62
     2
100
AcDbCircle
 10
-224.2817459281015
 20
-253.0668048760486
 30
0.0
 40
1.639695123940448
100
AcDbArc
 50
195.0618917771012
 51
275.1581447696762
  0
ARC
  5
3D1
102
{ACAD_REACTORS
330
432
330
433
102
}
330
71
100
AcDbEntity
  8
0
  6
Continuous
 62
     2
100
AcDbCircle
 10
-240.0099592397926
 20
-249.3488656413369
 30
0.0
 40
1.055365641333708
100
AcDbArc
 50
270.0
 51
90.0
  0
ARC
  5
3D2
102
{ACAD_REACTORS
330
438
330
439
102
}
330
71
100
AcDbEntity
  8
0
  6
Continuous
 62
     2
100
AcDbCircle
 10
-247.790010348048
 20
-253.6782275213551
 30
0.0
 40
0.3157169230756836
100
AcDbArc
 50
180.0
 51
270.0
  0
ARC
  5
3D3
102
{ACAD_REACTORS
330
438
330
439
102
}
330
71
100
AcDbEntity
  8
0
  6
Continuous
 62
     2
100
AcDbCircle
 10
-246.3141770870384
 20
-249.321772478638
 30
0.0
 40
0.315716923076593
100
AcDbArc
 50
0.0
 51
90.0
  0
ARC
  5
3D4
102
{ACAD_REACTORS
330
438
330
439
102
}
330
71
100
AcDbEntity
  8
0
  6
Continuous
 62
     2
100
AcDbCircle
 10
-246.3141770870384
 20
-249.9257970976985
 30
0.0
 40
0.3157169230761203
100
AcDbArc
 50
295.1944106485397
 51
0.0
  0
ARC
  5
3D5
102
{ACAD_REACTORS
330
438
330
439
102
}
330
71
100
AcDbEntity
  8
0
  6
Continuous
 62
     2
100
AcDbCircle
 10
-246.3141770870384
 20
-253.6782275213551
 30
0.0
 40
0.3157169230767067
100
AcDbArc
 50
270.0
 51
0.0
  0
ARC
  5
3D6
102
{ACAD_REACTORS
330
438
330
439
102
}
330
71
100
AcDbEntity
  8
0
  6
Continuous
 62
     2
100
AcDbCircle
 10
-248.3839050247945
 20
-248.7177446154052
 30
0.0
 40
0.4242446153837989
100
AcDbArc
 50
90.0
 51
180.0
  0
ARC
  5
3D7
102
{ACAD_REACTORS
330
438
330
439
102
}
330
71
100
AcDbEntity
  8
0
  6
Continuous
 62
     2
100
AcDbCircle
 10
-242.9105929340777
 20
-248.7177446154052
 30
0.0
 40
0.4242446153838841
100
AcDbArc
 50
0.0
 51
90.0
  0
ARC
  5
3D8
102
{ACAD_REACTORS
330
438
330
439
102
}
330
71
100
AcDbEntity
  8
0
  6
Continuous
 62
     2
100
AcDbCircle
 10
-242.9105929340777
 20
-254.2822553846054
 30
0.0
 40
0.4242446153832873
100
AcDbArc
 50
270.0
 51
0.0
  0
ARC
  5
3D9
102
{ACAD_REACTORS
330
436
330
437
102
}
330
71
100
AcDbEntity
  8
0
  6
Continuous
 62
     2
100
AcDbCircle
 10
-233.6922090469862
 20
-249.8204047619091
 30
0.0
 40
0.7717997786796373
100
AcDbArc
 50
321.8795802028437
 51
38.12041979715956
  0
ARC
  5
3DA
102
{ACAD_REACTORS
330
436
330
437
102
}
330
71
100
AcDbEntity
  8
0
  6
Continuous
 62
     2
100
AcDbCircle
 10
-233.49246901064
 20
-249.9771359400295
 30
0.0
 40
0.5179085730134372
100
AcDbArc
 50
218.1204197971511
 51
321.8795802028566
  0
ARC
  5
3DB
102
{ACAD_REACTORS
330
434
330
435
102
}
330
71
100
AcDbEntity
  8
0
  6
Continuous
 62
     2
100
AcDbCircle
 10
-237.1724765996002
 20
-253.1795952380834
 30
0.0
 40
1.458034083652003
100
AcDbArc
 50
297.548148175701
 51
62.45185182429896
  0
ARC
  5
3DC
102
{ACAD_REACTORS
330
434
330
435
102
}
330
71
100
AcDbEntity
  8
0
  6
Continuous
 62
     2
100
AcDbCircle
 10
-237.7343563832668
 20
-253.1795952380834
 30
0.0
 40
1.45803408365149
100
AcDbArc
 50
117.5481481756624
 51
242.4518518243375
  0
ARC
  5
3DD
102
{ACAD_REACTORS
330
434
330
435
102
}
330
71
100
AcDbEntity
  8
0
  6
Continuous
 62
     2
100
AcDbCircle
 10
-237.4534164914335
 20
-253.7181702483862
 30
0.0
 40
2.065479772208568
100
AcDbArc
 50
62.45185182430637
 51
117.5481481756664
  0
ARC
  5
3DE
102
{ACAD_REACTORS
330
434
330
435
102
}
330
71
100
AcDbEntity
  8
0
  6
Continuous
 62
     2
100
AcDbCircle
 10
-237.4534164914335
 20
-252.6410202277801
 30
0.0
 40
2.065479772208509
100
AcDbArc
 50
242.4518518243402
 51
297.5481481756871
  0
ARC
  5
3DF
102
{ACAD_REACTORS
330
436
330
437
102
}
330
71
100
AcDbEntity
  8
0
  6
Continuous
 62
     2
100
AcDbCircle
 10
-233.2927289742937
 20
-249.8204047619091
 30
0.0
 40
0.7717997786796724
100
AcDbArc
 50
141.8795802028404
 51
218.1204197971562
  0
ARC
  5
3E0
102
{ACAD_REACTORS
330
436
330
437
102
}
330
71
100
AcDbEntity
  8
0
  6
Continuous
 62
     2
100
AcDbCircle
 10
-233.49246901064
 20
-249.6636735837886
 30
0.0
 40
0.5179085730135266
100
AcDbArc
 50
38.12041979714334
 51
141.8795802028489
  0
ARC
  5
3E1
102
{ACAD_REACTORS
330
438
330
439
102
}
330
71
100
AcDbEntity
  8
0
  6
Continuous
 62
     2
100
AcDbCircle
 10
-248.3839050247945
 20
-254.2822553846054
 30
0.0
 40
0.4242446153828041
100
AcDbArc
 50
180.0
 51
270.0
  0
ARC
  5
3E2
102
{ACAD_REACTORS
330
438
330
439
102
}
330
71
100
AcDbEntity
  8
0
  6
Continuous
 62
     2
100
AcDbCircle
 10
-246.3141770870384
 20
-252.1474565898235
 30
0.0
 40
0.315716923076593
100
AcDbArc
 50
0.0
 51
64.80558935146027
  0
ARC
  5
3E3
102
{ACAD_REACTORS
330
438
330
439
102
}
330
71
100
AcDbEntity
  8
0
  6
Continuous
 62
     2
100
AcDbCircle
 10
-245.7915926394634
 20
-251.0366268437607
 30
0.0
 40
0.9118975235576147
100
AcDbArc
 50
115.1944106485282
 51
244.8055893514878
  0
ARC
  5
3E4
102
{ACAD_REACTORS
330
438
330
439
102
}
330
71
100
AcDbEntity
  8
0
  6
Continuous
 62
     2
100
AcDbCircle
 10
-247.790010348048
 20
-249.321772478638
 30
0.0
 40
0.3157169230761951
100
AcDbArc
 50
90.0
 51
180.0
  0
ARC
  5
3E5
102
{ACAD_REACTORS
330
432
330
433
102
}
330
71
100
AcDbEntity
  8
0
  6
Continuous
 62
     2
100
AcDbCircle
 10
-240.451431766031
 20
-249.3094696701144
 30
0.0
 40
0.3528638246711182
100
AcDbArc
 50
270.0
 51
90.0
  0
ARC
  5
3E6
102
{ACAD_REACTORS
330
436
330
437
102
}
330
71
100
AcDbEntity
  8
0
  6
Continuous
 62
     2
100
AcDbCircle
 10
-233.7087410208052
 20
-249.8204047619091
 30
0.0
 40
1.526904761905882
100
AcDbArc
 50
90.0
 51
270.0
  0
ARC
  5
3E7
102
{ACAD_REACTORS
330
43A
330
43B
102
}
330
71
100
AcDbEntity
  8
0
  6
Continuous
 62
     2
100
AcDbCircle
 10
-224.2817459281015
 20
-253.2923856001183
 30
0.0
 40
1.639695123940214
100
AcDbArc
 50
90.0
 51
164.938108222895
  0
ARC
  5
3E8
102
{ACAD_REACTORS
330
43A
330
43B
102
}
330
71
100
AcDbEntity
  8
0
  6
Continuous
 62
     2
100
AcDbCircle
 10
-224.7008737715631
 20
-253.1795952380834
 30
0.0
 40
1.205656168393002
100
AcDbArc
 50
164.9381082229028
 51
195.0618917770959
  0
ARC
  5
3E9
102
{ACAD_REACTORS
330
43A
330
43B
102
}
330
71
100
AcDbEntity
  8
0
  6
Continuous
 62
     2
100
AcDbCircle
 10
-224.1510014467857
 20
-253.3846666674219
 30
0.0
 40
0.5115800601960215
100
AcDbArc
 50
208.5214732576866
 51
246.6277221118449
  0
ARC
  5
3EA
102
{ACAD_REACTORS
330
43A
330
43B
102
}
330
71
100
AcDbEntity
  8
0
  6
Continuous
 62
     2
100
AcDbCircle
 10
-224.1510014467857
 20
-252.9745238087444
 30
0.0
 40
0.5115800601944143
100
AcDbArc
 50
109.3371432194853
 51
151.4785267424225
  0
ARC
  5
3EB
102
{ACAD_REACTORS
330
438
330
439
102
}
330
71
100
AcDbEntity
  8
0
  6
Continuous
 62
     2
100
AcDbCircle
 10
-245.2144616615163
 20
-252.7276198504242
 30
0.0
 40
0.315716923076792
100
AcDbArc
 50
180.0
 51
269.8110329574542
  0
ARC
  5
3EC
102
{ACAD_REACTORS
330
438
330
439
102
}
330
71
100
AcDbEntity
  8
0
  6
Continuous
 62
     2
100
AcDbCircle
 10
-245.2088455262063
 20
-251.0247849028552
 30
0.0
 40
2.018561131933266
100
AcDbArc
 50
269.8110329575858
 51
90.18896704241416
  0
ARC
  5
3ED
102
{ACAD_REACTORS
330
438
330
439
102
}
330
71
100
AcDbEntity
  8
0
  6
Continuous
 62
     2
100
AcDbCircle
 10
-245.2144616615163
 20
-249.9274852437929
 30
0.0
 40
0.315716923076792
100
AcDbArc
 50
180.0
 51
244.6259913216482
  0
ARC
  5
3EE
102
{ACAD_REACTORS
330
438
330
439
102
}
330
71
100
AcDbEntity
  8
0
  6
Continuous
 62
     2
100
AcDbCircle
 10
-245.2144616615163
 20
-252.1457684437291
 30
0.0
 40
0.3157169230765328
100
AcDbArc
 50
115.3740086783519
 51
180.0
  0
ARC
  5
3EF
102
{ACAD_REACTORS
330
43C
330
43D
102
}
330
71
100
AcDbEntity
  8
0
  6
Continuous
 62
     2
100
AcDbCircle
 10
-240.3844474073544
 20
-253.2923856001183
 30
0.0
 40
1.639695123940507
100
AcDbArc
 50
84.84185523036236
 51
164.9381082228864
  0
ARC
  5
3F0
102
{ACAD_REACTORS
330
43C
330
43D
102
}
330
71
100
AcDbEntity
  8
0
  6
Continuous
 62
     2
100
AcDbCircle
 10
-240.8035752508172
 20
-253.1795952380834
 30
0.0
 40
1.205656168390944
100
AcDbArc
 50
164.9381082228765
 51
195.0618917770948
  0
ARC
  5
3F1
102
{ACAD_REACTORS
330
43C
330
43D
102
}
330
71
100
AcDbEntity
  8
0
  6
Continuous
 62
     2
100
AcDbCircle
 10
-240.3844474073544
 20
-253.0668048760486
 30
0.0
 40
1.639695123939387
100
AcDbArc
 50
195.0618917770896
 51
275.1581447696395
  0
ARC
  5
3F2
102
{ACAD_REACTORS
330
43C
330
43D
102
}
330
71
100
AcDbEntity
  8
0
  6
Continuous
 62
     2
100
AcDbCircle
 10
-240.6733035020903
 20
-249.866914292827
 30
0.0
 40
4.852596863498138
100
AcDbArc
 50
275.1581447696249
 51
285.9799912583529
  0
ARC
  5
3F3
102
{ACAD_REACTORS
330
43C
330
43D
102
}
330
71
100
AcDbEntity
  8
0
  6
Continuous
 62
     2
100
AcDbCircle
 10
-239.8763456679583
 20
-253.1795952380834
 30
0.0
 40
0.9410597353332545
100
AcDbArc
 50
151.4785267422669
 51
208.5214732577057
  0
ARC
  5
3F4
102
{ACAD_REACTORS
330
43C
330
43D
102
}
330
71
100
AcDbEntity
  8
0
  6
Continuous
 62
     2
100
AcDbCircle
 10
-240.2537029260386
 20
-252.9745238087444
 30
0.0
 40
0.5115800601948779
100
AcDbArc
 50
113.3722778881992
 51
151.4785267423044
  0
ARC
  5
3F5
102
{ACAD_REACTORS
330
43C
330
43D
102
}
330
71
100
AcDbEntity
  8
0
  6
Continuous
 62
     2
100
AcDbCircle
 10
-240.5154306269974
 20
-254.5900616034916
 30
0.0
 40
2.227384008973478
100
AcDbArc
 50
58.06909105004071
 51
71.55192388186722
  0
ARC
  5
3F6
102
{ACAD_REACTORS
330
434
330
435
102
}
330
71
100
AcDbEntity
  8
0
  6
Continuous
 62
     2
100
AcDbCircle
 10
-237.4534164914335
 20
-253.0228640599629
 30
0.0
 40
0.5179085730132998
100
AcDbArc
 50
38.12041979714704
 51
141.8795802028588
  0
ARC
  5
3F7
102
{ACAD_REACTORS
330
434
330
435
102
}
330
71
100
AcDbEntity
  8
0
  6
Continuous
 62
     2
100
AcDbCircle
 10
-237.2536764550874
 20
-253.1795952380834
 30
0.0
 40
0.7717997786794633
100
AcDbArc
 50
141.8795802028363
 51
218.1204197971687
  0
ARC
  5
3F8
102
{ACAD_REACTORS
330
434
330
435
102
}
330
71
100
AcDbEntity
  8
0
  6
Continuous
 62
     2
100
AcDbCircle
 10
-237.4534164914335
 20
-253.3363264162034
 30
0.0
 40
0.5179085730137354
100
AcDbArc
 50
218.1204197971931
 51
321.879580202801
  0
ARC
  5
3F9
102
{ACAD_REACTORS
330
434
330
435
102
}
330
71
100
AcDbEntity
  8
0
  6
Continuous
 62
     2
100
AcDbCircle
 10
-237.6531565277799
 20
-253.1795952380834
 30
0.0
 40
0.7717997786796947
100
AcDbArc
 50
321.8795802028417
 51
38.12041979715329
  0
CIRCLE
  5
3FA
330
71
100
AcDbEntity
  8
1
  6
Continuous
 62
     2
100
AcDbCircle
 10
-240.3081496401773
 20
-240.8750000000051
 30
0.0
 40
2.5
  0
CIRCLE
  5
3FB
330
71
100
AcDbEntity
  8
1
  6
Continuous
 62
     2
100
AcDbCircle
 10
-240.3081496401773
 20
-240.8750000000051
 30
0.0
 40
1.249999999999915
  0
CIRCLE
  5
3FC
102
{ACAD_REACTORS
330
438
330
439
102
}
330
71
100
AcDbEntity
  8
0
  6
Continuous
 62
     2
100
AcDbCircle
 10
-245.764319374277
 20
-251.0366268437607
 30
0.0
 40
0.4709789327785074
  0
MTEXT
  5
3FD
330
71
100
AcDbEntity
  8
1
 62
     3
100
AcDbMText
 10
-410.4949322139181
 20
-75.20869184470621
 30
0.0
 40
1.8
 41
0.0
 71
     7
 72
     1
  3
Weitergabe sowie Vervielf\U+00e4ltigung dieses Dokuments, Verwertung und \PMitteilung seines Inhalts sind verboten, soweit nicht ausdr\U+00fccklich gestattet. \PZuwiderhandlungen verpflichten zu Schadenersatz. Alle Rechte f\U+00fcr den Fall\Pder Pat
  1
ent-, Gebrauchsmuster- oder Designeintragung vorbehalten.
  7
CONVERTER_11
 73
     1
 44
0.99639855942377
  0
MTEXT
  5
3FE
330
71
100
AcDbEntity
  8
1
 62
     3
100
AcDbMText
 10
-227.64182237513
 20
-75.20869184470621
 30
0.0
 40
1.8
 41
0.0
 71
     7
 72
     1
  3
Transfer or duplication of this document as well as the utilisation or\Pcommunication of its content are not permitted unless express consent\Pis granted. Violations give rise to claims for damages. All rights reserved\Pin case of patent, utility mo
  1
del or design patent registrations.
  7
CONVERTER_11
 73
     1
 44
0.99639855942377
  0
TEXT
  5
3FF
330
71
100
AcDbEntity
  8
1
 62
     2
100
AcDbText
 10
-233.8448045267401
 20
-260.7590172149966
 30
0.0
 40
1.8
  1
of
 41
0.9
  7
CONVERTER_11
100
AcDbText
  0
TEXT
  5
400
330
71
100
AcDbEntity
  8
1
 62
     2
100
AcDbText
 10
-252.0448045267399
 20
-260.7590172149967
 30
0.0
 40
1.8
  1
page
 41
0.9
  7
CONVERTER_11
100
AcDbText
  0
TEXT
  5
401
330
71
100
AcDbEntity
  8
1
 62
     2
100
AcDbText
 10
-243.3985395563979
 20
-260.799248653807
 30
0.0
 40
1.8
  1
1
 41
0.9
  7
CONVERTER_11
100
AcDbText
  0
TEXT
  5
402
330
71
100
AcDbEntity
  8
1
 62
     2
100
AcDbText
 10
-228.6094957169264
 20
-260.7500000000051
 30
0.0
 40
1.8
  1
1
 41
0.9
  7
CONVERTER_11
100
AcDbText
  0
MTEXT
  5
404
330
71
100
AcDbEntity
  8
1
 62
     7
100
AcDbMText
 10
-170.0724022633644
 20
-258.7500000000048
 30
0.0
 40
3.0
 41
0.0
 71
     5
 72
     1
  1
OTTA 25 M6 PH3
  7
CONVERTER_12
 73
     1
 44
1.20048019207683
  0
MTEXT
  5
405
330
71
100
AcDbEntity
  8
1
 62
     2
100
AcDbMText
 10
-215.64480452674
 20
-254.500000000005
 30
0.0
 40
1.8
 41
0.0
 71
     1
 72
     1
  1
description
  7
CONVERTER_11
 73
     1
 44
1.20048019207683
  0
MTEXT
  5
406
330
71
100
AcDbEntity
  8
1
 62
     3
100
AcDbMText
 10
-226.84480452674
 20
-240.875000000005
 30
0.0
 40
2.5
 41
0.0
 71
     5
 72
     1
  1
DIN A4
  7
CONVERTER_11
 73
     1
 44
1.20048019207683
  0
MTEXT
  5
407
330
71
100
AcDbEntity
  8
1
 62
     7
100
AcDbMText
 10
-412.999999999989
 20
-239.500000000005
 30
0.0
 40
3.5
 41
0.0
 71
     5
 72
     1
  1
D
  7
CONVERTER_11
 73
     1
 44
1.20048019207683
  0
MTEXT
  5
408
330
71
100
AcDbEntity
  8
1
 62
     7
100
AcDbMText
 10
-412.999999999989
 20
-187.000000000005
 30
0.0
 40
3.5
 41
0.0
 71
     5
 72
     1
  1
C
  7
CONVERTER_11
 73
     1
 44
1.20048019207683
  0
MTEXT
  5
409
330
71
100
AcDbEntity
  8
1
 62
     7
100
AcDbMText
 10
-412.999999999989
 20
-137.000000000005
 30
0.0
 40
3.5
 41
0.0
 71
     5
 72
     1
  1
B
  7
CONVERTER_11
 73
     1
 44
1.20048019207683
  0
MTEXT
  5
40A
330
71
100
AcDbEntity
  8
1
 62
     7
100
AcDbMText
 10
-412.999999999989
 20
-84.500000000005
 30
0.0
 40
3.5
 41
0.0
 71
     5
 72
     1
  1
A
  7
CONVERTER_11
 73
     1
 44
1.20048019207683
  0
MTEXT
  5
40B
330
71
100
AcDbEntity
  8
1
 62
     7
100
AcDbMText
 10
-142.7499999999907
 20
-264.5000000000051
 30
0.0
 40
3.5
 41
0.0
 71
     5
 72
     1
  1
6
  7
CONVERTER_11
 73
     1
 44
1.20048019207683
  0
MTEXT
  5
40C
330
71
100
AcDbEntity
  8
1
 62
     7
100
AcDbMText
 10
-191.9999999999899
 20
-264.5000000000051
 30
0.0
 40
3.5
 41
0.0
 71
     5
 72
     1
  1
5
  7
CONVERTER_11
 73
     1
 44
1.20048019207683
  0
MTEXT
  5
40D
330
71
100
AcDbEntity
  8
1
 62
     7
100
AcDbMText
 10
-241.99999999999
 20
-264.5000000000051
 30
0.0
 40
3.5
 41
0.0
 71
     5
 72
     1
  1
4
  7
CONVERTER_11
 73
     1
 44
1.20048019207683
  0
MTEXT
  5
40E
330
71
100
AcDbEntity
  8
1
 62
     7
100
AcDbMText
 10
-291.9999999999899
 20
-264.5000000000051
 30
0.0
 40
3.5
 41
0.0
 71
     5
 72
     1
  1
3
  7
CONVERTER_11
 73
     1
 44
1.20048019207683
  0
MTEXT
  5
40F
330
71
100
AcDbEntity
  8
1
 62
     7
100
AcDbMText
 10
-341.9999999999899
 20
-264.5000000000051
 30
0.0
 40
3.5
 41
0.0
 71
     5
 72
     1
  1
2
  7
CONVERTER_11
 73
     1
 44
1.20048019207683
  0
MTEXT
  5
410
330
71
100
AcDbEntity
  8
1
 62
     7
100
AcDbMText
 10
-391.2499999999895
 20
-264.5000000000051
 30
0.0
 40
3.5
 41
0.0
 71
     5
 72
     1
  1
1
  7
CONVERTER_11
 73
     1
 44
1.20048019207683
  0
MTEXT
  5
411
330
71
100
AcDbEntity
  8
1
 62
     7
100
AcDbMText
 10
-120.9999999999909
 20
-239.500000000005
 30
0.0
 40
3.5
 41
0.0
 71
     5
 72
     1
  1
D
  7
CONVERTER_11
 73
     1
 44
1.20048019207683
  0
MTEXT
  5
412
330
71
100
AcDbEntity
  8
1
 62
     7
100
AcDbMText
 10
-120.9999999999909
 20
-137.0000000000031
 30
0.0
 40
3.5
 41
0.0
 71
     5
 72
     1
  1
B
  7
CONVERTER_11
 73
     1
 44
1.20048019207683
  0
MTEXT
  5
413
330
71
100
AcDbEntity
  8
1
 62
     7
100
AcDbMText
 10
-120.9999999999909
 20
-84.500000000005
 30
0.0
 40
3.5
 41
0.0
 71
     5
 72
     1
  1
A
  7
CONVERTER_11
 73
     1
 44
1.20048019207683
  0
MTEXT
  5
414
330
71
100
AcDbEntity
  8
1
 62
     7
100
AcDbMText
 10
-120.9999999999909
 20
-187.0000000000031
 30
0.0
 40
3.5
 41
0.0
 71
     5
 72
     1
  1
C
  7
CONVERTER_11
 73
     1
 44
1.20048019207683
  0
MTEXT
  5
415
330
71
100
AcDbEntity
  8
1
 62
     2
100
AcDbMText
 10
-287.4828192517874
 20
-249.2500000000051
 30
0.0
 40
2.0
 41
0.0
 71
     5
 72
     1
  1
General Information\P- Simplified representation\P- Document excluded from change process\P- Linear dimensions [mm]
  7
CONVERTER_11
 73
     1
 44
1.20048019207683
  0
TEXT
  5
416
330
71
100
AcDbEntity
  8
1
 62
     7
100
AcDbText
 10
-215.1448045267402
 20
-252.2000000000051
 30
0.0
 40
2.5
  1
0713122
 41
0.81
  7
CONVERTER_12
100
AcDbText
  0
MTEXT
  5
417
330
71
100
AcDbEntity
  8
1
 62
     2
100
AcDbMText
 10
-215.5448045267399
 20
-246.000000000005
 30
0.0
 40
1.8
 41
0.0
 71
     1
 72
     1
  1
ident.-No.
  7
CONVERTER_11
 73
     1
 44
1.20048019207683
  0
MTEXT
  5
418
330
71
100
AcDbEntity
  8
1
 62
     2
100
AcDbMText
 10
-131.3184082816672
 20
-237.500000000005
 30
0.0
 40
1.8
 41
0.0
 71
     1
 72
     1
  1
scale
  7
CONVERTER_11
 73
     1
 44
1.20048019207683
  0
MTEXT
  5
41A
330
71
100
AcDbEntity
  8
1
 62
     3
100
AcDbMText
 10
-127.9592041408276
 20
-243.7000000000049
 30
0.0
 40
2.5
 41
0.0
 71
     8
 72
     1
  1
1:1
  7
CONVERTER_13
 73
     1
 44
1.32052821128451
  0
TEXT
  5
41B
330
71
100
AcDbEntity
  8
1
 62
     7
100
AcDbText
 10
-215.5448045267399
 20
-243.7000000000051
 30
0.0
 40
2.5
  1
01094374
 41
0.81
  7
CONVERTER_12
100
AcDbText
  0
MTEXT
  5
41D
330
71
100
AcDbEntity
  8
1
 62
     2
100
AcDbMText
 10
-215.5448045267399
 20
-237.500000000005
 30
0.0
 40
1.8
 41
0.0
 71
     1
 72
     1
  1
document-No. / RI
  7
CONVERTER_14
 73
     1
 44
1.32052821128451
  0
TEXT
  5
41E
330
71
100
AcDbEntity
  8
1
 62
     3
100
AcDbText
 10
-187.7448045267399
 20
-252.2000000000051
 30
0.0
 40
2.5
  1
TECDOC 2D_Productdrawing
 41
0.81
  7
CONVERTER_12
100
AcDbText
  0
MTEXT
  5
41F
330
71
100
AcDbEntity
  8
1
 62
     2
100
AcDbMText
 10
-187.7448045267399
 20
-246.0000000000051
 30
0.0
 40
1.8
 41
0.0
 71
     1
 72
     1
  1
document-type
  7
CONVERTER_11
 73
     1
 44
1.20048019207683
  0
MTEXT
  5
420
330
71
100
AcDbEntity
  8
1
 62
     2
100
AcDbMText
 10
-157.918408281667
 20
-237.5000000000051
 30
0.0
 40
1.8
 41
0.0
 71
     1
 72
     1
  1
date
  7
CONVERTER_11
 73
     1
 44
1.32052821128451
  0
TEXT
  5
421
330
71
100
AcDbEntity
  8
1
 62
     3
100
AcDbText
 10
-157.918408281667
 20
-243.7000000000051
 30
0.0
 40
2.5
  1
14.12.2017
 41
0.81
  7
CONVERTER_12
100
AcDbText
  0
TEXT
  5
422
330
71
100
AcDbEntity
  8
1
 62
     7
100
AcDbText
 10
-195.5148923076841
 20
-243.7000000000051
 30
0.0
 40
2.5
  1
00
 41
0.81
  7
CONVERTER_12
100
AcDbText
  0
TEXT
  5
423
330
71
100
AcDbEntity
  8
1
 62
     7
100
AcDbText
 10
-197.6712568047261
 20
-243.7000000000051
 30
0.0
 40
2.5
  1
/
 41
0.9
  7
CONVERTER_11
100
AcDbText
  0
HATCH
  5
424
330
71
100
AcDbEntity
  8
1
  6
Continuous
 62
     2
100
AcDbHatch
 10
0.0
 20
0.0
 30
0.0
210
0.0
220
0.0
230
1.0
  2
_USER
 70
     0
 71
     1
 91
        1
 92
        1
 93
       12
 72
     1
 10
-235.3773038137788
 20
-251.3473095238144
 11
-236.5700965159452
 21
-251.3473095238144
 72
     1
 10
-236.5700965159452
 20
-251.3473095238144
 11
-236.5700965159452
 21
-250.2130374149706
 72
     1
 10
-236.5700965159452
 20
-250.2130374149706
 11
-237.6197540938527
 21
-250.2130374149706
 72
     1
 10
-237.6197540938527
 20
-250.2130374149706
 11
-237.6197540938527
 21
-251.3473095238144
 72
     1
 10
-237.6197540938527
 20
-251.3473095238144
 11
-238.8125467960193
 21
-251.3473095238144
 72
     1
 10
-238.8125467960193
 20
-251.3473095238144
 11
-238.8125467960193
 21
-248.2935000000032
 72
     1
 10
-238.8125467960193
 20
-248.2935000000032
 11
-237.6197540938527
 21
-248.2935000000032
 72
     1
 10
-237.6197540938527
 20
-248.2935000000032
 11
-237.6197540938527
 21
-249.3623333333378
 72
     1
 10
-237.6197540938527
 20
-249.3623333333378
 11
-236.5700965159452
 21
-249.3623333333378
 72
     1
 10
-236.5700965159452
 20
-249.3623333333378
 11
-236.5700965159452
 21
-248.2935000000032
 72
     1
 10
-236.5700965159452
 20
-248.2935000000032
 11
-235.3773038137788
 21
-248.2935000000032
 72
     1
 10
-235.3773038137788
 20
-248.2935000000032
 11
-235.3773038137788
 21
-251.3473095238144
 97
       12
330
391
330
392
330
37C
330
37B
330
37A
330
38E
330
379
330
38F
330
390
330
378
330
377
330
376
 75
     1
 76
     0
 52
45.0
 41
0.1
 77
     0
 78
     1
 53
45.0
 43
0.0
 44
0.0
 45
-0.0707106781186548
 46
0.0707106781186548
 79
     0
 98
        1
 10
0.0
 20
0.0
  0
HATCH
  5
425
330
71
100
AcDbEntity
  8
1
  6
Continuous
 62
     2
100
AcDbHatch
 10
0.0
 20
0.0
 30
0.0
210
0.0
220
0.0
230
1.0
  2
_USER
 70
     0
 71
     1
 91
        1
 92
        1
 93
       12
 72
     1
 10
-235.3773038137788
 20
-251.3473095238144
 11
-236.5700965159452
 21
-251.3473095238144
 72
     1
 10
-236.5700965159452
 20
-251.3473095238144
 11
-236.5700965159452
 21
-250.2130374149706
 72
     1
 10
-236.5700965159452
 20
-250.2130374149706
 11
-237.6197540938527
 21
-250.2130374149706
 72
     1
 10
-237.6197540938527
 20
-250.2130374149706
 11
-237.6197540938527
 21
-251.3473095238144
 72
     1
 10
-237.6197540938527
 20
-251.3473095238144
 11
-238.8125467960193
 21
-251.3473095238144
 72
     1
 10
-238.8125467960193
 20
-251.3473095238144
 11
-238.8125467960193
 21
-248.2935000000032
 72
     1
 10
-238.8125467960193
 20
-248.2935000000032
 11
-237.6197540938527
 21
-248.2935000000032
 72
     1
 10
-237.6197540938527
 20
-248.2935000000032
 11
-237.6197540938527
 21
-249.3623333333378
 72
     1
 10
-237.6197540938527
 20
-249.3623333333378
 11
-236.5700965159452
 21
-249.3623333333378
 72
     1
 10
-236.5700965159452
 20
-249.3623333333378
 11
-236.5700965159452
 21
-248.2935000000032
 72
     1
 10
-236.5700965159452
 20
-248.2935000000032
 11
-235.3773038137788
 21
-248.2935000000032
 72
     1
 10
-235.3773038137788
 20
-248.2935000000032
 11
-235.3773038137788
 21
-251.3473095238144
 97
       12
330
391
330
392
330
37C
330
37B
330
37A
330
38E
330
379
330
38F
330
390
330
378
330
377
330
376
 75
     1
 76
     0
 52
45.0
 41
0.1
 77
     0
 78
     1
 53
45.0
 43
0.0
 44
0.0
 45
-0.0707106781186548
 46
0.0707106781186548
 79
     0
 98
        1
 10
0.0
 20
0.0
  0
HATCH
  5
426
330
71
100
AcDbEntity
  8
1
  6
Continuous
 62
     2
100
AcDbHatch
 10
0.0
 20
0.0
 30
0.0
210
0.0
220
0.0
230
1.0
  2
_USER
 70
     0
 71
     1
 91
        1
 92
        1
 93
       10
 72
     1
 10
-233.1350044645905
 20
-252.9614659863827
 11
-234.3755088748434
 21
-251.6526904761776
 72
     1
 10
-234.3755088748434
 20
-251.6526904761776
 11
-235.568301577011
 21
-251.6526904761776
 72
     1
 10
-235.568301577011
 20
-251.6526904761776
 11
-235.568301577011
 21
-254.7064999999887
 72
     1
 10
-235.568301577011
 20
-254.7064999999887
 11
-234.3755088748434
 21
-254.7064999999887
 72
     1
 10
-234.3755088748434
 20
-254.7064999999887
 11
-234.3755088748434
 21
-253.3977244897841
 72
     1
 10
-234.3755088748434
 20
-253.3977244897841
 11
-233.1350044645905
 21
-254.7064999999887
 72
     1
 10
-233.1350044645905
 20
-254.7064999999887
 11
-231.9422117624241
 21
-254.7064999999887
 72
     1
 10
-231.9422117624241
 20
-254.7064999999887
 11
-231.9422117624241
 21
-251.6526904761776
 72
     1
 10
-231.9422117624241
 20
-251.6526904761776
 11
-233.1350044645905
 21
-251.6526904761776
 72
     1
 10
-233.1350044645905
 20
-251.6526904761776
 11
-233.1350044645905
 21
-252.9614659863827
 97
       10
330
39F
330
36F
330
36E
330
371
330
39A
330
39B
330
370
330
39C
330
39D
330
39E
 75
     1
 76
     0
 52
45.0
 41
0.1
 77
     0
 78
     1
 53
45.0
 43
0.0
 44
0.0
 45
-0.0707106781186548
 46
0.0707106781186548
 79
     0
 98
        1
 10
0.0
 20
0.0
  0
HATCH
  5
427
330
71
100
AcDbEntity
  8
1
  6
Continuous
 62
     2
100
AcDbHatch
 10
0.0
 20
0.0
 30
0.0
210
0.0
220
0.0
230
1.0
  2
_USER
 70
     0
 71
     1
 91
        1
 92
        1
 93
       10
 72
     1
 10
-233.1350044645905
 20
-252.9614659863827
 11
-234.3755088748434
 21
-251.6526904761776
 72
     1
 10
-234.3755088748434
 20
-251.6526904761776
 11
-235.568301577011
 21
-251.6526904761776
 72
     1
 10
-235.568301577011
 20
-251.6526904761776
 11
-235.568301577011
 21
-254.7064999999887
 72
     1
 10
-235.568301577011
 20
-254.7064999999887
 11
-234.3755088748434
 21
-254.7064999999887
 72
     1
 10
-234.3755088748434
 20
-254.7064999999887
 11
-234.3755088748434
 21
-253.3977244897841
 72
     1
 10
-234.3755088748434
 20
-253.3977244897841
 11
-233.1350044645905
 21
-254.7064999999887
 72
     1
 10
-233.1350044645905
 20
-254.7064999999887
 11
-231.9422117624241
 21
-254.7064999999887
 72
     1
 10
-231.9422117624241
 20
-254.7064999999887
 11
-231.9422117624241
 21
-251.6526904761776
 72
     1
 10
-231.9422117624241
 20
-251.6526904761776
 11
-233.1350044645905
 21
-251.6526904761776
 72
     1
 10
-233.1350044645905
 20
-251.6526904761776
 11
-233.1350044645905
 21
-252.9614659863827
 97
       10
330
39F
330
36F
330
36E
330
371
330
39A
330
39B
330
370
330
39C
330
39D
330
39E
 75
     1
 76
     0
 52
45.0
 41
0.1
 77
     0
 78
     1
 53
45.0
 43
0.0
 44
0.0
 45
-0.0707106781186548
 46
0.0707106781186548
 79
     0
 98
        1
 10
0.0
 20
0.0
  0
HATCH
  5
428
330
71
100
AcDbEntity
  8
1
  6
Continuous
 62
     2
100
AcDbHatch
 10
0.0
 20
0.0
 30
0.0
210
0.0
220
0.0
230
1.0
  2
_USER
 70
     0
 71
     1
 91
        1
 92
        1
 93
       10
 72
     1
 10
-227.8865656441708
 20
-249.6022755102084
 11
-229.1270700544248
 21
-248.2935000000032
 72
     1
 10
-229.1270700544248
 20
-248.2935000000032
 11
-230.3198627565913
 21
-248.2935000000032
 72
     1
 10
-230.3198627565913
 20
-248.2935000000032
 11
-230.3198627565913
 21
-251.3473095238144
 72
     1
 10
-230.3198627565913
 20
-251.3473095238144
 11
-229.1270700544248
 21
-251.3473095238144
 72
     1
 10
-229.1270700544248
 20
-251.3473095238144
 11
-229.1270700544248
 21
-250.0385340136097
 72
     1
 10
-229.1270700544248
 20
-250.0385340136097
 11
-227.8865656441708
 21
-251.3473095238144
 72
     1
 10
-227.8865656441708
 20
-251.3473095238144
 11
-226.6937729420042
 21
-251.3473095238144
 72
     1
 10
-226.6937729420042
 20
-251.3473095238144
 11
-226.6937729420042
 21
-248.2935000000032
 72
     1
 10
-226.6937729420042
 20
-248.2935000000032
 11
-227.8865656441708
 21
-248.2935000000032
 72
     1
 10
-227.8865656441708
 20
-248.2935000000032
 11
-227.8865656441708
 21
-249.6022755102084
 97
       10
330
3A4
330
36C
330
36B
330
3A5
330
36A
330
3A0
330
3A1
330
3A2
330
3A3
330
36D
 75
     1
 76
     0
 52
45.0
 41
0.1
 77
     0
 78
     1
 53
45.0
 43
0.0
 44
0.0
 45
-0.0707106781186548
 46
0.0707106781186548
 79
     0
 98
        1
 10
0.0
 20
0.0
  0
HATCH
  5
429
330
71
100
AcDbEntity
  8
1
  6
Continuous
 62
     2
100
AcDbHatch
 10
0.0
 20
0.0
 30
0.0
210
0.0
220
0.0
230
1.0
  2
_USER
 70
     0
 71
     1
 91
        1
 92
        1
 93
       10
 72
     1
 10
-227.8865656441708
 20
-249.6022755102084
 11
-229.1270700544248
 21
-248.2935000000032
 72
     1
 10
-229.1270700544248
 20
-248.2935000000032
 11
-230.3198627565913
 21
-248.2935000000032
 72
     1
 10
-230.3198627565913
 20
-248.2935000000032
 11
-230.3198627565913
 21
-251.3473095238144
 72
     1
 10
-230.3198627565913
 20
-251.3473095238144
 11
-229.1270700544248
 21
-251.3473095238144
 72
     1
 10
-229.1270700544248
 20
-251.3473095238144
 11
-229.1270700544248
 21
-250.0385340136097
 72
     1
 10
-229.1270700544248
 20
-250.0385340136097
 11
-227.8865656441708
 21
-251.3473095238144
 72
     1
 10
-227.8865656441708
 20
-251.3473095238144
 11
-226.6937729420042
 21
-251.3473095238144
 72
     1
 10
-226.6937729420042
 20
-251.3473095238144
 11
-226.6937729420042
 21
-248.2935000000032
 72
     1
 10
-226.6937729420042
 20
-248.2935000000032
 11
-227.8865656441708
 21
-248.2935000000032
 72
     1
 10
-227.8865656441708
 20
-248.2935000000032
 11
-227.8865656441708
 21
-249.6022755102084
 97
       10
330
3A4
330
36C
330
36B
330
3A5
330
36A
330
3A0
330
3A1
330
3A2
330
3A3
330
36D
 75
     1
 76
     0
 52
45.0
 41
0.1
 77
     0
 78
     1
 53
45.0
 43
0.0
 44
0.0
 45
-0.0707106781186548
 46
0.0707106781186548
 79
     0
 98
        1
 10
0.0
 20
0.0
  0
HATCH
  5
42A
330
71
100
AcDbEntity
  8
1
  6
Continuous
 62
     2
100
AcDbHatch
 10
0.0
 20
0.0
 30
0.0
210
0.0
220
0.0
230
1.0
  2
_USER
 70
     0
 71
     1
 91
        1
 92
        1
 93
        8
 72
     1
 10
-228.9840858610503
 20
-251.6526904761776
 11
-231.7990766381639
 21
-251.6526904761776
 72
     1
 10
-231.7990766381639
 20
-251.6526904761776
 11
-231.7990766381639
 21
-252.4379557823012
 72
     1
 10
-231.7990766381639
 20
-252.4379557823012
 11
-230.9879776006893
 21
-252.4379557823012
 72
     1
 10
-230.9879776006893
 20
-252.4379557823012
 11
-230.9879776006893
 21
-254.7064999999887
 72
     1
 10
-230.9879776006893
 20
-254.7064999999887
 11
-229.7951848985228
 21
-254.7064999999887
 72
     1
 10
-229.7951848985228
 20
-254.7064999999887
 11
-229.7951848985228
 21
-252.4379557823012
 72
     1
 10
-229.7951848985228
 20
-252.4379557823012
 11
-228.9840858610503
 21
-252.4379557823012
 72
     1
 10
-228.9840858610503
 20
-252.4379557823012
 11
-228.9840858610503
 21
-251.6526904761776
 97
        8
330
366
330
3A6
330
365
330
3A7
330
3A8
330
369
330
368
330
367
 75
     1
 76
     0
 52
45.0
 41
0.1
 77
     0
 78
     1
 53
45.0
 43
0.0
 44
0.0
 45
-0.0707106781186548
 46
0.0707106781186548
 79
     0
 98
        1
 10
0.0
 20
0.0
  0
HATCH
  5
42B
330
71
100
AcDbEntity
  8
1
  6
Continuous
 62
     2
100
AcDbHatch
 10
0.0
 20
0.0
 30
0.0
210
0.0
220
0.0
230
1.0
  2
_USER
 70
     0
 71
     1
 91
        1
 92
        1
 93
        8
 72
     1
 10
-228.9840858610503
 20
-251.6526904761776
 11
-231.7990766381639
 21
-251.6526904761776
 72
     1
 10
-231.7990766381639
 20
-251.6526904761776
 11
-231.7990766381639
 21
-252.4379557823012
 72
     1
 10
-231.7990766381639
 20
-252.4379557823012
 11
-230.9879776006893
 21
-252.4379557823012
 72
     1
 10
-230.9879776006893
 20
-252.4379557823012
 11
-230.9879776006893
 21
-254.7064999999887
 72
     1
 10
-230.9879776006893
 20
-254.7064999999887
 11
-229.7951848985228
 21
-254.7064999999887
 72
     1
 10
-229.7951848985228
 20
-254.7064999999887
 11
-229.7951848985228
 21
-252.4379557823012
 72
     1
 10
-229.7951848985228
 20
-252.4379557823012
 11
-228.9840858610503
 21
-252.4379557823012
 72
     1
 10
-228.9840858610503
 20
-252.4379557823012
 11
-228.9840858610503
 21
-251.6526904761776
 97
        8
330
366
330
3A6
330
365
330
3A7
330
3A8
330
369
330
368
330
367
 75
     1
 76
     0
 52
45.0
 41
0.1
 77
     0
 78
     1
 53
45.0
 43
0.0
 44
0.0
 45
-0.0707106781186548
 46
0.0707106781186548
 79
     0
 98
        1
 10
0.0
 20
0.0
  0
HATCH
  5
42C
330
71
100
AcDbEntity
  8
1
  6
Continuous
 62
     2
100
AcDbHatch
 10
0.0
 20
0.0
 30
0.0
210
0.0
220
0.0
230
1.0
  2
_USER
 70
     0
 71
     1
 91
        2
 92
        1
 93
        8
 72
     1
 10
-226.8456584051033
 20
-254.7064999999887
 11
-227.0571384585791
 21
-254.1655394557708
 72
     1
 10
-227.0571384585791
 20
-254.1655394557708
 11
-228.1895800352529
 21
-254.1655394557708
 72
     1
 10
-228.1895800352529
 20
-254.1655394557708
 11
-228.4010600887287
 21
-254.7064999999887
 72
     1
 10
-228.4010600887287
 20
-254.7064999999887
 11
-229.6415644989817
 21
-254.7064999999887
 72
     1
 10
-229.6415644989817
 20
-254.7064999999887
 11
-228.2436114520424
 21
-251.6526904761776
 72
     1
 10
-228.2436114520424
 20
-251.6526904761776
 11
-227.0031070417897
 21
-251.6526904761776
 72
     1
 10
-227.0031070417897
 20
-251.6526904761776
 11
-225.6051539948494
 21
-254.7064999999887
 72
     1
 10
-225.6051539948494
 20
-254.7064999999887
 11
-226.8456584051033
 21
-254.7064999999887
 97
        8
330
3AA
330
3AB
330
362
330
3AC
330
361
330
364
330
3A9
330
363
 92
       16
 93
        3
 72
     1
 10
-227.9235244841079
 20
-253.4849761904642
 11
-227.6233592469155
 21
-252.7171612244775
 72
     1
 10
-227.6233592469155
 20
-252.7171612244775
 11
-227.3231940097254
 21
-253.4849761904642
 72
     1
 10
-227.3231940097254
 20
-253.4849761904642
 11
-227.9235244841079
 21
-253.4849761904642
 97
        3
330
360
330
3AE
330
3AD
 75
     1
 76
     0
 52
45.0
 41
0.1
 77
     0
 78
     1
 53
45.0
 43
0.0
 44
0.0
 45
-0.0707106781186548
 46
0.0707106781186548
 79
     0
 98
        1
 10
0.0
 20
0.0
  0
HATCH
  5
42D
330
71
100
AcDbEntity
  8
1
  6
Continuous
 62
     2
100
AcDbHatch
 10
0.0
 20
0.0
 30
0.0
210
0.0
220
0.0
230
1.0
  2
_USER
 70
     0
 71
     1
 91
        2
 92
        1
 93
        8
 72
     1
 10
-226.8456584051033
 20
-254.7064999999887
 11
-227.0571384585791
 21
-254.1655394557708
 72
     1
 10
-227.0571384585791
 20
-254.1655394557708
 11
-228.1895800352529
 21
-254.1655394557708
 72
     1
 10
-228.1895800352529
 20
-254.1655394557708
 11
-228.4010600887287
 21
-254.7064999999887
 72
     1
 10
-228.4010600887287
 20
-254.7064999999887
 11
-229.6415644989817
 21
-254.7064999999887
 72
     1
 10
-229.6415644989817
 20
-254.7064999999887
 11
-228.2436114520424
 21
-251.6526904761776
 72
     1
 10
-228.2436114520424
 20
-251.6526904761776
 11
-227.0031070417897
 21
-251.6526904761776
 72
     1
 10
-227.0031070417897
 20
-251.6526904761776
 11
-225.6051539948494
 21
-254.7064999999887
 72
     1
 10
-225.6051539948494
 20
-254.7064999999887
 11
-226.8456584051033
 21
-254.7064999999887
 97
        8
330
3AA
330
3AB
330
362
330
3AC
330
361
330
364
330
3A9
330
363
 92
       16
 93
        3
 72
     1
 10
-227.9235244841079
 20
-253.4849761904642
 11
-227.6233592469155
 21
-252.7171612244775
 72
     1
 10
-227.6233592469155
 20
-252.7171612244775
 11
-227.3231940097254
 21
-253.4849761904642
 72
     1
 10
-227.3231940097254
 20
-253.4849761904642
 11
-227.9235244841079
 21
-253.4849761904642
 97
        3
330
360
330
3AE
330
3AD
 75
     1
 76
     0
 52
45.0
 41
0.1
 77
     0
 78
     1
 53
45.0
 43
0.0
 44
0.0
 45
-0.0707106781186548
 46
0.0707106781186548
 79
     0
 98
        1
 10
0.0
 20
0.0
  0
HATCH
  5
42E
330
71
100
AcDbEntity
  8
1
  6
Continuous
 62
     2
100
AcDbHatch
 10
0.0
 20
0.0
 30
0.0
210
0.0
220
0.0
230
1.0
  2
_USER
 70
     0
 71
     1
 91
        1
 92
        1
 93
        4
 72
     1
 10
-225.2147099913174
 20
-251.3473095238144
 11
-226.4552144015703
 21
-251.3473095238144
 72
     1
 10
-226.4552144015703
 20
-251.3473095238144
 11
-226.4552144015703
 21
-248.2935000000032
 72
     1
 10
-226.4552144015703
 20
-248.2935000000032
 11
-225.2147099913174
 21
-248.2935000000032
 72
     1
 10
-225.2147099913174
 20
-248.2935000000032
 11
-225.2147099913174
 21
-251.3473095238144
 97
        4
330
35D
330
35F
330
3AF
330
35E
 75
     1
 76
     0
 52
45.0
 41
0.1
 77
     0
 78
     1
 53
45.0
 43
0.0
 44
0.0
 45
-0.0707106781186548
 46
0.0707106781186548
 79
     0
 98
        1
 10
0.0
 20
0.0
  0
HATCH
  5
42F
330
71
100
AcDbEntity
  8
1
  6
Continuous
 62
     2
100
AcDbHatch
 10
0.0
 20
0.0
 30
0.0
210
0.0
220
0.0
230
1.0
  2
_USER
 70
     0
 71
     1
 91
        1
 92
        1
 93
        4
 72
     1
 10
-225.2147099913174
 20
-251.3473095238144
 11
-226.4552144015703
 21
-251.3473095238144
 72
     1
 10
-226.4552144015703
 20
-251.3473095238144
 11
-226.4552144015703
 21
-248.2935000000032
 72
     1
 10
-226.4552144015703
 20
-248.2935000000032
 11
-225.2147099913174
 21
-248.2935000000032
 72
     1
 10
-225.2147099913174
 20
-248.2935000000032
 11
-225.2147099913174
 21
-251.3473095238144
 97
        4
330
35D
330
35F
330
3AF
330
35E
 75
     1
 76
     0
 52
45.0
 41
0.1
 77
     0
 78
     1
 53
45.0
 43
0.0
 44
0.0
 45
-0.0707106781186548
 46
0.0707106781186548
 79
     0
 98
        1
 10
0.0
 20
0.0
  0
HATCH
  5
430
330
71
100
AcDbEntity
  8
1
  6
Continuous
 62
     2
100
AcDbHatch
 10
0.0
 20
0.0
 30
0.0
210
0.0
220
0.0
230
1.0
  2
_USER
 70
     0
 71
     1
 91
        1
 92
        1
 93
       12
 72
     1
 10
-220.9922238256466
 20
-248.2935000000032
 11
-222.2947534564131
 21
-249.7664505300394
 72
     1
 10
-222.2947534564131
 20
-249.7664505300394
 11
-220.8968004094728
 21
-251.3473095238144
 72
     1
 10
-220.8968004094728
 20
-251.3473095238144
 11
-222.2995246272211
 21
-251.3473095238144
 72
     1
 10
-222.2995246272211
 20
-251.3473095238144
 11
-222.9961155652866
 21
-250.5595777385207
 72
     1
 10
-222.9961155652866
 20
-250.5595777385207
 11
-223.6927065033523
 21
-251.3473095238144
 72
     1
 10
-223.6927065033523
 20
-251.3473095238144
 11
-225.0954307211005
 21
-251.3473095238144
 72
     1
 10
-225.0954307211005
 20
-251.3473095238144
 11
-223.6974776741602
 21
-249.7664505300394
 72
     1
 10
-223.6974776741602
 20
-249.7664505300394
 11
-225.0000073049277
 21
-248.2935000000032
 72
     1
 10
-225.0000073049277
 20
-248.2935000000032
 11
-223.5972830871784
 21
-248.2935000000032
 72
     1
 10
-223.5972830871784
 20
-248.2935000000032
 11
-222.9961155652866
 21
-248.9733233215587
 72
     1
 10
-222.9961155652866
 20
-248.9733233215587
 11
-222.3949480433938
 21
-248.2935000000032
 72
     1
 10
-222.3949480433938
 20
-248.2935000000032
 11
-220.9922238256466
 21
-248.2935000000032
 97
       12
330
358
330
357
330
356
330
3B3
330
3B4
330
3B0
330
3B1
330
35C
330
35B
330
35A
330
359
330
3B2
 75
     1
 76
     0
 52
45.0
 41
0.1
 77
     0
 78
     1
 53
45.0
 43
0.0
 44
0.0
 45
-0.0707106781186548
 46
0.0707106781186548
 79
     0
 98
        1
 10
0.0
 20
0.0
  0
HATCH
  5
431
330
71
100
AcDbEntity
  8
1
  6
Continuous
 62
     2
100
AcDbHatch
 10
0.0
 20
0.0
 30
0.0
210
0.0
220
0.0
230
1.0
  2
_USER
 70
     0
 71
     1
 91
        1
 92
        1
 93
       12
 72
     1
 10
-220.9922238256466
 20
-248.2935000000032
 11
-222.2947534564131
 21
-249.7664505300394
 72
     1
 10
-222.2947534564131
 20
-249.7664505300394
 11
-220.8968004094728
 21
-251.3473095238144
 72
     1
 10
-220.8968004094728
 20
-251.3473095238144
 11
-222.2995246272211
 21
-251.3473095238144
 72
     1
 10
-222.2995246272211
 20
-251.3473095238144
 11
-222.9961155652866
 21
-250.5595777385207
 72
     1
 10
-222.9961155652866
 20
-250.5595777385207
 11
-223.6927065033523
 21
-251.3473095238144
 72
     1
 10
-223.6927065033523
 20
-251.3473095238144
 11
-225.0954307211005
 21
-251.3473095238144
 72
     1
 10
-225.0954307211005
 20
-251.3473095238144
 11
-223.6974776741602
 21
-249.7664505300394
 72
     1
 10
-223.6974776741602
 20
-249.7664505300394
 11
-225.0000073049277
 21
-248.2935000000032
 72
     1
 10
-225.0000073049277
 20
-248.2935000000032
 11
-223.5972830871784
 21
-248.2935000000032
 72
     1
 10
-223.5972830871784
 20
-248.2935000000032
 11
-222.9961155652866
 21
-248.9733233215587
 72
     1
 10
-222.9961155652866
 20
-248.9733233215587
 11
-222.3949480433938
 21
-248.2935000000032
 72
     1
 10
-222.3949480433938
 20
-248.2935000000032
 11
-220.9922238256466
 21
-248.2935000000032
 97
       12
330
358
330
357
330
356
330
3B3
330
3B4
330
3B0
330
3B1
330
35C
330
35B
330
35A
330
359
330
3B2
 75
     1
 76
     0
 52
45.0
 41
0.1
 77
     0
 78
     1
 53
45.0
 43
0.0
 44
0.0
 45
-0.0707106781186548
 46
0.0707106781186548
 79
     0
 98
        1
 10
0.0
 20
0.0
  0
HATCH
  5
432
330
71
100
AcDbEntity
  8
1
  6
Continuous
 62
     2
100
AcDbHatch
 10
0.0
 20
0.0
 30
0.0
210
0.0
220
0.0
230
1.0
  2
_USER
 70
     0
 71
     1
 91
        2
 92
        1
 93
        6
 72
     1
 10
-240.0099592397926
 20
-250.4042312826706
 11
-240.7687268275729
 21
-250.4042312826706
 72
     1
 10
-240.7687268275729
 20
-250.4042312826706
 11
-240.7687268275729
 21
-251.3473095238144
 72
     1
 10
-240.7687268275729
 20
-251.3473095238144
 11
-242.009231237827
 21
-251.3473095238144
 72
     1
 10
-242.009231237827
 20
-251.3473095238144
 11
-242.009231237827
 21
-248.2935000000032
 72
     1
 10
-242.009231237827
 20
-248.2935000000032
 11
-240.0099592397926
 21
-248.2935000000032
 72
     2
 10
-240.0099592397926
 20
-249.3488656413369
 40
1.055365641333708
 50
270.0
 51
450.0
 73
     0
 97
        6
330
380
330
37F
330
38C
330
38B
330
381
330
3D1
 92
       16
 93
        4
 72
     2
 10
-240.451431766031
 20
-249.3094696701144
 40
0.3528638246711182
 50
270.0
 51
450.0
 73
     1
 72
     1
 10
-240.451431766031
 20
-248.9566058454433
 11
-240.7687268275729
 21
-248.9566058454433
 72
     1
 10
-240.7687268275729
 20
-248.9566058454433
 11
-240.7687268275729
 21
-249.6623334947855
 72
     1
 10
-240.7687268275729
 20
-249.6623334947855
 11
-240.451431766031
 21
-249.6623334947855
 97
        4
330
3E5
330
37D
330
38D
330
37E
 75
     1
 76
     0
 52
45.0
 41
0.1
 77
     0
 78
     1
 53
45.0
 43
0.0
 44
0.0
 45
-0.0707106781186548
 46
0.0707106781186548
 79
     0
 98
        1
 10
0.0
 20
0.0
  0
HATCH
  5
433
330
71
100
AcDbEntity
  8
1
  6
Continuous
 62
     2
100
AcDbHatch
 10
0.0
 20
0.0
 30
0.0
210
0.0
220
0.0
230
1.0
  2
_USER
 70
     0
 71
     1
 91
        2
 92
        1
 93
        6
 72
     1
 10
-240.0099592397926
 20
-250.4042312826706
 11
-240.7687268275729
 21
-250.4042312826706
 72
     1
 10
-240.7687268275729
 20
-250.4042312826706
 11
-240.7687268275729
 21
-251.3473095238144
 72
     1
 10
-240.7687268275729
 20
-251.3473095238144
 11
-242.009231237827
 21
-251.3473095238144
 72
     1
 10
-242.009231237827
 20
-251.3473095238144
 11
-242.009231237827
 21
-248.2935000000032
 72
     1
 10
-242.009231237827
 20
-248.2935000000032
 11
-240.0099592397926
 21
-248.2935000000032
 72
     2
 10
-240.0099592397926
 20
-249.3488656413369
 40
1.055365641333708
 50
270.0
 51
450.0
 73
     0
 97
        6
330
380
330
37F
330
38C
330
38B
330
381
330
3D1
 92
       16
 93
        4
 72
     2
 10
-240.451431766031
 20
-249.3094696701144
 40
0.3528638246711182
 50
270.0
 51
450.0
 73
     1
 72
     1
 10
-240.451431766031
 20
-248.9566058454433
 11
-240.7687268275729
 21
-248.9566058454433
 72
     1
 10
-240.7687268275729
 20
-248.9566058454433
 11
-240.7687268275729
 21
-249.6623334947855
 72
     1
 10
-240.7687268275729
 20
-249.6623334947855
 11
-240.451431766031
 21
-249.6623334947855
 97
        4
330
3E5
330
37D
330
38D
330
37E
 75
     1
 76
     0
 52
45.0
 41
0.1
 77
     0
 78
     1
 53
45.0
 43
0.0
 44
0.0
 45
-0.0707106781186548
 46
0.0707106781186548
 79
     0
 98
        1
 10
0.0
 20
0.0
  0
HATCH
  5
434
330
71
100
AcDbEntity
  8
1
  6
Continuous
 62
     2
100
AcDbHatch
 10
0.0
 20
0.0
 30
0.0
210
0.0
220
0.0
230
1.0
  2
_USER
 70
     0
 71
     1
 91
        2
 92
        1
 93
        4
 72
     2
 10
-237.4534164914335
 20
-253.7181702483862
 40
2.065479772208568
 50
62.45185182430637
 51
117.5481481756664
 73
     1
 72
     2
 10
-237.7343563832668
 20
-253.1795952380834
 40
1.45803408365149
 50
117.5481481756624
 51
242.4518518243375
 73
     1
 72
     2
 10
-237.4534164914335
 20
-252.6410202277801
 40
2.065479772208509
 50
242.4518518243402
 51
297.5481481756871
 73
     1
 72
     2
 10
-237.1724765996002
 20
-253.1795952380834
 40
1.458034083652003
 50
297.548148175701
 51
422.451851824299
 73
     1
 97
        4
330
3DD
330
3DC
330
3DE
330
3DB
 92
       16
 93
        4
 72
     2
 10
-237.6531565277799
 20
-253.1795952380834
 40
0.7717997786796947
 50
321.8795802028417
 51
398.1204197971533
 73
     1
 72
     2
 10
-237.4534164914335
 20
-253.0228640599629
 40
0.5179085730132998
 50
38.12041979714704
 51
141.8795802028588
 73
     1
 72
     2
 10
-237.2536764550874
 20
-253.1795952380834
 40
0.7717997786794633
 50
141.8795802028363
 51
218.1204197971687
 73
     1
 72
     2
 10
-237.4534164914335
 20
-253.3363264162034
 40
0.5179085730137354
 50
218.1204197971931
 51
321.879580202801
 73
     1
 97
        4
330
3F9
330
3F6
330
3F7
330
3F8
 75
     1
 76
     0
 52
45.0
 41
0.1
 77
     0
 78
     1
 53
45.0
 43
0.0
 44
0.0
 45
-0.0707106781186548
 46
0.0707106781186548
 79
     0
 98
        1
 10
0.0
 20
0.0
  0
HATCH
  5
435
330
71
100
AcDbEntity
  8
1
  6
Continuous
 62
     2
100
AcDbHatch
 10
0.0
 20
0.0
 30
0.0
210
0.0
220
0.0
230
1.0
  2
_USER
 70
     0
 71
     1
 91
        2
 92
        1
 93
        4
 72
     2
 10
-237.4534164914335
 20
-253.7181702483862
 40
2.065479772208568
 50
62.45185182430637
 51
117.5481481756664
 73
     1
 72
     2
 10
-237.7343563832668
 20
-253.1795952380834
 40
1.45803408365149
 50
117.5481481756624
 51
242.4518518243375
 73
     1
 72
     2
 10
-237.4534164914335
 20
-252.6410202277801
 40
2.065479772208509
 50
242.4518518243402
 51
297.5481481756871
 73
     1
 72
     2
 10
-237.1724765996002
 20
-253.1795952380834
 40
1.458034083652003
 50
297.548148175701
 51
422.451851824299
 73
     1
 97
        4
330
3DD
330
3DC
330
3DE
330
3DB
 92
       16
 93
        4
 72
     2
 10
-237.6531565277799
 20
-253.1795952380834
 40
0.7717997786796947
 50
321.8795802028417
 51
398.1204197971533
 73
     1
 72
     2
 10
-237.4534164914335
 20
-253.0228640599629
 40
0.5179085730132998
 50
38.12041979714704
 51
141.8795802028588
 73
     1
 72
     2
 10
-237.2536764550874
 20
-253.1795952380834
 40
0.7717997786794633
 50
141.8795802028363
 51
218.1204197971687
 73
     1
 72
     2
 10
-237.4534164914335
 20
-253.3363264162034
 40
0.5179085730137354
 50
218.1204197971931
 51
321.879580202801
 73
     1
 97
        4
330
3F9
330
3F6
330
3F7
330
3F8
 75
     1
 76
     0
 52
45.0
 41
0.1
 77
     0
 78
     1
 53
45.0
 43
0.0
 44
0.0
 45
-0.0707106781186548
 46
0.0707106781186548
 79
     0
 98
        1
 10
0.0
 20
0.0
  0
HATCH
  5
436
330
71
100
AcDbEntity
  8
1
  6
Continuous
 62
     2
100
AcDbHatch
 10
0.0
 20
0.0
 30
0.0
210
0.0
220
0.0
230
1.0
  2
_USER
 70
     0
 71
     1
 91
        2
 92
        1
 93
       12
 72
     1
 10
-230.5584212970242
 20
-248.9915136054462
 11
-231.8943491234519
 21
-248.9915136054462
 72
     1
 10
-231.8943491234519
 20
-248.9915136054462
 11
-231.8943491234519
 21
-249.4713979591879
 72
     1
 10
-231.8943491234519
 20
-249.4713979591879
 11
-230.5584212970242
 21
-249.4713979591879
 72
     1
 10
-230.5584212970242
 20
-249.4713979591879
 11
-230.5584212970242
 21
-250.1694115646302
 72
     1
 10
-230.5584212970242
 20
-250.1694115646302
 11
-231.8943491234519
 21
-250.1694115646302
 72
     1
 10
-231.8943491234519
 20
-250.1694115646302
 11
-231.8943491234519
 21
-250.6492959183719
 72
     1
 10
-231.8943491234519
 20
-250.6492959183719
 11
-230.5584212970242
 21
-250.6492959183719
 72
     1
 10
-230.5584212970242
 20
-250.6492959183719
 11
-230.5584212970242
 21
-251.3473095238144
 72
     1
 10
-230.5584212970242
 20
-251.3473095238144
 11
-233.7087410208052
 21
-251.3473095238144
 72
     2
 10
-233.7087410208052
 20
-249.8204047619091
 40
1.526904761905882
 50
90.0
 51
270.0
 73
     0
 72
     1
 10
-233.7087410208052
 20
-248.2935000000032
 11
-230.5584212970242
 21
-248.2935000000032
 72
     1
 10
-230.5584212970242
 20
-248.2935000000032
 11
-230.5584212970242
 21
-248.9915136054462
 97
       12
330
394
330
3E6
330
395
330
396
330
397
330
398
330
375
330
374
330
373
330
372
330
399
330
393
 92
       16
 93
        4
 72
     2
 10
-233.49246901064
 20
-249.6636735837886
 40
0.5179085730135266
 50
38.12041979714334
 51
141.8795802028489
 73
     1
 72
     2
 10
-233.2927289742937
 20
-249.8204047619091
 40
0.7717997786796724
 50
141.8795802028404
 51
218.1204197971562
 73
     1
 72
     2
 10
-233.49246901064
 20
-249.9771359400295
 40
0.5179085730134372
 50
218.1204197971511
 51
321.8795802028566
 73
     1
 72
     2
 10
-233.6922090469862
 20
-249.8204047619091
 40
0.7717997786796373
 50
321.8795802028437
 51
398.1204197971596
 73
     1
 97
        4
330
3E0
330
3DF
330
3DA
330
3D9
 75
     1
 76
     0
 52
45.0
 41
0.1
 77
     0
 78
     1
 53
45.0
 43
0.0
 44
0.0
 45
-0.0707106781186548
 46
0.0707106781186548
 79
     0
 98
        1
 10
0.0
 20
0.0
  0
HATCH
  5
437
330
71
100
AcDbEntity
  8
1
  6
Continuous
 62
     2
100
AcDbHatch
 10
0.0
 20
0.0
 30
0.0
210
0.0
220
0.0
230
1.0
  2
_USER
 70
     0
 71
     1
 91
        2
 92
        1
 93
       12
 72
     1
 10
-230.5584212970242
 20
-248.9915136054462
 11
-231.8943491234519
 21
-248.9915136054462
 72
     1
 10
-231.8943491234519
 20
-248.9915136054462
 11
-231.8943491234519
 21
-249.4713979591879
 72
     1
 10
-231.8943491234519
 20
-249.4713979591879
 11
-230.5584212970242
 21
-249.4713979591879
 72
     1
 10
-230.5584212970242
 20
-249.4713979591879
 11
-230.5584212970242
 21
-250.1694115646302
 72
     1
 10
-230.5584212970242
 20
-250.1694115646302
 11
-231.8943491234519
 21
-250.1694115646302
 72
     1
 10
-231.8943491234519
 20
-250.1694115646302
 11
-231.8943491234519
 21
-250.6492959183719
 72
     1
 10
-231.8943491234519
 20
-250.6492959183719
 11
-230.5584212970242
 21
-250.6492959183719
 72
     1
 10
-230.5584212970242
 20
-250.6492959183719
 11
-230.5584212970242
 21
-251.3473095238144
 72
     1
 10
-230.5584212970242
 20
-251.3473095238144
 11
-233.7087410208052
 21
-251.3473095238144
 72
     2
 10
-233.7087410208052
 20
-249.8204047619091
 40
1.526904761905882
 50
90.0
 51
270.0
 73
     0
 72
     1
 10
-233.7087410208052
 20
-248.2935000000032
 11
-230.5584212970242
 21
-248.2935000000032
 72
     1
 10
-230.5584212970242
 20
-248.2935000000032
 11
-230.5584212970242
 21
-248.9915136054462
 97
       12
330
394
330
3E6
330
395
330
396
330
397
330
398
330
375
330
374
330
373
330
372
330
399
330
393
 92
       16
 93
        4
 72
     2
 10
-233.49246901064
 20
-249.6636735837886
 40
0.5179085730135266
 50
38.12041979714334
 51
141.8795802028489
 73
     1
 72
     2
 10
-233.2927289742937
 20
-249.8204047619091
 40
0.7717997786796724
 50
141.8795802028404
 51
218.1204197971562
 73
     1
 72
     2
 10
-233.49246901064
 20
-249.9771359400295
 40
0.5179085730134372
 50
218.1204197971511
 51
321.8795802028566
 73
     1
 72
     2
 10
-233.6922090469862
 20
-249.8204047619091
 40
0.7717997786796373
 50
321.8795802028437
 51
398.1204197971596
 73
     1
 97
        4
330
3E0
330
3DF
330
3DA
330
3D9
 75
     1
 76
     0
 52
45.0
 41
0.1
 77
     0
 78
     1
 53
45.0
 43
0.0
 44
0.0
 45
-0.0707106781186548
 46
0.0707106781186548
 79
     0
 98
        1
 10
0.0
 20
0.0
  0
HATCH
  5
438
330
71
100
AcDbEntity
  8
1
  6
Continuous
 62
     2
100
AcDbHatch
 10
0.0
 20
0.0
 30
0.0
210
0.0
220
0.0
230
1.0
  2
_USER
 70
     0
 71
     1
 91
        4
 92
        1
 93
        8
 72
     1
 10
-242.4863483186938
 20
-248.7177446154052
 11
-242.4863483186938
 21
-254.2822553846054
 72
     2
 10
-242.9105929340777
 20
-254.2822553846054
 40
0.4242446153832873
 50
0.0
 51
90.0
 73
     0
 72
     1
 10
-242.9105929340777
 20
-254.7064999999887
 11
-248.3839050247945
 21
-254.7064999999887
 72
     2
 10
-248.3839050247945
 20
-254.2822553846054
 40
0.4242446153828041
 50
90.0
 51
180.0
 73
     0
 72
     1
 10
-248.8081496401773
 20
-254.2822553846054
 11
-248.8081496401773
 21
-248.7177446154052
 72
     2
 10
-248.3839050247945
 20
-248.7177446154052
 40
0.4242446153837989
 50
180.0
 51
270.0
 73
     0
 72
     1
 10
-248.3839050247945
 20
-248.2935000000214
 11
-242.9105929340777
 21
-248.2935000000214
 72
     2
 10
-242.9105929340777
 20
-248.7177446154052
 40
0.4242446153838841
 50
270.0
 51
360.0
 73
     0
 97
        8
330
388
330
3D6
330
389
330
3E1
330
386
330
3D8
330
387
330
3D7
 92
       16
 93
        1
 72
     2
 10
-245.764319374277
 20
-251.0366268437607
 40
0.4709789327785074
 50
0.0
 51
360.0
 73
     1
 97
        1
330
3FC
 92
       16
 93
        8
 72
     2
 10
-245.2144616615163
 20
-252.1457684437291
 40
0.3157169230765328
 50
115.3740086783519
 51
180.0
 73
     1
 72
     1
 10
-245.5301785845931
 20
-252.1457684437291
 11
-245.5301785845931
 21
-252.7276198504242
 72
     2
 10
-245.2144616615163
 20
-252.7276198504242
 40
0.315716923076792
 50
180.0
 51
269.8110329574542
 73
     1
 72
     2
 10
-245.2088455262063
 20
-251.0247849028552
 40
2.018561131933266
 50
269.8110329575858
 51
450.1889670424142
 73
     1
 72
     2
 10
-245.2144616615163
 20
-249.3219499552861
 40
0.3157169230760711
 50
90.18896704254594
 51
180.0
 73
     1
 72
     1
 10
-245.5301785845931
 20
-249.3219499552861
 11
-245.5301785845931
 21
-249.9274852437929
 72
     2
 10
-245.2144616615163
 20
-249.9274852437929
 40
0.315716923076792
 50
180.0
 51
244.6259913216482
 73
     1
 72
     2
 10
-245.7405043596042
 20
-251.0366268437607
 40
0.911848150144459
 50
295.3740086781925
 51
424.6259913218236
 73
     0
 97
        8
330
3EE
330
34F
330
3EB
330
3EC
330
3CA
330
34E
330
3ED
330
3C9
 92
       16
 93
       12
 72
     2
 10
-247.790010348048
 20
-253.6782275213551
 40
0.3157169230756836
 50
180.0
 51
270.0
 73
     1
 72
     1
 10
-247.790010348048
 20
-253.9939444444318
 11
-246.3141770870384
 21
-253.9939444444318
 72
     2
 10
-246.3141770870384
 20
-253.6782275213551
 40
0.3157169230767067
 50
270.0
 51
360.0
 73
     1
 72
     1
 10
-245.9984601639618
 20
-253.6782275213551
 11
-245.9984601639618
 21
-252.1474565898235
 72
     2
 10
-246.3141770870384
 20
-252.1474565898235
 40
0.315716923076593
 50
0.0
 51
64.80558935146027
 73
     1
 72
     2
 10
-245.7915926394634
 20
-251.0366268437607
 40
0.9118975235576147
 50
115.1944106485122
 51
244.8055893514718
 73
     0
 72
     2
 10
-246.3141770870384
 20
-249.9257970976985
 40
0.3157169230761203
 50
295.1944106485397
 51
360.0
 73
     1
 72
     1
 10
-245.9984601639618
 20
-249.9257970976985
 11
-245.9984601639618
 21
-249.321772478638
 72
     2
 10
-246.3141770870384
 20
-249.321772478638
 40
0.315716923076593
 50
0.0
 51
90.0
 73
     1
 72
     1
 10
-246.3141770870384
 20
-249.0060555555618
 11
-247.790010348048
 21
-249.0060555555618
 72
     2
 10
-247.790010348048
 20
-249.321772478638
 40
0.3157169230761951
 50
90.0
 51
180.0
 73
     1
 72
     1
 10
-248.1057272711237
 20
-249.321772478638
 11
-248.1057272711237
 21
-253.6782275213551
 97
       12
330
3D2
330
38A
330
3D5
330
385
330
3E2
330
3E3
330
3D4
330
384
330
3D3
330
383
330
3E4
330
382
 75
     1
 76
     0
 52
45.0
 41
0.1
 77
     0
 78
     1
 53
45.0
 43
0.0
 44
0.0
 45
-0.0707106781186548
 46
0.0707106781186548
 79
     0
 98
        1
 10
0.0
 20
0.0
  0
HATCH
  5
439
330
71
100
AcDbEntity
  8
1
  6
Continuous
 62
     2
100
AcDbHatch
 10
0.0
 20
0.0
 30
0.0
210
0.0
220
0.0
230
1.0
  2
_USER
 70
     0
 71
     1
 91
        4
 92
        1
 93
        8
 72
     1
 10
-242.4863483186938
 20
-248.7177446154052
 11
-242.4863483186938
 21
-254.2822553846054
 72
     2
 10
-242.9105929340777
 20
-254.2822553846054
 40
0.4242446153832873
 50
0.0
 51
90.0
 73
     0
 72
     1
 10
-242.9105929340777
 20
-254.7064999999887
 11
-248.3839050247945
 21
-254.7064999999887
 72
     2
 10
-248.3839050247945
 20
-254.2822553846054
 40
0.4242446153828041
 50
90.0
 51
180.0
 73
     0
 72
     1
 10
-248.8081496401773
 20
-254.2822553846054
 11
-248.8081496401773
 21
-248.7177446154052
 72
     2
 10
-248.3839050247945
 20
-248.7177446154052
 40
0.4242446153837989
 50
180.0
 51
270.0
 73
     0
 72
     1
 10
-248.3839050247945
 20
-248.2935000000214
 11
-242.9105929340777
 21
-248.2935000000214
 72
     2
 10
-242.9105929340777
 20
-248.7177446154052
 40
0.4242446153838841
 50
270.0
 51
360.0
 73
     0
 97
        8
330
388
330
3D6
330
389
330
3E1
330
386
330
3D8
330
387
330
3D7
 92
       16
 93
        1
 72
     2
 10
-245.764319374277
 20
-251.0366268437607
 40
0.4709789327785074
 50
0.0
 51
360.0
 73
     1
 97
        1
330
3FC
 92
       16
 93
        8
 72
     2
 10
-245.2144616615163
 20
-252.1457684437291
 40
0.3157169230765328
 50
115.3740086783519
 51
180.0
 73
     1
 72
     1
 10
-245.5301785845931
 20
-252.1457684437291
 11
-245.5301785845931
 21
-252.7276198504242
 72
     2
 10
-245.2144616615163
 20
-252.7276198504242
 40
0.315716923076792
 50
180.0
 51
269.8110329574542
 73
     1
 72
     2
 10
-245.2088455262063
 20
-251.0247849028552
 40
2.018561131933266
 50
269.8110329575858
 51
450.1889670424142
 73
     1
 72
     2
 10
-245.2144616615163
 20
-249.3219499552861
 40
0.3157169230760711
 50
90.18896704254594
 51
180.0
 73
     1
 72
     1
 10
-245.5301785845931
 20
-249.3219499552861
 11
-245.5301785845931
 21
-249.9274852437929
 72
     2
 10
-245.2144616615163
 20
-249.9274852437929
 40
0.315716923076792
 50
180.0
 51
244.6259913216482
 73
     1
 72
     2
 10
-245.7405043596042
 20
-251.0366268437607
 40
0.911848150144459
 50
295.3740086781925
 51
424.6259913218236
 73
     0
 97
        8
330
3EE
330
34F
330
3EB
330
3EC
330
3CA
330
34E
330
3ED
330
3C9
 92
       16
 93
       12
 72
     2
 10
-247.790010348048
 20
-253.6782275213551
 40
0.3157169230756836
 50
180.0
 51
270.0
 73
     1
 72
     1
 10
-247.790010348048
 20
-253.9939444444318
 11
-246.3141770870384
 21
-253.9939444444318
 72
     2
 10
-246.3141770870384
 20
-253.6782275213551
 40
0.3157169230767067
 50
270.0
 51
360.0
 73
     1
 72
     1
 10
-245.9984601639618
 20
-253.6782275213551
 11
-245.9984601639618
 21
-252.1474565898235
 72
     2
 10
-246.3141770870384
 20
-252.1474565898235
 40
0.315716923076593
 50
0.0
 51
64.80558935146027
 73
     1
 72
     2
 10
-245.7915926394634
 20
-251.0366268437607
 40
0.9118975235576147
 50
115.1944106485122
 51
244.8055893514718
 73
     0
 72
     2
 10
-246.3141770870384
 20
-249.9257970976985
 40
0.3157169230761203
 50
295.1944106485397
 51
360.0
 73
     1
 72
     1
 10
-245.9984601639618
 20
-249.9257970976985
 11
-245.9984601639618
 21
-249.321772478638
 72
     2
 10
-246.3141770870384
 20
-249.321772478638
 40
0.315716923076593
 50
0.0
 51
90.0
 73
     1
 72
     1
 10
-246.3141770870384
 20
-249.0060555555618
 11
-247.790010348048
 21
-249.0060555555618
 72
     2
 10
-247.790010348048
 20
-249.321772478638
 40
0.3157169230761951
 50
90.0
 51
180.0
 73
     1
 72
     1
 10
-248.1057272711237
 20
-249.321772478638
 11
-248.1057272711237
 21
-253.6782275213551
 97
       12
330
3D2
330
38A
330
3D5
330
385
330
3E2
330
3E3
330
3D4
330
384
330
3D3
330
383
330
3E4
330
382
 75
     1
 76
     0
 52
45.0
 41
0.1
 77
     0
 78
     1
 53
45.0
 43
0.0
 44
0.0
 45
-0.0707106781186548
 46
0.0707106781186548
 79
     0
 98
        1
 10
0.0
 20
0.0
  0
HATCH
  5
43A
330
71
100
AcDbEntity
  8
1
  6
Continuous
 62
     2
100
AcDbHatch
 10
0.0
 20
0.0
 30
0.0
210
0.0
220
0.0
230
1.0
  2
_USER
 70
     0
 71
     1
 91
        1
 92
        1
 93
       18
 72
     1
 10
-220.8968004094728
 20
-252.4379557823012
 11
-221.7078994469462
 21
-252.4379557823012
 72
     1
 10
-221.7078994469462
 20
-252.4379557823012
 11
-221.7078994469462
 21
-254.7064999999887
 72
     1
 10
-221.7078994469462
 20
-254.7064999999887
 11
-222.9006921491139
 21
-254.7064999999887
 72
     1
 10
-222.9006921491139
 20
-254.7064999999887
 11
-222.9006921491139
 21
-252.4379557823012
 72
     1
 10
-222.9006921491139
 20
-252.4379557823012
 11
-224.004331448682
 21
-252.4379557823012
 72
     2
 10
-224.004331448682
 20
-253.3924787891273
 40
0.9545230068260935
 50
90.0
 51
109.337143219432
 73
     1
 72
     2
 10
-224.1510014467857
 20
-252.9745238087444
 40
0.5115800601944143
 50
109.3371432194853
 51
151.4785267424225
 73
     1
 72
     2
 10
-223.7736441887043
 20
-253.1795952380834
 40
0.9410597353348924
 50
151.4785267423624
 51
208.5214732576695
 73
     1
 72
     2
 10
-224.1510014467857
 20
-253.3846666674219
 40
0.5115800601960215
 50
208.5214732576866
 51
246.6277221118449
 73
     1
 72
     2
 10
-223.9945614140826
 20
-253.0226746487119
 40
0.9059297849852801
 50
246.6277221118183
 51
288.4480761180817
 73
     1
 72
     2
 10
-224.4127291477445
 20
-251.7691288726753
 40
2.227384008972746
 50
288.4480761181335
 51
301.9309089499397
 73
     1
 72
     1
 10
-223.2346741057206
 20
-253.6594795918251
 11
-223.2346741057206
 21
-254.5319965986284
 72
     2
 10
-224.5706020228373
 20
-249.866914292827
 40
4.852596863498825
 50
74.02000874166129
 51
84.84185523036365
 73
     0
 72
     2
 10
-224.2817459281015
 20
-253.0668048760486
 40
1.639695123940448
 50
84.8418552303238
 51
164.9381082228988
 73
     0
 72
     2
 10
-224.7008737715631
 20
-253.1795952380834
 40
1.205656168393002
 50
164.9381082229041
 51
195.0618917770972
 73
     0
 72
     2
 10
-224.2817459281015
 20
-253.2923856001183
 40
1.639695123940214
 50
195.061891777105
 51
270.0
 73
     0
 72
     1
 10
-224.2817459281015
 20
-251.6526904761781
 11
-220.8968004094728
 21
-251.6526904761776
 72
     1
 10
-220.8968004094728
 20
-251.6526904761776
 11
-220.8968004094728
 21
-252.4379557823012
 97
       18
330
351
330
3E7
330
3E8
330
3D0
330
3CF
330
3B5
330
3CE
330
3CD
330
3E9
330
3CC
330
3EA
330
3CB
330
3B6
330
350
330
355
330
354
330
353
330
352
 75
     1
 76
     0
 52
45.0
 41
0.1
 77
     0
 78
     1
 53
45.0
 43
0.0
 44
0.0
 45
-0.0707106781186548
 46
0.0707106781186548
 79
     0
 98
        1
 10
0.0
 20
0.0
  0
HATCH
  5
43B
330
71
100
AcDbEntity
  8
1
  6
Continuous
 62
     2
100
AcDbHatch
 10
0.0
 20
0.0
 30
0.0
210
0.0
220
0.0
230
1.0
  2
_USER
 70
     0
 71
     1
 91
        1
 92
        1
 93
       18
 72
     1
 10
-220.8968004094728
 20
-252.4379557823012
 11
-221.7078994469462
 21
-252.4379557823012
 72
     1
 10
-221.7078994469462
 20
-252.4379557823012
 11
-221.7078994469462
 21
-254.7064999999887
 72
     1
 10
-221.7078994469462
 20
-254.7064999999887
 11
-222.9006921491139
 21
-254.7064999999887
 72
     1
 10
-222.9006921491139
 20
-254.7064999999887
 11
-222.9006921491139
 21
-252.4379557823012
 72
     1
 10
-222.9006921491139
 20
-252.4379557823012
 11
-224.004331448682
 21
-252.4379557823012
 72
     2
 10
-224.004331448682
 20
-253.3924787891273
 40
0.9545230068260935
 50
90.0
 51
109.337143219432
 73
     1
 72
     2
 10
-224.1510014467857
 20
-252.9745238087444
 40
0.5115800601944143
 50
109.3371432194853
 51
151.4785267424225
 73
     1
 72
     2
 10
-223.7736441887043
 20
-253.1795952380834
 40
0.9410597353348924
 50
151.4785267423624
 51
208.5214732576695
 73
     1
 72
     2
 10
-224.1510014467857
 20
-253.3846666674219
 40
0.5115800601960215
 50
208.5214732576866
 51
246.6277221118449
 73
     1
 72
     2
 10
-223.9945614140826
 20
-253.0226746487119
 40
0.9059297849852801
 50
246.6277221118183
 51
288.4480761180817
 73
     1
 72
     2
 10
-224.4127291477445
 20
-251.7691288726753
 40
2.227384008972746
 50
288.4480761181335
 51
301.9309089499397
 73
     1
 72
     1
 10
-223.2346741057206
 20
-253.6594795918251
 11
-223.2346741057206
 21
-254.5319965986284
 72
     2
 10
-224.5706020228373
 20
-249.866914292827
 40
4.852596863498825
 50
74.02000874166129
 51
84.84185523036365
 73
     0
 72
     2
 10
-224.2817459281015
 20
-253.0668048760486
 40
1.639695123940448
 50
84.8418552303238
 51
164.9381082228988
 73
     0
 72
     2
 10
-224.7008737715631
 20
-253.1795952380834
 40
1.205656168393002
 50
164.9381082229041
 51
195.0618917770972
 73
     0
 72
     2
 10
-224.2817459281015
 20
-253.2923856001183
 40
1.639695123940214
 50
195.061891777105
 51
270.0
 73
     0
 72
     1
 10
-224.2817459281015
 20
-251.6526904761781
 11
-220.8968004094728
 21
-251.6526904761776
 72
     1
 10
-220.8968004094728
 20
-251.6526904761776
 11
-220.8968004094728
 21
-252.4379557823012
 97
       18
330
351
330
3E7
330
3E8
330
3D0
330
3CF
330
3B5
330
3CE
330
3CD
330
3E9
330
3CC
330
3EA
330
3CB
330
3B6
330
350
330
355
330
354
330
353
330
352
 75
     1
 76
     0
 52
45.0
 41
0.1
 77
     0
 78
     1
 53
45.0
 43
0.0
 44
0.0
 45
-0.0707106781186548
 46
0.0707106781186548
 79
     0
 98
        1
 10
0.0
 20
0.0
  0
HATCH
  5
43C
330
71
100
AcDbEntity
  8
1
  6
Continuous
 62
     2
100
AcDbHatch
 10
0.0
 20
0.0
 30
0.0
210
0.0
220
0.0
230
1.0
  2
_USER
 70
     0
 71
     1
 91
        1
 92
        1
 93
       14
 72
     2
 10
-240.3844474073544
 20
-253.2923856001183
 40
1.639695123940507
 50
84.84185523036236
 51
164.9381082228864
 73
     1
 72
     2
 10
-240.8035752508172
 20
-253.1795952380834
 40
1.205656168390944
 50
164.9381082228765
 51
195.0618917770948
 73
     1
 72
     2
 10
-240.3844474073544
 20
-253.0668048760486
 40
1.639695123939387
 50
195.0618917770896
 51
275.1581447696395
 73
     1
 72
     2
 10
-240.6733035020903
 20
-249.866914292827
 40
4.852596863498138
 50
275.1581447696249
 51
285.9799912583529
 73
     1
 72
     1
 10
-239.3373755849725
 20
-254.5319965986278
 11
-239.3373755849725
 21
-253.6594795918246
 72
     2
 10
-240.5154306269974
 20
-251.7691288726747
 40
2.227384008972737
 50
58.0690910500407
 51
71.55192388186722
 73
     0
 72
     2
 10
-240.0972628933366
 20
-253.0226746487119
 40
0.9059297849849192
 50
71.55192388184153
 51
113.372277888129
 73
     0
 72
     2
 10
-240.2537029260386
 20
-253.3846666674219
 40
0.5115800601948034
 50
113.3722778881726
 51
151.4785267423044
 73
     0
 72
     2
 10
-239.8763456679583
 20
-253.1795952380834
 40
0.9410597353332545
 50
151.4785267422943
 51
208.5214732577331
 73
     0
 72
     2
 10
-240.2537029260386
 20
-252.9745238087444
 40
0.5115800601948779
 50
208.5214732576956
 51
246.6277221118009
 73
     0
 72
     2
 10
-240.0972628933366
 20
-253.336515827455
 40
0.9059297849853228
 50
246.627722111871
 51
288.4480761181465
 73
     0
 72
     2
 10
-240.5154306269974
 20
-254.5900616034916
 40
2.227384008973478
 50
288.4480761181328
 51
301.9309089499592
 73
     0
 72
     1
 10
-239.3373755849725
 20
-252.6997108843417
 11
-239.3373755849725
 21
-251.8271938775384
 72
     2
 10
-240.6733035020903
 20
-256.4922761833393
 40
4.852596863498068
 50
74.02000874164739
 51
84.84185523037506
 73
     1
 97
       14
330
3EF
330
3F0
330
3F1
330
3F2
330
3B7
330
3C8
330
3C7
330
3C6
330
3F3
330
3F4
330
3C5
330
3F5
330
3B8
330
3C4
 75
     1
 76
     0
 52
45.0
 41
0.1
 77
     0
 78
     1
 53
45.0
 43
0.0
 44
0.0
 45
-0.0707106781186548
 46
0.0707106781186548
 79
     0
 98
        1
 10
0.0
 20
0.0
  0
HATCH
  5
43D
330
71
100
AcDbEntity
  8
1
  6
Continuous
 62
     2
100
AcDbHatch
 10
0.0
 20
0.0
 30
0.0
210
0.0
220
0.0
230
1.0
  2
_USER
 70
     0
 71
     1
 91
        1
 92
        1
 93
       14
 72
     2
 10
-240.3844474073544
 20
-253.2923856001183
 40
1.639695123940507
 50
84.84185523036236
 51
164.9381082228864
 73
     1
 72
     2
 10
-240.8035752508172
 20
-253.1795952380834
 40
1.205656168390944
 50
164.9381082228765
 51
195.0618917770948
 73
     1
 72
     2
 10
-240.3844474073544
 20
-253.0668048760486
 40
1.639695123939387
 50
195.0618917770896
 51
275.1581447696395
 73
     1
 72
     2
 10
-240.6733035020903
 20
-249.866914292827
 40
4.852596863498138
 50
275.1581447696249
 51
285.9799912583529
 73
     1
 72
     1
 10
-239.3373755849725
 20
-254.5319965986278
 11
-239.3373755849725
 21
-253.6594795918246
 72
     2
 10
-240.5154306269974
 20
-251.7691288726747
 40
2.227384008972737
 50
58.0690910500407
 51
71.55192388186722
 73
     0
 72
     2
 10
-240.0972628933366
 20
-253.0226746487119
 40
0.9059297849849192
 50
71.55192388184153
 51
113.372277888129
 73
     0
 72
     2
 10
-240.2537029260386
 20
-253.3846666674219
 40
0.5115800601948034
 50
113.3722778881726
 51
151.4785267423044
 73
     0
 72
     2
 10
-239.8763456679583
 20
-253.1795952380834
 40
0.9410597353332545
 50
151.4785267422943
 51
208.5214732577331
 73
     0
 72
     2
 10
-240.2537029260386
 20
-252.9745238087444
 40
0.5115800601948779
 50
208.5214732576956
 51
246.6277221118009
 73
     0
 72
     2
 10
-240.0972628933366
 20
-253.336515827455
 40
0.9059297849853228
 50
246.627722111871
 51
288.4480761181465
 73
     0
 72
     2
 10
-240.5154306269974
 20
-254.5900616034916
 40
2.227384008973478
 50
288.4480761181328
 51
301.9309089499592
 73
     0
 72
     1
 10
-239.3373755849725
 20
-252.6997108843417
 11
-239.3373755849725
 21
-251.8271938775384
 72
     2
 10
-240.6733035020903
 20
-256.4922761833393
 40
4.852596863498068
 50
74.02000874164739
 51
84.84185523037506
 73
     1
 97
       14
330
3EF
330
3F0
330
3F1
330
3F2
330
3B7
330
3C8
330
3C7
330
3C6
330
3F3
330
3F4
330
3C5
330
3F5
330
3B8
330
3C4
 75
     1
 76
     0
 52
45.0
 41
0.1
 77
     0
 78
     1
 53
45.0
 43
0.0
 44
0.0
 45
-0.0707106781186548
 46
0.0707106781186548
 79
     0
 98
        1
 10
0.0
 20
0.0
  0
ENDBLK
  5
73
330
71
100
AcDbEntity
  8
0
100
AcDbBlockEnd
  0
BLOCK
  5
75
330
74
100
AcDbEntity
  8
0
100
AcDbBlockBegin
  2
_punkt
 70
     0
 10
-123.4999999999899
 20
-262.000000000005
 30
0.0
  3
_punkt
  1

  0
LINE
  5
43E
330
74
100
AcDbEntity
  8
1
  6
Continuous
 62
     2
100
AcDbLine
 10
-123.4999999999899
 20
-262.000000000005
 30
0.0
 11
-118.4999999999909
 21
-262.000000000005
 31
0.0
  0
LINE
  5
43F
330
74
100
AcDbEntity
  8
1
  6
Continuous
 62
     2
100
AcDbLine
 10
-123.4999999999899
 20
-262.000000000005
 30
0.0
 11
-123.4999999999899
 21
-267.0000000000051
 31
0.0
  0
ENDBLK
  5
76
330
74
100
AcDbEntity
  8
0
100
AcDbBlockEnd
  0
BLOCK
  5
7A
330
77
100
AcDbEntity
  8
0
100
AcDbBlockBegin
  2
A4I_CS
 70
     0
 10
-123.4999999999899
 20
-267.0000000000051
 30
0.0
  3
A4I_CS
  1

  0
INSERT
  5
78
330
77
100
AcDbEntity
  8
1
100
AcDbBlockReference
  2
_rahmen
 10
-123.4999999999899
 20
-267.0000000000051
 30
0.0
  0
INSERT
  5
79
330
77
100
AcDbEntity
  8
1
100
AcDbBlockReference
  2
_punkt
 10
-123.4999999999899
 20
-262.000000000005
 30
0.0
  0
ENDBLK
  5
7B
330
77
100
AcDbEntity
  8
0
100
AcDbBlockEnd
  0
BLOCK
  5
84
330
7C
100
AcDbEntity
  8
0
100
AcDbBlockBegin
  2
1
 70
     0
 10
0.0
 20
0.0
 30
0.0
  3
1
  1

  0
INSERT
  5
7D
330
7C
100
AcDbEntity
  8
0
100
AcDbBlockReference
  2
Allg1
 10
-162.9999999996086
 20
-192.000000000335
 30
0.0
  0
INSERT
  5
7E
330
7C
100
AcDbEntity
  8
0
100
AcDbBlockReference
  2
Drfsicht1
 10
-303.0250003783086
 20
-194.5749991414033
 30
0.0
  0
INSERT
  5
7F
330
7C
100
AcDbEntity
  8
0
100
AcDbBlockReference
  2
Rckans1
 10
-184.9750003787586
 20
-118.000000000254
 30
0.0
  0
INSERT
  5
80
330
7C
100
AcDbEntity
  8
0
100
AcDbBlockReference
  2
SA_Links1
 10
-244.0
 20
-118.000000000254
 30
0.0
  0
INSERT
  5
81
330
7C
100
AcDbEntity
  8
0
100
AcDbBlockReference
  2
SA_Rechts1
 10
-380.0499996221457
 20
-118.0000000002539
 30
0.0
  0
INSERT
  5
82
330
7C
100
AcDbEntity
  8
0
100
AcDbBlockReference
  2
Vordans1
 10
-303.025
 20
-118.000000000254
 30
0.0
  0
INSERT
  5
83
330
7C
100
AcDbEntity
  8
0
100
AcDbBlockReference
  2
A4I_CS
 10
-123.4999999999899
 20
-267.0000000000051
 30
0.0
  0
ENDBLK
  5
85
330
7C
100
AcDbEntity
  8
0
100
AcDbBlockEnd
  0
BLOCK
  5
1A5
330
19D
100
AcDbEntity
  8
0
100
AcDbBlockBegin
  2
*D17
 70
     1
 10
0.0
 20
0.0
 30
0.0
  3
*D17
  1

  0
LINE
  5
19E
330
19D
100
AcDbEntity
  8
1
  6
Continuous
 62
     2
100
AcDbLine
 10
-343.0250003806684
 20
-203.599998759939
 30
0.0
 11
-343.0250003806684
 21
-185.5499987599391
 31
0.0
  0
LINE
  5
19F
330
19D
100
AcDbEntity
  8
1
  6
Continuous
 62
     2
100
AcDbLine
 10
-343.0250003806684
 20
-219.083316920765
 30
0.0
 11
-343.0250003806684
 21
-203.599998759939
 31
0.0
  0
LINE
  5
1A0
330
19D
100
AcDbEntity
  8
1
  6
Continuous
 62
     2
100
AcDbLine
 10
-333.0250003806684
 20
-185.5499987599391
 30
0.0
 11
-344.5250003806684
 21
-185.5499987599391
 31
0.0
  0
LINE
  5
1A1
330
19D
100
AcDbEntity
  8
1
  6
Continuous
 62
     2
100
AcDbLine
 10
-333.0250003806682
 20
-203.599998759939
 30
0.0
 11
-344.5250003806684
 21
-203.599998759939
 31
0.0
  0
SOLID
  5
1A2
330
19D
100
AcDbEntity
  8
1
 62
     2
100
AcDbTrace
 10
-343.4857841222243
 20
-200.099998759939
 30
0.0
 11
-342.5642166391125
 21
-200.099998759939
 31
0.0
 12
-343.0250003806684
 22
-203.599998759939
 32
0.0
 13
-343.0250003806684
 23
-203.599998759939
 33
0.0
  0
SOLID
  5
1A3
330
19D
100
AcDbEntity
  8
1
 62
     2
100
AcDbTrace
 10
-342.5642166391125
 20
-189.0499987599391
 30
0.0
 11
-343.4857841222243
 21
-189.0499987599391
 31
0.0
 12
-343.0250003806684
 22
-185.5499987599391
 32
0.0
 13
-343.0250003806684
 23
-185.5499987599391
 33
0.0
  0
MTEXT
  5
1A4
330
19D
100
AcDbEntity
  8
1
 62
     3
100
AcDbMText
 10
-344.8750003806684
 20
-219.083316920765
 30
0.0
 40
3.5
 41
0.0
 71
     7
 72
     1
  1
18,05
  7
CONVERTER_11
 11
0.0
 21
1.0
 31
0.0
 73
     1
 44
0.60024009603842
  0
ENDBLK
  5
1A6
330
19D
100
AcDbEntity
  8
0
100
AcDbBlockEnd
  0
BLOCK
  5
2D7
330
2D0
100
AcDbEntity
  8
0
100
AcDbBlockBegin
  2
*D18
 70
     1
 10
0.0
 20
0.0
 30
0.0
  3
*D18
  1

  0
LINE
  5
2D1
330
2D0
100
AcDbEntity
  8
1
  6
Continuous
 62
     2
100
AcDbLine
 10
-303.0250000018289
 20
-160.744930507239
 30
0.0
 11
-285.5250000020795
 21
-160.744930507239
 31
0.0
  0
LINE
  5
2D2
330
2D0
100
AcDbEntity
  8
1
  6
Continuous
 62
     2
100
AcDbLine
 10
-285.5250000020795
 20
-143.2499992393217
 30
0.0
 11
-285.5250000020795
 21
-162.244930507239
 31
0.0
  0
LINE
  5
2D3
330
2D0
100
AcDbEntity
  8
1
  6
Continuous
 62
     2
100
AcDbLine
 10
-303.0250000018289
 20
-143.7474957842319
 30
0.0
 11
-303.0250000018289
 21
-162.244930507239
 31
0.0
  0
SOLID
  5
2D4
330
2D0
100
AcDbEntity
  8
1
 62
     2
100
AcDbTrace
 10
-299.5250000018289
 20
-160.2841467656831
 30
0.0
 11
-299.5250000018289
 21
-161.2057142487949
 31
0.0
 12
-303.0250000018289
 22
-160.744930507239
 32
0.0
 13
-303.0250000018289
 23
-160.744930507239
 33
0.0
  0
SOLID
  5
2D5
330
2D0
100
AcDbEntity
  8
1
 62
     2
100
AcDbTrace
 10
-289.0250000020795
 20
-161.2057142487949
 30
0.0
 11
-289.0250000020795
 21
-160.2841467656831
 31
0.0
 12
-285.5250000020795
 22
-160.744930507239
 32
0.0
 13
-285.5250000020795
 23
-160.744930507239
 33
0.0
  0
MTEXT
  5
2D6
330
2D0
100
AcDbEntity
  8
1
 62
     3
100
AcDbMText
 10
-298.4579857935069
 20
-158.894930507239
 30
0.0
 40
3.5
 41
0.0
 71
     7
 72
     1
  1
17,5
  7
CONVERTER_11
 11
0.9999999999970619
 21
2.424068405545306E-6
 31
0.0
 73
     1
 44
0.60024009603842
  0
ENDBLK
  5
2D8
330
2D0
100
AcDbEntity
  8
0
100
AcDbBlockEnd
  0
BLOCK
  5
2E2
330
2DB
100
AcDbEntity
  8
0
100
AcDbBlockBegin
  2
*D19
 70
     1
 10
0.0
 20
0.0
 30
0.0
  3
*D19
  1

  0
LINE
  5
2DC
330
2DB
100
AcDbEntity
  8
1
  6
Continuous
 62
     2
100
AcDbLine
 10
-303.025000001829
 20
-168.744930507239
 30
0.0
 11
-273.0250000015198
 21
-168.744930507239
 31
0.0
  0
LINE
  5
2DD
330
2DB
100
AcDbEntity
  8
1
  6
Continuous
 62
     2
100
AcDbLine
 10
-273.0250000015198
 20
-137.6623991517768
 30
0.0
 11
-273.0250000015198
 21
-170.244930507239
 31
0.0
  0
LINE
  5
2DE
330
2DB
100
AcDbEntity
  8
1
  6
Continuous
 62
     2
100
AcDbLine
 10
-303.025000001829
 20
-143.7474957842319
 30
0.0
 11
-303.025000001829
 21
-170.244930507239
 31
0.0
  0
SOLID
  5
2DF
330
2DB
100
AcDbEntity
  8
1
 62
     2
100
AcDbTrace
 10
-299.525000001829
 20
-168.2841467656831
 30
0.0
 11
-299.525000001829
 21
-169.2057142487949
 31
0.0
 12
-303.025000001829
 22
-168.744930507239
 32
0.0
 13
-303.025000001829
 23
-168.744930507239
 33
0.0
  0
SOLID
  5
2E0
330
2DB
100
AcDbEntity
  8
1
 62
     2
100
AcDbTrace
 10
-276.5250000015198
 20
-169.2057142487949
 30
0.0
 11
-276.5250000015198
 21
-168.2841467656831
 31
0.0
 12
-273.0250000015198
 22
-168.744930507239
 32
0.0
 13
-273.0250000015198
 23
-168.744930507239
 33
0.0
  0
MTEXT
  5
2E1
330
2DB
100
AcDbEntity
  8
1
 62
     3
100
AcDbMText
 10
-290.561956304212
 20
-167.244930507239
 30
0.0
 40
3.5
 41
0.0
 71
     7
 72
     1
  1
30
  7
CONVERTER_11
 11
0.9999999999970619
 21
2.424068405545306E-6
 31
0.0
 73
     1
 44
0.60024009603842
  0
ENDBLK
  5
2E3
330
2DB
100
AcDbEntity
  8
0
100
AcDbBlockEnd
  0
BLOCK
  5
2ED
330
2E6
100
AcDbEntity
  8
0
100
AcDbBlockBegin
  2
*D20
 70
     1
 10
0.0
 20
0.0
 30
0.0
  3
*D20
  1

  0
LINE
  5
2E7
330
2E6
100
AcDbEntity
  8
1
  6
Continuous
 62
     2
100
AcDbLine
 10
-333.0250000027106
 20
-176.7449305072391
 30
0.0
 11
-273.0250000015198
 21
-176.7449305072391
 31
0.0
  0
LINE
  5
2E8
330
2E6
100
AcDbEntity
  8
1
  6
Continuous
 62
     2
100
AcDbLine
 10
-273.0250000015198
 20
-137.6623991517768
 30
0.0
 11
-273.0250000015198
 21
-178.2449305072391
 31
0.0
  0
LINE
  5
2E9
330
2E6
100
AcDbEntity
  8
1
  6
Continuous
 62
     2
100
AcDbLine
 10
-333.0250000027106
 20
-149.5499992345636
 30
0.0
 11
-333.0250000027106
 21
-178.2449305072391
 31
0.0
  0
SOLID
  5
2EA
330
2E6
100
AcDbEntity
  8
1
 62
     2
100
AcDbTrace
 10
-329.5250000027106
 20
-176.2841467656832
 30
0.0
 11
-329.5250000027106
 21
-177.205714248795
 31
0.0
 12
-333.0250000027106
 22
-176.7449305072391
 32
0.0
 13
-333.0250000027106
 23
-176.7449305072391
 33
0.0
  0
SOLID
  5
2EB
330
2E6
100
AcDbEntity
  8
1
 62
     2
100
AcDbTrace
 10
-276.5250000015198
 20
-177.205714248795
 30
0.0
 11
-276.5250000015198
 21
-176.2841467656832
 31
0.0
 12
-273.0250000015198
 22
-176.7449305072391
 32
0.0
 13
-273.0250000015198
 23
-176.7449305072391
 33
0.0
  0
MTEXT
  5
2EC
330
2E6
100
AcDbEntity
  8
1
 62
     3
100
AcDbMText
 10
-305.8202183137839
 20
-175.2449305072391
 30
0.0
 40
3.5
 41
0.0
 71
     7
 72
     1
  1
60
  7
CONVERTER_11
 11
0.9999999999970619
 21
2.424068405545306E-6
 31
0.0
 73
     1
 44
0.60024009603842
  0
ENDBLK
  5
2EE
330
2E6
100
AcDbEntity
  8
0
100
AcDbBlockEnd
  0
BLOCK
  5
2F8
330
2F1
100
AcDbEntity
  8
0
100
AcDbBlockBegin
  2
*D21
 70
     1
 10
0.0
 20
0.0
 30
0.0
  3
*D21
  1

  0
LINE
  5
2F2
330
2F1
100
AcDbEntity
  8
1
  6
Continuous
 62
     2
100
AcDbLine
 10
-343.0250003806684
 20
-143.2499992389109
 30
0.0
 11
-343.0250003806684
 21
-86.44999923576556
 31
0.0
  0
LINE
  5
2F3
330
2F1
100
AcDbEntity
  8
1
  6
Continuous
 62
     2
100
AcDbLine
 10
-321.0249999963899
 20
-86.44999923576556
 30
0.0
 11
-344.5250003806684
 21
-86.44999923576556
 31
0.0
  0
LINE
  5
2F4
330
2F1
100
AcDbEntity
  8
1
  6
Continuous
 62
     2
100
AcDbLine
 10
-289.6250000020796
 20
-143.2499992389109
 30
0.0
 11
-344.5250003806684
 21
-143.2499992389109
 31
0.0
  0
SOLID
  5
2F5
330
2F1
100
AcDbEntity
  8
1
 62
     2
100
AcDbTrace
 10
-343.4857841222243
 20
-139.7499992389109
 30
0.0
 11
-342.5642166391125
 21
-139.7499992389109
 31
0.0
 12
-343.0250003806684
 22
-143.2499992389109
 32
0.0
 13
-343.0250003806684
 23
-143.2499992389109
 33
0.0
  0
SOLID
  5
2F6
330
2F1
100
AcDbEntity
  8
1
 62
     2
100
AcDbTrace
 10
-342.5642166391125
 20
-89.94999923576556
 30
0.0
 11
-343.4857841222243
 21
-89.94999923576556
 31
0.0
 12
-343.0250003806684
 22
-86.44999923576556
 32
0.0
 13
-343.0250003806684
 23
-86.44999923576556
 33
0.0
  0
MTEXT
  5
2F7
330
2F1
100
AcDbEntity
  8
1
 62
     3
100
AcDbMText
 10
-344.8750003806684
 20
-119.572734427016
 30
0.0
 40
3.5
 41
0.0
 71
     7
 72
     1
  1
56,8
  7
CONVERTER_11
 11
0.0
 21
1.0
 31
0.0
 73
     1
 44
0.60024009603842
  0
ENDBLK
  5
2F9
330
2F1
100
AcDbEntity
  8
0
100
AcDbBlockEnd
  0
BLOCK
  5
303
330
2FC
100
AcDbEntity
  8
0
100
AcDbBlockBegin
  2
*D22
 70
     1
 10
0.0
 20
0.0
 30
0.0
  3
*D22
  1

  0
LINE
  5
2FD
330
2FC
100
AcDbEntity
  8
1
  6
Continuous
 62
     2
100
AcDbLine
 10
-351.0250003806684
 20
-149.5499992357977
 30
0.0
 11
-351.0250003806684
 21
-86.44999923576565
 31
0.0
  0
LINE
  5
2FE
330
2FC
100
AcDbEntity
  8
1
  6
Continuous
 62
     2
100
AcDbLine
 10
-321.0249999963899
 20
-86.44999923576565
 30
0.0
 11
-352.5250003806684
 21
-86.44999923576565
 31
0.0
  0
LINE
  5
2FF
330
2FC
100
AcDbEntity
  8
1
  6
Continuous
 62
     2
100
AcDbLine
 10
-320.7050000027106
 20
-149.5499992357977
 30
0.0
 11
-352.5250003806684
 21
-149.5499992357977
 31
0.0
  0
SOLID
  5
300
330
2FC
100
AcDbEntity
  8
1
 62
     2
100
AcDbTrace
 10
-351.4857841222243
 20
-146.0499992357977
 30
0.0
 11
-350.5642166391125
 21
-146.0499992357977
 31
0.0
 12
-351.0250003806684
 22
-149.5499992357977
 32
0.0
 13
-351.0250003806684
 23
-149.5499992357977
 33
0.0
  0
SOLID
  5
301
330
2FC
100
AcDbEntity
  8
1
 62
     2
100
AcDbTrace
 10
-350.5642166391125
 20
-89.94999923576565
 30
0.0
 11
-351.4857841222243
 21
-89.94999923576565
 31
0.0
 12
-351.0250003806684
 22
-86.44999923576565
 32
0.0
 13
-351.0250003806684
 23
-86.44999923576565
 33
0.0
  0
MTEXT
  5
302
330
2FC
100
AcDbEntity
  8
1
 62
     3
100
AcDbMText
 10
-352.8750003806684
 20
-124.9925118333431
 30
0.0
 40
3.5
 41
0.0
 71
     7
 72
     1
  1
63,1
  7
CONVERTER_11
 11
0.0
 21
1.0
 31
0.0
 73
     1
 44
0.60024009603842
  0
ENDBLK
  5
304
330
2FC
100
AcDbEntity
  8
0
100
AcDbBlockEnd
  0
ENDSEC
  0
SECTION
  2
ENTITIES
  0
INSERT
  5
86
330
1F
100
AcDbEntity
  8
1
100
AcDbBlockReference
  2
1
 10
0.0
 20
0.0
 30
0.0
  0
ENDSEC
  0
SECTION
  2
OBJECTS
  0
DICTIONARY
  5
C
330
0
100
AcDbDictionary
281
     1
  3
ACAD_GROUP
350
D
  3
ACAD_LAYOUT
350
1A
  3
ACAD_MATERIAL
350
3B
  3
ACAD_MLEADERSTYLE
350
467
  3
ACAD_MLINESTYLE
350
17
  3
ACAD_PLOTSETTINGS
350
19
  3
ACAD_PLOTSTYLENAME
350
E
  3
ACAD_TABLESTYLE
350
466
  3
ACAD_VISUALSTYLE
350
2A
  0
DICTIONARY
  5
D
102
{ACAD_REACTORS
330
C
102
}
330
C
100
AcDbDictionary
281
     1
  0
DICTIONARY
  5
1A
102
{ACAD_REACTORS
330
C
102
}
330
C
100
AcDbDictionary
281
     1
  3
Layout1
350
1E
  3
Layout2
350
26
  3
Model
350
22
  0
DICTIONARY
  5
3B
102
{ACAD_REACTORS
330
C
102
}
330
C
100
AcDbDictionary
281
     1
  3
ByBlock
350
3D
  3
ByLayer
350
3C
  3
Global
350
3E
  0
DICTIONARY
  5
467
102
{ACAD_REACTORS
330
C
102
}
330
C
100
AcDbDictionary
281
     1
  0
DICTIONARY
  5
17
102
{ACAD_REACTORS
330
C
102
}
330
C
100
AcDbDictionary
281
     1
  3
Standard
350
18
  0
DICTIONARY
  5
19
102
{ACAD_REACTORS
330
C
102
}
330
C
100
AcDbDictionary
281
     1
  0
ACDBDICTIONARYWDFLT
  5
E
102
{ACAD_REACTORS
330
C
102
}
330
C
100
AcDbDictionary
281
     1
  3
Normal
350
F
100
AcDbDictionaryWithDefault
340
F
  0
DICTIONARY
  5
466
102
{ACAD_REACTORS
330
C
102
}
330
C
100
AcDbDictionary
281
     1
  0
DICTIONARY
  5
2A
102
{ACAD_REACTORS
330
C
102
}
330
C
100
AcDbDictionary
281
     1
  3
2dWireframe
350
2F
  3
3D Hidden
350
31
  3
3dWireframe
350
30
  3
Basic
350
32
  3
Brighten
350
36
  3
ColorChange
350
3A
  3
Conceptual
350
34
  3
Dim
350
35
  3
Facepattern
350
39
  3
Flat
350
2B
  3
FlatWithEdges
350
2C
  3
Gouraud
350
2D
  3
GouraudWithEdges
350
2E
  3
Linepattern
350
38
  3
Realistic
350
33
  3
Thicken
350
37
  0
LAYOUT
  5
1E
102
{ACAD_REACTORS
330
1A
102
}
330
1A
100
AcDbPlotSettings
  1

  2
none_device
  4

  6

 40
0.0
 41
0.0
 42
0.0
 43
0.0
 44
0.0
 45
0.0
 46
0.0
 47
0.0
 48
0.0
 49
0.0
140
0.0
141
0.0
142
1.0
143
1.0
 70
   688
 72
     0
 73
     0
 74
     5
  7

 75
    16
 76
     0
 77
     2
 78
   300
147
1.0
148
0.0
149
0.0
100
AcDbLayout
  1
Layout1
 70
     1
 71
     1
 10
0.0
 20
0.0
 11
12.0
 21
9.0
 12
0.0
 22
0.0
 32
0.0
 14
1.00000000000000E+20
 24
1.00000000000000E+20
 34
1.00000000000000E+20
 15
-1.00000000000000E+20
 25
-1.00000000000000E+20
 35
-1.00000000000000E+20
146
0.0
 13
0.0
 23
0.0
 33
0.0
 16
1.0
 26
0.0
 36
0.0
 17
0.0
 27
1.0
 37
0.0
 76
     0
330
1B
  0
LAYOUT
  5
26
102
{ACAD_REACTORS
330
1A
102
}
330
1A
100
AcDbPlotSettings
  1

  2
none_device
  4

  6

 40
0.0
 41
0.0
 42
0.0
 43
0.0
 44
0.0
 45
0.0
 46
0.0
 47
0.0
 48
0.0
 49
0.0
140
0.0
141
0.0
142
1.0
143
1.0
 70
   688
 72
     0
 73
     0
 74
     5
  7

 75
    16
 76
     0
 77
     2
 78
   300
147
1.0
148
0.0
149
0.0
100
AcDbLayout
  1
Layout2
 70
     1
 71
     2
 10
0.0
 20
0.0
 11
0.0
 21
0.0
 12
0.0
 22
0.0
 32
0.0
 14
0.0
 24
0.0
 34
0.0
 15
0.0
 25
0.0
 35
0.0
146
0.0
 13
0.0
 23
0.0
 33
0.0
 16
1.0
 26
0.0
 36
0.0
 17
0.0
 27
1.0
 37
0.0
 76
     0
330
23
  0
LAYOUT
  5
22
102
{ACAD_REACTORS
330
1A
102
}
330
1A
100
AcDbPlotSettings
  1

  2
none_device
  4

  6

 40
0.0
 41
0.0
 42
0.0
 43
0.0
 44
0.0
 45
0.0
 46
0.0
 47
0.0
 48
0.0
 49
0.0
140
0.0
141
0.0
142
1.0
143
1.0
 70
  1712
 72
     0
 73
     0
 74
     0
  7

 75
     0
 76
     0
 77
     2
 78
   300
147
1.0
148
0.0
149
0.0
100
AcDbLayout
  1
Model
 70
     1
 71
     0
 10
0.0
 20
0.0
 11
12.0
 21
9.0
 12
0.0
 22
0.0
 32
0.0
 14
-415.499999999989
 24
-267.0000000000051
 34
0.0
 15
-118.4999999999909
 25
-57.000000000005
 35
0.0
146
0.0
 13
0.0
 23
0.0
 33
0.0
 16
1.0
 26
0.0
 36
0.0
 17
0.0
 27
1.0
 37
0.0
 76
     0
330
1F
331
29
  0
MATERIAL
  5
3D
102
{ACAD_REACTORS
330
3B
102
}
102
{ACAD_XDICTIONARY
360
462
102
}
330
3B
100
AcDbMaterial
  1
ByBlock
  0
MATERIAL
  5
3C
102
{ACAD_REACTORS
330
3B
102
}
102
{ACAD_XDICTIONARY
360
460
102
}
330
3B
100
AcDbMaterial
  1
ByLayer
  0
MATERIAL
  5
3E
102
{ACAD_REACTORS
330
3B
102
}
102
{ACAD_XDICTIONARY
360
464
102
}
330
3B
100
AcDbMaterial
  1
Global
  0
MLINESTYLE
  5
18
102
{ACAD_REACTORS
330
17
102
}
330
17
100
AcDbMlineStyle
  2
Standard
 70
     0
  3

 62
   256
 51
90.0
 52
90.0
 71
     2
 49
0.5
 62
   256
  6
BYLAYER
 49
-0.5
 62
   256
  6
BYLAYER
  0
ACDBPLACEHOLDER
  5
F
102
{ACAD_REACTORS
330
E
102
}
330
E
  0
VISUALSTYLE
  5
2F
102
{ACAD_REACTORS
330
2A
102
}
102
{ACAD_XDICTIONARY
360
448
102
}
330
2A
100
AcDbVisualStyle
  2
2dWireframe
 70
     4
 71
     0
 72
     2
 73
     0
 90
        0
 40
-0.6
 41
-30.0
 62
     5
 63
     7
421
 16777215
 74
     1
 91
        4
 64
     7
 65
   257
 75
     1
175
     1
 42
1.0
 92
        0
 66
   257
 43
1.0
 76
     1
 77
     6
 78
     2
 67
     7
 79
     5
170
     0
171
     0
290
     0
174
     0
 93
        1
 44
0.0
173
     0
291
     0
 45
0.0
1001
ACAD
1000
AcDbSavedByObjectVersion
1070
     0
  0
VISUALSTYLE
  5
31
102
{ACAD_REACTORS
330
2A
102
}
102
{ACAD_XDICTIONARY
360
44C
102
}
330
2A
100
AcDbVisualStyle
  2
3D Hidden
 70
     6
 71
     1
 72
     2
 73
     2
 90
        0
 40
-0.6
 41
-30.0
 62
     5
 63
     7
421
 16777215
 74
     2
 91
        2
 64
     7
 65
   257
 75
     2
175
     1
 42
40.0
 92
        0
 66
   257
 43
1.0
 76
     1
 77
     6
 78
     2
 67
     7
 79
     3
170
     0
171
     0
290
     0
174
     0
 93
        1
 44
0.0
173
     0
291
     0
 45
0.0
1001
ACAD
1000
AcDbSavedByObjectVersion
1070
     0
  0
VISUALSTYLE
  5
30
102
{ACAD_REACTORS
330
2A
102
}
102
{ACAD_XDICTIONARY
360
44A
102
}
330
2A
100
AcDbVisualStyle
  2
3dWireframe
 70
     5
 71
     0
 72
     2
 73
     0
 90
        0
 40
-0.6
 41
-30.0
 62
     5
 63
     7
421
 16777215
 74
     1
 91
        4
 64
     7
 65
   257
 75
     1
175
     1
 42
1.0
 92
        0
 66
   257
 43
1.0
 76
     1
 77
     6
 78
     2
 67
     7
 79
     5
170
     0
171
     0
290
     0
174
     0
 93
        1
 44
0.0
173
     0
291
     0
 45
0.0
1001
ACAD
1000
AcDbSavedByObjectVersion
1070
     0
  0
VISUALSTYLE
  5
32
102
{ACAD_REACTORS
330
2A
102
}
102
{ACAD_XDICTIONARY
360
44E
102
}
330
2A
100
AcDbVisualStyle
  2
Basic
 70
     7
 71
     1
 72
     0
 73
     1
 90
        0
 40
-0.6
 41
-30.0
 62
     5
 63
     7
421
 16777215
 74
     0
 91
        4
 64
     7
 65
   257
 75
     1
175
     1
 42
1.0
 92
        8
 66
     7
 43
1.0
 76
     1
 77
     6
 78
     2
 67
     7
 79
     5
170
     0
171
     0
290
     0
174
     0
 93
        1
 44
0.0
173
     0
291
     1
 45
0.0
1001
ACAD
1000
AcDbSavedByObjectVersion
1070
     0
  0
VISUALSTYLE
  5
36
102
{ACAD_REACTORS
330
2A
102
}
102
{ACAD_XDICTIONARY
360
456
102
}
330
2A
100
AcDbVisualStyle
  2
Brighten
 70
    12
 71
     2
 72
     2
 73
     0
 90
        0
 40
-0.6
 41
-30.0
 62
     5
 63
     7
421
 16777215
 74
     1
 91
        4
 64
     7
 65
   257
 75
     1
175
     1
 42
1.0
 92
        8
 66
     7
 43
1.0
 76
     1
 77
     6
 78
     2
 67
     7
 79
     5
170
     0
171
     0
290
     0
174
     0
 93
        1
 44
50.0
173
     0
291
     1
 45
0.0
1001
ACAD
1000
AcDbSavedByObjectVersion
1070
     0
  0
VISUALSTYLE
  5
3A
102
{ACAD_REACTORS
330
2A
102
}
102
{ACAD_XDICTIONARY
360
45E
102
}
330
2A
100
AcDbVisualStyle
  2
ColorChange
 70
    16
 71
     2
 72
     2
 73
     3
 90
        0
 40
-0.6
 41
-30.0
 62
     5
 63
     8
421
  8421504
 74
     1
 91
        4
 64
     7
 65
   257
 75
     1
175
     1
 42
1.0
 92
        8
 66
     8
424
  8421504
 43
1.0
 76
     1
 77
     6
 78
     2
 67
     7
 79
     5
170
     0
171
     0
290
     0
174
     0
 93
        1
 44
0.0
173
     0
291
     1
 45
0.0
1001
ACAD
1000
AcDbSavedByObjectVersion
1070
     0
  0
VISUALSTYLE
  5
34
102
{ACAD_REACTORS
330
2A
102
}
102
{ACAD_XDICTIONARY
360
452
102
}
330
2A
100
AcDbVisualStyle
  2
Conceptual
 70
     9
 71
     3
 72
     2
 73
     0
 90
        0
 40
-0.6
 41
-30.0
 62
     5
 63
     7
421
 16777215
 74
     2
 91
        2
 64
     7
 65
   257
 75
     1
175
     1
 42
40.0
 92
        8
 66
     7
 43
1.0
 76
     1
 77
     6
 78
     2
 67
     7
 79
     3
170
     0
171
     0
290
     0
174
     0
 93
        1
 44
0.0
173
     0
291
     0
 45
0.0
1001
ACAD
1000
AcDbSavedByObjectVersion
1070
     0
  0
VISUALSTYLE
  5
35
102
{ACAD_REACTORS
330
2A
102
}
102
{ACAD_XDICTIONARY
360
454
102
}
330
2A
100
AcDbVisualStyle
  2
Dim
 70
    11
 71
     2
 72
     2
 73
     0
 90
        0
 40
-0.6
 41
-30.0
 62
     5
 63
     7
421
 16777215
 74
     1
 91
        4
 64
     7
 65
   257
 75
     1
175
     1
 42
1.0
 92
        8
 66
     7
 43
1.0
 76
     1
 77
     6
 78
     2
 67
     7
 79
     5
170
     0
171
     0
290
     0
174
     0
 93
        1
 44
-50.0
173
     0
291
     1
 45
0.0
1001
ACAD
1000
AcDbSavedByObjectVersion
1070
     0
  0
VISUALSTYLE
  5
39
102
{ACAD_REACTORS
330
2A
102
}
102
{ACAD_XDICTIONARY
360
45C
102
}
330
2A
100
AcDbVisualStyle
  2
Facepattern
 70
    15
 71
     2
 72
     2
 73
     0
 90
        0
 40
-0.6
 41
-30.0
 62
     5
 63
     7
421
 16777215
 74
     1
 91
        4
 64
     7
 65
   257
 75
     1
175
     1
 42
1.0
 92
        8
 66
     7
 43
1.0
 76
     1
 77
     6
 78
     2
 67
     7
 79
     5
170
     0
171
     0
290
     0
174
     0
 93
        1
 44
0.0
173
     0
291
     1
 45
0.0
1001
ACAD
1000
AcDbSavedByObjectVersion
1070
     0
  0
VISUALSTYLE
  5
2B
102
{ACAD_REACTORS
330
2A
102
}
102
{ACAD_XDICTIONARY
360
440
102
}
330
2A
100
AcDbVisualStyle
  2
Flat
 70
     0
 71
     2
 72
     1
 73
     1
 90
        2
 40
-0.6
 41
30.0
 62
     5
 63
     7
421
 16777215
 74
     0
 91
        4
 64
     7
 65
   257
 75
     1
175
     1
 42
1.0
 92
        8
 66
     7
 43
1.0
 76
     1
 77
     6
 78
     2
 67
     7
 79
     5
170
     0
171
     0
290
     0
174
     0
 93
       13
 44
0.0
173
     0
291
     1
 45
0.0
1001
ACAD
1000
AcDbSavedByObjectVersion
1070
     0
  0
VISUALSTYLE
  5
2C
102
{ACAD_REACTORS
330
2A
102
}
102
{ACAD_XDICTIONARY
360
442
102
}
330
2A
100
AcDbVisualStyle
  2
FlatWithEdges
 70
     1
 71
     2
 72
     1
 73
     1
 90
        2
 40
-0.6
 41
30.0
 62
     5
 63
     7
421
 16777215
 74
     1
 91
        4
 64
     7
 65
   257
 75
     1
175
     1
 42
1.0
 92
        0
 66
   257
 43
1.0
 76
     1
 77
     6
 78
     2
 67
     7
 79
     5
170
     0
171
     0
290
     0
174
     0
 93
       13
 44
0.0
173
     0
291
     1
 45
0.0
1001
ACAD
1000
AcDbSavedByObjectVersion
1070
     0
  0
VISUALSTYLE
  5
2D
102
{ACAD_REACTORS
330
2A
102
}
102
{ACAD_XDICTIONARY
360
444
102
}
330
2A
100
AcDbVisualStyle
  2
Gouraud
 70
     2
 71
     2
 72
     2
 73
     1
 90
        2
 40
-0.6
 41
30.0
 62
     5
 63
     7
421
 16777215
 74
     0
 91
        4
 64
     7
 65
   257
 75
     1
175
     1
 42
1.0
 92
        0
 66
     7
 43
1.0
 76
     1
 77
     6
 78
     2
 67
     7
 79
     5
170
     0
171
     0
290
     0
174
     0
 93
       13
 44
0.0
173
     0
291
     1
 45
0.0
1001
ACAD
1000
AcDbSavedByObjectVersion
1070
     0
  0
VISUALSTYLE
  5
2E
102
{ACAD_REACTORS
330
2A
102
}
102
{ACAD_XDICTIONARY
360
446
102
}
330
2A
100
AcDbVisualStyle
  2
GouraudWithEdges
 70
     3
 71
     2
 72
     2
 73
     1
 90
        2
 40
-0.6
 41
30.0
 62
     5
 63
     7
421
 16777215
 74
     1
 91
        4
 64
     7
 65
   257
 75
     1
175
     1
 42
1.0
 92
        0
 66
   257
 43
1.0
 76
     1
 77
     6
 78
     2
 67
     7
 79
     5
170
     0
171
     0
290
     0
174
     0
 93
       13
 44
0.0
173
     0
291
     1
 45
0.0
1001
ACAD
1000
AcDbSavedByObjectVersion
1070
     0
  0
VISUALSTYLE
  5
38
102
{ACAD_REACTORS
330
2A
102
}
102
{ACAD_XDICTIONARY
360
45A
102
}
330
2A
100
AcDbVisualStyle
  2
Linepattern
 70
    14
 71
     2
 72
     2
 73
     0
 90
        0
 40
-0.6
 41
-30.0
 62
     5
 63
     7
421
 16777215
 74
     1
 91
        4
 64
     7
 65
   257
 75
     7
175
     7
 42
1.0
 92
        8
 66
     7
 43
1.0
 76
     1
 77
     6
 78
     2
 67
     7
 79
     5
170
     0
171
     0
290
     0
174
     0
 93
        1
 44
0.0
173
     0
291
     1
 45
0.0
1001
ACAD
1000
AcDbSavedByObjectVersion
1070
     0
  0
VISUALSTYLE
  5
33
102
{ACAD_REACTORS
330
2A
102
}
102
{ACAD_XDICTIONARY
360
450
102
}
330
2A
100
AcDbVisualStyle
  2
Realistic
 70
     8
 71
     2
 72
     2
 73
     0
 90
        0
 40
-0.6
 41
-30.0
 62
     5
 63
     7
421
 16777215
 74
     1
 91
        0
 64
     7
 65
   257
 75
     1
175
     1
 42
1.0
 92
        8
 66
     8
424
  7895160
 43
1.0
 76
     1
 77
     6
 78
     2
 67
     7
 79
     5
170
     0
171
     0
290
     0
174
     0
 93
       13
 44
0.0
173
     0
291
     0
 45
0.0
1001
ACAD
1000
AcDbSavedByObjectVersion
1070
     0
  0
VISUALSTYLE
  5
37
102
{ACAD_REACTORS
330
2A
102
}
102
{ACAD_XDICTIONARY
360
458
102
}
330
2A
100
AcDbVisualStyle
  2
Thicken
 70
    13
 71
     2
 72
     2
 73
     0
 90
        0
 40
-0.6
 41
-30.0
 62
     5
 63
     7
421
 16777215
 74
     1
 91
        4
 64
     7
 65
   257
 75
     1
175
     1
 42
1.0
 92
       12
 66
     7
 43
1.0
 76
     1
 77
     6
 78
     2
 67
     7
 79
     5
170
     0
171
     0
290
     0
174
     0
 93
        1
 44
0.0
173
     0
291
     1
 45
0.0
1001
ACAD
1000
AcDbSavedByObjectVersion
1070
     0
  0
DICTIONARY
  5
462
330
3D
100
AcDbDictionary
280
     1
281
     1
  3
ACAD_XREC_ROUNDTRIP
360
463
  0
DICTIONARY
  5
460
330
3C
100
AcDbDictionary
280
     1
281
     1
  3
ACAD_XREC_ROUNDTRIP
360
461
  0
DICTIONARY
  5
464
330
3E
100
AcDbDictionary
280
     1
281
     1
  3
ACAD_XREC_ROUNDTRIP
360
465
  0
DICTIONARY
  5
448
330
2F
100
AcDbDictionary
280
     1
281
     1
  3
ACAD_XREC_ROUNDTRIP
360
449
  0
DICTIONARY
  5
44C
330
31
100
AcDbDictionary
280
     1
281
     1
  3
ACAD_XREC_ROUNDTRIP
360
44D
  0
DICTIONARY
  5
44A
330
30
100
AcDbDictionary
280
     1
281
     1
  3
ACAD_XREC_ROUNDTRIP
360
44B
  0
DICTIONARY
  5
44E
330
32
100
AcDbDictionary
280
     1
281
     1
  3
ACAD_XREC_ROUNDTRIP
360
44F
  0
DICTIONARY
  5
456
330
36
100
AcDbDictionary
280
     1
281
     1
  3
ACAD_XREC_ROUNDTRIP
360
457
  0
DICTIONARY
  5
45E
330
3A
100
AcDbDictionary
280
     1
281
     1
  3
ACAD_XREC_ROUNDTRIP
360
45F
  0
DICTIONARY
  5
452
330
34
100
AcDbDictionary
280
     1
281
     1
  3
ACAD_XREC_ROUNDTRIP
360
453
  0
DICTIONARY
  5
454
330
35
100
AcDbDictionary
280
     1
281
     1
  3
ACAD_XREC_ROUNDTRIP
360
455
  0
DICTIONARY
  5
45C
330
39
100
AcDbDictionary
280
     1
281
     1
  3
ACAD_XREC_ROUNDTRIP
360
45D
  0
DICTIONARY
  5
440
330
2B
100
AcDbDictionary
280
     1
281
     1
  3
ACAD_XREC_ROUNDTRIP
360
441
  0
DICTIONARY
  5
442
330
2C
100
AcDbDictionary
280
     1
281
     1
  3
ACAD_XREC_ROUNDTRIP
360
443
  0
DICTIONARY
  5
444
330
2D
100
AcDbDictionary
280
     1
281
     1
  3
ACAD_XREC_ROUNDTRIP
360
445
  0
DICTIONARY
  5
446
330
2E
100
AcDbDictionary
280
     1
281
     1
  3
ACAD_XREC_ROUNDTRIP
360
447
  0
DICTIONARY
  5
45A
330
38
100
AcDbDictionary
280
     1
281
     1
  3
ACAD_XREC_ROUNDTRIP
360
45B
  0
DICTIONARY
  5
450
330
33
100
AcDbDictionary
280
     1
281
     1
  3
ACAD_XREC_ROUNDTRIP
360
451
  0
DICTIONARY
  5
458
330
37
100
AcDbDictionary
280
     1
281
     1
  3
ACAD_XREC_ROUNDTRIP
360
459
  0
XRECORD
  5
463
102
{ACAD_REACTORS
330
462
102
}
330
462
100
AcDbXrecord
280
     1
102
MATERIAL
148
0.0
149
0.0
149
0.0
 93
        0
 94
      127
282
     0
 72
     1
 77
     1
171
     1
175
     1
179
     1
273
     0
  0
XRECORD
  5
461
102
{ACAD_REACTORS
330
460
102
}
330
460
100
AcDbXrecord
280
     1
102
MATERIAL
148
0.0
149
0.0
149
0.0
 93
        0
 94
      127
282
     0
 72
     1
 77
     1
171
     1
175
     1
179
     1
273
     0
  0
XRECORD
  5
465
102
{ACAD_REACTORS
330
464
102
}
330
464
100
AcDbXrecord
280
     1
102
MATERIAL
148
0.0
149
0.0
149
0.0
 93
        0
 94
      127
282
     0
 72
     1
 77
     1
171
     1
175
     1
179
     1
273
     0
  0
XRECORD
  5
449
102
{ACAD_REACTORS
330
448
102
}
330
448
100
AcDbXrecord
280
     1
102
RTVSPropertyOp0
 70
     1
102
RTVSPropertyOp1
 70
     1
102
RTVSPropertyOp2
 70
     1
102
RTVSPropertyOp3
 70
     1
102
RTVSPropertyOp4
 70
     1
102
RTVSPropertyOp5
 70
     1
102
RTVSPropertyOp6
 70
     1
102
RTVSPropertyOp7
 70
     1
102
RTVSPropertyOp8
 70
     1
102
RTVSPropertyOp9
 70
     1
102
RTVSPropertyOp10
 70
     1
102
RTVSPropertyOp11
 70
     1
102
RTVSPropertyOp12
 70
     1
102
RTVSPropertyOp13
 70
     1
102
RTVSPropertyOp14
 70
     1
102
RTVSPropertyOp15
 70
     1
102
RTVSPropertyOp16
 70
     1
102
RTVSPropertyOp17
 70
     1
102
RTVSPropertyOp18
 70
     1
102
RTVSPropertyOp19
 70
     1
102
RTVSPropertyOp20
 70
     1
102
RTVSPropertyOp21
 70
     1
102
RTVSPropertyOp22
 70
     1
102
RTVSPropertyOp23
 70
     1
102
RTVSPropertyOp24
 70
     1
102
RTVSPropertyOp25
 70
     1
102
RTVSPropertyOp26
 70
     1
102
RTVSPropertyOp27
 70
     1
102
RTVSPropertyOp28
 70
     1
102
RTVSPropertyOp29
 70
     1
102
RTVSPropertyOp30
 70
     1
102
RTVSPropertyOp31
 70
     1
102
RTVSPropertyOp32
 70
     1
  0
XRECORD
  5
44D
102
{ACAD_REACTORS
330
44C
102
}
330
44C
100
AcDbXrecord
280
     1
102
RTVSPropertyOp0
 70
     1
102
RTVSPropertyOp1
 70
     1
102
RTVSPropertyOp2
 70
     1
102
RTVSPropertyOp3
 70
     1
102
RTVSPropertyOp4
 70
     1
102
RTVSPropertyOp5
 70
     1
102
RTVSPropertyOp6
 70
     1
102
RTVSPropertyOp7
 70
     1
102
RTVSPropertyOp8
 70
     1
102
RTVSPropertyOp9
 70
     1
102
RTVSPropertyOp10
 70
     1
102
RTVSPropertyOp11
 70
     1
102
RTVSPropertyOp12
 70
     1
102
RTVSPropertyOp13
 70
     1
102
RTVSPropertyOp14
 70
     1
102
RTVSPropertyOp15
 70
     1
102
RTVSPropertyOp16
 70
     1
102
RTVSPropertyOp17
 70
     1
102
RTVSPropertyOp18
 70
     1
102
RTVSPropertyOp19
 70
     1
102
RTVSPropertyOp20
 70
     1
102
RTVSPropertyOp21
 70
     1
102
RTVSPropertyOp22
 70
     1
102
RTVSPropertyOp23
 70
     1
102
RTVSPropertyOp24
 70
     1
102
RTVSPropertyOp25
 70
     1
102
RTVSPropertyOp26
 70
     1
102
RTVSPropertyOp27
 70
     1
102
RTVSPropertyOp28
 70
     1
102
RTVSPropertyOp29
 70
     1
102
RTVSPropertyOp30
 70
     1
102
RTVSPropertyOp31
 70
     1
102
RTVSPropertyOp32
 70
     1
  0
XRECORD
  5
44B
102
{ACAD_REACTORS
330
44A
102
}
330
44A
100
AcDbXrecord
280
     1
102
RTVSPropertyOp0
 70
     1
102
RTVSPropertyOp1
 70
     1
102
RTVSPropertyOp2
 70
     1
102
RTVSPropertyOp3
 70
     1
102
RTVSPropertyOp4
 70
     1
102
RTVSPropertyOp5
 70
     1
102
RTVSPropertyOp6
 70
     1
102
RTVSPropertyOp7
 70
     1
102
RTVSPropertyOp8
 70
     1
102
RTVSPropertyOp9
 70
     1
102
RTVSPropertyOp10
 70
     1
102
RTVSPropertyOp11
 70
     1
102
RTVSPropertyOp12
 70
     1
102
RTVSPropertyOp13
 70
     1
102
RTVSPropertyOp14
 70
     1
102
RTVSPropertyOp15
 70
     1
102
RTVSPropertyOp16
 70
     1
102
RTVSPropertyOp17
 70
     1
102
RTVSPropertyOp18
 70
     1
102
RTVSPropertyOp19
 70
     1
102
RTVSPropertyOp20
 70
     1
102
RTVSPropertyOp21
 70
     1
102
RTVSPropertyOp22
 70
     1
102
RTVSPropertyOp23
 70
     1
102
RTVSPropertyOp24
 70
     1
102
RTVSPropertyOp25
 70
     1
102
RTVSPropertyOp26
 70
     1
102
RTVSPropertyOp27
 70
     1
102
RTVSPropertyOp28
 70
     1
102
RTVSPropertyOp29
 70
     1
102
RTVSPropertyOp30
 70
     1
102
RTVSPropertyOp31
 70
     1
102
RTVSPropertyOp32
 70
     1
  0
XRECORD
  5
44F
102
{ACAD_REACTORS
330
44E
102
}
330
44E
100
AcDbXrecord
280
     1
102
RTVSPropertyOp0
 70
     1
102
RTVSPropertyOp1
 70
     1
102
RTVSPropertyOp2
 70
     1
102
RTVSPropertyOp3
 70
     1
102
RTVSPropertyOp4
 70
     1
102
RTVSPropertyOp5
 70
     1
102
RTVSPropertyOp6
 70
     1
102
RTVSPropertyOp7
 70
     1
102
RTVSPropertyOp8
 70
     1
102
RTVSPropertyOp9
 70
     1
102
RTVSPropertyOp10
 70
     1
102
RTVSPropertyOp11
 70
     1
102
RTVSPropertyOp12
 70
     1
102
RTVSPropertyOp13
 70
     1
102
RTVSPropertyOp14
 70
     1
102
RTVSPropertyOp15
 70
     1
102
RTVSPropertyOp16
 70
     1
102
RTVSPropertyOp17
 70
     1
102
RTVSPropertyOp18
 70
     1
102
RTVSPropertyOp19
 70
     1
102
RTVSPropertyOp20
 70
     1
102
RTVSPropertyOp21
 70
     1
102
RTVSPropertyOp22
 70
     1
102
RTVSPropertyOp23
 70
     1
102
RTVSPropertyOp24
 70
     1
102
RTVSPropertyOp25
 70
     1
102
RTVSPropertyOp26
 70
     1
102
RTVSPropertyOp27
 70
     1
102
RTVSPropertyOp28
 70
     1
102
RTVSPropertyOp29
 70
     1
102
RTVSPropertyOp30
 70
     1
102
RTVSPropertyOp31
 70
     1
102
RTVSPropertyOp32
 70
     1
  0
XRECORD
  5
457
102
{ACAD_REACTORS
330
456
102
}
330
456
100
AcDbXrecord
280
     1
102
RTVSPropertyOp0
 70
     1
102
RTVSPropertyOp1
 70
     1
102
RTVSPropertyOp2
 70
     1
102
RTVSPropertyOp3
 70
     1
102
RTVSPropertyOp4
 70
     1
102
RTVSPropertyOp5
 70
     1
102
RTVSPropertyOp6
 70
     1
102
RTVSPropertyOp7
 70
     1
102
RTVSPropertyOp8
 70
     1
102
RTVSPropertyOp9
 70
     1
102
RTVSPropertyOp10
 70
     1
102
RTVSPropertyOp11
 70
     1
102
RTVSPropertyOp12
 70
     1
102
RTVSPropertyOp13
 70
     1
102
RTVSPropertyOp14
 70
     1
102
RTVSPropertyOp15
 70
     1
102
RTVSPropertyOp16
 70
     1
102
RTVSPropertyOp17
 70
     1
102
RTVSPropertyOp18
 70
     1
102
RTVSPropertyOp19
 70
     1
102
RTVSPropertyOp20
 70
     1
102
RTVSPropertyOp21
 70
     1
102
RTVSPropertyOp22
 70
     1
102
RTVSPropertyOp23
 70
     1
102
RTVSPropertyOp24
 70
     1
102
RTVSPropertyOp25
 70
     1
102
RTVSPropertyOp26
 70
     1
102
RTVSPropertyOp27
 70
     1
102
RTVSPropertyOp28
 70
     1
102
RTVSPropertyOp29
 70
     1
102
RTVSPropertyOp30
 70
     1
102
RTVSPropertyOp31
 70
     1
102
RTVSPropertyOp32
 70
     1
  0
XRECORD
  5
45F
102
{ACAD_REACTORS
330
45E
102
}
330
45E
100
AcDbXrecord
280
     1
102
RTVSPropertyOp0
 70
     1
102
RTVSPropertyOp1
 70
     1
102
RTVSPropertyOp2
 70
     1
102
RTVSPropertyOp3
 70
     1
102
RTVSPropertyOp4
 70
     1
102
RTVSPropertyOp5
 70
     1
102
RTVSPropertyOp6
 70
     1
102
RTVSPropertyOp7
 70
     1
102
RTVSPropertyOp8
 70
     1
102
RTVSPropertyOp9
 70
     1
102
RTVSPropertyOp10
 70
     1
102
RTVSPropertyOp11
 70
     1
102
RTVSPropertyOp12
 70
     1
102
RTVSPropertyOp13
 70
     1
102
RTVSPropertyOp14
 70
     1
102
RTVSPropertyOp15
 70
     1
102
RTVSPropertyOp16
 70
     1
102
RTVSPropertyOp17
 70
     1
102
RTVSPropertyOp18
 70
     1
102
RTVSPropertyOp19
 70
     1
102
RTVSPropertyOp20
 70
     1
102
RTVSPropertyOp21
 70
     1
102
RTVSPropertyOp22
 70
     1
102
RTVSPropertyOp23
 70
     1
102
RTVSPropertyOp24
 70
     1
102
RTVSPropertyOp25
 70
     1
102
RTVSPropertyOp26
 70
     1
102
RTVSPropertyOp27
 70
     1
102
RTVSPropertyOp28
 70
     1
102
RTVSPropertyOp29
 70
     1
102
RTVSPropertyOp30
 70
     1
102
RTVSPropertyOp31
 70
     1
102
RTVSPropertyOp32
 70
     1
  0
XRECORD
  5
453
102
{ACAD_REACTORS
330
452
102
}
330
452
100
AcDbXrecord
280
     1
102
RTVSPropertyOp0
 70
     1
102
RTVSPropertyOp1
 70
     1
102
RTVSPropertyOp2
 70
     1
102
RTVSPropertyOp3
 70
     1
102
RTVSPropertyOp4
 70
     1
102
RTVSPropertyOp5
 70
     1
102
RTVSPropertyOp6
 70
     1
102
RTVSPropertyOp7
 70
     1
102
RTVSPropertyOp8
 70
     1
102
RTVSPropertyOp9
 70
     1
102
RTVSPropertyOp10
 70
     1
102
RTVSPropertyOp11
 70
     1
102
RTVSPropertyOp12
 70
     1
102
RTVSPropertyOp13
 70
     1
102
RTVSPropertyOp14
 70
     1
102
RTVSPropertyOp15
 70
     1
102
RTVSPropertyOp16
 70
     1
102
RTVSPropertyOp17
 70
     1
102
RTVSPropertyOp18
 70
     1
102
RTVSPropertyOp19
 70
     1
102
RTVSPropertyOp20
 70
     1
102
RTVSPropertyOp21
 70
     1
102
RTVSPropertyOp22
 70
     1
102
RTVSPropertyOp23
 70
     1
102
RTVSPropertyOp24
 70
     1
102
RTVSPropertyOp25
 70
     1
102
RTVSPropertyOp26
 70
     1
102
RTVSPropertyOp27
 70
     1
102
RTVSPropertyOp28
 70
     1
102
RTVSPropertyOp29
 70
     1
102
RTVSPropertyOp30
 70
     1
102
RTVSPropertyOp31
 70
     1
102
RTVSPropertyOp32
 70
     1
  0
XRECORD
  5
455
102
{ACAD_REACTORS
330
454
102
}
330
454
100
AcDbXrecord
280
     1
102
RTVSPropertyOp0
 70
     1
102
RTVSPropertyOp1
 70
     1
102
RTVSPropertyOp2
 70
     1
102
RTVSPropertyOp3
 70
     1
102
RTVSPropertyOp4
 70
     1
102
RTVSPropertyOp5
 70
     1
102
RTVSPropertyOp6
 70
     1
102
RTVSPropertyOp7
 70
     1
102
RTVSPropertyOp8
 70
     1
102
RTVSPropertyOp9
 70
     1
102
RTVSPropertyOp10
 70
     1
102
RTVSPropertyOp11
 70
     1
102
RTVSPropertyOp12
 70
     1
102
RTVSPropertyOp13
 70
     1
102
RTVSPropertyOp14
 70
     1
102
RTVSPropertyOp15
 70
     1
102
RTVSPropertyOp16
 70
     1
102
RTVSPropertyOp17
 70
     1
102
RTVSPropertyOp18
 70
     1
102
RTVSPropertyOp19
 70
     1
102
RTVSPropertyOp20
 70
     1
102
RTVSPropertyOp21
 70
     1
102
RTVSPropertyOp22
 70
     1
102
RTVSPropertyOp23
 70
     1
102
RTVSPropertyOp24
 70
     1
102
RTVSPropertyOp25
 70
     1
102
RTVSPropertyOp26
 70
     1
102
RTVSPropertyOp27
 70
     1
102
RTVSPropertyOp28
 70
     1
102
RTVSPropertyOp29
 70
     1
102
RTVSPropertyOp30
 70
     1
102
RTVSPropertyOp31
 70
     1
102
RTVSPropertyOp32
 70
     1
  0
XRECORD
  5
45D
102
{ACAD_REACTORS
330
45C
102
}
330
45C
100
AcDbXrecord
280
     1
102
RTVSPropertyOp0
 70
     1
102
RTVSPropertyOp1
 70
     1
102
RTVSPropertyOp2
 70
     1
102
RTVSPropertyOp3
 70
     1
102
RTVSPropertyOp4
 70
     1
102
RTVSPropertyOp5
 70
     1
102
RTVSPropertyOp6
 70
     1
102
RTVSPropertyOp7
 70
     1
102
RTVSPropertyOp8
 70
     1
102
RTVSPropertyOp9
 70
     1
102
RTVSPropertyOp10
 70
     1
102
RTVSPropertyOp11
 70
     1
102
RTVSPropertyOp12
 70
     1
102
RTVSPropertyOp13
 70
     1
102
RTVSPropertyOp14
 70
     1
102
RTVSPropertyOp15
 70
     1
102
RTVSPropertyOp16
 70
     1
102
RTVSPropertyOp17
 70
     1
102
RTVSPropertyOp18
 70
     1
102
RTVSPropertyOp19
 70
     1
102
RTVSPropertyOp20
 70
     1
102
RTVSPropertyOp21
 70
     1
102
RTVSPropertyOp22
 70
     1
102
RTVSPropertyOp23
 70
     1
102
RTVSPropertyOp24
 70
     1
102
RTVSPropertyOp25
 70
     1
102
RTVSPropertyOp26
 70
     1
102
RTVSPropertyOp27
 70
     1
102
RTVSPropertyOp28
 70
     1
102
RTVSPropertyOp29
 70
     1
102
RTVSPropertyOp30
 70
     1
102
RTVSPropertyOp31
 70
     1
102
RTVSPropertyOp32
 70
     1
  0
XRECORD
  5
441
102
{ACAD_REACTORS
330
440
102
}
330
440
100
AcDbXrecord
280
     1
102
RTVSPropertyOp0
 70
     1
102
RTVSPropertyOp1
 70
     1
102
RTVSPropertyOp2
 70
     1
102
RTVSPropertyOp3
 70
     1
102
RTVSPropertyOp4
 70
     1
102
RTVSPropertyOp5
 70
     1
102
RTVSPropertyOp6
 70
     1
102
RTVSPropertyOp7
 70
     1
102
RTVSPropertyOp8
 70
     1
102
RTVSPropertyOp9
 70
     1
102
RTVSPropertyOp10
 70
     1
102
RTVSPropertyOp11
 70
     1
102
RTVSPropertyOp12
 70
     1
102
RTVSPropertyOp13
 70
     1
102
RTVSPropertyOp14
 70
     1
102
RTVSPropertyOp15
 70
     1
102
RTVSPropertyOp16
 70
     1
102
RTVSPropertyOp17
 70
     1
102
RTVSPropertyOp18
 70
     1
102
RTVSPropertyOp19
 70
     1
102
RTVSPropertyOp20
 70
     1
102
RTVSPropertyOp21
 70
     1
102
RTVSPropertyOp22
 70
     1
102
RTVSPropertyOp23
 70
     1
102
RTVSPropertyOp24
 70
     1
102
RTVSPropertyOp25
 70
     1
102
RTVSPropertyOp26
 70
     1
102
RTVSPropertyOp27
 70
     1
102
RTVSPropertyOp28
 70
     1
102
RTVSPropertyOp29
 70
     1
102
RTVSPropertyOp30
 70
     1
102
RTVSPropertyOp31
 70
     1
102
RTVSPropertyOp32
 70
     1
  0
XRECORD
  5
443
102
{ACAD_REACTORS
330
442
102
}
330
442
100
AcDbXrecord
280
     1
102
RTVSPropertyOp0
 70
     1
102
RTVSPropertyOp1
 70
     1
102
RTVSPropertyOp2
 70
     1
102
RTVSPropertyOp3
 70
     1
102
RTVSPropertyOp4
 70
     1
102
RTVSPropertyOp5
 70
     1
102
RTVSPropertyOp6
 70
     1
102
RTVSPropertyOp7
 70
     1
102
RTVSPropertyOp8
 70
     1
102
RTVSPropertyOp9
 70
     1
102
RTVSPropertyOp10
 70
     1
102
RTVSPropertyOp11
 70
     1
102
RTVSPropertyOp12
 70
     1
102
RTVSPropertyOp13
 70
     1
102
RTVSPropertyOp14
 70
     1
102
RTVSPropertyOp15
 70
     1
102
RTVSPropertyOp16
 70
     1
102
RTVSPropertyOp17
 70
     1
102
RTVSPropertyOp18
 70
     1
102
RTVSPropertyOp19
 70
     1
102
RTVSPropertyOp20
 70
     1
102
RTVSPropertyOp21
 70
     1
102
RTVSPropertyOp22
 70
     1
102
RTVSPropertyOp23
 70
     1
102
RTVSPropertyOp24
 70
     1
102
RTVSPropertyOp25
 70
     1
102
RTVSPropertyOp26
 70
     1
102
RTVSPropertyOp27
 70
     1
102
RTVSPropertyOp28
 70
     1
102
RTVSPropertyOp29
 70
     1
102
RTVSPropertyOp30
 70
     1
102
RTVSPropertyOp31
 70
     1
102
RTVSPropertyOp32
 70
     1
  0
XRECORD
  5
445
102
{ACAD_REACTORS
330
444
102
}
330
444
100
AcDbXrecord
280
     1
102
RTVSPropertyOp0
 70
     1
102
RTVSPropertyOp1
 70
     1
102
RTVSPropertyOp2
 70
     1
102
RTVSPropertyOp3
 70
     1
102
RTVSPropertyOp4
 70
     1
102
RTVSPropertyOp5
 70
     1
102
RTVSPropertyOp6
 70
     1
102
RTVSPropertyOp7
 70
     1
102
RTVSPropertyOp8
 70
     1
102
RTVSPropertyOp9
 70
     1
102
RTVSPropertyOp10
 70
     1
102
RTVSPropertyOp11
 70
     1
102
RTVSPropertyOp12
 70
     1
102
RTVSPropertyOp13
 70
     1
102
RTVSPropertyOp14
 70
     1
102
RTVSPropertyOp15
 70
     1
102
RTVSPropertyOp16
 70
     1
102
RTVSPropertyOp17
 70
     1
102
RTVSPropertyOp18
 70
     1
102
RTVSPropertyOp19
 70
     1
102
RTVSPropertyOp20
 70
     1
102
RTVSPropertyOp21
 70
     1
102
RTVSPropertyOp22
 70
     1
102
RTVSPropertyOp23
 70
     1
102
RTVSPropertyOp24
 70
     1
102
RTVSPropertyOp25
 70
     1
102
RTVSPropertyOp26
 70
     1
102
RTVSPropertyOp27
 70
     1
102
RTVSPropertyOp28
 70
     1
102
RTVSPropertyOp29
 70
     1
102
RTVSPropertyOp30
 70
     1
102
RTVSPropertyOp31
 70
     1
102
RTVSPropertyOp32
 70
     1
  0
XRECORD
  5
447
102
{ACAD_REACTORS
330
446
102
}
330
446
100
AcDbXrecord
280
     1
102
RTVSPropertyOp0
 70
     1
102
RTVSPropertyOp1
 70
     1
102
RTVSPropertyOp2
 70
     1
102
RTVSPropertyOp3
 70
     1
102
RTVSPropertyOp4
 70
     1
102
RTVSPropertyOp5
 70
     1
102
RTVSPropertyOp6
 70
     1
102
RTVSPropertyOp7
 70
     1
102
RTVSPropertyOp8
 70
     1
102
RTVSPropertyOp9
 70
     1
102
RTVSPropertyOp10
 70
     1
102
RTVSPropertyOp11
 70
     1
102
RTVSPropertyOp12
 70
     1
102
RTVSPropertyOp13
 70
     1
102
RTVSPropertyOp14
 70
     1
102
RTVSPropertyOp15
 70
     1
102
RTVSPropertyOp16
 70
     1
102
RTVSPropertyOp17
 70
     1
102
RTVSPropertyOp18
 70
     1
102
RTVSPropertyOp19
 70
     1
102
RTVSPropertyOp20
 70
     1
102
RTVSPropertyOp21
 70
     1
102
RTVSPropertyOp22
 70
     1
102
RTVSPropertyOp23
 70
     1
102
RTVSPropertyOp24
 70
     1
102
RTVSPropertyOp25
 70
     1
102
RTVSPropertyOp26
 70
     1
102
RTVSPropertyOp27
 70
     1
102
RTVSPropertyOp28
 70
     1
102
RTVSPropertyOp29
 70
     1
102
RTVSPropertyOp30
 70
     1
102
RTVSPropertyOp31
 70
     1
102
RTVSPropertyOp32
 70
     1
  0
XRECORD
  5
45B
102
{ACAD_REACTORS
330
45A
102
}
330
45A
100
AcDbXrecord
280
     1
102
RTVSPropertyOp0
 70
     1
102
RTVSPropertyOp1
 70
     1
102
RTVSPropertyOp2
 70
     1
102
RTVSPropertyOp3
 70
     1
102
RTVSPropertyOp4
 70
     1
102
RTVSPropertyOp5
 70
     1
102
RTVSPropertyOp6
 70
     1
102
RTVSPropertyOp7
 70
     1
102
RTVSPropertyOp8
 70
     1
102
RTVSPropertyOp9
 70
     1
102
RTVSPropertyOp10
 70
     1
102
RTVSPropertyOp11
 70
     1
102
RTVSPropertyOp12
 70
     1
102
RTVSPropertyOp13
 70
     1
102
RTVSPropertyOp14
 70
     1
102
RTVSPropertyOp15
 70
     1
102
RTVSPropertyOp16
 70
     1
102
RTVSPropertyOp17
 70
     1
102
RTVSPropertyOp18
 70
     1
102
RTVSPropertyOp19
 70
     1
102
RTVSPropertyOp20
 70
     1
102
RTVSPropertyOp21
 70
     1
102
RTVSPropertyOp22
 70
     1
102
RTVSPropertyOp23
 70
     1
102
RTVSPropertyOp24
 70
     1
102
RTVSPropertyOp25
 70
     1
102
RTVSPropertyOp26
 70
     1
102
RTVSPropertyOp27
 70
     1
102
RTVSPropertyOp28
 70
     1
102
RTVSPropertyOp29
 70
     1
102
RTVSPropertyOp30
 70
     1
102
RTVSPropertyOp31
 70
     1
102
RTVSPropertyOp32
 70
     1
  0
XRECORD
  5
451
102
{ACAD_REACTORS
330
450
102
}
330
450
100
AcDbXrecord
280
     1
102
RTVSPropertyOp0
 70
     1
102
RTVSPropertyOp1
 70
     1
102
RTVSPropertyOp2
 70
     1
102
RTVSPropertyOp3
 70
     1
102
RTVSPropertyOp4
 70
     1
102
RTVSPropertyOp5
 70
     1
102
RTVSPropertyOp6
 70
     1
102
RTVSPropertyOp7
 70
     1
102
RTVSPropertyOp8
 70
     1
102
RTVSPropertyOp9
 70
     1
102
RTVSPropertyOp10
 70
     1
102
RTVSPropertyOp11
 70
     1
102
RTVSPropertyOp12
 70
     1
102
RTVSPropertyOp13
 70
     1
102
RTVSPropertyOp14
 70
     1
102
RTVSPropertyOp15
 70
     1
102
RTVSPropertyOp16
 70
     1
102
RTVSPropertyOp17
 70
     1
102
RTVSPropertyOp18
 70
     1
102
RTVSPropertyOp19
 70
     1
102
RTVSPropertyOp20
 70
     1
102
RTVSPropertyOp21
 70
     1
102
RTVSPropertyOp22
 70
     1
102
RTVSPropertyOp23
 70
     1
102
RTVSPropertyOp24
 70
     1
102
RTVSPropertyOp25
 70
     1
102
RTVSPropertyOp26
 70
     1
102
RTVSPropertyOp27
 70
     1
102
RTVSPropertyOp28
 70
     1
102
RTVSPropertyOp29
 70
     1
102
RTVSPropertyOp30
 70
     1
102
RTVSPropertyOp31
 70
     1
102
RTVSPropertyOp32
 70
     1
  0
XRECORD
  5
459
102
{ACAD_REACTORS
330
458
102
}
330
458
100
AcDbXrecord
280
     1
102
RTVSPropertyOp0
 70
     1
102
RTVSPropertyOp1
 70
     1
102
RTVSPropertyOp2
 70
     1
102
RTVSPropertyOp3
 70
     1
102
RTVSPropertyOp4
 70
     1
102
RTVSPropertyOp5
 70
     1
102
RTVSPropertyOp6
 70
     1
102
RTVSPropertyOp7
 70
     1
102
RTVSPropertyOp8
 70
     1
102
RTVSPropertyOp9
 70
     1
102
RTVSPropertyOp10
 70
     1
102
RTVSPropertyOp11
 70
     1
102
RTVSPropertyOp12
 70
     1
102
RTVSPropertyOp13
 70
     1
102
RTVSPropertyOp14
 70
     1
102
RTVSPropertyOp15
 70
     1
102
RTVSPropertyOp16
 70
     1
102
RTVSPropertyOp17
 70
     1
102
RTVSPropertyOp18
 70
     1
102
RTVSPropertyOp19
 70
     1
102
RTVSPropertyOp20
 70
     1
102
RTVSPropertyOp21
 70
     1
102
RTVSPropertyOp22
 70
     1
102
RTVSPropertyOp23
 70
     1
102
RTVSPropertyOp24
 70
     1
102
RTVSPropertyOp25
 70
     1
102
RTVSPropertyOp26
 70
     1
102
RTVSPropertyOp27
 70
     1
102
RTVSPropertyOp28
 70
     1
102
RTVSPropertyOp29
 70
     1
102
RTVSPropertyOp30
 70
     1
102
RTVSPropertyOp31
 70
     1
102
RTVSPropertyOp32
 70
     1
  0
ENDSEC
  0
EOF
