  0
SECTION
  2
HEADER
  9
$ACADVER
  1
AC1018
  9
$ACADMAINTVER
 70
     0
  9
$DWGCODEPAGE
  3
ANSI_1252
  9
$INSBASE
 10
0.0
 20
0.0
 30
0.0
  9
$EXTMIN
 10
-1189.474390911822
 20
-1111.062519500804
 30
0.0
  9
$EXTMAX
 10
-892.4743909118238
 20
-901.0625195008042
 30
0.0
  9
$LIMMIN
 10
0.0
 20
0.0
  9
$LIMMAX
 10
12.0
 20
9.0
  9
$ORTHOMODE
 70
     0
  9
$REGENMODE
 70
     1
  9
$FILLMODE
 70
     1
  9
$QTEXTMODE
 70
     0
  9
$MIRRTEXT
 70
     1
  9
$LTSCALE
 40
1.0
  9
$ATTMODE
 70
     1
  9
$TEXTSIZE
 40
0.2
  9
$TRACEWID
 40
0.05
  9
$TEXTSTYLE
  7
Standard
  9
$CLAYER
  8
0
  9
$CELTYPE
  6
ByLayer
  9
$CECOLOR
 62
   256
  9
$CELTSCALE
 40
1.0
  9
$DISPSILH
 70
     0
  9
$DIMSCALE
 40
1.0
  9
$DIMASZ
 40
0.18
  9
$DIMEXO
 40
0.0625
  9
$DIMDLI
 40
0.38
  9
$DIMRND
 40
0.0
  9
$DIMDLE
 40
0.0
  9
$DIMEXE
 40
0.18
  9
$DIMTP
 40
0.0
  9
$DIMTM
 40
0.0
  9
$DIMTXT
 40
0.18
  9
$DIMCEN
 40
0.09
  9
$DIMTSZ
 40
0.0
  9
$DIMTOL
 70
     0
  9
$DIMLIM
 70
     0
  9
$DIMTIH
 70
     1
  9
$DIMTOH
 70
     1
  9
$DIMSE1
 70
     0
  9
$DIMSE2
 70
     0
  9
$DIMTAD
 70
     0
  9
$DIMZIN
 70
     0
  9
$DIMBLK
  1

  9
$DIMASO
 70
     1
  9
$DIMSHO
 70
     1
  9
$DIMPOST
  1

  9
$DIMAPOST
  1

  9
$DIMALT
 70
     0
  9
$DIMALTD
 70
     2
  9
$DIMALTF
 40
25.4
  9
$DIMLFAC
 40
1.0
  9
$DIMTOFL
 70
     0
  9
$DIMTVP
 40
0.0
  9
$DIMTIX
 70
     0
  9
$DIMSOXD
 70
     0
  9
$DIMSAH
 70
     0
  9
$DIMBLK1
  1

  9
$DIMBLK2
  1

  9
$DIMSTYLE
  2
Standard
  9
$DIMCLRD
 70
     0
  9
$DIMCLRE
 70
     0
  9
$DIMCLRT
 70
     0
  9
$DIMTFAC
 40
1.0
  9
$DIMGAP
 40
0.09
  9
$DIMJUST
 70
     0
  9
$DIMSD1
 70
     0
  9
$DIMSD2
 70
     0
  9
$DIMTOLJ
 70
     1
  9
$DIMTZIN
 70
     0
  9
$DIMALTZ
 70
     0
  9
$DIMALTTZ
 70
     0
  9
$DIMUPT
 70
     0
  9
$DIMDEC
 70
     4
  9
$DIMTDEC
 70
     4
  9
$DIMALTU
 70
     2
  9
$DIMALTTD
 70
     2
  9
$DIMTXSTY
  7
Standard
  9
$DIMAUNIT
 70
     0
  9
$DIMADEC
 70
     0
  9
$DIMALTRND
 40
0.0
  9
$DIMAZIN
 70
     0
  9
$DIMDSEP
 70
    46
  9
$DIMATFIT
 70
     3
  9
$DIMFRAC
 70
     0
  9
$DIMLDRBLK
  1

  9
$DIMLUNIT
 70
     2
  9
$DIMLWD
 70
    -2
  9
$DIMLWE
 70
    -2
  9
$DIMTMOVE
 70
     0
  9
$LUNITS
 70
     2
  9
$LUPREC
 70
     4
  9
$SKETCHINC
 40
0.1
  9
$FILLETRAD
 40
0.5
  9
$AUNITS
 70
     0
  9
$AUPREC
 70
     0
  9
$MENU
  1
.
  9
$ELEVATION
 40
0.0
  9
$PELEVATION
 40
0.0
  9
$THICKNESS
 40
0.0
  9
$LIMCHECK
 70
     0
  9
$CHAMFERA
 40
0.5
  9
$CHAMFERB
 40
0.5
  9
$CHAMFERC
 40
1.0
  9
$CHAMFERD
 40
0.0
  9
$SKPOLY
 70
     0
  9
$TDCREATE
 40
2458132.537519942
  9
$TDUCREATE
 40
2458132.495853276
  9
$TDUPDATE
 40
2458132.537520671
  9
$TDUUPDATE
 40
2458132.495854005
  9
$TDINDWG
 40
0.0000000116
  9
$TDUSRTIMER
 40
0.0000000116
  9
$USRTIMER
 70
     1
  9
$ANGBASE
 50
0.0
  9
$ANGDIR
 70
     0
  9
$PDMODE
 70
     0
  9
$PDSIZE
 40
0.0
  9
$PLINEWID
 40
0.0
  9
$SPLFRAME
 70
     0
  9
$SPLINETYPE
 70
     6
  9
$SPLINESEGS
 70
     8
  9
$HANDSEED
  5
42B
  9
$SURFTAB1
 70
     6
  9
$SURFTAB2
 70
     6
  9
$SURFTYPE
 70
     6
  9
$SURFU
 70
     6
  9
$SURFV
 70
     6
  9
$UCSBASE
  2

  9
$UCSNAME
  2

  9
$UCSORG
 10
0.0
 20
0.0
 30
0.0
  9
$UCSXDIR
 10
1.0
 20
0.0
 30
0.0
  9
$UCSYDIR
 10
0.0
 20
1.0
 30
0.0
  9
$UCSORTHOREF
  2

  9
$UCSORTHOVIEW
 70
     0
  9
$UCSORGTOP
 10
0.0
 20
0.0
 30
0.0
  9
$UCSORGBOTTOM
 10
0.0
 20
0.0
 30
0.0
  9
$UCSORGLEFT
 10
0.0
 20
0.0
 30
0.0
  9
$UCSORGRIGHT
 10
0.0
 20
0.0
 30
0.0
  9
$UCSORGFRONT
 10
0.0
 20
0.0
 30
0.0
  9
$UCSORGBACK
 10
0.0
 20
0.0
 30
0.0
  9
$PUCSBASE
  2

  9
$PUCSNAME
  2

  9
$PUCSORG
 10
0.0
 20
0.0
 30
0.0
  9
$PUCSXDIR
 10
1.0
 20
0.0
 30
0.0
  9
$PUCSYDIR
 10
0.0
 20
1.0
 30
0.0
  9
$PUCSORTHOREF
  2

  9
$PUCSORTHOVIEW
 70
     0
  9
$PUCSORGTOP
 10
0.0
 20
0.0
 30
0.0
  9
$PUCSORGBOTTOM
 10
0.0
 20
0.0
 30
0.0
  9
$PUCSORGLEFT
 10
0.0
 20
0.0
 30
0.0
  9
$PUCSORGRIGHT
 10
0.0
 20
0.0
 30
0.0
  9
$PUCSORGFRONT
 10
0.0
 20
0.0
 30
0.0
  9
$PUCSORGBACK
 10
0.0
 20
0.0
 30
0.0
  9
$USERI1
 70
     0
  9
$USERI2
 70
     0
  9
$USERI3
 70
     0
  9
$USERI4
 70
     0
  9
$USERI5
 70
     0
  9
$USERR1
 40
18.1
  9
$USERR2
 40
0.0
  9
$USERR3
 40
0.0
  9
$USERR4
 40
0.0
  9
$USERR5
 40
0.0
  9
$WORLDVIEW
 70
     1
  9
$SHADEDGE
 70
     3
  9
$SHADEDIF
 70
    70
  9
$TILEMODE
 70
     1
  9
$MAXACTVP
 70
    64
  9
$PINSBASE
 10
0.0
 20
0.0
 30
0.0
  9
$PLIMCHECK
 70
     0
  9
$PEXTMIN
 10
1.00000000000000E+20
 20
1.00000000000000E+20
 30
1.00000000000000E+20
  9
$PEXTMAX
 10
-1.00000000000000E+20
 20
-1.00000000000000E+20
 30
-1.00000000000000E+20
  9
$PLIMMIN
 10
0.0
 20
0.0
  9
$PLIMMAX
 10
12.0
 20
9.0
  9
$UNITMODE
 70
     0
  9
$VISRETAIN
 70
     1
  9
$PLINEGEN
 70
     0
  9
$PSLTSCALE
 70
     1
  9
$TREEDEPTH
 70
  3020
  9
$CMLSTYLE
  2
Standard
  9
$CMLJUST
 70
     0
  9
$CMLSCALE
 40
1.0
  9
$PROXYGRAPHICS
 70
     1
  9
$MEASUREMENT
 70
     1
  9
$CELWEIGHT
370
    -1
  9
$ENDCAPS
280
     0
  9
$JOINSTYLE
280
     0
  9
$LWDISPLAY
290
     0
  9
$INSUNITS
 70
     4
  9
$HYPERLINKBASE
  1

  9
$STYLESHEET
  1

  9
$XEDIT
290
     1
  9
$CEPSNTYPE
380
     0
  9
$PSTYLEMODE
290
     1
  9
$FINGERPRINTGUID
  2
{4028780A-7394-4196-B2E9-2E8CB275BEE6}
  9
$VERSIONGUID
  2
{FAEB1C32-E019-11D5-929B-00C0DF256EC4}
  9
$EXTNAMES
290
     1
  9
$PSVPSCALE
 40
0.0
  9
$OLESTARTUP
290
     0
  9
$SORTENTS
280
   127
  9
$INDEXCTL
280
     0
  9
$HIDETEXT
280
     1
  9
$XCLIPFRAME
290
     0
  9
$HALOGAP
280
     0
  9
$OBSCOLOR
 70
   257
  9
$OBSLTYPE
280
     0
  9
$INTERSECTIONDISPLAY
280
     0
  9
$INTERSECTIONCOLOR
 70
   257
  9
$DIMASSOC
280
     2
  9
$PROJECTNAME
  1

  0
ENDSEC
  0
SECTION
  2
CLASSES
  0
CLASS
  1
ACDBDICTIONARYWDFLT
  2
AcDbDictionaryWithDefault
  3
ObjectDBX Classes
 90
        0
 91
        4
280
     0
281
     0
  0
CLASS
  1
VISUALSTYLE
  2
AcDbVisualStyle
  3
ObjectDBX Classes
 90
     4095
 91
        4
280
     0
281
     0
  0
CLASS
  1
MATERIAL
  2
AcDbMaterial
  3
ObjectDBX Classes
 90
     1153
 91
        4
280
     0
281
     0
  0
ENDSEC
  0
SECTION
  2
TABLES
  0
TABLE
  2
VPORT
  5
8
330
0
100
AcDbSymbolTable
 70
     1
  0
VPORT
  5
29
330
8
100
AcDbSymbolTableRecord
100
AcDbViewportTableRecord
  2
*Active
 70
     0
 10
0.0
 20
0.0
 11
1.0
 21
1.0
 12
-1040.974390911823
 22
-1006.062519500804
 13
0.0
 23
0.0
 14
0.5
 24
0.5
 15
0.5
 25
0.5
 16
0.0
 26
0.0
 36
1.0
 17
0.0
 27
0.0
 37
0.0
 40
230.9999999999998
 41
1.60267857142857
 42
50.0
 43
0.0
 44
0.0
 50
0.0
 51
0.0
 71
     0
 72
   100
 73
     1
 74
     3
 75
     0
 76
     0
 77
     0
 78
     0
281
     0
 65
     1
110
0.0
120
0.0
130
0.0
111
1.0
121
0.0
131
0.0
112
0.0
122
1.0
132
0.0
 79
     0
146
0.0
  0
ENDTAB
  0
TABLE
  2
LTYPE
  5
5
330
0
100
AcDbSymbolTable
 70
     8
  0
LTYPE
  5
14
330
5
100
AcDbSymbolTableRecord
100
AcDbLinetypeTableRecord
  2
ByBlock
 70
     0
  3

 72
    65
 73
     0
 40
0.0
  0
LTYPE
  5
15
330
5
100
AcDbSymbolTableRecord
100
AcDbLinetypeTableRecord
  2
ByLayer
 70
     0
  3

 72
    65
 73
     0
 40
0.0
  0
LTYPE
  5
16
330
5
100
AcDbSymbolTableRecord
100
AcDbLinetypeTableRecord
  2
Continuous
 70
     0
  3
Solid line
 72
    65
 73
     0
 40
0.0
  0
LTYPE
  5
3F
330
5
100
AcDbSymbolTableRecord
100
AcDbLinetypeTableRecord
  2
DASHED
 70
     0
  3
Dashed
 72
    65
 73
     2
 40
15.0
 49
7.0
 74
     0
 49
-8.0
 74
     0
  0
LTYPE
  5
40
330
5
100
AcDbSymbolTableRecord
100
AcDbLinetypeTableRecord
  2
DOTTED
 70
     0
  3
Dotted
 72
    65
 73
     2
 40
1.0
 49
0.0
 74
     0
 49
-1.0
 74
     0
  0
LTYPE
  5
41
330
5
100
AcDbSymbolTableRecord
100
AcDbLinetypeTableRecord
  2
DOT_CENTER
 70
     0
  3
Dot_Center
 72
    65
 73
     4
 40
14.0
 49
12.0
 74
     0
 49
-1.0
 74
     0
 49
0.0
 74
     0
 49
-1.0
 74
     0
  0
LTYPE
  5
42
330
5
100
AcDbSymbolTableRecord
100
AcDbLinetypeTableRecord
  2
LONG_DASHED
 70
     0
  3
Long_Dashed
 72
    65
 73
     2
 40
15.0
 49
10.0
 74
     0
 49
-5.0
 74
     0
  0
LTYPE
  5
43
330
5
100
AcDbSymbolTableRecord
100
AcDbLinetypeTableRecord
  2
DASH_CENTER
 70
     0
  3
Dash_Center
 72
    65
 73
     4
 40
14.0
 49
11.0
 74
     0
 49
-1.0
 74
     0
 49
1.0
 74
     0
 49
-1.0
 74
     0
  0
LTYPE
  5
44
330
5
100
AcDbSymbolTableRecord
100
AcDbLinetypeTableRecord
  2
PHANTOM
 70
     0
  3
Phantom
 72
    65
 73
     6
 40
13.0
 49
10.0
 74
     0
 49
-1.0
 74
     0
 49
0.0
 74
     0
 49
-1.0
 74
     0
 49
0.0
 74
     0
 49
-1.0
 74
     0
  0
LTYPE
  5
45
330
5
100
AcDbSymbolTableRecord
100
AcDbLinetypeTableRecord
  2
CENTER_DASH_DASH
 70
     0
  3
Center_Dash_Dash
 72
    65
 73
     6
 40
14.0
 49
9.0
 74
     0
 49
-1.0
 74
     0
 49
1.0
 74
     0
 49
-1.0
 74
     0
 49
1.0
 74
     0
 49
-1.0
 74
     0
  0
ENDTAB
  0
TABLE
  2
LAYER
  5
2
330
0
100
AcDbSymbolTable
 70
     2
  0
LAYER
  5
10
330
2
100
AcDbSymbolTableRecord
100
AcDbLayerTableRecord
  2
0
 70
     0
 62
     7
  6
Continuous
370
    -3
390
F
  0
LAYER
  5
46
330
2
100
AcDbSymbolTableRecord
100
AcDbLayerTableRecord
  2
1
 70
     0
 62
     7
  6
Continuous
370
    -3
390
F
  0
ENDTAB
  0
TABLE
  2
STYLE
  5
3
330
0
100
AcDbSymbolTable
 70
     5
  0
STYLE
  5
11
330
3
100
AcDbSymbolTableRecord
100
AcDbTextStyleTableRecord
  2
Standard
 70
     0
 40
0.0
 41
1.0
 50
0.0
 71
     0
 42
0.2
  3
txt
  4

  0
STYLE
  5
AC
330
3
100
AcDbSymbolTableRecord
100
AcDbTextStyleTableRecord
  2
CONVERTER_11
 70
     0
 40
0.0
 41
0.9
 50
0.0
 71
     0
 42
0.2
  3
txt.shx
  4

  0
STYLE
  5
3C6
330
3
100
AcDbSymbolTableRecord
100
AcDbTextStyleTableRecord
  2
CONVERTER_12
 70
     0
 40
0.0
 41
0.81
 50
0.0
 71
     0
 42
0.2
  3
txt.shx
  4

  0
STYLE
  5
3DC
330
3
100
AcDbSymbolTableRecord
100
AcDbTextStyleTableRecord
  2
CONVERTER_13
 70
     0
 40
0.0
 41
0.72
 50
0.0
 71
     0
 42
0.2
  3
txt.shx
  4

  0
STYLE
  5
3DF
330
3
100
AcDbSymbolTableRecord
100
AcDbTextStyleTableRecord
  2
CONVERTER_14
 70
     0
 40
0.0
 41
0.855
 50
0.0
 71
     0
 42
0.2
  3
txt.shx
  4

  0
ENDTAB
  0
TABLE
  2
VIEW
  5
6
330
0
100
AcDbSymbolTable
 70
     0
  0
ENDTAB
  0
TABLE
  2
UCS
  5
7
330
0
100
AcDbSymbolTable
 70
     0
  0
ENDTAB
  0
TABLE
  2
APPID
  5
9
330
0
100
AcDbSymbolTable
 70
     1
  0
APPID
  5
12
330
9
100
AcDbSymbolTableRecord
100
AcDbRegAppTableRecord
  2
ACAD
 70
     0
  0
ENDTAB
  0
TABLE
  2
DIMSTYLE
  5
A
330
0
100
AcDbSymbolTable
 70
     6
100
AcDbDimStyleTable
  0
DIMSTYLE
105
27
330
A
100
AcDbSymbolTableRecord
100
AcDbDimStyleTableRecord
  2
Standard
 70
     0
178
     0
340
11
  0
DIMSTYLE
105
B7
102
{ACAD_REACTORS
330
B8
102
}
330
A
100
AcDbSymbolTableRecord
100
AcDbDimStyleTableRecord
  2
ME10_DIM_10
 70
     0
 41
3.5
 42
0.0
 44
1.5
 73
     0
 74
     0
 77
     1
 78
     8
140
3.5
147
1.5
172
     1
173
     1
174
     1
175
     1
176
     2
177
     2
178
     3
340
AC
  0
DIMSTYLE
105
225
102
{ACAD_REACTORS
330
226
102
}
330
A
100
AcDbSymbolTableRecord
100
AcDbDimStyleTableRecord
  2
ME10_DIM_11
 70
     0
 41
3.5
 42
0.0
 44
1.5
 73
     0
 74
     0
 77
     1
 78
     8
140
3.5
147
1.5
172
     1
173
     1
174
     1
175
     1
176
     2
177
     2
178
     3
340
AC
  0
DIMSTYLE
105
230
102
{ACAD_REACTORS
330
231
102
}
330
A
100
AcDbSymbolTableRecord
100
AcDbDimStyleTableRecord
  2
ME10_DIM_12
 70
     0
 41
3.5
 42
0.0
 44
1.5
 73
     0
 74
     0
 77
     1
 78
     8
140
3.5
147
1.5
172
     1
173
     1
174
     1
175
     1
176
     2
177
     2
178
     3
340
AC
  0
DIMSTYLE
105
23B
102
{ACAD_REACTORS
330
23C
102
}
330
A
100
AcDbSymbolTableRecord
100
AcDbDimStyleTableRecord
  2
ME10_DIM_13
 70
     0
 41
3.5
 42
0.0
 44
1.5
 73
     0
 74
     0
 77
     1
 78
     8
140
3.5
147
1.5
172
     1
173
     1
174
     1
175
     1
176
     2
177
     2
178
     3
340
AC
  0
DIMSTYLE
105
246
102
{ACAD_REACTORS
330
247
102
}
330
A
100
AcDbSymbolTableRecord
100
AcDbDimStyleTableRecord
  2
ME10_DIM_14
 70
     0
 41
3.5
 42
0.0
 44
1.5
 73
     0
 74
     0
 77
     1
 78
     8
140
3.5
147
1.5
172
     1
173
     1
174
     1
175
     1
176
     2
177
     2
178
     3
340
AC
  0
ENDTAB
  0
TABLE
  2
BLOCK_RECORD
  5
1
330
0
100
AcDbSymbolTable
 70
    23
  0
BLOCK_RECORD
  5
1F
330
1
100
AcDbSymbolTableRecord
100
AcDbBlockTableRecord
  2
*Model_Space
340
22
  0
BLOCK_RECORD
  5
1B
330
1
100
AcDbSymbolTableRecord
100
AcDbBlockTableRecord
  2
*Paper_Space
340
1E
  0
BLOCK_RECORD
  5
23
330
1
100
AcDbSymbolTableRecord
100
AcDbBlockTableRecord
  2
*Paper_Space0
340
26
  0
BLOCK_RECORD
  5
47
330
1
100
AcDbSymbolTableRecord
100
AcDbBlockTableRecord
  2
BUG_10-select__1
340
0
102
{BLKREFS
331
4B
102
}
  0
BLOCK_RECORD
  5
4A
330
1
100
AcDbSymbolTableRecord
100
AcDbBlockTableRecord
  2
Drfsicht1
340
0
102
{BLKREFS
331
7D
102
}
  0
BLOCK_RECORD
  5
4E
330
1
100
AcDbSymbolTableRecord
100
AcDbBlockTableRecord
  2
BUG_10-select__2
340
0
102
{BLKREFS
331
52
102
}
  0
BLOCK_RECORD
  5
51
330
1
100
AcDbSymbolTableRecord
100
AcDbBlockTableRecord
  2
Rckans1
340
0
102
{BLKREFS
331
7E
102
}
  0
BLOCK_RECORD
  5
55
330
1
100
AcDbSymbolTableRecord
100
AcDbBlockTableRecord
  2
BUG_10-select__3
340
0
102
{BLKREFS
331
59
102
}
  0
BLOCK_RECORD
  5
58
330
1
100
AcDbSymbolTableRecord
100
AcDbBlockTableRecord
  2
SA_Links1
340
0
102
{BLKREFS
331
7F
102
}
  0
BLOCK_RECORD
  5
5C
330
1
100
AcDbSymbolTableRecord
100
AcDbBlockTableRecord
  2
BUG_10-select__4
340
0
102
{BLKREFS
331
60
102
}
  0
BLOCK_RECORD
  5
5F
330
1
100
AcDbSymbolTableRecord
100
AcDbBlockTableRecord
  2
SA_Rechts1
340
0
102
{BLKREFS
331
80
102
}
  0
BLOCK_RECORD
  5
63
330
1
100
AcDbSymbolTableRecord
100
AcDbBlockTableRecord
  2
BUG_10-select__5
340
0
102
{BLKREFS
331
67
102
}
  0
BLOCK_RECORD
  5
66
330
1
100
AcDbSymbolTableRecord
100
AcDbBlockTableRecord
  2
Vordans1
340
0
102
{BLKREFS
331
81
102
}
  0
BLOCK_RECORD
  5
6A
330
1
100
AcDbSymbolTableRecord
100
AcDbBlockTableRecord
  2
BUG_10-select__6
340
0
102
{BLKREFS
331
6E
102
}
  0
BLOCK_RECORD
  5
6D
330
1
100
AcDbSymbolTableRecord
100
AcDbBlockTableRecord
  2
Allg1
340
0
102
{BLKREFS
331
82
102
}
  0
BLOCK_RECORD
  5
71
330
1
100
AcDbSymbolTableRecord
100
AcDbBlockTableRecord
  2
_rahmen
340
0
102
{BLKREFS
331
78
102
}
  0
BLOCK_RECORD
  5
74
330
1
100
AcDbSymbolTableRecord
100
AcDbBlockTableRecord
  2
_punkt
340
0
102
{BLKREFS
331
79
102
}
  0
BLOCK_RECORD
  5
77
330
1
100
AcDbSymbolTableRecord
100
AcDbBlockTableRecord
  2
A4I_CS
340
0
102
{BLKREFS
331
83
102
}
  0
BLOCK_RECORD
  5
7C
330
1
100
AcDbSymbolTableRecord
100
AcDbBlockTableRecord
  2
1
340
0
102
{BLKREFS
331
86
102
}
  0
BLOCK_RECORD
  5
AE
330
1
100
AcDbSymbolTableRecord
100
AcDbBlockTableRecord
  2
*D17
340
0
  0
BLOCK_RECORD
  5
21C
330
1
100
AcDbSymbolTableRecord
100
AcDbBlockTableRecord
  2
*D18
340
0
  0
BLOCK_RECORD
  5
227
330
1
100
AcDbSymbolTableRecord
100
AcDbBlockTableRecord
  2
*D19
340
0
  0
BLOCK_RECORD
  5
232
330
1
100
AcDbSymbolTableRecord
100
AcDbBlockTableRecord
  2
*D20
340
0
  0
BLOCK_RECORD
  5
23D
330
1
100
AcDbSymbolTableRecord
100
AcDbBlockTableRecord
  2
*D21
340
0
  0
BLOCK_RECORD
  5
248
330
1
100
AcDbSymbolTableRecord
100
AcDbBlockTableRecord
  2
*D22
340
0
102
{BLKREFS
331
251
102
}
  0
ENDTAB
  0
ENDSEC
  0
SECTION
  2
BLOCKS
  0
BLOCK
  5
20
330
1F
100
AcDbEntity
  8
0
100
AcDbBlockBegin
  2
*Model_Space
 70
     0
 10
0.0
 20
0.0
 30
0.0
  3
*Model_Space
  1

  0
ENDBLK
  5
21
330
1F
100
AcDbEntity
  8
0
100
AcDbBlockEnd
  0
BLOCK
  5
1C
330
1B
100
AcDbEntity
 67
     1
  8
0
100
AcDbBlockBegin
  2
*Paper_Space
 70
     0
 10
0.0
 20
0.0
 30
0.0
  3
*Paper_Space
  1

  0
ENDBLK
  5
1D
330
1B
100
AcDbEntity
 67
     1
  8
0
100
AcDbBlockEnd
  0
BLOCK
  5
24
330
23
100
AcDbEntity
  8
0
100
AcDbBlockBegin
  2
*Paper_Space0
 70
     0
 10
0.0
 20
0.0
 30
0.0
  3
*Paper_Space0
  1

  0
ENDBLK
  5
25
330
23
100
AcDbEntity
  8
0
100
AcDbBlockEnd
  0
BLOCK
  5
48
330
47
100
AcDbEntity
  8
0
100
AcDbBlockBegin
  2
BUG_10-select__1
 70
     0
 10
-1105.499999999725
 20
-1064.099999053934
 30
0.0
  3
BUG_10-select__1
  1

  0
LINE
  5
87
330
47
100
AcDbEntity
  8
0
  6
Continuous
 62
     7
100
AcDbLine
 10
-1068.980384757454
 20
-1063.149999053934
 30
0.0
 11
-1069.499999999725
 21
-1063.449999053933
 31
0.0
  0
LINE
  5
88
330
47
100
AcDbEntity
  8
0
  6
Continuous
 62
     7
100
AcDbLine
 10
-1097.477148091523
 20
-1059.599999053934
 30
0.0
 11
-1097.477148091523
 21
-1060.499999053933
 31
0.0
  0
LINE
  5
89
330
47
100
AcDbEntity
  8
0
  6
Continuous
 62
     7
100
AcDbLine
 10
-1098.359422979378
 20
-1060.499999053933
 30
0.0
 11
-1098.359422979378
 21
-1059.599999053934
 31
0.0
  0
LINE
  5
8A
330
47
100
AcDbEntity
  8
0
  6
Continuous
 62
     7
100
AcDbLine
 10
-1097.477148091523
 20
-1060.499999053933
 30
0.0
 11
-1098.359422979378
 21
-1060.499999053933
 31
0.0
  0
LINE
  5
8B
330
47
100
AcDbEntity
  8
0
  6
Continuous
 62
     7
100
AcDbLine
 10
-1098.359422979378
 20
-1059.599999053934
 30
0.0
 11
-1097.477148091523
 21
-1059.599999053934
 31
0.0
  0
LINE
  5
8C
330
47
100
AcDbEntity
  8
0
  6
Continuous
 62
     7
100
AcDbLine
 10
-1096.499999999725
 20
-1059.599999053934
 30
0.0
 11
-1096.499999999725
 21
-1062.099999053934
 31
0.0
  0
LINE
  5
8D
330
47
100
AcDbEntity
  8
0
  6
Continuous
 62
     7
100
AcDbLine
 10
-1098.359422979378
 20
-1055.599999053934
 30
0.0
 11
-1098.359422979378
 21
-1054.699999053933
 31
0.0
  0
LINE
  5
8E
330
47
100
AcDbEntity
  8
0
  6
Continuous
 62
     7
100
AcDbLine
 10
-1097.477148091523
 20
-1054.699999053933
 30
0.0
 11
-1098.359422979378
 21
-1054.699999053933
 31
0.0
  0
LINE
  5
8F
330
47
100
AcDbEntity
  8
0
  6
Continuous
 62
     7
100
AcDbLine
 10
-1097.477148091523
 20
-1055.599999053934
 30
0.0
 11
-1098.359422979378
 21
-1055.599999053934
 31
0.0
  0
LINE
  5
90
330
47
100
AcDbEntity
  8
0
  6
Continuous
 62
     7
100
AcDbLine
 10
-1097.477148091523
 20
-1059.599999053934
 30
0.0
 11
-1096.499999999725
 21
-1059.599999053934
 31
0.0
  0
LINE
  5
91
330
47
100
AcDbEntity
  8
0
  6
Continuous
 62
     7
100
AcDbLine
 10
-1096.499999999725
 20
-1053.099999053934
 30
0.0
 11
-1096.499999999725
 21
-1055.599999053934
 31
0.0
  0
LINE
  5
92
330
47
100
AcDbEntity
  8
0
  6
Continuous
 62
     7
100
AcDbLine
 10
-1096.499999999725
 20
-1055.599999053934
 30
0.0
 11
-1097.477148091523
 21
-1055.599999053934
 31
0.0
  0
LINE
  5
93
330
47
100
AcDbEntity
  8
0
  6
Continuous
 62
     7
100
AcDbLine
 10
-1097.477148091523
 20
-1054.699999053933
 30
0.0
 11
-1097.477148091523
 21
-1055.599999053934
 31
0.0
  0
LINE
  5
94
330
47
100
AcDbEntity
  8
0
  6
Continuous
 62
     7
100
AcDbLine
 10
-1096.499999999725
 20
-1053.099999053934
 30
0.0
 11
-1105.499999999725
 21
-1053.099999053934
 31
0.0
  0
LINE
  5
95
330
47
100
AcDbEntity
  8
0
  6
Continuous
 62
     7
100
AcDbLine
 10
-1098.359422979378
 20
-1054.699999053933
 30
0.0
 11
-1105.499999999725
 21
-1054.699999053933
 31
0.0
  0
LINE
  5
96
330
47
100
AcDbEntity
  8
0
  6
Continuous
 62
     7
100
AcDbLine
 10
-1067.999999999725
 20
-1062.099999053934
 30
0.0
 11
-1066.499999999725
 21
-1062.099999053934
 31
0.0
  0
LINE
  5
97
330
47
100
AcDbEntity
  8
0
  6
Continuous
 62
     7
100
AcDbLine
 10
-1066.499999999725
 20
-1053.099999053934
 30
0.0
 11
-1096.499999999725
 21
-1053.099999053934
 31
0.0
  0
LINE
  5
98
330
47
100
AcDbEntity
  8
0
  6
Continuous
 62
     7
100
AcDbLine
 10
-1066.499999999725
 20
-1053.099999053934
 30
0.0
 11
-1066.499999999725
 21
-1062.099999053934
 31
0.0
  0
LINE
  5
99
330
47
100
AcDbEntity
  8
0
  6
Continuous
 62
     7
100
AcDbLine
 10
-1067.999999999725
 20
-1063.149999053934
 30
0.0
 11
-1067.999999999725
 21
-1062.099999053934
 31
0.0
  0
LINE
  5
9A
330
47
100
AcDbEntity
  8
0
  6
Continuous
 62
     7
100
AcDbLine
 10
-1068.980384757454
 20
-1063.149999053934
 30
0.0
 11
-1067.999999999725
 21
-1063.149999053934
 31
0.0
  0
LINE
  5
9B
330
47
100
AcDbEntity
  8
0
  6
Continuous
 62
     7
100
AcDbLine
 10
-1069.499999999725
 20
-1064.099999053934
 30
0.0
 11
-1069.499999999725
 21
-1063.449999053933
 31
0.0
  0
LINE
  5
9C
330
47
100
AcDbEntity
  8
0
  6
Continuous
 62
     7
100
AcDbLine
 10
-1066.499999999725
 20
-1064.099999053934
 30
0.0
 11
-1066.499999999725
 21
-1062.099999053934
 31
0.0
  0
LINE
  5
9D
330
47
100
AcDbEntity
  8
0
  6
Continuous
 62
     7
100
AcDbLine
 10
-1066.499999999725
 20
-1064.099999053934
 30
0.0
 11
-1069.499999999725
 21
-1064.099999053934
 31
0.0
  0
LINE
  5
9E
330
47
100
AcDbEntity
  8
0
  6
Continuous
 62
     7
100
AcDbLine
 10
-1104.522851907927
 20
-1058.599999053934
 30
0.0
 11
-1105.499999999725
 21
-1058.599999053934
 31
0.0
  0
LINE
  5
9F
330
47
100
AcDbEntity
  8
0
  6
Continuous
 62
     7
100
AcDbLine
 10
-1105.499999999725
 20
-1056.599999053934
 30
0.0
 11
-1105.499999999725
 21
-1058.599999053934
 31
0.0
  0
LINE
  5
A0
330
47
100
AcDbEntity
  8
0
  6
Continuous
 62
     7
100
AcDbLine
 10
-1105.499999999725
 20
-1058.599999053934
 30
0.0
 11
-1105.499999999725
 21
-1060.499999053933
 31
0.0
  0
LINE
  5
A1
330
47
100
AcDbEntity
  8
0
  6
Continuous
 62
     7
100
AcDbLine
 10
-1104.522851907927
 20
-1056.599999053934
 30
0.0
 11
-1105.499999999725
 21
-1056.599999053934
 31
0.0
  0
LINE
  5
A2
330
47
100
AcDbEntity
  8
0
  6
Continuous
 62
     7
100
AcDbLine
 10
-1104.522851907927
 20
-1056.599999053934
 30
0.0
 11
-1104.522851907927
 21
-1058.599999053934
 31
0.0
  0
LINE
  5
A3
330
47
100
AcDbEntity
  8
0
  6
Continuous
 62
     7
100
AcDbLine
 10
-1105.499999999725
 20
-1054.699999053933
 30
0.0
 11
-1105.499999999725
 21
-1056.599999053934
 31
0.0
  0
LINE
  5
A4
330
47
100
AcDbEntity
  8
0
  6
Continuous
 62
     7
100
AcDbLine
 10
-1105.499999999725
 20
-1054.699999053933
 30
0.0
 11
-1105.499999999725
 21
-1053.099999053934
 31
0.0
  0
LINE
  5
A5
330
47
100
AcDbEntity
  8
0
  6
Continuous
 62
     7
100
AcDbLine
 10
-1104.522851907927
 20
-1056.599999053934
 30
0.0
 11
-1103.640577020072
 21
-1056.599999053934
 31
0.0
  0
LINE
  5
A6
330
47
100
AcDbEntity
  8
0
  6
Continuous
 62
     7
100
AcDbLine
 10
-1104.522851907927
 20
-1058.599999053934
 30
0.0
 11
-1103.640577020072
 21
-1058.599999053934
 31
0.0
  0
LINE
  5
A7
330
47
100
AcDbEntity
  8
0
  6
Continuous
 62
     7
100
AcDbLine
 10
-1105.499999999725
 20
-1062.099999053934
 30
0.0
 11
-1105.499999999725
 21
-1060.499999053933
 31
0.0
  0
LINE
  5
A8
330
47
100
AcDbEntity
  8
0
  6
Continuous
 62
     7
100
AcDbLine
 10
-1096.499999999725
 20
-1062.099999053934
 30
0.0
 11
-1067.999999999725
 21
-1062.099999053934
 31
0.0
  0
LINE
  5
A9
330
47
100
AcDbEntity
  8
0
  6
Continuous
 62
     7
100
AcDbLine
 10
-1098.359422979378
 20
-1060.499999053933
 30
0.0
 11
-1105.499999999725
 21
-1060.499999053933
 31
0.0
  0
LINE
  5
AA
330
47
100
AcDbEntity
  8
0
  6
Continuous
 62
     7
100
AcDbLine
 10
-1103.640577020072
 20
-1056.599999053934
 30
0.0
 11
-1103.640577020072
 21
-1058.599999053934
 31
0.0
  0
LINE
  5
AB
330
47
100
AcDbEntity
  8
0
  6
Continuous
 62
     7
100
AcDbLine
 10
-1096.499999999725
 20
-1062.099999053934
 30
0.0
 11
-1105.499999999725
 21
-1062.099999053934
 31
0.0
  0
ENDBLK
  5
49
330
47
100
AcDbEntity
  8
0
100
AcDbBlockEnd
  0
BLOCK
  5
4C
330
4A
100
AcDbEntity
  8
0
100
AcDbBlockBegin
  2
Drfsicht1
 70
     0
 10
-1085.99999999986
 20
-1058.599999427931
 30
0.0
  3
Drfsicht1
  1

  0
INSERT
  5
4B
330
4A
100
AcDbEntity
  8
0
100
AcDbBlockReference
  2
BUG_10-select__1
 10
-1105.499999999725
 20
-1064.099999053934
 30
0.0
  0
MTEXT
  5
AD
330
4A
100
AcDbEntity
  8
1
 62
     6
100
AcDbMText
 10
-1085.99999999986
 20
-1069.099999427931
 30
0.0
 40
5.0
 41
0.0
 71
     2
 72
     1
  1
 
  7
CONVERTER_11
 73
     1
 44
1.32052821128451
  0
DIMENSION
  5
B8
330
4A
100
AcDbEntity
  8
1
100
AcDbDimension
  2
*D17
 10
-1115.499999999725
 20
-1064.099999053934
 30
0.0
 11
-1118.749999999725
 21
-1058.92029005814
 31
0.0
 70
    32
  1
<>
 71
     5
 42
-1.0
 53
90.0
  3
ME10_DIM_10
100
AcDbAlignedDimension
 13
-1105.499999999725
 23
-1053.099999053934
 33
0.0
 14
-1069.499999999725
 24
-1064.099999053934
 34
0.0
 50
90.0
100
AcDbRotatedDimension
  0
ENDBLK
  5
4D
330
4A
100
AcDbEntity
  8
0
100
AcDbBlockEnd
  0
BLOCK
  5
4F
330
4E
100
AcDbEntity
  8
0
100
AcDbBlockBegin
  2
BUG_10-select__2
 70
     0
 10
-1001.50000000027
 20
-1007.100000612101
 30
0.0
  3
BUG_10-select__2
  1

  0
LINE
  5
B9
330
4E
100
AcDbEntity
  8
0
  6
Continuous
 62
     7
100
AcDbLine
 10
-962.5000000002701
 20
-1002.464102227238
 30
0.0
 11
-965.8856406463252
 21
-996.6000006121008
 31
0.0
  0
LINE
  5
BA
330
4E
100
AcDbEntity
  8
0
  6
Continuous
 62
     7
100
AcDbLine
 10
-962.5000000002701
 20
-953.5450006121007
 30
0.0
 11
-962.5000000002701
 21
-948.9450006121007
 31
0.0
  0
LINE
  5
BB
330
4E
100
AcDbEntity
  8
0
  6
Continuous
 62
     7
100
AcDbLine
 10
-962.5000000002701
 20
-955.0950006121006
 30
0.0
 11
-962.5000000002701
 21
-953.5450006121007
 31
0.0
  0
LINE
  5
BC
330
4E
100
AcDbEntity
  8
0
  6
Continuous
 62
     7
100
AcDbLine
 10
-962.5000000002701
 20
-959.6950006121007
 30
0.0
 11
-962.5000000002701
 21
-955.0950006121006
 31
0.0
  0
LINE
  5
BD
330
4E
100
AcDbEntity
  8
0
  6
Continuous
 62
     7
100
AcDbLine
 10
-962.5000000002701
 20
-961.2450006121006
 30
0.0
 11
-962.5000000002701
 21
-959.6950006121007
 31
0.0
  0
LINE
  5
BE
330
4E
100
AcDbEntity
  8
0
  6
Continuous
 62
     7
100
AcDbLine
 10
-962.5000000002701
 20
-965.8450006121006
 30
0.0
 11
-962.5000000002701
 21
-961.2450006121006
 31
0.0
  0
LINE
  5
BF
330
4E
100
AcDbEntity
  8
0
  6
Continuous
 62
     7
100
AcDbLine
 10
-962.5000000002701
 20
-967.3950006121006
 30
0.0
 11
-962.5000000002701
 21
-965.8450006121006
 31
0.0
  0
LINE
  5
C0
330
4E
100
AcDbEntity
  8
0
  6
Continuous
 62
     7
100
AcDbLine
 10
-963.3582669880816
 20
-1007.100000612101
 30
0.0
 11
-963.3000000002701
 21
-1007.100000612101
 31
0.0
  0
LINE
  5
C1
330
4E
100
AcDbEntity
  8
0
  6
Continuous
 62
     7
100
AcDbLine
 10
-962.5000000002701
 20
-1006.300000612101
 30
0.0
 11
-962.5000000002701
 21
-1002.464102227238
 31
0.0
  0
LINE
  5
C2
330
4E
100
AcDbEntity
  8
0
  6
Continuous
 62
     7
100
AcDbLine
 10
-962.5000000002701
 20
-991.9950006121006
 30
0.0
 11
-962.5000000002701
 21
-996.6000006121006
 31
0.0
  0
LINE
  5
C3
330
4E
100
AcDbEntity
  8
0
  6
Continuous
 62
     7
100
AcDbLine
 10
-962.5000000002701
 20
-990.4450006121006
 30
0.0
 11
-962.5000000002701
 21
-985.8450006121006
 31
0.0
  0
LINE
  5
C4
330
4E
100
AcDbEntity
  8
0
  6
Continuous
 62
     7
100
AcDbLine
 10
-962.5000000002701
 20
-991.9950006121006
 30
0.0
 11
-962.5000000002701
 21
-990.4450006121006
 31
0.0
  0
LINE
  5
C5
330
4E
100
AcDbEntity
  8
0
  6
Continuous
 62
     7
100
AcDbLine
 10
-962.5000000002701
 20
-984.2950006121006
 30
0.0
 11
-962.5000000002701
 21
-979.6950006121006
 31
0.0
  0
LINE
  5
C6
330
4E
100
AcDbEntity
  8
0
  6
Continuous
 62
     7
100
AcDbLine
 10
-962.5000000002701
 20
-985.8450006121006
 30
0.0
 11
-962.5000000002701
 21
-984.2950006121006
 31
0.0
  0
LINE
  5
C7
330
4E
100
AcDbEntity
  8
0
  6
Continuous
 62
     7
100
AcDbLine
 10
-962.5000000002701
 20
-978.1450006121006
 30
0.0
 11
-962.5000000002701
 21
-973.5450006121007
 31
0.0
  0
LINE
  5
C8
330
4E
100
AcDbEntity
  8
0
  6
Continuous
 62
     7
100
AcDbLine
 10
-962.5000000002701
 20
-979.6950006121006
 30
0.0
 11
-962.5000000002701
 21
-978.1450006121006
 31
0.0
  0
LINE
  5
C9
330
4E
100
AcDbEntity
  8
0
  6
Continuous
 62
     7
100
AcDbLine
 10
-962.5000000002701
 20
-971.9950006121006
 30
0.0
 11
-962.5000000002701
 21
-967.3950006121006
 31
0.0
  0
LINE
  5
CA
330
4E
100
AcDbEntity
  8
0
  6
Continuous
 62
     7
100
AcDbLine
 10
-962.5000000002701
 20
-973.5450006121007
 30
0.0
 11
-962.5000000002701
 21
-971.9950006121006
 31
0.0
  0
LINE
  5
CB
330
4E
100
AcDbEntity
  8
0
  6
Continuous
 62
     7
100
AcDbLine
 10
-962.5000000002701
 20
-930.9000006121006
 30
0.0
 11
-962.5000000002701
 21
-941.2450006121006
 31
0.0
  0
LINE
  5
CC
330
4E
100
AcDbEntity
  8
0
  6
Continuous
 62
     7
100
AcDbLine
 10
-962.5000000002701
 20
-947.3950006121006
 30
0.0
 11
-962.5000000002701
 21
-942.7950006121007
 31
0.0
  0
LINE
  5
CD
330
4E
100
AcDbEntity
  8
0
  6
Continuous
 62
     7
100
AcDbLine
 10
-962.5000000002701
 20
-948.9450006121007
 30
0.0
 11
-962.5000000002701
 21
-947.3950006121006
 31
0.0
  0
LINE
  5
CE
330
4E
100
AcDbEntity
  8
0
  6
Continuous
 62
     7
100
AcDbLine
 10
-962.5000000002701
 20
-942.7950006121007
 30
0.0
 11
-962.5000000002701
 21
-941.2450006121006
 31
0.0
  0
LINE
  5
CF
330
4E
100
AcDbEntity
  8
0
  6
Continuous
 62
     7
100
AcDbLine
 10
-964.083313217711
 20
-1006.638095221493
 30
0.0
 11
-965.5000000002701
 21
-1003.600000612101
 31
0.0
  0
LINE
  5
D0
330
4E
100
AcDbEntity
  8
0
  6
Continuous
 62
     7
100
AcDbLine
 10
-965.5000000002701
 20
-1002.752949804532
 30
0.0
 11
-964.5000000002701
 21
-1002.485000612101
 31
0.0
  0
LINE
  5
D1
330
4E
100
AcDbEntity
  8
0
  6
Continuous
 62
     7
100
AcDbLine
 10
-1001.50000000027
 20
-1007.100000612101
 30
0.0
 11
-999.950726384004
 21
-1007.100000612101
 31
0.0
  0
LINE
  5
D2
330
4E
100
AcDbEntity
  8
0
  6
Continuous
 62
     7
100
AcDbLine
 10
-965.5000000002701
 20
-1003.600000612101
 30
0.0
 11
-965.5000000002701
 21
-1002.752949804532
 31
0.0
  0
LINE
  5
D3
330
4E
100
AcDbEntity
  8
0
  6
Continuous
 62
     7
100
AcDbLine
 10
-971.5000000002701
 20
-930.9000006121006
 30
0.0
 11
-971.5000000002701
 21
-934.1000006121006
 31
0.0
  0
LINE
  5
D4
330
4E
100
AcDbEntity
  8
0
  6
Continuous
 62
     7
100
AcDbLine
 10
-972.5000000002701
 20
-985.8450006121006
 30
0.0
 11
-972.5000000002701
 21
-984.2950006121006
 31
0.0
  0
LINE
  5
D5
330
4E
100
AcDbEntity
  8
0
  6
Continuous
 62
     7
100
AcDbLine
 10
-972.5000000002701
 20
-979.6950006121006
 30
0.0
 11
-972.5000000002701
 21
-978.1450006121006
 31
0.0
  0
LINE
  5
D6
330
4E
100
AcDbEntity
  8
0
  6
Continuous
 62
     7
100
AcDbLine
 10
-972.5000000002701
 20
-973.5450006121007
 30
0.0
 11
-972.5000000002701
 21
-971.9950006121006
 31
0.0
  0
LINE
  5
D7
330
4E
100
AcDbEntity
  8
0
  6
Continuous
 62
     7
100
AcDbLine
 10
-972.5000000002701
 20
-967.3950006121006
 30
0.0
 11
-972.5000000002701
 21
-965.8450006121006
 31
0.0
  0
LINE
  5
D8
330
4E
100
AcDbEntity
  8
0
  6
Continuous
 62
     7
100
AcDbLine
 10
-972.5000000002701
 20
-961.2450006121006
 30
0.0
 11
-972.5000000002701
 21
-959.6950006121007
 31
0.0
  0
LINE
  5
D9
330
4E
100
AcDbEntity
  8
0
  6
Continuous
 62
     7
100
AcDbLine
 10
-972.5000000002701
 20
-955.0950006121006
 30
0.0
 11
-972.5000000002701
 21
-953.5450006121007
 31
0.0
  0
LINE
  5
DA
330
4E
100
AcDbEntity
  8
0
  6
Continuous
 62
     7
100
AcDbLine
 10
-972.5000000002701
 20
-948.9450006121007
 30
0.0
 11
-972.5000000002701
 21
-947.3950006121006
 31
0.0
  0
LINE
  5
DB
330
4E
100
AcDbEntity
  8
0
  6
Continuous
 62
     7
100
AcDbLine
 10
-972.5000000002701
 20
-942.7950006121007
 30
0.0
 11
-972.5000000002701
 21
-941.2450006121006
 31
0.0
  0
LINE
  5
DC
330
4E
100
AcDbEntity
  8
0
  6
Continuous
 62
     7
100
AcDbLine
 10
-972.5000000002701
 20
-991.9950006121006
 30
0.0
 11
-972.5000000002701
 21
-990.4450006121006
 31
0.0
  0
LINE
  5
DD
330
4E
100
AcDbEntity
  8
0
  6
Continuous
 62
     7
100
AcDbLine
 10
-972.5000000002701
 20
-990.4450006121006
 30
0.0
 11
-962.5000000002701
 21
-990.4450006121006
 31
0.0
  0
LINE
  5
DE
330
4E
100
AcDbEntity
  8
0
  6
Continuous
 62
     7
100
AcDbLine
 10
-972.5000000002701
 20
-991.9950006121006
 30
0.0
 11
-962.5000000002701
 21
-991.9950006121006
 31
0.0
  0
LINE
  5
DF
330
4E
100
AcDbEntity
  8
0
  6
Continuous
 62
     7
100
AcDbLine
 10
-967.2712812923803
 20
-996.6000006121006
 30
0.0
 11
-964.5000000002701
 21
-1001.400000612101
 31
0.0
  0
LINE
  5
E0
330
4E
100
AcDbEntity
  8
0
  6
Continuous
 62
     7
100
AcDbLine
 10
-983.7000000002702
 20
-996.6000006121008
 30
0.0
 11
-986.4712812923804
 21
-1001.400000612101
 31
0.0
  0
LINE
  5
E1
330
4E
100
AcDbEntity
  8
0
  6
Continuous
 62
     7
100
AcDbLine
 10
-972.6287187081599
 20
-1001.400000612101
 30
0.0
 11
-975.4000000002701
 21
-996.6000006121008
 31
0.0
  0
LINE
  5
E2
330
4E
100
AcDbEntity
  8
0
  6
Continuous
 62
     7
100
AcDbLine
 10
-975.4000000002701
 20
-996.6000006121008
 30
0.0
 11
-983.7000000002702
 21
-996.6000006121008
 31
0.0
  0
LINE
  5
E3
330
4E
100
AcDbEntity
  8
0
  6
Continuous
 62
     7
100
AcDbLine
 10
-986.4712812923804
 20
-1001.400000612101
 30
0.0
 11
-999.5000000002701
 21
-1001.400000612101
 31
0.0
  0
LINE
  5
E4
330
4E
100
AcDbEntity
  8
0
  6
Continuous
 62
     7
100
AcDbLine
 10
-999.5000000002701
 20
-1001.400000612101
 30
0.0
 11
-999.5000000002701
 21
-1002.485000612101
 31
0.0
  0
LINE
  5
E5
330
4E
100
AcDbEntity
  8
0
  6
Continuous
 62
     7
100
AcDbLine
 10
-999.5000000002701
 20
-1002.485000612101
 30
0.0
 11
-997.5000000002701
 21
-1003.020898996963
 31
0.0
  0
LINE
  5
E6
330
4E
100
AcDbEntity
  8
0
  6
Continuous
 62
     7
100
AcDbLine
 10
-967.2712812923803
 20
-996.6000006121006
 30
0.0
 11
-969.8038475775635
 21
-996.6000006121008
 31
0.0
  0
LINE
  5
E7
330
4E
100
AcDbEntity
  8
0
  6
Continuous
 62
     7
100
AcDbLine
 10
-969.8038475775635
 20
-996.6000006121008
 30
0.0
 11
-967.0325662854533
 21
-1001.400000612101
 31
0.0
  0
LINE
  5
E8
330
4E
100
AcDbEntity
  8
0
  6
Continuous
 62
     7
100
AcDbLine
 10
-962.5000000002701
 20
-996.6000006121006
 30
0.0
 11
-965.8856406463252
 21
-996.6000006121008
 31
0.0
  0
LINE
  5
E9
330
4E
100
AcDbEntity
  8
0
  6
Continuous
 62
     7
100
AcDbLine
 10
-964.5000000002701
 20
-1002.485000612101
 30
0.0
 11
-964.5000000002701
 21
-1001.400000612101
 31
0.0
  0
LINE
  5
EA
330
4E
100
AcDbEntity
  8
0
  6
Continuous
 62
     7
100
AcDbLine
 10
-999.9000000002701
 20
-935.1750006121007
 30
0.0
 11
-999.9000000002701
 21
-940.1750006121007
 31
0.0
  0
LINE
  5
EB
330
4E
100
AcDbEntity
  8
0
  6
Continuous
 62
     7
100
AcDbLine
 10
-1001.50000000027
 20
-934.1000006121006
 30
0.0
 11
-1001.50000000027
 21
-935.1750006121007
 31
0.0
  0
LINE
  5
EC
330
4E
100
AcDbEntity
  8
0
  6
Continuous
 62
     7
100
AcDbLine
 10
-1001.50000000027
 20
-940.1750006121007
 30
0.0
 11
-1001.50000000027
 21
-1007.100000612101
 31
0.0
  0
LINE
  5
ED
330
4E
100
AcDbEntity
  8
0
  6
Continuous
 62
     7
100
AcDbLine
 10
-1001.50000000027
 20
-940.1750006121007
 30
0.0
 11
-1001.50000000027
 21
-935.1750006121007
 31
0.0
  0
LINE
  5
EE
330
4E
100
AcDbEntity
  8
0
  6
Continuous
 62
     7
100
AcDbLine
 10
-999.9000000002701
 20
-935.1750006121007
 30
0.0
 11
-1001.50000000027
 21
-935.1750006121007
 31
0.0
  0
LINE
  5
EF
330
4E
100
AcDbEntity
  8
0
  6
Continuous
 62
     7
100
AcDbLine
 10
-1001.50000000027
 20
-940.1750006121007
 30
0.0
 11
-999.9000000002701
 21
-940.1750006121007
 31
0.0
  0
LINE
  5
F0
330
4E
100
AcDbEntity
  8
0
  6
Continuous
 62
     7
100
AcDbLine
 10
-1001.50000000027
 20
-934.1000006121006
 30
0.0
 11
-971.5000000002701
 21
-934.1000006121006
 31
0.0
  0
LINE
  5
F1
330
4E
100
AcDbEntity
  8
0
  6
Continuous
 62
     7
100
AcDbLine
 10
-972.5000000002701
 20
-985.8450006121006
 30
0.0
 11
-962.5000000002701
 21
-985.8450006121006
 31
0.0
  0
LINE
  5
F2
330
4E
100
AcDbEntity
  8
0
  6
Continuous
 62
     7
100
AcDbLine
 10
-972.5000000002701
 20
-947.3950006121006
 30
0.0
 11
-962.5000000002701
 21
-947.3950006121006
 31
0.0
  0
LINE
  5
F3
330
4E
100
AcDbEntity
  8
0
  6
Continuous
 62
     7
100
AcDbLine
 10
-972.5000000002701
 20
-948.9450006121007
 30
0.0
 11
-962.5000000002701
 21
-948.9450006121007
 31
0.0
  0
LINE
  5
F4
330
4E
100
AcDbEntity
  8
0
  6
Continuous
 62
     7
100
AcDbLine
 10
-972.5000000002701
 20
-953.5450006121007
 30
0.0
 11
-962.5000000002701
 21
-953.5450006121007
 31
0.0
  0
LINE
  5
F5
330
4E
100
AcDbEntity
  8
0
  6
Continuous
 62
     7
100
AcDbLine
 10
-972.5000000002701
 20
-955.0950006121006
 30
0.0
 11
-962.5000000002701
 21
-955.0950006121006
 31
0.0
  0
LINE
  5
F6
330
4E
100
AcDbEntity
  8
0
  6
Continuous
 62
     7
100
AcDbLine
 10
-972.5000000002701
 20
-959.6950006121007
 30
0.0
 11
-962.5000000002701
 21
-959.6950006121007
 31
0.0
  0
LINE
  5
F7
330
4E
100
AcDbEntity
  8
0
  6
Continuous
 62
     7
100
AcDbLine
 10
-962.5000000002701
 20
-984.2950006121006
 30
0.0
 11
-972.5000000002701
 21
-984.2950006121006
 31
0.0
  0
LINE
  5
F8
330
4E
100
AcDbEntity
  8
0
  6
Continuous
 62
     7
100
AcDbLine
 10
-972.5000000002701
 20
-979.6950006121006
 30
0.0
 11
-962.5000000002701
 21
-979.6950006121006
 31
0.0
  0
LINE
  5
F9
330
4E
100
AcDbEntity
  8
0
  6
Continuous
 62
     7
100
AcDbLine
 10
-972.5000000002701
 20
-978.1450006121006
 30
0.0
 11
-962.5000000002701
 21
-978.1450006121006
 31
0.0
  0
LINE
  5
FA
330
4E
100
AcDbEntity
  8
0
  6
Continuous
 62
     7
100
AcDbLine
 10
-972.5000000002701
 20
-973.5450006121007
 30
0.0
 11
-962.5000000002701
 21
-973.5450006121007
 31
0.0
  0
LINE
  5
FB
330
4E
100
AcDbEntity
  8
0
  6
Continuous
 62
     7
100
AcDbLine
 10
-972.5000000002701
 20
-971.9950006121006
 30
0.0
 11
-962.5000000002701
 21
-971.9950006121006
 31
0.0
  0
LINE
  5
FC
330
4E
100
AcDbEntity
  8
0
  6
Continuous
 62
     7
100
AcDbLine
 10
-972.5000000002701
 20
-967.3950006121006
 30
0.0
 11
-962.5000000002701
 21
-967.3950006121006
 31
0.0
  0
LINE
  5
FD
330
4E
100
AcDbEntity
  8
0
  6
Continuous
 62
     7
100
AcDbLine
 10
-972.5000000002701
 20
-965.8450006121006
 30
0.0
 11
-962.5000000002701
 21
-965.8450006121006
 31
0.0
  0
LINE
  5
FE
330
4E
100
AcDbEntity
  8
0
  6
Continuous
 62
     7
100
AcDbLine
 10
-972.5000000002701
 20
-961.2450006121006
 30
0.0
 11
-962.5000000002701
 21
-961.2450006121006
 31
0.0
  0
LINE
  5
FF
330
4E
100
AcDbEntity
  8
0
  6
Continuous
 62
     7
100
AcDbLine
 10
-972.5000000002701
 20
-942.7950006121007
 30
0.0
 11
-962.5000000002701
 21
-942.7950006121007
 31
0.0
  0
LINE
  5
100
330
4E
100
AcDbEntity
  8
0
  6
Continuous
 62
     7
100
AcDbLine
 10
-962.5000000002701
 20
-941.2450006121006
 30
0.0
 11
-972.5000000002701
 21
-941.2450006121006
 31
0.0
  0
LINE
  5
101
330
4E
100
AcDbEntity
  8
0
  6
Continuous
 62
     7
100
AcDbLine
 10
-967.0325662854533
 20
-1001.400000612101
 30
0.0
 11
-972.6287187081599
 21
-1001.400000612101
 31
0.0
  0
LINE
  5
102
330
4E
100
AcDbEntity
  8
0
  6
Continuous
 62
     7
100
AcDbLine
 10
-997.5000000002701
 20
-1003.600000612101
 30
0.0
 11
-999.950726384004
 21
-1007.100000612101
 31
0.0
  0
LINE
  5
103
330
4E
100
AcDbEntity
  8
0
  6
Continuous
 62
     7
100
AcDbLine
 10
-997.5000000002701
 20
-1003.020898996963
 30
0.0
 11
-997.5000000002701
 21
-1003.600000612101
 31
0.0
  0
LINE
  5
104
330
4E
100
AcDbEntity
  8
0
  6
Continuous
 62
     7
100
AcDbLine
 10
-962.5000000002701
 20
-930.9000006121006
 30
0.0
 11
-971.5000000002701
 21
-930.9000006121006
 31
0.0
  0
ARC
  5
105
330
4E
100
AcDbEntity
  8
0
  6
Continuous
 62
     7
100
AcDbCircle
 10
-963.3000000002701
 20
-1006.300000612101
 30
0.0
 40
0.7999999999999545
100
AcDbArc
 50
270.0
 51
0.0
  0
ARC
  5
106
330
4E
100
AcDbEntity
  8
0
  6
Continuous
 62
     7
100
AcDbCircle
 10
-963.3582669880816
 20
-1006.300000612101
 30
0.0
 40
0.7999999999997911
100
AcDbArc
 50
204.9999999999617
 51
270.0
  0
ENDBLK
  5
50
330
4E
100
AcDbEntity
  8
0
100
AcDbBlockEnd
  0
BLOCK
  5
53
330
51
100
AcDbEntity
  8
0
100
AcDbBlockBegin
  2
Rckans1
 70
     0
 10
-982.000000000135
 20
-968.99999999993
 30
0.0
  3
Rckans1
  1

  0
INSERT
  5
52
330
51
100
AcDbEntity
  8
0
100
AcDbBlockReference
  2
BUG_10-select__2
 10
-1001.50000000027
 20
-1007.100000612101
 30
0.0
  0
MTEXT
  5
107
330
51
100
AcDbEntity
  8
1
 62
     6
100
AcDbMText
 10
-982.000000000135
 20
-1012.099999427725
 30
0.0
 40
5.0
 41
0.0
 71
     2
 72
     1
  1
 
  7
CONVERTER_11
 73
     1
 44
1.32052821128451
  0
ENDBLK
  5
54
330
51
100
AcDbEntity
  8
0
100
AcDbBlockEnd
  0
BLOCK
  5
56
330
55
100
AcDbEntity
  8
0
100
AcDbBlockBegin
  2
BUG_10-select__3
 70
     0
 10
-1039.500000373857
 20
-1007.100000612101
 30
0.0
  3
BUG_10-select__3
  1

  0
LINE
  5
108
330
55
100
AcDbEntity
  8
1
  6
DOT_CENTER
 62
     2
100
AcDbLine
 10
-1035.000000373857
 20
-972.7050006121007
 30
0.0
 11
-1035.000000373857
 21
-976.4450006121007
 31
0.0
  0
LINE
  5
109
330
55
100
AcDbEntity
  8
1
  6
DOT_CENTER
 62
     2
100
AcDbLine
 10
-1033.130000373857
 20
-974.5750006121007
 30
0.0
 11
-1036.870000373857
 21
-974.5750006121007
 31
0.0
  0
LINE
  5
10A
330
55
100
AcDbEntity
  8
1
  6
DOT_CENTER
 62
     2
100
AcDbLine
 10
-1035.000000373857
 20
-978.8550006121008
 30
0.0
 11
-1035.000000373857
 21
-982.5950006121008
 31
0.0
  0
LINE
  5
10B
330
55
100
AcDbEntity
  8
1
  6
DOT_CENTER
 62
     2
100
AcDbLine
 10
-1033.130000373857
 20
-980.7250006121008
 30
0.0
 11
-1036.870000373857
 21
-980.7250006121008
 31
0.0
  0
LINE
  5
10C
330
55
100
AcDbEntity
  8
1
  6
DOT_CENTER
 62
     2
100
AcDbLine
 10
-1035.000000373857
 20
-985.0050006121008
 30
0.0
 11
-1035.000000373857
 21
-988.7450006121006
 31
0.0
  0
LINE
  5
10D
330
55
100
AcDbEntity
  8
1
  6
DOT_CENTER
 62
     2
100
AcDbLine
 10
-1033.130000373857
 20
-986.8750006121007
 30
0.0
 11
-1036.870000373857
 21
-986.8750006121007
 31
0.0
  0
LINE
  5
10E
330
55
100
AcDbEntity
  8
1
  6
DOT_CENTER
 62
     2
100
AcDbLine
 10
-1035.000000373857
 20
-935.8050006121007
 30
0.0
 11
-1035.000000373857
 21
-939.5450006121007
 31
0.0
  0
LINE
  5
10F
330
55
100
AcDbEntity
  8
1
  6
DOT_CENTER
 62
     2
100
AcDbLine
 10
-1033.130000373857
 20
-937.6750006121007
 30
0.0
 11
-1036.870000373857
 21
-937.6750006121007
 31
0.0
  0
LINE
  5
110
330
55
100
AcDbEntity
  8
1
  6
DOT_CENTER
 62
     2
100
AcDbLine
 10
-1035.000000373857
 20
-991.1550006121007
 30
0.0
 11
-1035.000000373857
 21
-994.8950006121007
 31
0.0
  0
LINE
  5
111
330
55
100
AcDbEntity
  8
1
  6
DOT_CENTER
 62
     2
100
AcDbLine
 10
-1033.130000373857
 20
-993.0250006121007
 30
0.0
 11
-1036.870000373857
 21
-993.0250006121007
 31
0.0
  0
LINE
  5
112
330
55
100
AcDbEntity
  8
1
  6
DOT_CENTER
 62
     2
100
AcDbLine
 10
-1035.000000373857
 20
-941.9550006121007
 30
0.0
 11
-1035.000000373857
 21
-945.6950006121007
 31
0.0
  0
LINE
  5
113
330
55
100
AcDbEntity
  8
1
  6
DOT_CENTER
 62
     2
100
AcDbLine
 10
-1033.130000373857
 20
-943.8250006121007
 30
0.0
 11
-1036.870000373857
 21
-943.8250006121007
 31
0.0
  0
LINE
  5
114
330
55
100
AcDbEntity
  8
1
  6
DOT_CENTER
 62
     2
100
AcDbLine
 10
-1035.000000373857
 20
-948.1050006121008
 30
0.0
 11
-1035.000000373857
 21
-951.8450006121005
 31
0.0
  0
LINE
  5
115
330
55
100
AcDbEntity
  8
1
  6
DOT_CENTER
 62
     2
100
AcDbLine
 10
-1033.130000373857
 20
-949.9750006121006
 30
0.0
 11
-1036.870000373857
 21
-949.9750006121006
 31
0.0
  0
LINE
  5
116
330
55
100
AcDbEntity
  8
1
  6
DOT_CENTER
 62
     2
100
AcDbLine
 10
-1035.000000373857
 20
-954.2550006121007
 30
0.0
 11
-1035.000000373857
 21
-957.9950006121005
 31
0.0
  0
LINE
  5
117
330
55
100
AcDbEntity
  8
1
  6
DOT_CENTER
 62
     2
100
AcDbLine
 10
-1033.130000373857
 20
-956.1250006121006
 30
0.0
 11
-1036.870000373857
 21
-956.1250006121006
 31
0.0
  0
LINE
  5
118
330
55
100
AcDbEntity
  8
1
  6
DOT_CENTER
 62
     2
100
AcDbLine
 10
-1035.000000373857
 20
-960.4050006121007
 30
0.0
 11
-1035.000000373857
 21
-964.1450006121007
 31
0.0
  0
LINE
  5
119
330
55
100
AcDbEntity
  8
1
  6
DOT_CENTER
 62
     2
100
AcDbLine
 10
-1033.130000373857
 20
-962.2750006121007
 30
0.0
 11
-1036.870000373857
 21
-962.2750006121007
 31
0.0
  0
LINE
  5
11A
330
55
100
AcDbEntity
  8
1
  6
DOT_CENTER
 62
     2
100
AcDbLine
 10
-1035.000000373857
 20
-966.5550006121007
 30
0.0
 11
-1035.000000373857
 21
-970.2950006121007
 31
0.0
  0
LINE
  5
11B
330
55
100
AcDbEntity
  8
1
  6
DOT_CENTER
 62
     2
100
AcDbLine
 10
-1033.130000373857
 20
-968.4250006121007
 30
0.0
 11
-1036.870000373857
 21
-968.4250006121007
 31
0.0
  0
LINE
  5
11C
330
55
100
AcDbEntity
  8
0
  6
Continuous
 62
     7
100
AcDbLine
 10
-1030.500000373857
 20
-996.6000006121006
 30
0.0
 11
-1030.500000373857
 21
-939.6750006121007
 31
0.0
  0
LINE
  5
11D
330
55
100
AcDbEntity
  8
0
  6
Continuous
 62
     7
100
AcDbLine
 10
-1031.475000373857
 20
-989.4550006121007
 30
0.0
 11
-1031.475000373857
 21
-984.2950006121006
 31
0.0
  0
LINE
  5
11E
330
55
100
AcDbEntity
  8
0
  6
Continuous
 62
     7
100
AcDbLine
 10
-1031.475000373857
 20
-983.3050006121007
 30
0.0
 11
-1031.475000373857
 21
-978.1450006121006
 31
0.0
  0
LINE
  5
11F
330
55
100
AcDbEntity
  8
0
  6
Continuous
 62
     7
100
AcDbLine
 10
-1031.475000373857
 20
-946.4050006121006
 30
0.0
 11
-1031.475000373857
 21
-941.2450006121006
 31
0.0
  0
LINE
  5
120
330
55
100
AcDbEntity
  8
0
  6
Continuous
 62
     7
100
AcDbLine
 10
-1030.500000373857
 20
-939.6750006121007
 30
0.0
 11
-1030.500000373857
 21
-935.6750006121007
 31
0.0
  0
LINE
  5
121
330
55
100
AcDbEntity
  8
0
  6
Continuous
 62
     7
100
AcDbLine
 10
-1031.475000373857
 20
-952.5550006121007
 30
0.0
 11
-1031.475000373857
 21
-947.3950006121006
 31
0.0
  0
LINE
  5
122
330
55
100
AcDbEntity
  8
0
  6
Continuous
 62
     7
100
AcDbLine
 10
-1031.475000373857
 20
-947.3950006121006
 30
0.0
 11
-1031.475000373857
 21
-946.4050006121006
 31
0.0
  0
LINE
  5
123
330
55
100
AcDbEntity
  8
0
  6
Continuous
 62
     7
100
AcDbLine
 10
-1031.475000373857
 20
-953.5450006121007
 30
0.0
 11
-1031.475000373857
 21
-952.5550006121007
 31
0.0
  0
LINE
  5
124
330
55
100
AcDbEntity
  8
0
  6
Continuous
 62
     7
100
AcDbLine
 10
-1031.475000373857
 20
-958.7050006121007
 30
0.0
 11
-1031.475000373857
 21
-953.5450006121007
 31
0.0
  0
LINE
  5
125
330
55
100
AcDbEntity
  8
0
  6
Continuous
 62
     7
100
AcDbLine
 10
-1031.475000373857
 20
-959.6950006121007
 30
0.0
 11
-1031.475000373857
 21
-958.7050006121007
 31
0.0
  0
LINE
  5
126
330
55
100
AcDbEntity
  8
0
  6
Continuous
 62
     7
100
AcDbLine
 10
-1031.475000373857
 20
-977.1550006121007
 30
0.0
 11
-1031.475000373857
 21
-971.9950006121006
 31
0.0
  0
LINE
  5
127
330
55
100
AcDbEntity
  8
0
  6
Continuous
 62
     7
100
AcDbLine
 10
-1031.475000373857
 20
-978.1450006121006
 30
0.0
 11
-1031.475000373857
 21
-977.1550006121007
 31
0.0
  0
LINE
  5
128
330
55
100
AcDbEntity
  8
0
  6
Continuous
 62
     7
100
AcDbLine
 10
-1031.475000373857
 20
-971.9950006121006
 30
0.0
 11
-1031.475000373857
 21
-971.0050006121006
 31
0.0
  0
LINE
  5
129
330
55
100
AcDbEntity
  8
0
  6
Continuous
 62
     7
100
AcDbLine
 10
-1031.475000373857
 20
-940.2550006121006
 30
0.0
 11
-1031.475000373857
 21
-935.0950006121006
 31
0.0
  0
LINE
  5
12A
330
55
100
AcDbEntity
  8
0
  6
Continuous
 62
     7
100
AcDbLine
 10
-1031.475000373857
 20
-941.2450006121006
 30
0.0
 11
-1031.475000373857
 21
-940.2550006121006
 31
0.0
  0
LINE
  5
12B
330
55
100
AcDbEntity
  8
0
  6
Continuous
 62
     7
100
AcDbLine
 10
-1031.475000373857
 20
-971.0050006121006
 30
0.0
 11
-1031.475000373857
 21
-965.8450006121006
 31
0.0
  0
LINE
  5
12C
330
55
100
AcDbEntity
  8
0
  6
Continuous
 62
     7
100
AcDbLine
 10
-1031.475000373857
 20
-964.8550006121006
 30
0.0
 11
-1031.475000373857
 21
-959.6950006121007
 31
0.0
  0
LINE
  5
12D
330
55
100
AcDbEntity
  8
0
  6
Continuous
 62
     7
100
AcDbLine
 10
-1031.475000373857
 20
-965.8450006121006
 30
0.0
 11
-1031.475000373857
 21
-964.8550006121006
 31
0.0
  0
LINE
  5
12E
330
55
100
AcDbEntity
  8
0
  6
Continuous
 62
     7
100
AcDbLine
 10
-1030.500000373857
 20
-1002.464102227238
 30
0.0
 11
-1030.500000373857
 21
-996.6000006121006
 31
0.0
  0
LINE
  5
12F
330
55
100
AcDbEntity
  8
0
  6
Continuous
 62
     7
100
AcDbLine
 10
-1030.500000373857
 20
-1002.464102227238
 30
0.0
 11
-1030.500000373857
 21
-1006.300000612101
 31
0.0
  0
LINE
  5
130
330
55
100
AcDbEntity
  8
0
  6
Continuous
 62
     7
100
AcDbLine
 10
-1031.475000373857
 20
-984.2950006121006
 30
0.0
 11
-1031.475000373857
 21
-983.3050006121007
 31
0.0
  0
LINE
  5
131
330
55
100
AcDbEntity
  8
0
  6
Continuous
 62
     7
100
AcDbLine
 10
-1031.475000373857
 20
-995.6050006121006
 30
0.0
 11
-1031.475000373857
 21
-990.4450006121006
 31
0.0
  0
LINE
  5
132
330
55
100
AcDbEntity
  8
0
  6
Continuous
 62
     7
100
AcDbLine
 10
-1031.475000373857
 20
-990.4450006121006
 30
0.0
 11
-1031.475000373857
 21
-989.4550006121007
 31
0.0
  0
LINE
  5
133
330
55
100
AcDbEntity
  8
0
  6
Continuous
 62
     7
100
AcDbLine
 10
-1030.500000373857
 20
-930.9000006121006
 30
0.0
 11
-1032.100000373857
 21
-930.9000006121006
 31
0.0
  0
LINE
  5
134
330
55
100
AcDbEntity
  8
0
  6
Continuous
 62
     7
100
AcDbLine
 10
-1032.100000373857
 20
-930.9000006121006
 30
0.0
 11
-1032.100000373857
 21
-933.0300006121006
 31
0.0
  0
LINE
  5
135
330
55
100
AcDbEntity
  8
0
  6
Continuous
 62
     7
100
AcDbLine
 10
-1032.100000373857
 20
-933.0300006121006
 30
0.0
 11
-1032.100000373857
 21
-934.1000006121006
 31
0.0
  0
LINE
  5
136
330
55
100
AcDbEntity
  8
0
  6
Continuous
 62
     7
100
AcDbLine
 10
-1030.500000373857
 20
-935.6750006121007
 30
0.0
 11
-1030.500000373857
 21
-930.9000006121006
 31
0.0
  0
LINE
  5
137
330
55
100
AcDbEntity
  8
0
  6
Continuous
 62
     7
100
AcDbLine
 10
-1034.000000373857
 20
-934.1000006121006
 30
0.0
 11
-1034.000000373857
 21
-930.9000006121006
 31
0.0
  0
LINE
  5
138
330
55
100
AcDbEntity
  8
0
  6
Continuous
 62
     7
100
AcDbLine
 10
-1032.100000373857
 20
-933.0300006121006
 30
0.0
 11
-1033.000000373857
 21
-933.0300006121006
 31
0.0
  0
LINE
  5
139
330
55
100
AcDbEntity
  8
0
  6
Continuous
 62
     7
100
AcDbLine
 10
-1033.000000373857
 20
-930.9000006121006
 30
0.0
 11
-1032.100000373857
 21
-930.9000006121006
 31
0.0
  0
LINE
  5
13A
330
55
100
AcDbEntity
  8
0
  6
Continuous
 62
     7
100
AcDbLine
 10
-1033.000000373857
 20
-933.0300006121006
 30
0.0
 11
-1033.000000373857
 21
-930.9000006121006
 31
0.0
  0
LINE
  5
13B
330
55
100
AcDbEntity
  8
0
  6
Continuous
 62
     7
100
AcDbLine
 10
-1033.000000373857
 20
-934.1000006121006
 30
0.0
 11
-1033.000000373857
 21
-933.0300006121006
 31
0.0
  0
LINE
  5
13C
330
55
100
AcDbEntity
  8
0
  6
Continuous
 62
     7
100
AcDbLine
 10
-1034.000000373857
 20
-934.1000006121006
 30
0.0
 11
-1033.000000373857
 21
-934.1000006121006
 31
0.0
  0
LINE
  5
13D
330
55
100
AcDbEntity
  8
0
  6
Continuous
 62
     7
100
AcDbLine
 10
-1034.000000373857
 20
-930.9000006121006
 30
0.0
 11
-1036.000000373857
 21
-930.9000006121006
 31
0.0
  0
LINE
  5
13E
330
55
100
AcDbEntity
  8
0
  6
Continuous
 62
     7
100
AcDbLine
 10
-1039.500000373857
 20
-930.9000006121006
 30
0.0
 11
-1039.500000373857
 21
-941.2450006121006
 31
0.0
  0
LINE
  5
13F
330
55
100
AcDbEntity
  8
0
  6
Continuous
 62
     7
100
AcDbLine
 10
-1039.500000373857
 20
-961.2450006121006
 30
0.0
 11
-1039.500000373857
 21
-965.8450006121006
 31
0.0
  0
LINE
  5
140
330
55
100
AcDbEntity
  8
0
  6
Continuous
 62
     7
100
AcDbLine
 10
-1039.500000373857
 20
-979.6950006121006
 30
0.0
 11
-1039.500000373857
 21
-978.1450006121006
 31
0.0
  0
LINE
  5
141
330
55
100
AcDbEntity
  8
0
  6
Continuous
 62
     7
100
AcDbLine
 10
-1038.525000373857
 20
-979.6950006121006
 30
0.0
 11
-1039.500000373857
 21
-979.6950006121006
 31
0.0
  0
LINE
  5
142
330
55
100
AcDbEntity
  8
0
  6
Continuous
 62
     7
100
AcDbLine
 10
-1038.525000373857
 20
-967.3950006121006
 30
0.0
 11
-1039.500000373857
 21
-967.3950006121006
 31
0.0
  0
LINE
  5
143
330
55
100
AcDbEntity
  8
0
  6
Continuous
 62
     7
100
AcDbLine
 10
-1038.525000373857
 20
-971.9950006121006
 30
0.0
 11
-1039.500000373857
 21
-971.9950006121006
 31
0.0
  0
LINE
  5
144
330
55
100
AcDbEntity
  8
0
  6
Continuous
 62
     7
100
AcDbLine
 10
-1038.525000373857
 20
-955.0950006121006
 30
0.0
 11
-1039.500000373857
 21
-955.0950006121006
 31
0.0
  0
LINE
  5
145
330
55
100
AcDbEntity
  8
0
  6
Continuous
 62
     7
100
AcDbLine
 10
-1039.500000373857
 20
-959.6950006121007
 30
0.0
 11
-1038.525000373857
 21
-959.6950006121007
 31
0.0
  0
LINE
  5
146
330
55
100
AcDbEntity
  8
0
  6
Continuous
 62
     7
100
AcDbLine
 10
-1039.500000373857
 20
-953.5450006121007
 30
0.0
 11
-1038.525000373857
 21
-953.5450006121007
 31
0.0
  0
LINE
  5
147
330
55
100
AcDbEntity
  8
0
  6
Continuous
 62
     7
100
AcDbLine
 10
-1038.525000373857
 20
-961.2450006121006
 30
0.0
 11
-1039.500000373857
 21
-961.2450006121006
 31
0.0
  0
LINE
  5
148
330
55
100
AcDbEntity
  8
0
  6
Continuous
 62
     7
100
AcDbLine
 10
-1039.500000373857
 20
-965.8450006121006
 30
0.0
 11
-1038.525000373857
 21
-965.8450006121006
 31
0.0
  0
LINE
  5
149
330
55
100
AcDbEntity
  8
0
  6
Continuous
 62
     7
100
AcDbLine
 10
-1038.525000373857
 20
-961.2450006121006
 30
0.0
 11
-1038.525000373857
 21
-964.8550006121006
 31
0.0
  0
LINE
  5
14A
330
55
100
AcDbEntity
  8
0
  6
Continuous
 62
     7
100
AcDbLine
 10
-1038.525000373857
 20
-964.8550006121006
 30
0.0
 11
-1038.525000373857
 21
-965.8450006121006
 31
0.0
  0
LINE
  5
14B
330
55
100
AcDbEntity
  8
0
  6
Continuous
 62
     7
100
AcDbLine
 10
-1039.500000373857
 20
-991.9950006121006
 30
0.0
 11
-1039.500000373857
 21
-990.4450006121006
 31
0.0
  0
LINE
  5
14C
330
55
100
AcDbEntity
  8
0
  6
Continuous
 62
     7
100
AcDbLine
 10
-1039.500000373857
 20
-985.8450006121006
 30
0.0
 11
-1039.500000373857
 21
-984.2950006121006
 31
0.0
  0
LINE
  5
14D
330
55
100
AcDbEntity
  8
0
  6
Continuous
 62
     7
100
AcDbLine
 10
-1039.500000373857
 20
-979.6950006121006
 30
0.0
 11
-1039.500000373857
 21
-984.2950006121006
 31
0.0
  0
LINE
  5
14E
330
55
100
AcDbEntity
  8
0
  6
Continuous
 62
     7
100
AcDbLine
 10
-1036.000000373857
 20
-934.1000006121006
 30
0.0
 11
-1036.000000373857
 21
-930.9000006121006
 31
0.0
  0
LINE
  5
14F
330
55
100
AcDbEntity
  8
0
  6
Continuous
 62
     7
100
AcDbLine
 10
-1038.525000373857
 20
-948.9450006121007
 30
0.0
 11
-1038.525000373857
 21
-952.5550006121007
 31
0.0
  0
LINE
  5
150
330
55
100
AcDbEntity
  8
0
  6
Continuous
 62
     7
100
AcDbLine
 10
-1038.525000373857
 20
-967.3950006121006
 30
0.0
 11
-1038.525000373857
 21
-971.0050006121006
 31
0.0
  0
LINE
  5
151
330
55
100
AcDbEntity
  8
0
  6
Continuous
 62
     7
100
AcDbLine
 10
-1038.525000373857
 20
-979.6950006121006
 30
0.0
 11
-1038.525000373857
 21
-983.3050006121007
 31
0.0
  0
LINE
  5
152
330
55
100
AcDbEntity
  8
0
  6
Continuous
 62
     7
100
AcDbLine
 10
-1038.525000373857
 20
-985.8450006121006
 30
0.0
 11
-1038.525000373857
 21
-989.4550006121007
 31
0.0
  0
LINE
  5
153
330
55
100
AcDbEntity
  8
0
  6
Continuous
 62
     7
100
AcDbLine
 10
-1038.525000373857
 20
-983.3050006121007
 30
0.0
 11
-1038.525000373857
 21
-984.2950006121006
 31
0.0
  0
LINE
  5
154
330
55
100
AcDbEntity
  8
0
  6
Continuous
 62
     7
100
AcDbLine
 10
-1038.525000373857
 20
-973.5450006121007
 30
0.0
 11
-1038.525000373857
 21
-977.1550006121007
 31
0.0
  0
LINE
  5
155
330
55
100
AcDbEntity
  8
0
  6
Continuous
 62
     7
100
AcDbLine
 10
-1038.525000373857
 20
-942.7950006121007
 30
0.0
 11
-1038.525000373857
 21
-946.4050006121006
 31
0.0
  0
LINE
  5
156
330
55
100
AcDbEntity
  8
0
  6
Continuous
 62
     7
100
AcDbLine
 10
-1038.525000373857
 20
-971.0050006121006
 30
0.0
 11
-1038.525000373857
 21
-971.9950006121006
 31
0.0
  0
LINE
  5
157
330
55
100
AcDbEntity
  8
0
  6
Continuous
 62
     7
100
AcDbLine
 10
-1038.525000373857
 20
-952.5550006121007
 30
0.0
 11
-1038.525000373857
 21
-953.5450006121007
 31
0.0
  0
LINE
  5
158
330
55
100
AcDbEntity
  8
0
  6
Continuous
 62
     7
100
AcDbLine
 10
-1038.525000373857
 20
-955.0950006121006
 30
0.0
 11
-1038.525000373857
 21
-958.7050006121007
 31
0.0
  0
LINE
  5
159
330
55
100
AcDbEntity
  8
0
  6
Continuous
 62
     7
100
AcDbLine
 10
-1038.525000373857
 20
-958.7050006121007
 30
0.0
 11
-1038.525000373857
 21
-959.6950006121007
 31
0.0
  0
LINE
  5
15A
330
55
100
AcDbEntity
  8
0
  6
Continuous
 62
     7
100
AcDbLine
 10
-1038.525000373857
 20
-941.2450006121006
 30
0.0
 11
-1038.525000373857
 21
-940.2550006121006
 31
0.0
  0
LINE
  5
15B
330
55
100
AcDbEntity
  8
0
  6
Continuous
 62
     7
100
AcDbLine
 10
-1037.000000373857
 20
-933.0300006121006
 30
0.0
 11
-1037.000000373857
 21
-934.1000006121006
 31
0.0
  0
LINE
  5
15C
330
55
100
AcDbEntity
  8
0
  6
Continuous
 62
     7
100
AcDbLine
 10
-1037.000000373857
 20
-934.1000006121006
 30
0.0
 11
-1036.000000373857
 21
-934.1000006121006
 31
0.0
  0
LINE
  5
15D
330
55
100
AcDbEntity
  8
0
  6
Continuous
 62
     7
100
AcDbLine
 10
-1037.900000373857
 20
-934.1000006121006
 30
0.0
 11
-1037.000000373857
 21
-934.1000006121006
 31
0.0
  0
LINE
  5
15E
330
55
100
AcDbEntity
  8
0
  6
Continuous
 62
     7
100
AcDbLine
 10
-1037.000000373857
 20
-933.0300006121006
 30
0.0
 11
-1037.900000373857
 21
-933.0300006121006
 31
0.0
  0
LINE
  5
15F
330
55
100
AcDbEntity
  8
0
  6
Continuous
 62
     7
100
AcDbLine
 10
-1039.500000373857
 20
-984.2950006121006
 30
0.0
 11
-1038.525000373857
 21
-984.2950006121006
 31
0.0
  0
LINE
  5
160
330
55
100
AcDbEntity
  8
0
  6
Continuous
 62
     7
100
AcDbLine
 10
-1038.525000373857
 20
-948.9450006121007
 30
0.0
 11
-1039.500000373857
 21
-948.9450006121007
 31
0.0
  0
LINE
  5
161
330
55
100
AcDbEntity
  8
0
  6
Continuous
 62
     7
100
AcDbLine
 10
-1037.900000373857
 20
-930.9000006121006
 30
0.0
 11
-1039.500000373857
 21
-930.9000006121006
 31
0.0
  0
LINE
  5
162
330
55
100
AcDbEntity
  8
0
  6
Continuous
 62
     7
100
AcDbLine
 10
-1039.500000373857
 20
-1006.300000612101
 30
0.0
 11
-1039.500000373857
 21
-1002.464102227238
 31
0.0
  0
LINE
  5
163
330
55
100
AcDbEntity
  8
0
  6
Continuous
 62
     7
100
AcDbLine
 10
-1039.500000373857
 20
-996.6000006121006
 30
0.0
 11
-1039.500000373857
 21
-1002.464102227238
 31
0.0
  0
LINE
  5
164
330
55
100
AcDbEntity
  8
0
  6
Continuous
 62
     7
100
AcDbLine
 10
-1039.500000373857
 20
-955.0950006121006
 30
0.0
 11
-1039.500000373857
 21
-959.6950006121007
 31
0.0
  0
LINE
  5
165
330
55
100
AcDbEntity
  8
0
  6
Continuous
 62
     7
100
AcDbLine
 10
-1039.500000373857
 20
-961.2450006121006
 30
0.0
 11
-1039.500000373857
 21
-959.6950006121007
 31
0.0
  0
LINE
  5
166
330
55
100
AcDbEntity
  8
0
  6
Continuous
 62
     7
100
AcDbLine
 10
-1039.500000373857
 20
-942.7950006121007
 30
0.0
 11
-1039.500000373857
 21
-941.2450006121006
 31
0.0
  0
LINE
  5
167
330
55
100
AcDbEntity
  8
0
  6
Continuous
 62
     7
100
AcDbLine
 10
-1039.500000373857
 20
-948.9450006121007
 30
0.0
 11
-1039.500000373857
 21
-953.5450006121007
 31
0.0
  0
LINE
  5
168
330
55
100
AcDbEntity
  8
0
  6
Continuous
 62
     7
100
AcDbLine
 10
-1039.500000373857
 20
-955.0950006121006
 30
0.0
 11
-1039.500000373857
 21
-953.5450006121007
 31
0.0
  0
LINE
  5
169
330
55
100
AcDbEntity
  8
0
  6
Continuous
 62
     7
100
AcDbLine
 10
-1039.500000373857
 20
-948.9450006121007
 30
0.0
 11
-1039.500000373857
 21
-947.3950006121006
 31
0.0
  0
LINE
  5
16A
330
55
100
AcDbEntity
  8
0
  6
Continuous
 62
     7
100
AcDbLine
 10
-1039.500000373857
 20
-967.3950006121006
 30
0.0
 11
-1039.500000373857
 21
-971.9950006121006
 31
0.0
  0
LINE
  5
16B
330
55
100
AcDbEntity
  8
0
  6
Continuous
 62
     7
100
AcDbLine
 10
-1039.500000373857
 20
-973.5450006121007
 30
0.0
 11
-1039.500000373857
 21
-971.9950006121006
 31
0.0
  0
LINE
  5
16C
330
55
100
AcDbEntity
  8
0
  6
Continuous
 62
     7
100
AcDbLine
 10
-1039.500000373857
 20
-967.3950006121006
 30
0.0
 11
-1039.500000373857
 21
-965.8450006121006
 31
0.0
  0
LINE
  5
16D
330
55
100
AcDbEntity
  8
0
  6
Continuous
 62
     7
100
AcDbLine
 10
-1037.900000373857
 20
-930.9000006121006
 30
0.0
 11
-1037.000000373857
 21
-930.9000006121006
 31
0.0
  0
LINE
  5
16E
330
55
100
AcDbEntity
  8
0
  6
Continuous
 62
     7
100
AcDbLine
 10
-1037.000000373857
 20
-930.9000006121006
 30
0.0
 11
-1037.000000373857
 21
-933.0300006121006
 31
0.0
  0
LINE
  5
16F
330
55
100
AcDbEntity
  8
0
  6
Continuous
 62
     7
100
AcDbLine
 10
-1037.900000373857
 20
-933.0300006121006
 30
0.0
 11
-1037.900000373857
 21
-930.9000006121006
 31
0.0
  0
LINE
  5
170
330
55
100
AcDbEntity
  8
0
  6
Continuous
 62
     7
100
AcDbLine
 10
-1037.900000373857
 20
-934.1000006121006
 30
0.0
 11
-1037.900000373857
 21
-933.0300006121006
 31
0.0
  0
LINE
  5
171
330
55
100
AcDbEntity
  8
0
  6
Continuous
 62
     2
100
AcDbLine
 10
-1030.500000373857
 20
-1006.300000612101
 30
0.0
 11
-1039.500000373857
 21
-1006.300000612101
 31
0.0
  0
LINE
  5
172
330
55
100
AcDbEntity
  8
0
  6
Continuous
 62
     7
100
AcDbLine
 10
-1030.500000373857
 20
-1007.100000612101
 30
0.0
 11
-1039.500000373857
 21
-1007.100000612101
 31
0.0
  0
LINE
  5
173
330
55
100
AcDbEntity
  8
0
  6
Continuous
 62
     7
100
AcDbLine
 10
-1030.500000373857
 20
-1002.464102227238
 30
0.0
 11
-1039.500000373857
 21
-1002.464102227238
 31
0.0
  0
LINE
  5
174
330
55
100
AcDbEntity
  8
0
  6
Continuous
 62
     7
100
AcDbLine
 10
-1030.500000373857
 20
-996.6000006121006
 30
0.0
 11
-1039.500000373857
 21
-996.6000006121006
 31
0.0
  0
LINE
  5
175
330
55
100
AcDbEntity
  8
0
  6
Continuous
 62
     7
100
AcDbLine
 10
-1038.525000373857
 20
-989.4550006121007
 30
0.0
 11
-1031.475000373857
 21
-989.4550006121007
 31
0.0
  0
LINE
  5
176
330
55
100
AcDbEntity
  8
0
  6
Continuous
 62
     7
100
AcDbLine
 10
-1038.525000373857
 20
-940.2550006121006
 30
0.0
 11
-1038.525000373857
 21
-935.0950006121006
 31
0.0
  0
LINE
  5
177
330
55
100
AcDbEntity
  8
0
  6
Continuous
 62
     7
100
AcDbLine
 10
-1039.500000373857
 20
-991.9950006121006
 30
0.0
 11
-1039.500000373857
 21
-996.6000006121006
 31
0.0
  0
LINE
  5
178
330
55
100
AcDbEntity
  8
0
  6
Continuous
 62
     7
100
AcDbLine
 10
-1038.525000373857
 20
-942.7950006121007
 30
0.0
 11
-1039.500000373857
 21
-942.7950006121007
 31
0.0
  0
LINE
  5
179
330
55
100
AcDbEntity
  8
0
  6
Continuous
 62
     7
100
AcDbLine
 10
-1039.500000373857
 20
-947.3950006121006
 30
0.0
 11
-1038.525000373857
 21
-947.3950006121006
 31
0.0
  0
LINE
  5
17A
330
55
100
AcDbEntity
  8
0
  6
Continuous
 62
     7
100
AcDbLine
 10
-1038.525000373857
 20
-946.4050006121006
 30
0.0
 11
-1038.525000373857
 21
-947.3950006121006
 31
0.0
  0
LINE
  5
17B
330
55
100
AcDbEntity
  8
0
  6
Continuous
 62
     7
100
AcDbLine
 10
-1038.525000373857
 20
-973.5450006121007
 30
0.0
 11
-1039.500000373857
 21
-973.5450006121007
 31
0.0
  0
LINE
  5
17C
330
55
100
AcDbEntity
  8
0
  6
Continuous
 62
     7
100
AcDbLine
 10
-1039.500000373857
 20
-942.7950006121007
 30
0.0
 11
-1039.500000373857
 21
-947.3950006121006
 31
0.0
  0
LINE
  5
17D
330
55
100
AcDbEntity
  8
0
  6
Continuous
 62
     7
100
AcDbLine
 10
-1039.500000373857
 20
-973.5450006121007
 30
0.0
 11
-1039.500000373857
 21
-978.1450006121006
 31
0.0
  0
LINE
  5
17E
330
55
100
AcDbEntity
  8
0
  6
Continuous
 62
     7
100
AcDbLine
 10
-1038.525000373857
 20
-978.1450006121006
 30
0.0
 11
-1039.500000373857
 21
-978.1450006121006
 31
0.0
  0
LINE
  5
17F
330
55
100
AcDbEntity
  8
0
  6
Continuous
 62
     7
100
AcDbLine
 10
-1038.525000373857
 20
-977.1550006121007
 30
0.0
 11
-1038.525000373857
 21
-978.1450006121006
 31
0.0
  0
LINE
  5
180
330
55
100
AcDbEntity
  8
0
  6
Continuous
 62
     7
100
AcDbLine
 10
-1038.525000373857
 20
-991.9950006121006
 30
0.0
 11
-1038.525000373857
 21
-995.6050006121006
 31
0.0
  0
LINE
  5
181
330
55
100
AcDbEntity
  8
0
  6
Continuous
 62
     7
100
AcDbLine
 10
-1039.500000373857
 20
-985.8450006121006
 30
0.0
 11
-1039.500000373857
 21
-990.4450006121006
 31
0.0
  0
LINE
  5
182
330
55
100
AcDbEntity
  8
0
  6
Continuous
 62
     7
100
AcDbLine
 10
-1039.500000373857
 20
-991.9950006121006
 30
0.0
 11
-1038.525000373857
 21
-991.9950006121006
 31
0.0
  0
LINE
  5
183
330
55
100
AcDbEntity
  8
0
  6
Continuous
 62
     7
100
AcDbLine
 10
-1038.525000373857
 20
-985.8450006121006
 30
0.0
 11
-1039.500000373857
 21
-985.8450006121006
 31
0.0
  0
LINE
  5
184
330
55
100
AcDbEntity
  8
0
  6
Continuous
 62
     7
100
AcDbLine
 10
-1039.500000373857
 20
-990.4450006121006
 30
0.0
 11
-1038.525000373857
 21
-990.4450006121006
 31
0.0
  0
LINE
  5
185
330
55
100
AcDbEntity
  8
0
  6
Continuous
 62
     7
100
AcDbLine
 10
-1038.525000373857
 20
-989.4550006121007
 30
0.0
 11
-1038.525000373857
 21
-990.4450006121006
 31
0.0
  0
LINE
  5
186
330
55
100
AcDbEntity
  8
0
  6
Continuous
 62
     7
100
AcDbLine
 10
-1039.500000373857
 20
-941.2450006121006
 30
0.0
 11
-1038.525000373857
 21
-941.2450006121006
 31
0.0
  0
LINE
  5
187
330
55
100
AcDbEntity
  8
0
  6
Continuous
 62
     7
100
AcDbLine
 10
-1031.475000373857
 20
-964.8550006121006
 30
0.0
 11
-1038.525000373857
 21
-964.8550006121006
 31
0.0
  0
LINE
  5
188
330
55
100
AcDbEntity
  8
0
  6
Continuous
 62
     7
100
AcDbLine
 10
-1031.475000373857
 20
-958.7050006121007
 30
0.0
 11
-1038.525000373857
 21
-958.7050006121007
 31
0.0
  0
LINE
  5
189
330
55
100
AcDbEntity
  8
0
  6
Continuous
 62
     7
100
AcDbLine
 10
-1038.525000373857
 20
-935.0950006121006
 30
0.0
 11
-1031.475000373857
 21
-935.0950006121006
 31
0.0
  0
LINE
  5
18A
330
55
100
AcDbEntity
  8
0
  6
Continuous
 62
     7
100
AcDbLine
 10
-1038.525000373857
 20
-995.6050006121006
 30
0.0
 11
-1031.475000373857
 21
-995.6050006121006
 31
0.0
  0
LINE
  5
18B
330
55
100
AcDbEntity
  8
0
  6
Continuous
 62
     7
100
AcDbLine
 10
-1031.475000373857
 20
-984.2950006121006
 30
0.0
 11
-1038.525000373857
 21
-984.2950006121006
 31
0.0
  0
LINE
  5
18C
330
55
100
AcDbEntity
  8
0
  6
Continuous
 62
     7
100
AcDbLine
 10
-1031.475000373857
 20
-990.4450006121006
 30
0.0
 11
-1038.525000373857
 21
-990.4450006121006
 31
0.0
  0
LINE
  5
18D
330
55
100
AcDbEntity
  8
0
  6
Continuous
 62
     7
100
AcDbLine
 10
-1031.475000373857
 20
-952.5550006121007
 30
0.0
 11
-1038.525000373857
 21
-952.5550006121007
 31
0.0
  0
LINE
  5
18E
330
55
100
AcDbEntity
  8
0
  6
Continuous
 62
     7
100
AcDbLine
 10
-1031.475000373857
 20
-971.0050006121006
 30
0.0
 11
-1038.525000373857
 21
-971.0050006121006
 31
0.0
  0
LINE
  5
18F
330
55
100
AcDbEntity
  8
0
  6
Continuous
 62
     7
100
AcDbLine
 10
-1031.475000373857
 20
-977.1550006121007
 30
0.0
 11
-1038.525000373857
 21
-977.1550006121007
 31
0.0
  0
LINE
  5
190
330
55
100
AcDbEntity
  8
0
  6
Continuous
 62
     7
100
AcDbLine
 10
-1031.475000373857
 20
-983.3050006121007
 30
0.0
 11
-1038.525000373857
 21
-983.3050006121007
 31
0.0
  0
LINE
  5
191
330
55
100
AcDbEntity
  8
0
  6
Continuous
 62
     7
100
AcDbLine
 10
-1031.475000373857
 20
-940.2550006121006
 30
0.0
 11
-1038.525000373857
 21
-940.2550006121006
 31
0.0
  0
LINE
  5
192
330
55
100
AcDbEntity
  8
0
  6
Continuous
 62
     7
100
AcDbLine
 10
-1031.475000373857
 20
-947.3950006121006
 30
0.0
 11
-1038.525000373857
 21
-947.3950006121006
 31
0.0
  0
LINE
  5
193
330
55
100
AcDbEntity
  8
0
  6
Continuous
 62
     7
100
AcDbLine
 10
-1038.525000373857
 20
-946.4050006121006
 30
0.0
 11
-1031.475000373857
 21
-946.4050006121006
 31
0.0
  0
LINE
  5
194
330
55
100
AcDbEntity
  8
0
  6
Continuous
 62
     7
100
AcDbLine
 10
-1039.500000373857
 20
-1006.300000612101
 30
0.0
 11
-1039.500000373857
 21
-1007.100000612101
 31
0.0
  0
LINE
  5
195
330
55
100
AcDbEntity
  8
0
  6
Continuous
 62
     7
100
AcDbLine
 10
-1031.475000373857
 20
-978.1450006121006
 30
0.0
 11
-1038.525000373857
 21
-978.1450006121006
 31
0.0
  0
LINE
  5
196
330
55
100
AcDbEntity
  8
0
  6
Continuous
 62
     7
100
AcDbLine
 10
-1031.475000373857
 20
-953.5450006121007
 30
0.0
 11
-1038.525000373857
 21
-953.5450006121007
 31
0.0
  0
LINE
  5
197
330
55
100
AcDbEntity
  8
0
  6
Continuous
 62
     7
100
AcDbLine
 10
-1031.475000373857
 20
-971.9950006121006
 30
0.0
 11
-1038.525000373857
 21
-971.9950006121006
 31
0.0
  0
LINE
  5
198
330
55
100
AcDbEntity
  8
0
  6
Continuous
 62
     7
100
AcDbLine
 10
-1031.475000373857
 20
-965.8450006121006
 30
0.0
 11
-1038.525000373857
 21
-965.8450006121006
 31
0.0
  0
LINE
  5
199
330
55
100
AcDbEntity
  8
0
  6
Continuous
 62
     7
100
AcDbLine
 10
-1031.475000373857
 20
-959.6950006121007
 30
0.0
 11
-1038.525000373857
 21
-959.6950006121007
 31
0.0
  0
LINE
  5
19A
330
55
100
AcDbEntity
  8
0
  6
Continuous
 62
     7
100
AcDbLine
 10
-1031.475000373857
 20
-941.2450006121006
 30
0.0
 11
-1038.525000373857
 21
-941.2450006121006
 31
0.0
  0
LINE
  5
19B
330
55
100
AcDbEntity
  8
0
  6
Continuous
 62
     7
100
AcDbLine
 10
-1028.500000373857
 20
-935.6750006121007
 30
0.0
 11
-1028.500000373857
 21
-939.6750006121007
 31
0.0
  0
LINE
  5
19C
330
55
100
AcDbEntity
  8
0
  6
Continuous
 62
     7
100
AcDbLine
 10
-1029.150000373857
 20
-935.6750006121007
 30
0.0
 11
-1029.150000373857
 21
-939.6750006121007
 31
0.0
  0
LINE
  5
19D
330
55
100
AcDbEntity
  8
0
  6
Continuous
 62
     7
100
AcDbLine
 10
-1029.450000373857
 20
-939.6750006121007
 30
0.0
 11
-1029.450000373857
 21
-935.6750006121007
 31
0.0
  0
LINE
  5
19E
330
55
100
AcDbEntity
  8
0
  6
Continuous
 62
     7
100
AcDbLine
 10
-1033.000000373857
 20
-934.1000006121006
 30
0.0
 11
-1032.100000373857
 21
-934.1000006121006
 31
0.0
  0
LINE
  5
19F
330
55
100
AcDbEntity
  8
0
  6
Continuous
 62
     7
100
AcDbLine
 10
-1030.500000373857
 20
-1007.100000612101
 30
0.0
 11
-1030.500000373857
 21
-1006.300000612101
 31
0.0
  0
LINE
  5
1A0
330
55
100
AcDbEntity
  8
0
  6
Continuous
 62
     7
100
AcDbLine
 10
-1029.450000373857
 20
-935.6750006121007
 30
0.0
 11
-1030.500000373857
 21
-935.6750006121007
 31
0.0
  0
LINE
  5
1A1
330
55
100
AcDbEntity
  8
0
  6
Continuous
 62
     7
100
AcDbLine
 10
-1030.500000373857
 20
-939.6750006121007
 30
0.0
 11
-1029.450000373857
 21
-939.6750006121007
 31
0.0
  0
LINE
  5
1A2
330
55
100
AcDbEntity
  8
0
  6
Continuous
 62
     7
100
AcDbLine
 10
-1029.150000373857
 20
-939.6750006121007
 30
0.0
 11
-1029.450000373857
 21
-939.6750006121007
 31
0.0
  0
LINE
  5
1A3
330
55
100
AcDbEntity
  8
0
  6
Continuous
 62
     7
100
AcDbLine
 10
-1029.450000373857
 20
-935.6750006121007
 30
0.0
 11
-1029.150000373857
 21
-935.6750006121007
 31
0.0
  0
LINE
  5
1A4
330
55
100
AcDbEntity
  8
0
  6
Continuous
 62
     7
100
AcDbLine
 10
-1028.500000373857
 20
-935.6750006121007
 30
0.0
 11
-1029.150000373857
 21
-935.6750006121007
 31
0.0
  0
LINE
  5
1A5
330
55
100
AcDbEntity
  8
0
  6
Continuous
 62
     7
100
AcDbLine
 10
-1028.500000373857
 20
-939.6750006121007
 30
0.0
 11
-1029.150000373857
 21
-939.6750006121007
 31
0.0
  0
CIRCLE
  5
1A6
330
55
100
AcDbEntity
  8
0
  6
Continuous
 62
     7
100
AcDbCircle
 10
-1035.000000373857
 20
-943.8250006121007
 30
0.0
 40
1.700000000000045
  0
CIRCLE
  5
1A7
330
55
100
AcDbEntity
  8
0
  6
Continuous
 62
     7
100
AcDbCircle
 10
-1035.000000373857
 20
-993.0250006121007
 30
0.0
 40
1.700000000000045
  0
CIRCLE
  5
1A8
330
55
100
AcDbEntity
  8
0
  6
Continuous
 62
     7
100
AcDbCircle
 10
-1035.000000373857
 20
-986.8750006121007
 30
0.0
 40
1.699999999999932
  0
CIRCLE
  5
1A9
330
55
100
AcDbEntity
  8
0
  6
Continuous
 62
     7
100
AcDbCircle
 10
-1035.000000373857
 20
-962.2750006121007
 30
0.0
 40
1.700000000000045
  0
CIRCLE
  5
1AA
330
55
100
AcDbEntity
  8
0
  6
Continuous
 62
     7
100
AcDbCircle
 10
-1035.000000373857
 20
-937.6750006121007
 30
0.0
 40
1.700000000000045
  0
CIRCLE
  5
1AB
330
55
100
AcDbEntity
  8
0
  6
Continuous
 62
     7
100
AcDbCircle
 10
-1035.000000373857
 20
-974.5750006121007
 30
0.0
 40
1.700000000000045
  0
CIRCLE
  5
1AC
330
55
100
AcDbEntity
  8
0
  6
Continuous
 62
     7
100
AcDbCircle
 10
-1035.000000373857
 20
-949.9750006121006
 30
0.0
 40
1.699999999999932
  0
CIRCLE
  5
1AD
330
55
100
AcDbEntity
  8
0
  6
Continuous
 62
     7
100
AcDbCircle
 10
-1035.000000373857
 20
-956.1250006121006
 30
0.0
 40
1.699999999999932
  0
CIRCLE
  5
1AE
330
55
100
AcDbEntity
  8
0
  6
Continuous
 62
     7
100
AcDbCircle
 10
-1035.000000373857
 20
-968.4250006121007
 30
0.0
 40
1.700000000000045
  0
CIRCLE
  5
1AF
330
55
100
AcDbEntity
  8
0
  6
Continuous
 62
     7
100
AcDbCircle
 10
-1035.000000373857
 20
-980.7250006121008
 30
0.0
 40
1.700000000000045
  0
ENDBLK
  5
57
330
55
100
AcDbEntity
  8
0
100
AcDbBlockEnd
  0
BLOCK
  5
5A
330
58
100
AcDbEntity
  8
0
100
AcDbBlockBegin
  2
SA_Links1
 70
     0
 10
-1033.99999999986
 20
-968.99999999993
 30
0.0
  3
SA_Links1
  1

  0
INSERT
  5
59
330
58
100
AcDbEntity
  8
0
100
AcDbBlockReference
  2
BUG_10-select__3
 10
-1039.500000373857
 20
-1007.100000612101
 30
0.0
  0
MTEXT
  5
1B0
330
58
100
AcDbEntity
  8
1
 62
     6
100
AcDbMText
 10
-1033.99999999986
 20
-1012.099999427725
 30
0.0
 40
5.0
 41
0.0
 71
     2
 72
     1
  1
 
  7
CONVERTER_11
 73
     1
 44
1.32052821128451
  0
ENDBLK
  5
5B
330
58
100
AcDbEntity
  8
0
100
AcDbBlockEnd
  0
BLOCK
  5
5D
330
5C
100
AcDbEntity
  8
0
100
AcDbBlockBegin
  2
BUG_10-select__4
 70
     0
 10
-1159.499999626138
 20
-1007.100000612101
 30
0.0
  3
BUG_10-select__4
  1

  0
LINE
  5
1B1
330
5C
100
AcDbEntity
  8
1
  6
DOT_CENTER
 62
     2
100
AcDbLine
 10
-1152.999999626138
 20
-935.8050006121008
 30
0.0
 11
-1152.999999626138
 21
-939.5450006121006
 31
0.0
  0
LINE
  5
1B2
330
5C
100
AcDbEntity
  8
1
  6
DOT_CENTER
 62
     2
100
AcDbLine
 10
-1151.129999626138
 20
-937.6750006121007
 30
0.0
 11
-1154.869999626138
 21
-937.6750006121007
 31
0.0
  0
LINE
  5
1B3
330
5C
100
AcDbEntity
  8
1
  6
DOT_CENTER
 62
     2
100
AcDbLine
 10
-1152.999999626138
 20
-990.2750006121007
 30
0.0
 11
-1152.999999626138
 21
-995.7750006121007
 31
0.0
  0
LINE
  5
1B4
330
5C
100
AcDbEntity
  8
1
  6
DOT_CENTER
 62
     2
100
AcDbLine
 10
-1150.249999626138
 20
-993.0250006121007
 30
0.0
 11
-1155.749999626138
 21
-993.0250006121007
 31
0.0
  0
LINE
  5
1B5
330
5C
100
AcDbEntity
  8
1
  6
DOT_CENTER
 62
     2
100
AcDbLine
 10
-1152.999999626138
 20
-941.0750006121007
 30
0.0
 11
-1152.999999626138
 21
-946.5750006121007
 31
0.0
  0
LINE
  5
1B6
330
5C
100
AcDbEntity
  8
1
  6
DOT_CENTER
 62
     2
100
AcDbLine
 10
-1150.249999626138
 20
-943.8250006121007
 30
0.0
 11
-1155.749999626138
 21
-943.8250006121007
 31
0.0
  0
LINE
  5
1B7
330
5C
100
AcDbEntity
  8
1
  6
DOT_CENTER
 62
     2
100
AcDbLine
 10
-1152.999999626138
 20
-947.2250006121006
 30
0.0
 11
-1152.999999626138
 21
-952.7250006121006
 31
0.0
  0
LINE
  5
1B8
330
5C
100
AcDbEntity
  8
1
  6
DOT_CENTER
 62
     2
100
AcDbLine
 10
-1150.249999626138
 20
-949.9750006121006
 30
0.0
 11
-1155.749999626138
 21
-949.9750006121006
 31
0.0
  0
LINE
  5
1B9
330
5C
100
AcDbEntity
  8
1
  6
DOT_CENTER
 62
     2
100
AcDbLine
 10
-1152.999999626138
 20
-953.3750006121006
 30
0.0
 11
-1152.999999626138
 21
-958.8750006121006
 31
0.0
  0
LINE
  5
1BA
330
5C
100
AcDbEntity
  8
1
  6
DOT_CENTER
 62
     2
100
AcDbLine
 10
-1150.249999626138
 20
-956.1250006121006
 30
0.0
 11
-1155.749999626138
 21
-956.1250006121006
 31
0.0
  0
LINE
  5
1BB
330
5C
100
AcDbEntity
  8
1
  6
DOT_CENTER
 62
     2
100
AcDbLine
 10
-1152.999999626138
 20
-959.5250006121007
 30
0.0
 11
-1152.999999626138
 21
-965.0250006121007
 31
0.0
  0
LINE
  5
1BC
330
5C
100
AcDbEntity
  8
1
  6
DOT_CENTER
 62
     2
100
AcDbLine
 10
-1150.249999626138
 20
-962.2750006121007
 30
0.0
 11
-1155.749999626138
 21
-962.2750006121007
 31
0.0
  0
LINE
  5
1BD
330
5C
100
AcDbEntity
  8
1
  6
DOT_CENTER
 62
     2
100
AcDbLine
 10
-1152.999999626138
 20
-965.6750006121007
 30
0.0
 11
-1152.999999626138
 21
-971.1750006121007
 31
0.0
  0
LINE
  5
1BE
330
5C
100
AcDbEntity
  8
1
  6
DOT_CENTER
 62
     2
100
AcDbLine
 10
-1150.249999626138
 20
-968.4250006121007
 30
0.0
 11
-1155.749999626138
 21
-968.4250006121007
 31
0.0
  0
LINE
  5
1BF
330
5C
100
AcDbEntity
  8
1
  6
DOT_CENTER
 62
     2
100
AcDbLine
 10
-1152.999999626138
 20
-971.8250006121007
 30
0.0
 11
-1152.999999626138
 21
-977.3250006121007
 31
0.0
  0
LINE
  5
1C0
330
5C
100
AcDbEntity
  8
1
  6
DOT_CENTER
 62
     2
100
AcDbLine
 10
-1150.249999626138
 20
-974.5750006121007
 30
0.0
 11
-1155.749999626138
 21
-974.5750006121007
 31
0.0
  0
LINE
  5
1C1
330
5C
100
AcDbEntity
  8
1
  6
DOT_CENTER
 62
     2
100
AcDbLine
 10
-1152.999999626138
 20
-977.9750006121006
 30
0.0
 11
-1152.999999626138
 21
-983.4750006121006
 31
0.0
  0
LINE
  5
1C2
330
5C
100
AcDbEntity
  8
1
  6
DOT_CENTER
 62
     2
100
AcDbLine
 10
-1150.249999626138
 20
-980.7250006121006
 30
0.0
 11
-1155.749999626138
 21
-980.7250006121006
 31
0.0
  0
LINE
  5
1C3
330
5C
100
AcDbEntity
  8
1
  6
DOT_CENTER
 62
     2
100
AcDbLine
 10
-1152.999999626138
 20
-984.1250006121006
 30
0.0
 11
-1152.999999626138
 21
-989.6250006121006
 31
0.0
  0
LINE
  5
1C4
330
5C
100
AcDbEntity
  8
1
  6
DOT_CENTER
 62
     2
100
AcDbLine
 10
-1150.249999626138
 20
-986.8750006121006
 30
0.0
 11
-1155.749999626138
 21
-986.8750006121006
 31
0.0
  0
LINE
  5
1C5
330
5C
100
AcDbEntity
  8
0
  6
Continuous
 62
     7
100
AcDbLine
 10
-1148.499999626138
 20
-1007.100000612101
 30
0.0
 11
-1157.499999626138
 21
-1007.100000612101
 31
0.0
  0
LINE
  5
1C6
330
5C
100
AcDbEntity
  8
0
  6
Continuous
 62
     7
100
AcDbLine
 10
-1157.499999626138
 20
-934.1000006121006
 30
0.0
 11
-1157.499999626138
 21
-930.9000006121006
 31
0.0
  0
LINE
  5
1C7
330
5C
100
AcDbEntity
  8
0
  6
Continuous
 62
     7
100
AcDbLine
 10
-1154.999999626138
 20
-930.9000006121006
 30
0.0
 11
-1154.999999626138
 21
-934.1000006121006
 31
0.0
  0
LINE
  5
1C8
330
5C
100
AcDbEntity
  8
0
  6
Continuous
 62
     7
100
AcDbLine
 10
-1150.999999626138
 20
-934.1000006121006
 30
0.0
 11
-1150.999999626138
 21
-930.9000006121006
 31
0.0
  0
LINE
  5
1C9
330
5C
100
AcDbEntity
  8
0
  6
Continuous
 62
     7
100
AcDbLine
 10
-1151.999999626138
 20
-930.9000006121006
 30
0.0
 11
-1151.999999626138
 21
-933.0300006121006
 31
0.0
  0
LINE
  5
1CA
330
5C
100
AcDbEntity
  8
0
  6
Continuous
 62
     7
100
AcDbLine
 10
-1151.999999626138
 20
-933.0300006121006
 30
0.0
 11
-1151.999999626138
 21
-934.1000006121006
 31
0.0
  0
LINE
  5
1CB
330
5C
100
AcDbEntity
  8
0
  6
Continuous
 62
     7
100
AcDbLine
 10
-1150.999999626138
 20
-934.1000006121006
 30
0.0
 11
-1151.999999626138
 21
-934.1000006121006
 31
0.0
  0
LINE
  5
1CC
330
5C
100
AcDbEntity
  8
0
  6
Continuous
 62
     7
100
AcDbLine
 10
-1153.999999626138
 20
-933.0300006121006
 30
0.0
 11
-1153.999999626138
 21
-934.1000006121006
 31
0.0
  0
LINE
  5
1CD
330
5C
100
AcDbEntity
  8
0
  6
Continuous
 62
     7
100
AcDbLine
 10
-1157.499999626138
 20
-935.6750006121007
 30
0.0
 11
-1157.499999626138
 21
-934.1000006121006
 31
0.0
  0
LINE
  5
1CE
330
5C
100
AcDbEntity
  8
0
  6
Continuous
 62
     7
100
AcDbLine
 10
-1151.999999626138
 20
-934.1000006121006
 30
0.0
 11
-1153.999999626138
 21
-934.1000006121006
 31
0.0
  0
LINE
  5
1CF
330
5C
100
AcDbEntity
  8
0
  6
Continuous
 62
     7
100
AcDbLine
 10
-1151.999999626138
 20
-930.9000006121006
 30
0.0
 11
-1153.999999626138
 21
-930.9000006121006
 31
0.0
  0
LINE
  5
1D0
330
5C
100
AcDbEntity
  8
0
  6
Continuous
 62
     7
100
AcDbLine
 10
-1151.999999626138
 20
-933.0300006121006
 30
0.0
 11
-1153.999999626138
 21
-933.0300006121006
 31
0.0
  0
LINE
  5
1D1
330
5C
100
AcDbEntity
  8
0
  6
Continuous
 62
     7
100
AcDbLine
 10
-1153.999999626138
 20
-930.9000006121006
 30
0.0
 11
-1153.999999626138
 21
-933.0300006121006
 31
0.0
  0
LINE
  5
1D2
330
5C
100
AcDbEntity
  8
0
  6
Continuous
 62
     7
100
AcDbLine
 10
-1154.999999626138
 20
-934.1000006121006
 30
0.0
 11
-1157.499999626138
 21
-934.1000006121006
 31
0.0
  0
LINE
  5
1D3
330
5C
100
AcDbEntity
  8
0
  6
Continuous
 62
     7
100
AcDbLine
 10
-1153.999999626138
 20
-934.1000006121006
 30
0.0
 11
-1154.999999626138
 21
-934.1000006121006
 31
0.0
  0
LINE
  5
1D4
330
5C
100
AcDbEntity
  8
0
  6
Continuous
 62
     7
100
AcDbLine
 10
-1159.499999626138
 20
-935.6750006121007
 30
0.0
 11
-1157.499999626138
 21
-935.6750006121007
 31
0.0
  0
LINE
  5
1D5
330
5C
100
AcDbEntity
  8
0
  6
Continuous
 62
     7
100
AcDbLine
 10
-1154.999999626138
 20
-930.9000006121006
 30
0.0
 11
-1157.499999626138
 21
-930.9000006121006
 31
0.0
  0
LINE
  5
1D6
330
5C
100
AcDbEntity
  8
0
  6
Continuous
 62
     7
100
AcDbLine
 10
-1157.499999626138
 20
-939.6750006121007
 30
0.0
 11
-1159.499999626138
 21
-939.6750006121007
 31
0.0
  0
LINE
  5
1D7
330
5C
100
AcDbEntity
  8
0
  6
Continuous
 62
     7
100
AcDbLine
 10
-1159.499999626138
 20
-939.6750006121007
 30
0.0
 11
-1159.499999626138
 21
-935.6750006121007
 31
0.0
  0
LINE
  5
1D8
330
5C
100
AcDbEntity
  8
0
  6
Continuous
 62
     7
100
AcDbLine
 10
-1148.499999626138
 20
-1007.100000612101
 30
0.0
 11
-1148.499999626138
 21
-940.1750006121007
 31
0.0
  0
LINE
  5
1D9
330
5C
100
AcDbEntity
  8
0
  6
Continuous
 62
     7
100
AcDbLine
 10
-1157.499999626138
 20
-1007.100000612101
 30
0.0
 11
-1157.499999626138
 21
-939.6750006121007
 31
0.0
  0
LINE
  5
1DA
330
5C
100
AcDbEntity
  8
0
  6
Continuous
 62
     7
100
AcDbLine
 10
-1156.549999626138
 20
-940.1750006121007
 30
0.0
 11
-1149.449999626138
 21
-940.1750006121007
 31
0.0
  0
LINE
  5
1DB
330
5C
100
AcDbEntity
  8
0
  6
Continuous
 62
     7
100
AcDbLine
 10
-1148.499999626138
 20
-930.9000006121006
 30
0.0
 11
-1148.499999626138
 21
-934.1000006121006
 31
0.0
  0
LINE
  5
1DC
330
5C
100
AcDbEntity
  8
0
  6
Continuous
 62
     7
100
AcDbLine
 10
-1148.499999626138
 20
-930.9000006121006
 30
0.0
 11
-1150.999999626138
 21
-930.9000006121006
 31
0.0
  0
LINE
  5
1DD
330
5C
100
AcDbEntity
  8
0
  6
Continuous
 62
     7
100
AcDbLine
 10
-1156.549999626138
 20
-940.1750006121007
 30
0.0
 11
-1156.549999626138
 21
-935.1750006121007
 31
0.0
  0
LINE
  5
1DE
330
5C
100
AcDbEntity
  8
0
  6
Continuous
 62
     7
100
AcDbLine
 10
-1149.449999626138
 20
-935.1750006121007
 30
0.0
 11
-1156.549999626138
 21
-935.1750006121007
 31
0.0
  0
LINE
  5
1DF
330
5C
100
AcDbEntity
  8
0
  6
Continuous
 62
     7
100
AcDbLine
 10
-1148.499999626138
 20
-935.1750006121007
 30
0.0
 11
-1149.449999626138
 21
-935.1750006121007
 31
0.0
  0
LINE
  5
1E0
330
5C
100
AcDbEntity
  8
0
  6
Continuous
 62
     7
100
AcDbLine
 10
-1148.499999626138
 20
-934.1000006121006
 30
0.0
 11
-1150.999999626138
 21
-934.1000006121006
 31
0.0
  0
LINE
  5
1E1
330
5C
100
AcDbEntity
  8
0
  6
Continuous
 62
     7
100
AcDbLine
 10
-1148.499999626138
 20
-935.1750006121007
 30
0.0
 11
-1148.499999626138
 21
-940.1750006121007
 31
0.0
  0
LINE
  5
1E2
330
5C
100
AcDbEntity
  8
0
  6
Continuous
 62
     7
100
AcDbLine
 10
-1148.499999626138
 20
-934.1000006121006
 30
0.0
 11
-1148.499999626138
 21
-935.1750006121007
 31
0.0
  0
LINE
  5
1E3
330
5C
100
AcDbEntity
  8
0
  6
Continuous
 62
     7
100
AcDbLine
 10
-1149.449999626138
 20
-940.1750006121007
 30
0.0
 11
-1148.499999626138
 21
-940.1750006121007
 31
0.0
  0
LINE
  5
1E4
330
5C
100
AcDbEntity
  8
0
  6
Continuous
 62
     7
100
AcDbLine
 10
-1149.449999626138
 20
-935.1750006121007
 30
0.0
 11
-1149.449999626138
 21
-940.1750006121007
 31
0.0
  0
CIRCLE
  5
1E5
330
5C
100
AcDbEntity
  8
0
  6
Continuous
 62
     7
100
AcDbCircle
 10
-1152.999999626138
 20
-949.9750006121006
 30
0.0
 40
2.5
  0
CIRCLE
  5
1E6
330
5C
100
AcDbEntity
  8
0
  6
Continuous
 62
     7
100
AcDbCircle
 10
-1152.999999626138
 20
-937.6750006121007
 30
0.0
 40
1.699999999999932
  0
CIRCLE
  5
1E7
330
5C
100
AcDbEntity
  8
0
  6
Continuous
 62
     7
100
AcDbCircle
 10
-1152.999999626138
 20
-986.8750006121006
 30
0.0
 40
2.5
  0
CIRCLE
  5
1E8
330
5C
100
AcDbEntity
  8
0
  6
Continuous
 62
     7
100
AcDbCircle
 10
-1152.999999626138
 20
-993.0250006121007
 30
0.0
 40
2.5
  0
CIRCLE
  5
1E9
330
5C
100
AcDbEntity
  8
0
  6
Continuous
 62
     7
100
AcDbCircle
 10
-1152.999999626138
 20
-993.0250006121007
 30
0.0
 40
1.699999999999932
  0
CIRCLE
  5
1EA
330
5C
100
AcDbEntity
  8
0
  6
Continuous
 62
     7
100
AcDbCircle
 10
-1152.999999626138
 20
-986.8750006121006
 30
0.0
 40
1.700000000000045
  0
CIRCLE
  5
1EB
330
5C
100
AcDbEntity
  8
0
  6
Continuous
 62
     7
100
AcDbCircle
 10
-1152.999999626138
 20
-949.9750006121006
 30
0.0
 40
1.700000000000045
  0
CIRCLE
  5
1EC
330
5C
100
AcDbEntity
  8
0
  6
Continuous
 62
     7
100
AcDbCircle
 10
-1152.999999626138
 20
-943.8250006121007
 30
0.0
 40
2.5
  0
CIRCLE
  5
1ED
330
5C
100
AcDbEntity
  8
0
  6
Continuous
 62
     7
100
AcDbCircle
 10
-1152.999999626138
 20
-943.8250006121007
 30
0.0
 40
1.699999999999932
  0
CIRCLE
  5
1EE
330
5C
100
AcDbEntity
  8
0
  6
Continuous
 62
     7
100
AcDbCircle
 10
-1152.999999626138
 20
-968.4250006121007
 30
0.0
 40
2.5
  0
CIRCLE
  5
1EF
330
5C
100
AcDbEntity
  8
0
  6
Continuous
 62
     7
100
AcDbCircle
 10
-1152.999999626138
 20
-974.5750006121007
 30
0.0
 40
2.5
  0
CIRCLE
  5
1F0
330
5C
100
AcDbEntity
  8
0
  6
Continuous
 62
     7
100
AcDbCircle
 10
-1152.999999626138
 20
-956.1250006121006
 30
0.0
 40
2.5
  0
CIRCLE
  5
1F1
330
5C
100
AcDbEntity
  8
0
  6
Continuous
 62
     7
100
AcDbCircle
 10
-1152.999999626138
 20
-962.2750006121007
 30
0.0
 40
2.5
  0
CIRCLE
  5
1F2
330
5C
100
AcDbEntity
  8
0
  6
Continuous
 62
     7
100
AcDbCircle
 10
-1152.999999626138
 20
-962.2750006121007
 30
0.0
 40
1.699999999999932
  0
CIRCLE
  5
1F3
330
5C
100
AcDbEntity
  8
0
  6
Continuous
 62
     7
100
AcDbCircle
 10
-1152.999999626138
 20
-956.1250006121006
 30
0.0
 40
1.700000000000045
  0
CIRCLE
  5
1F4
330
5C
100
AcDbEntity
  8
0
  6
Continuous
 62
     7
100
AcDbCircle
 10
-1152.999999626138
 20
-974.5750006121007
 30
0.0
 40
1.699999999999932
  0
CIRCLE
  5
1F5
330
5C
100
AcDbEntity
  8
0
  6
Continuous
 62
     7
100
AcDbCircle
 10
-1152.999999626138
 20
-968.4250006121007
 30
0.0
 40
1.699999999999932
  0
CIRCLE
  5
1F6
330
5C
100
AcDbEntity
  8
0
  6
Continuous
 62
     7
100
AcDbCircle
 10
-1152.999999626138
 20
-980.7250006121006
 30
0.0
 40
2.5
  0
CIRCLE
  5
1F7
330
5C
100
AcDbEntity
  8
0
  6
Continuous
 62
     7
100
AcDbCircle
 10
-1152.999999626138
 20
-980.7250006121006
 30
0.0
 40
1.700000000000045
  0
ENDBLK
  5
5E
330
5C
100
AcDbEntity
  8
0
100
AcDbBlockEnd
  0
BLOCK
  5
61
330
5F
100
AcDbEntity
  8
0
100
AcDbBlockBegin
  2
SA_Rechts1
 70
     0
 10
-1154.000000000135
 20
-968.99999999993
 30
0.0
  3
SA_Rechts1
  1

  0
INSERT
  5
60
330
5F
100
AcDbEntity
  8
0
100
AcDbBlockReference
  2
BUG_10-select__4
 10
-1159.499999626138
 20
-1007.100000612101
 30
0.0
  0
MTEXT
  5
1F8
330
5F
100
AcDbEntity
  8
1
 62
     6
100
AcDbMText
 10
-1154.000000000135
 20
-1012.099999427725
 30
0.0
 40
5.0
 41
0.0
 71
     2
 72
     1
  1
 
  7
CONVERTER_11
 73
     1
 44
1.32052821128451
  0
ENDBLK
  5
62
330
5F
100
AcDbEntity
  8
0
100
AcDbBlockEnd
  0
BLOCK
  5
64
330
63
100
AcDbEntity
  8
0
100
AcDbBlockBegin
  2
BUG_10-select__5
 70
     0
 10
-1108.499999999725
 20
-1007.100000612101
 30
0.0
  3
BUG_10-select__5
  1

  0
LINE
  5
1F9
330
63
100
AcDbEntity
  8
0
  6
Continuous
 62
     7
100
AcDbLine
 10
-1105.11435935367
 20
-996.6000006121008
 30
0.0
 11
-1108.499999999725
 21
-1002.464102227238
 31
0.0
  0
LINE
  5
1FA
330
63
100
AcDbEntity
  8
0
  6
Continuous
 62
     7
100
AcDbLine
 10
-1071.049273615991
 20
-1007.100000612101
 30
0.0
 11
-1069.499999999725
 21
-1007.100000612101
 31
0.0
  0
LINE
  5
1FB
330
63
100
AcDbEntity
  8
0
  6
Continuous
 62
     7
100
AcDbLine
 10
-1071.049273615991
 20
-1007.100000612101
 30
0.0
 11
-1073.499999999725
 21
-1003.600000612101
 31
0.0
  0
LINE
  5
1FC
330
63
100
AcDbEntity
  8
0
  6
Continuous
 62
     7
100
AcDbLine
 10
-1073.499999999725
 20
-1003.600000612101
 30
0.0
 11
-1073.499999999725
 21
-1003.020898996963
 31
0.0
  0
LINE
  5
1FD
330
63
100
AcDbEntity
  8
0
  6
Continuous
 62
     7
100
AcDbLine
 10
-1073.499999999725
 20
-1003.020898996963
 30
0.0
 11
-1071.499999999725
 21
-1002.485000612101
 31
0.0
  0
LINE
  5
1FE
330
63
100
AcDbEntity
  8
0
  6
Continuous
 62
     7
100
AcDbLine
 10
-1071.499999999725
 20
-1002.485000612101
 30
0.0
 11
-1071.499999999725
 21
-1001.400000612101
 31
0.0
  0
LINE
  5
1FF
330
63
100
AcDbEntity
  8
0
  6
Continuous
 62
     7
100
AcDbLine
 10
-1071.499999999725
 20
-1001.400000612101
 30
0.0
 11
-1084.528718707615
 21
-1001.400000612101
 31
0.0
  0
LINE
  5
200
330
63
100
AcDbEntity
  8
0
  6
Continuous
 62
     7
100
AcDbLine
 10
-1084.528718707615
 20
-1001.400000612101
 30
0.0
 11
-1087.299999999725
 21
-996.6000006121008
 31
0.0
  0
LINE
  5
201
330
63
100
AcDbEntity
  8
0
  6
Continuous
 62
     7
100
AcDbLine
 10
-1087.299999999725
 20
-996.6000006121008
 30
0.0
 11
-1095.599999999725
 21
-996.6000006121008
 31
0.0
  0
LINE
  5
202
330
63
100
AcDbEntity
  8
0
  6
Continuous
 62
     7
100
AcDbLine
 10
-1095.599999999725
 20
-996.6000006121008
 30
0.0
 11
-1098.371281291835
 21
-1001.400000612101
 31
0.0
  0
LINE
  5
203
330
63
100
AcDbEntity
  8
0
  6
Continuous
 62
     7
100
AcDbLine
 10
-1098.371281291835
 20
-1001.400000612101
 30
0.0
 11
-1103.967433714542
 21
-1001.400000612101
 31
0.0
  0
LINE
  5
204
330
63
100
AcDbEntity
  8
0
  6
Continuous
 62
     7
100
AcDbLine
 10
-1106.499999999725
 20
-1001.400000612101
 30
0.0
 11
-1103.728718707615
 21
-996.6000006121006
 31
0.0
  0
LINE
  5
205
330
63
100
AcDbEntity
  8
0
  6
Continuous
 62
     7
100
AcDbLine
 10
-1105.11435935367
 20
-996.6000006121008
 30
0.0
 11
-1108.499999999725
 21
-996.6000006121006
 31
0.0
  0
LINE
  5
206
330
63
100
AcDbEntity
  8
0
  6
Continuous
 62
     7
100
AcDbLine
 10
-1101.196152422431
 20
-996.6000006121008
 30
0.0
 11
-1103.728718707615
 21
-996.6000006121006
 31
0.0
  0
LINE
  5
207
330
63
100
AcDbEntity
  8
0
  6
Continuous
 62
     7
100
AcDbLine
 10
-1103.967433714542
 20
-1001.400000612101
 30
0.0
 11
-1101.196152422431
 21
-996.6000006121008
 31
0.0
  0
LINE
  5
208
330
63
100
AcDbEntity
  8
0
  6
Continuous
 62
     7
100
AcDbLine
 10
-1099.499999999725
 20
-934.1000006121006
 30
0.0
 11
-1099.499999999725
 21
-930.9000006121006
 31
0.0
  0
LINE
  5
209
330
63
100
AcDbEntity
  8
0
  6
Continuous
 62
     7
100
AcDbLine
 10
-1099.499999999725
 20
-930.9000006121006
 30
0.0
 11
-1108.499999999725
 21
-930.9000006121006
 31
0.0
  0
LINE
  5
20A
330
63
100
AcDbEntity
  8
0
  6
Continuous
 62
     7
100
AcDbLine
 10
-1069.499999999725
 20
-939.6750006121007
 30
0.0
 11
-1069.499999999725
 21
-935.6750006121007
 31
0.0
  0
LINE
  5
20B
330
63
100
AcDbEntity
  8
0
  6
Continuous
 62
     7
100
AcDbLine
 10
-1069.499999999725
 20
-935.6750006121007
 30
0.0
 11
-1072.499999999725
 21
-935.6750006121007
 31
0.0
  0
LINE
  5
20C
330
63
100
AcDbEntity
  8
0
  6
Continuous
 62
     7
100
AcDbLine
 10
-1072.499999999725
 20
-935.6750006121007
 30
0.0
 11
-1072.499999999725
 21
-939.6750006121007
 31
0.0
  0
LINE
  5
20D
330
63
100
AcDbEntity
  8
0
  6
Continuous
 62
     7
100
AcDbLine
 10
-1069.499999999725
 20
-939.6750006121007
 30
0.0
 11
-1072.499999999725
 21
-939.6750006121007
 31
0.0
  0
LINE
  5
20E
330
63
100
AcDbEntity
  8
0
  6
Continuous
 62
     7
100
AcDbLine
 10
-1069.499999999725
 20
-1007.100000612101
 30
0.0
 11
-1069.499999999725
 21
-939.6750006121007
 31
0.0
  0
LINE
  5
20F
330
63
100
AcDbEntity
  8
0
  6
Continuous
 62
     7
100
AcDbLine
 10
-1105.499999999725
 20
-1003.600000612101
 30
0.0
 11
-1106.916686782284
 21
-1006.638095221493
 31
0.0
  0
LINE
  5
210
330
63
100
AcDbEntity
  8
0
  6
Continuous
 62
     7
100
AcDbLine
 10
-1108.499999999725
 20
-1002.464102227238
 30
0.0
 11
-1108.499999999725
 21
-1006.300000612101
 31
0.0
  0
LINE
  5
211
330
63
100
AcDbEntity
  8
0
  6
Continuous
 62
     7
100
AcDbLine
 10
-1107.699999999725
 20
-1007.100000612101
 30
0.0
 11
-1107.641733011913
 21
-1007.100000612101
 31
0.0
  0
LINE
  5
212
330
63
100
AcDbEntity
  8
0
  6
Continuous
 62
     7
100
AcDbLine
 10
-1105.499999999725
 20
-1002.752949804532
 30
0.0
 11
-1105.499999999725
 21
-1003.600000612101
 31
0.0
  0
LINE
  5
213
330
63
100
AcDbEntity
  8
0
  6
Continuous
 62
     7
100
AcDbLine
 10
-1106.499999999725
 20
-1002.485000612101
 30
0.0
 11
-1105.499999999725
 21
-1002.752949804532
 31
0.0
  0
LINE
  5
214
330
63
100
AcDbEntity
  8
0
  6
Continuous
 62
     7
100
AcDbLine
 10
-1106.499999999725
 20
-1001.400000612101
 30
0.0
 11
-1106.499999999725
 21
-1002.485000612101
 31
0.0
  0
LINE
  5
215
330
63
100
AcDbEntity
  8
0
  6
Continuous
 62
     7
100
AcDbLine
 10
-1108.499999999725
 20
-930.9000006121006
 30
0.0
 11
-1108.499999999725
 21
-996.6000006121006
 31
0.0
  0
LINE
  5
216
330
63
100
AcDbEntity
  8
0
  6
Continuous
 62
     7
100
AcDbLine
 10
-1069.499999999725
 20
-935.6750006121007
 30
0.0
 11
-1069.499999999725
 21
-934.1000006121006
 31
0.0
  0
LINE
  5
217
330
63
100
AcDbEntity
  8
0
  6
Continuous
 62
     7
100
AcDbLine
 10
-1099.499999999725
 20
-934.1000006121006
 30
0.0
 11
-1069.499999999725
 21
-934.1000006121006
 31
0.0
  0
ARC
  5
218
330
63
100
AcDbEntity
  8
0
  6
Continuous
 62
     7
100
AcDbCircle
 10
-1107.641733011913
 20
-1006.300000612101
 30
0.0
 40
0.7999999999999545
100
AcDbArc
 50
270.0
 51
335.0000000000279
  0
ARC
  5
219
330
63
100
AcDbEntity
  8
0
  6
Continuous
 62
     7
100
AcDbCircle
 10
-1107.699999999725
 20
-1006.300000612101
 30
0.0
 40
0.8000000000001819
100
AcDbArc
 50
180.0
 51
270.0
  0
ENDBLK
  5
65
330
63
100
AcDbEntity
  8
0
100
AcDbBlockEnd
  0
BLOCK
  5
68
330
66
100
AcDbEntity
  8
0
100
AcDbBlockBegin
  2
Vordans1
 70
     0
 10
-1088.99999999986
 20
-968.99999999993
 30
0.0
  3
Vordans1
  1

  0
INSERT
  5
67
330
66
100
AcDbEntity
  8
0
100
AcDbBlockReference
  2
BUG_10-select__5
 10
-1108.499999999725
 20
-1007.100000612101
 30
0.0
  0
LINE
  5
21A
330
66
100
AcDbEntity
  8
1
  6
DOT_CENTER
 62
     2
100
AcDbLine
 10
-1088.999999999725
 20
-995.098140270588
 30
0.0
 11
-1088.999999999725
 21
-998.098140270588
 31
0.0
  0
MTEXT
  5
21B
330
66
100
AcDbEntity
  8
1
 62
     6
100
AcDbMText
 10
-1088.99999999986
 20
-1012.099999427725
 30
0.0
 40
5.0
 41
0.0
 71
     2
 72
     1
  1
 
  7
CONVERTER_11
 73
     1
 44
1.32052821128451
  0
DIMENSION
  5
226
330
66
100
AcDbEntity
  8
1
100
AcDbDimension
  2
*D18
 10
-1108.499999999725
 20
-1032.45911182187
 30
0.0
 11
-1088.99999999986
 21
-1029.20911182187
 31
0.0
 70
    32
  1
<>
 71
     5
 42
-1.0
 53
0.00013888888889
  3
ME10_DIM_11
100
AcDbAlignedDimension
 13
-1069.499999999725
 23
-1007.100000612101
 33
0.0
 14
-1108.499999999725
 24
-1006.300000612101
 34
0.0
100
AcDbRotatedDimension
  0
DIMENSION
  5
231
330
66
100
AcDbEntity
  8
1
100
AcDbDimension
  2
*D19
 10
-1088.999999999725
 20
-1016.45911182187
 30
0.0
 11
-1080.23063436809
 21
-1013.03411182187
 31
0.0
 70
    32
  1
<>
 71
     5
 42
-1.0
 53
0.00013888888889
  3
ME10_DIM_12
100
AcDbAlignedDimension
 13
-1071.499999999725
 23
-1002.485000612101
 33
0.0
 14
-1088.999999999725
 24
-998.098140270588
 34
0.0
100
AcDbRotatedDimension
  0
DIMENSION
  5
23C
330
66
100
AcDbEntity
  8
1
100
AcDbDimension
  2
*D20
 10
-1088.999999999725
 20
-1024.45911182187
 30
0.0
 11
-1079.49105935516
 21
-1021.03411182187
 31
0.0
 70
    32
  1
<>
 71
     5
 42
-1.0
 53
0.00013888888889
  3
ME10_DIM_13
100
AcDbAlignedDimension
 13
-1069.499999999725
 23
-1007.100000612101
 33
0.0
 14
-1088.999999999725
 24
-998.098140270588
 34
0.0
100
AcDbRotatedDimension
  0
DIMENSION
  5
247
330
66
100
AcDbEntity
  8
1
100
AcDbDimension
  2
*D21
 10
-1118.499999999725
 20
-1001.400000612101
 30
0.0
 11
-1121.924999999725
 21
-964.543643884285
 31
0.0
 70
    32
  1
<>
 71
     5
 42
-1.0
 53
90.0
  3
ME10_DIM_14
100
AcDbAlignedDimension
 13
-1099.499999999725
 23
-930.9000006121006
 33
0.0
 14
-1084.528718707615
 24
-1001.400000612101
 34
0.0
 50
90.0
100
AcDbRotatedDimension
  0
INSERT
  5
251
330
66
100
AcDbEntity
  8
1
100
AcDbBlockReference
  2
*D22
 10
0.0
 20
0.0
 30
0.0
  0
ENDBLK
  5
69
330
66
100
AcDbEntity
  8
0
100
AcDbBlockEnd
  0
BLOCK
  5
6B
330
6A
100
AcDbEntity
  8
0
100
AcDbBlockBegin
  2
BUG_10-select__6
 70
     0
 10
-949.637495186631
 20
-1072.386112709082
 30
0.0
  3
BUG_10-select__6
  1

  0
LINE
  5
252
330
6A
100
AcDbEntity
  8
0
  6
Continuous
 62
     7
100
AcDbLine
 10
-941.843266552571
 20
-1001.666258232818
 30
0.0
 11
-915.8625044390378
 21
-1009.166258232818
 31
0.0
  0
LINE
  5
253
330
6A
100
AcDbEntity
  8
0
  6
Continuous
 62
     7
100
AcDbLine
 10
-931.2777566264008
 20
-1058.842845969345
 30
0.0
 11
-938.4657674778117
 21
-1056.767845969345
 31
0.0
  0
LINE
  5
254
330
6A
100
AcDbEntity
  8
0
  6
Continuous
 62
     7
100
AcDbLine
 10
-938.4657674778117
 20
-1056.767845969345
 30
0.0
 11
-940.8657674778117
 21
-1060.231947584483
 31
0.0
  0
LINE
  5
255
330
6A
100
AcDbEntity
  8
0
  6
Continuous
 62
     7
100
AcDbLine
 10
-943.3121776393255
 20
-1055.368807863668
 30
0.0
 11
-945.505444379062
 21
-1054.735666292372
 31
0.0
  0
LINE
  5
256
330
6A
100
AcDbEntity
  8
0
  6
Continuous
 62
     7
100
AcDbLine
 10
-937.2657674778117
 20
-1057.114256130859
 30
0.0
 11
-940.8657674778117
 21
-1060.231947584483
 31
0.0
  0
LINE
  5
257
330
6A
100
AcDbEntity
  8
0
  6
Continuous
 62
     7
100
AcDbLine
 10
-940.8657674778117
 20
-1060.231947584483
 30
0.0
 11
-945.7121776393254
 21
-1058.832909478806
 31
0.0
  0
LINE
  5
258
330
6A
100
AcDbEntity
  8
0
  6
Continuous
 62
     7
100
AcDbLine
 10
-941.843266552571
 20
-998.8949769407072
 30
0.0
 11
-949.6374951866309
 21
-996.6449769407072
 31
0.0
  0
LINE
  5
259
330
6A
100
AcDbEntity
  8
0
  6
Continuous
 62
     7
100
AcDbLine
 10
-945.1374951866309
 20
-992.7478626236773
 30
0.0
 11
-937.343266552571
 21
-994.9978626236773
 31
0.0
  0
LINE
  5
25A
330
6A
100
AcDbEntity
  8
0
  6
Continuous
 62
     7
100
AcDbLine
 10
-941.8895016233279
 20
-997.9578695947301
 30
0.0
 11
-948.8374951866309
 21
-995.9521566176797
 31
0.0
  0
LINE
  5
25B
330
6A
100
AcDbEntity
  8
0
  6
Continuous
 62
     7
100
AcDbLine
 10
-945.3477358118334
 20
-996.3822131057133
 30
0.0
 11
-939.7515755301326
 21
-997.9976854282475
 31
0.0
  0
LINE
  5
25C
330
6A
100
AcDbEntity
  8
0
  6
Continuous
 62
     7
100
AcDbLine
 10
-941.843266552571
 20
-1001.666258232818
 30
0.0
 11
-940.593266552571
 21
-1000.583726478087
 31
0.0
  0
LINE
  5
25D
330
6A
100
AcDbEntity
  8
0
  6
Continuous
 62
     7
100
AcDbLine
 10
-939.4395016233278
 20
-995.8361073554582
 30
0.0
 11
-940.2035740893311
 21
-997.4601727435554
 31
0.0
  0
LINE
  5
25E
330
6A
100
AcDbEntity
  8
0
  6
Continuous
 62
     7
100
AcDbLine
 10
-938.593266552571
 20
-998.851675670518
 30
0.0
 11
-938.593266552571
 21
-996.0803943784078
 31
0.0
  0
LINE
  5
25F
330
6A
100
AcDbEntity
  8
0
  6
Continuous
 62
     7
100
AcDbLine
 10
-938.593266552571
 20
-998.851675670518
 30
0.0
 11
-939.7515755301326
 21
-998.5173006705181
 31
0.0
  0
LINE
  5
260
330
6A
100
AcDbEntity
  8
0
  6
Continuous
 62
     7
100
AcDbLine
 10
-938.593266552571
 20
-998.851675670518
 30
0.0
 11
-937.343266552571
 21
-997.7691439157875
 31
0.0
  0
LINE
  5
261
330
6A
100
AcDbEntity
  8
0
  6
Continuous
 62
     7
100
AcDbLine
 10
-940.593266552571
 20
-997.8124451859767
 30
0.0
 11
-940.593266552571
 21
-1000.583726478087
 31
0.0
  0
LINE
  5
262
330
6A
100
AcDbEntity
  8
0
  6
Continuous
 62
     7
100
AcDbLine
 10
-939.7515755301326
 20
-997.5906534884687
 30
0.0
 11
-939.7515755301326
 21
-998.5173006705181
 31
0.0
  0
LINE
  5
263
330
6A
100
AcDbEntity
  8
0
  6
Continuous
 62
     7
100
AcDbLine
 10
-941.4395016233278
 20
-997.5681581630271
 30
0.0
 11
-941.8895016233279
 21
-997.9578695947301
 31
0.0
  0
LINE
  5
264
330
6A
100
AcDbEntity
  8
0
  6
Continuous
 62
     7
100
AcDbLine
 10
-941.4395016233278
 20
-997.5681581630271
 30
0.0
 11
-940.593266552571
 21
-997.8124451859767
 31
0.0
  0
LINE
  5
265
330
6A
100
AcDbEntity
  8
0
  6
Continuous
 62
     7
100
AcDbLine
 10
-940.2035740893311
 20
-997.4601727435554
 30
0.0
 11
-939.7515755301326
 21
-997.5906534884687
 31
0.0
  0
LINE
  5
266
330
6A
100
AcDbEntity
  8
0
  6
Continuous
 62
     7
100
AcDbLine
 10
-941.843266552571
 20
-1001.666258232818
 30
0.0
 11
-941.843266552571
 21
-998.8949769407072
 31
0.0
  0
LINE
  5
267
330
6A
100
AcDbEntity
  8
0
  6
Continuous
 62
     7
100
AcDbLine
 10
-937.343266552571
 20
-994.9978626236773
 30
0.0
 11
-937.343266552571
 21
-997.7691439157875
 31
0.0
  0
LINE
  5
268
330
6A
100
AcDbEntity
  8
0
  6
Continuous
 62
     7
100
AcDbLine
 10
-938.593266552571
 20
-996.0803943784078
 30
0.0
 11
-939.4395016233278
 21
-995.8361073554582
 31
0.0
  0
LINE
  5
269
330
6A
100
AcDbEntity
  8
0
  6
Continuous
 62
     7
100
AcDbLine
 10
-938.9895016233279
 20
-995.4463959237553
 30
0.0
 11
-939.4395016233278
 21
-995.8361073554582
 31
0.0
  0
LINE
  5
26A
330
6A
100
AcDbEntity
  8
0
  6
Continuous
 62
     7
100
AcDbLine
 10
-937.343266552571
 20
-994.9978626236773
 30
0.0
 11
-938.593266552571
 21
-996.0803943784078
 31
0.0
  0
LINE
  5
26B
330
6A
100
AcDbEntity
  8
0
  6
Continuous
 62
     7
100
AcDbLine
 10
-945.2771876498707
 20
-996.5728969352742
 30
0.0
 11
-945.6296876498707
 21
-996.8781708901082
 31
0.0
  0
LINE
  5
26C
330
6A
100
AcDbEntity
  8
0
  6
Continuous
 62
     7
100
AcDbLine
 10
-946.0412601158739
 20
-994.5076941032497
 30
0.0
 11
-945.2771876498707
 21
-996.5728969352742
 31
0.0
  0
LINE
  5
26D
330
6A
100
AcDbEntity
  8
0
  6
Continuous
 62
     7
100
AcDbLine
 10
-946.0412601158739
 20
-994.5076941032497
 30
0.0
 11
-947.0412601158739
 21
-995.3737195070341
 31
0.0
  0
LINE
  5
26E
330
6A
100
AcDbEntity
  8
0
  6
Continuous
 62
     7
100
AcDbLine
 10
-947.0412601158739
 20
-995.3737195070341
 30
0.0
 11
-946.5868821235715
 21
-996.6018526465792
 31
0.0
  0
LINE
  5
26F
330
6A
100
AcDbEntity
  8
0
  6
Continuous
 62
     7
100
AcDbLine
 10
-947.0412601158739
 20
-995.3737195070341
 30
0.0
 11
-947.8874951866309
 21
-995.1294324840845
 31
0.0
  0
LINE
  5
270
330
6A
100
AcDbEntity
  8
0
  6
Continuous
 62
     7
100
AcDbLine
 10
-947.8874951866309
 20
-996.2263979955449
 30
0.0
 11
-947.8874951866309
 21
-995.1294324840845
 31
0.0
  0
LINE
  5
271
330
6A
100
AcDbEntity
  8
0
  6
Continuous
 62
     7
100
AcDbLine
 10
-945.9374951866309
 20
-993.4406829467049
 30
0.0
 11
-945.1374951866309
 21
-992.7478626236773
 31
0.0
  0
LINE
  5
272
330
6A
100
AcDbEntity
  8
0
  6
Continuous
 62
     7
100
AcDbLine
 10
-938.9895016233279
 20
-995.4463959237553
 30
0.0
 11
-945.9374951866309
 21
-993.4406829467049
 31
0.0
  0
LINE
  5
273
330
6A
100
AcDbEntity
  8
0
  6
Continuous
 62
     7
100
AcDbLine
 10
-945.9374951866309
 20
-994.7881591576424
 30
0.0
 11
-945.9374951866309
 21
-993.4406829467049
 31
0.0
  0
LINE
  5
274
330
6A
100
AcDbEntity
  8
0
  6
Continuous
 62
     7
100
AcDbLine
 10
-946.0412601158739
 20
-994.5076941032497
 30
0.0
 11
-946.8874951866309
 21
-994.2634070803001
 31
0.0
  0
LINE
  5
275
330
6A
100
AcDbEntity
  8
0
  6
Continuous
 62
     7
100
AcDbLine
 10
-947.8874951866309
 20
-995.1294324840845
 30
0.0
 11
-946.8874951866309
 21
-994.2634070803001
 31
0.0
  0
LINE
  5
276
330
6A
100
AcDbEntity
  8
0
  6
Continuous
 62
     7
100
AcDbLine
 10
-949.6374951866309
 20
-996.6449769407072
 30
0.0
 11
-948.8374951866309
 21
-995.9521566176797
 31
0.0
  0
LINE
  5
277
330
6A
100
AcDbEntity
  8
0
  6
Continuous
 62
     7
100
AcDbLine
 10
-946.7054443790621
 20
-1054.389256130859
 30
0.0
 11
-949.6374951866309
 21
-1053.542845969345
 31
0.0
  0
LINE
  5
278
330
6A
100
AcDbEntity
  8
0
  6
Continuous
 62
     7
100
AcDbLine
 10
-917.2042147481371
 20
-1071.998794305015
 30
0.0
 11
-919.3266060541756
 21
-1068.355023795836
 31
0.0
  0
LINE
  5
279
330
6A
100
AcDbEntity
  8
0
  6
Continuous
 62
     7
100
AcDbLine
 10
-919.3266060541755
 20
-1067.853507085754
 30
0.0
 11
-917.5945552466067
 21
-1067.889405470616
 31
0.0
  0
LINE
  5
27A
330
6A
100
AcDbEntity
  8
0
  6
Continuous
 62
     7
100
AcDbLine
 10
-917.5945552466067
 20
-1067.889405470616
 30
0.0
 11
-917.5945552466067
 21
-1066.94976790751
 31
0.0
  0
LINE
  5
27B
330
6A
100
AcDbEntity
  8
0
  6
Continuous
 62
     7
100
AcDbLine
 10
-915.8625044390378
 20
-1072.386112709082
 30
0.0
 11
-915.8625044390378
 21
-1013.994349858916
 31
0.0
  0
LINE
  5
27C
330
6A
100
AcDbEntity
  8
0
  6
Continuous
 62
     7
100
AcDbLine
 10
-917.2042147481371
 20
-1071.998794305015
 30
0.0
 11
-915.8625044390378
 21
-1072.386112709082
 31
0.0
  0
LINE
  5
27D
330
6A
100
AcDbEntity
  8
0
  6
Continuous
 62
     7
100
AcDbLine
 10
-911.3625044390378
 20
-1010.530248243778
 30
0.0
 11
-911.3625044390378
 21
-1068.488998392052
 31
0.0
  0
LINE
  5
27E
330
6A
100
AcDbEntity
  8
0
  6
Continuous
 62
     7
100
AcDbLine
 10
-911.3625044390378
 20
-1005.269143915788
 30
0.0
 11
-937.343266552571
 21
-997.7691439157875
 31
0.0
  0
LINE
  5
27F
330
6A
100
AcDbEntity
  8
0
  6
Continuous
 62
     7
100
AcDbLine
 10
-915.3875044390378
 20
-1014.01600049401
 30
0.0
 11
-911.3625044390378
 21
-1010.530248243778
 31
0.0
  0
LINE
  5
280
330
6A
100
AcDbEntity
  8
0
  6
Continuous
 62
     7
100
AcDbLine
 10
-915.8625044390378
 20
-1010.530248243778
 30
0.0
 11
-915.8625044390378
 21
-1009.166258232818
 31
0.0
  0
LINE
  5
281
330
6A
100
AcDbEntity
  8
0
  6
Continuous
 62
     7
100
AcDbLine
 10
-917.6865425447145
 20
-1010.609911580765
 30
0.0
 11
-917.1615425447145
 21
-1010.155248243778
 31
0.0
  0
LINE
  5
282
330
6A
100
AcDbEntity
  8
0
  6
Continuous
 62
     7
100
AcDbLine
 10
-918.5355806503911
 20
-1010.364815391333
 30
0.0
 11
-917.6865425447145
 21
-1010.609911580765
 31
0.0
  0
LINE
  5
283
330
6A
100
AcDbEntity
  8
0
  6
Continuous
 62
     7
100
AcDbLine
 10
-918.5355806503911
 20
-1010.364815391333
 30
0.0
 11
-919.1355806503911
 21
-1010.364815391333
 31
0.0
  0
LINE
  5
284
330
6A
100
AcDbEntity
  8
0
  6
Continuous
 62
     7
100
AcDbLine
 10
-919.4605806503911
 20
-1010.646273647563
 30
0.0
 11
-919.1355806503911
 21
-1010.364815391333
 31
0.0
  0
LINE
  5
285
330
6A
100
AcDbEntity
  8
0
  6
Continuous
 62
     7
100
AcDbLine
 10
-915.3875044390378
 20
-1014.01600049401
 30
0.0
 11
-915.3875044390378
 21
-1009.685873475088
 31
0.0
  0
LINE
  5
286
330
6A
100
AcDbEntity
  8
0
  6
Continuous
 62
     7
100
AcDbLine
 10
-915.3875044390378
 20
-1009.916813582764
 30
0.0
 11
-913.2231450850929
 21
-1010.541610310576
 31
0.0
  0
LINE
  5
287
330
6A
100
AcDbEntity
  8
0
  6
Continuous
 62
     7
100
AcDbLine
 10
-915.8625044390378
 20
-1010.530248243778
 30
0.0
 11
-917.1615425447145
 21
-1010.155248243778
 31
0.0
  0
LINE
  5
288
330
6A
100
AcDbEntity
  8
0
  6
Continuous
 62
     7
100
AcDbLine
 10
-913.2231450850929
 20
-1010.541610310576
 30
0.0
 11
-912.7481450850929
 21
-1010.130248243778
 31
0.0
  0
LINE
  5
289
330
6A
100
AcDbEntity
  8
0
  6
Continuous
 62
     7
100
AcDbLine
 10
-913.2231450850929
 20
-1007.811483291653
 30
0.0
 11
-913.2231450850929
 21
-1010.541610310576
 31
0.0
  0
LINE
  5
28A
330
6A
100
AcDbEntity
  8
0
  6
Continuous
 62
     7
100
AcDbLine
 10
-940.593266552571
 20
-997.8124451859767
 30
0.0
 11
-941.843266552571
 21
-998.8949769407072
 31
0.0
  0
LINE
  5
28B
330
6A
100
AcDbEntity
  8
0
  6
Continuous
 62
     7
100
AcDbLine
 10
-911.3625044390378
 20
-1010.530248243778
 30
0.0
 11
-912.7481450850929
 21
-1010.130248243778
 31
0.0
  0
LINE
  5
28C
330
6A
100
AcDbEntity
  8
0
  6
Continuous
 62
     7
100
AcDbLine
 10
-912.7481450850929
 20
-1007.400121224856
 30
0.0
 11
-912.7481450850929
 21
-1010.130248243778
 31
0.0
  0
LINE
  5
28D
330
6A
100
AcDbEntity
  8
0
  6
Continuous
 62
     7
100
AcDbLine
 10
-911.3625044390378
 20
-1005.269143915788
 30
0.0
 11
-915.8625044390378
 21
-1009.166258232818
 31
0.0
  0
LINE
  5
28E
330
6A
100
AcDbEntity
  8
0
  6
Continuous
 62
     7
100
AcDbLine
 10
-911.3625044390378
 20
-1006.200121224856
 30
0.0
 11
-915.3875044390378
 21
-1009.685873475088
 31
0.0
  0
LINE
  5
28F
330
6A
100
AcDbEntity
  8
0
  6
Continuous
 62
     7
100
AcDbLine
 10
-916.8625044390378
 20
-1014.8603752627
 30
0.0
 11
-916.8625044390378
 21
-1011.396273647563
 31
0.0
  0
LINE
  5
290
330
6A
100
AcDbEntity
  8
0
  6
Continuous
 62
     7
100
AcDbLine
 10
-916.8625044390378
 20
-1011.396273647563
 30
0.0
 11
-915.8625044390378
 21
-1010.530248243778
 31
0.0
  0
LINE
  5
291
330
6A
100
AcDbEntity
  8
0
  6
Continuous
 62
     7
100
AcDbLine
 10
-915.8625044390378
 20
-1013.994349858916
 30
0.0
 11
-916.8625044390378
 21
-1014.8603752627
 31
0.0
  0
LINE
  5
292
330
6A
100
AcDbEntity
  8
0
  6
Continuous
 62
     7
100
AcDbLine
 10
-916.8625044390378
 20
-1011.396273647563
 30
0.0
 11
-919.4605806503911
 21
-1010.646273647563
 31
0.0
  0
LINE
  5
293
330
6A
100
AcDbEntity
  8
0
  6
Continuous
 62
     7
100
AcDbLine
 10
-919.4605806503911
 20
-1010.646273647563
 30
0.0
 11
-919.4605806503911
 21
-1014.1103752627
 31
0.0
  0
LINE
  5
294
330
6A
100
AcDbEntity
  8
0
  6
Continuous
 62
     7
100
AcDbLine
 10
-916.8625044390378
 20
-1014.8603752627
 30
0.0
 11
-919.4605806503911
 21
-1014.1103752627
 31
0.0
  0
LINE
  5
295
330
6A
100
AcDbEntity
  8
0
  6
Continuous
 62
     7
100
AcDbLine
 10
-911.3625044390378
 20
-1005.269143915788
 30
0.0
 11
-911.3625044390378
 21
-1006.200121224856
 31
0.0
  0
LINE
  5
296
330
6A
100
AcDbEntity
  8
0
  6
Continuous
 62
     7
100
AcDbLine
 10
-945.7121776393254
 20
-1058.832909478806
 30
0.0
 11
-943.3121776393255
 21
-1055.368807863668
 31
0.0
  0
LINE
  5
297
330
6A
100
AcDbEntity
  8
0
  6
Continuous
 62
     7
100
AcDbLine
 10
-946.7054443790621
 20
-1054.389256130859
 30
0.0
 11
-949.6374951866309
 21
-1058.621306938428
 31
0.0
  0
LINE
  5
298
330
6A
100
AcDbEntity
  8
0
  6
Continuous
 62
     7
100
AcDbLine
 10
-944.3026990329654
 20
-1059.239790905205
 30
0.0
 11
-948.3704912353902
 21
-1062.762602289822
 31
0.0
  0
LINE
  5
299
330
6A
100
AcDbEntity
  8
0
  6
Continuous
 62
     7
100
AcDbLine
 10
-947.0394189752776
 20
-1060.355023795836
 30
0.0
 11
-948.2663057181795
 21
-1062.631919211031
 31
0.0
  0
LINE
  5
29A
330
6A
100
AcDbEntity
  8
0
  6
Continuous
 62
     2
100
AcDbLine
 10
-944.337734761135
 20
-1059.229676961661
 30
0.0
 11
-948.2663057181795
 21
-1062.631919211031
 31
0.0
  0
LINE
  5
29B
330
6A
100
AcDbEntity
  8
0
  6
Continuous
 62
     7
100
AcDbLine
 10
-945.3894189752776
 20
-1058.926081879592
 30
0.0
 11
-947.0394189752776
 21
-1060.355023795836
 31
0.0
  0
LINE
  5
29C
330
6A
100
AcDbEntity
  8
0
  6
Continuous
 62
     7
100
AcDbLine
 10
-947.905444379062
 20
-1058.19976790751
 30
0.0
 11
-945.505444379062
 21
-1054.735666292372
 31
0.0
  0
LINE
  5
29D
330
6A
100
AcDbEntity
  8
0
  6
Continuous
 62
     7
100
AcDbLine
 10
-944.305444379062
 20
-1055.082076453886
 30
0.0
 11
-947.905444379062
 21
-1058.19976790751
 31
0.0
  0
LINE
  5
29E
330
6A
100
AcDbEntity
  8
0
  6
Continuous
 62
     7
100
AcDbLine
 10
-943.4916943790621
 20
-1055.316985844663
 30
0.0
 11
-947.905444379062
 21
-1059.139405470616
 31
0.0
  0
LINE
  5
29F
330
6A
100
AcDbEntity
  8
0
  6
Continuous
 62
     7
100
AcDbLine
 10
-945.0871187560678
 20
-1057.930714692536
 30
0.0
 11
-947.0394189752776
 21
-1059.621456278185
 31
0.0
  0
LINE
  5
2A0
330
6A
100
AcDbEntity
  8
0
  6
Continuous
 62
     7
100
AcDbLine
 10
-947.905444379062
 20
-1059.139405470616
 30
0.0
 11
-947.0394189752776
 21
-1059.621456278185
 31
0.0
  0
LINE
  5
2A1
330
6A
100
AcDbEntity
  8
0
  6
Continuous
 62
     7
100
AcDbLine
 10
-947.905444379062
 20
-1058.19976790751
 30
0.0
 11
-947.905444379062
 21
-1059.139405470616
 31
0.0
  0
LINE
  5
2A2
330
6A
100
AcDbEntity
  8
0
  6
Continuous
 62
     7
100
AcDbLine
 10
-947.0394189752776
 20
-1059.621456278185
 30
0.0
 11
-947.0394189752776
 21
-1060.355023795836
 31
0.0
  0
LINE
  5
2A3
330
6A
100
AcDbEntity
  8
0
  6
Continuous
 62
     7
100
AcDbLine
 10
-949.6374951866309
 20
-1058.621306938428
 30
0.0
 11
-949.637495186631
 21
-1061.943292386054
 31
0.0
  0
LINE
  5
2A4
330
6A
100
AcDbEntity
  8
0
  6
Continuous
 62
     7
100
AcDbLine
 10
-949.6374951866309
 20
-1053.542845969345
 30
0.0
 11
-949.6374951866309
 21
-996.6449769407072
 31
0.0
  0
LINE
  5
2A5
330
6A
100
AcDbEntity
  8
0
  6
Continuous
 62
     7
100
AcDbLine
 10
-948.9446748636034
 20
-1062.836112709082
 30
0.0
 11
-948.8942141719566
 21
-1062.850679456034
 31
0.0
  0
LINE
  5
2A6
330
6A
100
AcDbEntity
  8
0
  6
Continuous
 62
     7
100
AcDbLine
 10
-917.5945552466067
 20
-1066.94976790751
 30
0.0
 11
-928.8777566264008
 21
-1063.692588230538
 31
0.0
  0
LINE
  5
2A7
330
6A
100
AcDbEntity
  8
0
  6
Continuous
 62
     7
100
AcDbLine
 10
-911.3625044390378
 20
-1068.488998392052
 30
0.0
 11
-915.8625044390378
 21
-1072.386112709082
 31
0.0
  0
LINE
  5
2A8
330
6A
100
AcDbEntity
  8
0
  6
Continuous
 62
     7
100
AcDbLine
 10
-918.1109322655288
 20
-1066.800702702071
 30
0.0
 11
-919.3266060541755
 21
-1067.853507085754
 31
0.0
  0
LINE
  5
2A9
330
6A
100
AcDbEntity
  8
0
  6
Continuous
 62
     7
100
AcDbLine
 10
-919.3266060541756
 20
-1068.355023795836
 30
0.0
 11
-919.3266060541755
 21
-1067.853507085754
 31
0.0
  0
LINE
  5
2AA
330
6A
100
AcDbEntity
  8
0
  6
Continuous
 62
     7
100
AcDbLine
 10
-928.8777566264008
 20
-1063.692588230538
 30
0.0
 11
-931.2777566264008
 21
-1058.842845969345
 31
0.0
  0
SPLINE
  5
2AB
330
6A
100
AcDbEntity
  8
0
  6
Continuous
 62
     7
100
AcDbSpline
210
0.0
220
0.0
230
1.0
 70
     8
 71
     3
 72
    11
 73
     7
 74
     5
 42
0.000000001
 43
0.0000000001
 44
0.00000001
 40
0.0
 40
0.0
 40
0.0
 40
0.0
 40
0.1608365245274482
 40
0.33552966024965
 40
0.5340676419351092
 40
0.7616715673542784
 40
0.7616715673542784
 40
0.7616715673542784
 40
0.7616715673542784
 10
-912.9191291937562
 20
-1039.868156985401
 30
0.0
 10
-912.9723889079621
 20
-1039.858582511767
 30
0.0
 10
-913.083496842576
 20
-1039.838608705877
 30
0.0
 10
-913.260618439939
 20
-1039.88060328134
 30
0.0
 10
-913.441981976571
 20
-1039.968155832686
 30
0.0
 10
-913.5531364429862
 20
-1040.057367502929
 30
0.0
 10
-913.6125044390378
 20
-1040.105015783017
 30
0.0
 11
-912.9191291937562
 21
-1039.868156985401
 31
0.0
 11
-913.0789472316828
 21
-1039.850085371529
 31
0.0
 11
-913.2502742531773
 21
-1039.884213727757
 31
0.0
 11
-913.4294146967102
 21
-1039.969805974384
 31
0.0
 11
-913.6125044390378
 21
-1040.105015783017
 31
0.0
  0
SPLINE
  5
2AC
330
6A
100
AcDbEntity
  8
0
  6
Continuous
 62
     7
100
AcDbSpline
210
0.0
220
0.0
230
1.0
 70
     8
 71
     3
 72
    17
 73
    13
 74
    11
 42
0.000000001
 43
0.0000000001
 44
0.00000001
 40
0.0
 40
0.0
 40
0.0
 40
0.0
 40
0.4666752969621878
 40
1.014777282420622
 40
1.621241804947091
 40
2.255857763092372
 40
2.885392948042899
 40
3.477144560175669
 40
4.002576998493563
 40
4.44184118665342
 40
4.791132142115905
 40
5.076336276601157
 40
5.076336276601157
 40
5.076336276601157
 40
5.076336276601157
 10
-913.6125044390378
 20
-1040.105015783017
 30
0.0
 10
-913.7221183984085
 20
-1040.216026165638
 30
0.0
 10
-913.9604720327253
 20
-1040.45741630877
 30
0.0
 10
-914.2423063520029
 20
-1040.923266217036
 30
0.0
 10
-914.4938451482057
 20
-1041.464469881744
 30
0.0
 10
-914.6890329845269
 20
-1042.058307104404
 30
0.0
 10
-914.8186908741652
 20
-1042.66457621091
 30
0.0
 10
-914.8736452911904
 20
-1043.24509122422
 30
0.0
 10
-914.852296709836
 20
-1043.767478088985
 30
0.0
 10
-914.7523177546055
 20
-1044.192104473698
 30
0.0
 10
-914.5842375027657
 20
-1044.528403502703
 30
0.0
 10
-914.3922000806801
 20
-1044.6274709863
 30
0.0
 10
-914.3058796843193
 20
-1044.672001599554
 30
0.0
 11
-913.6125044390378
 21
-1040.105015783017
 31
0.0
 11
-913.9282453519696
 21
-1040.44866313155
 31
0.0
 11
-914.2235091393919
 21
-1040.910436974956
 31
0.0
 11
-914.4791461605491
 21
-1041.460390546421
 31
0.0
 11
-914.6785778228935
 21
-1042.062855836823
 31
0.0
 11
-914.8088691974808
 21
-1042.678760623578
 31
0.0
 11
-914.8615712882264
 21
-1043.268160708004
 31
0.0
 11
-914.8332650331221
 21
-1043.792830130058
 31
0.0
 11
-914.72578732168
 21
-1044.218742758982
 31
0.0
 11
-914.5461075460773
 21
-1044.518274638835
 31
0.0
 11
-914.3058796843193
 21
-1044.672001599554
 31
0.0
  0
SPLINE
  5
2AD
330
6A
100
AcDbEntity
  8
0
  6
Continuous
 62
     7
100
AcDbSpline
210
0.0
220
0.0
230
1.0
 70
     8
 71
     3
 72
    19
 73
    15
 74
    13
 42
0.000000001
 43
0.0000000001
 44
0.00000001
 40
0.0
 40
0.0
 40
0.0
 40
0.0
 40
0.2928435836074958
 40
0.6541484769441936
 40
1.110339587557001
 40
1.655938392505738
 40
2.268512596488273
 40
2.916610597671655
 40
3.564708598855092
 40
4.177282802837634
 40
4.722881607785934
 40
5.1790727183987
 40
5.540377611735717
 40
5.833221195343233
 40
5.833221195343233
 40
5.833221195343233
 40
5.833221195343233
 10
-914.3058796843193
 20
-1044.672001599554
 30
0.0
 10
-914.206401100118
 20
-1044.679968597771
 30
0.0
 10
-913.9841877168221
 20
-1044.697765107867
 30
0.0
 10
-913.6546174039911
 20
-1044.490509566258
 30
0.0
 10
-913.3368554662674
 20
-1044.1686747343
 30
0.0
 10
-913.0355975743671
 20
-1043.717665670485
 30
0.0
 10
-912.7714414951225
 20
-1043.175651893165
 30
0.0
 10
-912.5609312392368
 20
-1042.573642327466
 30
0.0
 10
-912.4182211005452
 20
-1041.952060553811
 30
0.0
 10
-912.3528776596847
 20
-1041.352654511347
 30
0.0
 10
-912.3674279949231
 20
-1040.810479465057
 30
0.0
 10
-912.4647852405054
 20
-1040.368810046984
 30
0.0
 10
-912.6331979272962
 20
-1040.017799195934
 30
0.0
 10
-912.8307090853718
 20
-1039.914431667556
 30
0.0
 10
-912.9191291937562
 20
-1039.868156985401
 30
0.0
 11
-914.3058796843193
 21
-1044.672001599554
 31
0.0
 11
-914.0130653106505
 21
-1044.6678653471
 31
0.0
 11
-913.6929535818458
 21
-1044.500325172514
 31
0.0
 11
-913.3673593354722
 21
-1044.180796278188
 31
0.0
 11
-913.0584711965249
 21
-1043.731056162996
 31
0.0
 11
-912.7873397928226
 21
-1043.181752135991
 31
0.0
 11
-912.5724415711156
 21
-1042.570319580862
 31
0.0
 11
-912.4284224507492
 21
-1041.938425991613
 31
0.0
 11
-912.3650959512435
 21
-1041.32913385592
 31
0.0
 11
-912.3867789212097
 21
-1040.783966081369
 31
0.0
 11
-912.4919924283076
 21
-1040.340073700826
 31
0.0
 11
-912.6735675543147
 21
-1040.027709005903
 31
0.0
 11
-912.9191291937562
 21
-1039.868156985401
 31
0.0
  0
SPLINE
  5
2AE
330
6A
100
AcDbEntity
  8
0
  6
Continuous
 62
     7
100
AcDbSpline
210
0.0
220
0.0
230
1.0
 70
     8
 71
     3
 72
    19
 73
    15
 74
    13
 42
0.000000001
 43
0.0000000001
 44
0.00000001
 40
0.0
 40
0.0
 40
0.0
 40
0.0
 40
0.2928435836074926
 40
0.6541484769441905
 40
1.110339587556839
 40
1.655938392505388
 40
2.26851259648777
 40
2.916610597670938
 40
3.56470859885457
 40
4.177282802837564
 40
4.722881607786318
 40
5.179072718399306
 40
5.540377611735733
 40
5.833221195342877
 40
5.833221195342877
 40
5.833221195342877
 40
5.833221195342877
 10
-914.3058796843193
 20
-1034.019889133005
 30
0.0
 10
-914.2064011001178
 20
-1034.027856131222
 30
0.0
 10
-913.9841877168222
 20
-1034.045652641318
 30
0.0
 10
-913.6546174039918
 20
-1033.838397099709
 30
0.0
 10
-913.3368554662669
 20
-1033.516562267751
 30
0.0
 10
-913.0355975743671
 20
-1033.065553203936
 30
0.0
 10
-912.7714414951226
 20
-1032.523539426617
 30
0.0
 10
-912.5609312392363
 20
-1031.921529860918
 30
0.0
 10
-912.4182211005458
 20
-1031.299948087263
 30
0.0
 10
-912.3528776596842
 20
-1030.700542044798
 30
0.0
 10
-912.367427994923
 20
-1030.158366998508
 30
0.0
 10
-912.4647852405055
 20
-1029.716697580435
 30
0.0
 10
-912.6331979272959
 20
-1029.365686729385
 30
0.0
 10
-912.830709085372
 20
-1029.262319201008
 30
0.0
 10
-912.9191291937562
 20
-1029.216044518853
 30
0.0
 11
-914.3058796843193
 21
-1034.019889133005
 31
0.0
 11
-914.0130653106505
 21
-1034.015752880551
 31
0.0
 11
-913.6929535818458
 21
-1033.848212705966
 31
0.0
 11
-913.3673593354722
 21
-1033.52868381164
 31
0.0
 11
-913.0584711965249
 21
-1033.078943696448
 31
0.0
 11
-912.7873397928225
 21
-1032.529639669443
 31
0.0
 11
-912.5724415711155
 21
-1031.918207114314
 31
0.0
 11
-912.4284224507492
 21
-1031.286313525065
 31
0.0
 11
-912.3650959512435
 21
-1030.677021389371
 31
0.0
 11
-912.3867789212097
 21
-1030.131853614821
 31
0.0
 11
-912.4919924283076
 21
-1029.687961234276
 31
0.0
 11
-912.6735675543147
 21
-1029.375596539354
 31
0.0
 11
-912.9191291937562
 21
-1029.216044518853
 31
0.0
  0
SPLINE
  5
2AF
330
6A
100
AcDbEntity
  8
0
  6
Continuous
 62
     7
100
AcDbSpline
210
0.0
220
0.0
230
1.0
 70
     8
 71
     3
 72
    17
 73
    13
 74
    11
 42
0.000000001
 43
0.0000000001
 44
0.00000001
 40
0.0
 40
0.0
 40
0.0
 40
0.0
 40
0.4666752969620203
 40
1.014777282420838
 40
1.621241804947513
 40
2.255857763092794
 40
2.885392948043321
 40
3.477144560175637
 40
4.002576998493986
 40
4.441841186654284
 40
4.791132142116769
 40
5.076336276601532
 40
5.076336276601532
 40
5.076336276601532
 40
5.076336276601532
 10
-913.6125044390378
 20
-1029.452903316468
 30
0.0
 10
-913.722118398409
 20
-1029.56391369909
 30
0.0
 10
-913.9604720327252
 20
-1029.805303842221
 30
0.0
 10
-914.2423063520026
 20
-1030.271153750487
 30
0.0
 10
-914.4938451482051
 20
-1030.812357415195
 30
0.0
 10
-914.689032984527
 20
-1031.406194637856
 30
0.0
 10
-914.8186908741654
 20
-1032.012463744362
 30
0.0
 10
-914.8736452911904
 20
-1032.592978757671
 30
0.0
 10
-914.8522967098361
 20
-1033.115365622437
 30
0.0
 10
-914.7523177546057
 20
-1033.53999200715
 30
0.0
 10
-914.5842375027657
 20
-1033.876291036156
 30
0.0
 10
-914.3922000806801
 20
-1033.975358519752
 30
0.0
 10
-914.3058796843193
 20
-1034.019889133005
 30
0.0
 11
-913.6125044390378
 21
-1029.452903316468
 31
0.0
 11
-913.9282453519696
 21
-1029.796550665001
 31
0.0
 11
-914.2235091393919
 21
-1030.258324508407
 31
0.0
 11
-914.4791461605491
 21
-1030.808278079873
 31
0.0
 11
-914.6785778228935
 21
-1031.410743370275
 31
0.0
 11
-914.8088691974808
 21
-1032.02664815703
 31
0.0
 11
-914.8615712882264
 21
-1032.616048241455
 31
0.0
 11
-914.8332650331221
 21
-1033.140717663509
 31
0.0
 11
-914.72578732168
 21
-1033.566630292434
 31
0.0
 11
-914.5461075460773
 21
-1033.866162172287
 31
0.0
 11
-914.3058796843193
 21
-1034.019889133005
 31
0.0
  0
SPLINE
  5
2B0
330
6A
100
AcDbEntity
  8
0
  6
Continuous
 62
     7
100
AcDbSpline
210
0.0
220
0.0
230
1.0
 70
     8
 71
     3
 72
    11
 73
     7
 74
     5
 42
0.000000001
 43
0.0000000001
 44
0.00000001
 40
0.0
 40
0.0
 40
0.0
 40
0.0
 40
0.1608365245275248
 40
0.3355296602498155
 40
0.5340676419351768
 40
0.7616715673539407
 40
0.7616715673539407
 40
0.7616715673539407
 40
0.7616715673539407
 10
-912.9191291937562
 20
-1029.216044518853
 30
0.0
 10
-912.9723889079623
 20
-1029.206470045219
 30
0.0
 10
-913.083496842576
 20
-1029.186496239329
 30
0.0
 10
-913.2606184399386
 20
-1029.228490814793
 30
0.0
 10
-913.4419819765709
 20
-1029.316043366137
 30
0.0
 10
-913.5531364429862
 20
-1029.40525503638
 30
0.0
 10
-913.6125044390378
 20
-1029.452903316468
 30
0.0
 11
-912.9191291937562
 21
-1029.216044518853
 31
0.0
 11
-913.0789472316828
 21
-1029.19797290498
 31
0.0
 11
-913.2502742531773
 21
-1029.232101261209
 31
0.0
 11
-913.4294146967102
 21
-1029.317693507835
 31
0.0
 11
-913.6125044390378
 21
-1029.452903316468
 31
0.0
  0
SPLINE
  5
2B1
330
6A
100
AcDbEntity
  8
0
  6
Continuous
 62
     7
100
AcDbSpline
210
0.0
220
0.0
230
1.0
 70
     8
 71
     3
 72
    11
 73
     7
 74
     5
 42
0.000000001
 43
0.0000000001
 44
0.00000001
 40
0.0
 40
0.0
 40
0.0
 40
0.0
 40
0.1608365245274737
 40
0.33552966024972
 40
0.5340676419349832
 40
0.7616715673537472
 40
0.7616715673537472
 40
0.7616715673537472
 40
0.7616715673537472
 10
-912.9191291937562
 20
-1034.542100752127
 30
0.0
 10
-912.9723889079623
 20
-1034.532526278493
 30
0.0
 10
-913.0834968425759
 20
-1034.512552472603
 30
0.0
 10
-913.2606184399386
 20
-1034.554547048067
 30
0.0
 10
-913.4419819765708
 20
-1034.642099599411
 30
0.0
 10
-913.5531364429862
 20
-1034.731311269653
 30
0.0
 10
-913.6125044390378
 20
-1034.778959549742
 30
0.0
 11
-912.9191291937562
 21
-1034.542100752127
 31
0.0
 11
-913.0789472316828
 21
-1034.524029138255
 31
0.0
 11
-913.2502742531773
 21
-1034.558157494483
 31
0.0
 11
-913.4294146967102
 21
-1034.643749741109
 31
0.0
 11
-913.6125044390378
 21
-1034.778959549742
 31
0.0
  0
SPLINE
  5
2B2
330
6A
100
AcDbEntity
  8
0
  6
Continuous
 62
     7
100
AcDbSpline
210
0.0
220
0.0
230
1.0
 70
     8
 71
     3
 72
    17
 73
    13
 74
    11
 42
0.000000001
 43
0.0000000001
 44
0.00000001
 40
0.0
 40
0.0
 40
0.0
 40
0.0
 40
0.4666752969623552
 40
1.01477728242079
 40
1.621241804947464
 40
2.255857763092746
 40
2.88539294804394
 40
3.477144560176257
 40
4.002576998493923
 40
4.441841186654222
 40
4.791132142116707
 40
5.07633627660196
 40
5.07633627660196
 40
5.07633627660196
 40
5.07633627660196
 10
-913.6125044390378
 20
-1050.757128249565
 30
0.0
 10
-913.7221183984083
 20
-1050.868138632186
 30
0.0
 10
-913.9604720327254
 20
-1051.109528775319
 30
0.0
 10
-914.2423063520026
 20
-1051.575378683584
 30
0.0
 10
-914.4938451482053
 20
-1052.116582348292
 30
0.0
 10
-914.6890329845265
 20
-1052.710419570953
 30
0.0
 10
-914.8186908741656
 20
-1053.316688677459
 30
0.0
 10
-914.8736452911901
 20
-1053.897203690768
 30
0.0
 10
-914.852296709836
 20
-1054.419590555534
 30
0.0
 10
-914.7523177546059
 20
-1054.844216940247
 30
0.0
 10
-914.5842375027655
 20
-1055.180515969253
 30
0.0
 10
-914.3922000806803
 20
-1055.279583452849
 30
0.0
 10
-914.3058796843193
 20
-1055.324114066103
 30
0.0
 11
-913.6125044390378
 21
-1050.757128249565
 31
0.0
 11
-913.9282453519696
 21
-1051.100775598098
 31
0.0
 11
-914.2235091393919
 21
-1051.562549441504
 31
0.0
 11
-914.4791461605491
 21
-1052.11250301297
 31
0.0
 11
-914.6785778228935
 21
-1052.714968303372
 31
0.0
 11
-914.8088691974808
 21
-1053.330873090127
 31
0.0
 11
-914.8615712882264
 21
-1053.920273174553
 31
0.0
 11
-914.8332650331221
 21
-1054.444942596606
 31
0.0
 11
-914.72578732168
 21
-1054.87085522553
 31
0.0
 11
-914.5461075460773
 21
-1055.170387105384
 31
0.0
 11
-914.3058796843193
 21
-1055.324114066103
 31
0.0
  0
SPLINE
  5
2B3
330
6A
100
AcDbEntity
  8
0
  6
Continuous
 62
     7
100
AcDbSpline
210
0.0
220
0.0
230
1.0
 70
     8
 71
     3
 72
    11
 73
     7
 74
     5
 42
0.000000001
 43
0.0000000001
 44
0.00000001
 40
0.0
 40
0.0
 40
0.0
 40
0.0
 40
0.1608365245275248
 40
0.3355296602498155
 40
0.5340676419351768
 40
0.7616715673539407
 40
0.7616715673539407
 40
0.7616715673539407
 40
0.7616715673539407
 10
-912.9191291937562
 20
-1045.194213218676
 30
0.0
 10
-912.9723889079623
 20
-1045.184638745042
 30
0.0
 10
-913.083496842576
 20
-1045.164664939151
 30
0.0
 10
-913.2606184399386
 20
-1045.206659514615
 30
0.0
 10
-913.4419819765709
 20
-1045.29421206596
 30
0.0
 10
-913.5531364429862
 20
-1045.383423736203
 30
0.0
 10
-913.6125044390378
 20
-1045.431072016291
 30
0.0
 11
-912.9191291937562
 21
-1045.194213218676
 31
0.0
 11
-913.0789472316828
 21
-1045.176141604803
 31
0.0
 11
-913.2502742531773
 21
-1045.210269961032
 31
0.0
 11
-913.4294146967102
 21
-1045.295862207658
 31
0.0
 11
-913.6125044390378
 21
-1045.431072016291
 31
0.0
  0
SPLINE
  5
2B4
330
6A
100
AcDbEntity
  8
0
  6
Continuous
 62
     7
100
AcDbSpline
210
0.0
220
0.0
230
1.0
 70
     8
 71
     3
 72
    11
 73
     7
 74
     5
 42
0.000000001
 43
0.0000000001
 44
0.00000001
 40
0.0
 40
0.0
 40
0.0
 40
0.0
 40
0.1608365245274737
 40
0.33552966024972
 40
0.5340676419349832
 40
0.7616715673537472
 40
0.7616715673537472
 40
0.7616715673537472
 40
0.7616715673537472
 10
-912.9191291937562
 20
-1050.52026945195
 30
0.0
 10
-912.9723889079623
 20
-1050.510694978316
 30
0.0
 10
-913.0834968425759
 20
-1050.490721172426
 30
0.0
 10
-913.2606184399386
 20
-1050.53271574789
 30
0.0
 10
-913.4419819765708
 20
-1050.620268299234
 30
0.0
 10
-913.5531364429862
 20
-1050.709479969477
 30
0.0
 10
-913.6125044390378
 20
-1050.757128249565
 30
0.0
 11
-912.9191291937562
 21
-1050.52026945195
 31
0.0
 11
-913.0789472316828
 21
-1050.502197838078
 31
0.0
 11
-913.2502742531773
 21
-1050.536326194306
 31
0.0
 11
-913.4294146967102
 21
-1050.621918440932
 31
0.0
 11
-913.6125044390378
 21
-1050.757128249565
 31
0.0
  0
SPLINE
  5
2B5
330
6A
100
AcDbEntity
  8
0
  6
Continuous
 62
     7
100
AcDbSpline
210
0.0
220
0.0
230
1.0
 70
     8
 71
     3
 72
    17
 73
    13
 74
    11
 42
0.000000001
 43
0.0000000001
 44
0.00000001
 40
0.0
 40
0.0
 40
0.0
 40
0.0
 40
0.4666752969621878
 40
1.014777282421006
 40
1.621241804947474
 40
2.255857763092971
 40
2.885392948043943
 40
3.47714456017626
 40
4.002576998494154
 40
4.441841186654232
 40
4.791132142116911
 40
5.076336276601552
 40
5.076336276601552
 40
5.076336276601552
 40
5.076336276601552
 10
-913.6125044390378
 20
-1045.431072016291
 30
0.0
 10
-913.7221183984084
 20
-1045.542082398912
 30
0.0
 10
-913.9604720327256
 20
-1045.783472542045
 30
0.0
 10
-914.2423063520025
 20
-1046.24932245031
 30
0.0
 10
-914.4938451482053
 20
-1046.790526115018
 30
0.0
 10
-914.6890329845266
 20
-1047.384363337679
 30
0.0
 10
-914.8186908741654
 20
-1047.990632444186
 30
0.0
 10
-914.8736452911903
 20
-1048.571147457494
 30
0.0
 10
-914.8522967098361
 20
-1049.09353432226
 30
0.0
 10
-914.7523177546057
 20
-1049.518160706973
 30
0.0
 10
-914.584237502766
 20
-1049.854459735979
 30
0.0
 10
-914.3922000806799
 20
-1049.953527219574
 30
0.0
 10
-914.3058796843193
 20
-1049.998057832828
 30
0.0
 11
-913.6125044390378
 21
-1045.431072016291
 31
0.0
 11
-913.9282453519696
 21
-1045.774719364824
 31
0.0
 11
-914.2235091393919
 21
-1046.23649320823
 31
0.0
 11
-914.4791461605491
 21
-1046.786446779696
 31
0.0
 11
-914.6785778228935
 21
-1047.388912070098
 31
0.0
 11
-914.8088691974808
 21
-1048.004816856853
 31
0.0
 11
-914.8615712882264
 21
-1048.594216941279
 31
0.0
 11
-914.8332650331221
 21
-1049.118886363332
 31
0.0
 11
-914.72578732168
 21
-1049.544798992256
 31
0.0
 11
-914.5461075460773
 21
-1049.84433087211
 31
0.0
 11
-914.3058796843193
 21
-1049.998057832828
 31
0.0
  0
SPLINE
  5
2B6
330
6A
100
AcDbEntity
  8
0
  6
Continuous
 62
     7
100
AcDbSpline
210
0.0
220
0.0
230
1.0
 70
     8
 71
     3
 72
    19
 73
    15
 74
    13
 42
0.000000001
 43
0.0000000001
 44
0.00000001
 40
0.0
 40
0.0
 40
0.0
 40
0.0
 40
0.2928435836074926
 40
0.6541484769440851
 40
1.110339587557211
 40
1.655938392505573
 40
2.268512596487955
 40
2.91661059767198
 40
3.56470859885517
 40
4.177282802837712
 40
4.722881607786239
 40
5.179072718399006
 40
5.540377611735629
 40
5.833221195342773
 40
5.833221195342773
 40
5.833221195342773
 40
5.833221195342773
 10
-914.3058796843193
 20
-1028.693832899731
 30
0.0
 10
-914.206401100118
 20
-1028.701799897948
 30
0.0
 10
-913.9841877168222
 20
-1028.719596408044
 30
0.0
 10
-913.6546174039917
 20
-1028.512340866436
 30
0.0
 10
-913.3368554662675
 20
-1028.190506034477
 30
0.0
 10
-913.0355975743671
 20
-1027.739496970662
 30
0.0
 10
-912.7714414951222
 20
-1027.197483193342
 30
0.0
 10
-912.5609312392367
 20
-1026.595473627644
 30
0.0
 10
-912.4182211005457
 20
-1025.973891853988
 30
0.0
 10
-912.3528776596845
 20
-1025.374485811524
 30
0.0
 10
-912.3674279949228
 20
-1024.832310765234
 30
0.0
 10
-912.4647852405056
 20
-1024.390641347161
 30
0.0
 10
-912.6331979272959
 20
-1024.039630496111
 30
0.0
 10
-912.830709085372
 20
-1023.936262967734
 30
0.0
 10
-912.9191291937562
 20
-1023.889988285579
 30
0.0
 11
-914.3058796843193
 21
-1028.693832899731
 31
0.0
 11
-914.0130653106505
 21
-1028.689696647277
 31
0.0
 11
-913.6929535818458
 21
-1028.522156472692
 31
0.0
 11
-913.3673593354722
 21
-1028.202627578365
 31
0.0
 11
-913.0584711965249
 21
-1027.752887463173
 31
0.0
 11
-912.7873397928225
 21
-1027.203583436169
 31
0.0
 11
-912.5724415711155
 21
-1026.592150881039
 31
0.0
 11
-912.4284224507492
 21
-1025.96025729179
 31
0.0
 11
-912.3650959512435
 21
-1025.350965156097
 31
0.0
 11
-912.3867789212097
 21
-1024.805797381546
 31
0.0
 11
-912.4919924283076
 21
-1024.361905001002
 31
0.0
 11
-912.6735675543147
 21
-1024.04954030608
 31
0.0
 11
-912.9191291937562
 21
-1023.889988285579
 31
0.0
  0
SPLINE
  5
2B7
330
6A
100
AcDbEntity
  8
0
  6
Continuous
 62
     7
100
AcDbSpline
210
0.0
220
0.0
230
1.0
 70
     8
 71
     3
 72
    19
 73
    15
 74
    13
 42
0.000000001
 43
0.0000000001
 44
0.00000001
 40
0.0
 40
0.0
 40
0.0
 40
0.0
 40
0.2928435836074942
 40
0.6541484769442976
 40
1.110339587557264
 40
1.655938392505626
 40
2.26851259648811
 40
2.916610597671492
 40
3.564708598854903
 40
4.177282802837457
 40
4.722881607786329
 40
5.179072718399095
 40
5.540377611735915
 40
5.833221195343245
 40
5.833221195343245
 40
5.833221195343245
 40
5.833221195343245
 10
-914.3058796843193
 20
-1018.041720433183
 30
0.0
 10
-914.2064011001181
 20
-1018.0496874314
 30
0.0
 10
-913.9841877168219
 20
-1018.067483941496
 30
0.0
 10
-913.6546174039918
 20
-1017.860228399887
 30
0.0
 10
-913.3368554662675
 20
-1017.538393567929
 30
0.0
 10
-913.0355975743668
 20
-1017.087384504113
 30
0.0
 10
-912.7714414951225
 20
-1016.545370726794
 30
0.0
 10
-912.5609312392363
 20
-1015.943361161095
 30
0.0
 10
-912.4182211005455
 20
-1015.32177938744
 30
0.0
 10
-912.3528776596846
 20
-1014.722373344976
 30
0.0
 10
-912.3674279949228
 20
-1014.180198298685
 30
0.0
 10
-912.4647852405055
 20
-1013.738528880613
 30
0.0
 10
-912.633197927296
 20
-1013.387518029563
 30
0.0
 10
-912.8307090853721
 20
-1013.284150501185
 30
0.0
 10
-912.9191291937562
 20
-1013.23787581903
 30
0.0
 11
-914.3058796843193
 21
-1018.041720433183
 31
0.0
 11
-914.0130653106505
 21
-1018.037584180729
 31
0.0
 11
-913.6929535818458
 21
-1017.870044006143
 31
0.0
 11
-913.3673593354722
 21
-1017.550515111817
 31
0.0
 11
-913.0584711965249
 21
-1017.100774996625
 31
0.0
 11
-912.7873397928225
 21
-1016.55147096962
 31
0.0
 11
-912.5724415711155
 21
-1015.940038414491
 31
0.0
 11
-912.4284224507492
 21
-1015.308144825242
 31
0.0
 11
-912.3650959512433
 21
-1014.698852689549
 31
0.0
 11
-912.3867789212097
 21
-1014.153684914998
 31
0.0
 11
-912.4919924283076
 21
-1013.709792534454
 31
0.0
 11
-912.6735675543147
 21
-1013.397427839532
 31
0.0
 11
-912.9191291937562
 21
-1013.23787581903
 31
0.0
  0
SPLINE
  5
2B8
330
6A
100
AcDbEntity
  8
0
  6
Continuous
 62
     7
100
AcDbSpline
210
0.0
220
0.0
230
1.0
 70
     8
 71
     3
 72
    19
 73
    15
 74
    13
 42
0.000000001
 43
0.0000000001
 44
0.00000001
 40
0.0
 40
0.0
 40
0.0
 40
0.0
 40
0.2928435836074942
 40
0.654148476944034
 40
1.110339587557001
 40
1.655938392505831
 40
2.268512596488315
 40
2.916610597671804
 40
3.564708598855216
 40
4.177282802837656
 40
4.72288160778596
 40
5.179072718398727
 40
5.54037761173594
 40
5.833221195343332
 40
5.833221195343332
 40
5.833221195343332
 40
5.833221195343332
 10
-914.3058796843193
 20
-1023.367776666457
 30
0.0
 10
-914.2064011001181
 20
-1023.375743664674
 30
0.0
 10
-913.9841877168221
 20
-1023.39354017477
 30
0.0
 10
-913.6546174039916
 20
-1023.186284633161
 30
0.0
 10
-913.3368554662674
 20
-1022.864449801203
 30
0.0
 10
-913.0355975743671
 20
-1022.413440737388
 30
0.0
 10
-912.7714414951221
 20
-1021.871426960067
 30
0.0
 10
-912.5609312392365
 20
-1021.269417394369
 30
0.0
 10
-912.4182211005455
 20
-1020.647835620714
 30
0.0
 10
-912.3528776596845
 20
-1020.04842957825
 30
0.0
 10
-912.3674279949227
 20
-1019.506254531959
 30
0.0
 10
-912.4647852405058
 20
-1019.064585113887
 30
0.0
 10
-912.6331979272957
 20
-1018.713574262837
 30
0.0
 10
-912.8307090853721
 20
-1018.610206734459
 30
0.0
 10
-912.9191291937562
 20
-1018.563932052304
 30
0.0
 11
-914.3058796843193
 21
-1023.367776666457
 31
0.0
 11
-914.0130653106505
 21
-1023.363640414003
 31
0.0
 11
-913.6929535818458
 21
-1023.196100239418
 31
0.0
 11
-913.3673593354722
 21
-1022.876571345091
 31
0.0
 11
-913.0584711965249
 21
-1022.426831229899
 31
0.0
 11
-912.7873397928225
 21
-1021.877527202894
 31
0.0
 11
-912.5724415711155
 21
-1021.266094647765
 31
0.0
 11
-912.4284224507492
 21
-1020.634201058516
 31
0.0
 11
-912.3650959512433
 21
-1020.024908922823
 31
0.0
 11
-912.3867789212097
 21
-1019.479741148273
 31
0.0
 11
-912.4919924283076
 21
-1019.035848767729
 31
0.0
 11
-912.6735675543147
 21
-1018.723484072806
 31
0.0
 11
-912.9191291937562
 21
-1018.563932052304
 31
0.0
  0
SPLINE
  5
2B9
330
6A
100
AcDbEntity
  8
0
  6
Continuous
 62
     7
100
AcDbSpline
210
0.0
220
0.0
230
1.0
 70
     8
 71
     3
 72
    17
 73
    13
 74
    11
 42
0.000000001
 43
0.0000000001
 44
0.00000001
 40
0.0
 40
0.0
 40
0.0
 40
0.0
 40
0.4666752969624389
 40
1.014777282420682
 40
1.62124180494746
 40
2.255857763092741
 40
2.885392948043935
 40
3.477144560176139
 40
4.002576998494146
 40
4.441841186654225
 40
4.79113214211671
 40
5.076336276601962
 40
5.076336276601962
 40
5.076336276601962
 40
5.076336276601962
 10
-913.6125044390378
 20
-1013.474734616645
 30
0.0
 10
-913.7221183984083
 20
-1013.585744999267
 30
0.0
 10
-913.9604720327252
 20
-1013.827135142399
 30
0.0
 10
-914.242306352003
 20
-1014.292985050664
 30
0.0
 10
-914.4938451482051
 20
-1014.834188715372
 30
0.0
 10
-914.6890329845269
 20
-1015.428025938033
 30
0.0
 10
-914.818690874165
 20
-1016.034295044539
 30
0.0
 10
-914.8736452911905
 20
-1016.614810057849
 30
0.0
 10
-914.8522967098361
 20
-1017.137196922614
 30
0.0
 10
-914.7523177546058
 20
-1017.561823307327
 30
0.0
 10
-914.5842375027657
 20
-1017.898122336332
 30
0.0
 10
-914.3922000806803
 20
-1017.997189819929
 30
0.0
 10
-914.3058796843193
 20
-1018.041720433183
 30
0.0
 11
-913.6125044390378
 21
-1013.474734616645
 31
0.0
 11
-913.9282453519696
 21
-1013.818381965178
 31
0.0
 11
-914.2235091393919
 21
-1014.280155808584
 31
0.0
 11
-914.4791461605491
 21
-1014.83010938005
 31
0.0
 11
-914.6785778228935
 21
-1015.432574670452
 31
0.0
 11
-914.8088691974808
 21
-1016.048479457207
 31
0.0
 11
-914.8615712882264
 21
-1016.637879541633
 31
0.0
 11
-914.8332650331221
 21
-1017.162548963687
 31
0.0
 11
-914.72578732168
 21
-1017.58846159261
 31
0.0
 11
-914.5461075460773
 21
-1017.887993472464
 31
0.0
 11
-914.3058796843193
 21
-1018.041720433183
 31
0.0
  0
SPLINE
  5
2BA
330
6A
100
AcDbEntity
  8
0
  6
Continuous
 62
     7
100
AcDbSpline
210
0.0
220
0.0
230
1.0
 70
     8
 71
     3
 72
    11
 73
     7
 74
     5
 42
0.000000001
 43
0.0000000001
 44
0.00000001
 40
0.0
 40
0.0
 40
0.0
 40
0.0
 40
0.1608365245274609
 40
0.3355296602496627
 40
0.534067641934926
 40
0.7616715673537574
 40
0.7616715673537574
 40
0.7616715673537574
 40
0.7616715673537574
 10
-912.9191291937562
 20
-1018.563932052304
 30
0.0
 10
-912.9723889079619
 20
-1018.55435757867
 30
0.0
 10
-913.0834968425759
 20
-1018.53438377278
 30
0.0
 10
-913.2606184399388
 20
-1018.576378348244
 30
0.0
 10
-913.4419819765711
 20
-1018.663930899588
 30
0.0
 10
-913.5531364429862
 20
-1018.753142569831
 30
0.0
 10
-913.6125044390378
 20
-1018.800790849919
 30
0.0
 11
-912.9191291937562
 21
-1018.563932052304
 31
0.0
 11
-913.0789472316828
 21
-1018.545860438432
 31
0.0
 11
-913.2502742531773
 21
-1018.57998879466
 31
0.0
 11
-913.4294146967102
 21
-1018.665581041286
 31
0.0
 11
-913.6125044390378
 21
-1018.800790849919
 31
0.0
  0
SPLINE
  5
2BB
330
6A
100
AcDbEntity
  8
0
  6
Continuous
 62
     7
100
AcDbSpline
210
0.0
220
0.0
230
1.0
 70
     8
 71
     3
 72
    17
 73
    13
 74
    11
 42
0.000000001
 43
0.0000000001
 44
0.00000001
 40
0.0
 40
0.0
 40
0.0
 40
0.0
 40
0.4666752969627738
 40
1.014777282421113
 40
1.621241804947787
 40
2.255857763093176
 40
2.885392948043815
 40
3.477144560176358
 40
4.002576998494252
 40
4.441841186654219
 40
4.791132142116704
 40
5.076336276601896
 40
5.076336276601896
 40
5.076336276601896
 40
5.076336276601896
 10
-913.6125044390378
 20
-1018.800790849919
 30
0.0
 10
-913.7221183984085
 20
-1018.911801232541
 30
0.0
 10
-913.9604720327253
 20
-1019.153191375674
 30
0.0
 10
-914.2423063520026
 20
-1019.619041283938
 30
0.0
 10
-914.4938451482054
 20
-1020.160244948647
 30
0.0
 10
-914.6890329845268
 20
-1020.754082171307
 30
0.0
 10
-914.8186908741652
 20
-1021.360351277813
 30
0.0
 10
-914.8736452911904
 20
-1021.940866291123
 30
0.0
 10
-914.8522967098361
 20
-1022.463253155889
 30
0.0
 10
-914.7523177546057
 20
-1022.887879540601
 30
0.0
 10
-914.5842375027657
 20
-1023.224178569607
 30
0.0
 10
-914.3922000806799
 20
-1023.323246053203
 30
0.0
 10
-914.3058796843193
 20
-1023.367776666457
 30
0.0
 11
-913.6125044390378
 21
-1018.800790849919
 31
0.0
 11
-913.9282453519696
 21
-1019.144438198453
 31
0.0
 11
-914.2235091393919
 21
-1019.606212041858
 31
0.0
 11
-914.4791461605491
 21
-1020.156165613324
 31
0.0
 11
-914.6785778228935
 21
-1020.758630903726
 31
0.0
 11
-914.8088691974808
 21
-1021.374535690481
 31
0.0
 11
-914.8615712882264
 21
-1021.963935774907
 31
0.0
 11
-914.8332650331221
 21
-1022.488605196961
 31
0.0
 11
-914.72578732168
 21
-1022.914517825885
 31
0.0
 11
-914.5461075460773
 21
-1023.214049705738
 31
0.0
 11
-914.3058796843193
 21
-1023.367776666457
 31
0.0
  0
SPLINE
  5
2BC
330
6A
100
AcDbEntity
  8
0
  6
Continuous
 62
     7
100
AcDbSpline
210
0.0
220
0.0
230
1.0
 70
     8
 71
     3
 72
    11
 73
     7
 74
     5
 42
0.000000001
 43
0.0000000001
 44
0.00000001
 40
0.0
 40
0.0
 40
0.0
 40
0.0
 40
0.1608365245274737
 40
0.3355296602496755
 40
0.5340676419349878
 40
0.7616715673538192
 40
0.7616715673538192
 40
0.7616715673538192
 40
0.7616715673538192
 10
-912.9191291937562
 20
-1013.23787581903
 30
0.0
 10
-912.9723889079621
 20
-1013.228301345395
 30
0.0
 10
-913.0834968425758
 20
-1013.208327539506
 30
0.0
 10
-913.260618439939
 20
-1013.250322114969
 30
0.0
 10
-913.441981976571
 20
-1013.337874666315
 30
0.0
 10
-913.5531364429862
 20
-1013.427086336557
 30
0.0
 10
-913.6125044390378
 20
-1013.474734616645
 30
0.0
 11
-912.9191291937562
 21
-1013.23787581903
 31
0.0
 11
-913.0789472316828
 21
-1013.219804205158
 31
0.0
 11
-913.2502742531773
 21
-1013.253932561386
 31
0.0
 11
-913.4294146967102
 21
-1013.339524808012
 31
0.0
 11
-913.6125044390378
 21
-1013.474734616645
 31
0.0
  0
SPLINE
  5
2BD
330
6A
100
AcDbEntity
  8
0
  6
Continuous
 62
     7
100
AcDbSpline
210
0.0
220
0.0
230
1.0
 70
     8
 71
     3
 72
    11
 73
     7
 74
     5
 42
0.000000001
 43
0.0000000001
 44
0.00000001
 40
0.0
 40
0.0
 40
0.0
 40
0.0
 40
0.1608365245275631
 40
0.3355296602497427
 40
0.534067641935251
 40
0.7616715673543526
 40
0.7616715673543526
 40
0.7616715673543526
 40
0.7616715673543526
 10
-912.9191291937562
 20
-1023.889988285579
 30
0.0
 10
-912.9723889079621
 20
-1023.880413811944
 30
0.0
 10
-913.0834968425755
 20
-1023.860440006054
 30
0.0
 10
-913.2606184399393
 20
-1023.902434581517
 30
0.0
 10
-913.4419819765704
 20
-1023.989987132863
 30
0.0
 10
-913.5531364429866
 20
-1024.079198803106
 30
0.0
 10
-913.6125044390378
 20
-1024.126847083194
 30
0.0
 11
-912.9191291937562
 21
-1023.889988285579
 31
0.0
 11
-913.0789472316828
 21
-1023.871916671706
 31
0.0
 11
-913.2502742531773
 21
-1023.906045027934
 31
0.0
 11
-913.4294146967102
 21
-1023.991637274561
 31
0.0
 11
-913.6125044390378
 21
-1024.126847083194
 31
0.0
  0
SPLINE
  5
2BE
330
6A
100
AcDbEntity
  8
0
  6
Continuous
 62
     7
100
AcDbSpline
210
0.0
220
0.0
230
1.0
 70
     8
 71
     3
 72
    17
 73
    13
 74
    11
 42
0.000000001
 43
0.0000000001
 44
0.00000001
 40
0.0
 40
0.0
 40
0.0
 40
0.0
 40
0.4666752969621878
 40
1.014777282421006
 40
1.621241804947474
 40
2.255857763092324
 40
2.885392948043073
 40
3.477144560175843
 40
4.002576998493737
 40
4.441841186653814
 40
4.791132142116299
 40
5.076336276601308
 40
5.076336276601308
 40
5.076336276601308
 40
5.076336276601308
 10
-913.6125044390378
 20
-1024.126847083194
 30
0.0
 10
-913.7221183984085
 20
-1024.237857465815
 30
0.0
 10
-913.9604720327256
 20
-1024.479247608948
 30
0.0
 10
-914.2423063520026
 20
-1024.945097517213
 30
0.0
 10
-914.4938451482053
 20
-1025.486301181921
 30
0.0
 10
-914.6890329845269
 20
-1026.080138404581
 30
0.0
 10
-914.8186908741652
 20
-1026.686407511088
 30
0.0
 10
-914.8736452911905
 20
-1027.266922524397
 30
0.0
 10
-914.8522967098361
 20
-1027.789309389163
 30
0.0
 10
-914.7523177546058
 20
-1028.213935773875
 30
0.0
 10
-914.5842375027657
 20
-1028.550234802881
 30
0.0
 10
-914.39220008068
 20
-1028.649302286477
 30
0.0
 10
-914.3058796843193
 20
-1028.693832899731
 30
0.0
 11
-913.6125044390378
 21
-1024.126847083194
 31
0.0
 11
-913.9282453519696
 21
-1024.470494431727
 31
0.0
 11
-914.2235091393919
 21
-1024.932268275133
 31
0.0
 11
-914.4791461605491
 21
-1025.482221846599
 31
0.0
 11
-914.6785778228935
 21
-1026.084687137
 31
0.0
 11
-914.8088691974808
 21
-1026.700591923755
 31
0.0
 11
-914.8615712882264
 21
-1027.289992008182
 31
0.0
 11
-914.8332650331221
 21
-1027.814661430235
 31
0.0
 11
-914.72578732168
 21
-1028.240574059159
 31
0.0
 11
-914.5461075460773
 21
-1028.540105939012
 31
0.0
 11
-914.3058796843193
 21
-1028.693832899731
 31
0.0
  0
SPLINE
  5
2BF
330
6A
100
AcDbEntity
  8
0
  6
Continuous
 62
     7
100
AcDbSpline
210
0.0
220
0.0
230
1.0
 70
     8
 71
     3
 72
    17
 73
    13
 74
    11
 42
0.000000001
 43
0.0000000001
 44
0.00000001
 40
0.0
 40
0.0
 40
0.0
 40
0.0
 40
0.4666752969626901
 40
1.014777282421125
 40
1.621241804947799
 40
2.255857763093296
 40
2.885392948043823
 40
3.47714456017614
 40
4.002576998494034
 40
4.441841186654333
 40
4.791132142116623
 40
5.076336276601875
 40
5.076336276601875
 40
5.076336276601875
 40
5.076336276601875
 10
-913.6125044390378
 20
-1034.778959549742
 30
0.0
 10
-913.7221183984085
 20
-1034.889969932364
 30
0.0
 10
-913.9604720327249
 20
-1035.131360075496
 30
0.0
 10
-914.2423063520031
 20
-1035.597209983762
 30
0.0
 10
-914.4938451482052
 20
-1036.13841364847
 30
0.0
 10
-914.6890329845266
 20
-1036.73225087113
 30
0.0
 10
-914.8186908741654
 20
-1037.338519977637
 30
0.0
 10
-914.8736452911903
 20
-1037.919034990945
 30
0.0
 10
-914.8522967098361
 20
-1038.441421855711
 30
0.0
 10
-914.7523177546059
 20
-1038.866048240424
 30
0.0
 10
-914.5842375027659
 20
-1039.20234726943
 30
0.0
 10
-914.3922000806799
 20
-1039.301414753026
 30
0.0
 10
-914.3058796843193
 20
-1039.34594536628
 30
0.0
 11
-913.6125044390378
 21
-1034.778959549742
 31
0.0
 11
-913.9282453519696
 21
-1035.122606898276
 31
0.0
 11
-914.2235091393919
 21
-1035.584380741681
 31
0.0
 11
-914.4791461605491
 21
-1036.134334313147
 31
0.0
 11
-914.6785778228935
 21
-1036.73679960355
 31
0.0
 11
-914.8088691974808
 21
-1037.352704390304
 31
0.0
 11
-914.8615712882264
 21
-1037.94210447473
 31
0.0
 11
-914.8332650331221
 21
-1038.466773896783
 31
0.0
 11
-914.72578732168
 21
-1038.892686525708
 31
0.0
 11
-914.5461075460773
 21
-1039.192218405561
 31
0.0
 11
-914.3058796843193
 21
-1039.34594536628
 31
0.0
  0
SPLINE
  5
2C0
330
6A
100
AcDbEntity
  8
0
  6
Continuous
 62
     7
100
AcDbSpline
210
0.0
220
0.0
230
1.0
 70
     8
 71
     3
 72
    19
 73
    15
 74
    13
 42
0.000000001
 43
0.0000000001
 44
0.00000001
 40
0.0
 40
0.0
 40
0.0
 40
0.0
 40
0.2928435836074926
 40
0.6541484769441905
 40
1.110339587556998
 40
1.655938392505735
 40
2.268512596488321
 40
2.916610597671703
 40
3.564708598855114
 40
4.177282802837656
 40
4.722881607786411
 40
5.179072718399398
 40
5.540377611736218
 40
5.833221195343486
 40
5.833221195343486
 40
5.833221195343486
 40
5.833221195343486
 10
-914.3058796843193
 20
-1039.34594536628
 30
0.0
 10
-914.2064011001178
 20
-1039.353912364497
 30
0.0
 10
-913.9841877168221
 20
-1039.371708874593
 30
0.0
 10
-913.6546174039918
 20
-1039.164453332984
 30
0.0
 10
-913.3368554662671
 20
-1038.842618501026
 30
0.0
 10
-913.035597574367
 20
-1038.391609437211
 30
0.0
 10
-912.7714414951225
 20
-1037.849595659891
 30
0.0
 10
-912.5609312392364
 20
-1037.247586094193
 30
0.0
 10
-912.4182211005458
 20
-1036.626004320537
 30
0.0
 10
-912.3528776596845
 20
-1036.026598278073
 30
0.0
 10
-912.367427994923
 20
-1035.484423231782
 30
0.0
 10
-912.4647852405055
 20
-1035.04275381371
 30
0.0
 10
-912.6331979272959
 20
-1034.691742962659
 30
0.0
 10
-912.8307090853717
 20
-1034.588375434282
 30
0.0
 10
-912.9191291937562
 20
-1034.542100752127
 30
0.0
 11
-914.3058796843193
 21
-1039.34594536628
 31
0.0
 11
-914.0130653106505
 21
-1039.341809113826
 31
0.0
 11
-913.6929535818458
 21
-1039.17426893924
 31
0.0
 11
-913.3673593354722
 21
-1038.854740044914
 31
0.0
 11
-913.0584711965249
 21
-1038.404999929722
 31
0.0
 11
-912.7873397928225
 21
-1037.855695902717
 31
0.0
 11
-912.5724415711155
 21
-1037.244263347588
 31
0.0
 11
-912.4284224507492
 21
-1036.612369758339
 31
0.0
 11
-912.3650959512435
 21
-1036.003077622646
 31
0.0
 11
-912.3867789212097
 21
-1035.457909848095
 31
0.0
 11
-912.4919924283076
 21
-1035.014017467551
 31
0.0
 11
-912.6735675543147
 21
-1034.701652772628
 31
0.0
 11
-912.9191291937562
 21
-1034.542100752127
 31
0.0
  0
SPLINE
  5
2C1
330
6A
100
AcDbEntity
  8
0
  6
Continuous
 62
     7
100
AcDbSpline
210
0.0
220
0.0
230
1.0
 70
     8
 71
     3
 72
    13
 73
     9
 74
     7
 42
0.000000001
 43
0.0000000001
 44
0.00000001
 40
0.0
 40
0.0
 40
0.0
 40
0.0
 40
0.1945114690510628
 40
0.3987541203661573
 40
0.607435882767871
 40
0.8144203259659538
 40
1.0138884451647
 40
1.201509508777475
 40
1.201509508777475
 40
1.201509508777475
 40
1.201509508777475
 10
-948.9446748636034
 20
-1062.836112709082
 30
0.0
 10
-949.0057657359536
 20
-1062.813611985226
 30
0.0
 10
-949.1310037800948
 20
-1062.767484838859
 30
0.0
 10
-949.2964468745706
 20
-1062.646839987166
 30
0.0
 10
-949.4398043484697
 20
-1062.496538538395
 30
0.0
 10
-949.5490355152683
 20
-1062.321806135717
 30
0.0
 10
-949.6224275725277
 20
-1062.135169472217
 30
0.0
 10
-949.6325761878034
 20
-1062.005932966357
 30
0.0
 10
-949.637495186631
 20
-1061.943292386054
 30
0.0
 11
-948.9446748636034
 21
-1062.836112709082
 31
0.0
 11
-949.1239899102305
 21
-1062.760741455408
 31
0.0
 11
-949.2910850251171
 21
-1062.643292386054
 31
0.0
 11
-949.4345726815504
 21
-1062.491768885468
 31
0.0
 11
-949.5446748636034
 21
-1062.316497466811
 31
0.0
 11
-949.6138877281776
 21
-1062.129422318927
 31
0.0
 11
-949.637495186631
 21
-1061.943292386054
 31
0.0
  0
SPLINE
  5
2C2
330
6A
100
AcDbEntity
  8
0
  6
Continuous
 62
     7
100
AcDbSpline
210
0.0
220
0.0
230
1.0
 70
     8
 71
     3
 72
     9
 73
     5
 74
     3
 42
0.000000001
 43
0.0000000001
 44
0.00000001
 40
0.0
 40
0.0
 40
0.0
 40
0.0
 40
0.0833060509458756
 40
0.1678252479897726
 40
0.1678252479897726
 40
0.1678252479897726
 40
0.1678252479897726
 10
-948.3704912353902
 20
-1062.762602289822
 30
0.0
 10
-948.3502869283765
 20
-1062.743346689939
 30
0.0
 10
-948.3095841036384
 20
-1062.704555067007
 30
0.0
 10
-948.2808011949109
 20
-1062.656247565911
 30
0.0
 10
-948.2663057181795
 20
-1062.631919211031
 30
0.0
 11
-948.3704912353902
 21
-1062.762602289822
 31
0.0
 11
-948.3128153737591
 21
-1062.702490782931
 31
0.0
 11
-948.2663057181795
 21
-1062.631919211031
 31
0.0
  0
SPLINE
  5
2C3
330
6A
100
AcDbEntity
  8
0
  6
Continuous
 62
     7
100
AcDbSpline
210
0.0
220
0.0
230
1.0
 70
     8
 71
     3
 72
    11
 73
     7
 74
     5
 42
0.000000001
 43
0.0000000001
 44
0.00000001
 40
0.0
 40
0.0
 40
0.0
 40
0.0
 40
0.1497129525551209
 40
0.290429019822027
 40
0.4236305544430727
 40
0.5525148435995212
 40
0.5525148435995212
 40
0.5525148435995212
 40
0.5525148435995212
 10
-948.8942141719566
 20
-1062.850679456034
 30
0.0
 10
-948.8453656802756
 20
-1062.861944096557
 30
0.0
 10
-948.7506042073123
 20
-1062.883796423263
 30
0.0
 10
-948.6081525652435
 20
-1062.87663883665
 30
0.0
 10
-948.4765729851418
 20
-1062.839895457147
 30
0.0
 10
-948.4054613506291
 20
-1062.788082182557
 30
0.0
 10
-948.3704912353902
 20
-1062.762602289822
 30
0.0
 11
-948.8942141719566
 21
-1062.850679456034
 31
0.0
 11
-948.7468982661293
 21
-1062.877362637284
 31
0.0
 11
-948.6063198874874
 21
-1062.871139158571
 31
0.0
 11
-948.4789085109836
 21
-1062.832293428816
 31
0.0
 11
-948.3704912353902
 21
-1062.762602289822
 31
0.0
  0
SPLINE
  5
2C4
330
6A
100
AcDbEntity
  8
0
  6
Continuous
 62
     7
100
AcDbSpline
210
0.0
220
0.0
230
1.0
 70
     8
 71
     3
 72
    19
 73
    15
 74
    13
 42
0.000000001
 43
0.0000000001
 44
0.00000001
 40
0.0
 40
0.0
 40
0.0
 40
0.0
 40
0.2928435836074958
 40
0.6541484769440882
 40
1.110339587557055
 40
1.655938392505979
 40
2.268512596488361
 40
2.916610597671529
 40
3.56470859885494
 40
4.177282802837707
 40
4.722881607786462
 40
5.179072718399229
 40
5.540377611736048
 40
5.833221195343317
 40
5.833221195343317
 40
5.833221195343317
 40
5.833221195343317
 10
-914.3058796843193
 20
-1055.324114066103
 30
0.0
 10
-914.2064011001181
 20
-1055.33208106432
 30
0.0
 10
-913.9841877168221
 20
-1055.349877574416
 30
0.0
 10
-913.6546174039909
 20
-1055.142622032807
 30
0.0
 10
-913.3368554662675
 20
-1054.820787200849
 30
0.0
 10
-913.0355975743671
 20
-1054.369778137033
 30
0.0
 10
-912.7714414951225
 20
-1053.827764359714
 30
0.0
 10
-912.5609312392365
 20
-1053.225754794016
 30
0.0
 10
-912.4182211005455
 20
-1052.60417302036
 30
0.0
 10
-912.3528776596849
 20
-1052.004766977896
 30
0.0
 10
-912.3674279949225
 20
-1051.462591931605
 30
0.0
 10
-912.4647852405058
 20
-1051.020922513533
 30
0.0
 10
-912.633197927296
 20
-1050.669911662483
 30
0.0
 10
-912.8307090853717
 20
-1050.566544134105
 30
0.0
 10
-912.9191291937562
 20
-1050.52026945195
 30
0.0
 11
-914.3058796843193
 21
-1055.324114066103
 31
0.0
 11
-914.0130653106505
 21
-1055.319977813649
 31
0.0
 11
-913.6929535818458
 21
-1055.152437639063
 31
0.0
 11
-913.3673593354722
 21
-1054.832908744737
 31
0.0
 11
-913.0584711965249
 21
-1054.383168629545
 31
0.0
 11
-912.7873397928225
 21
-1053.83386460254
 31
0.0
 11
-912.5724415711155
 21
-1053.222432047411
 31
0.0
 11
-912.4284224507492
 21
-1052.590538458162
 31
0.0
 11
-912.3650959512435
 21
-1051.981246322469
 31
0.0
 11
-912.3867789212097
 21
-1051.436078547918
 31
0.0
 11
-912.4919924283076
 21
-1050.992186167374
 31
0.0
 11
-912.6735675543147
 21
-1050.679821472452
 31
0.0
 11
-912.9191291937562
 21
-1050.52026945195
 31
0.0
  0
SPLINE
  5
2C5
330
6A
100
AcDbEntity
  8
0
  6
Continuous
 62
     7
100
AcDbSpline
210
0.0
220
0.0
230
1.0
 70
     8
 71
     3
 72
    19
 73
    15
 74
    13
 42
0.000000001
 43
0.0000000001
 44
0.00000001
 40
0.0
 40
0.0
 40
0.0
 40
0.0
 40
0.2928435836074958
 40
0.6541484769440882
 40
1.110339587556896
 40
1.655938392505633
 40
2.268512596487964
 40
2.916610597671561
 40
3.564708598854997
 40
4.177282802837539
 40
4.722881607785839
 40
5.179072718398605
 40
5.540377611735818
 40
5.83322119534321
 40
5.83322119534321
 40
5.83322119534321
 40
5.83322119534321
 10
-914.3058796843193
 20
-1060.650170299377
 30
0.0
 10
-914.2064011001181
 20
-1060.658137297594
 30
0.0
 10
-913.984187716822
 20
-1060.675933807689
 30
0.0
 10
-913.6546174039916
 20
-1060.468678266081
 30
0.0
 10
-913.336855466267
 20
-1060.146843434123
 30
0.0
 10
-913.0355975743672
 20
-1059.695834370308
 30
0.0
 10
-912.7714414951222
 20
-1059.153820592988
 30
0.0
 10
-912.5609312392369
 20
-1058.55181102729
 30
0.0
 10
-912.4182211005455
 20
-1057.930229253634
 30
0.0
 10
-912.3528776596845
 20
-1057.33082321117
 30
0.0
 10
-912.3674279949231
 20
-1056.78864816488
 30
0.0
 10
-912.4647852405058
 20
-1056.346978746808
 30
0.0
 10
-912.6331979272959
 20
-1055.995967895757
 30
0.0
 10
-912.8307090853718
 20
-1055.892600367379
 30
0.0
 10
-912.9191291937562
 20
-1055.846325685224
 30
0.0
 11
-914.3058796843193
 21
-1060.650170299377
 31
0.0
 11
-914.0130653106505
 21
-1060.646034046923
 31
0.0
 11
-913.6929535818458
 21
-1060.478493872337
 31
0.0
 11
-913.3673593354722
 21
-1060.158964978011
 31
0.0
 11
-913.0584711965249
 21
-1059.709224862819
 31
0.0
 11
-912.7873397928226
 21
-1059.159920835814
 31
0.0
 11
-912.5724415711156
 21
-1058.548488280685
 31
0.0
 11
-912.4284224507492
 21
-1057.916594691436
 31
0.0
 11
-912.3650959512435
 21
-1057.307302555743
 31
0.0
 11
-912.3867789212097
 21
-1056.762134781193
 31
0.0
 11
-912.4919924283076
 21
-1056.318242400649
 31
0.0
 11
-912.6735675543147
 21
-1056.005877705726
 31
0.0
 11
-912.9191291937562
 21
-1055.846325685224
 31
0.0
  0
SPLINE
  5
2C6
330
6A
100
AcDbEntity
  8
0
  6
Continuous
 62
     7
100
AcDbSpline
210
0.0
220
0.0
230
1.0
 70
     8
 71
     3
 72
    17
 73
    13
 74
    11
 42
0.000000001
 43
0.0000000001
 44
0.00000001
 40
0.0
 40
0.0
 40
0.0
 40
0.0
 40
0.4666752969626901
 40
1.014777282421125
 40
1.621241804947799
 40
2.255857763093296
 40
2.885392948043823
 40
3.477144560176593
 40
4.002576998494487
 40
4.441841186654345
 40
4.79113214211683
 40
5.07633627660196
 40
5.07633627660196
 40
5.07633627660196
 40
5.07633627660196
 10
-913.6125044390378
 20
-1056.083184482839
 30
0.0
 10
-913.7221183984085
 20
-1056.194194865461
 30
0.0
 10
-913.9604720327249
 20
-1056.435585008593
 30
0.0
 10
-914.2423063520031
 20
-1056.901434916859
 30
0.0
 10
-914.4938451482052
 20
-1057.442638581566
 30
0.0
 10
-914.6890329845268
 20
-1058.036475804227
 30
0.0
 10
-914.8186908741654
 20
-1058.642744910733
 30
0.0
 10
-914.8736452911903
 20
-1059.223259924043
 30
0.0
 10
-914.8522967098361
 20
-1059.745646788809
 30
0.0
 10
-914.7523177546054
 20
-1060.170273173521
 30
0.0
 10
-914.5842375027659
 20
-1060.506572202526
 30
0.0
 10
-914.3922000806801
 20
-1060.605639686123
 30
0.0
 10
-914.3058796843193
 20
-1060.650170299377
 30
0.0
 11
-913.6125044390378
 21
-1056.083184482839
 31
0.0
 11
-913.9282453519696
 21
-1056.426831831373
 31
0.0
 11
-914.2235091393919
 21
-1056.888605674778
 31
0.0
 11
-914.4791461605491
 21
-1057.438559246244
 31
0.0
 11
-914.6785778228935
 21
-1058.041024536647
 31
0.0
 11
-914.8088691974808
 21
-1058.656929323401
 31
0.0
 11
-914.8615712882264
 21
-1059.246329407827
 31
0.0
 11
-914.8332650331221
 21
-1059.770998829881
 31
0.0
 11
-914.72578732168
 21
-1060.196911458805
 31
0.0
 11
-914.5461075460773
 21
-1060.496443338658
 31
0.0
 11
-914.3058796843193
 21
-1060.650170299377
 31
0.0
  0
SPLINE
  5
2C7
330
6A
100
AcDbEntity
  8
0
  6
Continuous
 62
     7
100
AcDbSpline
210
0.0
220
0.0
230
1.0
 70
     8
 71
     3
 72
    11
 73
     7
 74
     5
 42
0.000000001
 43
0.0000000001
 44
0.00000001
 40
0.0
 40
0.0
 40
0.0
 40
0.0
 40
0.1608365245274737
 40
0.33552966024972
 40
0.5340676419349832
 40
0.7616715673537472
 40
0.7616715673537472
 40
0.7616715673537472
 40
0.7616715673537472
 10
-912.9191291937562
 20
-1055.846325685224
 30
0.0
 10
-912.9723889079623
 20
-1055.83675121159
 30
0.0
 10
-913.0834968425759
 20
-1055.8167774057
 30
0.0
 10
-913.2606184399386
 20
-1055.858771981163
 30
0.0
 10
-913.4419819765708
 20
-1055.946324532508
 30
0.0
 10
-913.5531364429862
 20
-1056.035536202751
 30
0.0
 10
-913.6125044390378
 20
-1056.083184482839
 30
0.0
 11
-912.9191291937562
 21
-1055.846325685224
 31
0.0
 11
-913.0789472316828
 21
-1055.828254071352
 31
0.0
 11
-913.2502742531773
 21
-1055.86238242758
 31
0.0
 11
-913.4294146967102
 21
-1055.947974674206
 31
0.0
 11
-913.6125044390378
 21
-1056.083184482839
 31
0.0
  0
SPLINE
  5
2C8
330
6A
100
AcDbEntity
  8
0
  6
Continuous
 62
     7
100
AcDbSpline
210
0.0
220
0.0
230
1.0
 70
     8
 71
     3
 72
    19
 73
    15
 74
    13
 42
0.000000001
 43
0.0000000001
 44
0.00000001
 40
0.0
 40
0.0
 40
0.0
 40
0.0
 40
0.2928435836074861
 40
0.6541484769440786
 40
1.110339587557045
 40
1.655938392505595
 40
2.268512596488384
 40
2.916610597671766
 40
3.564708598855177
 40
4.177282802837719
 40
4.722881607786246
 40
5.179072718399455
 40
5.540377611735882
 40
5.833221195343151
 40
5.833221195343151
 40
5.833221195343151
 40
5.833221195343151
 10
-914.3058796843193
 20
-1049.998057832828
 30
0.0
 10
-914.2064011001181
 20
-1050.006024831045
 30
0.0
 10
-913.984187716822
 20
-1050.023821341141
 30
0.0
 10
-913.6546174039914
 20
-1049.816565799533
 30
0.0
 10
-913.3368554662674
 20
-1049.494730967574
 30
0.0
 10
-913.035597574367
 20
-1049.043721903759
 30
0.0
 10
-912.7714414951222
 20
-1048.501708126439
 30
0.0
 10
-912.5609312392363
 20
-1047.899698560741
 30
0.0
 10
-912.4182211005461
 20
-1047.278116787086
 30
0.0
 10
-912.3528776596844
 20
-1046.678710744621
 30
0.0
 10
-912.3674279949232
 20
-1046.136535698331
 30
0.0
 10
-912.4647852405053
 20
-1045.694866280258
 30
0.0
 10
-912.6331979272964
 20
-1045.343855429209
 30
0.0
 10
-912.830709085372
 20
-1045.240487900831
 30
0.0
 10
-912.9191291937562
 20
-1045.194213218676
 30
0.0
 11
-914.3058796843193
 21
-1049.998057832828
 31
0.0
 11
-914.0130653106505
 21
-1049.993921580374
 31
0.0
 11
-913.6929535818458
 21
-1049.826381405789
 31
0.0
 11
-913.3673593354722
 21
-1049.506852511463
 31
0.0
 11
-913.0584711965249
 21
-1049.057112396271
 31
0.0
 11
-912.7873397928225
 21
-1048.507808369266
 31
0.0
 11
-912.5724415711155
 21
-1047.896375814136
 31
0.0
 11
-912.4284224507492
 21
-1047.264482224888
 31
0.0
 11
-912.3650959512435
 21
-1046.655190089195
 31
0.0
 11
-912.3867789212097
 21
-1046.110022314644
 31
0.0
 11
-912.4919924283076
 21
-1045.666129934099
 31
0.0
 11
-912.6735675543147
 21
-1045.353765239177
 31
0.0
 11
-912.9191291937562
 21
-1045.194213218676
 31
0.0
  0
ENDBLK
  5
6C
330
6A
100
AcDbEntity
  8
0
100
AcDbBlockEnd
  0
BLOCK
  5
6F
330
6D
100
AcDbEntity
  8
0
100
AcDbBlockBegin
  2
Allg1
 70
     0
 10
-930.99999999995
 20
-1033.000000000028
 30
0.0
  3
Allg1
  1

  0
INSERT
  5
6E
330
6D
100
AcDbEntity
  8
0
100
AcDbBlockReference
  2
BUG_10-select__6
 10
-949.637495186631
 20
-1072.386112709082
 30
0.0
  0
MTEXT
  5
2C9
330
6D
100
AcDbEntity
  8
1
 62
     6
100
AcDbMText
 10
-930.99999999995
 20
-1078.252137249079
 30
0.0
 40
5.0
 41
0.0
 71
     2
 72
     1
  1
 
  7
CONVERTER_11
 73
     1
 44
1.32052821128451
  0
ENDBLK
  5
70
330
6D
100
AcDbEntity
  8
0
100
AcDbBlockEnd
  0
BLOCK
  5
72
330
71
100
AcDbEntity
  8
0
100
AcDbBlockBegin
  2
_rahmen
 70
     0
 10
-897.4743909118228
 20
-1111.062519500804
 30
0.0
  3
_rahmen
  1

  0
LINE
  5
2CA
330
71
100
AcDbEntity
  8
1
  6
Continuous
 62
     6
100
AcDbLine
 10
-1027.019195438573
 20
-1080.562519500804
 30
0.0
 11
-897.474390911821
 21
-1080.562519500804
 31
0.0
  0
LINE
  5
2CB
330
71
100
AcDbEntity
  8
1
  6
Continuous
 62
     7
100
AcDbLine
 10
-1008.819195438573
 20
-1101.812519500804
 30
0.0
 11
-990.6191954385729
 21
-1101.812519500804
 31
0.0
  0
LINE
  5
2CC
330
71
100
AcDbEntity
  8
1
  6
Continuous
 62
     6
100
AcDbLine
 10
-1008.819195438573
 20
-1106.062519500804
 30
0.0
 11
-1027.019195438573
 21
-1106.062519500804
 31
0.0
  0
LINE
  5
2CD
330
71
100
AcDbEntity
  8
1
  6
Continuous
 62
     7
100
AcDbLine
 10
-1008.819195438573
 20
-1101.812519500804
 30
0.0
 11
-1008.819195438573
 21
-1106.062519500804
 31
0.0
  0
LINE
  5
2CE
330
71
100
AcDbEntity
  8
1
  6
Continuous
 62
     7
100
AcDbLine
 10
-990.6191954385729
 20
-1101.812519500804
 30
0.0
 11
-990.6191954385729
 21
-1106.062519500804
 31
0.0
  0
LINE
  5
2CF
330
71
100
AcDbEntity
  8
1
  6
Continuous
 62
     7
100
AcDbLine
 10
-1027.019195438573
 20
-1101.812519500804
 30
0.0
 11
-1027.019195438573
 21
-1106.062519500804
 31
0.0
  0
LINE
  5
2D0
330
71
100
AcDbEntity
  8
1
  6
Continuous
 62
     7
100
AcDbLine
 10
-1027.019195438573
 20
-1101.812519500804
 30
0.0
 11
-1008.819195438573
 21
-1101.812519500804
 31
0.0
  0
LINE
  5
2D1
330
71
100
AcDbEntity
  8
1
  6
Continuous
 62
     2
100
AcDbLine
 10
-1017.78254055201
 20
-1082.437519500804
 30
0.0
 11
-1017.78254055201
 21
-1087.437519500804
 31
0.0
  0
LINE
  5
2D2
330
71
100
AcDbEntity
  8
1
  6
Continuous
 62
     2
100
AcDbLine
 10
-1017.78254055201
 20
-1087.437519500804
 30
0.0
 11
-1022.78254055201
 21
-1086.187519500804
 31
0.0
  0
LINE
  5
2D3
330
71
100
AcDbEntity
  8
1
  6
Continuous
 62
     2
100
AcDbLine
 10
-1022.78254055201
 20
-1086.187519500804
 30
0.0
 11
-1022.78254055201
 21
-1083.687519500804
 31
0.0
  0
LINE
  5
2D4
330
71
100
AcDbEntity
  8
1
  6
Continuous
 62
     2
100
AcDbLine
 10
-1022.78254055201
 20
-1083.687519500804
 30
0.0
 11
-1017.78254055201
 21
-1082.437519500804
 31
0.0
  0
LINE
  5
2D5
330
71
100
AcDbEntity
  8
1
  6
Continuous
 62
     6
100
AcDbLine
 10
-1149.474390911821
 20
-1106.062519500804
 30
0.0
 11
-1184.474390911821
 21
-1106.062519500804
 31
0.0
  0
LINE
  5
2D6
330
71
100
AcDbEntity
  8
1
  6
Continuous
 62
     6
100
AcDbLine
 10
-897.474390911821
 20
-1089.062519500804
 30
0.0
 11
-897.4743909118215
 21
-1097.562519500804
 31
0.0
  0
LINE
  5
2D7
330
71
100
AcDbEntity
  8
1
  6
Continuous
 62
     6
100
AcDbLine
 10
-990.6191954385729
 20
-1106.062519500804
 30
0.0
 11
-990.9743909118228
 21
-1106.062519500804
 31
0.0
  0
LINE
  5
2D8
330
71
100
AcDbEntity
  8
1
  6
Continuous
 62
     6
100
AcDbLine
 10
-1143.274390911823
 20
-1106.062519500804
 30
0.0
 11
-1149.474390911821
 21
-1106.062519500804
 31
0.0
  0
LINE
  5
2D9
330
71
100
AcDbEntity
  8
1
  6
Continuous
 62
     7
100
AcDbLine
 10
-990.6191954385729
 20
-1089.062519500804
 30
0.0
 11
-990.6191954385729
 21
-1101.812519500804
 31
0.0
  0
LINE
  5
2DA
330
71
100
AcDbEntity
  8
1
  6
Continuous
 62
     7
100
AcDbLine
 10
-1027.019195438573
 20
-1089.062519500804
 30
0.0
 11
-1027.019195438573
 21
-1101.812519500804
 31
0.0
  0
LINE
  5
2DB
330
71
100
AcDbEntity
  8
1
  6
Continuous
 62
     6
100
AcDbLine
 10
-1040.974390911823
 20
-1106.062519500804
 30
0.0
 11
-1090.974390911823
 21
-1106.062519500804
 31
0.0
  0
LINE
  5
2DC
330
71
100
AcDbEntity
  8
1
  6
Continuous
 62
     6
100
AcDbLine
 10
-1143.274390911823
 20
-1106.062519500804
 30
0.0
 11
-1140.974390911823
 21
-1106.062519500804
 31
0.0
  0
LINE
  5
2DD
330
71
100
AcDbEntity
  8
1
  6
Continuous
 62
     6
100
AcDbLine
 10
-990.6191954385729
 20
-1106.062519500804
 30
0.0
 11
-940.9743909118228
 21
-1106.062519500804
 31
0.0
  0
LINE
  5
2DE
330
71
100
AcDbEntity
  8
1
  6
Continuous
 62
     6
100
AcDbLine
 10
-897.4743909118228
 20
-1106.062519500804
 30
0.0
 11
-897.4743909118215
 21
-1097.562519500804
 31
0.0
  0
LINE
  5
2DF
330
71
100
AcDbEntity
  8
1
  6
Continuous
 62
     2
100
AcDbLine
 10
-1189.474390911822
 20
-1106.062519500804
 30
0.0
 11
-1189.474390911822
 21
-1111.062519500804
 31
0.0
  0
LINE
  5
2E0
330
71
100
AcDbEntity
  8
1
  6
Continuous
 62
     2
100
AcDbLine
 10
-1184.474390911821
 20
-1106.062519500804
 30
0.0
 11
-1189.474390911822
 21
-1106.062519500804
 31
0.0
  0
LINE
  5
2E1
330
71
100
AcDbEntity
  8
1
  6
Continuous
 62
     2
100
AcDbLine
 10
-1184.474390911821
 20
-1111.062519500804
 30
0.0
 11
-1140.974390911823
 21
-1111.062519500804
 31
0.0
  0
LINE
  5
2E2
330
71
100
AcDbEntity
  8
1
  6
Continuous
 62
     2
100
AcDbLine
 10
-1184.474390911821
 20
-1106.062519500804
 30
0.0
 11
-1184.474390911821
 21
-1111.062519500804
 31
0.0
  0
LINE
  5
2E3
330
71
100
AcDbEntity
  8
1
  6
Continuous
 62
     2
100
AcDbLine
 10
-940.9743909118228
 20
-1111.062519500804
 30
0.0
 11
-990.9743909118228
 21
-1111.062519500804
 31
0.0
  0
LINE
  5
2E4
330
71
100
AcDbEntity
  8
1
  6
Continuous
 62
     2
100
AcDbLine
 10
-940.9743909118228
 20
-1111.062519500804
 30
0.0
 11
-940.9743909118228
 21
-1106.062519500804
 31
0.0
  0
LINE
  5
2E5
330
71
100
AcDbEntity
  8
1
  6
Continuous
 62
     2
100
AcDbLine
 10
-990.9743909118228
 20
-1111.062519500804
 30
0.0
 11
-990.9743909118228
 21
-1106.062519500804
 31
0.0
  0
LINE
  5
2E6
330
71
100
AcDbEntity
  8
1
  6
Continuous
 62
     2
100
AcDbLine
 10
-1040.974390911823
 20
-1111.062519500804
 30
0.0
 11
-990.9743909118228
 21
-1111.062519500804
 31
0.0
  0
LINE
  5
2E7
330
71
100
AcDbEntity
  8
1
  6
Continuous
 62
     2
100
AcDbLine
 10
-1040.974390911823
 20
-1111.062519500804
 30
0.0
 11
-1040.974390911823
 21
-1106.062519500804
 31
0.0
  0
LINE
  5
2E8
330
71
100
AcDbEntity
  8
1
  6
Continuous
 62
     2
100
AcDbLine
 10
-1090.974390911823
 20
-1111.062519500804
 30
0.0
 11
-1040.974390911823
 21
-1111.062519500804
 31
0.0
  0
LINE
  5
2E9
330
71
100
AcDbEntity
  8
1
  6
Continuous
 62
     2
100
AcDbLine
 10
-1090.974390911823
 20
-1111.062519500804
 30
0.0
 11
-1090.974390911823
 21
-1106.062519500804
 31
0.0
  0
LINE
  5
2EA
330
71
100
AcDbEntity
  8
1
  6
Continuous
 62
     2
100
AcDbLine
 10
-1140.974390911823
 20
-1111.062519500804
 30
0.0
 11
-1090.974390911823
 21
-1111.062519500804
 31
0.0
  0
LINE
  5
2EB
330
71
100
AcDbEntity
  8
1
  6
Continuous
 62
     2
100
AcDbLine
 10
-1140.974390911823
 20
-1111.062519500804
 30
0.0
 11
-1140.974390911823
 21
-1106.062519500804
 31
0.0
  0
LINE
  5
2EC
330
71
100
AcDbEntity
  8
1
  6
Continuous
 62
     6
100
AcDbLine
 10
-1184.474390911821
 20
-1056.062519500804
 30
0.0
 11
-1184.474390911821
 21
-1106.062519500804
 31
0.0
  0
LINE
  5
2ED
330
71
100
AcDbEntity
  8
1
  6
Continuous
 62
     2
100
AcDbLine
 10
-1189.474390911822
 20
-1056.062519500804
 30
0.0
 11
-1189.474390911822
 21
-1106.062519500804
 31
0.0
  0
LINE
  5
2EE
330
71
100
AcDbEntity
  8
1
  6
Continuous
 62
     2
100
AcDbLine
 10
-1189.474390911822
 20
-1056.062519500804
 30
0.0
 11
-1184.474390911821
 21
-1056.062519500804
 31
0.0
  0
LINE
  5
2EF
330
71
100
AcDbEntity
  8
1
  6
Continuous
 62
     6
100
AcDbLine
 10
-1184.474390911821
 20
-1006.062519500804
 30
0.0
 11
-1184.474390911821
 21
-1056.062519500804
 31
0.0
  0
LINE
  5
2F0
330
71
100
AcDbEntity
  8
1
  6
Continuous
 62
     2
100
AcDbLine
 10
-1189.474390911822
 20
-1006.062519500804
 30
0.0
 11
-1189.474390911822
 21
-1056.062519500804
 31
0.0
  0
LINE
  5
2F1
330
71
100
AcDbEntity
  8
1
  6
Continuous
 62
     2
100
AcDbLine
 10
-1189.474390911822
 20
-1006.062519500804
 30
0.0
 11
-1184.474390911821
 21
-1006.062519500804
 31
0.0
  0
LINE
  5
2F2
330
71
100
AcDbEntity
  8
1
  6
Continuous
 62
     6
100
AcDbLine
 10
-1184.474390911822
 20
-956.0625195008042
 30
0.0
 11
-1184.474390911821
 21
-1006.062519500804
 31
0.0
  0
LINE
  5
2F3
330
71
100
AcDbEntity
  8
1
  6
Continuous
 62
     2
100
AcDbLine
 10
-1189.474390911822
 20
-956.0625195008042
 30
0.0
 11
-1189.474390911822
 21
-1006.062519500804
 31
0.0
  0
LINE
  5
2F4
330
71
100
AcDbEntity
  8
1
  6
Continuous
 62
     2
100
AcDbLine
 10
-1189.474390911822
 20
-956.0625195008042
 30
0.0
 11
-1184.474390911822
 21
-956.0625195008042
 31
0.0
  0
LINE
  5
2F5
330
71
100
AcDbEntity
  8
1
  6
Continuous
 62
     6
100
AcDbLine
 10
-1184.474390911822
 20
-921.0625195008042
 30
0.0
 11
-1184.474390911822
 21
-956.0625195008042
 31
0.0
  0
LINE
  5
2F6
330
71
100
AcDbEntity
  8
1
  6
Continuous
 62
     2
100
AcDbLine
 10
-1189.474390911822
 20
-901.0625195008042
 30
0.0
 11
-1189.474390911822
 21
-956.0625195008042
 31
0.0
  0
LINE
  5
2F7
330
71
100
AcDbEntity
  8
1
  6
Continuous
 62
     2
100
AcDbLine
 10
-1189.474390911822
 20
-1111.062519500804
 30
0.0
 11
-1184.474390911821
 21
-1111.062519500804
 31
0.0
  0
LINE
  5
2F8
330
71
100
AcDbEntity
  8
1
  6
Continuous
 62
     2
100
AcDbLine
 10
-1040.974390911823
 20
-901.0625195008042
 30
0.0
 11
-1040.974390911823
 21
-910.2712113455055
 31
0.0
  0
LINE
  5
2F9
330
71
100
AcDbEntity
  8
1
  6
Continuous
 62
     2
100
AcDbLine
 10
-1040.974390911823
 20
-901.0625195008042
 30
0.0
 11
-1189.474390911822
 21
-901.0625195008042
 31
0.0
  0
LINE
  5
2FA
330
71
100
AcDbEntity
  8
1
  6
Continuous
 62
     2
100
AcDbLine
 10
-892.4743909118238
 20
-1106.062519500804
 30
0.0
 11
-892.4743909118238
 21
-1056.062519500804
 31
0.0
  0
LINE
  5
2FB
330
71
100
AcDbEntity
  8
1
  6
Continuous
 62
     2
100
AcDbLine
 10
-892.4743909118238
 20
-956.0625195008042
 30
0.0
 11
-892.4743909118238
 21
-901.0625195008042
 31
0.0
  0
LINE
  5
2FC
330
71
100
AcDbEntity
  8
1
  6
Continuous
 62
     6
100
AcDbLine
 10
-897.4743909118235
 20
-956.0625195008042
 30
0.0
 11
-897.4743909118238
 21
-921.0625195008042
 31
0.0
  0
LINE
  5
2FD
330
71
100
AcDbEntity
  8
1
  6
Continuous
 62
     2
100
AcDbLine
 10
-897.4743909118235
 20
-956.0625195008042
 30
0.0
 11
-892.4743909118238
 21
-956.0625195008042
 31
0.0
  0
LINE
  5
2FE
330
71
100
AcDbEntity
  8
1
  6
Continuous
 62
     2
100
AcDbLine
 10
-892.4743909118238
 20
-1006.062519500804
 30
0.0
 11
-892.4743909118238
 21
-956.0625195008042
 31
0.0
  0
LINE
  5
2FF
330
71
100
AcDbEntity
  8
1
  6
Continuous
 62
     6
100
AcDbLine
 10
-897.4743909118224
 20
-1006.062519500804
 30
0.0
 11
-897.4743909118235
 21
-956.0625195008042
 31
0.0
  0
LINE
  5
300
330
71
100
AcDbEntity
  8
1
  6
Continuous
 62
     2
100
AcDbLine
 10
-897.4743909118224
 20
-1006.062519500804
 30
0.0
 11
-892.4743909118238
 21
-1006.062519500804
 31
0.0
  0
LINE
  5
301
330
71
100
AcDbEntity
  8
1
  6
Continuous
 62
     2
100
AcDbLine
 10
-892.4743909118238
 20
-1056.062519500804
 30
0.0
 11
-892.4743909118238
 21
-1006.062519500804
 31
0.0
  0
LINE
  5
302
330
71
100
AcDbEntity
  8
1
  6
Continuous
 62
     6
100
AcDbLine
 10
-897.4743909118218
 20
-1056.062519500804
 30
0.0
 11
-897.4743909118224
 21
-1006.062519500804
 31
0.0
  0
LINE
  5
303
330
71
100
AcDbEntity
  8
1
  6
Continuous
 62
     2
100
AcDbLine
 10
-897.4743909118218
 20
-1056.062519500804
 30
0.0
 11
-892.4743909118238
 21
-1056.062519500804
 31
0.0
  0
LINE
  5
304
330
71
100
AcDbEntity
  8
1
  6
Continuous
 62
     6
100
AcDbLine
 10
-897.4743909118238
 20
-921.0625195008042
 30
0.0
 11
-1184.474390911822
 21
-921.0625195008042
 31
0.0
  0
LINE
  5
305
330
71
100
AcDbEntity
  8
1
  6
Continuous
 62
     2
100
AcDbLine
 10
-892.4743909118238
 20
-901.0625195008042
 30
0.0
 11
-1040.974390911823
 21
-901.0625195008042
 31
0.0
  0
LINE
  5
306
330
71
100
AcDbEntity
  8
1
  6
Continuous
 62
     6
100
AcDbLine
 10
-897.474390911821
 20
-1089.062519500804
 30
0.0
 11
-897.4743909118218
 21
-1056.062519500804
 31
0.0
  0
LINE
  5
307
330
71
100
AcDbEntity
  8
1
  6
Continuous
 62
     2
100
AcDbLine
 10
-897.4743909118228
 20
-1111.062519500804
 30
0.0
 11
-940.9743909118228
 21
-1111.062519500804
 31
0.0
  0
LINE
  5
308
330
71
100
AcDbEntity
  8
1
  6
Continuous
 62
     2
100
AcDbLine
 10
-892.4743909118238
 20
-1111.062519500804
 30
0.0
 11
-897.4743909118228
 21
-1111.062519500804
 31
0.0
  0
LINE
  5
309
330
71
100
AcDbEntity
  8
1
  6
Continuous
 62
     2
100
AcDbLine
 10
-892.4743909118238
 20
-1111.062519500804
 30
0.0
 11
-892.4743909118238
 21
-1106.062519500804
 31
0.0
  0
LINE
  5
30A
330
71
100
AcDbEntity
  8
1
  6
Continuous
 62
     6
100
AcDbLine
 10
-1027.019195438573
 20
-1089.062519500804
 30
0.0
 11
-990.6191954385729
 21
-1089.062519500804
 31
0.0
  0
LINE
  5
30B
330
71
100
AcDbEntity
  8
1
  6
Continuous
 62
     2
100
AcDbLine
 10
-897.4743909118228
 20
-1106.062519500804
 30
0.0
 11
-897.4743909118228
 21
-1111.062519500804
 31
0.0
  0
LINE
  5
30C
330
71
100
AcDbEntity
  8
1
  6
Continuous
 62
     2
100
AcDbLine
 10
-897.4743909118228
 20
-1106.062519500804
 30
0.0
 11
-892.4743909118238
 21
-1106.062519500804
 31
0.0
  0
LINE
  5
30D
330
71
100
AcDbEntity
  8
1
  6
Continuous
 62
     6
100
AcDbLine
 10
-990.9743909118228
 20
-1106.062519500804
 30
0.0
 11
-1008.819195438573
 21
-1106.062519500804
 31
0.0
  0
LINE
  5
30E
330
71
100
AcDbEntity
  8
1
  6
Continuous
 62
     6
100
AcDbLine
 10
-940.9743909118228
 20
-1106.062519500804
 30
0.0
 11
-897.4743909118228
 21
-1106.062519500804
 31
0.0
  0
LINE
  5
30F
330
71
100
AcDbEntity
  8
1
  6
Continuous
 62
     6
100
AcDbLine
 10
-1090.974390911823
 20
-1106.062519500804
 30
0.0
 11
-1096.019195438573
 21
-1106.062519500804
 31
0.0
  0
LINE
  5
310
330
71
100
AcDbEntity
  8
1
  6
Continuous
 62
     6
100
AcDbLine
 10
-1040.974390911823
 20
-1106.062519500804
 30
0.0
 11
-1027.019195438573
 21
-1106.062519500804
 31
0.0
  0
LINE
  5
311
102
{ACAD_REACTORS
330
3FB
330
3FC
102
}
330
71
100
AcDbEntity
  8
0
  6
Continuous
 62
     2
100
AcDbLine
 10
-1019.504569496426
 20
-1093.990004744592
 30
0.0
 11
-1019.504569496426
 21
-1093.384469456085
 31
0.0
  0
LINE
  5
312
102
{ACAD_REACTORS
330
3FB
330
3FC
102
}
330
71
100
AcDbEntity
  8
0
  6
Continuous
 62
     2
100
AcDbLine
 10
-1019.504569496426
 20
-1096.790139351223
 30
0.0
 11
-1019.504569496426
 21
-1096.208287944528
 31
0.0
  0
LINE
  5
313
102
{ACAD_REACTORS
330
3FD
330
3FE
102
}
330
71
100
AcDbEntity
  8
0
  6
Continuous
 62
     2
100
AcDbLine
 10
-996.8750830609467
 20
-1096.500475283101
 30
0.0
 11
-996.8750830609467
 21
-1098.769019500788
 31
0.0
  0
LINE
  5
314
102
{ACAD_REACTORS
330
3FD
330
3FE
102
}
330
71
100
AcDbEntity
  8
0
  6
Continuous
 62
     2
100
AcDbLine
 10
-998.2561368399344
 20
-1095.715209976977
 30
0.0
 11
-994.8711913213057
 21
-1095.715209976977
 31
0.0
  0
LINE
  5
315
102
{ACAD_REACTORS
330
3FD
330
3FE
102
}
330
71
100
AcDbEntity
  8
0
  6
Continuous
 62
     2
100
AcDbLine
 10
-994.8711913213057
 20
-1096.500475283101
 30
0.0
 11
-994.8711913213057
 21
-1095.715209976977
 31
0.0
  0
LINE
  5
316
102
{ACAD_REACTORS
330
3FD
330
3FE
102
}
330
71
100
AcDbEntity
  8
0
  6
Continuous
 62
     2
100
AcDbLine
 10
-995.682290358779
 20
-1096.500475283101
 30
0.0
 11
-994.8711913213057
 21
-1096.500475283101
 31
0.0
  0
LINE
  5
317
102
{ACAD_REACTORS
330
3FD
330
3FE
102
}
330
71
100
AcDbEntity
  8
0
  6
Continuous
 62
     2
100
AcDbLine
 10
-995.682290358779
 20
-1098.769019500788
 30
0.0
 11
-995.682290358779
 21
-1096.500475283101
 31
0.0
  0
LINE
  5
318
102
{ACAD_REACTORS
330
3FD
330
3FE
102
}
330
71
100
AcDbEntity
  8
0
  6
Continuous
 62
     2
100
AcDbLine
 10
-996.8750830609467
 20
-1098.769019500788
 30
0.0
 11
-995.682290358779
 21
-1098.769019500788
 31
0.0
  0
LINE
  5
319
102
{ACAD_REACTORS
330
3F3
330
3F4
102
}
330
71
100
AcDbEntity
  8
0
  6
Continuous
 62
     2
100
AcDbLine
 10
-997.5716739990113
 20
-1092.356019500802
 30
0.0
 11
-998.9743982167606
 21
-1092.356019500802
 31
0.0
  0
LINE
  5
31A
102
{ACAD_REACTORS
330
3F3
330
3F4
102
}
330
71
100
AcDbEntity
  8
0
  6
Continuous
 62
     2
100
AcDbLine
 10
-997.5716739990113
 20
-1092.356019500802
 30
0.0
 11
-996.9705064771194
 21
-1093.035842822358
 31
0.0
  0
LINE
  5
31B
102
{ACAD_REACTORS
330
3F3
330
3F4
102
}
330
71
100
AcDbEntity
  8
0
  6
Continuous
 62
     2
100
AcDbLine
 10
-996.9705064771194
 20
-1093.035842822358
 30
0.0
 11
-996.3693389552267
 21
-1092.356019500802
 31
0.0
  0
LINE
  5
31C
102
{ACAD_REACTORS
330
3F3
330
3F4
102
}
330
71
100
AcDbEntity
  8
0
  6
Continuous
 62
     2
100
AcDbLine
 10
-996.269144368246
 20
-1093.828970030839
 30
0.0
 11
-994.9666147374794
 21
-1092.356019500802
 31
0.0
  0
LINE
  5
31D
102
{ACAD_REACTORS
330
3F3
330
3F4
102
}
330
71
100
AcDbEntity
  8
0
  6
Continuous
 62
     2
100
AcDbLine
 10
-996.269144368246
 20
-1093.828970030839
 30
0.0
 11
-994.8711913213057
 21
-1095.409829024614
 31
0.0
  0
LINE
  5
31E
102
{ACAD_REACTORS
330
3F3
330
3F4
102
}
330
71
100
AcDbEntity
  8
0
  6
Continuous
 62
     2
100
AcDbLine
 10
-996.273915539054
 20
-1095.409829024614
 30
0.0
 11
-994.8711913213057
 21
-1095.409829024614
 31
0.0
  0
LINE
  5
31F
102
{ACAD_REACTORS
330
3F3
330
3F4
102
}
330
71
100
AcDbEntity
  8
0
  6
Continuous
 62
     2
100
AcDbLine
 10
-996.9705064771194
 20
-1094.62209723932
 30
0.0
 11
-996.273915539054
 21
-1095.409829024614
 31
0.0
  0
LINE
  5
320
102
{ACAD_REACTORS
330
3F1
330
3F2
102
}
330
71
100
AcDbEntity
  8
0
  6
Continuous
 62
     2
100
AcDbLine
 10
-1000.429605313403
 20
-1092.356019500802
 30
0.0
 11
-999.1891009031502
 21
-1092.356019500802
 31
0.0
  0
LINE
  5
321
102
{ACAD_REACTORS
330
3F1
330
3F2
102
}
330
71
100
AcDbEntity
  8
0
  6
Continuous
 62
     2
100
AcDbLine
 10
-999.1891009031502
 20
-1092.356019500802
 30
0.0
 11
-999.1891009031502
 21
-1095.409829024614
 31
0.0
  0
LINE
  5
322
102
{ACAD_REACTORS
330
3F1
330
3F2
102
}
330
71
100
AcDbEntity
  8
0
  6
Continuous
 62
     2
100
AcDbLine
 10
-1000.429605313403
 20
-1095.409829024614
 30
0.0
 11
-1000.429605313403
 21
-1092.356019500802
 31
0.0
  0
LINE
  5
323
102
{ACAD_REACTORS
330
3EF
330
3F0
102
}
330
71
100
AcDbEntity
  8
0
  6
Continuous
 62
     2
100
AcDbLine
 10
-1001.897915395941
 20
-1097.547495691264
 30
0.0
 11
-1001.597750158748
 21
-1096.779680725277
 31
0.0
  0
LINE
  5
324
102
{ACAD_REACTORS
330
3EF
330
3F0
102
}
330
71
100
AcDbEntity
  8
0
  6
Continuous
 62
     2
100
AcDbLine
 10
-1002.375451000562
 20
-1098.769019500788
 30
0.0
 11
-1002.163970947086
 21
-1098.22805895657
 31
0.0
  0
LINE
  5
325
102
{ACAD_REACTORS
330
3EF
330
3F0
102
}
330
71
100
AcDbEntity
  8
0
  6
Continuous
 62
     2
100
AcDbLine
 10
-1002.218002363875
 20
-1095.715209976977
 30
0.0
 11
-1003.615955410815
 21
-1098.769019500788
 31
0.0
  0
LINE
  5
326
102
{ACAD_REACTORS
330
3EF
330
3F0
102
}
330
71
100
AcDbEntity
  8
0
  6
Continuous
 62
     2
100
AcDbLine
 10
-999.5795449066823
 20
-1098.769019500788
 30
0.0
 11
-1000.820049316936
 21
-1098.769019500788
 31
0.0
  0
LINE
  5
327
102
{ACAD_REACTORS
330
3EF
330
3F0
102
}
330
71
100
AcDbEntity
  8
0
  6
Continuous
 62
     2
100
AcDbLine
 10
-1002.163970947086
 20
-1098.22805895657
 30
0.0
 11
-1001.031529370412
 21
-1098.22805895657
 31
0.0
  0
LINE
  5
328
102
{ACAD_REACTORS
330
3ED
330
3EE
102
}
330
71
100
AcDbEntity
  8
0
  6
Continuous
 62
     2
100
AcDbLine
 10
-1005.773467549997
 20
-1096.500475283101
 30
0.0
 11
-1004.962368512522
 21
-1096.500475283101
 31
0.0
  0
LINE
  5
329
102
{ACAD_REACTORS
330
3ED
330
3EE
102
}
330
71
100
AcDbEntity
  8
0
  6
Continuous
 62
     2
100
AcDbLine
 10
-1002.958476772883
 20
-1095.715209976977
 30
0.0
 11
-1005.773467549997
 21
-1095.715209976977
 31
0.0
  0
LINE
  5
32A
102
{ACAD_REACTORS
330
3ED
330
3EE
102
}
330
71
100
AcDbEntity
  8
0
  6
Continuous
 62
     2
100
AcDbLine
 10
-1002.958476772883
 20
-1096.500475283101
 30
0.0
 11
-1002.958476772883
 21
-1095.715209976977
 31
0.0
  0
LINE
  5
32B
102
{ACAD_REACTORS
330
3ED
330
3EE
102
}
330
71
100
AcDbEntity
  8
0
  6
Continuous
 62
     2
100
AcDbLine
 10
-1003.769575810356
 20
-1096.500475283101
 30
0.0
 11
-1002.958476772883
 21
-1096.500475283101
 31
0.0
  0
LINE
  5
32C
102
{ACAD_REACTORS
330
3ED
330
3EE
102
}
330
71
100
AcDbEntity
  8
0
  6
Continuous
 62
     2
100
AcDbLine
 10
-1003.769575810356
 20
-1098.769019500788
 30
0.0
 11
-1003.769575810356
 21
-1096.500475283101
 31
0.0
  0
LINE
  5
32D
102
{ACAD_REACTORS
330
3EB
330
3EC
102
}
330
71
100
AcDbEntity
  8
0
  6
Continuous
 62
     2
100
AcDbLine
 10
-1003.101460966258
 20
-1095.409829024614
 30
0.0
 11
-1003.101460966258
 21
-1094.101053514409
 31
0.0
  0
LINE
  5
32E
102
{ACAD_REACTORS
330
3EB
330
3EC
102
}
330
71
100
AcDbEntity
  8
0
  6
Continuous
 62
     2
100
AcDbLine
 10
-1004.294253668424
 20
-1092.356019500802
 30
0.0
 11
-1004.294253668424
 21
-1095.409829024614
 31
0.0
  0
LINE
  5
32F
102
{ACAD_REACTORS
330
3EB
330
3EC
102
}
330
71
100
AcDbEntity
  8
0
  6
Continuous
 62
     2
100
AcDbLine
 10
-1003.101460966258
 20
-1092.356019500802
 30
0.0
 11
-1004.294253668424
 21
-1092.356019500802
 31
0.0
  0
LINE
  5
330
102
{ACAD_REACTORS
330
3EB
330
3EC
102
}
330
71
100
AcDbEntity
  8
0
  6
Continuous
 62
     2
100
AcDbLine
 10
-1001.860956556004
 20
-1092.356019500802
 30
0.0
 11
-1001.860956556004
 21
-1093.664795011008
 31
0.0
  0
LINE
  5
331
102
{ACAD_REACTORS
330
3E9
330
3EA
102
}
330
71
100
AcDbEntity
  8
0
  6
Continuous
 62
     2
100
AcDbLine
 10
-1009.542692488844
 20
-1095.715209976977
 30
0.0
 11
-1009.542692488844
 21
-1098.769019500788
 31
0.0
  0
LINE
  5
332
102
{ACAD_REACTORS
330
3E9
330
3EA
102
}
330
71
100
AcDbEntity
  8
0
  6
Continuous
 62
     2
100
AcDbLine
 10
-1008.349899786676
 20
-1095.715209976977
 30
0.0
 11
-1009.542692488844
 21
-1095.715209976977
 31
0.0
  0
LINE
  5
333
102
{ACAD_REACTORS
330
3E9
330
3EA
102
}
330
71
100
AcDbEntity
  8
0
  6
Continuous
 62
     2
100
AcDbLine
 10
-1007.109395376423
 20
-1098.769019500788
 30
0.0
 11
-1005.916602674257
 21
-1098.769019500788
 31
0.0
  0
LINE
  5
334
102
{ACAD_REACTORS
330
3E9
330
3EA
102
}
330
71
100
AcDbEntity
  8
0
  6
Continuous
 62
     2
100
AcDbLine
 10
-1009.542692488844
 20
-1098.769019500788
 30
0.0
 11
-1008.349899786676
 21
-1098.769019500788
 31
0.0
  0
LINE
  5
335
102
{ACAD_REACTORS
330
3F9
330
3FA
102
}
330
71
100
AcDbEntity
  8
0
  6
Continuous
 62
     2
100
AcDbLine
 10
-1005.868740035285
 20
-1093.533917459987
 30
0.0
 11
-1005.868740035285
 21
-1093.054033106246
 31
0.0
  0
LINE
  5
336
102
{ACAD_REACTORS
330
3F9
330
3FA
102
}
330
71
100
AcDbEntity
  8
0
  6
Continuous
 62
     2
100
AcDbLine
 10
-1004.532812208857
 20
-1093.533917459987
 30
0.0
 11
-1005.868740035285
 21
-1093.533917459987
 31
0.0
  0
LINE
  5
337
102
{ACAD_REACTORS
330
3F9
330
3FA
102
}
330
71
100
AcDbEntity
  8
0
  6
Continuous
 62
     2
100
AcDbLine
 10
-1004.532812208857
 20
-1094.231931065429
 30
0.0
 11
-1004.532812208857
 21
-1093.533917459987
 31
0.0
  0
LINE
  5
338
102
{ACAD_REACTORS
330
3F9
330
3FA
102
}
330
71
100
AcDbEntity
  8
0
  6
Continuous
 62
     2
100
AcDbLine
 10
-1005.868740035285
 20
-1094.231931065429
 30
0.0
 11
-1004.532812208857
 21
-1094.231931065429
 31
0.0
  0
LINE
  5
339
102
{ACAD_REACTORS
330
3E7
330
3E8
102
}
330
71
100
AcDbEntity
  8
0
  6
Continuous
 62
     2
100
AcDbLine
 10
-1009.351694725612
 20
-1092.356019500802
 30
0.0
 11
-1009.351694725612
 21
-1095.409829024614
 31
0.0
  0
LINE
  5
33A
102
{ACAD_REACTORS
330
3E7
330
3E8
102
}
330
71
100
AcDbEntity
  8
0
  6
Continuous
 62
     2
100
AcDbLine
 10
-1009.351694725612
 20
-1095.409829024614
 30
0.0
 11
-1010.544487427778
 21
-1095.409829024614
 31
0.0
  0
LINE
  5
33B
102
{ACAD_REACTORS
330
3E7
330
3E8
102
}
330
71
100
AcDbEntity
  8
0
  6
Continuous
 62
     2
100
AcDbLine
 10
-1010.544487427778
 20
-1095.409829024614
 30
0.0
 11
-1010.544487427778
 21
-1094.27555691577
 31
0.0
  0
LINE
  5
33C
102
{ACAD_REACTORS
330
3E7
330
3E8
102
}
330
71
100
AcDbEntity
  8
0
  6
Continuous
 62
     2
100
AcDbLine
 10
-1011.594145005686
 20
-1095.409829024614
 30
0.0
 11
-1012.786937707852
 21
-1095.409829024614
 31
0.0
  0
LINE
  5
33D
102
{ACAD_REACTORS
330
3E7
330
3E8
102
}
330
71
100
AcDbEntity
  8
0
  6
Continuous
 62
     2
100
AcDbLine
 10
-1012.786937707852
 20
-1092.356019500802
 30
0.0
 11
-1011.594145005686
 21
-1092.356019500802
 31
0.0
  0
LINE
  5
33E
102
{ACAD_REACTORS
330
3E7
330
3E8
102
}
330
71
100
AcDbEntity
  8
0
  6
Continuous
 62
     2
100
AcDbLine
 10
-1011.594145005686
 20
-1092.356019500802
 30
0.0
 11
-1011.594145005686
 21
-1093.424852834137
 31
0.0
  0
LINE
  5
33F
102
{ACAD_REACTORS
330
3E7
330
3E8
102
}
330
71
100
AcDbEntity
  8
0
  6
Continuous
 62
     2
100
AcDbLine
 10
-1011.594145005686
 20
-1093.424852834137
 30
0.0
 11
-1010.544487427778
 21
-1093.424852834137
 31
0.0
  0
LINE
  5
340
102
{ACAD_REACTORS
330
3F5
330
3F6
102
}
330
71
100
AcDbEntity
  8
0
  6
Continuous
 62
     2
100
AcDbLine
 10
-1014.743117739406
 20
-1093.019125346243
 30
0.0
 11
-1014.425822677864
 21
-1093.019125346243
 31
0.0
  0
LINE
  5
341
102
{ACAD_REACTORS
330
3F5
330
3F6
102
}
330
71
100
AcDbEntity
  8
0
  6
Continuous
 62
     2
100
AcDbLine
 10
-1014.743117739406
 20
-1093.724852995585
 30
0.0
 11
-1014.425822677864
 21
-1093.724852995585
 31
0.0
  0
LINE
  5
342
102
{ACAD_REACTORS
330
3F5
330
3F6
102
}
330
71
100
AcDbEntity
  8
0
  6
Continuous
 62
     2
100
AcDbLine
 10
-1015.98362214966
 20
-1092.356019500802
 30
0.0
 11
-1015.98362214966
 21
-1095.409829024614
 31
0.0
  0
LINE
  5
343
102
{ACAD_REACTORS
330
3F5
330
3F6
102
}
330
71
100
AcDbEntity
  8
0
  6
Continuous
 62
     2
100
AcDbLine
 10
-1015.98362214966
 20
-1092.356019500802
 30
0.0
 11
-1013.984350151625
 21
-1092.356019500802
 31
0.0
  0
LINE
  5
344
102
{ACAD_REACTORS
330
3F5
330
3F6
102
}
330
71
100
AcDbEntity
  8
0
  6
Continuous
 62
     2
100
AcDbLine
 10
-1014.743117739406
 20
-1094.46675078347
 30
0.0
 11
-1013.984350151625
 21
-1094.46675078347
 31
0.0
  0
LINE
  5
345
102
{ACAD_REACTORS
330
3FB
330
3FC
102
}
330
71
100
AcDbEntity
  8
0
  6
Continuous
 62
     2
100
AcDbLine
 10
-1022.080118182957
 20
-1093.384291979437
 30
0.0
 11
-1022.080118182957
 21
-1097.740747022154
 31
0.0
  0
LINE
  5
346
102
{ACAD_REACTORS
330
3FB
330
3FC
102
}
330
71
100
AcDbEntity
  8
0
  6
Continuous
 62
     2
100
AcDbLine
 10
-1021.764401259881
 20
-1093.068575056361
 30
0.0
 11
-1020.288567998871
 21
-1093.068575056361
 31
0.0
  0
LINE
  5
347
102
{ACAD_REACTORS
330
3FB
330
3FC
102
}
330
71
100
AcDbEntity
  8
0
  6
Continuous
 62
     2
100
AcDbLine
 10
-1019.972851075795
 20
-1093.988316598498
 30
0.0
 11
-1019.972851075795
 21
-1093.384291979437
 31
0.0
  0
LINE
  5
348
102
{ACAD_REACTORS
330
3FB
330
3FC
102
}
330
71
100
AcDbEntity
  8
0
  6
Continuous
 62
     2
100
AcDbLine
 10
-1019.972851075795
 20
-1097.740747022154
 30
0.0
 11
-1019.972851075795
 21
-1096.209976090623
 31
0.0
  0
LINE
  5
349
102
{ACAD_REACTORS
330
3FB
330
3FC
102
}
330
71
100
AcDbEntity
  8
0
  6
Continuous
 62
     2
100
AcDbLine
 10
-1016.884983845911
 20
-1098.769019500788
 30
0.0
 11
-1022.358295936627
 21
-1098.769019500788
 31
0.0
  0
LINE
  5
34A
102
{ACAD_REACTORS
330
3FB
330
3FC
102
}
330
71
100
AcDbEntity
  8
0
  6
Continuous
 62
     2
100
AcDbLine
 10
-1016.460739230527
 20
-1092.780264116204
 30
0.0
 11
-1016.460739230527
 21
-1098.344774885405
 31
0.0
  0
LINE
  5
34B
102
{ACAD_REACTORS
330
3FB
330
3FC
102
}
330
71
100
AcDbEntity
  8
0
  6
Continuous
 62
     2
100
AcDbLine
 10
-1022.358295936627
 20
-1092.356019500821
 30
0.0
 11
-1016.884983845911
 21
-1092.356019500821
 31
0.0
  0
LINE
  5
34C
102
{ACAD_REACTORS
330
3FB
330
3FC
102
}
330
71
100
AcDbEntity
  8
0
  6
Continuous
 62
     2
100
AcDbLine
 10
-1022.78254055201
 20
-1092.780264116204
 30
0.0
 11
-1022.78254055201
 21
-1098.344774885405
 31
0.0
  0
LINE
  5
34D
102
{ACAD_REACTORS
330
3FB
330
3FC
102
}
330
71
100
AcDbEntity
  8
0
  6
Continuous
 62
     2
100
AcDbLine
 10
-1020.288567998871
 20
-1098.056463945231
 30
0.0
 11
-1021.764401259881
 21
-1098.056463945231
 31
0.0
  0
LINE
  5
34E
102
{ACAD_REACTORS
330
3F5
330
3F6
102
}
330
71
100
AcDbEntity
  8
0
  6
Continuous
 62
     2
100
AcDbLine
 10
-1014.743117739406
 20
-1095.409829024614
 30
0.0
 11
-1014.743117739406
 21
-1094.46675078347
 31
0.0
  0
LINE
  5
34F
102
{ACAD_REACTORS
330
3F5
330
3F6
102
}
330
71
100
AcDbEntity
  8
0
  6
Continuous
 62
     2
100
AcDbLine
 10
-1015.98362214966
 20
-1095.409829024614
 30
0.0
 11
-1014.743117739406
 21
-1095.409829024614
 31
0.0
  0
LINE
  5
350
102
{ACAD_REACTORS
330
3F5
330
3F6
102
}
330
71
100
AcDbEntity
  8
0
  6
Continuous
 62
     2
100
AcDbLine
 10
-1014.743117739406
 20
-1093.724852995585
 30
0.0
 11
-1014.743117739406
 21
-1093.019125346243
 31
0.0
  0
LINE
  5
351
102
{ACAD_REACTORS
330
3E7
330
3E8
102
}
330
71
100
AcDbEntity
  8
0
  6
Continuous
 62
     2
100
AcDbLine
 10
-1012.786937707852
 20
-1092.356019500802
 30
0.0
 11
-1012.786937707852
 21
-1095.409829024614
 31
0.0
  0
LINE
  5
352
102
{ACAD_REACTORS
330
3E7
330
3E8
102
}
330
71
100
AcDbEntity
  8
0
  6
Continuous
 62
     2
100
AcDbLine
 10
-1011.594145005686
 20
-1094.27555691577
 30
0.0
 11
-1011.594145005686
 21
-1095.409829024614
 31
0.0
  0
LINE
  5
353
102
{ACAD_REACTORS
330
3E7
330
3E8
102
}
330
71
100
AcDbEntity
  8
0
  6
Continuous
 62
     2
100
AcDbLine
 10
-1010.544487427778
 20
-1094.27555691577
 30
0.0
 11
-1011.594145005686
 21
-1094.27555691577
 31
0.0
  0
LINE
  5
354
102
{ACAD_REACTORS
330
3E7
330
3E8
102
}
330
71
100
AcDbEntity
  8
0
  6
Continuous
 62
     2
100
AcDbLine
 10
-1010.544487427778
 20
-1092.356019500802
 30
0.0
 11
-1009.351694725612
 21
-1092.356019500802
 31
0.0
  0
LINE
  5
355
102
{ACAD_REACTORS
330
3E7
330
3E8
102
}
330
71
100
AcDbEntity
  8
0
  6
Continuous
 62
     2
100
AcDbLine
 10
-1010.544487427778
 20
-1093.424852834137
 30
0.0
 11
-1010.544487427778
 21
-1092.356019500802
 31
0.0
  0
LINE
  5
356
102
{ACAD_REACTORS
330
3F9
330
3FA
102
}
330
71
100
AcDbEntity
  8
0
  6
Continuous
 62
     2
100
AcDbLine
 10
-1004.532812208857
 20
-1093.054033106246
 30
0.0
 11
-1004.532812208857
 21
-1092.356019500802
 31
0.0
  0
LINE
  5
357
102
{ACAD_REACTORS
330
3F9
330
3FA
102
}
330
71
100
AcDbEntity
  8
0
  6
Continuous
 62
     2
100
AcDbLine
 10
-1007.683131932638
 20
-1092.356019500802
 30
0.0
 11
-1004.532812208857
 21
-1092.356019500802
 31
0.0
  0
LINE
  5
358
102
{ACAD_REACTORS
330
3F9
330
3FA
102
}
330
71
100
AcDbEntity
  8
0
  6
Continuous
 62
     2
100
AcDbLine
 10
-1007.683131932638
 20
-1095.409829024614
 30
0.0
 11
-1004.532812208857
 21
-1095.409829024614
 31
0.0
  0
LINE
  5
359
102
{ACAD_REACTORS
330
3F9
330
3FA
102
}
330
71
100
AcDbEntity
  8
0
  6
Continuous
 62
     2
100
AcDbLine
 10
-1004.532812208857
 20
-1095.409829024614
 30
0.0
 11
-1004.532812208857
 21
-1094.711815419171
 31
0.0
  0
LINE
  5
35A
102
{ACAD_REACTORS
330
3F9
330
3FA
102
}
330
71
100
AcDbEntity
  8
0
  6
Continuous
 62
     2
100
AcDbLine
 10
-1004.532812208857
 20
-1094.711815419171
 30
0.0
 11
-1005.868740035285
 21
-1094.711815419171
 31
0.0
  0
LINE
  5
35B
102
{ACAD_REACTORS
330
3F9
330
3FA
102
}
330
71
100
AcDbEntity
  8
0
  6
Continuous
 62
     2
100
AcDbLine
 10
-1005.868740035285
 20
-1094.711815419171
 30
0.0
 11
-1005.868740035285
 21
-1094.231931065429
 31
0.0
  0
LINE
  5
35C
102
{ACAD_REACTORS
330
3F9
330
3FA
102
}
330
71
100
AcDbEntity
  8
0
  6
Continuous
 62
     2
100
AcDbLine
 10
-1005.868740035285
 20
-1093.054033106246
 30
0.0
 11
-1004.532812208857
 21
-1093.054033106246
 31
0.0
  0
LINE
  5
35D
102
{ACAD_REACTORS
330
3E9
330
3EA
102
}
330
71
100
AcDbEntity
  8
0
  6
Continuous
 62
     2
100
AcDbLine
 10
-1008.349899786676
 20
-1098.769019500788
 30
0.0
 11
-1008.349899786676
 21
-1097.460243990583
 31
0.0
  0
LINE
  5
35E
102
{ACAD_REACTORS
330
3E9
330
3EA
102
}
330
71
100
AcDbEntity
  8
0
  6
Continuous
 62
     2
100
AcDbLine
 10
-1008.349899786676
 20
-1097.460243990583
 30
0.0
 11
-1007.109395376423
 21
-1098.769019500788
 31
0.0
  0
LINE
  5
35F
102
{ACAD_REACTORS
330
3E9
330
3EA
102
}
330
71
100
AcDbEntity
  8
0
  6
Continuous
 62
     2
100
AcDbLine
 10
-1005.916602674257
 20
-1098.769019500788
 30
0.0
 11
-1005.916602674257
 21
-1095.715209976977
 31
0.0
  0
LINE
  5
360
102
{ACAD_REACTORS
330
3E9
330
3EA
102
}
330
71
100
AcDbEntity
  8
0
  6
Continuous
 62
     2
100
AcDbLine
 10
-1005.916602674257
 20
-1095.715209976977
 30
0.0
 11
-1007.109395376423
 21
-1095.715209976977
 31
0.0
  0
LINE
  5
361
102
{ACAD_REACTORS
330
3E9
330
3EA
102
}
330
71
100
AcDbEntity
  8
0
  6
Continuous
 62
     2
100
AcDbLine
 10
-1007.109395376423
 20
-1095.715209976977
 30
0.0
 11
-1007.109395376423
 21
-1097.023985487182
 31
0.0
  0
LINE
  5
362
102
{ACAD_REACTORS
330
3E9
330
3EA
102
}
330
71
100
AcDbEntity
  8
0
  6
Continuous
 62
     2
100
AcDbLine
 10
-1007.109395376423
 20
-1097.023985487182
 30
0.0
 11
-1008.349899786676
 21
-1095.715209976977
 31
0.0
  0
LINE
  5
363
102
{ACAD_REACTORS
330
3EB
330
3EC
102
}
330
71
100
AcDbEntity
  8
0
  6
Continuous
 62
     2
100
AcDbLine
 10
-1003.101460966258
 20
-1094.101053514409
 30
0.0
 11
-1001.860956556004
 21
-1095.409829024614
 31
0.0
  0
LINE
  5
364
102
{ACAD_REACTORS
330
3EB
330
3EC
102
}
330
71
100
AcDbEntity
  8
0
  6
Continuous
 62
     2
100
AcDbLine
 10
-1001.860956556004
 20
-1095.409829024614
 30
0.0
 11
-1000.668163853837
 21
-1095.409829024614
 31
0.0
  0
LINE
  5
365
102
{ACAD_REACTORS
330
3EB
330
3EC
102
}
330
71
100
AcDbEntity
  8
0
  6
Continuous
 62
     2
100
AcDbLine
 10
-1000.668163853837
 20
-1095.409829024614
 30
0.0
 11
-1000.668163853837
 21
-1092.356019500802
 31
0.0
  0
LINE
  5
366
102
{ACAD_REACTORS
330
3EB
330
3EC
102
}
330
71
100
AcDbEntity
  8
0
  6
Continuous
 62
     2
100
AcDbLine
 10
-1000.668163853837
 20
-1092.356019500802
 30
0.0
 11
-1001.860956556004
 21
-1092.356019500802
 31
0.0
  0
LINE
  5
367
102
{ACAD_REACTORS
330
3EB
330
3EC
102
}
330
71
100
AcDbEntity
  8
0
  6
Continuous
 62
     2
100
AcDbLine
 10
-1001.860956556004
 20
-1093.664795011008
 30
0.0
 11
-1003.101460966258
 21
-1092.356019500802
 31
0.0
  0
LINE
  5
368
102
{ACAD_REACTORS
330
3EB
330
3EC
102
}
330
71
100
AcDbEntity
  8
0
  6
Continuous
 62
     2
100
AcDbLine
 10
-1004.294253668424
 20
-1095.409829024614
 30
0.0
 11
-1003.101460966258
 21
-1095.409829024614
 31
0.0
  0
LINE
  5
369
102
{ACAD_REACTORS
330
3ED
330
3EE
102
}
330
71
100
AcDbEntity
  8
0
  6
Continuous
 62
     2
100
AcDbLine
 10
-1005.773467549997
 20
-1095.715209976977
 30
0.0
 11
-1005.773467549997
 21
-1096.500475283101
 31
0.0
  0
LINE
  5
36A
102
{ACAD_REACTORS
330
3ED
330
3EE
102
}
330
71
100
AcDbEntity
  8
0
  6
Continuous
 62
     2
100
AcDbLine
 10
-1004.962368512522
 20
-1096.500475283101
 30
0.0
 11
-1004.962368512522
 21
-1098.769019500788
 31
0.0
  0
LINE
  5
36B
102
{ACAD_REACTORS
330
3ED
330
3EE
102
}
330
71
100
AcDbEntity
  8
0
  6
Continuous
 62
     2
100
AcDbLine
 10
-1004.962368512522
 20
-1098.769019500788
 30
0.0
 11
-1003.769575810356
 21
-1098.769019500788
 31
0.0
  0
LINE
  5
36C
102
{ACAD_REACTORS
330
3EF
330
3F0
102
}
330
71
100
AcDbEntity
  8
0
  6
Continuous
 62
     2
100
AcDbLine
 10
-1000.820049316936
 20
-1098.769019500788
 30
0.0
 11
-1001.031529370412
 21
-1098.22805895657
 31
0.0
  0
LINE
  5
36D
102
{ACAD_REACTORS
330
3EF
330
3F0
102
}
330
71
100
AcDbEntity
  8
0
  6
Continuous
 62
     2
100
AcDbLine
 10
-1000.977497953623
 20
-1095.715209976977
 30
0.0
 11
-999.5795449066823
 21
-1098.769019500788
 31
0.0
  0
LINE
  5
36E
102
{ACAD_REACTORS
330
3EF
330
3F0
102
}
330
71
100
AcDbEntity
  8
0
  6
Continuous
 62
     2
100
AcDbLine
 10
-1002.218002363875
 20
-1095.715209976977
 30
0.0
 11
-1000.977497953623
 21
-1095.715209976977
 31
0.0
  0
LINE
  5
36F
102
{ACAD_REACTORS
330
3EF
330
3F0
102
}
330
71
100
AcDbEntity
  8
0
  6
Continuous
 62
     2
100
AcDbLine
 10
-1003.615955410815
 20
-1098.769019500788
 30
0.0
 11
-1002.375451000562
 21
-1098.769019500788
 31
0.0
  0
LINE
  5
370
102
{ACAD_REACTORS
330
3EF
330
3F0
102
}
330
71
100
AcDbEntity
  8
0
  6
Continuous
 62
     2
100
AcDbLine
 10
-1001.897915395941
 20
-1097.547495691264
 30
0.0
 11
-1001.297584921558
 21
-1097.547495691264
 31
0.0
  0
LINE
  5
371
102
{ACAD_REACTORS
330
3EF
330
3F0
102
}
330
71
100
AcDbEntity
  8
0
  6
Continuous
 62
     2
100
AcDbLine
 10
-1001.297584921558
 20
-1097.547495691264
 30
0.0
 11
-1001.597750158748
 21
-1096.779680725277
 31
0.0
  0
LINE
  5
372
102
{ACAD_REACTORS
330
3F1
330
3F2
102
}
330
71
100
AcDbEntity
  8
0
  6
Continuous
 62
     2
100
AcDbLine
 10
-999.1891009031502
 20
-1095.409829024614
 30
0.0
 11
-1000.429605313403
 21
-1095.409829024614
 31
0.0
  0
LINE
  5
373
102
{ACAD_REACTORS
330
3F3
330
3F4
102
}
330
71
100
AcDbEntity
  8
0
  6
Continuous
 62
     2
100
AcDbLine
 10
-997.6670974151851
 20
-1095.409829024614
 30
0.0
 11
-999.0698216329333
 21
-1095.409829024614
 31
0.0
  0
LINE
  5
374
102
{ACAD_REACTORS
330
3F3
330
3F4
102
}
330
71
100
AcDbEntity
  8
0
  6
Continuous
 62
     2
100
AcDbLine
 10
-997.6670974151851
 20
-1095.409829024614
 30
0.0
 11
-996.9705064771194
 21
-1094.62209723932
 31
0.0
  0
LINE
  5
375
102
{ACAD_REACTORS
330
3F3
330
3F4
102
}
330
71
100
AcDbEntity
  8
0
  6
Continuous
 62
     2
100
AcDbLine
 10
-996.3693389552267
 20
-1092.356019500802
 30
0.0
 11
-994.9666147374794
 21
-1092.356019500802
 31
0.0
  0
LINE
  5
376
102
{ACAD_REACTORS
330
3F3
330
3F4
102
}
330
71
100
AcDbEntity
  8
0
  6
Continuous
 62
     2
100
AcDbLine
 10
-998.9743982167606
 20
-1092.356019500802
 30
0.0
 11
-997.671868585993
 21
-1093.828970030839
 31
0.0
  0
LINE
  5
377
102
{ACAD_REACTORS
330
3F3
330
3F4
102
}
330
71
100
AcDbEntity
  8
0
  6
Continuous
 62
     2
100
AcDbLine
 10
-999.0698216329333
 20
-1095.409829024614
 30
0.0
 11
-997.671868585993
 21
-1093.828970030839
 31
0.0
  0
LINE
  5
378
102
{ACAD_REACTORS
330
3FD
330
3FE
102
}
330
71
100
AcDbEntity
  8
0
  6
Continuous
 62
     2
100
AcDbLine
 10
-997.2090650175535
 20
-1097.721999092624
 30
0.0
 11
-997.2090650175535
 21
-1098.594516099428
 31
0.0
  0
LINE
  5
379
102
{ACAD_REACTORS
330
3FD
330
3FE
102
}
330
71
100
AcDbEntity
  8
0
  6
Continuous
 62
     2
100
AcDbLine
 10
-997.9787223605149
 20
-1096.500475283101
 30
0.0
 11
-996.8750830609467
 21
-1096.500475283101
 31
0.0
  0
LINE
  5
37A
102
{ACAD_REACTORS
330
3FF
330
400
102
}
330
71
100
AcDbEntity
  8
0
  6
Continuous
 62
     2
100
AcDbLine
 10
-1013.311766496805
 20
-1097.721999092624
 30
0.0
 11
-1013.311766496805
 21
-1098.594516099427
 31
0.0
  0
LINE
  5
37B
102
{ACAD_REACTORS
330
3FF
330
400
102
}
330
71
100
AcDbEntity
  8
0
  6
Continuous
 62
     2
100
AcDbLine
 10
-1013.311766496805
 20
-1096.762230385141
 30
0.0
 11
-1013.311766496805
 21
-1095.889713378338
 31
0.0
  0
LINE
  5
37C
330
71
100
AcDbEntity
  8
1
  6
Continuous
 62
     7
100
AcDbLine
 10
-897.4743909118215
 20
-1097.562519500804
 30
0.0
 11
-990.6191954385729
 21
-1097.562519500804
 31
0.0
  0
LINE
  5
37D
330
71
100
AcDbEntity
  8
1
  6
Continuous
 62
     6
100
AcDbLine
 10
-1096.019195438573
 20
-1106.062519500804
 30
0.0
 11
-1140.974390911823
 21
-1106.062519500804
 31
0.0
  0
LINE
  5
37E
330
71
100
AcDbEntity
  8
1
  6
Continuous
 62
     7
100
AcDbLine
 10
-906.3927991935003
 20
-1080.562519500804
 30
0.0
 11
-906.3927991935003
 21
-1089.062519500804
 31
0.0
  0
LINE
  5
37F
330
71
100
AcDbEntity
  8
1
  6
Continuous
 62
     7
100
AcDbLine
 10
-932.8927991934999
 20
-1080.562519500804
 30
0.0
 11
-932.8927991934999
 21
-1089.062519500804
 31
0.0
  0
LINE
  5
380
330
71
100
AcDbEntity
  8
1
  6
Continuous
 62
     7
100
AcDbLine
 10
-990.6191954385729
 20
-1089.062519500804
 30
0.0
 11
-990.6191954385729
 21
-1080.562519500804
 31
0.0
  0
LINE
  5
381
330
71
100
AcDbEntity
  8
1
  6
Continuous
 62
     7
100
AcDbLine
 10
-1027.019195438573
 20
-1089.062519500804
 30
0.0
 11
-1027.019195438573
 21
-1080.562519500804
 31
0.0
  0
LINE
  5
382
330
71
100
AcDbEntity
  8
1
  6
Continuous
 62
     6
100
AcDbLine
 10
-990.6191954385729
 20
-1089.062519500804
 30
0.0
 11
-897.474390911821
 21
-1089.062519500804
 31
0.0
  0
LINE
  5
383
330
71
100
AcDbEntity
  8
1
  6
Continuous
 62
     7
100
AcDbLine
 10
-962.7191954385728
 20
-1097.562519500804
 30
0.0
 11
-962.7191954385728
 21
-1089.062519500804
 31
0.0
  0
LINE
  5
384
330
71
100
AcDbEntity
  8
1
  6
PHANTOM
 62
     2
100
AcDbLine
 10
-1011.53254055201
 20
-1084.937519500804
 30
0.0
 11
-1017.03254055201
 21
-1084.937519500804
 31
0.0
  0
LINE
  5
385
330
71
100
AcDbEntity
  8
1
  6
PHANTOM
 62
     2
100
AcDbLine
 10
-1014.28254055201
 20
-1082.187519500804
 30
0.0
 11
-1014.28254055201
 21
-1087.687519500804
 31
0.0
  0
LINE
  5
386
330
71
100
AcDbEntity
  8
1
  6
DOT_CENTER
 62
     2
100
AcDbLine
 10
-1023.03254055201
 20
-1084.937519500804
 30
0.0
 11
-1017.53254055201
 21
-1084.937519500804
 31
0.0
  0
ARC
  5
387
102
{ACAD_REACTORS
330
3FF
330
400
102
}
330
71
100
AcDbEntity
  8
0
  6
Continuous
 62
     2
100
AcDbCircle
 10
-1014.647694413923
 20
-1100.554795684139
 30
0.0
 40
4.85259686349819
100
AcDbArc
 50
74.02000874164605
 51
84.84185523037681
  0
ARC
  5
388
102
{ACAD_REACTORS
330
3FF
330
400
102
}
330
71
100
AcDbEntity
  8
0
  6
Continuous
 62
     2
100
AcDbCircle
 10
-1014.07165380517
 20
-1097.399035328254
 30
0.0
 40
0.9059297849847837
100
AcDbArc
 50
71.55192388183073
 51
113.3722778880809
  0
ARC
  5
389
102
{ACAD_REACTORS
330
3FF
330
400
102
}
330
71
100
AcDbEntity
  8
0
  6
Continuous
 62
     2
100
AcDbCircle
 10
-1014.228093837872
 20
-1097.447186168221
 30
0.0
 40
0.5115800601948913
100
AcDbArc
 50
208.5214732577337
 51
246.6277221119213
  0
ARC
  5
38A
102
{ACAD_REACTORS
330
3FF
330
400
102
}
330
71
100
AcDbEntity
  8
0
  6
Continuous
 62
     2
100
AcDbCircle
 10
-1014.07165380517
 20
-1097.085194149511
 30
0.0
 40
0.9059297849845288
100
AcDbArc
 50
246.6277221119191
 51
288.4480761181692
  0
ARC
  5
38B
102
{ACAD_REACTORS
330
3FF
330
400
102
}
330
71
100
AcDbEntity
  8
0
  6
Continuous
 62
     2
100
AcDbCircle
 10
-1014.48982153883
 20
-1095.831648373474
 30
0.0
 40
2.227384008972216
100
AcDbArc
 50
288.4480761181226
 51
301.9309089499621
  0
ARC
  5
38C
102
{ACAD_REACTORS
330
3FB
330
3FC
102
}
330
71
100
AcDbEntity
  8
0
  6
Continuous
 62
     2
100
AcDbCircle
 10
-1019.714895271437
 20
-1095.09914634456
 30
0.0
 40
0.9118481501446578
100
AcDbArc
 50
295.3740086781903
 51
64.6259913217852
  0
ARC
  5
38D
102
{ACAD_REACTORS
330
3FB
330
3FC
102
}
330
71
100
AcDbEntity
  8
0
  6
Continuous
 62
     2
100
AcDbCircle
 10
-1019.188852573349
 20
-1093.384469456085
 30
0.0
 40
0.3157169230762441
100
AcDbArc
 50
90.1889670426851
 51
180.0
  0
ARC
  5
38E
102
{ACAD_REACTORS
330
3FD
330
3FE
102
}
330
71
100
AcDbEntity
  8
0
  6
Continuous
 62
     2
100
AcDbCircle
 10
-997.9787223605149
 20
-1097.454998289927
 30
0.0
 40
0.9545230068260935
100
AcDbArc
 50
90.0
 51
109.3371432194175
  0
ARC
  5
38F
102
{ACAD_REACTORS
330
3FD
330
3FE
102
}
330
71
100
AcDbEntity
  8
0
  6
Continuous
 62
     2
100
AcDbCircle
 10
-997.7480351005372
 20
-1097.242114738883
 30
0.0
 40
0.9410597353348766
100
AcDbArc
 50
151.4785267423678
 51
208.5214732576322
  0
ARC
  5
390
102
{ACAD_REACTORS
330
3FD
330
3FE
102
}
330
71
100
AcDbEntity
  8
0
  6
Continuous
 62
     2
100
AcDbCircle
 10
-997.9689523259154
 20
-1097.085194149511
 30
0.0
 40
0.9059297849852503
100
AcDbArc
 50
246.6277221118135
 51
288.4480761180715
  0
ARC
  5
391
102
{ACAD_REACTORS
330
3FD
330
3FE
102
}
330
71
100
AcDbEntity
  8
0
  6
Continuous
 62
     2
100
AcDbCircle
 10
-998.3871200595773
 20
-1095.831648373475
 30
0.0
 40
2.227384008972611
100
AcDbArc
 50
288.4480761181346
 51
301.9309089499497
  0
ARC
  5
392
102
{ACAD_REACTORS
330
3FD
330
3FE
102
}
330
71
100
AcDbEntity
  8
0
  6
Continuous
 62
     2
100
AcDbCircle
 10
-998.5449929346702
 20
-1093.929433793626
 30
0.0
 40
4.852596863498941
100
AcDbArc
 50
275.1581447696365
 51
285.9799912583368
  0
ARC
  5
393
102
{ACAD_REACTORS
330
3FD
330
3FE
102
}
330
71
100
AcDbEntity
  8
0
  6
Continuous
 62
     2
100
AcDbCircle
 10
-998.2561368399344
 20
-1097.129324376848
 30
0.0
 40
1.639695123940421
100
AcDbArc
 50
195.0618917771015
 51
275.1581447696781
  0
ARC
  5
394
102
{ACAD_REACTORS
330
3F5
330
3F6
102
}
330
71
100
AcDbEntity
  8
0
  6
Continuous
 62
     2
100
AcDbCircle
 10
-1013.984350151625
 20
-1093.411385142136
 30
0.0
 40
1.055365641333992
100
AcDbArc
 50
270.0
 51
90.0
  0
ARC
  5
395
102
{ACAD_REACTORS
330
3FB
330
3FC
102
}
330
71
100
AcDbEntity
  8
0
  6
Continuous
 62
     2
100
AcDbCircle
 10
-1021.764401259881
 20
-1097.740747022154
 30
0.0
 40
0.3157169230760246
100
AcDbArc
 50
180.0
 51
270.0
  0
ARC
  5
396
102
{ACAD_REACTORS
330
3FB
330
3FC
102
}
330
71
100
AcDbEntity
  8
0
  6
Continuous
 62
     2
100
AcDbCircle
 10
-1020.288567998871
 20
-1093.384291979437
 30
0.0
 40
0.3157169230760246
100
AcDbArc
 50
0.0
 51
90.0
  0
ARC
  5
397
102
{ACAD_REACTORS
330
3FB
330
3FC
102
}
330
71
100
AcDbEntity
  8
0
  6
Continuous
 62
     2
100
AcDbCircle
 10
-1020.288567998871
 20
-1093.988316598498
 30
0.0
 40
0.3157169230755121
100
AcDbArc
 50
295.1944106485233
 51
0.0
  0
ARC
  5
398
102
{ACAD_REACTORS
330
3FB
330
3FC
102
}
330
71
100
AcDbEntity
  8
0
  6
Continuous
 62
     2
100
AcDbCircle
 10
-1020.288567998871
 20
-1097.740747022154
 30
0.0
 40
0.3157169230769341
100
AcDbArc
 50
270.0
 51
0.0
  0
ARC
  5
399
102
{ACAD_REACTORS
330
3FB
330
3FC
102
}
330
71
100
AcDbEntity
  8
0
  6
Continuous
 62
     2
100
AcDbCircle
 10
-1022.358295936627
 20
-1092.780264116204
 30
0.0
 40
0.4242446153830315
100
AcDbArc
 50
90.0
 51
180.0
  0
ARC
  5
39A
102
{ACAD_REACTORS
330
3FB
330
3FC
102
}
330
71
100
AcDbEntity
  8
0
  6
Continuous
 62
     2
100
AcDbCircle
 10
-1016.884983845911
 20
-1092.780264116204
 30
0.0
 40
0.4242446153840547
100
AcDbArc
 50
0.0
 51
90.0
  0
ARC
  5
39B
102
{ACAD_REACTORS
330
3FB
330
3FC
102
}
330
71
100
AcDbEntity
  8
0
  6
Continuous
 62
     2
100
AcDbCircle
 10
-1016.884983845911
 20
-1098.344774885405
 30
0.0
 40
0.4242446153830315
100
AcDbArc
 50
270.0
 51
0.0
  0
ARC
  5
39C
102
{ACAD_REACTORS
330
3F9
330
3FA
102
}
330
71
100
AcDbEntity
  8
0
  6
Continuous
 62
     2
100
AcDbCircle
 10
-1007.666599958819
 20
-1093.882924262708
 30
0.0
 40
0.7717997786795957
100
AcDbArc
 50
321.8795802028306
 51
38.1204197971694
  0
ARC
  5
39D
102
{ACAD_REACTORS
330
3F9
330
3FA
102
}
330
71
100
AcDbEntity
  8
0
  6
Continuous
 62
     2
100
AcDbCircle
 10
-1007.466859922473
 20
-1094.039655440829
 30
0.0
 40
0.517908573013281
100
AcDbArc
 50
218.1204197971087
 51
321.8795802028913
  0
ARC
  5
39E
102
{ACAD_REACTORS
330
3F7
330
3F8
102
}
330
71
100
AcDbEntity
  8
0
  6
Continuous
 62
     2
100
AcDbCircle
 10
-1011.146867511433
 20
-1097.242114738883
 30
0.0
 40
1.458034083651872
100
AcDbArc
 50
297.5481481757226
 51
62.45185182429391
  0
ARC
  5
39F
102
{ACAD_REACTORS
330
3F7
330
3F8
102
}
330
71
100
AcDbEntity
  8
0
  6
Continuous
 62
     2
100
AcDbCircle
 10
-1011.7087472951
 20
-1097.242114738883
 30
0.0
 40
1.458034083651732
100
AcDbArc
 50
117.5481481756348
 51
242.4518518243487
  0
ARC
  5
3A0
102
{ACAD_REACTORS
330
3F7
330
3F8
102
}
330
71
100
AcDbEntity
  8
0
  6
Continuous
 62
     2
100
AcDbCircle
 10
-1011.427807403266
 20
-1097.780689749186
 30
0.0
 40
2.065479772209301
100
AcDbArc
 50
62.45185182431342
 51
117.5481481756614
  0
ARC
  5
3A1
102
{ACAD_REACTORS
330
3F7
330
3F8
102
}
330
71
100
AcDbEntity
  8
0
  6
Continuous
 62
     2
100
AcDbCircle
 10
-1011.427807403266
 20
-1096.703539728579
 30
0.0
 40
2.065479772208827
100
AcDbArc
 50
242.4518518243386
 51
297.5481481756866
  0
ARC
  5
3A2
102
{ACAD_REACTORS
330
3F9
330
3FA
102
}
330
71
100
AcDbEntity
  8
0
  6
Continuous
 62
     2
100
AcDbCircle
 10
-1007.267119886127
 20
-1093.882924262708
 30
0.0
 40
0.7717997786795062
100
AcDbArc
 50
141.8795802028254
 51
218.1204197971746
  0
ARC
  5
3A3
102
{ACAD_REACTORS
330
3F9
330
3FA
102
}
330
71
100
AcDbEntity
  8
0
  6
Continuous
 62
     2
100
AcDbCircle
 10
-1007.466859922473
 20
-1093.726193084588
 30
0.0
 40
0.5179085730138424
100
AcDbArc
 50
38.12041979718787
 51
141.8795802028121
  0
ARC
  5
3A4
102
{ACAD_REACTORS
330
3FB
330
3FC
102
}
330
71
100
AcDbEntity
  8
0
  6
Continuous
 62
     2
100
AcDbCircle
 10
-1022.358295936627
 20
-1098.344774885405
 30
0.0
 40
0.4242446153830315
100
AcDbArc
 50
180.0
 51
270.0
  0
ARC
  5
3A5
102
{ACAD_REACTORS
330
3FB
330
3FC
102
}
330
71
100
AcDbEntity
  8
0
  6
Continuous
 62
     2
100
AcDbCircle
 10
-1020.288567998871
 20
-1096.209976090623
 30
0.0
 40
0.3157169230760246
100
AcDbArc
 50
0.0
 51
64.80558935154704
  0
ARC
  5
3A6
102
{ACAD_REACTORS
330
3FB
330
3FC
102
}
330
71
100
AcDbEntity
  8
0
  6
Continuous
 62
     2
100
AcDbCircle
 10
-1019.765983551296
 20
-1095.09914634456
 30
0.0
 40
0.9118975235581577
100
AcDbArc
 50
115.1944106485378
 51
244.8055893514622
  0
ARC
  5
3A7
102
{ACAD_REACTORS
330
3FB
330
3FC
102
}
330
71
100
AcDbEntity
  8
0
  6
Continuous
 62
     2
100
AcDbCircle
 10
-1021.764401259881
 20
-1093.384291979437
 30
0.0
 40
0.3157169230760246
100
AcDbArc
 50
90.0
 51
180.0
  0
ARC
  5
3A8
102
{ACAD_REACTORS
330
3F5
330
3F6
102
}
330
71
100
AcDbEntity
  8
0
  6
Continuous
 62
     2
100
AcDbCircle
 10
-1014.425822677864
 20
-1093.371989170914
 30
0.0
 40
0.3528638246709761
100
AcDbArc
 50
270.0
 51
90.0
  0
ARC
  5
3A9
102
{ACAD_REACTORS
330
3F9
330
3FA
102
}
330
71
100
AcDbEntity
  8
0
  6
Continuous
 62
     2
100
AcDbCircle
 10
-1007.683131932638
 20
-1093.882924262708
 30
0.0
 40
1.526904761906053
100
AcDbArc
 50
90.0
 51
270.0
  0
ARC
  5
3AA
102
{ACAD_REACTORS
330
3FD
330
3FE
102
}
330
71
100
AcDbEntity
  8
0
  6
Continuous
 62
     2
100
AcDbCircle
 10
-998.2561368399344
 20
-1097.354905100917
 30
0.0
 40
1.639695123940101
100
AcDbArc
 50
90.0
 51
164.9381082228985
  0
ARC
  5
3AB
102
{ACAD_REACTORS
330
3FD
330
3FE
102
}
330
71
100
AcDbEntity
  8
0
  6
Continuous
 62
     2
100
AcDbCircle
 10
-998.675264683396
 20
-1097.242114738883
 30
0.0
 40
1.205656168393139
100
AcDbArc
 50
164.9381082228682
 51
195.0618917770901
  0
ARC
  5
3AC
102
{ACAD_REACTORS
330
3FD
330
3FE
102
}
330
71
100
AcDbEntity
  8
0
  6
Continuous
 62
     2
100
AcDbCircle
 10
-998.1253923586186
 20
-1097.447186168221
 30
0.0
 40
0.5115800601959901
100
AcDbArc
 50
208.5214732576668
 51
246.6277221118395
  0
ARC
  5
3AD
102
{ACAD_REACTORS
330
3FD
330
3FE
102
}
330
71
100
AcDbEntity
  8
0
  6
Continuous
 62
     2
100
AcDbCircle
 10
-998.1253923586186
 20
-1097.037043309544
 30
0.0
 40
0.5115800601948339
100
AcDbArc
 50
109.3371432194654
 51
151.4785267424227
  0
ARC
  5
3AE
102
{ACAD_REACTORS
330
3FB
330
3FC
102
}
330
71
100
AcDbEntity
  8
0
  6
Continuous
 62
     2
100
AcDbCircle
 10
-1019.188852573349
 20
-1096.790139351223
 30
0.0
 40
0.3157169230770478
100
AcDbArc
 50
180.0
 51
269.8110329573155
  0
ARC
  5
3AF
102
{ACAD_REACTORS
330
3FB
330
3FC
102
}
330
71
100
AcDbEntity
  8
0
  6
Continuous
 62
     2
100
AcDbCircle
 10
-1019.183236438039
 20
-1095.087304403654
 30
0.0
 40
2.018561131934292
100
AcDbArc
 50
269.8110329575649
 51
90.18896704243514
  0
ARC
  5
3B0
102
{ACAD_REACTORS
330
3FB
330
3FC
102
}
330
71
100
AcDbEntity
  8
0
  6
Continuous
 62
     2
100
AcDbCircle
 10
-1019.188852573349
 20
-1093.990004744592
 30
0.0
 40
0.3157169230770478
100
AcDbArc
 50
180.0
 51
244.6259913217205
  0
ARC
  5
3B1
102
{ACAD_REACTORS
330
3FB
330
3FC
102
}
330
71
100
AcDbEntity
  8
0
  6
Continuous
 62
     2
100
AcDbCircle
 10
-1019.188852573349
 20
-1096.208287944528
 30
0.0
 40
0.3157169230758826
100
AcDbArc
 50
115.3740086783678
 51
180.0
  0
ARC
  5
3B2
102
{ACAD_REACTORS
330
3FF
330
400
102
}
330
71
100
AcDbEntity
  8
0
  6
Continuous
 62
     2
100
AcDbCircle
 10
-1014.358838319187
 20
-1097.354905100917
 30
0.0
 40
1.639695123940213
100
AcDbArc
 50
84.84185523036543
 51
164.9381082228892
  0
ARC
  5
3B3
102
{ACAD_REACTORS
330
3FF
330
400
102
}
330
71
100
AcDbEntity
  8
0
  6
Continuous
 62
     2
100
AcDbCircle
 10
-1014.77796616265
 20
-1097.242114738883
 30
0.0
 40
1.205656168390834
100
AcDbArc
 50
164.9381082228387
 51
195.0618917770778
  0
ARC
  5
3B4
102
{ACAD_REACTORS
330
3FF
330
400
102
}
330
71
100
AcDbEntity
  8
0
  6
Continuous
 62
     2
100
AcDbCircle
 10
-1014.358838319187
 20
-1097.129324376848
 30
0.0
 40
1.639695123939196
100
AcDbArc
 50
195.06189177708
 51
275.1581447696346
  0
ARC
  5
3B5
102
{ACAD_REACTORS
330
3FF
330
400
102
}
330
71
100
AcDbEntity
  8
0
  6
Continuous
 62
     2
100
AcDbCircle
 10
-1014.647694413923
 20
-1093.929433793626
 30
0.0
 40
4.852596863498839
100
AcDbArc
 50
275.1581447696232
 51
285.9799912583539
  0
ARC
  5
3B6
102
{ACAD_REACTORS
330
3FF
330
400
102
}
330
71
100
AcDbEntity
  8
0
  6
Continuous
 62
     2
100
AcDbCircle
 10
-1013.850736579791
 20
-1097.242114738883
 30
0.0
 40
0.9410597353339125
100
AcDbArc
 50
151.4785267422729
 51
208.5214732576785
  0
ARC
  5
3B7
102
{ACAD_REACTORS
330
3FF
330
400
102
}
330
71
100
AcDbEntity
  8
0
  6
Continuous
 62
     2
100
AcDbCircle
 10
-1014.228093837872
 20
-1097.037043309544
 30
0.0
 40
0.5115800601950015
100
AcDbArc
 50
113.3722778880787
 51
151.4785267422663
  0
ARC
  5
3B8
102
{ACAD_REACTORS
330
3FF
330
400
102
}
330
71
100
AcDbEntity
  8
0
  6
Continuous
 62
     2
100
AcDbCircle
 10
-1014.48982153883
 20
-1098.652581104291
 30
0.0
 40
2.227384008973513
100
AcDbArc
 50
58.06909105003785
 51
71.55192388187739
  0
ARC
  5
3B9
102
{ACAD_REACTORS
330
3F7
330
3F8
102
}
330
71
100
AcDbEntity
  8
0
  6
Continuous
 62
     2
100
AcDbCircle
 10
-1011.427807403266
 20
-1097.085383560762
 30
0.0
 40
0.517908573012476
100
AcDbArc
 50
38.12041979717858
 51
141.8795802028913
  0
ARC
  5
3BA
102
{ACAD_REACTORS
330
3F7
330
3F8
102
}
330
71
100
AcDbEntity
  8
0
  6
Continuous
 62
     2
100
AcDbCircle
 10
-1011.22806736692
 20
-1097.242114738883
 30
0.0
 40
0.7717997786795957
100
AcDbArc
 50
141.8795802028306
 51
218.1204197971694
  0
ARC
  5
3BB
102
{ACAD_REACTORS
330
3F7
330
3F8
102
}
330
71
100
AcDbEntity
  8
0
  6
Continuous
 62
     2
100
AcDbCircle
 10
-1011.427807403266
 20
-1097.398845917003
 30
0.0
 40
0.5179085730138424
100
AcDbArc
 50
218.1204197971879
 51
321.8795802027422
  0
ARC
  5
3BC
102
{ACAD_REACTORS
330
3F7
330
3F8
102
}
330
71
100
AcDbEntity
  8
0
  6
Continuous
 62
     2
100
AcDbCircle
 10
-1011.627547439613
 20
-1097.242114738883
 30
0.0
 40
0.7717997786795062
100
AcDbArc
 50
321.8795802028254
 51
38.12041979717461
  0
CIRCLE
  5
3BD
330
71
100
AcDbEntity
  8
1
  6
Continuous
 62
     2
100
AcDbCircle
 10
-1014.28254055201
 20
-1084.937519500804
 30
0.0
 40
2.5
  0
CIRCLE
  5
3BE
330
71
100
AcDbEntity
  8
1
  6
Continuous
 62
     2
100
AcDbCircle
 10
-1014.28254055201
 20
-1084.937519500804
 30
0.0
 40
1.25
  0
CIRCLE
  5
3BF
102
{ACAD_REACTORS
330
3FB
330
3FC
102
}
330
71
100
AcDbEntity
  8
0
  6
Continuous
 62
     2
100
AcDbCircle
 10
-1019.73871028611
 20
-1095.09914634456
 30
0.0
 40
0.4709789327789622
  0
MTEXT
  5
3C0
330
71
100
AcDbEntity
  8
1
 62
     3
100
AcDbMText
 10
-1184.469323125751
 20
-919.2712113455054
 30
0.0
 40
1.8
 41
0.0
 71
     7
 72
     1
  3
Weitergabe sowie Vervielf\U+00e4ltigung dieses Dokuments, Verwertung und \PMitteilung seines Inhalts sind verboten, soweit nicht ausdr\U+00fccklich gestattet. \PZuwiderhandlungen verpflichten zu Schadenersatz. Alle Rechte f\U+00fcr den Fall\Pder Pat
  1
ent-, Gebrauchsmuster- oder Designeintragung vorbehalten.
  7
CONVERTER_11
 73
     1
 44
0.99639855942377
  0
MTEXT
  5
3C1
330
71
100
AcDbEntity
  8
1
 62
     3
100
AcDbMText
 10
-1001.616213286963
 20
-919.2712113455054
 30
0.0
 40
1.8
 41
0.0
 71
     7
 72
     1
  3
Transfer or duplication of this document as well as the utilisation or\Pcommunication of its content are not permitted unless express consent\Pis granted. Violations give rise to claims for damages. All rights reserved\Pin case of patent, utility mo
  1
del or design patent registrations.
  7
CONVERTER_11
 73
     1
 44
0.99639855942377
  0
TEXT
  5
3C2
330
71
100
AcDbEntity
  8
1
 62
     2
100
AcDbText
 10
-1007.819195438573
 20
-1104.821536715796
 30
0.0
 40
1.8
  1
of
 41
0.9
  7
CONVERTER_11
100
AcDbText
  0
TEXT
  5
3C3
330
71
100
AcDbEntity
  8
1
 62
     2
100
AcDbText
 10
-1026.019195438573
 20
-1104.821536715796
 30
0.0
 40
1.8
  1
page
 41
0.9
  7
CONVERTER_11
100
AcDbText
  0
TEXT
  5
3C4
330
71
100
AcDbEntity
  8
1
 62
     2
100
AcDbText
 10
-1017.372930468231
 20
-1104.861768154606
 30
0.0
 40
1.8
  1
1
 41
0.9
  7
CONVERTER_11
100
AcDbText
  0
TEXT
  5
3C5
330
71
100
AcDbEntity
  8
1
 62
     2
100
AcDbText
 10
-1002.583886628759
 20
-1104.812519500804
 30
0.0
 40
1.8
  1
1
 41
0.9
  7
CONVERTER_11
100
AcDbText
  0
MTEXT
  5
3C7
330
71
100
AcDbEntity
  8
1
 62
     7
100
AcDbMText
 10
-944.0467931751973
 20
-1102.812519500804
 30
0.0
 40
3.0
 41
0.0
 71
     5
 72
     1
  1
BUG 10
  7
CONVERTER_12
 73
     1
 44
1.20048019207683
  0
MTEXT
  5
3C8
330
71
100
AcDbEntity
  8
1
 62
     2
100
AcDbMText
 10
-989.6191954385729
 20
-1098.562519500804
 30
0.0
 40
1.8
 41
0.0
 71
     1
 72
     1
  1
description
  7
CONVERTER_11
 73
     1
 44
1.20048019207683
  0
MTEXT
  5
3C9
330
71
100
AcDbEntity
  8
1
 62
     3
100
AcDbMText
 10
-1000.819195438573
 20
-1084.937519500804
 30
0.0
 40
2.5
 41
0.0
 71
     5
 72
     1
  1
DIN A4
  7
CONVERTER_11
 73
     1
 44
1.20048019207683
  0
MTEXT
  5
3CA
330
71
100
AcDbEntity
  8
1
 62
     7
100
AcDbMText
 10
-1186.974390911822
 20
-1083.562519500804
 30
0.0
 40
3.5
 41
0.0
 71
     5
 72
     1
  1
D
  7
CONVERTER_11
 73
     1
 44
1.20048019207683
  0
MTEXT
  5
3CB
330
71
100
AcDbEntity
  8
1
 62
     7
100
AcDbMText
 10
-1186.974390911822
 20
-1031.062519500804
 30
0.0
 40
3.5
 41
0.0
 71
     5
 72
     1
  1
C
  7
CONVERTER_11
 73
     1
 44
1.20048019207683
  0
MTEXT
  5
3CC
330
71
100
AcDbEntity
  8
1
 62
     7
100
AcDbMText
 10
-1186.974390911822
 20
-981.0625195008042
 30
0.0
 40
3.5
 41
0.0
 71
     5
 72
     1
  1
B
  7
CONVERTER_11
 73
     1
 44
1.20048019207683
  0
MTEXT
  5
3CD
330
71
100
AcDbEntity
  8
1
 62
     7
100
AcDbMText
 10
-1186.974390911822
 20
-928.5625195008042
 30
0.0
 40
3.5
 41
0.0
 71
     5
 72
     1
  1
A
  7
CONVERTER_11
 73
     1
 44
1.20048019207683
  0
MTEXT
  5
3CE
330
71
100
AcDbEntity
  8
1
 62
     7
100
AcDbMText
 10
-916.7243909118235
 20
-1108.562519500804
 30
0.0
 40
3.5
 41
0.0
 71
     5
 72
     1
  1
6
  7
CONVERTER_11
 73
     1
 44
1.20048019207683
  0
MTEXT
  5
3CF
330
71
100
AcDbEntity
  8
1
 62
     7
100
AcDbMText
 10
-965.9743909118228
 20
-1108.562519500804
 30
0.0
 40
3.5
 41
0.0
 71
     5
 72
     1
  1
5
  7
CONVERTER_11
 73
     1
 44
1.20048019207683
  0
MTEXT
  5
3D0
330
71
100
AcDbEntity
  8
1
 62
     7
100
AcDbMText
 10
-1015.974390911823
 20
-1108.562519500804
 30
0.0
 40
3.5
 41
0.0
 71
     5
 72
     1
  1
4
  7
CONVERTER_11
 73
     1
 44
1.20048019207683
  0
MTEXT
  5
3D1
330
71
100
AcDbEntity
  8
1
 62
     7
100
AcDbMText
 10
-1065.974390911823
 20
-1108.562519500804
 30
0.0
 40
3.5
 41
0.0
 71
     5
 72
     1
  1
3
  7
CONVERTER_11
 73
     1
 44
1.20048019207683
  0
MTEXT
  5
3D2
330
71
100
AcDbEntity
  8
1
 62
     7
100
AcDbMText
 10
-1115.974390911823
 20
-1108.562519500804
 30
0.0
 40
3.5
 41
0.0
 71
     5
 72
     1
  1
2
  7
CONVERTER_11
 73
     1
 44
1.20048019207683
  0
MTEXT
  5
3D3
330
71
100
AcDbEntity
  8
1
 62
     7
100
AcDbMText
 10
-1165.224390911822
 20
-1108.562519500804
 30
0.0
 40
3.5
 41
0.0
 71
     5
 72
     1
  1
1
  7
CONVERTER_11
 73
     1
 44
1.20048019207683
  0
MTEXT
  5
3D4
330
71
100
AcDbEntity
  8
1
 62
     7
100
AcDbMText
 10
-894.9743909118238
 20
-1083.562519500804
 30
0.0
 40
3.5
 41
0.0
 71
     5
 72
     1
  1
D
  7
CONVERTER_11
 73
     1
 44
1.20048019207683
  0
MTEXT
  5
3D5
330
71
100
AcDbEntity
  8
1
 62
     7
100
AcDbMText
 10
-894.9743909118238
 20
-981.0625195008023
 30
0.0
 40
3.5
 41
0.0
 71
     5
 72
     1
  1
B
  7
CONVERTER_11
 73
     1
 44
1.20048019207683
  0
MTEXT
  5
3D6
330
71
100
AcDbEntity
  8
1
 62
     7
100
AcDbMText
 10
-894.9743909118238
 20
-928.5625195008042
 30
0.0
 40
3.5
 41
0.0
 71
     5
 72
     1
  1
A
  7
CONVERTER_11
 73
     1
 44
1.20048019207683
  0
MTEXT
  5
3D7
330
71
100
AcDbEntity
  8
1
 62
     7
100
AcDbMText
 10
-894.9743909118238
 20
-1031.062519500802
 30
0.0
 40
3.5
 41
0.0
 71
     5
 72
     1
  1
C
  7
CONVERTER_11
 73
     1
 44
1.20048019207683
  0
MTEXT
  5
3D8
330
71
100
AcDbEntity
  8
1
 62
     2
100
AcDbMText
 10
-1061.45721016362
 20
-1093.312519500804
 30
0.0
 40
2.0
 41
0.0
 71
     5
 72
     1
  1
General Information\P- Simplified representation\P- Document excluded from change process\P- Linear dimensions [mm]
  7
CONVERTER_11
 73
     1
 44
1.20048019207683
  0
TEXT
  5
3D9
330
71
100
AcDbEntity
  8
1
 62
     7
100
AcDbText
 10
-989.1191954385731
 20
-1096.262519500804
 30
0.0
 40
2.5
  1
0712000
 41
0.81
  7
CONVERTER_12
100
AcDbText
  0
MTEXT
  5
3DA
330
71
100
AcDbEntity
  8
1
 62
     2
100
AcDbMText
 10
-989.5191954385728
 20
-1090.062519500804
 30
0.0
 40
1.8
 41
0.0
 71
     1
 72
     1
  1
ident.-No.
  7
CONVERTER_11
 73
     1
 44
1.20048019207683
  0
MTEXT
  5
3DB
330
71
100
AcDbEntity
  8
1
 62
     2
100
AcDbMText
 10
-905.2927991935001
 20
-1081.562519500804
 30
0.0
 40
1.8
 41
0.0
 71
     1
 72
     1
  1
scale
  7
CONVERTER_11
 73
     1
 44
1.20048019207683
  0
MTEXT
  5
3DD
330
71
100
AcDbEntity
  8
1
 62
     3
100
AcDbMText
 10
-901.9335950526605
 20
-1087.762519500804
 30
0.0
 40
2.5
 41
0.0
 71
     8
 72
     1
  1
1:1
  7
CONVERTER_13
 73
     1
 44
1.32052821128451
  0
TEXT
  5
3DE
330
71
100
AcDbEntity
  8
1
 62
     7
100
AcDbText
 10
-989.5191954385728
 20
-1087.762519500804
 30
0.0
 40
2.5
  1
00472846
 41
0.81
  7
CONVERTER_12
100
AcDbText
  0
MTEXT
  5
3E0
330
71
100
AcDbEntity
  8
1
 62
     2
100
AcDbMText
 10
-989.5191954385728
 20
-1081.562519500804
 30
0.0
 40
1.8
 41
0.0
 71
     1
 72
     1
  1
document-No. / RI
  7
CONVERTER_14
 73
     1
 44
1.32052821128451
  0
TEXT
  5
3E1
330
71
100
AcDbEntity
  8
1
 62
     3
100
AcDbText
 10
-961.7191954385728
 20
-1096.262519500804
 30
0.0
 40
2.5
  1
TECDOC 2D_Productdrawing
 41
0.81
  7
CONVERTER_12
100
AcDbText
  0
MTEXT
  5
3E2
330
71
100
AcDbEntity
  8
1
 62
     2
100
AcDbMText
 10
-961.7191954385728
 20
-1090.062519500804
 30
0.0
 40
1.8
 41
0.0
 71
     1
 72
     1
  1
document-type
  7
CONVERTER_11
 73
     1
 44
1.20048019207683
  0
MTEXT
  5
3E3
330
71
100
AcDbEntity
  8
1
 62
     2
100
AcDbMText
 10
-931.8927991934999
 20
-1081.562519500804
 30
0.0
 40
1.8
 41
0.0
 71
     1
 72
     1
  1
date
  7
CONVERTER_11
 73
     1
 44
1.32052821128451
  0
TEXT
  5
3E4
330
71
100
AcDbEntity
  8
1
 62
     3
100
AcDbText
 10
-931.8927991934999
 20
-1087.762519500804
 30
0.0
 40
2.5
  1
13.01.2018
 41
0.81
  7
CONVERTER_12
100
AcDbText
  0
TEXT
  5
3E5
330
71
100
AcDbEntity
  8
1
 62
     7
100
AcDbText
 10
-969.489283219517
 20
-1087.762519500804
 30
0.0
 40
2.5
  1
01
 41
0.81
  7
CONVERTER_12
100
AcDbText
  0
TEXT
  5
3E6
330
71
100
AcDbEntity
  8
1
 62
     7
100
AcDbText
 10
-971.645647716559
 20
-1087.762519500804
 30
0.0
 40
2.5
  1
/
 41
0.9
  7
CONVERTER_11
100
AcDbText
  0
HATCH
  5
3E7
330
71
100
AcDbEntity
  8
1
  6
Continuous
 62
     2
100
AcDbHatch
 10
0.0
 20
0.0
 30
0.0
210
0.0
220
0.0
230
1.0
  2
_USER
 70
     0
 71
     1
 91
        1
 92
        1
 93
       12
 72
     1
 10
-1009.351694725612
 20
-1095.409829024614
 11
-1010.544487427778
 21
-1095.409829024614
 72
     1
 10
-1010.544487427778
 20
-1095.409829024614
 11
-1010.544487427778
 21
-1094.27555691577
 72
     1
 10
-1010.544487427778
 20
-1094.27555691577
 11
-1011.594145005686
 21
-1094.27555691577
 72
     1
 10
-1011.594145005686
 20
-1094.27555691577
 11
-1011.594145005686
 21
-1095.409829024614
 72
     1
 10
-1011.594145005686
 20
-1095.409829024614
 11
-1012.786937707852
 21
-1095.409829024614
 72
     1
 10
-1012.786937707852
 20
-1095.409829024614
 11
-1012.786937707852
 21
-1092.356019500802
 72
     1
 10
-1012.786937707852
 20
-1092.356019500802
 11
-1011.594145005686
 21
-1092.356019500802
 72
     1
 10
-1011.594145005686
 20
-1092.356019500802
 11
-1011.594145005686
 21
-1093.424852834137
 72
     1
 10
-1011.594145005686
 20
-1093.424852834137
 11
-1010.544487427778
 21
-1093.424852834137
 72
     1
 10
-1010.544487427778
 20
-1093.424852834137
 11
-1010.544487427778
 21
-1092.356019500802
 72
     1
 10
-1010.544487427778
 20
-1092.356019500802
 11
-1009.351694725612
 21
-1092.356019500802
 72
     1
 10
-1009.351694725612
 20
-1092.356019500802
 11
-1009.351694725612
 21
-1095.409829024614
 97
       12
330
354
330
355
330
33F
330
33E
330
33D
330
351
330
33C
330
352
330
353
330
33B
330
33A
330
339
 75
     1
 76
     0
 52
45.0
 41
0.1
 77
     0
 78
     1
 53
45.0
 43
0.0
 44
0.0
 45
-0.0707106781186548
 46
0.0707106781186548
 79
     0
 98
        1
 10
0.0
 20
0.0
  0
HATCH
  5
3E8
330
71
100
AcDbEntity
  8
1
  6
Continuous
 62
     2
100
AcDbHatch
 10
0.0
 20
0.0
 30
0.0
210
0.0
220
0.0
230
1.0
  2
_USER
 70
     0
 71
     1
 91
        1
 92
        1
 93
       12
 72
     1
 10
-1009.351694725612
 20
-1095.409829024614
 11
-1010.544487427778
 21
-1095.409829024614
 72
     1
 10
-1010.544487427778
 20
-1095.409829024614
 11
-1010.544487427778
 21
-1094.27555691577
 72
     1
 10
-1010.544487427778
 20
-1094.27555691577
 11
-1011.594145005686
 21
-1094.27555691577
 72
     1
 10
-1011.594145005686
 20
-1094.27555691577
 11
-1011.594145005686
 21
-1095.409829024614
 72
     1
 10
-1011.594145005686
 20
-1095.409829024614
 11
-1012.786937707852
 21
-1095.409829024614
 72
     1
 10
-1012.786937707852
 20
-1095.409829024614
 11
-1012.786937707852
 21
-1092.356019500802
 72
     1
 10
-1012.786937707852
 20
-1092.356019500802
 11
-1011.594145005686
 21
-1092.356019500802
 72
     1
 10
-1011.594145005686
 20
-1092.356019500802
 11
-1011.594145005686
 21
-1093.424852834137
 72
     1
 10
-1011.594145005686
 20
-1093.424852834137
 11
-1010.544487427778
 21
-1093.424852834137
 72
     1
 10
-1010.544487427778
 20
-1093.424852834137
 11
-1010.544487427778
 21
-1092.356019500802
 72
     1
 10
-1010.544487427778
 20
-1092.356019500802
 11
-1009.351694725612
 21
-1092.356019500802
 72
     1
 10
-1009.351694725612
 20
-1092.356019500802
 11
-1009.351694725612
 21
-1095.409829024614
 97
       12
330
354
330
355
330
33F
330
33E
330
33D
330
351
330
33C
330
352
330
353
330
33B
330
33A
330
339
 75
     1
 76
     0
 52
45.0
 41
0.1
 77
     0
 78
     1
 53
45.0
 43
0.0
 44
0.0
 45
-0.0707106781186548
 46
0.0707106781186548
 79
     0
 98
        1
 10
0.0
 20
0.0
  0
HATCH
  5
3E9
330
71
100
AcDbEntity
  8
1
  6
Continuous
 62
     2
100
AcDbHatch
 10
0.0
 20
0.0
 30
0.0
210
0.0
220
0.0
230
1.0
  2
_USER
 70
     0
 71
     1
 91
        1
 92
        1
 93
       10
 72
     1
 10
-1007.109395376423
 20
-1097.023985487182
 11
-1008.349899786676
 21
-1095.715209976977
 72
     1
 10
-1008.349899786676
 20
-1095.715209976977
 11
-1009.542692488844
 21
-1095.715209976977
 72
     1
 10
-1009.542692488844
 20
-1095.715209976977
 11
-1009.542692488844
 21
-1098.769019500788
 72
     1
 10
-1009.542692488844
 20
-1098.769019500788
 11
-1008.349899786676
 21
-1098.769019500788
 72
     1
 10
-1008.349899786676
 20
-1098.769019500788
 11
-1008.349899786676
 21
-1097.460243990583
 72
     1
 10
-1008.349899786676
 20
-1097.460243990583
 11
-1007.109395376423
 21
-1098.769019500788
 72
     1
 10
-1007.109395376423
 20
-1098.769019500788
 11
-1005.916602674257
 21
-1098.769019500788
 72
     1
 10
-1005.916602674257
 20
-1098.769019500788
 11
-1005.916602674257
 21
-1095.715209976977
 72
     1
 10
-1005.916602674257
 20
-1095.715209976977
 11
-1007.109395376423
 21
-1095.715209976977
 72
     1
 10
-1007.109395376423
 20
-1095.715209976977
 11
-1007.109395376423
 21
-1097.023985487182
 97
       10
330
362
330
332
330
331
330
334
330
35D
330
35E
330
333
330
35F
330
360
330
361
 75
     1
 76
     0
 52
45.0
 41
0.1
 77
     0
 78
     1
 53
45.0
 43
0.0
 44
0.0
 45
-0.0707106781186548
 46
0.0707106781186548
 79
     0
 98
        1
 10
0.0
 20
0.0
  0
HATCH
  5
3EA
330
71
100
AcDbEntity
  8
1
  6
Continuous
 62
     2
100
AcDbHatch
 10
0.0
 20
0.0
 30
0.0
210
0.0
220
0.0
230
1.0
  2
_USER
 70
     0
 71
     1
 91
        1
 92
        1
 93
       10
 72
     1
 10
-1007.109395376423
 20
-1097.023985487182
 11
-1008.349899786676
 21
-1095.715209976977
 72
     1
 10
-1008.349899786676
 20
-1095.715209976977
 11
-1009.542692488844
 21
-1095.715209976977
 72
     1
 10
-1009.542692488844
 20
-1095.715209976977
 11
-1009.542692488844
 21
-1098.769019500788
 72
     1
 10
-1009.542692488844
 20
-1098.769019500788
 11
-1008.349899786676
 21
-1098.769019500788
 72
     1
 10
-1008.349899786676
 20
-1098.769019500788
 11
-1008.349899786676
 21
-1097.460243990583
 72
     1
 10
-1008.349899786676
 20
-1097.460243990583
 11
-1007.109395376423
 21
-1098.769019500788
 72
     1
 10
-1007.109395376423
 20
-1098.769019500788
 11
-1005.916602674257
 21
-1098.769019500788
 72
     1
 10
-1005.916602674257
 20
-1098.769019500788
 11
-1005.916602674257
 21
-1095.715209976977
 72
     1
 10
-1005.916602674257
 20
-1095.715209976977
 11
-1007.109395376423
 21
-1095.715209976977
 72
     1
 10
-1007.109395376423
 20
-1095.715209976977
 11
-1007.109395376423
 21
-1097.023985487182
 97
       10
330
362
330
332
330
331
330
334
330
35D
330
35E
330
333
330
35F
330
360
330
361
 75
     1
 76
     0
 52
45.0
 41
0.1
 77
     0
 78
     1
 53
45.0
 43
0.0
 44
0.0
 45
-0.0707106781186548
 46
0.0707106781186548
 79
     0
 98
        1
 10
0.0
 20
0.0
  0
HATCH
  5
3EB
330
71
100
AcDbEntity
  8
1
  6
Continuous
 62
     2
100
AcDbHatch
 10
0.0
 20
0.0
 30
0.0
210
0.0
220
0.0
230
1.0
  2
_USER
 70
     0
 71
     1
 91
        1
 92
        1
 93
       10
 72
     1
 10
-1001.860956556004
 20
-1093.664795011008
 11
-1003.101460966258
 21
-1092.356019500802
 72
     1
 10
-1003.101460966258
 20
-1092.356019500802
 11
-1004.294253668424
 21
-1092.356019500802
 72
     1
 10
-1004.294253668424
 20
-1092.356019500802
 11
-1004.294253668424
 21
-1095.409829024614
 72
     1
 10
-1004.294253668424
 20
-1095.409829024614
 11
-1003.101460966258
 21
-1095.409829024614
 72
     1
 10
-1003.101460966258
 20
-1095.409829024614
 11
-1003.101460966258
 21
-1094.101053514409
 72
     1
 10
-1003.101460966258
 20
-1094.101053514409
 11
-1001.860956556004
 21
-1095.409829024614
 72
     1
 10
-1001.860956556004
 20
-1095.409829024614
 11
-1000.668163853837
 21
-1095.409829024614
 72
     1
 10
-1000.668163853837
 20
-1095.409829024614
 11
-1000.668163853837
 21
-1092.356019500802
 72
     1
 10
-1000.668163853837
 20
-1092.356019500802
 11
-1001.860956556004
 21
-1092.356019500802
 72
     1
 10
-1001.860956556004
 20
-1092.356019500802
 11
-1001.860956556004
 21
-1093.664795011008
 97
       10
330
367
330
32F
330
32E
330
368
330
32D
330
363
330
364
330
365
330
366
330
330
 75
     1
 76
     0
 52
45.0
 41
0.1
 77
     0
 78
     1
 53
45.0
 43
0.0
 44
0.0
 45
-0.0707106781186548
 46
0.0707106781186548
 79
     0
 98
        1
 10
0.0
 20
0.0
  0
HATCH
  5
3EC
330
71
100
AcDbEntity
  8
1
  6
Continuous
 62
     2
100
AcDbHatch
 10
0.0
 20
0.0
 30
0.0
210
0.0
220
0.0
230
1.0
  2
_USER
 70
     0
 71
     1
 91
        1
 92
        1
 93
       10
 72
     1
 10
-1001.860956556004
 20
-1093.664795011008
 11
-1003.101460966258
 21
-1092.356019500802
 72
     1
 10
-1003.101460966258
 20
-1092.356019500802
 11
-1004.294253668424
 21
-1092.356019500802
 72
     1
 10
-1004.294253668424
 20
-1092.356019500802
 11
-1004.294253668424
 21
-1095.409829024614
 72
     1
 10
-1004.294253668424
 20
-1095.409829024614
 11
-1003.101460966258
 21
-1095.409829024614
 72
     1
 10
-1003.101460966258
 20
-1095.409829024614
 11
-1003.101460966258
 21
-1094.101053514409
 72
     1
 10
-1003.101460966258
 20
-1094.101053514409
 11
-1001.860956556004
 21
-1095.409829024614
 72
     1
 10
-1001.860956556004
 20
-1095.409829024614
 11
-1000.668163853837
 21
-1095.409829024614
 72
     1
 10
-1000.668163853837
 20
-1095.409829024614
 11
-1000.668163853837
 21
-1092.356019500802
 72
     1
 10
-1000.668163853837
 20
-1092.356019500802
 11
-1001.860956556004
 21
-1092.356019500802
 72
     1
 10
-1001.860956556004
 20
-1092.356019500802
 11
-1001.860956556004
 21
-1093.664795011008
 97
       10
330
367
330
32F
330
32E
330
368
330
32D
330
363
330
364
330
365
330
366
330
330
 75
     1
 76
     0
 52
45.0
 41
0.1
 77
     0
 78
     1
 53
45.0
 43
0.0
 44
0.0
 45
-0.0707106781186548
 46
0.0707106781186548
 79
     0
 98
        1
 10
0.0
 20
0.0
  0
HATCH
  5
3ED
330
71
100
AcDbEntity
  8
1
  6
Continuous
 62
     2
100
AcDbHatch
 10
0.0
 20
0.0
 30
0.0
210
0.0
220
0.0
230
1.0
  2
_USER
 70
     0
 71
     1
 91
        1
 92
        1
 93
        8
 72
     1
 10
-1002.958476772883
 20
-1095.715209976977
 11
-1005.773467549997
 21
-1095.715209976977
 72
     1
 10
-1005.773467549997
 20
-1095.715209976977
 11
-1005.773467549997
 21
-1096.500475283101
 72
     1
 10
-1005.773467549997
 20
-1096.500475283101
 11
-1004.962368512522
 21
-1096.500475283101
 72
     1
 10
-1004.962368512522
 20
-1096.500475283101
 11
-1004.962368512522
 21
-1098.769019500788
 72
     1
 10
-1004.962368512522
 20
-1098.769019500788
 11
-1003.769575810356
 21
-1098.769019500788
 72
     1
 10
-1003.769575810356
 20
-1098.769019500788
 11
-1003.769575810356
 21
-1096.500475283101
 72
     1
 10
-1003.769575810356
 20
-1096.500475283101
 11
-1002.958476772883
 21
-1096.500475283101
 72
     1
 10
-1002.958476772883
 20
-1096.500475283101
 11
-1002.958476772883
 21
-1095.715209976977
 97
        8
330
329
330
369
330
328
330
36A
330
36B
330
32C
330
32B
330
32A
 75
     1
 76
     0
 52
45.0
 41
0.1
 77
     0
 78
     1
 53
45.0
 43
0.0
 44
0.0
 45
-0.0707106781186548
 46
0.0707106781186548
 79
     0
 98
        1
 10
0.0
 20
0.0
  0
HATCH
  5
3EE
330
71
100
AcDbEntity
  8
1
  6
Continuous
 62
     2
100
AcDbHatch
 10
0.0
 20
0.0
 30
0.0
210
0.0
220
0.0
230
1.0
  2
_USER
 70
     0
 71
     1
 91
        1
 92
        1
 93
        8
 72
     1
 10
-1002.958476772883
 20
-1095.715209976977
 11
-1005.773467549997
 21
-1095.715209976977
 72
     1
 10
-1005.773467549997
 20
-1095.715209976977
 11
-1005.773467549997
 21
-1096.500475283101
 72
     1
 10
-1005.773467549997
 20
-1096.500475283101
 11
-1004.962368512522
 21
-1096.500475283101
 72
     1
 10
-1004.962368512522
 20
-1096.500475283101
 11
-1004.962368512522
 21
-1098.769019500788
 72
     1
 10
-1004.962368512522
 20
-1098.769019500788
 11
-1003.769575810356
 21
-1098.769019500788
 72
     1
 10
-1003.769575810356
 20
-1098.769019500788
 11
-1003.769575810356
 21
-1096.500475283101
 72
     1
 10
-1003.769575810356
 20
-1096.500475283101
 11
-1002.958476772883
 21
-1096.500475283101
 72
     1
 10
-1002.958476772883
 20
-1096.500475283101
 11
-1002.958476772883
 21
-1095.715209976977
 97
        8
330
329
330
369
330
328
330
36A
330
36B
330
32C
330
32B
330
32A
 75
     1
 76
     0
 52
45.0
 41
0.1
 77
     0
 78
     1
 53
45.0
 43
0.0
 44
0.0
 45
-0.0707106781186548
 46
0.0707106781186548
 79
     0
 98
        1
 10
0.0
 20
0.0
  0
HATCH
  5
3EF
330
71
100
AcDbEntity
  8
1
  6
Continuous
 62
     2
100
AcDbHatch
 10
0.0
 20
0.0
 30
0.0
210
0.0
220
0.0
230
1.0
  2
_USER
 70
     0
 71
     1
 91
        2
 92
        1
 93
        8
 72
     1
 10
-1000.820049316936
 20
-1098.769019500788
 11
-1001.031529370412
 21
-1098.22805895657
 72
     1
 10
-1001.031529370412
 20
-1098.22805895657
 11
-1002.163970947086
 21
-1098.22805895657
 72
     1
 10
-1002.163970947086
 20
-1098.22805895657
 11
-1002.375451000562
 21
-1098.769019500788
 72
     1
 10
-1002.375451000562
 20
-1098.769019500788
 11
-1003.615955410815
 21
-1098.769019500788
 72
     1
 10
-1003.615955410815
 20
-1098.769019500788
 11
-1002.218002363875
 21
-1095.715209976977
 72
     1
 10
-1002.218002363875
 20
-1095.715209976977
 11
-1000.977497953623
 21
-1095.715209976977
 72
     1
 10
-1000.977497953623
 20
-1095.715209976977
 11
-999.5795449066823
 21
-1098.769019500788
 72
     1
 10
-999.5795449066823
 20
-1098.769019500788
 11
-1000.820049316936
 21
-1098.769019500788
 97
        8
330
36D
330
36E
330
325
330
36F
330
324
330
327
330
36C
330
326
 92
       16
 93
        3
 72
     1
 10
-1001.897915395941
 20
-1097.547495691264
 11
-1001.597750158748
 21
-1096.779680725277
 72
     1
 10
-1001.597750158748
 20
-1096.779680725277
 11
-1001.297584921558
 21
-1097.547495691264
 72
     1
 10
-1001.297584921558
 20
-1097.547495691264
 11
-1001.897915395941
 21
-1097.547495691264
 97
        3
330
323
330
371
330
370
 75
     1
 76
     0
 52
45.0
 41
0.1
 77
     0
 78
     1
 53
45.0
 43
0.0
 44
0.0
 45
-0.0707106781186548
 46
0.0707106781186548
 79
     0
 98
        1
 10
0.0
 20
0.0
  0
HATCH
  5
3F0
330
71
100
AcDbEntity
  8
1
  6
Continuous
 62
     2
100
AcDbHatch
 10
0.0
 20
0.0
 30
0.0
210
0.0
220
0.0
230
1.0
  2
_USER
 70
     0
 71
     1
 91
        2
 92
        1
 93
        8
 72
     1
 10
-1000.820049316936
 20
-1098.769019500788
 11
-1001.031529370412
 21
-1098.22805895657
 72
     1
 10
-1001.031529370412
 20
-1098.22805895657
 11
-1002.163970947086
 21
-1098.22805895657
 72
     1
 10
-1002.163970947086
 20
-1098.22805895657
 11
-1002.375451000562
 21
-1098.769019500788
 72
     1
 10
-1002.375451000562
 20
-1098.769019500788
 11
-1003.615955410815
 21
-1098.769019500788
 72
     1
 10
-1003.615955410815
 20
-1098.769019500788
 11
-1002.218002363875
 21
-1095.715209976977
 72
     1
 10
-1002.218002363875
 20
-1095.715209976977
 11
-1000.977497953623
 21
-1095.715209976977
 72
     1
 10
-1000.977497953623
 20
-1095.715209976977
 11
-999.5795449066823
 21
-1098.769019500788
 72
     1
 10
-999.5795449066823
 20
-1098.769019500788
 11
-1000.820049316936
 21
-1098.769019500788
 97
        8
330
36D
330
36E
330
325
330
36F
330
324
330
327
330
36C
330
326
 92
       16
 93
        3
 72
     1
 10
-1001.897915395941
 20
-1097.547495691264
 11
-1001.597750158748
 21
-1096.779680725277
 72
     1
 10
-1001.597750158748
 20
-1096.779680725277
 11
-1001.297584921558
 21
-1097.547495691264
 72
     1
 10
-1001.297584921558
 20
-1097.547495691264
 11
-1001.897915395941
 21
-1097.547495691264
 97
        3
330
323
330
371
330
370
 75
     1
 76
     0
 52
45.0
 41
0.1
 77
     0
 78
     1
 53
45.0
 43
0.0
 44
0.0
 45
-0.0707106781186548
 46
0.0707106781186548
 79
     0
 98
        1
 10
0.0
 20
0.0
  0
HATCH
  5
3F1
330
71
100
AcDbEntity
  8
1
  6
Continuous
 62
     2
100
AcDbHatch
 10
0.0
 20
0.0
 30
0.0
210
0.0
220
0.0
230
1.0
  2
_USER
 70
     0
 71
     1
 91
        1
 92
        1
 93
        4
 72
     1
 10
-999.1891009031502
 20
-1095.409829024614
 11
-1000.429605313403
 21
-1095.409829024614
 72
     1
 10
-1000.429605313403
 20
-1095.409829024614
 11
-1000.429605313403
 21
-1092.356019500802
 72
     1
 10
-1000.429605313403
 20
-1092.356019500802
 11
-999.1891009031502
 21
-1092.356019500802
 72
     1
 10
-999.1891009031502
 20
-1092.356019500802
 11
-999.1891009031502
 21
-1095.409829024614
 97
        4
330
320
330
322
330
372
330
321
 75
     1
 76
     0
 52
45.0
 41
0.1
 77
     0
 78
     1
 53
45.0
 43
0.0
 44
0.0
 45
-0.0707106781186548
 46
0.0707106781186548
 79
     0
 98
        1
 10
0.0
 20
0.0
  0
HATCH
  5
3F2
330
71
100
AcDbEntity
  8
1
  6
Continuous
 62
     2
100
AcDbHatch
 10
0.0
 20
0.0
 30
0.0
210
0.0
220
0.0
230
1.0
  2
_USER
 70
     0
 71
     1
 91
        1
 92
        1
 93
        4
 72
     1
 10
-999.1891009031502
 20
-1095.409829024614
 11
-1000.429605313403
 21
-1095.409829024614
 72
     1
 10
-1000.429605313403
 20
-1095.409829024614
 11
-1000.429605313403
 21
-1092.356019500802
 72
     1
 10
-1000.429605313403
 20
-1092.356019500802
 11
-999.1891009031502
 21
-1092.356019500802
 72
     1
 10
-999.1891009031502
 20
-1092.356019500802
 11
-999.1891009031502
 21
-1095.409829024614
 97
        4
330
320
330
322
330
372
330
321
 75
     1
 76
     0
 52
45.0
 41
0.1
 77
     0
 78
     1
 53
45.0
 43
0.0
 44
0.0
 45
-0.0707106781186548
 46
0.0707106781186548
 79
     0
 98
        1
 10
0.0
 20
0.0
  0
HATCH
  5
3F3
330
71
100
AcDbEntity
  8
1
  6
Continuous
 62
     2
100
AcDbHatch
 10
0.0
 20
0.0
 30
0.0
210
0.0
220
0.0
230
1.0
  2
_USER
 70
     0
 71
     1
 91
        1
 92
        1
 93
       12
 72
     1
 10
-994.9666147374794
 20
-1092.356019500802
 11
-996.269144368246
 21
-1093.828970030839
 72
     1
 10
-996.269144368246
 20
-1093.828970030839
 11
-994.8711913213057
 21
-1095.409829024614
 72
     1
 10
-994.8711913213057
 20
-1095.409829024614
 11
-996.273915539054
 21
-1095.409829024614
 72
     1
 10
-996.273915539054
 20
-1095.409829024614
 11
-996.9705064771194
 21
-1094.62209723932
 72
     1
 10
-996.9705064771194
 20
-1094.62209723932
 11
-997.6670974151851
 21
-1095.409829024614
 72
     1
 10
-997.6670974151851
 20
-1095.409829024614
 11
-999.0698216329333
 21
-1095.409829024614
 72
     1
 10
-999.0698216329333
 20
-1095.409829024614
 11
-997.671868585993
 21
-1093.828970030839
 72
     1
 10
-997.671868585993
 20
-1093.828970030839
 11
-998.9743982167606
 21
-1092.356019500802
 72
     1
 10
-998.9743982167606
 20
-1092.356019500802
 11
-997.5716739990113
 21
-1092.356019500802
 72
     1
 10
-997.5716739990113
 20
-1092.356019500802
 11
-996.9705064771194
 21
-1093.035842822358
 72
     1
 10
-996.9705064771194
 20
-1093.035842822358
 11
-996.3693389552267
 21
-1092.356019500802
 72
     1
 10
-996.3693389552267
 20
-1092.356019500802
 11
-994.9666147374794
 21
-1092.356019500802
 97
       12
330
31B
330
31A
330
319
330
376
330
377
330
373
330
374
330
31F
330
31E
330
31D
330
31C
330
375
 75
     1
 76
     0
 52
45.0
 41
0.1
 77
     0
 78
     1
 53
45.0
 43
0.0
 44
0.0
 45
-0.0707106781186548
 46
0.0707106781186548
 79
     0
 98
        1
 10
0.0
 20
0.0
  0
HATCH
  5
3F4
330
71
100
AcDbEntity
  8
1
  6
Continuous
 62
     2
100
AcDbHatch
 10
0.0
 20
0.0
 30
0.0
210
0.0
220
0.0
230
1.0
  2
_USER
 70
     0
 71
     1
 91
        1
 92
        1
 93
       12
 72
     1
 10
-994.9666147374794
 20
-1092.356019500802
 11
-996.269144368246
 21
-1093.828970030839
 72
     1
 10
-996.269144368246
 20
-1093.828970030839
 11
-994.8711913213057
 21
-1095.409829024614
 72
     1
 10
-994.8711913213057
 20
-1095.409829024614
 11
-996.273915539054
 21
-1095.409829024614
 72
     1
 10
-996.273915539054
 20
-1095.409829024614
 11
-996.9705064771194
 21
-1094.62209723932
 72
     1
 10
-996.9705064771194
 20
-1094.62209723932
 11
-997.6670974151851
 21
-1095.409829024614
 72
     1
 10
-997.6670974151851
 20
-1095.409829024614
 11
-999.0698216329333
 21
-1095.409829024614
 72
     1
 10
-999.0698216329333
 20
-1095.409829024614
 11
-997.671868585993
 21
-1093.828970030839
 72
     1
 10
-997.671868585993
 20
-1093.828970030839
 11
-998.9743982167606
 21
-1092.356019500802
 72
     1
 10
-998.9743982167606
 20
-1092.356019500802
 11
-997.5716739990113
 21
-1092.356019500802
 72
     1
 10
-997.5716739990113
 20
-1092.356019500802
 11
-996.9705064771194
 21
-1093.035842822358
 72
     1
 10
-996.9705064771194
 20
-1093.035842822358
 11
-996.3693389552267
 21
-1092.356019500802
 72
     1
 10
-996.3693389552267
 20
-1092.356019500802
 11
-994.9666147374794
 21
-1092.356019500802
 97
       12
330
31B
330
31A
330
319
330
376
330
377
330
373
330
374
330
31F
330
31E
330
31D
330
31C
330
375
 75
     1
 76
     0
 52
45.0
 41
0.1
 77
     0
 78
     1
 53
45.0
 43
0.0
 44
0.0
 45
-0.0707106781186548
 46
0.0707106781186548
 79
     0
 98
        1
 10
0.0
 20
0.0
  0
HATCH
  5
3F5
330
71
100
AcDbEntity
  8
1
  6
Continuous
 62
     2
100
AcDbHatch
 10
0.0
 20
0.0
 30
0.0
210
0.0
220
0.0
230
1.0
  2
_USER
 70
     0
 71
     1
 91
        2
 92
        1
 93
        6
 72
     1
 10
-1013.984350151625
 20
-1094.46675078347
 11
-1014.743117739406
 21
-1094.46675078347
 72
     1
 10
-1014.743117739406
 20
-1094.46675078347
 11
-1014.743117739406
 21
-1095.409829024614
 72
     1
 10
-1014.743117739406
 20
-1095.409829024614
 11
-1015.98362214966
 21
-1095.409829024614
 72
     1
 10
-1015.98362214966
 20
-1095.409829024614
 11
-1015.98362214966
 21
-1092.356019500802
 72
     1
 10
-1015.98362214966
 20
-1092.356019500802
 11
-1013.984350151625
 21
-1092.356019500802
 72
     2
 10
-1013.984350151625
 20
-1093.411385142136
 40
1.055365641333992
 50
270.0
 51
450.0
 73
     0
 97
        6
330
343
330
342
330
34F
330
34E
330
344
330
394
 92
       16
 93
        4
 72
     2
 10
-1014.425822677864
 20
-1093.371989170914
 40
0.3528638246709761
 50
270.0
 51
450.0
 73
     1
 72
     1
 10
-1014.425822677864
 20
-1093.019125346243
 11
-1014.743117739406
 21
-1093.019125346243
 72
     1
 10
-1014.743117739406
 20
-1093.019125346243
 11
-1014.743117739406
 21
-1093.724852995585
 72
     1
 10
-1014.743117739406
 20
-1093.724852995585
 11
-1014.425822677864
 21
-1093.724852995585
 97
        4
330
3A8
330
340
330
350
330
341
 75
     1
 76
     0
 52
45.0
 41
0.1
 77
     0
 78
     1
 53
45.0
 43
0.0
 44
0.0
 45
-0.0707106781186548
 46
0.0707106781186548
 79
     0
 98
        1
 10
0.0
 20
0.0
  0
HATCH
  5
3F6
330
71
100
AcDbEntity
  8
1
  6
Continuous
 62
     2
100
AcDbHatch
 10
0.0
 20
0.0
 30
0.0
210
0.0
220
0.0
230
1.0
  2
_USER
 70
     0
 71
     1
 91
        2
 92
        1
 93
        6
 72
     1
 10
-1013.984350151625
 20
-1094.46675078347
 11
-1014.743117739406
 21
-1094.46675078347
 72
     1
 10
-1014.743117739406
 20
-1094.46675078347
 11
-1014.743117739406
 21
-1095.409829024614
 72
     1
 10
-1014.743117739406
 20
-1095.409829024614
 11
-1015.98362214966
 21
-1095.409829024614
 72
     1
 10
-1015.98362214966
 20
-1095.409829024614
 11
-1015.98362214966
 21
-1092.356019500802
 72
     1
 10
-1015.98362214966
 20
-1092.356019500802
 11
-1013.984350151625
 21
-1092.356019500802
 72
     2
 10
-1013.984350151625
 20
-1093.411385142136
 40
1.055365641333992
 50
270.0
 51
450.0
 73
     0
 97
        6
330
343
330
342
330
34F
330
34E
330
344
330
394
 92
       16
 93
        4
 72
     2
 10
-1014.425822677864
 20
-1093.371989170914
 40
0.3528638246709761
 50
270.0
 51
450.0
 73
     1
 72
     1
 10
-1014.425822677864
 20
-1093.019125346243
 11
-1014.743117739406
 21
-1093.019125346243
 72
     1
 10
-1014.743117739406
 20
-1093.019125346243
 11
-1014.743117739406
 21
-1093.724852995585
 72
     1
 10
-1014.743117739406
 20
-1093.724852995585
 11
-1014.425822677864
 21
-1093.724852995585
 97
        4
330
3A8
330
340
330
350
330
341
 75
     1
 76
     0
 52
45.0
 41
0.1
 77
     0
 78
     1
 53
45.0
 43
0.0
 44
0.0
 45
-0.0707106781186548
 46
0.0707106781186548
 79
     0
 98
        1
 10
0.0
 20
0.0
  0
HATCH
  5
3F7
330
71
100
AcDbEntity
  8
1
  6
Continuous
 62
     2
100
AcDbHatch
 10
0.0
 20
0.0
 30
0.0
210
0.0
220
0.0
230
1.0
  2
_USER
 70
     0
 71
     1
 91
        2
 92
        1
 93
        4
 72
     2
 10
-1011.427807403266
 20
-1097.780689749186
 40
2.065479772209301
 50
62.45185182431342
 51
117.5481481756614
 73
     1
 72
     2
 10
-1011.7087472951
 20
-1097.242114738883
 40
1.458034083651732
 50
117.5481481756348
 51
242.4518518243487
 73
     1
 72
     2
 10
-1011.427807403266
 20
-1096.703539728579
 40
2.065479772208827
 50
242.4518518243386
 51
297.5481481756866
 73
     1
 72
     2
 10
-1011.146867511433
 20
-1097.242114738883
 40
1.458034083651872
 50
297.5481481757226
 51
422.4518518242939
 73
     1
 97
        4
330
3A0
330
39F
330
3A1
330
39E
 92
       16
 93
        4
 72
     2
 10
-1011.627547439613
 20
-1097.242114738883
 40
0.7717997786795062
 50
321.8795802028254
 51
398.1204197971746
 73
     1
 72
     2
 10
-1011.427807403266
 20
-1097.085383560762
 40
0.517908573012476
 50
38.12041979717858
 51
141.8795802028913
 73
     1
 72
     2
 10
-1011.22806736692
 20
-1097.242114738883
 40
0.7717997786795957
 50
141.8795802028306
 51
218.1204197971694
 73
     1
 72
     2
 10
-1011.427807403266
 20
-1097.398845917003
 40
0.5179085730138424
 50
218.1204197971879
 51
321.8795802027422
 73
     1
 97
        4
330
3BC
330
3B9
330
3BA
330
3BB
 75
     1
 76
     0
 52
45.0
 41
0.1
 77
     0
 78
     1
 53
45.0
 43
0.0
 44
0.0
 45
-0.0707106781186548
 46
0.0707106781186548
 79
     0
 98
        1
 10
0.0
 20
0.0
  0
HATCH
  5
3F8
330
71
100
AcDbEntity
  8
1
  6
Continuous
 62
     2
100
AcDbHatch
 10
0.0
 20
0.0
 30
0.0
210
0.0
220
0.0
230
1.0
  2
_USER
 70
     0
 71
     1
 91
        2
 92
        1
 93
        4
 72
     2
 10
-1011.427807403266
 20
-1097.780689749186
 40
2.065479772209301
 50
62.45185182431342
 51
117.5481481756614
 73
     1
 72
     2
 10
-1011.7087472951
 20
-1097.242114738883
 40
1.458034083651732
 50
117.5481481756348
 51
242.4518518243487
 73
     1
 72
     2
 10
-1011.427807403266
 20
-1096.703539728579
 40
2.065479772208827
 50
242.4518518243386
 51
297.5481481756866
 73
     1
 72
     2
 10
-1011.146867511433
 20
-1097.242114738883
 40
1.458034083651872
 50
297.5481481757226
 51
422.4518518242939
 73
     1
 97
        4
330
3A0
330
39F
330
3A1
330
39E
 92
       16
 93
        4
 72
     2
 10
-1011.627547439613
 20
-1097.242114738883
 40
0.7717997786795062
 50
321.8795802028254
 51
398.1204197971746
 73
     1
 72
     2
 10
-1011.427807403266
 20
-1097.085383560762
 40
0.517908573012476
 50
38.12041979717858
 51
141.8795802028913
 73
     1
 72
     2
 10
-1011.22806736692
 20
-1097.242114738883
 40
0.7717997786795957
 50
141.8795802028306
 51
218.1204197971694
 73
     1
 72
     2
 10
-1011.427807403266
 20
-1097.398845917003
 40
0.5179085730138424
 50
218.1204197971879
 51
321.8795802027422
 73
     1
 97
        4
330
3BC
330
3B9
330
3BA
330
3BB
 75
     1
 76
     0
 52
45.0
 41
0.1
 77
     0
 78
     1
 53
45.0
 43
0.0
 44
0.0
 45
-0.0707106781186548
 46
0.0707106781186548
 79
     0
 98
        1
 10
0.0
 20
0.0
  0
HATCH
  5
3F9
330
71
100
AcDbEntity
  8
1
  6
Continuous
 62
     2
100
AcDbHatch
 10
0.0
 20
0.0
 30
0.0
210
0.0
220
0.0
230
1.0
  2
_USER
 70
     0
 71
     1
 91
        2
 92
        1
 93
       12
 72
     1
 10
-1004.532812208857
 20
-1093.054033106246
 11
-1005.868740035285
 21
-1093.054033106246
 72
     1
 10
-1005.868740035285
 20
-1093.054033106246
 11
-1005.868740035285
 21
-1093.533917459987
 72
     1
 10
-1005.868740035285
 20
-1093.533917459987
 11
-1004.532812208857
 21
-1093.533917459987
 72
     1
 10
-1004.532812208857
 20
-1093.533917459987
 11
-1004.532812208857
 21
-1094.231931065429
 72
     1
 10
-1004.532812208857
 20
-1094.231931065429
 11
-1005.868740035285
 21
-1094.231931065429
 72
     1
 10
-1005.868740035285
 20
-1094.231931065429
 11
-1005.868740035285
 21
-1094.711815419171
 72
     1
 10
-1005.868740035285
 20
-1094.711815419171
 11
-1004.532812208857
 21
-1094.711815419171
 72
     1
 10
-1004.532812208857
 20
-1094.711815419171
 11
-1004.532812208857
 21
-1095.409829024614
 72
     1
 10
-1004.532812208857
 20
-1095.409829024614
 11
-1007.683131932638
 21
-1095.409829024614
 72
     2
 10
-1007.683131932638
 20
-1093.882924262708
 40
1.526904761906053
 50
90.0
 51
270.0
 73
     0
 72
     1
 10
-1007.683131932638
 20
-1092.356019500802
 11
-1004.532812208857
 21
-1092.356019500802
 72
     1
 10
-1004.532812208857
 20
-1092.356019500802
 11
-1004.532812208857
 21
-1093.054033106246
 97
       12
330
357
330
3A9
330
358
330
359
330
35A
330
35B
330
338
330
337
330
336
330
335
330
35C
330
356
 92
       16
 93
        4
 72
     2
 10
-1007.466859922473
 20
-1093.726193084588
 40
0.5179085730138424
 50
38.12041979718787
 51
141.8795802028121
 73
     1
 72
     2
 10
-1007.267119886127
 20
-1093.882924262708
 40
0.7717997786795062
 50
141.8795802028254
 51
218.1204197971746
 73
     1
 72
     2
 10
-1007.466859922473
 20
-1094.039655440829
 40
0.517908573013281
 50
218.1204197971087
 51
321.8795802028913
 73
     1
 72
     2
 10
-1007.666599958819
 20
-1093.882924262708
 40
0.7717997786795957
 50
321.8795802028306
 51
398.1204197971695
 73
     1
 97
        4
330
3A3
330
3A2
330
39D
330
39C
 75
     1
 76
     0
 52
45.0
 41
0.1
 77
     0
 78
     1
 53
45.0
 43
0.0
 44
0.0
 45
-0.0707106781186548
 46
0.0707106781186548
 79
     0
 98
        1
 10
0.0
 20
0.0
  0
HATCH
  5
3FA
330
71
100
AcDbEntity
  8
1
  6
Continuous
 62
     2
100
AcDbHatch
 10
0.0
 20
0.0
 30
0.0
210
0.0
220
0.0
230
1.0
  2
_USER
 70
     0
 71
     1
 91
        2
 92
        1
 93
       12
 72
     1
 10
-1004.532812208857
 20
-1093.054033106246
 11
-1005.868740035285
 21
-1093.054033106246
 72
     1
 10
-1005.868740035285
 20
-1093.054033106246
 11
-1005.868740035285
 21
-1093.533917459987
 72
     1
 10
-1005.868740035285
 20
-1093.533917459987
 11
-1004.532812208857
 21
-1093.533917459987
 72
     1
 10
-1004.532812208857
 20
-1093.533917459987
 11
-1004.532812208857
 21
-1094.231931065429
 72
     1
 10
-1004.532812208857
 20
-1094.231931065429
 11
-1005.868740035285
 21
-1094.231931065429
 72
     1
 10
-1005.868740035285
 20
-1094.231931065429
 11
-1005.868740035285
 21
-1094.711815419171
 72
     1
 10
-1005.868740035285
 20
-1094.711815419171
 11
-1004.532812208857
 21
-1094.711815419171
 72
     1
 10
-1004.532812208857
 20
-1094.711815419171
 11
-1004.532812208857
 21
-1095.409829024614
 72
     1
 10
-1004.532812208857
 20
-1095.409829024614
 11
-1007.683131932638
 21
-1095.409829024614
 72
     2
 10
-1007.683131932638
 20
-1093.882924262708
 40
1.526904761906053
 50
90.0
 51
270.0
 73
     0
 72
     1
 10
-1007.683131932638
 20
-1092.356019500802
 11
-1004.532812208857
 21
-1092.356019500802
 72
     1
 10
-1004.532812208857
 20
-1092.356019500802
 11
-1004.532812208857
 21
-1093.054033106246
 97
       12
330
357
330
3A9
330
358
330
359
330
35A
330
35B
330
338
330
337
330
336
330
335
330
35C
330
356
 92
       16
 93
        4
 72
     2
 10
-1007.466859922473
 20
-1093.726193084588
 40
0.5179085730138424
 50
38.12041979718787
 51
141.8795802028121
 73
     1
 72
     2
 10
-1007.267119886127
 20
-1093.882924262708
 40
0.7717997786795062
 50
141.8795802028254
 51
218.1204197971746
 73
     1
 72
     2
 10
-1007.466859922473
 20
-1094.039655440829
 40
0.517908573013281
 50
218.1204197971087
 51
321.8795802028913
 73
     1
 72
     2
 10
-1007.666599958819
 20
-1093.882924262708
 40
0.7717997786795957
 50
321.8795802028306
 51
398.1204197971695
 73
     1
 97
        4
330
3A3
330
3A2
330
39D
330
39C
 75
     1
 76
     0
 52
45.0
 41
0.1
 77
     0
 78
     1
 53
45.0
 43
0.0
 44
0.0
 45
-0.0707106781186548
 46
0.0707106781186548
 79
     0
 98
        1
 10
0.0
 20
0.0
  0
HATCH
  5
3FB
330
71
100
AcDbEntity
  8
1
  6
Continuous
 62
     2
100
AcDbHatch
 10
0.0
 20
0.0
 30
0.0
210
0.0
220
0.0
230
1.0
  2
_USER
 70
     0
 71
     1
 91
        4
 92
        1
 93
        8
 72
     1
 10
-1016.460739230527
 20
-1092.780264116204
 11
-1016.460739230527
 21
-1098.344774885405
 72
     2
 10
-1016.884983845911
 20
-1098.344774885405
 40
0.4242446153830315
 50
0.0
 51
90.0
 73
     0
 72
     1
 10
-1016.884983845911
 20
-1098.769019500788
 11
-1022.358295936627
 21
-1098.769019500788
 72
     2
 10
-1022.358295936627
 20
-1098.344774885405
 40
0.4242446153830315
 50
90.0
 51
180.0
 73
     0
 72
     1
 10
-1022.78254055201
 20
-1098.344774885405
 11
-1022.78254055201
 21
-1092.780264116204
 72
     2
 10
-1022.358295936627
 20
-1092.780264116204
 40
0.4242446153830315
 50
180.0
 51
270.0
 73
     0
 72
     1
 10
-1022.358295936627
 20
-1092.356019500821
 11
-1016.884983845911
 21
-1092.356019500821
 72
     2
 10
-1016.884983845911
 20
-1092.780264116204
 40
0.4242446153840547
 50
270.0
 51
360.0
 73
     0
 97
        8
330
34B
330
399
330
34C
330
3A4
330
349
330
39B
330
34A
330
39A
 92
       16
 93
        1
 72
     2
 10
-1019.73871028611
 20
-1095.09914634456
 40
0.4709789327789622
 50
0.0
 51
360.0
 73
     1
 97
        1
330
3BF
 92
       16
 93
        8
 72
     2
 10
-1019.188852573349
 20
-1096.208287944528
 40
0.3157169230758826
 50
115.3740086783678
 51
180.0
 73
     1
 72
     1
 10
-1019.504569496426
 20
-1096.208287944528
 11
-1019.504569496426
 21
-1096.790139351223
 72
     2
 10
-1019.188852573349
 20
-1096.790139351223
 40
0.3157169230770478
 50
180.0
 51
269.8110329573155
 73
     1
 72
     2
 10
-1019.183236438039
 20
-1095.087304403654
 40
2.018561131934292
 50
269.8110329575649
 51
450.1889670424352
 73
     1
 72
     2
 10
-1019.188852573349
 20
-1093.384469456085
 40
0.3157169230762441
 50
90.1889670426851
 51
180.0
 73
     1
 72
     1
 10
-1019.504569496426
 20
-1093.384469456085
 11
-1019.504569496426
 21
-1093.990004744592
 72
     2
 10
-1019.188852573349
 20
-1093.990004744592
 40
0.3157169230770478
 50
180.0
 51
244.6259913217205
 73
     1
 72
     2
 10
-1019.714895271437
 20
-1095.09914634456
 40
0.9118481501446578
 50
295.3740086782148
 51
424.6259913218097
 73
     0
 97
        8
330
3B1
330
312
330
3AE
330
3AF
330
38D
330
311
330
3B0
330
38C
 92
       16
 93
       12
 72
     2
 10
-1021.764401259881
 20
-1097.740747022154
 40
0.3157169230760246
 50
180.0
 51
270.0
 73
     1
 72
     1
 10
-1021.764401259881
 20
-1098.056463945231
 11
-1020.288567998871
 21
-1098.056463945231
 72
     2
 10
-1020.288567998871
 20
-1097.740747022154
 40
0.3157169230769341
 50
270.0
 51
360.0
 73
     1
 72
     1
 10
-1019.972851075795
 20
-1097.740747022154
 11
-1019.972851075795
 21
-1096.209976090623
 72
     2
 10
-1020.288567998871
 20
-1096.209976090623
 40
0.3157169230760246
 50
0.0
 51
64.80558935154704
 73
     1
 72
     2
 10
-1019.765983551296
 20
-1095.09914634456
 40
0.9118975235581577
 50
115.1944106485378
 51
244.8055893514622
 73
     0
 72
     2
 10
-1020.288567998871
 20
-1093.988316598498
 40
0.3157169230755121
 50
295.1944106485233
 51
360.0
 73
     1
 72
     1
 10
-1019.972851075795
 20
-1093.988316598498
 11
-1019.972851075795
 21
-1093.384291979437
 72
     2
 10
-1020.288567998871
 20
-1093.384291979437
 40
0.3157169230760246
 50
0.0
 51
90.0
 73
     1
 72
     1
 10
-1020.288567998871
 20
-1093.068575056361
 11
-1021.764401259881
 21
-1093.068575056361
 72
     2
 10
-1021.764401259881
 20
-1093.384291979437
 40
0.3157169230760246
 50
90.0
 51
180.0
 73
     1
 72
     1
 10
-1022.080118182957
 20
-1093.384291979437
 11
-1022.080118182957
 21
-1097.740747022154
 97
       12
330
395
330
34D
330
398
330
348
330
3A5
330
3A6
330
397
330
347
330
396
330
346
330
3A7
330
345
 75
     1
 76
     0
 52
45.0
 41
0.1
 77
     0
 78
     1
 53
45.0
 43
0.0
 44
0.0
 45
-0.0707106781186548
 46
0.0707106781186548
 79
     0
 98
        1
 10
0.0
 20
0.0
  0
HATCH
  5
3FC
330
71
100
AcDbEntity
  8
1
  6
Continuous
 62
     2
100
AcDbHatch
 10
0.0
 20
0.0
 30
0.0
210
0.0
220
0.0
230
1.0
  2
_USER
 70
     0
 71
     1
 91
        4
 92
        1
 93
        8
 72
     1
 10
-1016.460739230527
 20
-1092.780264116204
 11
-1016.460739230527
 21
-1098.344774885405
 72
     2
 10
-1016.884983845911
 20
-1098.344774885405
 40
0.4242446153830315
 50
0.0
 51
90.0
 73
     0
 72
     1
 10
-1016.884983845911
 20
-1098.769019500788
 11
-1022.358295936627
 21
-1098.769019500788
 72
     2
 10
-1022.358295936627
 20
-1098.344774885405
 40
0.4242446153830315
 50
90.0
 51
180.0
 73
     0
 72
     1
 10
-1022.78254055201
 20
-1098.344774885405
 11
-1022.78254055201
 21
-1092.780264116204
 72
     2
 10
-1022.358295936627
 20
-1092.780264116204
 40
0.4242446153830315
 50
180.0
 51
270.0
 73
     0
 72
     1
 10
-1022.358295936627
 20
-1092.356019500821
 11
-1016.884983845911
 21
-1092.356019500821
 72
     2
 10
-1016.884983845911
 20
-1092.780264116204
 40
0.4242446153840547
 50
270.0
 51
360.0
 73
     0
 97
        8
330
34B
330
399
330
34C
330
3A4
330
349
330
39B
330
34A
330
39A
 92
       16
 93
        1
 72
     2
 10
-1019.73871028611
 20
-1095.09914634456
 40
0.4709789327789622
 50
0.0
 51
360.0
 73
     1
 97
        1
330
3BF
 92
       16
 93
        8
 72
     2
 10
-1019.188852573349
 20
-1096.208287944528
 40
0.3157169230758826
 50
115.3740086783678
 51
180.0
 73
     1
 72
     1
 10
-1019.504569496426
 20
-1096.208287944528
 11
-1019.504569496426
 21
-1096.790139351223
 72
     2
 10
-1019.188852573349
 20
-1096.790139351223
 40
0.3157169230770478
 50
180.0
 51
269.8110329573155
 73
     1
 72
     2
 10
-1019.183236438039
 20
-1095.087304403654
 40
2.018561131934292
 50
269.8110329575649
 51
450.1889670424352
 73
     1
 72
     2
 10
-1019.188852573349
 20
-1093.384469456085
 40
0.3157169230762441
 50
90.1889670426851
 51
180.0
 73
     1
 72
     1
 10
-1019.504569496426
 20
-1093.384469456085
 11
-1019.504569496426
 21
-1093.990004744592
 72
     2
 10
-1019.188852573349
 20
-1093.990004744592
 40
0.3157169230770478
 50
180.0
 51
244.6259913217205
 73
     1
 72
     2
 10
-1019.714895271437
 20
-1095.09914634456
 40
0.9118481501446578
 50
295.3740086782148
 51
424.6259913218097
 73
     0
 97
        8
330
3B1
330
312
330
3AE
330
3AF
330
38D
330
311
330
3B0
330
38C
 92
       16
 93
       12
 72
     2
 10
-1021.764401259881
 20
-1097.740747022154
 40
0.3157169230760246
 50
180.0
 51
270.0
 73
     1
 72
     1
 10
-1021.764401259881
 20
-1098.056463945231
 11
-1020.288567998871
 21
-1098.056463945231
 72
     2
 10
-1020.288567998871
 20
-1097.740747022154
 40
0.3157169230769341
 50
270.0
 51
360.0
 73
     1
 72
     1
 10
-1019.972851075795
 20
-1097.740747022154
 11
-1019.972851075795
 21
-1096.209976090623
 72
     2
 10
-1020.288567998871
 20
-1096.209976090623
 40
0.3157169230760246
 50
0.0
 51
64.80558935154704
 73
     1
 72
     2
 10
-1019.765983551296
 20
-1095.09914634456
 40
0.9118975235581577
 50
115.1944106485378
 51
244.8055893514622
 73
     0
 72
     2
 10
-1020.288567998871
 20
-1093.988316598498
 40
0.3157169230755121
 50
295.1944106485233
 51
360.0
 73
     1
 72
     1
 10
-1019.972851075795
 20
-1093.988316598498
 11
-1019.972851075795
 21
-1093.384291979437
 72
     2
 10
-1020.288567998871
 20
-1093.384291979437
 40
0.3157169230760246
 50
0.0
 51
90.0
 73
     1
 72
     1
 10
-1020.288567998871
 20
-1093.068575056361
 11
-1021.764401259881
 21
-1093.068575056361
 72
     2
 10
-1021.764401259881
 20
-1093.384291979437
 40
0.3157169230760246
 50
90.0
 51
180.0
 73
     1
 72
     1
 10
-1022.080118182957
 20
-1093.384291979437
 11
-1022.080118182957
 21
-1097.740747022154
 97
       12
330
395
330
34D
330
398
330
348
330
3A5
330
3A6
330
397
330
347
330
396
330
346
330
3A7
330
345
 75
     1
 76
     0
 52
45.0
 41
0.1
 77
     0
 78
     1
 53
45.0
 43
0.0
 44
0.0
 45
-0.0707106781186548
 46
0.0707106781186548
 79
     0
 98
        1
 10
0.0
 20
0.0
  0
HATCH
  5
3FD
330
71
100
AcDbEntity
  8
1
  6
Continuous
 62
     2
100
AcDbHatch
 10
0.0
 20
0.0
 30
0.0
210
0.0
220
0.0
230
1.0
  2
_USER
 70
     0
 71
     1
 91
        1
 92
        1
 93
       18
 72
     1
 10
-994.8711913213057
 20
-1096.500475283101
 11
-995.682290358779
 21
-1096.500475283101
 72
     1
 10
-995.682290358779
 20
-1096.500475283101
 11
-995.682290358779
 21
-1098.769019500788
 72
     1
 10
-995.682290358779
 20
-1098.769019500788
 11
-996.8750830609467
 21
-1098.769019500788
 72
     1
 10
-996.8750830609467
 20
-1098.769019500788
 11
-996.8750830609467
 21
-1096.500475283101
 72
     1
 10
-996.8750830609467
 20
-1096.500475283101
 11
-997.9787223605149
 21
-1096.500475283101
 72
     2
 10
-997.9787223605149
 20
-1097.454998289927
 40
0.9545230068260935
 50
90.0
 51
109.3371432194175
 73
     1
 72
     2
 10
-998.1253923586186
 20
-1097.037043309544
 40
0.5115800601948339
 50
109.3371432194654
 51
151.4785267424227
 73
     1
 72
     2
 10
-997.7480351005372
 20
-1097.242114738883
 40
0.9410597353348766
 50
151.4785267423678
 51
208.5214732576322
 73
     1
 72
     2
 10
-998.1253923586186
 20
-1097.447186168221
 40
0.5115800601959901
 50
208.5214732576668
 51
246.6277221118395
 73
     1
 72
     2
 10
-997.9689523259154
 20
-1097.085194149511
 40
0.9059297849852503
 50
246.6277221118135
 51
288.4480761180715
 73
     1
 72
     2
 10
-998.3871200595773
 20
-1095.831648373475
 40
2.227384008972611
 50
288.4480761181346
 51
301.9309089499497
 73
     1
 72
     1
 10
-997.2090650175535
 20
-1097.721999092624
 11
-997.2090650175535
 21
-1098.594516099428
 72
     2
 10
-998.5449929346702
 20
-1093.929433793626
 40
4.852596863498941
 50
74.02000874166322
 51
84.84185523036345
 73
     0
 72
     2
 10
-998.2561368399344
 20
-1097.129324376848
 40
1.639695123940421
 50
84.84185523032188
 51
164.9381082228985
 73
     0
 72
     2
 10
-998.675264683396
 20
-1097.242114738883
 40
1.205656168393139
 50
164.9381082229099
 51
195.0618917771318
 73
     0
 72
     2
 10
-998.2561368399344
 20
-1097.354905100917
 40
1.639695123940101
 50
195.0618917771015
 51
270.0
 73
     0
 72
     1
 10
-998.2561368399344
 20
-1095.715209976977
 11
-994.8711913213057
 21
-1095.715209976977
 72
     1
 10
-994.8711913213057
 20
-1095.715209976977
 11
-994.8711913213057
 21
-1096.500475283101
 97
       18
330
314
330
3AA
330
3AB
330
393
330
392
330
378
330
391
330
390
330
3AC
330
38F
330
3AD
330
38E
330
379
330
313
330
318
330
317
330
316
330
315
 75
     1
 76
     0
 52
45.0
 41
0.1
 77
     0
 78
     1
 53
45.0
 43
0.0
 44
0.0
 45
-0.0707106781186548
 46
0.0707106781186548
 79
     0
 98
        1
 10
0.0
 20
0.0
  0
HATCH
  5
3FE
330
71
100
AcDbEntity
  8
1
  6
Continuous
 62
     2
100
AcDbHatch
 10
0.0
 20
0.0
 30
0.0
210
0.0
220
0.0
230
1.0
  2
_USER
 70
     0
 71
     1
 91
        1
 92
        1
 93
       18
 72
     1
 10
-994.8711913213057
 20
-1096.500475283101
 11
-995.682290358779
 21
-1096.500475283101
 72
     1
 10
-995.682290358779
 20
-1096.500475283101
 11
-995.682290358779
 21
-1098.769019500788
 72
     1
 10
-995.682290358779
 20
-1098.769019500788
 11
-996.8750830609467
 21
-1098.769019500788
 72
     1
 10
-996.8750830609467
 20
-1098.769019500788
 11
-996.8750830609467
 21
-1096.500475283101
 72
     1
 10
-996.8750830609467
 20
-1096.500475283101
 11
-997.9787223605149
 21
-1096.500475283101
 72
     2
 10
-997.9787223605149
 20
-1097.454998289927
 40
0.9545230068260935
 50
90.0
 51
109.3371432194175
 73
     1
 72
     2
 10
-998.1253923586186
 20
-1097.037043309544
 40
0.5115800601948339
 50
109.3371432194654
 51
151.4785267424227
 73
     1
 72
     2
 10
-997.7480351005372
 20
-1097.242114738883
 40
0.9410597353348766
 50
151.4785267423678
 51
208.5214732576322
 73
     1
 72
     2
 10
-998.1253923586186
 20
-1097.447186168221
 40
0.5115800601959901
 50
208.5214732576668
 51
246.6277221118395
 73
     1
 72
     2
 10
-997.9689523259154
 20
-1097.085194149511
 40
0.9059297849852503
 50
246.6277221118135
 51
288.4480761180715
 73
     1
 72
     2
 10
-998.3871200595773
 20
-1095.831648373475
 40
2.227384008972611
 50
288.4480761181346
 51
301.9309089499497
 73
     1
 72
     1
 10
-997.2090650175535
 20
-1097.721999092624
 11
-997.2090650175535
 21
-1098.594516099428
 72
     2
 10
-998.5449929346702
 20
-1093.929433793626
 40
4.852596863498941
 50
74.02000874166322
 51
84.84185523036345
 73
     0
 72
     2
 10
-998.2561368399344
 20
-1097.129324376848
 40
1.639695123940421
 50
84.84185523032188
 51
164.9381082228985
 73
     0
 72
     2
 10
-998.675264683396
 20
-1097.242114738883
 40
1.205656168393139
 50
164.9381082229099
 51
195.0618917771318
 73
     0
 72
     2
 10
-998.2561368399344
 20
-1097.354905100917
 40
1.639695123940101
 50
195.0618917771015
 51
270.0
 73
     0
 72
     1
 10
-998.2561368399344
 20
-1095.715209976977
 11
-994.8711913213057
 21
-1095.715209976977
 72
     1
 10
-994.8711913213057
 20
-1095.715209976977
 11
-994.8711913213057
 21
-1096.500475283101
 97
       18
330
314
330
3AA
330
3AB
330
393
330
392
330
378
330
391
330
390
330
3AC
330
38F
330
3AD
330
38E
330
379
330
313
330
318
330
317
330
316
330
315
 75
     1
 76
     0
 52
45.0
 41
0.1
 77
     0
 78
     1
 53
45.0
 43
0.0
 44
0.0
 45
-0.0707106781186548
 46
0.0707106781186548
 79
     0
 98
        1
 10
0.0
 20
0.0
  0
HATCH
  5
3FF
330
71
100
AcDbEntity
  8
1
  6
Continuous
 62
     2
100
AcDbHatch
 10
0.0
 20
0.0
 30
0.0
210
0.0
220
0.0
230
1.0
  2
_USER
 70
     0
 71
     1
 91
        1
 92
        1
 93
       14
 72
     2
 10
-1014.358838319187
 20
-1097.354905100917
 40
1.639695123940213
 50
84.84185523036543
 51
164.9381082228892
 73
     1
 72
     2
 10
-1014.77796616265
 20
-1097.242114738883
 40
1.205656168390834
 50
164.9381082228387
 51
195.0618917770778
 73
     1
 72
     2
 10
-1014.358838319187
 20
-1097.129324376848
 40
1.639695123939196
 50
195.06189177708
 51
275.1581447696346
 73
     1
 72
     2
 10
-1014.647694413923
 20
-1093.929433793626
 40
4.852596863498839
 50
275.1581447696232
 51
285.9799912583539
 73
     1
 72
     1
 10
-1013.311766496805
 20
-1098.594516099427
 11
-1013.311766496805
 21
-1097.721999092624
 72
     2
 10
-1014.48982153883
 20
-1095.831648373474
 40
2.227384008972216
 50
58.06909105003785
 51
71.55192388187741
 73
     0
 72
     2
 10
-1014.07165380517
 20
-1097.085194149511
 40
0.9059297849845288
 50
71.55192388183075
 51
113.3722778880809
 73
     0
 72
     2
 10
-1014.228093837872
 20
-1097.447186168221
 40
0.5115800601948913
 50
113.3722778880787
 51
151.4785267422663
 73
     0
 72
     2
 10
-1013.850736579791
 20
-1097.242114738883
 40
0.9410597353339125
 50
151.4785267423215
 51
208.5214732577271
 73
     0
 72
     2
 10
-1014.228093837872
 20
-1097.037043309544
 40
0.5115800601950015
 50
208.5214732577337
 51
246.6277221119213
 73
     0
 72
     2
 10
-1014.07165380517
 20
-1097.399035328254
 40
0.9059297849847837
 50
246.6277221119191
 51
288.4480761181692
 73
     0
 72
     2
 10
-1014.48982153883
 20
-1098.652581104291
 40
2.227384008973513
 50
288.4480761181226
 51
301.9309089499621
 73
     0
 72
     1
 10
-1013.311766496805
 20
-1096.762230385141
 11
-1013.311766496805
 21
-1095.889713378338
 72
     2
 10
-1014.647694413923
 20
-1100.554795684139
 40
4.85259686349819
 50
74.02000874164605
 51
84.84185523037681
 73
     1
 97
       14
330
3B2
330
3B3
330
3B4
330
3B5
330
37A
330
38B
330
38A
330
389
330
3B6
330
3B7
330
388
330
3B8
330
37B
330
387
 75
     1
 76
     0
 52
45.0
 41
0.1
 77
     0
 78
     1
 53
45.0
 43
0.0
 44
0.0
 45
-0.0707106781186548
 46
0.0707106781186548
 79
     0
 98
        1
 10
0.0
 20
0.0
  0
HATCH
  5
400
330
71
100
AcDbEntity
  8
1
  6
Continuous
 62
     2
100
AcDbHatch
 10
0.0
 20
0.0
 30
0.0
210
0.0
220
0.0
230
1.0
  2
_USER
 70
     0
 71
     1
 91
        1
 92
        1
 93
       14
 72
     2
 10
-1014.358838319187
 20
-1097.354905100917
 40
1.639695123940213
 50
84.84185523036543
 51
164.9381082228892
 73
     1
 72
     2
 10
-1014.77796616265
 20
-1097.242114738883
 40
1.205656168390834
 50
164.9381082228387
 51
195.0618917770778
 73
     1
 72
     2
 10
-1014.358838319187
 20
-1097.129324376848
 40
1.639695123939196
 50
195.06189177708
 51
275.1581447696346
 73
     1
 72
     2
 10
-1014.647694413923
 20
-1093.929433793626
 40
4.852596863498839
 50
275.1581447696232
 51
285.9799912583539
 73
     1
 72
     1
 10
-1013.311766496805
 20
-1098.594516099427
 11
-1013.311766496805
 21
-1097.721999092624
 72
     2
 10
-1014.48982153883
 20
-1095.831648373474
 40
2.227384008972216
 50
58.06909105003785
 51
71.55192388187741
 73
     0
 72
     2
 10
-1014.07165380517
 20
-1097.085194149511
 40
0.9059297849845288
 50
71.55192388183075
 51
113.3722778880809
 73
     0
 72
     2
 10
-1014.228093837872
 20
-1097.447186168221
 40
0.5115800601948913
 50
113.3722778880787
 51
151.4785267422663
 73
     0
 72
     2
 10
-1013.850736579791
 20
-1097.242114738883
 40
0.9410597353339125
 50
151.4785267423215
 51
208.5214732577271
 73
     0
 72
     2
 10
-1014.228093837872
 20
-1097.037043309544
 40
0.5115800601950015
 50
208.5214732577337
 51
246.6277221119213
 73
     0
 72
     2
 10
-1014.07165380517
 20
-1097.399035328254
 40
0.9059297849847837
 50
246.6277221119191
 51
288.4480761181692
 73
     0
 72
     2
 10
-1014.48982153883
 20
-1098.652581104291
 40
2.227384008973513
 50
288.4480761181226
 51
301.9309089499621
 73
     0
 72
     1
 10
-1013.311766496805
 20
-1096.762230385141
 11
-1013.311766496805
 21
-1095.889713378338
 72
     2
 10
-1014.647694413923
 20
-1100.554795684139
 40
4.85259686349819
 50
74.02000874164605
 51
84.84185523037681
 73
     1
 97
       14
330
3B2
330
3B3
330
3B4
330
3B5
330
37A
330
38B
330
38A
330
389
330
3B6
330
3B7
330
388
330
3B8
330
37B
330
387
 75
     1
 76
     0
 52
45.0
 41
0.1
 77
     0
 78
     1
 53
45.0
 43
0.0
 44
0.0
 45
-0.0707106781186548
 46
0.0707106781186548
 79
     0
 98
        1
 10
0.0
 20
0.0
  0
ENDBLK
  5
73
330
71
100
AcDbEntity
  8
0
100
AcDbBlockEnd
  0
BLOCK
  5
75
330
74
100
AcDbEntity
  8
0
100
AcDbBlockBegin
  2
_punkt
 70
     0
 10
-897.4743909118228
 20
-1106.062519500804
 30
0.0
  3
_punkt
  1

  0
LINE
  5
401
330
74
100
AcDbEntity
  8
1
  6
Continuous
 62
     2
100
AcDbLine
 10
-897.4743909118228
 20
-1106.062519500804
 30
0.0
 11
-892.4743909118238
 21
-1106.062519500804
 31
0.0
  0
LINE
  5
402
330
74
100
AcDbEntity
  8
1
  6
Continuous
 62
     2
100
AcDbLine
 10
-897.4743909118228
 20
-1106.062519500804
 30
0.0
 11
-897.4743909118228
 21
-1111.062519500804
 31
0.0
  0
ENDBLK
  5
76
330
74
100
AcDbEntity
  8
0
100
AcDbBlockEnd
  0
BLOCK
  5
7A
330
77
100
AcDbEntity
  8
0
100
AcDbBlockBegin
  2
A4I_CS
 70
     0
 10
-897.4743909118228
 20
-1111.062519500804
 30
0.0
  3
A4I_CS
  1

  0
INSERT
  5
78
330
77
100
AcDbEntity
  8
1
100
AcDbBlockReference
  2
_rahmen
 10
-897.4743909118228
 20
-1111.062519500804
 30
0.0
  0
INSERT
  5
79
330
77
100
AcDbEntity
  8
1
100
AcDbBlockReference
  2
_punkt
 10
-897.4743909118228
 20
-1106.062519500804
 30
0.0
  0
ENDBLK
  5
7B
330
77
100
AcDbEntity
  8
0
100
AcDbBlockEnd
  0
BLOCK
  5
84
330
7C
100
AcDbEntity
  8
0
100
AcDbBlockBegin
  2
1
 70
     0
 10
0.0
 20
0.0
 30
0.0
  3
1
  1

  0
INSERT
  5
7D
330
7C
100
AcDbEntity
  8
0
100
AcDbBlockReference
  2
Drfsicht1
 10
-1085.99999999986
 20
-1058.599999427931
 30
0.0
  0
INSERT
  5
7E
330
7C
100
AcDbEntity
  8
0
100
AcDbBlockReference
  2
Rckans1
 10
-982.000000000135
 20
-968.99999999993
 30
0.0
  0
INSERT
  5
7F
330
7C
100
AcDbEntity
  8
0
100
AcDbBlockReference
  2
SA_Links1
 10
-1033.99999999986
 20
-968.99999999993
 30
0.0
  0
INSERT
  5
80
330
7C
100
AcDbEntity
  8
0
100
AcDbBlockReference
  2
SA_Rechts1
 10
-1154.000000000135
 20
-968.99999999993
 30
0.0
  0
INSERT
  5
81
330
7C
100
AcDbEntity
  8
0
100
AcDbBlockReference
  2
Vordans1
 10
-1088.99999999986
 20
-968.99999999993
 30
0.0
  0
INSERT
  5
82
330
7C
100
AcDbEntity
  8
0
100
AcDbBlockReference
  2
Allg1
 10
-930.99999999995
 20
-1033.000000000028
 30
0.0
  0
INSERT
  5
83
330
7C
100
AcDbEntity
  8
0
100
AcDbBlockReference
  2
A4I_CS
 10
-897.4743909118228
 20
-1111.062519500804
 30
0.0
  0
ENDBLK
  5
85
330
7C
100
AcDbEntity
  8
0
100
AcDbBlockEnd
  0
BLOCK
  5
B5
330
AE
100
AcDbEntity
  8
0
100
AcDbBlockBegin
  2
*D17
 70
     1
 10
0.0
 20
0.0
 30
0.0
  3
*D17
  1

  0
LINE
  5
AF
330
AE
100
AcDbEntity
  8
1
  6
Continuous
 62
     2
100
AcDbLine
 10
-1115.499999999725
 20
-1064.099999053934
 30
0.0
 11
-1115.499999999725
 21
-1053.099999053934
 31
0.0
  0
LINE
  5
B0
330
AE
100
AcDbEntity
  8
1
  6
Continuous
 62
     2
100
AcDbLine
 10
-1105.499999999725
 20
-1053.099999053934
 30
0.0
 11
-1116.999999999725
 21
-1053.099999053934
 31
0.0
  0
LINE
  5
B1
330
AE
100
AcDbEntity
  8
1
  6
Continuous
 62
     2
100
AcDbLine
 10
-1069.499999999725
 20
-1064.099999053934
 30
0.0
 11
-1116.999999999725
 21
-1064.099999053934
 31
0.0
  0
SOLID
  5
B2
330
AE
100
AcDbEntity
  8
1
 62
     2
100
AcDbTrace
 10
-1115.960783741281
 20
-1060.599999053934
 30
0.0
 11
-1115.039216258169
 21
-1060.599999053934
 31
0.0
 12
-1115.499999999725
 22
-1064.099999053934
 32
0.0
 13
-1115.499999999725
 23
-1064.099999053934
 33
0.0
  0
SOLID
  5
B3
330
AE
100
AcDbEntity
  8
1
 62
     2
100
AcDbTrace
 10
-1115.039216258169
 20
-1056.599999053934
 30
0.0
 11
-1115.960783741281
 21
-1056.599999053934
 31
0.0
 12
-1115.499999999725
 22
-1053.099999053934
 32
0.0
 13
-1115.499999999725
 23
-1053.099999053934
 33
0.0
  0
MTEXT
  5
B4
330
AE
100
AcDbEntity
  8
1
 62
     3
100
AcDbMText
 10
-1116.999999999725
 20
-1060.49529005814
 30
0.0
 40
3.5
 41
0.0
 71
     7
 72
     1
  1
11
  7
CONVERTER_11
 11
0.0
 21
1.0
 31
0.0
 73
     1
 44
0.60024009603842
  0
ENDBLK
  5
B6
330
AE
100
AcDbEntity
  8
0
100
AcDbBlockEnd
  0
BLOCK
  5
223
330
21C
100
AcDbEntity
  8
0
100
AcDbBlockBegin
  2
*D18
 70
     1
 10
0.0
 20
0.0
 30
0.0
  3
*D18
  1

  0
LINE
  5
21D
330
21C
100
AcDbEntity
  8
1
  6
Continuous
 62
     2
100
AcDbLine
 10
-1108.499999999725
 20
-1032.45911182187
 30
0.0
 11
-1069.499999999725
 21
-1032.45911182187
 31
0.0
  0
LINE
  5
21E
330
21C
100
AcDbEntity
  8
1
  6
Continuous
 62
     2
100
AcDbLine
 10
-1069.499999999725
 20
-1007.100000612101
 30
0.0
 11
-1069.499999999725
 21
-1033.95911182187
 31
0.0
  0
LINE
  5
21F
330
21C
100
AcDbEntity
  8
1
  6
Continuous
 62
     2
100
AcDbLine
 10
-1108.499999999725
 20
-1006.300000612101
 30
0.0
 11
-1108.499999999725
 21
-1033.95911182187
 31
0.0
  0
SOLID
  5
220
330
21C
100
AcDbEntity
  8
1
 62
     2
100
AcDbTrace
 10
-1104.999999999725
 20
-1031.998328080314
 30
0.0
 11
-1104.999999999725
 21
-1032.919895563426
 31
0.0
 12
-1108.499999999725
 22
-1032.45911182187
 32
0.0
 13
-1108.499999999725
 23
-1032.45911182187
 33
0.0
  0
SOLID
  5
221
330
21C
100
AcDbEntity
  8
1
 62
     2
100
AcDbTrace
 10
-1072.999999999725
 20
-1032.919895563426
 30
0.0
 11
-1072.999999999725
 21
-1031.998328080314
 31
0.0
 12
-1069.499999999725
 22
-1032.45911182187
 32
0.0
 13
-1069.499999999725
 23
-1032.45911182187
 33
0.0
  0
MTEXT
  5
222
330
21C
100
AcDbEntity
  8
1
 62
     3
100
AcDbMText
 10
-1091.62499999986
 20
-1030.95911182187
 30
0.0
 40
3.5
 41
0.0
 71
     7
 72
     1
  1
39
  7
CONVERTER_11
 11
0.9999999999970619
 21
2.424068405545306E-6
 31
0.0
 73
     1
 44
0.60024009603842
  0
ENDBLK
  5
224
330
21C
100
AcDbEntity
  8
0
100
AcDbBlockEnd
  0
BLOCK
  5
22E
330
227
100
AcDbEntity
  8
0
100
AcDbBlockBegin
  2
*D19
 70
     1
 10
0.0
 20
0.0
 30
0.0
  3
*D19
  1

  0
LINE
  5
228
330
227
100
AcDbEntity
  8
1
  6
Continuous
 62
     2
100
AcDbLine
 10
-1088.999999999725
 20
-1016.45911182187
 30
0.0
 11
-1071.499999999725
 21
-1016.45911182187
 31
0.0
  0
LINE
  5
229
330
227
100
AcDbEntity
  8
1
  6
Continuous
 62
     2
100
AcDbLine
 10
-1071.499999999725
 20
-1002.485000612101
 30
0.0
 11
-1071.499999999725
 21
-1017.95911182187
 31
0.0
  0
LINE
  5
22A
330
227
100
AcDbEntity
  8
1
  6
Continuous
 62
     2
100
AcDbLine
 10
-1088.999999999725
 20
-998.098140270588
 30
0.0
 11
-1088.999999999725
 21
-1017.95911182187
 31
0.0
  0
SOLID
  5
22B
330
227
100
AcDbEntity
  8
1
 62
     2
100
AcDbTrace
 10
-1085.499999999725
 20
-1015.998328080314
 30
0.0
 11
-1085.499999999725
 21
-1016.919895563426
 31
0.0
 12
-1088.999999999725
 22
-1016.45911182187
 32
0.0
 13
-1088.999999999725
 23
-1016.45911182187
 33
0.0
  0
SOLID
  5
22C
330
227
100
AcDbEntity
  8
1
 62
     2
100
AcDbTrace
 10
-1074.999999999725
 20
-1016.919895563426
 30
0.0
 11
-1074.999999999725
 21
-1015.998328080314
 31
0.0
 12
-1071.499999999725
 22
-1016.45911182187
 32
0.0
 13
-1071.499999999725
 23
-1016.45911182187
 33
0.0
  0
MTEXT
  5
22D
330
227
100
AcDbEntity
  8
1
 62
     3
100
AcDbMText
 10
-1084.51813436809
 20
-1014.60911182187
 30
0.0
 40
3.5
 41
0.0
 71
     7
 72
     1
  1
17,5
  7
CONVERTER_11
 11
0.9999999999970619
 21
2.424068405545306E-6
 31
0.0
 73
     1
 44
0.60024009603842
  0
ENDBLK
  5
22F
330
227
100
AcDbEntity
  8
0
100
AcDbBlockEnd
  0
BLOCK
  5
239
330
232
100
AcDbEntity
  8
0
100
AcDbBlockBegin
  2
*D20
 70
     1
 10
0.0
 20
0.0
 30
0.0
  3
*D20
  1

  0
LINE
  5
233
330
232
100
AcDbEntity
  8
1
  6
Continuous
 62
     2
100
AcDbLine
 10
-1088.999999999725
 20
-1024.45911182187
 30
0.0
 11
-1069.499999999725
 21
-1024.45911182187
 31
0.0
  0
LINE
  5
234
330
232
100
AcDbEntity
  8
1
  6
Continuous
 62
     2
100
AcDbLine
 10
-1069.499999999725
 20
-1007.100000612101
 30
0.0
 11
-1069.499999999725
 21
-1025.95911182187
 31
0.0
  0
LINE
  5
235
330
232
100
AcDbEntity
  8
1
  6
Continuous
 62
     2
100
AcDbLine
 10
-1088.999999999725
 20
-998.098140270588
 30
0.0
 11
-1088.999999999725
 21
-1025.95911182187
 31
0.0
  0
SOLID
  5
236
330
232
100
AcDbEntity
  8
1
 62
     2
100
AcDbTrace
 10
-1085.499999999725
 20
-1023.998328080314
 30
0.0
 11
-1085.499999999725
 21
-1024.919895563426
 31
0.0
 12
-1088.999999999725
 22
-1024.45911182187
 32
0.0
 13
-1088.999999999725
 23
-1024.45911182187
 33
0.0
  0
SOLID
  5
237
330
232
100
AcDbEntity
  8
1
 62
     2
100
AcDbTrace
 10
-1072.999999999725
 20
-1024.919895563426
 30
0.0
 11
-1072.999999999725
 21
-1023.998328080314
 31
0.0
 12
-1069.499999999725
 22
-1024.45911182187
 32
0.0
 13
-1069.499999999725
 23
-1024.45911182187
 33
0.0
  0
MTEXT
  5
238
330
232
100
AcDbEntity
  8
1
 62
     3
100
AcDbMText
 10
-1083.77855935516
 20
-1022.60911182187
 30
0.0
 40
3.5
 41
0.0
 71
     7
 72
     1
  1
19,5
  7
CONVERTER_11
 11
0.9999999999970619
 21
2.424068405545306E-6
 31
0.0
 73
     1
 44
0.60024009603842
  0
ENDBLK
  5
23A
330
232
100
AcDbEntity
  8
0
100
AcDbBlockEnd
  0
BLOCK
  5
244
330
23D
100
AcDbEntity
  8
0
100
AcDbBlockBegin
  2
*D21
 70
     1
 10
0.0
 20
0.0
 30
0.0
  3
*D21
  1

  0
LINE
  5
23E
330
23D
100
AcDbEntity
  8
1
  6
Continuous
 62
     2
100
AcDbLine
 10
-1118.499999999725
 20
-1001.400000612101
 30
0.0
 11
-1118.499999999725
 21
-930.9000006121006
 31
0.0
  0
LINE
  5
23F
330
23D
100
AcDbEntity
  8
1
  6
Continuous
 62
     2
100
AcDbLine
 10
-1099.499999999725
 20
-930.9000006121006
 30
0.0
 11
-1119.999999999725
 21
-930.9000006121006
 31
0.0
  0
LINE
  5
240
330
23D
100
AcDbEntity
  8
1
  6
Continuous
 62
     2
100
AcDbLine
 10
-1084.528718707615
 20
-1001.400000612101
 30
0.0
 11
-1119.999999999725
 21
-1001.400000612101
 31
0.0
  0
SOLID
  5
241
330
23D
100
AcDbEntity
  8
1
 62
     2
100
AcDbTrace
 10
-1118.960783741281
 20
-997.9000006121007
 30
0.0
 11
-1118.039216258169
 21
-997.9000006121007
 31
0.0
 12
-1118.499999999725
 22
-1001.400000612101
 32
0.0
 13
-1118.499999999725
 23
-1001.400000612101
 33
0.0
  0
SOLID
  5
242
330
23D
100
AcDbEntity
  8
1
 62
     2
100
AcDbTrace
 10
-1118.039216258169
 20
-934.4000006121006
 30
0.0
 11
-1118.960783741281
 21
-934.4000006121006
 31
0.0
 12
-1118.499999999725
 22
-930.9000006121006
 32
0.0
 13
-1118.499999999725
 23
-930.9000006121006
 33
0.0
  0
MTEXT
  5
243
330
23D
100
AcDbEntity
  8
1
 62
     3
100
AcDbMText
 10
-1120.349999999725
 20
-969.356143884285
 30
0.0
 40
3.5
 41
0.0
 71
     7
 72
     1
  1
70,5
  7
CONVERTER_11
 11
0.0
 21
1.0
 31
0.0
 73
     1
 44
0.60024009603842
  0
ENDBLK
  5
245
330
23D
100
AcDbEntity
  8
0
100
AcDbBlockEnd
  0
BLOCK
  5
24F
330
248
100
AcDbEntity
  8
0
100
AcDbBlockBegin
  2
*D22
 70
     1
 10
0.0
 20
0.0
 30
0.0
  3
*D22
  1

  0
LINE
  5
249
330
248
100
AcDbEntity
  8
1
  6
Continuous
 62
     2
100
AcDbLine
 10
-1126.499999999725
 20
-1007.100000612101
 30
0.0
 11
-1126.499999999725
 21
-930.9000006121006
 31
0.0
  0
LINE
  5
24A
330
248
100
AcDbEntity
  8
1
  6
Continuous
 62
     2
100
AcDbLine
 10
-1108.499999999725
 20
-930.9000006121006
 30
0.0
 11
-1127.999999999725
 21
-930.9000006121006
 31
0.0
  0
LINE
  5
24B
330
248
100
AcDbEntity
  8
1
  6
Continuous
 62
     2
100
AcDbLine
 10
-1107.641733011914
 20
-1007.100000612101
 30
0.0
 11
-1127.999999999725
 21
-1007.100000612101
 31
0.0
  0
SOLID
  5
24C
330
248
100
AcDbEntity
  8
1
 62
     2
100
AcDbTrace
 10
-1126.960783741281
 20
-1003.600000612101
 30
0.0
 11
-1126.039216258169
 21
-1003.600000612101
 31
0.0
 12
-1126.499999999725
 22
-1007.100000612101
 32
0.0
 13
-1126.499999999725
 23
-1007.100000612101
 33
0.0
  0
SOLID
  5
24D
330
248
100
AcDbEntity
  8
1
 62
     2
100
AcDbTrace
 10
-1126.039216258169
 20
-934.4000006121006
 30
0.0
 11
-1126.960783741281
 21
-934.4000006121006
 31
0.0
 12
-1126.499999999725
 22
-930.9000006121006
 32
0.0
 13
-1126.499999999725
 23
-930.9000006121006
 33
0.0
  0
MTEXT
  5
24E
330
248
100
AcDbEntity
  8
1
 62
     3
100
AcDbMText
 10
-1128.349999999725
 20
-975.8642187849028
 30
0.0
 40
3.5
 41
0.0
 71
     7
 72
     1
  1
76,2
  7
CONVERTER_11
 11
0.0
 21
1.0
 31
0.0
 73
     1
 44
0.60024009603842
  0
ENDBLK
  5
250
330
248
100
AcDbEntity
  8
0
100
AcDbBlockEnd
  0
ENDSEC
  0
SECTION
  2
ENTITIES
  0
INSERT
  5
86
330
1F
100
AcDbEntity
  8
1
100
AcDbBlockReference
  2
1
 10
0.0
 20
0.0
 30
0.0
  0
ENDSEC
  0
SECTION
  2
OBJECTS
  0
DICTIONARY
  5
C
330
0
100
AcDbDictionary
281
     1
  3
ACAD_GROUP
350
D
  3
ACAD_LAYOUT
350
1A
  3
ACAD_MATERIAL
350
3B
  3
ACAD_MLEADERSTYLE
350
42A
  3
ACAD_MLINESTYLE
350
17
  3
ACAD_PLOTSETTINGS
350
19
  3
ACAD_PLOTSTYLENAME
350
E
  3
ACAD_TABLESTYLE
350
429
  3
ACAD_VISUALSTYLE
350
2A
  0
DICTIONARY
  5
D
102
{ACAD_REACTORS
330
C
102
}
330
C
100
AcDbDictionary
281
     1
  0
DICTIONARY
  5
1A
102
{ACAD_REACTORS
330
C
102
}
330
C
100
AcDbDictionary
281
     1
  3
Layout1
350
1E
  3
Layout2
350
26
  3
Model
350
22
  0
DICTIONARY
  5
3B
102
{ACAD_REACTORS
330
C
102
}
330
C
100
AcDbDictionary
281
     1
  3
ByBlock
350
3D
  3
ByLayer
350
3C
  3
Global
350
3E
  0
DICTIONARY
  5
42A
102
{ACAD_REACTORS
330
C
102
}
330
C
100
AcDbDictionary
281
     1
  0
DICTIONARY
  5
17
102
{ACAD_REACTORS
330
C
102
}
330
C
100
AcDbDictionary
281
     1
  3
Standard
350
18
  0
DICTIONARY
  5
19
102
{ACAD_REACTORS
330
C
102
}
330
C
100
AcDbDictionary
281
     1
  0
ACDBDICTIONARYWDFLT
  5
E
102
{ACAD_REACTORS
330
C
102
}
330
C
100
AcDbDictionary
281
     1
  3
Normal
350
F
100
AcDbDictionaryWithDefault
340
F
  0
DICTIONARY
  5
429
102
{ACAD_REACTORS
330
C
102
}
330
C
100
AcDbDictionary
281
     1
  0
DICTIONARY
  5
2A
102
{ACAD_REACTORS
330
C
102
}
330
C
100
AcDbDictionary
281
     1
  3
2dWireframe
350
2F
  3
3D Hidden
350
31
  3
3dWireframe
350
30
  3
Basic
350
32
  3
Brighten
350
36
  3
ColorChange
350
3A
  3
Conceptual
350
34
  3
Dim
350
35
  3
Facepattern
350
39
  3
Flat
350
2B
  3
FlatWithEdges
350
2C
  3
Gouraud
350
2D
  3
GouraudWithEdges
350
2E
  3
Linepattern
350
38
  3
Realistic
350
33
  3
Thicken
350
37
  0
LAYOUT
  5
1E
102
{ACAD_REACTORS
330
1A
102
}
330
1A
100
AcDbPlotSettings
  1

  2
none_device
  4

  6

 40
0.0
 41
0.0
 42
0.0
 43
0.0
 44
0.0
 45
0.0
 46
0.0
 47
0.0
 48
0.0
 49
0.0
140
0.0
141
0.0
142
1.0
143
1.0
 70
   688
 72
     0
 73
     0
 74
     5
  7

 75
    16
 76
     0
 77
     2
 78
   300
147
1.0
148
0.0
149
0.0
100
AcDbLayout
  1
Layout1
 70
     1
 71
     1
 10
0.0
 20
0.0
 11
12.0
 21
9.0
 12
0.0
 22
0.0
 32
0.0
 14
1.00000000000000E+20
 24
1.00000000000000E+20
 34
1.00000000000000E+20
 15
-1.00000000000000E+20
 25
-1.00000000000000E+20
 35
-1.00000000000000E+20
146
0.0
 13
0.0
 23
0.0
 33
0.0
 16
1.0
 26
0.0
 36
0.0
 17
0.0
 27
1.0
 37
0.0
 76
     0
330
1B
  0
LAYOUT
  5
26
102
{ACAD_REACTORS
330
1A
102
}
330
1A
100
AcDbPlotSettings
  1

  2
none_device
  4

  6

 40
0.0
 41
0.0
 42
0.0
 43
0.0
 44
0.0
 45
0.0
 46
0.0
 47
0.0
 48
0.0
 49
0.0
140
0.0
141
0.0
142
1.0
143
1.0
 70
   688
 72
     0
 73
     0
 74
     5
  7

 75
    16
 76
     0
 77
     2
 78
   300
147
1.0
148
0.0
149
0.0
100
AcDbLayout
  1
Layout2
 70
     1
 71
     2
 10
0.0
 20
0.0
 11
0.0
 21
0.0
 12
0.0
 22
0.0
 32
0.0
 14
0.0
 24
0.0
 34
0.0
 15
0.0
 25
0.0
 35
0.0
146
0.0
 13
0.0
 23
0.0
 33
0.0
 16
1.0
 26
0.0
 36
0.0
 17
0.0
 27
1.0
 37
0.0
 76
     0
330
23
  0
LAYOUT
  5
22
102
{ACAD_REACTORS
330
1A
102
}
330
1A
100
AcDbPlotSettings
  1

  2
none_device
  4

  6

 40
0.0
 41
0.0
 42
0.0
 43
0.0
 44
0.0
 45
0.0
 46
0.0
 47
0.0
 48
0.0
 49
0.0
140
0.0
141
0.0
142
1.0
143
1.0
 70
  1712
 72
     0
 73
     0
 74
     0
  7

 75
     0
 76
     0
 77
     2
 78
   300
147
1.0
148
0.0
149
0.0
100
AcDbLayout
  1
Model
 70
     1
 71
     0
 10
0.0
 20
0.0
 11
12.0
 21
9.0
 12
0.0
 22
0.0
 32
0.0
 14
-1189.474390911822
 24
-1111.062519500804
 34
0.0
 15
-892.4743909118238
 25
-901.0625195008042
 35
0.0
146
0.0
 13
0.0
 23
0.0
 33
0.0
 16
1.0
 26
0.0
 36
0.0
 17
0.0
 27
1.0
 37
0.0
 76
     0
330
1F
331
29
  0
MATERIAL
  5
3D
102
{ACAD_REACTORS
330
3B
102
}
102
{ACAD_XDICTIONARY
360
425
102
}
330
3B
100
AcDbMaterial
  1
ByBlock
  0
MATERIAL
  5
3C
102
{ACAD_REACTORS
330
3B
102
}
102
{ACAD_XDICTIONARY
360
423
102
}
330
3B
100
AcDbMaterial
  1
ByLayer
  0
MATERIAL
  5
3E
102
{ACAD_REACTORS
330
3B
102
}
102
{ACAD_XDICTIONARY
360
427
102
}
330
3B
100
AcDbMaterial
  1
Global
  0
MLINESTYLE
  5
18
102
{ACAD_REACTORS
330
17
102
}
330
17
100
AcDbMlineStyle
  2
Standard
 70
     0
  3

 62
   256
 51
90.0
 52
90.0
 71
     2
 49
0.5
 62
   256
  6
BYLAYER
 49
-0.5
 62
   256
  6
BYLAYER
  0
ACDBPLACEHOLDER
  5
F
102
{ACAD_REACTORS
330
E
102
}
330
E
  0
VISUALSTYLE
  5
2F
102
{ACAD_REACTORS
330
2A
102
}
102
{ACAD_XDICTIONARY
360
40B
102
}
330
2A
100
AcDbVisualStyle
  2
2dWireframe
 70
     4
 71
     0
 72
     2
 73
     0
 90
        0
 40
-0.6
 41
-30.0
 62
     5
 63
     7
421
 16777215
 74
     1
 91
        4
 64
     7
 65
   257
 75
     1
175
     1
 42
1.0
 92
        0
 66
   257
 43
1.0
 76
     1
 77
     6
 78
     2
 67
     7
 79
     5
170
     0
171
     0
290
     0
174
     0
 93
        1
 44
0.0
173
     0
291
     0
 45
0.0
1001
ACAD
1000
AcDbSavedByObjectVersion
1070
     0
  0
VISUALSTYLE
  5
31
102
{ACAD_REACTORS
330
2A
102
}
102
{ACAD_XDICTIONARY
360
40F
102
}
330
2A
100
AcDbVisualStyle
  2
3D Hidden
 70
     6
 71
     1
 72
     2
 73
     2
 90
        0
 40
-0.6
 41
-30.0
 62
     5
 63
     7
421
 16777215
 74
     2
 91
        2
 64
     7
 65
   257
 75
     2
175
     1
 42
40.0
 92
        0
 66
   257
 43
1.0
 76
     1
 77
     6
 78
     2
 67
     7
 79
     3
170
     0
171
     0
290
     0
174
     0
 93
        1
 44
0.0
173
     0
291
     0
 45
0.0
1001
ACAD
1000
AcDbSavedByObjectVersion
1070
     0
  0
VISUALSTYLE
  5
30
102
{ACAD_REACTORS
330
2A
102
}
102
{ACAD_XDICTIONARY
360
40D
102
}
330
2A
100
AcDbVisualStyle
  2
3dWireframe
 70
     5
 71
     0
 72
     2
 73
     0
 90
        0
 40
-0.6
 41
-30.0
 62
     5
 63
     7
421
 16777215
 74
     1
 91
        4
 64
     7
 65
   257
 75
     1
175
     1
 42
1.0
 92
        0
 66
   257
 43
1.0
 76
     1
 77
     6
 78
     2
 67
     7
 79
     5
170
     0
171
     0
290
     0
174
     0
 93
        1
 44
0.0
173
     0
291
     0
 45
0.0
1001
ACAD
1000
AcDbSavedByObjectVersion
1070
     0
  0
VISUALSTYLE
  5
32
102
{ACAD_REACTORS
330
2A
102
}
102
{ACAD_XDICTIONARY
360
411
102
}
330
2A
100
AcDbVisualStyle
  2
Basic
 70
     7
 71
     1
 72
     0
 73
     1
 90
        0
 40
-0.6
 41
-30.0
 62
     5
 63
     7
421
 16777215
 74
     0
 91
        4
 64
     7
 65
   257
 75
     1
175
     1
 42
1.0
 92
        8
 66
     7
 43
1.0
 76
     1
 77
     6
 78
     2
 67
     7
 79
     5
170
     0
171
     0
290
     0
174
     0
 93
        1
 44
0.0
173
     0
291
     1
 45
0.0
1001
ACAD
1000
AcDbSavedByObjectVersion
1070
     0
  0
VISUALSTYLE
  5
36
102
{ACAD_REACTORS
330
2A
102
}
102
{ACAD_XDICTIONARY
360
419
102
}
330
2A
100
AcDbVisualStyle
  2
Brighten
 70
    12
 71
     2
 72
     2
 73
     0
 90
        0
 40
-0.6
 41
-30.0
 62
     5
 63
     7
421
 16777215
 74
     1
 91
        4
 64
     7
 65
   257
 75
     1
175
     1
 42
1.0
 92
        8
 66
     7
 43
1.0
 76
     1
 77
     6
 78
     2
 67
     7
 79
     5
170
     0
171
     0
290
     0
174
     0
 93
        1
 44
50.0
173
     0
291
     1
 45
0.0
1001
ACAD
1000
AcDbSavedByObjectVersion
1070
     0
  0
VISUALSTYLE
  5
3A
102
{ACAD_REACTORS
330
2A
102
}
102
{ACAD_XDICTIONARY
360
421
102
}
330
2A
100
AcDbVisualStyle
  2
ColorChange
 70
    16
 71
     2
 72
     2
 73
     3
 90
        0
 40
-0.6
 41
-30.0
 62
     5
 63
     8
421
  8421504
 74
     1
 91
        4
 64
     7
 65
   257
 75
     1
175
     1
 42
1.0
 92
        8
 66
     8
424
  8421504
 43
1.0
 76
     1
 77
     6
 78
     2
 67
     7
 79
     5
170
     0
171
     0
290
     0
174
     0
 93
        1
 44
0.0
173
     0
291
     1
 45
0.0
1001
ACAD
1000
AcDbSavedByObjectVersion
1070
     0
  0
VISUALSTYLE
  5
34
102
{ACAD_REACTORS
330
2A
102
}
102
{ACAD_XDICTIONARY
360
415
102
}
330
2A
100
AcDbVisualStyle
  2
Conceptual
 70
     9
 71
     3
 72
     2
 73
     0
 90
        0
 40
-0.6
 41
-30.0
 62
     5
 63
     7
421
 16777215
 74
     2
 91
        2
 64
     7
 65
   257
 75
     1
175
     1
 42
40.0
 92
        8
 66
     7
 43
1.0
 76
     1
 77
     6
 78
     2
 67
     7
 79
     3
170
     0
171
     0
290
     0
174
     0
 93
        1
 44
0.0
173
     0
291
     0
 45
0.0
1001
ACAD
1000
AcDbSavedByObjectVersion
1070
     0
  0
VISUALSTYLE
  5
35
102
{ACAD_REACTORS
330
2A
102
}
102
{ACAD_XDICTIONARY
360
417
102
}
330
2A
100
AcDbVisualStyle
  2
Dim
 70
    11
 71
     2
 72
     2
 73
     0
 90
        0
 40
-0.6
 41
-30.0
 62
     5
 63
     7
421
 16777215
 74
     1
 91
        4
 64
     7
 65
   257
 75
     1
175
     1
 42
1.0
 92
        8
 66
     7
 43
1.0
 76
     1
 77
     6
 78
     2
 67
     7
 79
     5
170
     0
171
     0
290
     0
174
     0
 93
        1
 44
-50.0
173
     0
291
     1
 45
0.0
1001
ACAD
1000
AcDbSavedByObjectVersion
1070
     0
  0
VISUALSTYLE
  5
39
102
{ACAD_REACTORS
330
2A
102
}
102
{ACAD_XDICTIONARY
360
41F
102
}
330
2A
100
AcDbVisualStyle
  2
Facepattern
 70
    15
 71
     2
 72
     2
 73
     0
 90
        0
 40
-0.6
 41
-30.0
 62
     5
 63
     7
421
 16777215
 74
     1
 91
        4
 64
     7
 65
   257
 75
     1
175
     1
 42
1.0
 92
        8
 66
     7
 43
1.0
 76
     1
 77
     6
 78
     2
 67
     7
 79
     5
170
     0
171
     0
290
     0
174
     0
 93
        1
 44
0.0
173
     0
291
     1
 45
0.0
1001
ACAD
1000
AcDbSavedByObjectVersion
1070
     0
  0
VISUALSTYLE
  5
2B
102
{ACAD_REACTORS
330
2A
102
}
102
{ACAD_XDICTIONARY
360
403
102
}
330
2A
100
AcDbVisualStyle
  2
Flat
 70
     0
 71
     2
 72
     1
 73
     1
 90
        2
 40
-0.6
 41
30.0
 62
     5
 63
     7
421
 16777215
 74
     0
 91
        4
 64
     7
 65
   257
 75
     1
175
     1
 42
1.0
 92
        8
 66
     7
 43
1.0
 76
     1
 77
     6
 78
     2
 67
     7
 79
     5
170
     0
171
     0
290
     0
174
     0
 93
       13
 44
0.0
173
     0
291
     1
 45
0.0
1001
ACAD
1000
AcDbSavedByObjectVersion
1070
     0
  0
VISUALSTYLE
  5
2C
102
{ACAD_REACTORS
330
2A
102
}
102
{ACAD_XDICTIONARY
360
405
102
}
330
2A
100
AcDbVisualStyle
  2
FlatWithEdges
 70
     1
 71
     2
 72
     1
 73
     1
 90
        2
 40
-0.6
 41
30.0
 62
     5
 63
     7
421
 16777215
 74
     1
 91
        4
 64
     7
 65
   257
 75
     1
175
     1
 42
1.0
 92
        0
 66
   257
 43
1.0
 76
     1
 77
     6
 78
     2
 67
     7
 79
     5
170
     0
171
     0
290
     0
174
     0
 93
       13
 44
0.0
173
     0
291
     1
 45
0.0
1001
ACAD
1000
AcDbSavedByObjectVersion
1070
     0
  0
VISUALSTYLE
  5
2D
102
{ACAD_REACTORS
330
2A
102
}
102
{ACAD_XDICTIONARY
360
407
102
}
330
2A
100
AcDbVisualStyle
  2
Gouraud
 70
     2
 71
     2
 72
     2
 73
     1
 90
        2
 40
-0.6
 41
30.0
 62
     5
 63
     7
421
 16777215
 74
     0
 91
        4
 64
     7
 65
   257
 75
     1
175
     1
 42
1.0
 92
        0
 66
     7
 43
1.0
 76
     1
 77
     6
 78
     2
 67
     7
 79
     5
170
     0
171
     0
290
     0
174
     0
 93
       13
 44
0.0
173
     0
291
     1
 45
0.0
1001
ACAD
1000
AcDbSavedByObjectVersion
1070
     0
  0
VISUALSTYLE
  5
2E
102
{ACAD_REACTORS
330
2A
102
}
102
{ACAD_XDICTIONARY
360
409
102
}
330
2A
100
AcDbVisualStyle
  2
GouraudWithEdges
 70
     3
 71
     2
 72
     2
 73
     1
 90
        2
 40
-0.6
 41
30.0
 62
     5
 63
     7
421
 16777215
 74
     1
 91
        4
 64
     7
 65
   257
 75
     1
175
     1
 42
1.0
 92
        0
 66
   257
 43
1.0
 76
     1
 77
     6
 78
     2
 67
     7
 79
     5
170
     0
171
     0
290
     0
174
     0
 93
       13
 44
0.0
173
     0
291
     1
 45
0.0
1001
ACAD
1000
AcDbSavedByObjectVersion
1070
     0
  0
VISUALSTYLE
  5
38
102
{ACAD_REACTORS
330
2A
102
}
102
{ACAD_XDICTIONARY
360
41D
102
}
330
2A
100
AcDbVisualStyle
  2
Linepattern
 70
    14
 71
     2
 72
     2
 73
     0
 90
        0
 40
-0.6
 41
-30.0
 62
     5
 63
     7
421
 16777215
 74
     1
 91
        4
 64
     7
 65
   257
 75
     7
175
     7
 42
1.0
 92
        8
 66
     7
 43
1.0
 76
     1
 77
     6
 78
     2
 67
     7
 79
     5
170
     0
171
     0
290
     0
174
     0
 93
        1
 44
0.0
173
     0
291
     1
 45
0.0
1001
ACAD
1000
AcDbSavedByObjectVersion
1070
     0
  0
VISUALSTYLE
  5
33
102
{ACAD_REACTORS
330
2A
102
}
102
{ACAD_XDICTIONARY
360
413
102
}
330
2A
100
AcDbVisualStyle
  2
Realistic
 70
     8
 71
     2
 72
     2
 73
     0
 90
        0
 40
-0.6
 41
-30.0
 62
     5
 63
     7
421
 16777215
 74
     1
 91
        0
 64
     7
 65
   257
 75
     1
175
     1
 42
1.0
 92
        8
 66
     8
424
  7895160
 43
1.0
 76
     1
 77
     6
 78
     2
 67
     7
 79
     5
170
     0
171
     0
290
     0
174
     0
 93
       13
 44
0.0
173
     0
291
     0
 45
0.0
1001
ACAD
1000
AcDbSavedByObjectVersion
1070
     0
  0
VISUALSTYLE
  5
37
102
{ACAD_REACTORS
330
2A
102
}
102
{ACAD_XDICTIONARY
360
41B
102
}
330
2A
100
AcDbVisualStyle
  2
Thicken
 70
    13
 71
     2
 72
     2
 73
     0
 90
        0
 40
-0.6
 41
-30.0
 62
     5
 63
     7
421
 16777215
 74
     1
 91
        4
 64
     7
 65
   257
 75
     1
175
     1
 42
1.0
 92
       12
 66
     7
 43
1.0
 76
     1
 77
     6
 78
     2
 67
     7
 79
     5
170
     0
171
     0
290
     0
174
     0
 93
        1
 44
0.0
173
     0
291
     1
 45
0.0
1001
ACAD
1000
AcDbSavedByObjectVersion
1070
     0
  0
DICTIONARY
  5
425
330
3D
100
AcDbDictionary
280
     1
281
     1
  3
ACAD_XREC_ROUNDTRIP
360
426
  0
DICTIONARY
  5
423
330
3C
100
AcDbDictionary
280
     1
281
     1
  3
ACAD_XREC_ROUNDTRIP
360
424
  0
DICTIONARY
  5
427
330
3E
100
AcDbDictionary
280
     1
281
     1
  3
ACAD_XREC_ROUNDTRIP
360
428
  0
DICTIONARY
  5
40B
330
2F
100
AcDbDictionary
280
     1
281
     1
  3
ACAD_XREC_ROUNDTRIP
360
40C
  0
DICTIONARY
  5
40F
330
31
100
AcDbDictionary
280
     1
281
     1
  3
ACAD_XREC_ROUNDTRIP
360
410
  0
DICTIONARY
  5
40D
330
30
100
AcDbDictionary
280
     1
281
     1
  3
ACAD_XREC_ROUNDTRIP
360
40E
  0
DICTIONARY
  5
411
330
32
100
AcDbDictionary
280
     1
281
     1
  3
ACAD_XREC_ROUNDTRIP
360
412
  0
DICTIONARY
  5
419
330
36
100
AcDbDictionary
280
     1
281
     1
  3
ACAD_XREC_ROUNDTRIP
360
41A
  0
DICTIONARY
  5
421
330
3A
100
AcDbDictionary
280
     1
281
     1
  3
ACAD_XREC_ROUNDTRIP
360
422
  0
DICTIONARY
  5
415
330
34
100
AcDbDictionary
280
     1
281
     1
  3
ACAD_XREC_ROUNDTRIP
360
416
  0
DICTIONARY
  5
417
330
35
100
AcDbDictionary
280
     1
281
     1
  3
ACAD_XREC_ROUNDTRIP
360
418
  0
DICTIONARY
  5
41F
330
39
100
AcDbDictionary
280
     1
281
     1
  3
ACAD_XREC_ROUNDTRIP
360
420
  0
DICTIONARY
  5
403
330
2B
100
AcDbDictionary
280
     1
281
     1
  3
ACAD_XREC_ROUNDTRIP
360
404
  0
DICTIONARY
  5
405
330
2C
100
AcDbDictionary
280
     1
281
     1
  3
ACAD_XREC_ROUNDTRIP
360
406
  0
DICTIONARY
  5
407
330
2D
100
AcDbDictionary
280
     1
281
     1
  3
ACAD_XREC_ROUNDTRIP
360
408
  0
DICTIONARY
  5
409
330
2E
100
AcDbDictionary
280
     1
281
     1
  3
ACAD_XREC_ROUNDTRIP
360
40A
  0
DICTIONARY
  5
41D
330
38
100
AcDbDictionary
280
     1
281
     1
  3
ACAD_XREC_ROUNDTRIP
360
41E
  0
DICTIONARY
  5
413
330
33
100
AcDbDictionary
280
     1
281
     1
  3
ACAD_XREC_ROUNDTRIP
360
414
  0
DICTIONARY
  5
41B
330
37
100
AcDbDictionary
280
     1
281
     1
  3
ACAD_XREC_ROUNDTRIP
360
41C
  0
XRECORD
  5
426
102
{ACAD_REACTORS
330
425
102
}
330
425
100
AcDbXrecord
280
     1
102
MATERIAL
148
0.0
149
0.0
149
0.0
 93
        0
 94
      127
282
     0
 72
     1
 77
     1
171
     1
175
     1
179
     1
273
     0
  0
XRECORD
  5
424
102
{ACAD_REACTORS
330
423
102
}
330
423
100
AcDbXrecord
280
     1
102
MATERIAL
148
0.0
149
0.0
149
0.0
 93
        0
 94
      127
282
     0
 72
     1
 77
     1
171
     1
175
     1
179
     1
273
     0
  0
XRECORD
  5
428
102
{ACAD_REACTORS
330
427
102
}
330
427
100
AcDbXrecord
280
     1
102
MATERIAL
148
0.0
149
0.0
149
0.0
 93
        0
 94
      127
282
     0
 72
     1
 77
     1
171
     1
175
     1
179
     1
273
     0
  0
XRECORD
  5
40C
102
{ACAD_REACTORS
330
40B
102
}
330
40B
100
AcDbXrecord
280
     1
102
RTVSPropertyOp0
 70
     1
102
RTVSPropertyOp1
 70
     1
102
RTVSPropertyOp2
 70
     1
102
RTVSPropertyOp3
 70
     1
102
RTVSPropertyOp4
 70
     1
102
RTVSPropertyOp5
 70
     1
102
RTVSPropertyOp6
 70
     1
102
RTVSPropertyOp7
 70
     1
102
RTVSPropertyOp8
 70
     1
102
RTVSPropertyOp9
 70
     1
102
RTVSPropertyOp10
 70
     1
102
RTVSPropertyOp11
 70
     1
102
RTVSPropertyOp12
 70
     1
102
RTVSPropertyOp13
 70
     1
102
RTVSPropertyOp14
 70
     1
102
RTVSPropertyOp15
 70
     1
102
RTVSPropertyOp16
 70
     1
102
RTVSPropertyOp17
 70
     1
102
RTVSPropertyOp18
 70
     1
102
RTVSPropertyOp19
 70
     1
102
RTVSPropertyOp20
 70
     1
102
RTVSPropertyOp21
 70
     1
102
RTVSPropertyOp22
 70
     1
102
RTVSPropertyOp23
 70
     1
102
RTVSPropertyOp24
 70
     1
102
RTVSPropertyOp25
 70
     1
102
RTVSPropertyOp26
 70
     1
102
RTVSPropertyOp27
 70
     1
102
RTVSPropertyOp28
 70
     1
102
RTVSPropertyOp29
 70
     1
102
RTVSPropertyOp30
 70
     1
102
RTVSPropertyOp31
 70
     1
102
RTVSPropertyOp32
 70
     1
  0
XRECORD
  5
410
102
{ACAD_REACTORS
330
40F
102
}
330
40F
100
AcDbXrecord
280
     1
102
RTVSPropertyOp0
 70
     1
102
RTVSPropertyOp1
 70
     1
102
RTVSPropertyOp2
 70
     1
102
RTVSPropertyOp3
 70
     1
102
RTVSPropertyOp4
 70
     1
102
RTVSPropertyOp5
 70
     1
102
RTVSPropertyOp6
 70
     1
102
RTVSPropertyOp7
 70
     1
102
RTVSPropertyOp8
 70
     1
102
RTVSPropertyOp9
 70
     1
102
RTVSPropertyOp10
 70
     1
102
RTVSPropertyOp11
 70
     1
102
RTVSPropertyOp12
 70
     1
102
RTVSPropertyOp13
 70
     1
102
RTVSPropertyOp14
 70
     1
102
RTVSPropertyOp15
 70
     1
102
RTVSPropertyOp16
 70
     1
102
RTVSPropertyOp17
 70
     1
102
RTVSPropertyOp18
 70
     1
102
RTVSPropertyOp19
 70
     1
102
RTVSPropertyOp20
 70
     1
102
RTVSPropertyOp21
 70
     1
102
RTVSPropertyOp22
 70
     1
102
RTVSPropertyOp23
 70
     1
102
RTVSPropertyOp24
 70
     1
102
RTVSPropertyOp25
 70
     1
102
RTVSPropertyOp26
 70
     1
102
RTVSPropertyOp27
 70
     1
102
RTVSPropertyOp28
 70
     1
102
RTVSPropertyOp29
 70
     1
102
RTVSPropertyOp30
 70
     1
102
RTVSPropertyOp31
 70
     1
102
RTVSPropertyOp32
 70
     1
  0
XRECORD
  5
40E
102
{ACAD_REACTORS
330
40D
102
}
330
40D
100
AcDbXrecord
280
     1
102
RTVSPropertyOp0
 70
     1
102
RTVSPropertyOp1
 70
     1
102
RTVSPropertyOp2
 70
     1
102
RTVSPropertyOp3
 70
     1
102
RTVSPropertyOp4
 70
     1
102
RTVSPropertyOp5
 70
     1
102
RTVSPropertyOp6
 70
     1
102
RTVSPropertyOp7
 70
     1
102
RTVSPropertyOp8
 70
     1
102
RTVSPropertyOp9
 70
     1
102
RTVSPropertyOp10
 70
     1
102
RTVSPropertyOp11
 70
     1
102
RTVSPropertyOp12
 70
     1
102
RTVSPropertyOp13
 70
     1
102
RTVSPropertyOp14
 70
     1
102
RTVSPropertyOp15
 70
     1
102
RTVSPropertyOp16
 70
     1
102
RTVSPropertyOp17
 70
     1
102
RTVSPropertyOp18
 70
     1
102
RTVSPropertyOp19
 70
     1
102
RTVSPropertyOp20
 70
     1
102
RTVSPropertyOp21
 70
     1
102
RTVSPropertyOp22
 70
     1
102
RTVSPropertyOp23
 70
     1
102
RTVSPropertyOp24
 70
     1
102
RTVSPropertyOp25
 70
     1
102
RTVSPropertyOp26
 70
     1
102
RTVSPropertyOp27
 70
     1
102
RTVSPropertyOp28
 70
     1
102
RTVSPropertyOp29
 70
     1
102
RTVSPropertyOp30
 70
     1
102
RTVSPropertyOp31
 70
     1
102
RTVSPropertyOp32
 70
     1
  0
XRECORD
  5
412
102
{ACAD_REACTORS
330
411
102
}
330
411
100
AcDbXrecord
280
     1
102
RTVSPropertyOp0
 70
     1
102
RTVSPropertyOp1
 70
     1
102
RTVSPropertyOp2
 70
     1
102
RTVSPropertyOp3
 70
     1
102
RTVSPropertyOp4
 70
     1
102
RTVSPropertyOp5
 70
     1
102
RTVSPropertyOp6
 70
     1
102
RTVSPropertyOp7
 70
     1
102
RTVSPropertyOp8
 70
     1
102
RTVSPropertyOp9
 70
     1
102
RTVSPropertyOp10
 70
     1
102
RTVSPropertyOp11
 70
     1
102
RTVSPropertyOp12
 70
     1
102
RTVSPropertyOp13
 70
     1
102
RTVSPropertyOp14
 70
     1
102
RTVSPropertyOp15
 70
     1
102
RTVSPropertyOp16
 70
     1
102
RTVSPropertyOp17
 70
     1
102
RTVSPropertyOp18
 70
     1
102
RTVSPropertyOp19
 70
     1
102
RTVSPropertyOp20
 70
     1
102
RTVSPropertyOp21
 70
     1
102
RTVSPropertyOp22
 70
     1
102
RTVSPropertyOp23
 70
     1
102
RTVSPropertyOp24
 70
     1
102
RTVSPropertyOp25
 70
     1
102
RTVSPropertyOp26
 70
     1
102
RTVSPropertyOp27
 70
     1
102
RTVSPropertyOp28
 70
     1
102
RTVSPropertyOp29
 70
     1
102
RTVSPropertyOp30
 70
     1
102
RTVSPropertyOp31
 70
     1
102
RTVSPropertyOp32
 70
     1
  0
XRECORD
  5
41A
102
{ACAD_REACTORS
330
419
102
}
330
419
100
AcDbXrecord
280
     1
102
RTVSPropertyOp0
 70
     1
102
RTVSPropertyOp1
 70
     1
102
RTVSPropertyOp2
 70
     1
102
RTVSPropertyOp3
 70
     1
102
RTVSPropertyOp4
 70
     1
102
RTVSPropertyOp5
 70
     1
102
RTVSPropertyOp6
 70
     1
102
RTVSPropertyOp7
 70
     1
102
RTVSPropertyOp8
 70
     1
102
RTVSPropertyOp9
 70
     1
102
RTVSPropertyOp10
 70
     1
102
RTVSPropertyOp11
 70
     1
102
RTVSPropertyOp12
 70
     1
102
RTVSPropertyOp13
 70
     1
102
RTVSPropertyOp14
 70
     1
102
RTVSPropertyOp15
 70
     1
102
RTVSPropertyOp16
 70
     1
102
RTVSPropertyOp17
 70
     1
102
RTVSPropertyOp18
 70
     1
102
RTVSPropertyOp19
 70
     1
102
RTVSPropertyOp20
 70
     1
102
RTVSPropertyOp21
 70
     1
102
RTVSPropertyOp22
 70
     1
102
RTVSPropertyOp23
 70
     1
102
RTVSPropertyOp24
 70
     1
102
RTVSPropertyOp25
 70
     1
102
RTVSPropertyOp26
 70
     1
102
RTVSPropertyOp27
 70
     1
102
RTVSPropertyOp28
 70
     1
102
RTVSPropertyOp29
 70
     1
102
RTVSPropertyOp30
 70
     1
102
RTVSPropertyOp31
 70
     1
102
RTVSPropertyOp32
 70
     1
  0
XRECORD
  5
422
102
{ACAD_REACTORS
330
421
102
}
330
421
100
AcDbXrecord
280
     1
102
RTVSPropertyOp0
 70
     1
102
RTVSPropertyOp1
 70
     1
102
RTVSPropertyOp2
 70
     1
102
RTVSPropertyOp3
 70
     1
102
RTVSPropertyOp4
 70
     1
102
RTVSPropertyOp5
 70
     1
102
RTVSPropertyOp6
 70
     1
102
RTVSPropertyOp7
 70
     1
102
RTVSPropertyOp8
 70
     1
102
RTVSPropertyOp9
 70
     1
102
RTVSPropertyOp10
 70
     1
102
RTVSPropertyOp11
 70
     1
102
RTVSPropertyOp12
 70
     1
102
RTVSPropertyOp13
 70
     1
102
RTVSPropertyOp14
 70
     1
102
RTVSPropertyOp15
 70
     1
102
RTVSPropertyOp16
 70
     1
102
RTVSPropertyOp17
 70
     1
102
RTVSPropertyOp18
 70
     1
102
RTVSPropertyOp19
 70
     1
102
RTVSPropertyOp20
 70
     1
102
RTVSPropertyOp21
 70
     1
102
RTVSPropertyOp22
 70
     1
102
RTVSPropertyOp23
 70
     1
102
RTVSPropertyOp24
 70
     1
102
RTVSPropertyOp25
 70
     1
102
RTVSPropertyOp26
 70
     1
102
RTVSPropertyOp27
 70
     1
102
RTVSPropertyOp28
 70
     1
102
RTVSPropertyOp29
 70
     1
102
RTVSPropertyOp30
 70
     1
102
RTVSPropertyOp31
 70
     1
102
RTVSPropertyOp32
 70
     1
  0
XRECORD
  5
416
102
{ACAD_REACTORS
330
415
102
}
330
415
100
AcDbXrecord
280
     1
102
RTVSPropertyOp0
 70
     1
102
RTVSPropertyOp1
 70
     1
102
RTVSPropertyOp2
 70
     1
102
RTVSPropertyOp3
 70
     1
102
RTVSPropertyOp4
 70
     1
102
RTVSPropertyOp5
 70
     1
102
RTVSPropertyOp6
 70
     1
102
RTVSPropertyOp7
 70
     1
102
RTVSPropertyOp8
 70
     1
102
RTVSPropertyOp9
 70
     1
102
RTVSPropertyOp10
 70
     1
102
RTVSPropertyOp11
 70
     1
102
RTVSPropertyOp12
 70
     1
102
RTVSPropertyOp13
 70
     1
102
RTVSPropertyOp14
 70
     1
102
RTVSPropertyOp15
 70
     1
102
RTVSPropertyOp16
 70
     1
102
RTVSPropertyOp17
 70
     1
102
RTVSPropertyOp18
 70
     1
102
RTVSPropertyOp19
 70
     1
102
RTVSPropertyOp20
 70
     1
102
RTVSPropertyOp21
 70
     1
102
RTVSPropertyOp22
 70
     1
102
RTVSPropertyOp23
 70
     1
102
RTVSPropertyOp24
 70
     1
102
RTVSPropertyOp25
 70
     1
102
RTVSPropertyOp26
 70
     1
102
RTVSPropertyOp27
 70
     1
102
RTVSPropertyOp28
 70
     1
102
RTVSPropertyOp29
 70
     1
102
RTVSPropertyOp30
 70
     1
102
RTVSPropertyOp31
 70
     1
102
RTVSPropertyOp32
 70
     1
  0
XRECORD
  5
418
102
{ACAD_REACTORS
330
417
102
}
330
417
100
AcDbXrecord
280
     1
102
RTVSPropertyOp0
 70
     1
102
RTVSPropertyOp1
 70
     1
102
RTVSPropertyOp2
 70
     1
102
RTVSPropertyOp3
 70
     1
102
RTVSPropertyOp4
 70
     1
102
RTVSPropertyOp5
 70
     1
102
RTVSPropertyOp6
 70
     1
102
RTVSPropertyOp7
 70
     1
102
RTVSPropertyOp8
 70
     1
102
RTVSPropertyOp9
 70
     1
102
RTVSPropertyOp10
 70
     1
102
RTVSPropertyOp11
 70
     1
102
RTVSPropertyOp12
 70
     1
102
RTVSPropertyOp13
 70
     1
102
RTVSPropertyOp14
 70
     1
102
RTVSPropertyOp15
 70
     1
102
RTVSPropertyOp16
 70
     1
102
RTVSPropertyOp17
 70
     1
102
RTVSPropertyOp18
 70
     1
102
RTVSPropertyOp19
 70
     1
102
RTVSPropertyOp20
 70
     1
102
RTVSPropertyOp21
 70
     1
102
RTVSPropertyOp22
 70
     1
102
RTVSPropertyOp23
 70
     1
102
RTVSPropertyOp24
 70
     1
102
RTVSPropertyOp25
 70
     1
102
RTVSPropertyOp26
 70
     1
102
RTVSPropertyOp27
 70
     1
102
RTVSPropertyOp28
 70
     1
102
RTVSPropertyOp29
 70
     1
102
RTVSPropertyOp30
 70
     1
102
RTVSPropertyOp31
 70
     1
102
RTVSPropertyOp32
 70
     1
  0
XRECORD
  5
420
102
{ACAD_REACTORS
330
41F
102
}
330
41F
100
AcDbXrecord
280
     1
102
RTVSPropertyOp0
 70
     1
102
RTVSPropertyOp1
 70
     1
102
RTVSPropertyOp2
 70
     1
102
RTVSPropertyOp3
 70
     1
102
RTVSPropertyOp4
 70
     1
102
RTVSPropertyOp5
 70
     1
102
RTVSPropertyOp6
 70
     1
102
RTVSPropertyOp7
 70
     1
102
RTVSPropertyOp8
 70
     1
102
RTVSPropertyOp9
 70
     1
102
RTVSPropertyOp10
 70
     1
102
RTVSPropertyOp11
 70
     1
102
RTVSPropertyOp12
 70
     1
102
RTVSPropertyOp13
 70
     1
102
RTVSPropertyOp14
 70
     1
102
RTVSPropertyOp15
 70
     1
102
RTVSPropertyOp16
 70
     1
102
RTVSPropertyOp17
 70
     1
102
RTVSPropertyOp18
 70
     1
102
RTVSPropertyOp19
 70
     1
102
RTVSPropertyOp20
 70
     1
102
RTVSPropertyOp21
 70
     1
102
RTVSPropertyOp22
 70
     1
102
RTVSPropertyOp23
 70
     1
102
RTVSPropertyOp24
 70
     1
102
RTVSPropertyOp25
 70
     1
102
RTVSPropertyOp26
 70
     1
102
RTVSPropertyOp27
 70
     1
102
RTVSPropertyOp28
 70
     1
102
RTVSPropertyOp29
 70
     1
102
RTVSPropertyOp30
 70
     1
102
RTVSPropertyOp31
 70
     1
102
RTVSPropertyOp32
 70
     1
  0
XRECORD
  5
404
102
{ACAD_REACTORS
330
403
102
}
330
403
100
AcDbXrecord
280
     1
102
RTVSPropertyOp0
 70
     1
102
RTVSPropertyOp1
 70
     1
102
RTVSPropertyOp2
 70
     1
102
RTVSPropertyOp3
 70
     1
102
RTVSPropertyOp4
 70
     1
102
RTVSPropertyOp5
 70
     1
102
RTVSPropertyOp6
 70
     1
102
RTVSPropertyOp7
 70
     1
102
RTVSPropertyOp8
 70
     1
102
RTVSPropertyOp9
 70
     1
102
RTVSPropertyOp10
 70
     1
102
RTVSPropertyOp11
 70
     1
102
RTVSPropertyOp12
 70
     1
102
RTVSPropertyOp13
 70
     1
102
RTVSPropertyOp14
 70
     1
102
RTVSPropertyOp15
 70
     1
102
RTVSPropertyOp16
 70
     1
102
RTVSPropertyOp17
 70
     1
102
RTVSPropertyOp18
 70
     1
102
RTVSPropertyOp19
 70
     1
102
RTVSPropertyOp20
 70
     1
102
RTVSPropertyOp21
 70
     1
102
RTVSPropertyOp22
 70
     1
102
RTVSPropertyOp23
 70
     1
102
RTVSPropertyOp24
 70
     1
102
RTVSPropertyOp25
 70
     1
102
RTVSPropertyOp26
 70
     1
102
RTVSPropertyOp27
 70
     1
102
RTVSPropertyOp28
 70
     1
102
RTVSPropertyOp29
 70
     1
102
RTVSPropertyOp30
 70
     1
102
RTVSPropertyOp31
 70
     1
102
RTVSPropertyOp32
 70
     1
  0
XRECORD
  5
406
102
{ACAD_REACTORS
330
405
102
}
330
405
100
AcDbXrecord
280
     1
102
RTVSPropertyOp0
 70
     1
102
RTVSPropertyOp1
 70
     1
102
RTVSPropertyOp2
 70
     1
102
RTVSPropertyOp3
 70
     1
102
RTVSPropertyOp4
 70
     1
102
RTVSPropertyOp5
 70
     1
102
RTVSPropertyOp6
 70
     1
102
RTVSPropertyOp7
 70
     1
102
RTVSPropertyOp8
 70
     1
102
RTVSPropertyOp9
 70
     1
102
RTVSPropertyOp10
 70
     1
102
RTVSPropertyOp11
 70
     1
102
RTVSPropertyOp12
 70
     1
102
RTVSPropertyOp13
 70
     1
102
RTVSPropertyOp14
 70
     1
102
RTVSPropertyOp15
 70
     1
102
RTVSPropertyOp16
 70
     1
102
RTVSPropertyOp17
 70
     1
102
RTVSPropertyOp18
 70
     1
102
RTVSPropertyOp19
 70
     1
102
RTVSPropertyOp20
 70
     1
102
RTVSPropertyOp21
 70
     1
102
RTVSPropertyOp22
 70
     1
102
RTVSPropertyOp23
 70
     1
102
RTVSPropertyOp24
 70
     1
102
RTVSPropertyOp25
 70
     1
102
RTVSPropertyOp26
 70
     1
102
RTVSPropertyOp27
 70
     1
102
RTVSPropertyOp28
 70
     1
102
RTVSPropertyOp29
 70
     1
102
RTVSPropertyOp30
 70
     1
102
RTVSPropertyOp31
 70
     1
102
RTVSPropertyOp32
 70
     1
  0
XRECORD
  5
408
102
{ACAD_REACTORS
330
407
102
}
330
407
100
AcDbXrecord
280
     1
102
RTVSPropertyOp0
 70
     1
102
RTVSPropertyOp1
 70
     1
102
RTVSPropertyOp2
 70
     1
102
RTVSPropertyOp3
 70
     1
102
RTVSPropertyOp4
 70
     1
102
RTVSPropertyOp5
 70
     1
102
RTVSPropertyOp6
 70
     1
102
RTVSPropertyOp7
 70
     1
102
RTVSPropertyOp8
 70
     1
102
RTVSPropertyOp9
 70
     1
102
RTVSPropertyOp10
 70
     1
102
RTVSPropertyOp11
 70
     1
102
RTVSPropertyOp12
 70
     1
102
RTVSPropertyOp13
 70
     1
102
RTVSPropertyOp14
 70
     1
102
RTVSPropertyOp15
 70
     1
102
RTVSPropertyOp16
 70
     1
102
RTVSPropertyOp17
 70
     1
102
RTVSPropertyOp18
 70
     1
102
RTVSPropertyOp19
 70
     1
102
RTVSPropertyOp20
 70
     1
102
RTVSPropertyOp21
 70
     1
102
RTVSPropertyOp22
 70
     1
102
RTVSPropertyOp23
 70
     1
102
RTVSPropertyOp24
 70
     1
102
RTVSPropertyOp25
 70
     1
102
RTVSPropertyOp26
 70
     1
102
RTVSPropertyOp27
 70
     1
102
RTVSPropertyOp28
 70
     1
102
RTVSPropertyOp29
 70
     1
102
RTVSPropertyOp30
 70
     1
102
RTVSPropertyOp31
 70
     1
102
RTVSPropertyOp32
 70
     1
  0
XRECORD
  5
40A
102
{ACAD_REACTORS
330
409
102
}
330
409
100
AcDbXrecord
280
     1
102
RTVSPropertyOp0
 70
     1
102
RTVSPropertyOp1
 70
     1
102
RTVSPropertyOp2
 70
     1
102
RTVSPropertyOp3
 70
     1
102
RTVSPropertyOp4
 70
     1
102
RTVSPropertyOp5
 70
     1
102
RTVSPropertyOp6
 70
     1
102
RTVSPropertyOp7
 70
     1
102
RTVSPropertyOp8
 70
     1
102
RTVSPropertyOp9
 70
     1
102
RTVSPropertyOp10
 70
     1
102
RTVSPropertyOp11
 70
     1
102
RTVSPropertyOp12
 70
     1
102
RTVSPropertyOp13
 70
     1
102
RTVSPropertyOp14
 70
     1
102
RTVSPropertyOp15
 70
     1
102
RTVSPropertyOp16
 70
     1
102
RTVSPropertyOp17
 70
     1
102
RTVSPropertyOp18
 70
     1
102
RTVSPropertyOp19
 70
     1
102
RTVSPropertyOp20
 70
     1
102
RTVSPropertyOp21
 70
     1
102
RTVSPropertyOp22
 70
     1
102
RTVSPropertyOp23
 70
     1
102
RTVSPropertyOp24
 70
     1
102
RTVSPropertyOp25
 70
     1
102
RTVSPropertyOp26
 70
     1
102
RTVSPropertyOp27
 70
     1
102
RTVSPropertyOp28
 70
     1
102
RTVSPropertyOp29
 70
     1
102
RTVSPropertyOp30
 70
     1
102
RTVSPropertyOp31
 70
     1
102
RTVSPropertyOp32
 70
     1
  0
XRECORD
  5
41E
102
{ACAD_REACTORS
330
41D
102
}
330
41D
100
AcDbXrecord
280
     1
102
RTVSPropertyOp0
 70
     1
102
RTVSPropertyOp1
 70
     1
102
RTVSPropertyOp2
 70
     1
102
RTVSPropertyOp3
 70
     1
102
RTVSPropertyOp4
 70
     1
102
RTVSPropertyOp5
 70
     1
102
RTVSPropertyOp6
 70
     1
102
RTVSPropertyOp7
 70
     1
102
RTVSPropertyOp8
 70
     1
102
RTVSPropertyOp9
 70
     1
102
RTVSPropertyOp10
 70
     1
102
RTVSPropertyOp11
 70
     1
102
RTVSPropertyOp12
 70
     1
102
RTVSPropertyOp13
 70
     1
102
RTVSPropertyOp14
 70
     1
102
RTVSPropertyOp15
 70
     1
102
RTVSPropertyOp16
 70
     1
102
RTVSPropertyOp17
 70
     1
102
RTVSPropertyOp18
 70
     1
102
RTVSPropertyOp19
 70
     1
102
RTVSPropertyOp20
 70
     1
102
RTVSPropertyOp21
 70
     1
102
RTVSPropertyOp22
 70
     1
102
RTVSPropertyOp23
 70
     1
102
RTVSPropertyOp24
 70
     1
102
RTVSPropertyOp25
 70
     1
102
RTVSPropertyOp26
 70
     1
102
RTVSPropertyOp27
 70
     1
102
RTVSPropertyOp28
 70
     1
102
RTVSPropertyOp29
 70
     1
102
RTVSPropertyOp30
 70
     1
102
RTVSPropertyOp31
 70
     1
102
RTVSPropertyOp32
 70
     1
  0
XRECORD
  5
414
102
{ACAD_REACTORS
330
413
102
}
330
413
100
AcDbXrecord
280
     1
102
RTVSPropertyOp0
 70
     1
102
RTVSPropertyOp1
 70
     1
102
RTVSPropertyOp2
 70
     1
102
RTVSPropertyOp3
 70
     1
102
RTVSPropertyOp4
 70
     1
102
RTVSPropertyOp5
 70
     1
102
RTVSPropertyOp6
 70
     1
102
RTVSPropertyOp7
 70
     1
102
RTVSPropertyOp8
 70
     1
102
RTVSPropertyOp9
 70
     1
102
RTVSPropertyOp10
 70
     1
102
RTVSPropertyOp11
 70
     1
102
RTVSPropertyOp12
 70
     1
102
RTVSPropertyOp13
 70
     1
102
RTVSPropertyOp14
 70
     1
102
RTVSPropertyOp15
 70
     1
102
RTVSPropertyOp16
 70
     1
102
RTVSPropertyOp17
 70
     1
102
RTVSPropertyOp18
 70
     1
102
RTVSPropertyOp19
 70
     1
102
RTVSPropertyOp20
 70
     1
102
RTVSPropertyOp21
 70
     1
102
RTVSPropertyOp22
 70
     1
102
RTVSPropertyOp23
 70
     1
102
RTVSPropertyOp24
 70
     1
102
RTVSPropertyOp25
 70
     1
102
RTVSPropertyOp26
 70
     1
102
RTVSPropertyOp27
 70
     1
102
RTVSPropertyOp28
 70
     1
102
RTVSPropertyOp29
 70
     1
102
RTVSPropertyOp30
 70
     1
102
RTVSPropertyOp31
 70
     1
102
RTVSPropertyOp32
 70
     1
  0
XRECORD
  5
41C
102
{ACAD_REACTORS
330
41B
102
}
330
41B
100
AcDbXrecord
280
     1
102
RTVSPropertyOp0
 70
     1
102
RTVSPropertyOp1
 70
     1
102
RTVSPropertyOp2
 70
     1
102
RTVSPropertyOp3
 70
     1
102
RTVSPropertyOp4
 70
     1
102
RTVSPropertyOp5
 70
     1
102
RTVSPropertyOp6
 70
     1
102
RTVSPropertyOp7
 70
     1
102
RTVSPropertyOp8
 70
     1
102
RTVSPropertyOp9
 70
     1
102
RTVSPropertyOp10
 70
     1
102
RTVSPropertyOp11
 70
     1
102
RTVSPropertyOp12
 70
     1
102
RTVSPropertyOp13
 70
     1
102
RTVSPropertyOp14
 70
     1
102
RTVSPropertyOp15
 70
     1
102
RTVSPropertyOp16
 70
     1
102
RTVSPropertyOp17
 70
     1
102
RTVSPropertyOp18
 70
     1
102
RTVSPropertyOp19
 70
     1
102
RTVSPropertyOp20
 70
     1
102
RTVSPropertyOp21
 70
     1
102
RTVSPropertyOp22
 70
     1
102
RTVSPropertyOp23
 70
     1
102
RTVSPropertyOp24
 70
     1
102
RTVSPropertyOp25
 70
     1
102
RTVSPropertyOp26
 70
     1
102
RTVSPropertyOp27
 70
     1
102
RTVSPropertyOp28
 70
     1
102
RTVSPropertyOp29
 70
     1
102
RTVSPropertyOp30
 70
     1
102
RTVSPropertyOp31
 70
     1
102
RTVSPropertyOp32
 70
     1
  0
ENDSEC
  0
EOF
