  0
SECTION
  2
HEADER
  9
$ACADVER
  1
AC1018
  9
$ACADMAINTVER
 70
     0
  9
$DWGCODEPAGE
  3
ANSI_1252
  9
$INSBASE
 10
0.0
 20
0.0
 30
0.0
  9
$EXTMIN
 10
-219.3774047358086
 20
-2.00624768689931
 30
0.0
  9
$EXTMAX
 10
77.6225952641895
 20
207.9937523131008
 30
0.0
  9
$LIMMIN
 10
0.0
 20
0.0
  9
$LIMMAX
 10
12.0
 20
9.0
  9
$ORTHOMODE
 70
     0
  9
$REGENMODE
 70
     1
  9
$FILLMODE
 70
     1
  9
$QTEXTMODE
 70
     0
  9
$MIRRTEXT
 70
     1
  9
$LTSCALE
 40
1.0
  9
$ATTMODE
 70
     1
  9
$TEXTSIZE
 40
0.2
  9
$TRACEWID
 40
0.05
  9
$TEXTSTYLE
  7
Standard
  9
$CLAYER
  8
0
  9
$CELTYPE
  6
ByLayer
  9
$CECOLOR
 62
   256
  9
$CELTSCALE
 40
1.0
  9
$DISPSILH
 70
     0
  9
$DIMSCALE
 40
1.0
  9
$DIMASZ
 40
0.18
  9
$DIMEXO
 40
0.0625
  9
$DIMDLI
 40
0.38
  9
$DIMRND
 40
0.0
  9
$DIMDLE
 40
0.0
  9
$DIMEXE
 40
0.18
  9
$DIMTP
 40
0.0
  9
$DIMTM
 40
0.0
  9
$DIMTXT
 40
0.18
  9
$DIMCEN
 40
0.09
  9
$DIMTSZ
 40
0.0
  9
$DIMTOL
 70
     0
  9
$DIMLIM
 70
     0
  9
$DIMTIH
 70
     1
  9
$DIMTOH
 70
     1
  9
$DIMSE1
 70
     0
  9
$DIMSE2
 70
     0
  9
$DIMTAD
 70
     0
  9
$DIMZIN
 70
     0
  9
$DIMBLK
  1

  9
$DIMASO
 70
     1
  9
$DIMSHO
 70
     1
  9
$DIMPOST
  1

  9
$DIMAPOST
  1

  9
$DIMALT
 70
     0
  9
$DIMALTD
 70
     2
  9
$DIMALTF
 40
25.4
  9
$DIMLFAC
 40
1.0
  9
$DIMTOFL
 70
     0
  9
$DIMTVP
 40
0.0
  9
$DIMTIX
 70
     0
  9
$DIMSOXD
 70
     0
  9
$DIMSAH
 70
     0
  9
$DIMBLK1
  1

  9
$DIMBLK2
  1

  9
$DIMSTYLE
  2
Standard
  9
$DIMCLRD
 70
     0
  9
$DIMCLRE
 70
     0
  9
$DIMCLRT
 70
     0
  9
$DIMTFAC
 40
1.0
  9
$DIMGAP
 40
0.09
  9
$DIMJUST
 70
     0
  9
$DIMSD1
 70
     0
  9
$DIMSD2
 70
     0
  9
$DIMTOLJ
 70
     1
  9
$DIMTZIN
 70
     0
  9
$DIMALTZ
 70
     0
  9
$DIMALTTZ
 70
     0
  9
$DIMUPT
 70
     0
  9
$DIMDEC
 70
     4
  9
$DIMTDEC
 70
     4
  9
$DIMALTU
 70
     2
  9
$DIMALTTD
 70
     2
  9
$DIMTXSTY
  7
Standard
  9
$DIMAUNIT
 70
     0
  9
$DIMADEC
 70
     0
  9
$DIMALTRND
 40
0.0
  9
$DIMAZIN
 70
     0
  9
$DIMDSEP
 70
    46
  9
$DIMATFIT
 70
     3
  9
$DIMFRAC
 70
     0
  9
$DIMLDRBLK
  1

  9
$DIMLUNIT
 70
     2
  9
$DIMLWD
 70
    -2
  9
$DIMLWE
 70
    -2
  9
$DIMTMOVE
 70
     0
  9
$LUNITS
 70
     2
  9
$LUPREC
 70
     4
  9
$SKETCHINC
 40
0.1
  9
$FILLETRAD
 40
0.5
  9
$AUNITS
 70
     0
  9
$AUPREC
 70
     0
  9
$MENU
  1
.
  9
$ELEVATION
 40
0.0
  9
$PELEVATION
 40
0.0
  9
$THICKNESS
 40
0.0
  9
$LIMCHECK
 70
     0
  9
$CHAMFERA
 40
0.5
  9
$CHAMFERB
 40
0.5
  9
$CHAMFERC
 40
1.0
  9
$CHAMFERD
 40
0.0
  9
$SKPOLY
 70
     0
  9
$TDCREATE
 40
2458167.45776243
  9
$TDUCREATE
 40
2458167.416095764
  9
$TDUPDATE
 40
2458167.457762963
  9
$TDUUPDATE
 40
2458167.416096296
  9
$TDINDWG
 40
0.0000000116
  9
$TDUSRTIMER
 40
0.0000000116
  9
$USRTIMER
 70
     1
  9
$ANGBASE
 50
0.0
  9
$ANGDIR
 70
     0
  9
$PDMODE
 70
     0
  9
$PDSIZE
 40
0.0
  9
$PLINEWID
 40
0.0
  9
$SPLFRAME
 70
     0
  9
$SPLINETYPE
 70
     6
  9
$SPLINESEGS
 70
     8
  9
$HANDSEED
  5
23D
  9
$SURFTAB1
 70
     6
  9
$SURFTAB2
 70
     6
  9
$SURFTYPE
 70
     6
  9
$SURFU
 70
     6
  9
$SURFV
 70
     6
  9
$UCSBASE
  2

  9
$UCSNAME
  2

  9
$UCSORG
 10
0.0
 20
0.0
 30
0.0
  9
$UCSXDIR
 10
1.0
 20
0.0
 30
0.0
  9
$UCSYDIR
 10
0.0
 20
1.0
 30
0.0
  9
$UCSORTHOREF
  2

  9
$UCSORTHOVIEW
 70
     0
  9
$UCSORGTOP
 10
0.0
 20
0.0
 30
0.0
  9
$UCSORGBOTTOM
 10
0.0
 20
0.0
 30
0.0
  9
$UCSORGLEFT
 10
0.0
 20
0.0
 30
0.0
  9
$UCSORGRIGHT
 10
0.0
 20
0.0
 30
0.0
  9
$UCSORGFRONT
 10
0.0
 20
0.0
 30
0.0
  9
$UCSORGBACK
 10
0.0
 20
0.0
 30
0.0
  9
$PUCSBASE
  2

  9
$PUCSNAME
  2

  9
$PUCSORG
 10
0.0
 20
0.0
 30
0.0
  9
$PUCSXDIR
 10
1.0
 20
0.0
 30
0.0
  9
$PUCSYDIR
 10
0.0
 20
1.0
 30
0.0
  9
$PUCSORTHOREF
  2

  9
$PUCSORTHOVIEW
 70
     0
  9
$PUCSORGTOP
 10
0.0
 20
0.0
 30
0.0
  9
$PUCSORGBOTTOM
 10
0.0
 20
0.0
 30
0.0
  9
$PUCSORGLEFT
 10
0.0
 20
0.0
 30
0.0
  9
$PUCSORGRIGHT
 10
0.0
 20
0.0
 30
0.0
  9
$PUCSORGFRONT
 10
0.0
 20
0.0
 30
0.0
  9
$PUCSORGBACK
 10
0.0
 20
0.0
 30
0.0
  9
$USERI1
 70
     0
  9
$USERI2
 70
     0
  9
$USERI3
 70
     0
  9
$USERI4
 70
     0
  9
$USERI5
 70
     0
  9
$USERR1
 40
18.1
  9
$USERR2
 40
0.0
  9
$USERR3
 40
0.0
  9
$USERR4
 40
0.0
  9
$USERR5
 40
0.0
  9
$WORLDVIEW
 70
     1
  9
$SHADEDGE
 70
     3
  9
$SHADEDIF
 70
    70
  9
$TILEMODE
 70
     1
  9
$MAXACTVP
 70
    64
  9
$PINSBASE
 10
0.0
 20
0.0
 30
0.0
  9
$PLIMCHECK
 70
     0
  9
$PEXTMIN
 10
1.00000000000000E+20
 20
1.00000000000000E+20
 30
1.00000000000000E+20
  9
$PEXTMAX
 10
-1.00000000000000E+20
 20
-1.00000000000000E+20
 30
-1.00000000000000E+20
  9
$PLIMMIN
 10
0.0
 20
0.0
  9
$PLIMMAX
 10
12.0
 20
9.0
  9
$UNITMODE
 70
     0
  9
$VISRETAIN
 70
     1
  9
$PLINEGEN
 70
     0
  9
$PSLTSCALE
 70
     1
  9
$TREEDEPTH
 70
  3020
  9
$CMLSTYLE
  2
Standard
  9
$CMLJUST
 70
     0
  9
$CMLSCALE
 40
1.0
  9
$PROXYGRAPHICS
 70
     1
  9
$MEASUREMENT
 70
     1
  9
$CELWEIGHT
370
    -1
  9
$ENDCAPS
280
     0
  9
$JOINSTYLE
280
     0
  9
$LWDISPLAY
290
     0
  9
$INSUNITS
 70
     4
  9
$HYPERLINKBASE
  1

  9
$STYLESHEET
  1

  9
$XEDIT
290
     1
  9
$CEPSNTYPE
380
     0
  9
$PSTYLEMODE
290
     1
  9
$FINGERPRINTGUID
  2
{08AB9E8E-1CFC-47AA-BC7E-2597E7324EC7}
  9
$VERSIONGUID
  2
{FAEB1C32-E019-11D5-929B-00C0DF256EC4}
  9
$EXTNAMES
290
     1
  9
$PSVPSCALE
 40
0.0
  9
$OLESTARTUP
290
     0
  9
$SORTENTS
280
   127
  9
$INDEXCTL
280
     0
  9
$HIDETEXT
280
     1
  9
$XCLIPFRAME
290
     0
  9
$HALOGAP
280
     0
  9
$OBSCOLOR
 70
   257
  9
$OBSLTYPE
280
     0
  9
$INTERSECTIONDISPLAY
280
     0
  9
$INTERSECTIONCOLOR
 70
   257
  9
$DIMASSOC
280
     2
  9
$PROJECTNAME
  1

  0
ENDSEC
  0
SECTION
  2
CLASSES
  0
CLASS
  1
ACDBDICTIONARYWDFLT
  2
AcDbDictionaryWithDefault
  3
ObjectDBX Classes
 90
        0
 91
        4
280
     0
281
     0
  0
CLASS
  1
VISUALSTYLE
  2
AcDbVisualStyle
  3
ObjectDBX Classes
 90
     4095
 91
        4
280
     0
281
     0
  0
CLASS
  1
MATERIAL
  2
AcDbMaterial
  3
ObjectDBX Classes
 90
     1153
 91
        4
280
     0
281
     0
  0
ENDSEC
  0
SECTION
  2
TABLES
  0
TABLE
  2
VPORT
  5
8
330
0
100
AcDbSymbolTable
 70
     1
  0
VPORT
  5
29
330
8
100
AcDbSymbolTableRecord
100
AcDbViewportTableRecord
  2
*Active
 70
     0
 10
0.0
 20
0.0
 11
1.0
 21
1.0
 12
-70.87740473580955
 22
102.9937523131007
 13
0.0
 23
0.0
 14
0.5
 24
0.5
 15
0.5
 25
0.5
 16
0.0
 26
0.0
 36
1.0
 17
0.0
 27
0.0
 37
0.0
 40
231.0000000000001
 41
1.60267857142857
 42
50.0
 43
0.0
 44
0.0
 50
0.0
 51
0.0
 71
     0
 72
   100
 73
     1
 74
     3
 75
     0
 76
     0
 77
     0
 78
     0
281
     0
 65
     1
110
0.0
120
0.0
130
0.0
111
1.0
121
0.0
131
0.0
112
0.0
122
1.0
132
0.0
 79
     0
146
0.0
  0
ENDTAB
  0
TABLE
  2
LTYPE
  5
5
330
0
100
AcDbSymbolTable
 70
     8
  0
LTYPE
  5
14
330
5
100
AcDbSymbolTableRecord
100
AcDbLinetypeTableRecord
  2
ByBlock
 70
     0
  3

 72
    65
 73
     0
 40
0.0
  0
LTYPE
  5
15
330
5
100
AcDbSymbolTableRecord
100
AcDbLinetypeTableRecord
  2
ByLayer
 70
     0
  3

 72
    65
 73
     0
 40
0.0
  0
LTYPE
  5
16
330
5
100
AcDbSymbolTableRecord
100
AcDbLinetypeTableRecord
  2
Continuous
 70
     0
  3
Solid line
 72
    65
 73
     0
 40
0.0
  0
LTYPE
  5
3F
330
5
100
AcDbSymbolTableRecord
100
AcDbLinetypeTableRecord
  2
DASHED
 70
     0
  3
Dashed
 72
    65
 73
     2
 40
15.0
 49
7.0
 74
     0
 49
-8.0
 74
     0
  0
LTYPE
  5
40
330
5
100
AcDbSymbolTableRecord
100
AcDbLinetypeTableRecord
  2
DOTTED
 70
     0
  3
Dotted
 72
    65
 73
     2
 40
1.0
 49
0.0
 74
     0
 49
-1.0
 74
     0
  0
LTYPE
  5
41
330
5
100
AcDbSymbolTableRecord
100
AcDbLinetypeTableRecord
  2
DOT_CENTER
 70
     0
  3
Dot_Center
 72
    65
 73
     4
 40
14.0
 49
12.0
 74
     0
 49
-1.0
 74
     0
 49
0.0
 74
     0
 49
-1.0
 74
     0
  0
LTYPE
  5
42
330
5
100
AcDbSymbolTableRecord
100
AcDbLinetypeTableRecord
  2
LONG_DASHED
 70
     0
  3
Long_Dashed
 72
    65
 73
     2
 40
15.0
 49
10.0
 74
     0
 49
-5.0
 74
     0
  0
LTYPE
  5
43
330
5
100
AcDbSymbolTableRecord
100
AcDbLinetypeTableRecord
  2
DASH_CENTER
 70
     0
  3
Dash_Center
 72
    65
 73
     4
 40
14.0
 49
11.0
 74
     0
 49
-1.0
 74
     0
 49
1.0
 74
     0
 49
-1.0
 74
     0
  0
LTYPE
  5
44
330
5
100
AcDbSymbolTableRecord
100
AcDbLinetypeTableRecord
  2
PHANTOM
 70
     0
  3
Phantom
 72
    65
 73
     6
 40
13.0
 49
10.0
 74
     0
 49
-1.0
 74
     0
 49
0.0
 74
     0
 49
-1.0
 74
     0
 49
0.0
 74
     0
 49
-1.0
 74
     0
  0
LTYPE
  5
45
330
5
100
AcDbSymbolTableRecord
100
AcDbLinetypeTableRecord
  2
CENTER_DASH_DASH
 70
     0
  3
Center_Dash_Dash
 72
    65
 73
     6
 40
14.0
 49
9.0
 74
     0
 49
-1.0
 74
     0
 49
1.0
 74
     0
 49
-1.0
 74
     0
 49
1.0
 74
     0
 49
-1.0
 74
     0
  0
ENDTAB
  0
TABLE
  2
LAYER
  5
2
330
0
100
AcDbSymbolTable
 70
     2
  0
LAYER
  5
10
330
2
100
AcDbSymbolTableRecord
100
AcDbLayerTableRecord
  2
0
 70
     0
 62
     7
  6
Continuous
370
    -3
390
F
  0
LAYER
  5
46
330
2
100
AcDbSymbolTableRecord
100
AcDbLayerTableRecord
  2
1
 70
     0
 62
     7
  6
Continuous
370
    -3
390
F
  0
ENDTAB
  0
TABLE
  2
STYLE
  5
3
330
0
100
AcDbSymbolTable
 70
     5
  0
STYLE
  5
11
330
3
100
AcDbSymbolTableRecord
100
AcDbTextStyleTableRecord
  2
Standard
 70
     0
 40
0.0
 41
1.0
 50
0.0
 71
     0
 42
0.2
  3
txt
  4

  0
STYLE
  5
98
330
3
100
AcDbSymbolTableRecord
100
AcDbTextStyleTableRecord
  2
CONVERTER_11
 70
     0
 40
0.0
 41
0.9
 50
0.0
 71
     0
 42
0.2
  3
txt.shx
  4

  0
STYLE
  5
1D8
330
3
100
AcDbSymbolTableRecord
100
AcDbTextStyleTableRecord
  2
CONVERTER_12
 70
     0
 40
0.0
 41
0.81
 50
0.0
 71
     0
 42
0.2
  3
txt.shx
  4

  0
STYLE
  5
1EE
330
3
100
AcDbSymbolTableRecord
100
AcDbTextStyleTableRecord
  2
CONVERTER_13
 70
     0
 40
0.0
 41
0.72
 50
0.0
 71
     0
 42
0.2
  3
txt.shx
  4

  0
STYLE
  5
1F1
330
3
100
AcDbSymbolTableRecord
100
AcDbTextStyleTableRecord
  2
CONVERTER_14
 70
     0
 40
0.0
 41
0.855
 50
0.0
 71
     0
 42
0.2
  3
txt.shx
  4

  0
ENDTAB
  0
TABLE
  2
VIEW
  5
6
330
0
100
AcDbSymbolTable
 70
     0
  0
ENDTAB
  0
TABLE
  2
UCS
  5
7
330
0
100
AcDbSymbolTable
 70
     0
  0
ENDTAB
  0
TABLE
  2
APPID
  5
9
330
0
100
AcDbSymbolTable
 70
     1
  0
APPID
  5
12
330
9
100
AcDbSymbolTableRecord
100
AcDbRegAppTableRecord
  2
ACAD
 70
     0
  0
ENDTAB
  0
TABLE
  2
DIMSTYLE
  5
A
330
0
100
AcDbSymbolTable
 70
     4
100
AcDbDimStyleTable
  0
DIMSTYLE
105
27
330
A
100
AcDbSymbolTableRecord
100
AcDbDimStyleTableRecord
  2
Standard
 70
     0
178
     0
340
11
  0
DIMSTYLE
105
AE
102
{ACAD_REACTORS
330
AF
102
}
330
A
100
AcDbSymbolTableRecord
100
AcDbDimStyleTableRecord
  2
ME10_DIM_10
 70
     0
 41
3.5
 42
0.0
 44
1.5
 73
     0
 74
     0
 77
     1
 78
     8
140
3.5
147
1.5
172
     1
173
     1
174
     1
175
     1
176
     2
177
     2
178
     3
340
98
  0
DIMSTYLE
105
CD
102
{ACAD_REACTORS
330
CE
102
}
330
A
100
AcDbSymbolTableRecord
100
AcDbDimStyleTableRecord
  2
ME10_DIM_11
 70
     0
 41
3.5
 42
0.0
 44
1.5
 73
     0
 74
     0
 77
     1
 78
     8
140
3.5
147
1.5
172
     1
173
     1
174
     1
175
     1
176
     2
177
     2
178
     3
340
98
  0
DIMSTYLE
105
DA
102
{ACAD_REACTORS
330
DB
102
}
330
A
100
AcDbSymbolTableRecord
100
AcDbDimStyleTableRecord
  2
ME10_DIM_12
 70
     0
 41
3.5
 42
0.0
 44
1.5
 73
     0
 74
     0
 77
     1
 78
     8
140
3.5
147
1.5
172
     1
173
     1
174
     1
175
     1
176
     2
177
     2
178
     3
340
98
  0
ENDTAB
  0
TABLE
  2
BLOCK_RECORD
  5
1
330
0
100
AcDbSymbolTable
 70
    20
  0
BLOCK_RECORD
  5
1F
330
1
100
AcDbSymbolTableRecord
100
AcDbBlockTableRecord
  2
*Model_Space
340
22
  0
BLOCK_RECORD
  5
1B
330
1
100
AcDbSymbolTableRecord
100
AcDbBlockTableRecord
  2
*Paper_Space
340
1E
  0
BLOCK_RECORD
  5
23
330
1
100
AcDbSymbolTableRecord
100
AcDbBlockTableRecord
  2
*Paper_Space0
340
26
  0
BLOCK_RECORD
  5
47
330
1
100
AcDbSymbolTableRecord
100
AcDbBlockTableRecord
  2
HV-M6-VS_2-select__1
340
0
102
{BLKREFS
331
4B
102
}
  0
BLOCK_RECORD
  5
4A
330
1
100
AcDbSymbolTableRecord
100
AcDbBlockTableRecord
  2
Allg1
340
0
102
{BLKREFS
331
7D
102
}
  0
BLOCK_RECORD
  5
4E
330
1
100
AcDbSymbolTableRecord
100
AcDbBlockTableRecord
  2
HV-M6-VS_2-select__2
340
0
102
{BLKREFS
331
52
102
}
  0
BLOCK_RECORD
  5
51
330
1
100
AcDbSymbolTableRecord
100
AcDbBlockTableRecord
  2
Drfsicht1
340
0
102
{BLKREFS
331
7E
102
}
  0
BLOCK_RECORD
  5
55
330
1
100
AcDbSymbolTableRecord
100
AcDbBlockTableRecord
  2
HV-M6-VS_2-select__3
340
0
102
{BLKREFS
331
59
102
}
  0
BLOCK_RECORD
  5
58
330
1
100
AcDbSymbolTableRecord
100
AcDbBlockTableRecord
  2
Rckans1
340
0
102
{BLKREFS
331
7F
102
}
  0
BLOCK_RECORD
  5
5C
330
1
100
AcDbSymbolTableRecord
100
AcDbBlockTableRecord
  2
HV-M6-VS_2-select__4
340
0
102
{BLKREFS
331
60
102
}
  0
BLOCK_RECORD
  5
5F
330
1
100
AcDbSymbolTableRecord
100
AcDbBlockTableRecord
  2
SA_Links1
340
0
102
{BLKREFS
331
80
102
}
  0
BLOCK_RECORD
  5
63
330
1
100
AcDbSymbolTableRecord
100
AcDbBlockTableRecord
  2
HV-M6-VS_2-select__5
340
0
102
{BLKREFS
331
67
102
}
  0
BLOCK_RECORD
  5
66
330
1
100
AcDbSymbolTableRecord
100
AcDbBlockTableRecord
  2
SA_Rechts1
340
0
102
{BLKREFS
331
81
102
}
  0
BLOCK_RECORD
  5
6A
330
1
100
AcDbSymbolTableRecord
100
AcDbBlockTableRecord
  2
HV-M6-VS_2-select__6
340
0
102
{BLKREFS
331
6E
102
}
  0
BLOCK_RECORD
  5
6D
330
1
100
AcDbSymbolTableRecord
100
AcDbBlockTableRecord
  2
Vordans1
340
0
102
{BLKREFS
331
82
102
}
  0
BLOCK_RECORD
  5
71
330
1
100
AcDbSymbolTableRecord
100
AcDbBlockTableRecord
  2
_rahmen
340
0
102
{BLKREFS
331
78
102
}
  0
BLOCK_RECORD
  5
74
330
1
100
AcDbSymbolTableRecord
100
AcDbBlockTableRecord
  2
_punkt
340
0
102
{BLKREFS
331
79
102
}
  0
BLOCK_RECORD
  5
77
330
1
100
AcDbSymbolTableRecord
100
AcDbBlockTableRecord
  2
A4I_CS
340
0
102
{BLKREFS
331
83
102
}
  0
BLOCK_RECORD
  5
7C
330
1
100
AcDbSymbolTableRecord
100
AcDbBlockTableRecord
  2
1
340
0
102
{BLKREFS
331
86
102
}
  0
BLOCK_RECORD
  5
A5
330
1
100
AcDbSymbolTableRecord
100
AcDbBlockTableRecord
  2
*D17
340
0
  0
BLOCK_RECORD
  5
C4
330
1
100
AcDbSymbolTableRecord
100
AcDbBlockTableRecord
  2
*D18
340
0
  0
BLOCK_RECORD
  5
CF
330
1
100
AcDbSymbolTableRecord
100
AcDbBlockTableRecord
  2
*D19
340
0
  0
ENDTAB
  0
ENDSEC
  0
SECTION
  2
BLOCKS
  0
BLOCK
  5
20
330
1F
100
AcDbEntity
  8
0
100
AcDbBlockBegin
  2
*Model_Space
 70
     0
 10
0.0
 20
0.0
 30
0.0
  3
*Model_Space
  1

  0
ENDBLK
  5
21
330
1F
100
AcDbEntity
  8
0
100
AcDbBlockEnd
  0
BLOCK
  5
1C
330
1B
100
AcDbEntity
 67
     1
  8
0
100
AcDbBlockBegin
  2
*Paper_Space
 70
     0
 10
0.0
 20
0.0
 30
0.0
  3
*Paper_Space
  1

  0
ENDBLK
  5
1D
330
1B
100
AcDbEntity
 67
     1
  8
0
100
AcDbBlockEnd
  0
BLOCK
  5
24
330
23
100
AcDbEntity
  8
0
100
AcDbBlockBegin
  2
*Paper_Space0
 70
     0
 10
0.0
 20
0.0
 30
0.0
  3
*Paper_Space0
  1

  0
ENDBLK
  5
25
330
23
100
AcDbEntity
  8
0
100
AcDbBlockEnd
  0
BLOCK
  5
48
330
47
100
AcDbEntity
  8
0
100
AcDbBlockBegin
  2
HV-M6-VS_2-select__1
 70
     0
 10
-28.8701905283833
 20
81.70697373384856
 30
0.0
  3
HV-M6-VS_2-select__1
  1

  0
LINE
  5
87
330
47
100
AcDbEntity
  8
0
  6
Continuous
 62
     7
100
AcDbLine
 10
-28.8701905283833
 20
88.05504994520187
 30
0.0
 11
-28.8701905283833
 21
85.45697373384856
 31
0.0
  0
LINE
  5
88
330
47
100
AcDbEntity
  8
0
  6
Continuous
 62
     7
100
AcDbLine
 10
-15.87980947161672
 20
84.30504994520187
 30
0.0
 11
-15.87980947161672
 21
81.70697373384856
 31
0.0
  0
LINE
  5
89
330
47
100
AcDbEntity
  8
0
  6
Continuous
 62
     7
100
AcDbLine
 10
-28.8701905283833
 20
85.45697373384856
 30
0.0
 11
-15.87980947161672
 21
81.70697373384856
 31
0.0
  0
LINE
  5
8A
330
47
100
AcDbEntity
  8
0
  6
Continuous
 62
     7
100
AcDbLine
 10
-15.87980947161672
 20
84.30504994520187
 30
0.0
 11
-28.8701905283833
 21
88.05504994520187
 31
0.0
  0
LINE
  5
8B
330
47
100
AcDbEntity
  8
0
  6
Continuous
 62
     7
100
AcDbLine
 10
-10.1201905283833
 20
104.2930262661601
 30
0.0
 11
-28.8701905283833
 21
88.05504994520187
 31
0.0
  0
LINE
  5
8C
330
47
100
AcDbEntity
  8
0
  6
Continuous
 62
     7
100
AcDbLine
 10
2.87019052838329
 20
100.5430262661601
 30
0.0
 11
-10.1201905283833
 21
104.2930262661601
 31
0.0
  0
LINE
  5
8D
330
47
100
AcDbEntity
  8
0
  6
Continuous
 62
     7
100
AcDbLine
 10
-15.87980947161672
 20
81.70697373384856
 30
0.0
 11
2.87019052838329
 21
97.94495005480677
 31
0.0
  0
LINE
  5
8E
330
47
100
AcDbEntity
  8
0
  6
Continuous
 62
     7
100
AcDbLine
 10
2.87019052838329
 20
100.5430262661601
 30
0.0
 11
2.87019052838329
 21
97.94495005480677
 31
0.0
  0
LINE
  5
8F
330
47
100
AcDbEntity
  8
0
  6
Continuous
 62
     7
100
AcDbLine
 10
2.87019052838329
 20
100.5430262661601
 30
0.0
 11
-15.87980947161672
 21
84.30504994520187
 31
0.0
  0
SPLINE
  5
90
330
47
100
AcDbEntity
  8
0
  6
Continuous
 62
     7
100
AcDbSpline
210
0.0
220
0.0
230
1.0
 70
     8
 71
     3
 72
    15
 73
    11
 74
     9
 42
0.000000001
 43
0.0000000001
 44
0.00000001
 40
0.0
 40
0.0
 40
0.0
 40
0.0
 40
0.6795611311518025
 40
1.57301456066238
 40
2.701781318401232
 40
3.970863705200948
 40
5.239946092000656
 40
6.368712849739509
 40
7.262166279250076
 40
7.941727410401894
 40
7.941727410401894
 40
7.941727410401894
 40
7.941727410401894
 10
-4.825000000000031
 20
98.52091194913012
 30
0.0
 10
-4.887826759505748
 20
98.29608067011664
 30
0.0
 10
-5.033255058951987
 20
97.77565233402939
 30
0.0
 10
-5.860307590898259
 20
97.27812644063881
 30
0.0
 10
-6.89510772297769
 20
96.94491340480774
 30
0.0
 10
-8.125000000000025
 20
96.83174602375018
 30
0.0
 10
-9.354892277022365
 20
96.94491340480774
 30
0.0
 10
-10.38969240910178
 20
97.27812644063886
 30
0.0
 10
-11.21674494104808
 20
97.77565233402939
 30
0.0
 10
-11.36217324049431
 20
98.29608067011667
 30
0.0
 10
-11.42500000000003
 20
98.52091194913012
 30
0.0
 11
-4.825000000000031
 21
98.52091194913012
 31
0.0
 11
-5.076206812581158
 21
97.88948620558033
 31
0.0
 11
-5.791547622084416
 21
97.35418576017231
 31
0.0
 11
-6.862148512900432
 21
96.99651535542068
 31
0.0
 11
-8.125000000000028
 21
96.87091194913012
 31
0.0
 11
-9.387851487099617
 21
96.99651535542068
 31
0.0
 11
-10.45845237791563
 21
97.35418576017233
 31
0.0
 11
-11.1737931874189
 21
97.88948620558031
 31
0.0
 11
-11.42500000000003
 21
98.52091194913012
 31
0.0
  0
SPLINE
  5
91
330
47
100
AcDbEntity
  8
0
  6
Continuous
 62
     7
100
AcDbSpline
210
0.0
220
0.0
230
1.0
 70
     8
 71
     3
 72
    13
 73
     9
 74
     7
 42
0.000000001
 43
0.0000000001
 44
0.00000001
 40
0.0
 40
0.0
 40
0.0
 40
0.0
 40
1.099410632958925
 40
2.447172116813698
 40
3.874649288626082
 40
5.18396597296661
 40
6.221898334695222
 40
6.984692744001606
 40
6.984692744001606
 40
6.984692744001606
 40
6.984692744001606
 10
-10.98288383248867
 20
99.34591194913013
 30
0.0
 10
-10.66950574947078
 20
99.54186184986095
 30
0.0
 10
-9.971959182260932
 20
99.97802565066465
 30
0.0
 10
-8.671732046226555
 20
100.1880711170474
 30
0.0
 10
-7.298298537024634
 20
100.1729498600486
 30
0.0
 10
-6.091581001574744
 20
99.86578013560901
 30
0.0
 10
-5.092995122101608
 20
99.36226496822621
 30
0.0
 10
-4.904743897185744
 20
98.77126267426246
 30
0.0
 10
-4.825000000000031
 20
98.52091194913012
 30
0.0
 11
-10.98288383248867
 21
99.34591194913013
 31
0.0
 11
-10.01779140504585
 21
99.87250508527751
 31
0.0
 11
-8.698038986300894
 21
100.1458447416003
 31
0.0
 11
-7.270902040277724
 21
100.1146804392924
 31
0.0
 11
-6.003800888034455
 21
99.78488528027643
 31
0.0
 11
-5.134201423018097
 21
99.21822808935299
 31
0.0
 11
-4.825000000000031
 21
98.52091194913012
 31
0.0
  0
SPLINE
  5
92
330
47
100
AcDbEntity
  8
0
  6
Continuous
 62
     7
100
AcDbSpline
210
0.0
220
0.0
230
1.0
 70
     8
 71
     3
 72
    11
 73
     7
 74
     5
 42
0.000000001
 43
0.0000000001
 44
0.00000001
 40
0.0
 40
0.0
 40
0.0
 40
0.0
 40
0.7170502513605896
 40
1.501250086964807
 40
2.875864981011139
 40
4.145546142676864
 40
4.145546142676864
 40
4.145546142676864
 40
4.145546142676864
 10
-19.90969403958054
 20
88.77811814181737
 30
0.0
 10
-19.68249611230976
 20
88.85403081007136
 30
0.0
 10
-19.20682385574611
 20
89.01296512360264
 30
0.0
 10
-18.25422237823215
 20
89.1432850207952
 30
0.0
 10
-17.09747555352208
 20
89.14808867518245
 30
0.0
 10
-16.2481174247946
 20
88.89813933288099
 30
0.0
 10
-15.84029092254598
 20
88.77812403045098
 30
0.0
 11
-19.90969403958054
 21
88.77811814181737
 31
0.0
 11
-19.22317211502577
 21
88.98511744553142
 31
0.0
 11
-18.44803898630089
 21
89.10402084334869
 31
0.0
 11
-17.07363944704012
 21
89.07968939556498
 31
0.0
 11
-15.84029092254598
 21
88.77812403045098
 31
0.0
  0
SPLINE
  5
93
330
47
100
AcDbEntity
  8
0
  6
Continuous
 62
     7
100
AcDbSpline
210
0.0
220
0.0
230
1.0
 70
     8
 71
     3
 72
    15
 73
    11
 74
     9
 42
0.000000001
 43
0.0000000001
 44
0.00000001
 40
0.0
 40
0.0
 40
0.0
 40
0.0
 40
0.679561131151806
 40
1.573014560662384
 40
2.701781318401236
 40
3.970863705200948
 40
5.239946092000658
 40
6.368712849739506
 40
7.26216627925008
 40
7.941727410401886
 40
7.941727410401886
 40
7.941727410401886
 40
7.941727410401886
 10
-14.57500000000002
 20
90.07716426223185
 30
0.0
 10
-14.63782675950574
 20
89.85233298321837
 30
0.0
 10
-14.78325505895198
 20
89.33190464713113
 30
0.0
 10
-15.61030759089826
 20
88.83437875374054
 30
0.0
 10
-16.64510772297768
 20
88.50116571790947
 30
0.0
 10
-17.87500000000002
 20
88.38799833685194
 30
0.0
 10
-19.10489227702236
 20
88.50116571790946
 30
0.0
 10
-20.13969240910178
 20
88.83437875374057
 30
0.0
 10
-20.96674494104806
 20
89.33190464713115
 30
0.0
 10
-21.1121732404943
 20
89.85233298321836
 30
0.0
 10
-21.17500000000003
 20
90.07716426223185
 30
0.0
 11
-14.57500000000002
 21
90.07716426223185
 31
0.0
 11
-14.82620681258116
 21
89.44573851868205
 31
0.0
 11
-15.54154762208442
 21
88.91043807327404
 31
0.0
 11
-16.61214851290043
 21
88.5527676685224
 31
0.0
 11
-17.87500000000002
 21
88.42716426223186
 31
0.0
 11
-19.13785148709962
 21
88.55276766852242
 31
0.0
 11
-20.20845237791563
 21
88.91043807327405
 31
0.0
 11
-20.92379318741889
 21
89.44573851868205
 31
0.0
 11
-21.17500000000003
 21
90.07716426223185
 31
0.0
  0
SPLINE
  5
94
330
47
100
AcDbEntity
  8
0
  6
Continuous
 62
     7
100
AcDbSpline
210
0.0
220
0.0
230
1.0
 70
     8
 71
     3
 72
    13
 73
     9
 74
     7
 42
0.000000001
 43
0.0000000001
 44
0.00000001
 40
0.0
 40
0.0
 40
0.0
 40
0.0
 40
1.099410632958939
 40
2.447172116813716
 40
3.874649288626118
 40
5.183965972966647
 40
6.221898334695258
 40
6.984692744001642
 40
6.984692744001642
 40
6.984692744001642
 40
6.984692744001642
 10
-20.73288383248867
 20
90.90216426223185
 30
0.0
 10
-20.41950574947078
 20
91.09811416296266
 30
0.0
 10
-19.72195918226094
 20
91.53427796376641
 30
0.0
 10
-18.42173204622654
 20
91.74432343014912
 30
0.0
 10
-17.04829853702462
 20
91.72920217315037
 30
0.0
 10
-15.84158100157472
 20
91.4220324487107
 30
0.0
 10
-14.8429951221016
 20
90.91851728132795
 30
0.0
 10
-14.65474389718574
 20
90.32751498736417
 30
0.0
 10
-14.57500000000002
 20
90.07716426223185
 30
0.0
 11
-20.73288383248867
 21
90.90216426223185
 31
0.0
 11
-19.76779140504585
 21
91.42875739837926
 31
0.0
 11
-18.44803898630089
 21
91.702097054702
 31
0.0
 11
-17.0209020402777
 21
91.67093275239414
 31
0.0
 11
-15.75380088803443
 21
91.34113759337816
 31
0.0
 11
-14.88420142301809
 21
90.77448040245471
 31
0.0
 11
-14.57500000000002
 21
90.07716426223185
 31
0.0
  0
SPLINE
  5
95
330
47
100
AcDbEntity
  8
0
  6
Continuous
 62
     7
100
AcDbSpline
210
0.0
220
0.0
230
1.0
 70
     8
 71
     3
 72
     9
 73
     5
 74
     3
 42
0.000000001
 43
0.0000000001
 44
0.00000001
 40
0.0
 40
0.0
 40
0.0
 40
0.0
 40
0.4416071082973955
 40
0.9583718759340633
 40
0.9583718759340633
 40
0.9583718759340633
 40
0.9583718759340633
 10
-21.17500000000003
 20
90.07716426223185
 30
0.0
 10
-21.15051836456514
 20
90.22619458662065
 30
0.0
 10
-21.09738851571747
 20
90.54961888381234
 30
0.0
 10
-20.8605758582718
 20
90.77866178806302
 30
0.0
 10
-20.73288383248867
 20
90.90216426223185
 30
0.0
 11
-21.17500000000003
 21
90.07716426223185
 31
0.0
 11
-21.06255437693334
 21
90.50421557279664
 31
0.0
 11
-20.73288383248867
 21
90.90216426223185
 31
0.0
  0
SPLINE
  5
96
330
47
100
AcDbEntity
  8
0
  6
Continuous
 62
     7
100
AcDbSpline
210
0.0
220
0.0
230
1.0
 70
     8
 71
     3
 72
     9
 73
     5
 74
     3
 42
0.000000001
 43
0.0000000001
 44
0.00000001
 40
0.0
 40
0.0
 40
0.0
 40
0.0
 40
0.4416071082973804
 40
0.9583718759340638
 40
0.9583718759340638
 40
0.9583718759340638
 40
0.9583718759340638
 10
-11.42500000000003
 20
98.52091194913012
 30
0.0
 10
-11.40051836456514
 20
98.6699422735189
 30
0.0
 10
-11.34738851571748
 20
98.99336657071063
 30
0.0
 10
-11.1105758582718
 20
99.22240947496131
 30
0.0
 10
-10.98288383248867
 20
99.34591194913013
 30
0.0
 11
-11.42500000000003
 21
98.52091194913012
 31
0.0
 11
-11.31255437693335
 21
98.9479632596949
 31
0.0
 11
-10.98288383248867
 21
99.34591194913013
 31
0.0
  0
SPLINE
  5
97
330
47
100
AcDbEntity
  8
0
  6
Continuous
 62
     7
100
AcDbSpline
210
0.0
220
0.0
230
1.0
 70
     8
 71
     3
 72
    11
 73
     7
 74
     5
 42
0.000000001
 43
0.0000000001
 44
0.00000001
 40
0.0
 40
0.0
 40
0.0
 40
0.0
 40
0.7170502513605931
 40
1.501250086964801
 40
2.875864981011122
 40
4.145546142676864
 40
4.145546142676864
 40
4.145546142676864
 40
4.145546142676864
 10
-10.15969403958054
 20
97.22186582871564
 30
0.0
 10
-9.93249611230976
 20
97.2977784969696
 30
0.0
 10
-9.456823855746105
 20
97.45671281050089
 30
0.0
 10
-8.504222378232148
 20
97.58703270769344
 30
0.0
 10
-7.347475553522099
 20
97.59183636208076
 30
0.0
 10
-6.498117424794593
 20
97.34188701977925
 30
0.0
 10
-6.090290922545975
 20
97.22187171734926
 30
0.0
 11
-10.15969403958054
 21
97.22186582871564
 31
0.0
 11
-9.473172115025768
 21
97.42886513242968
 31
0.0
 11
-8.698038986300897
 21
97.54776853024694
 31
0.0
 11
-7.323639447040132
 21
97.52343708246325
 31
0.0
 11
-6.090290922545975
 21
97.22187171734926
 31
0.0
  0
ENDBLK
  5
49
330
47
100
AcDbEntity
  8
0
100
AcDbBlockEnd
  0
BLOCK
  5
4C
330
4A
100
AcDbEntity
  8
0
100
AcDbBlockBegin
  2
Allg1
 70
     0
 10
-13.00000000000001
 20
93.0
 30
0.0
  3
Allg1
  1

  0
INSERT
  5
4B
330
4A
100
AcDbEntity
  8
0
100
AcDbBlockReference
  2
HV-M6-VS_2-select__1
 10
-28.8701905283833
 20
81.70697373384856
 30
0.0
  0
MTEXT
  5
99
330
4A
100
AcDbEntity
  8
1
 62
     6
100
AcDbMText
 10
-13.0
 20
76.70697373384428
 30
0.0
 40
5.0
 41
0.0
 71
     2
 72
     1
  1
 
  7
CONVERTER_11
 73
     1
 44
1.32052821128451
  0
ENDBLK
  5
4D
330
4A
100
AcDbEntity
  8
0
100
AcDbBlockEnd
  0
BLOCK
  5
4F
330
4E
100
AcDbEntity
  8
0
100
AcDbBlockBegin
  2
HV-M6-VS_2-select__2
 70
     0
 10
-118.5
 20
80.25000000000001
 30
0.0
  3
HV-M6-VS_2-select__2
  1

  0
LINE
  5
9A
330
4E
100
AcDbEntity
  8
0
  6
Continuous
 62
     7
100
AcDbLine
 10
-118.5
 20
117.75
 30
0.0
 11
-118.5
 21
80.25000000000001
 31
0.0
  0
LINE
  5
9B
330
4E
100
AcDbEntity
  8
0
  6
Continuous
 62
     7
100
AcDbLine
 10
-103.5
 20
117.75
 30
0.0
 11
-103.5
 21
80.25000000000001
 31
0.0
  0
LINE
  5
9C
330
4E
100
AcDbEntity
  8
0
  6
Continuous
 62
     7
100
AcDbLine
 10
-103.5
 20
80.25000000000001
 30
0.0
 11
-118.5
 21
80.25000000000001
 31
0.0
  0
LINE
  5
9D
330
4E
100
AcDbEntity
  8
0
  6
Continuous
 62
     7
100
AcDbLine
 10
-103.5
 20
117.75
 30
0.0
 11
-118.5
 21
117.75
 31
0.0
  0
LINE
  5
9E
330
4E
100
AcDbEntity
  8
1
  6
DOT_CENTER
 62
     2
100
AcDbLine
 10
-107.37
 20
89.25000000000001
 30
0.0
 11
-114.63
 21
89.25000000000001
 31
0.0
  0
LINE
  5
9F
330
4E
100
AcDbEntity
  8
1
  6
DOT_CENTER
 62
     2
100
AcDbLine
 10
-111.0
 20
92.88000000000001
 30
0.0
 11
-111.0
 21
85.62000000000002
 31
0.0
  0
LINE
  5
A0
330
4E
100
AcDbEntity
  8
1
  6
DOT_CENTER
 62
     2
100
AcDbLine
 10
-107.37
 20
108.75
 30
0.0
 11
-114.63
 21
108.75
 31
0.0
  0
LINE
  5
A1
330
4E
100
AcDbEntity
  8
1
  6
DOT_CENTER
 62
     2
100
AcDbLine
 10
-111.0
 20
112.38
 30
0.0
 11
-111.0
 21
105.12
 31
0.0
  0
CIRCLE
  5
A2
330
4E
100
AcDbEntity
  8
0
  6
Continuous
 62
     7
100
AcDbCircle
 10
-111.0
 20
89.25000000000001
 30
0.0
 40
3.299999999999997
  0
CIRCLE
  5
A3
330
4E
100
AcDbEntity
  8
0
  6
Continuous
 62
     7
100
AcDbCircle
 10
-111.0
 20
108.75
 30
0.0
 40
3.299999999999997
  0
ENDBLK
  5
50
330
4E
100
AcDbEntity
  8
0
100
AcDbBlockEnd
  0
BLOCK
  5
53
330
51
100
AcDbEntity
  8
0
100
AcDbBlockBegin
  2
Drfsicht1
 70
     0
 10
-111.0
 20
99.00000000000003
 30
0.0
  3
Drfsicht1
  1

  0
INSERT
  5
52
330
51
100
AcDbEntity
  8
0
100
AcDbBlockReference
  2
HV-M6-VS_2-select__2
 10
-118.5
 20
80.25000000000001
 30
0.0
  0
MTEXT
  5
A4
330
51
100
AcDbEntity
  8
1
 62
     6
100
AcDbMText
 10
-111.0
 20
75.25
 30
0.0
 40
5.0
 41
0.0
 71
     2
 72
     1
  1
 
  7
CONVERTER_11
 73
     1
 44
1.32052821128451
  0
DIMENSION
  5
AF
330
51
100
AcDbEntity
  8
1
100
AcDbDimension
  2
*D17
 10
-129.035526961183
 20
117.75
 30
0.0
 11
-132.460526961183
 21
100.943331424651
 31
0.0
 70
    33
  1
<>
 71
     5
 42
-1.0
 53
90.0
  3
ME10_DIM_10
100
AcDbAlignedDimension
 13
-118.5
 23
80.25000000000001
 33
0.0
 14
-118.5
 24
117.75
 34
0.0
  0
ENDBLK
  5
54
330
51
100
AcDbEntity
  8
0
100
AcDbBlockEnd
  0
BLOCK
  5
56
330
55
100
AcDbEntity
  8
0
100
AcDbBlockBegin
  2
HV-M6-VS_2-select__3
 70
     0
 10
-26.0
 20
158.750000000005
 30
0.0
  3
HV-M6-VS_2-select__3
  1

  0
LINE
  5
B0
330
55
100
AcDbEntity
  8
0
  6
Continuous
 62
     7
100
AcDbLine
 10
-11.0
 20
158.750000000005
 30
0.0
 11
-26.0
 21
158.750000000005
 31
0.0
  0
LINE
  5
B1
330
55
100
AcDbEntity
  8
0
  6
Continuous
 62
     7
100
AcDbLine
 10
-11.0
 20
161.750000000005
 30
0.0
 11
-11.0
 21
158.750000000005
 31
0.0
  0
LINE
  5
B2
330
55
100
AcDbEntity
  8
0
  6
Continuous
 62
     7
100
AcDbLine
 10
-26.0
 20
161.750000000005
 30
0.0
 11
-26.0
 21
158.750000000005
 31
0.0
  0
LINE
  5
B3
330
55
100
AcDbEntity
  8
0
  6
Continuous
 62
     7
100
AcDbLine
 10
-26.0
 20
161.750000000005
 30
0.0
 11
-11.0
 21
161.750000000005
 31
0.0
  0
ENDBLK
  5
57
330
55
100
AcDbEntity
  8
0
100
AcDbBlockEnd
  0
BLOCK
  5
5A
330
58
100
AcDbEntity
  8
0
100
AcDbBlockBegin
  2
Rckans1
 70
     0
 10
-18.5
 20
160.25
 30
0.0
  3
Rckans1
  1

  0
INSERT
  5
59
330
58
100
AcDbEntity
  8
0
100
AcDbBlockReference
  2
HV-M6-VS_2-select__3
 10
-26.0
 20
158.750000000005
 30
0.0
  0
MTEXT
  5
B4
330
58
100
AcDbEntity
  8
1
 62
     6
100
AcDbMText
 10
-18.5
 20
153.75
 30
0.0
 40
5.0
 41
0.0
 71
     2
 72
     1
  1
 
  7
CONVERTER_11
 73
     1
 44
1.32052821128451
  0
ENDBLK
  5
5B
330
58
100
AcDbEntity
  8
0
100
AcDbBlockEnd
  0
BLOCK
  5
5D
330
5C
100
AcDbEntity
  8
0
100
AcDbBlockBegin
  2
HV-M6-VS_2-select__4
 70
     0
 10
-83.49999999999999
 20
158.750000000005
 30
0.0
  3
HV-M6-VS_2-select__4
  1

  0
LINE
  5
B5
330
5C
100
AcDbEntity
  8
0
  6
Continuous
 62
     7
100
AcDbLine
 10
-83.49999999999999
 20
161.750000000005
 30
0.0
 11
-45.99999999999999
 21
161.750000000005
 31
0.0
  0
LINE
  5
B6
330
5C
100
AcDbEntity
  8
0
  6
Continuous
 62
     7
100
AcDbLine
 10
-45.99999999999999
 20
161.750000000005
 30
0.0
 11
-45.99999999999999
 21
158.750000000005
 31
0.0
  0
LINE
  5
B7
330
5C
100
AcDbEntity
  8
0
  6
Continuous
 62
     7
100
AcDbLine
 10
-83.49999999999999
 20
161.750000000005
 30
0.0
 11
-83.49999999999999
 21
158.750000000005
 31
0.0
  0
LINE
  5
B8
330
5C
100
AcDbEntity
  8
0
  6
Continuous
 62
     7
100
AcDbLine
 10
-83.49999999999999
 20
158.750000000005
 30
0.0
 11
-45.99999999999999
 21
158.750000000005
 31
0.0
  0
ENDBLK
  5
5E
330
5C
100
AcDbEntity
  8
0
100
AcDbBlockEnd
  0
BLOCK
  5
61
330
5F
100
AcDbEntity
  8
0
100
AcDbBlockBegin
  2
SA_Links1
 70
     0
 10
-64.75
 20
160.25
 30
0.0
  3
SA_Links1
  1

  0
INSERT
  5
60
330
5F
100
AcDbEntity
  8
0
100
AcDbBlockReference
  2
HV-M6-VS_2-select__4
 10
-83.49999999999999
 20
158.750000000005
 30
0.0
  0
MTEXT
  5
B9
330
5F
100
AcDbEntity
  8
1
 62
     6
100
AcDbMText
 10
-64.75
 20
153.75
 30
0.0
 40
5.0
 41
0.0
 71
     2
 72
     1
  1
 
  7
CONVERTER_11
 73
     1
 44
1.32052821128451
  0
ENDBLK
  5
62
330
5F
100
AcDbEntity
  8
0
100
AcDbBlockEnd
  0
BLOCK
  5
64
330
63
100
AcDbEntity
  8
0
100
AcDbBlockBegin
  2
HV-M6-VS_2-select__5
 70
     0
 10
-181.0
 20
158.750000000005
 30
0.0
  3
HV-M6-VS_2-select__5
  1

  0
LINE
  5
BA
330
63
100
AcDbEntity
  8
0
  6
Continuous
 62
     7
100
AcDbLine
 10
-181.0
 20
158.750000000005
 30
0.0
 11
-143.5
 21
158.750000000005
 31
0.0
  0
LINE
  5
BB
330
63
100
AcDbEntity
  8
0
  6
Continuous
 62
     7
100
AcDbLine
 10
-181.0
 20
161.750000000005
 30
0.0
 11
-181.0
 21
158.750000000005
 31
0.0
  0
LINE
  5
BC
330
63
100
AcDbEntity
  8
0
  6
Continuous
 62
     7
100
AcDbLine
 10
-143.5
 20
161.750000000005
 30
0.0
 11
-143.5
 21
158.750000000005
 31
0.0
  0
LINE
  5
BD
330
63
100
AcDbEntity
  8
0
  6
Continuous
 62
     7
100
AcDbLine
 10
-143.5
 20
161.750000000005
 30
0.0
 11
-181.0
 21
161.750000000005
 31
0.0
  0
ENDBLK
  5
65
330
63
100
AcDbEntity
  8
0
100
AcDbBlockEnd
  0
BLOCK
  5
68
330
66
100
AcDbEntity
  8
0
100
AcDbBlockBegin
  2
SA_Rechts1
 70
     0
 10
-162.25
 20
160.25
 30
0.0
  3
SA_Rechts1
  1

  0
INSERT
  5
67
330
66
100
AcDbEntity
  8
0
100
AcDbBlockReference
  2
HV-M6-VS_2-select__5
 10
-181.0
 20
158.750000000005
 30
0.0
  0
MTEXT
  5
BE
330
66
100
AcDbEntity
  8
1
 62
     6
100
AcDbMText
 10
-162.25
 20
153.75
 30
0.0
 40
5.0
 41
0.0
 71
     2
 72
     1
  1
 
  7
CONVERTER_11
 73
     1
 44
1.32052821128451
  0
ENDBLK
  5
69
330
66
100
AcDbEntity
  8
0
100
AcDbBlockEnd
  0
BLOCK
  5
6B
330
6A
100
AcDbEntity
  8
0
100
AcDbBlockBegin
  2
HV-M6-VS_2-select__6
 70
     0
 10
-118.5
 20
158.750000000005
 30
0.0
  3
HV-M6-VS_2-select__6
  1

  0
LINE
  5
BF
330
6A
100
AcDbEntity
  8
0
  6
Continuous
 62
     7
100
AcDbLine
 10
-118.5
 20
161.750000000005
 30
0.0
 11
-118.5
 21
158.750000000005
 31
0.0
  0
LINE
  5
C0
330
6A
100
AcDbEntity
  8
0
  6
Continuous
 62
     7
100
AcDbLine
 10
-118.5
 20
158.750000000005
 30
0.0
 11
-103.5
 21
158.750000000005
 31
0.0
  0
LINE
  5
C1
330
6A
100
AcDbEntity
  8
0
  6
Continuous
 62
     7
100
AcDbLine
 10
-103.5
 20
161.750000000005
 30
0.0
 11
-103.5
 21
158.750000000005
 31
0.0
  0
LINE
  5
C2
330
6A
100
AcDbEntity
  8
0
  6
Continuous
 62
     7
100
AcDbLine
 10
-103.5
 20
161.750000000005
 30
0.0
 11
-118.5
 21
161.750000000005
 31
0.0
  0
ENDBLK
  5
6C
330
6A
100
AcDbEntity
  8
0
100
AcDbBlockEnd
  0
BLOCK
  5
6F
330
6D
100
AcDbEntity
  8
0
100
AcDbBlockBegin
  2
Vordans1
 70
     0
 10
-111.0
 20
160.25
 30
0.0
  3
Vordans1
  1

  0
INSERT
  5
6E
330
6D
100
AcDbEntity
  8
0
100
AcDbBlockReference
  2
HV-M6-VS_2-select__6
 10
-118.5
 20
158.750000000005
 30
0.0
  0
MTEXT
  5
C3
330
6D
100
AcDbEntity
  8
1
 62
     6
100
AcDbMText
 10
-111.0
 20
153.75
 30
0.0
 40
5.0
 41
0.0
 71
     2
 72
     1
  1
 
  7
CONVERTER_11
 73
     1
 44
1.32052821128451
  0
DIMENSION
  5
CE
330
6D
100
AcDbEntity
  8
1
100
AcDbDimension
  2
*D18
 10
-118.5
 20
144.83310229973
 30
0.0
 11
-111.0
 21
148.08310229973
 31
0.0
 70
    32
  1
<>
 71
     5
 42
-1.0
 53
0.00013888888889
  3
ME10_DIM_11
100
AcDbAlignedDimension
 13
-103.5
 23
158.750000000005
 33
0.0
 14
-118.5
 24
158.750000000005
 34
0.0
100
AcDbRotatedDimension
  0
DIMENSION
  5
DB
330
6D
100
AcDbEntity
  8
1
100
AcDbDimension
  2
*D19
 10
-128.5
 20
161.750000000005
 30
0.0
 11
-131.75
 21
153.740642916483
 31
0.0
 70
    32
  1
<>
 71
     5
 42
-1.0
 53
90.0
  3
ME10_DIM_12
100
AcDbAlignedDimension
 13
-118.5
 23
158.750000000005
 33
0.0
 14
-118.5
 24
161.750000000005
 34
0.0
 50
90.0
100
AcDbRotatedDimension
  0
ENDBLK
  5
70
330
6D
100
AcDbEntity
  8
0
100
AcDbBlockEnd
  0
BLOCK
  5
72
330
71
100
AcDbEntity
  8
0
100
AcDbBlockBegin
  2
_rahmen
 70
     0
 10
72.62259526419051
 20
-2.00624768689931
 30
0.0
  3
_rahmen
  1

  0
LINE
  5
DC
330
71
100
AcDbEntity
  8
1
  6
Continuous
 62
     6
100
AcDbLine
 10
-56.92220926255951
 20
28.4937523131008
 30
0.0
 11
72.6225952641922
 21
28.4937523131008
 31
0.0
  0
LINE
  5
DD
330
71
100
AcDbEntity
  8
1
  6
Continuous
 62
     7
100
AcDbLine
 10
-38.72220926255949
 20
7.2437523131008
 30
0.0
 11
-20.52220926255959
 21
7.2437523131008
 31
0.0
  0
LINE
  5
DE
330
71
100
AcDbEntity
  8
1
  6
Continuous
 62
     6
100
AcDbLine
 10
-38.72220926255949
 20
2.9937523131008
 30
0.0
 11
-56.92220926255951
 21
2.99375231310069
 31
0.0
  0
LINE
  5
DF
330
71
100
AcDbEntity
  8
1
  6
Continuous
 62
     7
100
AcDbLine
 10
-38.72220926255949
 20
7.2437523131008
 30
0.0
 11
-38.72220926255949
 21
2.9937523131008
 31
0.0
  0
LINE
  5
E0
330
71
100
AcDbEntity
  8
1
  6
Continuous
 62
     7
100
AcDbLine
 10
-20.52220926255959
 20
7.2437523131008
 30
0.0
 11
-20.52220926255959
 21
2.99375231310069
 31
0.0
  0
LINE
  5
E1
330
71
100
AcDbEntity
  8
1
  6
Continuous
 62
     7
100
AcDbLine
 10
-56.92220926255951
 20
7.24375231310069
 30
0.0
 11
-56.92220926255951
 21
2.99375231310069
 31
0.0
  0
LINE
  5
E2
330
71
100
AcDbEntity
  8
1
  6
Continuous
 62
     7
100
AcDbLine
 10
-56.92220926255951
 20
7.24375231310069
 30
0.0
 11
-38.72220926255949
 21
7.2437523131008
 31
0.0
  0
LINE
  5
E3
330
71
100
AcDbEntity
  8
1
  6
Continuous
 62
     2
100
AcDbLine
 10
-47.6855543759969
 20
26.61875231310071
 30
0.0
 11
-47.6855543759969
 21
21.61875231310071
 31
0.0
  0
LINE
  5
E4
330
71
100
AcDbEntity
  8
1
  6
Continuous
 62
     2
100
AcDbLine
 10
-47.6855543759969
 20
21.61875231310071
 30
0.0
 11
-52.6855543759969
 21
22.86875231310071
 31
0.0
  0
LINE
  5
E5
330
71
100
AcDbEntity
  8
1
  6
Continuous
 62
     2
100
AcDbLine
 10
-52.6855543759969
 20
22.86875231310071
 30
0.0
 11
-52.6855543759969
 21
25.36875231310071
 31
0.0
  0
LINE
  5
E6
330
71
100
AcDbEntity
  8
1
  6
Continuous
 62
     2
100
AcDbLine
 10
-52.6855543759969
 20
25.36875231310071
 30
0.0
 11
-47.6855543759969
 21
26.61875231310071
 31
0.0
  0
LINE
  5
E7
330
71
100
AcDbEntity
  8
1
  6
Continuous
 62
     6
100
AcDbLine
 10
-179.3774047358077
 20
2.9937523131008
 30
0.0
 11
-214.3774047358076
 21
2.9937523131008
 31
0.0
  0
LINE
  5
E8
330
71
100
AcDbEntity
  8
1
  6
Continuous
 62
     6
100
AcDbLine
 10
72.6225952641922
 20
19.9937523131008
 30
0.0
 11
72.6225952641918
 21
11.4937523131008
 31
0.0
  0
LINE
  5
E9
330
71
100
AcDbEntity
  8
1
  6
Continuous
 62
     6
100
AcDbLine
 10
-20.52220926255959
 20
2.99375231310069
 30
0.0
 11
-20.87740473580951
 21
2.9937523131008
 31
0.0
  0
LINE
  5
EA
330
71
100
AcDbEntity
  8
1
  6
Continuous
 62
     6
100
AcDbLine
 10
-173.1774047358097
 20
2.99375231310069
 30
0.0
 11
-179.3774047358077
 21
2.9937523131008
 31
0.0
  0
LINE
  5
EB
330
71
100
AcDbEntity
  8
1
  6
Continuous
 62
     7
100
AcDbLine
 10
-20.52220926255959
 20
19.9937523131008
 30
0.0
 11
-20.52220926255959
 21
7.2437523131008
 31
0.0
  0
LINE
  5
EC
330
71
100
AcDbEntity
  8
1
  6
Continuous
 62
     7
100
AcDbLine
 10
-56.92220926255951
 20
19.9937523131008
 30
0.0
 11
-56.92220926255951
 21
7.24375231310069
 31
0.0
  0
LINE
  5
ED
330
71
100
AcDbEntity
  8
1
  6
Continuous
 62
     6
100
AcDbLine
 10
-70.87740473580948
 20
2.9937523131008
 30
0.0
 11
-120.8774047358097
 21
2.9937523131008
 31
0.0
  0
LINE
  5
EE
330
71
100
AcDbEntity
  8
1
  6
Continuous
 62
     6
100
AcDbLine
 10
-173.1774047358097
 20
2.99375231310069
 30
0.0
 11
-170.8774047358095
 21
2.9937523131008
 31
0.0
  0
LINE
  5
EF
330
71
100
AcDbEntity
  8
1
  6
Continuous
 62
     6
100
AcDbLine
 10
-20.52220926255959
 20
2.99375231310069
 30
0.0
 11
29.12259526419049
 21
2.9937523131008
 31
0.0
  0
LINE
  5
F0
330
71
100
AcDbEntity
  8
1
  6
Continuous
 62
     6
100
AcDbLine
 10
72.62259526419051
 20
2.9937523131008
 30
0.0
 11
72.6225952641918
 21
11.4937523131008
 31
0.0
  0
LINE
  5
F1
330
71
100
AcDbEntity
  8
1
  6
Continuous
 62
     2
100
AcDbLine
 10
-219.3774047358086
 20
2.9937523131008
 30
0.0
 11
-219.3774047358086
 21
-2.00624768689931
 31
0.0
  0
LINE
  5
F2
330
71
100
AcDbEntity
  8
1
  6
Continuous
 62
     2
100
AcDbLine
 10
-214.3774047358076
 20
2.9937523131008
 30
0.0
 11
-219.3774047358086
 21
2.9937523131008
 31
0.0
  0
LINE
  5
F3
330
71
100
AcDbEntity
  8
1
  6
Continuous
 62
     2
100
AcDbLine
 10
-214.3774047358076
 20
-2.00624768689931
 30
0.0
 11
-170.8774047358095
 21
-2.00624768689931
 31
0.0
  0
LINE
  5
F4
330
71
100
AcDbEntity
  8
1
  6
Continuous
 62
     2
100
AcDbLine
 10
-214.3774047358076
 20
2.9937523131008
 30
0.0
 11
-214.3774047358076
 21
-2.00624768689931
 31
0.0
  0
LINE
  5
F5
330
71
100
AcDbEntity
  8
1
  6
Continuous
 62
     2
100
AcDbLine
 10
29.12259526419049
 20
-2.00624768689931
 30
0.0
 11
-20.87740473580951
 21
-2.00624768689931
 31
0.0
  0
LINE
  5
F6
330
71
100
AcDbEntity
  8
1
  6
Continuous
 62
     2
100
AcDbLine
 10
29.12259526419049
 20
-2.00624768689931
 30
0.0
 11
29.12259526419049
 21
2.9937523131008
 31
0.0
  0
LINE
  5
F7
330
71
100
AcDbEntity
  8
1
  6
Continuous
 62
     2
100
AcDbLine
 10
-20.87740473580951
 20
-2.00624768689931
 30
0.0
 11
-20.87740473580951
 21
2.9937523131008
 31
0.0
  0
LINE
  5
F8
330
71
100
AcDbEntity
  8
1
  6
Continuous
 62
     2
100
AcDbLine
 10
-70.87740473580948
 20
-2.00624768689931
 30
0.0
 11
-20.87740473580951
 21
-2.00624768689931
 31
0.0
  0
LINE
  5
F9
330
71
100
AcDbEntity
  8
1
  6
Continuous
 62
     2
100
AcDbLine
 10
-70.87740473580948
 20
-2.00624768689931
 30
0.0
 11
-70.87740473580948
 21
2.9937523131008
 31
0.0
  0
LINE
  5
FA
330
71
100
AcDbEntity
  8
1
  6
Continuous
 62
     2
100
AcDbLine
 10
-120.8774047358097
 20
-2.00624768689931
 30
0.0
 11
-70.87740473580948
 21
-2.00624768689931
 31
0.0
  0
LINE
  5
FB
330
71
100
AcDbEntity
  8
1
  6
Continuous
 62
     2
100
AcDbLine
 10
-120.8774047358097
 20
-2.00624768689931
 30
0.0
 11
-120.8774047358097
 21
2.9937523131008
 31
0.0
  0
LINE
  5
FC
330
71
100
AcDbEntity
  8
1
  6
Continuous
 62
     2
100
AcDbLine
 10
-170.8774047358095
 20
-2.00624768689931
 30
0.0
 11
-120.8774047358097
 21
-2.00624768689931
 31
0.0
  0
LINE
  5
FD
330
71
100
AcDbEntity
  8
1
  6
Continuous
 62
     2
100
AcDbLine
 10
-170.8774047358095
 20
-2.00624768689931
 30
0.0
 11
-170.8774047358095
 21
2.9937523131008
 31
0.0
  0
LINE
  5
FE
330
71
100
AcDbEntity
  8
1
  6
Continuous
 62
     6
100
AcDbLine
 10
-214.3774047358078
 20
52.99375231310091
 30
0.0
 11
-214.3774047358076
 21
2.9937523131008
 31
0.0
  0
LINE
  5
FF
330
71
100
AcDbEntity
  8
1
  6
Continuous
 62
     2
100
AcDbLine
 10
-219.3774047358086
 20
52.99375231310091
 30
0.0
 11
-219.3774047358086
 21
2.9937523131008
 31
0.0
  0
LINE
  5
100
330
71
100
AcDbEntity
  8
1
  6
Continuous
 62
     2
100
AcDbLine
 10
-219.3774047358086
 20
52.99375231310091
 30
0.0
 11
-214.3774047358078
 21
52.99375231310091
 31
0.0
  0
LINE
  5
101
330
71
100
AcDbEntity
  8
1
  6
Continuous
 62
     6
100
AcDbLine
 10
-214.377404735808
 20
102.9937523131007
 30
0.0
 11
-214.3774047358078
 21
52.99375231310091
 31
0.0
  0
LINE
  5
102
330
71
100
AcDbEntity
  8
1
  6
Continuous
 62
     2
100
AcDbLine
 10
-219.3774047358086
 20
102.9937523131007
 30
0.0
 11
-219.3774047358086
 21
52.99375231310091
 31
0.0
  0
LINE
  5
103
330
71
100
AcDbEntity
  8
1
  6
Continuous
 62
     2
100
AcDbLine
 10
-219.3774047358086
 20
102.9937523131007
 30
0.0
 11
-214.377404735808
 21
102.9937523131007
 31
0.0
  0
LINE
  5
104
330
71
100
AcDbEntity
  8
1
  6
Continuous
 62
     6
100
AcDbLine
 10
-214.3774047358085
 20
152.9937523131008
 30
0.0
 11
-214.377404735808
 21
102.9937523131007
 31
0.0
  0
LINE
  5
105
330
71
100
AcDbEntity
  8
1
  6
Continuous
 62
     2
100
AcDbLine
 10
-219.3774047358086
 20
152.9937523131008
 30
0.0
 11
-219.3774047358086
 21
102.9937523131007
 31
0.0
  0
LINE
  5
106
330
71
100
AcDbEntity
  8
1
  6
Continuous
 62
     2
100
AcDbLine
 10
-219.3774047358086
 20
152.9937523131008
 30
0.0
 11
-214.3774047358085
 21
152.9937523131008
 31
0.0
  0
LINE
  5
107
330
71
100
AcDbEntity
  8
1
  6
Continuous
 62
     6
100
AcDbLine
 10
-214.3774047358086
 20
187.9937523131008
 30
0.0
 11
-214.3774047358085
 21
152.9937523131008
 31
0.0
  0
LINE
  5
108
330
71
100
AcDbEntity
  8
1
  6
Continuous
 62
     2
100
AcDbLine
 10
-219.3774047358086
 20
207.9937523131008
 30
0.0
 11
-219.3774047358086
 21
152.9937523131008
 31
0.0
  0
LINE
  5
109
330
71
100
AcDbEntity
  8
1
  6
Continuous
 62
     2
100
AcDbLine
 10
-219.3774047358086
 20
-2.00624768689931
 30
0.0
 11
-214.3774047358076
 21
-2.00624768689931
 31
0.0
  0
LINE
  5
10A
330
71
100
AcDbEntity
  8
1
  6
Continuous
 62
     2
100
AcDbLine
 10
-70.87740473580948
 20
207.9937523131008
 30
0.0
 11
-70.87740473580948
 21
198.7850604683995
 31
0.0
  0
LINE
  5
10B
330
71
100
AcDbEntity
  8
1
  6
Continuous
 62
     2
100
AcDbLine
 10
-70.87740473580948
 20
207.9937523131008
 30
0.0
 11
-219.3774047358086
 21
207.9937523131008
 31
0.0
  0
LINE
  5
10C
330
71
100
AcDbEntity
  8
1
  6
Continuous
 62
     2
100
AcDbLine
 10
77.6225952641895
 20
2.9937523131008
 30
0.0
 11
77.6225952641895
 21
52.99375231310091
 31
0.0
  0
LINE
  5
10D
330
71
100
AcDbEntity
  8
1
  6
Continuous
 62
     2
100
AcDbLine
 10
77.6225952641895
 20
152.9937523131008
 30
0.0
 11
77.6225952641895
 21
207.9937523131008
 31
0.0
  0
LINE
  5
10E
330
71
100
AcDbEntity
  8
1
  6
Continuous
 62
     6
100
AcDbLine
 10
72.6225952641897
 20
152.9937523131008
 30
0.0
 11
72.6225952641895
 21
187.9937523131008
 31
0.0
  0
LINE
  5
10F
330
71
100
AcDbEntity
  8
1
  6
Continuous
 62
     2
100
AcDbLine
 10
72.6225952641897
 20
152.9937523131008
 30
0.0
 11
77.6225952641895
 21
152.9937523131008
 31
0.0
  0
LINE
  5
110
330
71
100
AcDbEntity
  8
1
  6
Continuous
 62
     2
100
AcDbLine
 10
77.6225952641895
 20
102.9937523131007
 30
0.0
 11
77.6225952641895
 21
152.9937523131008
 31
0.0
  0
LINE
  5
111
330
71
100
AcDbEntity
  8
1
  6
Continuous
 62
     6
100
AcDbLine
 10
72.6225952641909
 20
102.9937523131007
 30
0.0
 11
72.6225952641897
 21
152.9937523131008
 31
0.0
  0
LINE
  5
112
330
71
100
AcDbEntity
  8
1
  6
Continuous
 62
     2
100
AcDbLine
 10
72.6225952641909
 20
102.9937523131007
 30
0.0
 11
77.6225952641895
 21
102.9937523131007
 31
0.0
  0
LINE
  5
113
330
71
100
AcDbEntity
  8
1
  6
Continuous
 62
     2
100
AcDbLine
 10
77.6225952641895
 20
52.99375231310091
 30
0.0
 11
77.6225952641895
 21
102.9937523131007
 31
0.0
  0
LINE
  5
114
330
71
100
AcDbEntity
  8
1
  6
Continuous
 62
     6
100
AcDbLine
 10
72.6225952641914
 20
52.99375231310091
 30
0.0
 11
72.6225952641909
 21
102.9937523131007
 31
0.0
  0
LINE
  5
115
330
71
100
AcDbEntity
  8
1
  6
Continuous
 62
     2
100
AcDbLine
 10
72.6225952641914
 20
52.99375231310091
 30
0.0
 11
77.6225952641895
 21
52.99375231310091
 31
0.0
  0
LINE
  5
116
330
71
100
AcDbEntity
  8
1
  6
Continuous
 62
     6
100
AcDbLine
 10
72.6225952641895
 20
187.9937523131008
 30
0.0
 11
-214.3774047358086
 21
187.9937523131008
 31
0.0
  0
LINE
  5
117
330
71
100
AcDbEntity
  8
1
  6
Continuous
 62
     2
100
AcDbLine
 10
77.6225952641895
 20
207.9937523131008
 30
0.0
 11
-70.87740473580948
 21
207.9937523131008
 31
0.0
  0
LINE
  5
118
330
71
100
AcDbEntity
  8
1
  6
Continuous
 62
     6
100
AcDbLine
 10
72.6225952641922
 20
19.9937523131008
 30
0.0
 11
72.6225952641914
 21
52.99375231310091
 31
0.0
  0
LINE
  5
119
330
71
100
AcDbEntity
  8
1
  6
Continuous
 62
     2
100
AcDbLine
 10
72.62259526419051
 20
-2.00624768689931
 30
0.0
 11
29.12259526419049
 21
-2.00624768689931
 31
0.0
  0
LINE
  5
11A
330
71
100
AcDbEntity
  8
1
  6
Continuous
 62
     2
100
AcDbLine
 10
77.6225952641895
 20
-2.00624768689931
 30
0.0
 11
72.62259526419051
 21
-2.00624768689931
 31
0.0
  0
LINE
  5
11B
330
71
100
AcDbEntity
  8
1
  6
Continuous
 62
     2
100
AcDbLine
 10
77.6225952641895
 20
-2.00624768689931
 30
0.0
 11
77.6225952641895
 21
2.9937523131008
 31
0.0
  0
LINE
  5
11C
330
71
100
AcDbEntity
  8
1
  6
Continuous
 62
     6
100
AcDbLine
 10
-56.92220926255951
 20
19.9937523131008
 30
0.0
 11
-20.52220926255959
 21
19.9937523131008
 31
0.0
  0
LINE
  5
11D
330
71
100
AcDbEntity
  8
1
  6
Continuous
 62
     2
100
AcDbLine
 10
72.62259526419051
 20
2.9937523131008
 30
0.0
 11
72.62259526419051
 21
-2.00624768689931
 31
0.0
  0
LINE
  5
11E
330
71
100
AcDbEntity
  8
1
  6
Continuous
 62
     2
100
AcDbLine
 10
72.62259526419051
 20
2.9937523131008
 30
0.0
 11
77.6225952641895
 21
2.9937523131008
 31
0.0
  0
LINE
  5
11F
330
71
100
AcDbEntity
  8
1
  6
Continuous
 62
     6
100
AcDbLine
 10
-20.87740473580951
 20
2.9937523131008
 30
0.0
 11
-38.72220926255949
 21
2.9937523131008
 31
0.0
  0
LINE
  5
120
330
71
100
AcDbEntity
  8
1
  6
Continuous
 62
     6
100
AcDbLine
 10
29.12259526419049
 20
2.9937523131008
 30
0.0
 11
72.62259526419051
 21
2.9937523131008
 31
0.0
  0
LINE
  5
121
330
71
100
AcDbEntity
  8
1
  6
Continuous
 62
     6
100
AcDbLine
 10
-120.8774047358097
 20
2.9937523131008
 30
0.0
 11
-125.9222092625595
 21
2.9937523131008
 31
0.0
  0
LINE
  5
122
330
71
100
AcDbEntity
  8
1
  6
Continuous
 62
     6
100
AcDbLine
 10
-70.87740473580948
 20
2.9937523131008
 30
0.0
 11
-56.92220926255951
 21
2.99375231310069
 31
0.0
  0
LINE
  5
123
102
{ACAD_REACTORS
330
20D
330
20E
102
}
330
71
100
AcDbEntity
  8
0
  6
Continuous
 62
     2
100
AcDbLine
 10
-49.4075833204127
 20
15.06626706931291
 30
0.0
 11
-49.4075833204127
 21
15.6718023578197
 31
0.0
  0
LINE
  5
124
102
{ACAD_REACTORS
330
20D
330
20E
102
}
330
71
100
AcDbEntity
  8
0
  6
Continuous
 62
     2
100
AcDbLine
 10
-49.4075833204127
 20
12.26613246268161
 30
0.0
 11
-49.4075833204127
 21
12.84798386937669
 31
0.0
  0
LINE
  5
125
102
{ACAD_REACTORS
330
20F
330
210
102
}
330
71
100
AcDbEntity
  8
0
  6
Continuous
 62
     2
100
AcDbLine
 10
-26.77809688493349
 20
12.5557965308046
 30
0.0
 11
-26.77809688493349
 21
10.28725231311711
 31
0.0
  0
LINE
  5
126
102
{ACAD_REACTORS
330
20F
330
210
102
}
330
71
100
AcDbEntity
  8
0
  6
Continuous
 62
     2
100
AcDbLine
 10
-28.15915066392108
 20
13.34106183692771
 30
0.0
 11
-24.7742051452924
 21
13.34106183692819
 31
0.0
  0
LINE
  5
127
102
{ACAD_REACTORS
330
20F
330
210
102
}
330
71
100
AcDbEntity
  8
0
  6
Continuous
 62
     2
100
AcDbLine
 10
-24.7742051452924
 20
12.5557965308046
 30
0.0
 11
-24.7742051452924
 21
13.34106183692819
 31
0.0
  0
LINE
  5
128
102
{ACAD_REACTORS
330
20F
330
210
102
}
330
71
100
AcDbEntity
  8
0
  6
Continuous
 62
     2
100
AcDbLine
 10
-25.58530418276578
 20
12.5557965308046
 30
0.0
 11
-24.7742051452924
 21
12.5557965308046
 31
0.0
  0
LINE
  5
129
102
{ACAD_REACTORS
330
20F
330
210
102
}
330
71
100
AcDbEntity
  8
0
  6
Continuous
 62
     2
100
AcDbLine
 10
-25.58530418276578
 20
10.28725231311711
 30
0.0
 11
-25.58530418276578
 21
12.5557965308046
 31
0.0
  0
LINE
  5
12A
102
{ACAD_REACTORS
330
20F
330
210
102
}
330
71
100
AcDbEntity
  8
0
  6
Continuous
 62
     2
100
AcDbLine
 10
-26.77809688493349
 20
10.28725231311711
 30
0.0
 11
-25.58530418276578
 21
10.28725231311711
 31
0.0
  0
LINE
  5
12B
102
{ACAD_REACTORS
330
205
330
206
102
}
330
71
100
AcDbEntity
  8
0
  6
Continuous
 62
     2
100
AcDbLine
 10
-27.47468782299799
 20
16.7002523131026
 30
0.0
 11
-28.87741204074729
 21
16.7002523131026
 31
0.0
  0
LINE
  5
12C
102
{ACAD_REACTORS
330
205
330
206
102
}
330
71
100
AcDbEntity
  8
0
  6
Continuous
 62
     2
100
AcDbLine
 10
-27.47468782299799
 20
16.7002523131026
 30
0.0
 11
-26.8735203011062
 21
16.02042899154711
 31
0.0
  0
LINE
  5
12D
102
{ACAD_REACTORS
330
205
330
206
102
}
330
71
100
AcDbEntity
  8
0
  6
Continuous
 62
     2
100
AcDbLine
 10
-26.8735203011062
 20
16.02042899154711
 30
0.0
 11
-26.27235277921341
 21
16.7002523131026
 31
0.0
  0
LINE
  5
12E
102
{ACAD_REACTORS
330
205
330
206
102
}
330
71
100
AcDbEntity
  8
0
  6
Continuous
 62
     2
100
AcDbLine
 10
-26.1721581922327
 20
15.2273017830664
 30
0.0
 11
-24.86962856146619
 21
16.7002523131026
 31
0.0
  0
LINE
  5
12F
102
{ACAD_REACTORS
330
205
330
206
102
}
330
71
100
AcDbEntity
  8
0
  6
Continuous
 62
     2
100
AcDbLine
 10
-26.1721581922327
 20
15.2273017830664
 30
0.0
 11
-24.7742051452924
 21
13.6464427892914
 31
0.0
  0
LINE
  5
130
102
{ACAD_REACTORS
330
205
330
206
102
}
330
71
100
AcDbEntity
  8
0
  6
Continuous
 62
     2
100
AcDbLine
 10
-26.1769293630407
 20
13.6464427892914
 30
0.0
 11
-24.7742051452924
 21
13.6464427892914
 31
0.0
  0
LINE
  5
131
102
{ACAD_REACTORS
330
205
330
206
102
}
330
71
100
AcDbEntity
  8
0
  6
Continuous
 62
     2
100
AcDbLine
 10
-26.8735203011062
 20
14.43417457458511
 30
0.0
 11
-26.1769293630407
 21
13.6464427892914
 31
0.0
  0
LINE
  5
132
102
{ACAD_REACTORS
330
203
330
204
102
}
330
71
100
AcDbEntity
  8
0
  6
Continuous
 62
     2
100
AcDbLine
 10
-30.33261913738988
 20
16.7002523131026
 30
0.0
 11
-29.09211472713699
 21
16.7002523131026
 31
0.0
  0
LINE
  5
133
102
{ACAD_REACTORS
330
203
330
204
102
}
330
71
100
AcDbEntity
  8
0
  6
Continuous
 62
     2
100
AcDbLine
 10
-29.09211472713699
 20
16.7002523131026
 30
0.0
 11
-29.09211472713699
 21
13.6464427892914
 31
0.0
  0
LINE
  5
134
102
{ACAD_REACTORS
330
203
330
204
102
}
330
71
100
AcDbEntity
  8
0
  6
Continuous
 62
     2
100
AcDbLine
 10
-30.33261913738988
 20
13.6464427892914
 30
0.0
 11
-30.33261913738988
 21
16.7002523131026
 31
0.0
  0
LINE
  5
135
102
{ACAD_REACTORS
330
201
330
202
102
}
330
71
100
AcDbEntity
  8
0
  6
Continuous
 62
     2
100
AcDbLine
 10
-31.8009292199275
 20
11.50877612264159
 30
0.0
 11
-31.50076398273509
 21
12.27659108862829
 31
0.0
  0
LINE
  5
136
102
{ACAD_REACTORS
330
201
330
202
102
}
330
71
100
AcDbEntity
  8
0
  6
Continuous
 62
     2
100
AcDbLine
 10
-32.27846482454831
 20
10.28725231311711
 30
0.0
 11
-32.0669847710725
 21
10.82821285733499
 31
0.0
  0
LINE
  5
137
102
{ACAD_REACTORS
330
201
330
202
102
}
330
71
100
AcDbEntity
  8
0
  6
Continuous
 62
     2
100
AcDbLine
 10
-32.12101618786198
 20
13.34106183692819
 30
0.0
 11
-33.51896923480129
 21
10.28725231311711
 31
0.0
  0
LINE
  5
138
102
{ACAD_REACTORS
330
201
330
202
102
}
330
71
100
AcDbEntity
  8
0
  6
Continuous
 62
     2
100
AcDbLine
 10
-29.48255873066898
 20
10.28725231311711
 30
0.0
 11
-30.7230631409229
 21
10.28725231311711
 31
0.0
  0
LINE
  5
139
102
{ACAD_REACTORS
330
201
330
202
102
}
330
71
100
AcDbEntity
  8
0
  6
Continuous
 62
     2
100
AcDbLine
 10
-32.0669847710725
 20
10.82821285733499
 30
0.0
 11
-30.93454319439869
 21
10.82821285733499
 31
0.0
  0
LINE
  5
13A
102
{ACAD_REACTORS
330
1FF
330
200
102
}
330
71
100
AcDbEntity
  8
0
  6
Continuous
 62
     2
100
AcDbLine
 10
-35.67648137398351
 20
12.5557965308046
 30
0.0
 11
-34.8653823365089
 21
12.5557965308046
 31
0.0
  0
LINE
  5
13B
102
{ACAD_REACTORS
330
1FF
330
200
102
}
330
71
100
AcDbEntity
  8
0
  6
Continuous
 62
     2
100
AcDbLine
 10
-32.86149059686989
 20
13.34106183692819
 30
0.0
 11
-35.67648137398351
 21
13.34106183692819
 31
0.0
  0
LINE
  5
13C
102
{ACAD_REACTORS
330
1FF
330
200
102
}
330
71
100
AcDbEntity
  8
0
  6
Continuous
 62
     2
100
AcDbLine
 10
-32.86149059686989
 20
12.5557965308046
 30
0.0
 11
-32.86149059686989
 21
13.34106183692819
 31
0.0
  0
LINE
  5
13D
102
{ACAD_REACTORS
330
1FF
330
200
102
}
330
71
100
AcDbEntity
  8
0
  6
Continuous
 62
     2
100
AcDbLine
 10
-33.67258963434239
 20
12.5557965308046
 30
0.0
 11
-32.86149059686989
 21
12.5557965308046
 31
0.0
  0
LINE
  5
13E
102
{ACAD_REACTORS
330
1FF
330
200
102
}
330
71
100
AcDbEntity
  8
0
  6
Continuous
 62
     2
100
AcDbLine
 10
-33.67258963434239
 20
10.28725231311711
 30
0.0
 11
-33.67258963434239
 21
12.5557965308046
 31
0.0
  0
LINE
  5
13F
102
{ACAD_REACTORS
330
1FD
330
1FE
102
}
330
71
100
AcDbEntity
  8
0
  6
Continuous
 62
     2
100
AcDbLine
 10
-33.00447479024439
 20
13.6464427892914
 30
0.0
 11
-33.00447479024439
 21
14.9552182994961
 31
0.0
  0
LINE
  5
140
102
{ACAD_REACTORS
330
1FD
330
1FE
102
}
330
71
100
AcDbEntity
  8
0
  6
Continuous
 62
     2
100
AcDbLine
 10
-34.1972674924109
 20
16.7002523131026
 30
0.0
 11
-34.1972674924109
 21
13.6464427892914
 31
0.0
  0
LINE
  5
141
102
{ACAD_REACTORS
330
1FD
330
1FE
102
}
330
71
100
AcDbEntity
  8
0
  6
Continuous
 62
     2
100
AcDbLine
 10
-33.00447479024439
 20
16.7002523131026
 30
0.0
 11
-34.1972674924109
 21
16.7002523131026
 31
0.0
  0
LINE
  5
142
102
{ACAD_REACTORS
330
1FD
330
1FE
102
}
330
71
100
AcDbEntity
  8
0
  6
Continuous
 62
     2
100
AcDbLine
 10
-31.76397037999038
 20
16.7002523131026
 30
0.0
 11
-31.76397037999038
 21
15.39147680289742
 31
0.0
  0
LINE
  5
143
102
{ACAD_REACTORS
330
1FB
330
1FC
102
}
330
71
100
AcDbEntity
  8
0
  6
Continuous
 62
     2
100
AcDbLine
 10
-39.4457063128306
 20
13.34106183692819
 30
0.0
 11
-39.4457063128306
 21
10.28725231311711
 31
0.0
  0
LINE
  5
144
102
{ACAD_REACTORS
330
1FB
330
1FC
102
}
330
71
100
AcDbEntity
  8
0
  6
Continuous
 62
     2
100
AcDbLine
 10
-38.252913610663
 20
13.34106183692819
 30
0.0
 11
-39.4457063128306
 21
13.34106183692819
 31
0.0
  0
LINE
  5
145
102
{ACAD_REACTORS
330
1FB
330
1FC
102
}
330
71
100
AcDbEntity
  8
0
  6
Continuous
 62
     2
100
AcDbLine
 10
-37.0124092004101
 20
10.28725231311711
 30
0.0
 11
-35.8196164982437
 21
10.28725231311711
 31
0.0
  0
LINE
  5
146
102
{ACAD_REACTORS
330
1FB
330
1FC
102
}
330
71
100
AcDbEntity
  8
0
  6
Continuous
 62
     2
100
AcDbLine
 10
-39.4457063128306
 20
10.28725231311711
 30
0.0
 11
-38.252913610663
 21
10.28725231311711
 31
0.0
  0
LINE
  5
147
102
{ACAD_REACTORS
330
20B
330
20C
102
}
330
71
100
AcDbEntity
  8
0
  6
Continuous
 62
     2
100
AcDbLine
 10
-35.77175385927149
 20
15.52235435391791
 30
0.0
 11
-35.77175385927149
 21
16.00223870765962
 31
0.0
  0
LINE
  5
148
102
{ACAD_REACTORS
330
20B
330
20C
102
}
330
71
100
AcDbEntity
  8
0
  6
Continuous
 62
     2
100
AcDbLine
 10
-34.43582603284381
 20
15.52235435391791
 30
0.0
 11
-35.77175385927149
 21
15.52235435391791
 31
0.0
  0
LINE
  5
149
102
{ACAD_REACTORS
330
20B
330
20C
102
}
330
71
100
AcDbEntity
  8
0
  6
Continuous
 62
     2
100
AcDbLine
 10
-34.43582603284381
 20
14.82434074847561
 30
0.0
 11
-34.43582603284381
 21
15.52235435391791
 31
0.0
  0
LINE
  5
14A
102
{ACAD_REACTORS
330
20B
330
20C
102
}
330
71
100
AcDbEntity
  8
0
  6
Continuous
 62
     2
100
AcDbLine
 10
-35.77175385927149
 20
14.82434074847561
 30
0.0
 11
-34.43582603284381
 21
14.82434074847561
 31
0.0
  0
LINE
  5
14B
102
{ACAD_REACTORS
330
1F9
330
1FA
102
}
330
71
100
AcDbEntity
  8
0
  6
Continuous
 62
     2
100
AcDbLine
 10
-39.25470854959841
 20
16.7002523131026
 30
0.0
 11
-39.25470854959841
 21
13.6464427892914
 31
0.0
  0
LINE
  5
14C
102
{ACAD_REACTORS
330
1F9
330
1FA
102
}
330
71
100
AcDbEntity
  8
0
  6
Continuous
 62
     2
100
AcDbLine
 10
-39.25470854959841
 20
13.6464427892914
 30
0.0
 11
-40.44750125176481
 21
13.6464427892914
 31
0.0
  0
LINE
  5
14D
102
{ACAD_REACTORS
330
1F9
330
1FA
102
}
330
71
100
AcDbEntity
  8
0
  6
Continuous
 62
     2
100
AcDbLine
 10
-40.44750125176481
 20
13.6464427892914
 30
0.0
 11
-40.44750125176481
 21
14.78071489813522
 31
0.0
  0
LINE
  5
14E
102
{ACAD_REACTORS
330
1F9
330
1FA
102
}
330
71
100
AcDbEntity
  8
0
  6
Continuous
 62
     2
100
AcDbLine
 10
-41.49715882967229
 20
13.6464427892914
 30
0.0
 11
-42.68995153183889
 21
13.6464427892914
 31
0.0
  0
LINE
  5
14F
102
{ACAD_REACTORS
330
1F9
330
1FA
102
}
330
71
100
AcDbEntity
  8
0
  6
Continuous
 62
     2
100
AcDbLine
 10
-42.68995153183889
 20
16.7002523131026
 30
0.0
 11
-41.49715882967229
 21
16.7002523131026
 31
0.0
  0
LINE
  5
150
102
{ACAD_REACTORS
330
1F9
330
1FA
102
}
330
71
100
AcDbEntity
  8
0
  6
Continuous
 62
     2
100
AcDbLine
 10
-41.49715882967229
 20
16.7002523131026
 30
0.0
 11
-41.49715882967229
 21
15.631418979768
 31
0.0
  0
LINE
  5
151
102
{ACAD_REACTORS
330
1F9
330
1FA
102
}
330
71
100
AcDbEntity
  8
0
  6
Continuous
 62
     2
100
AcDbLine
 10
-41.49715882967229
 20
15.631418979768
 30
0.0
 11
-40.44750125176481
 21
15.631418979768
 31
0.0
  0
LINE
  5
152
102
{ACAD_REACTORS
330
207
330
208
102
}
330
71
100
AcDbEntity
  8
0
  6
Continuous
 62
     2
100
AcDbLine
 10
-44.64613156339249
 20
16.0371464676625
 30
0.0
 11
-44.32883650185059
 21
16.0371464676625
 31
0.0
  0
LINE
  5
153
102
{ACAD_REACTORS
330
207
330
208
102
}
330
71
100
AcDbEntity
  8
0
  6
Continuous
 62
     2
100
AcDbLine
 10
-44.64613156339249
 20
15.33141881832029
 30
0.0
 11
-44.32883650185059
 21
15.33141881832029
 31
0.0
  0
LINE
  5
154
102
{ACAD_REACTORS
330
207
330
208
102
}
330
71
100
AcDbEntity
  8
0
  6
Continuous
 62
     2
100
AcDbLine
 10
-45.88663597364661
 20
16.7002523131026
 30
0.0
 11
-45.88663597364661
 21
13.6464427892914
 31
0.0
  0
LINE
  5
155
102
{ACAD_REACTORS
330
207
330
208
102
}
330
71
100
AcDbEntity
  8
0
  6
Continuous
 62
     2
100
AcDbLine
 10
-45.88663597364661
 20
16.7002523131026
 30
0.0
 11
-43.8873639756122
 21
16.7002523131026
 31
0.0
  0
LINE
  5
156
102
{ACAD_REACTORS
330
207
330
208
102
}
330
71
100
AcDbEntity
  8
0
  6
Continuous
 62
     2
100
AcDbLine
 10
-44.64613156339249
 20
14.58952103043521
 30
0.0
 11
-43.8873639756122
 21
14.58952103043521
 31
0.0
  0
LINE
  5
157
102
{ACAD_REACTORS
330
20D
330
20E
102
}
330
71
100
AcDbEntity
  8
0
  6
Continuous
 62
     2
100
AcDbLine
 10
-51.98313200694329
 20
15.67197983446781
 30
0.0
 11
-51.98313200694329
 21
11.3155247917507
 31
0.0
  0
LINE
  5
158
102
{ACAD_REACTORS
330
20D
330
20E
102
}
330
71
100
AcDbEntity
  8
0
  6
Continuous
 62
     2
100
AcDbLine
 10
-51.66741508386761
 20
15.987696757544
 30
0.0
 11
-50.19158182285798
 21
15.987696757544
 31
0.0
  0
LINE
  5
159
102
{ACAD_REACTORS
330
20D
330
20E
102
}
330
71
100
AcDbEntity
  8
0
  6
Continuous
 62
     2
100
AcDbLine
 10
-49.87586489978139
 20
15.0679552154073
 30
0.0
 11
-49.87586489978139
 21
15.67197983446781
 31
0.0
  0
LINE
  5
15A
102
{ACAD_REACTORS
330
20D
330
20E
102
}
330
71
100
AcDbEntity
  8
0
  6
Continuous
 62
     2
100
AcDbLine
 10
-49.87586489978139
 20
11.3155247917507
 30
0.0
 11
-49.87586489978139
 21
12.84629572328231
 31
0.0
  0
LINE
  5
15B
102
{ACAD_REACTORS
330
20D
330
20E
102
}
330
71
100
AcDbEntity
  8
0
  6
Continuous
 62
     2
100
AcDbLine
 10
-46.78799766989729
 20
10.28725231311711
 30
0.0
 11
-52.2613097606141
 21
10.28725231311711
 31
0.0
  0
LINE
  5
15C
102
{ACAD_REACTORS
330
20D
330
20E
102
}
330
71
100
AcDbEntity
  8
0
  6
Continuous
 62
     2
100
AcDbLine
 10
-46.36375305451341
 20
16.27600769770061
 30
0.0
 11
-46.36375305451341
 21
10.7114969285004
 31
0.0
  0
LINE
  5
15D
102
{ACAD_REACTORS
330
20D
330
20E
102
}
330
71
100
AcDbEntity
  8
0
  6
Continuous
 62
     2
100
AcDbLine
 10
-52.2613097606141
 20
16.70025231308441
 30
0.0
 11
-46.78799766989729
 21
16.70025231308441
 31
0.0
  0
LINE
  5
15E
102
{ACAD_REACTORS
330
20D
330
20E
102
}
330
71
100
AcDbEntity
  8
0
  6
Continuous
 62
     2
100
AcDbLine
 10
-52.6855543759969
 20
16.27600769770061
 30
0.0
 11
-52.6855543759969
 21
10.7114969285004
 31
0.0
  0
LINE
  5
15F
102
{ACAD_REACTORS
330
20D
330
20E
102
}
330
71
100
AcDbEntity
  8
0
  6
Continuous
 62
     2
100
AcDbLine
 10
-50.19158182285798
 20
10.999807868674
 30
0.0
 11
-51.66741508386761
 21
10.999807868674
 31
0.0
  0
LINE
  5
160
102
{ACAD_REACTORS
330
207
330
208
102
}
330
71
100
AcDbEntity
  8
0
  6
Continuous
 62
     2
100
AcDbLine
 10
-44.64613156339249
 20
13.6464427892914
 30
0.0
 11
-44.64613156339249
 21
14.58952103043521
 31
0.0
  0
LINE
  5
161
102
{ACAD_REACTORS
330
207
330
208
102
}
330
71
100
AcDbEntity
  8
0
  6
Continuous
 62
     2
100
AcDbLine
 10
-45.88663597364661
 20
13.6464427892914
 30
0.0
 11
-44.64613156339249
 21
13.6464427892914
 31
0.0
  0
LINE
  5
162
102
{ACAD_REACTORS
330
207
330
208
102
}
330
71
100
AcDbEntity
  8
0
  6
Continuous
 62
     2
100
AcDbLine
 10
-44.64613156339249
 20
15.33141881832029
 30
0.0
 11
-44.64613156339249
 21
16.0371464676625
 31
0.0
  0
LINE
  5
163
102
{ACAD_REACTORS
330
1F9
330
1FA
102
}
330
71
100
AcDbEntity
  8
0
  6
Continuous
 62
     2
100
AcDbLine
 10
-42.68995153183889
 20
16.7002523131026
 30
0.0
 11
-42.68995153183889
 21
13.6464427892914
 31
0.0
  0
LINE
  5
164
102
{ACAD_REACTORS
330
1F9
330
1FA
102
}
330
71
100
AcDbEntity
  8
0
  6
Continuous
 62
     2
100
AcDbLine
 10
-41.49715882967229
 20
14.78071489813522
 30
0.0
 11
-41.49715882967229
 21
13.6464427892914
 31
0.0
  0
LINE
  5
165
102
{ACAD_REACTORS
330
1F9
330
1FA
102
}
330
71
100
AcDbEntity
  8
0
  6
Continuous
 62
     2
100
AcDbLine
 10
-40.44750125176481
 20
14.78071489813522
 30
0.0
 11
-41.49715882967229
 21
14.78071489813522
 31
0.0
  0
LINE
  5
166
102
{ACAD_REACTORS
330
1F9
330
1FA
102
}
330
71
100
AcDbEntity
  8
0
  6
Continuous
 62
     2
100
AcDbLine
 10
-40.44750125176481
 20
16.7002523131026
 30
0.0
 11
-39.25470854959841
 21
16.7002523131026
 31
0.0
  0
LINE
  5
167
102
{ACAD_REACTORS
330
1F9
330
1FA
102
}
330
71
100
AcDbEntity
  8
0
  6
Continuous
 62
     2
100
AcDbLine
 10
-40.44750125176481
 20
15.631418979768
 30
0.0
 11
-40.44750125176481
 21
16.7002523131026
 31
0.0
  0
LINE
  5
168
102
{ACAD_REACTORS
330
20B
330
20C
102
}
330
71
100
AcDbEntity
  8
0
  6
Continuous
 62
     2
100
AcDbLine
 10
-34.43582603284381
 20
16.00223870765962
 30
0.0
 11
-34.43582603284381
 21
16.7002523131026
 31
0.0
  0
LINE
  5
169
102
{ACAD_REACTORS
330
20B
330
20C
102
}
330
71
100
AcDbEntity
  8
0
  6
Continuous
 62
     2
100
AcDbLine
 10
-37.5861457566248
 20
16.7002523131026
 30
0.0
 11
-34.43582603284381
 21
16.7002523131026
 31
0.0
  0
LINE
  5
16A
102
{ACAD_REACTORS
330
20B
330
20C
102
}
330
71
100
AcDbEntity
  8
0
  6
Continuous
 62
     2
100
AcDbLine
 10
-37.5861457566248
 20
13.6464427892914
 30
0.0
 11
-34.43582603284381
 21
13.6464427892914
 31
0.0
  0
LINE
  5
16B
102
{ACAD_REACTORS
330
20B
330
20C
102
}
330
71
100
AcDbEntity
  8
0
  6
Continuous
 62
     2
100
AcDbLine
 10
-34.43582603284381
 20
13.6464427892914
 30
0.0
 11
-34.43582603284381
 21
14.3444563947339
 31
0.0
  0
LINE
  5
16C
102
{ACAD_REACTORS
330
20B
330
20C
102
}
330
71
100
AcDbEntity
  8
0
  6
Continuous
 62
     2
100
AcDbLine
 10
-34.43582603284381
 20
14.3444563947339
 30
0.0
 11
-35.77175385927149
 21
14.3444563947339
 31
0.0
  0
LINE
  5
16D
102
{ACAD_REACTORS
330
20B
330
20C
102
}
330
71
100
AcDbEntity
  8
0
  6
Continuous
 62
     2
100
AcDbLine
 10
-35.77175385927149
 20
14.3444563947339
 30
0.0
 11
-35.77175385927149
 21
14.82434074847561
 31
0.0
  0
LINE
  5
16E
102
{ACAD_REACTORS
330
20B
330
20C
102
}
330
71
100
AcDbEntity
  8
0
  6
Continuous
 62
     2
100
AcDbLine
 10
-35.77175385927149
 20
16.00223870765962
 30
0.0
 11
-34.43582603284381
 21
16.00223870765962
 31
0.0
  0
LINE
  5
16F
102
{ACAD_REACTORS
330
1FB
330
1FC
102
}
330
71
100
AcDbEntity
  8
0
  6
Continuous
 62
     2
100
AcDbLine
 10
-38.252913610663
 20
10.28725231311711
 30
0.0
 11
-38.252913610663
 21
11.59602782332169
 31
0.0
  0
LINE
  5
170
102
{ACAD_REACTORS
330
1FB
330
1FC
102
}
330
71
100
AcDbEntity
  8
0
  6
Continuous
 62
     2
100
AcDbLine
 10
-38.252913610663
 20
11.59602782332169
 30
0.0
 11
-37.0124092004101
 21
10.28725231311711
 31
0.0
  0
LINE
  5
171
102
{ACAD_REACTORS
330
1FB
330
1FC
102
}
330
71
100
AcDbEntity
  8
0
  6
Continuous
 62
     2
100
AcDbLine
 10
-35.8196164982437
 20
10.28725231311711
 30
0.0
 11
-35.8196164982437
 21
13.34106183692819
 31
0.0
  0
LINE
  5
172
102
{ACAD_REACTORS
330
1FB
330
1FC
102
}
330
71
100
AcDbEntity
  8
0
  6
Continuous
 62
     2
100
AcDbLine
 10
-35.8196164982437
 20
13.34106183692819
 30
0.0
 11
-37.0124092004101
 21
13.34106183692819
 31
0.0
  0
LINE
  5
173
102
{ACAD_REACTORS
330
1FB
330
1FC
102
}
330
71
100
AcDbEntity
  8
0
  6
Continuous
 62
     2
100
AcDbLine
 10
-37.0124092004101
 20
13.34106183692819
 30
0.0
 11
-37.0124092004101
 21
12.0322863267231
 31
0.0
  0
LINE
  5
174
102
{ACAD_REACTORS
330
1FB
330
1FC
102
}
330
71
100
AcDbEntity
  8
0
  6
Continuous
 62
     2
100
AcDbLine
 10
-37.0124092004101
 20
12.0322863267231
 30
0.0
 11
-38.252913610663
 21
13.34106183692819
 31
0.0
  0
LINE
  5
175
102
{ACAD_REACTORS
330
1FD
330
1FE
102
}
330
71
100
AcDbEntity
  8
0
  6
Continuous
 62
     2
100
AcDbLine
 10
-33.00447479024439
 20
14.9552182994961
 30
0.0
 11
-31.76397037999038
 21
13.6464427892914
 31
0.0
  0
LINE
  5
176
102
{ACAD_REACTORS
330
1FD
330
1FE
102
}
330
71
100
AcDbEntity
  8
0
  6
Continuous
 62
     2
100
AcDbLine
 10
-31.76397037999038
 20
13.6464427892914
 30
0.0
 11
-30.57117767782378
 21
13.6464427892914
 31
0.0
  0
LINE
  5
177
102
{ACAD_REACTORS
330
1FD
330
1FE
102
}
330
71
100
AcDbEntity
  8
0
  6
Continuous
 62
     2
100
AcDbLine
 10
-30.57117767782378
 20
13.6464427892914
 30
0.0
 11
-30.57117767782378
 21
16.7002523131026
 31
0.0
  0
LINE
  5
178
102
{ACAD_REACTORS
330
1FD
330
1FE
102
}
330
71
100
AcDbEntity
  8
0
  6
Continuous
 62
     2
100
AcDbLine
 10
-30.57117767782378
 20
16.7002523131026
 30
0.0
 11
-31.76397037999038
 21
16.7002523131026
 31
0.0
  0
LINE
  5
179
102
{ACAD_REACTORS
330
1FD
330
1FE
102
}
330
71
100
AcDbEntity
  8
0
  6
Continuous
 62
     2
100
AcDbLine
 10
-31.76397037999038
 20
15.39147680289742
 30
0.0
 11
-33.00447479024439
 21
16.7002523131026
 31
0.0
  0
LINE
  5
17A
102
{ACAD_REACTORS
330
1FD
330
1FE
102
}
330
71
100
AcDbEntity
  8
0
  6
Continuous
 62
     2
100
AcDbLine
 10
-34.1972674924109
 20
13.6464427892914
 30
0.0
 11
-33.00447479024439
 21
13.6464427892914
 31
0.0
  0
LINE
  5
17B
102
{ACAD_REACTORS
330
1FF
330
200
102
}
330
71
100
AcDbEntity
  8
0
  6
Continuous
 62
     2
100
AcDbLine
 10
-35.67648137398351
 20
13.34106183692819
 30
0.0
 11
-35.67648137398351
 21
12.5557965308046
 31
0.0
  0
LINE
  5
17C
102
{ACAD_REACTORS
330
1FF
330
200
102
}
330
71
100
AcDbEntity
  8
0
  6
Continuous
 62
     2
100
AcDbLine
 10
-34.8653823365089
 20
12.5557965308046
 30
0.0
 11
-34.8653823365089
 21
10.28725231311711
 31
0.0
  0
LINE
  5
17D
102
{ACAD_REACTORS
330
1FF
330
200
102
}
330
71
100
AcDbEntity
  8
0
  6
Continuous
 62
     2
100
AcDbLine
 10
-34.8653823365089
 20
10.28725231311711
 30
0.0
 11
-33.67258963434239
 21
10.28725231311711
 31
0.0
  0
LINE
  5
17E
102
{ACAD_REACTORS
330
201
330
202
102
}
330
71
100
AcDbEntity
  8
0
  6
Continuous
 62
     2
100
AcDbLine
 10
-30.7230631409229
 20
10.28725231311711
 30
0.0
 11
-30.93454319439869
 21
10.82821285733499
 31
0.0
  0
LINE
  5
17F
102
{ACAD_REACTORS
330
201
330
202
102
}
330
71
100
AcDbEntity
  8
0
  6
Continuous
 62
     2
100
AcDbLine
 10
-30.88051177760929
 20
13.34106183692819
 30
0.0
 11
-29.48255873066898
 21
10.28725231311711
 31
0.0
  0
LINE
  5
180
102
{ACAD_REACTORS
330
201
330
202
102
}
330
71
100
AcDbEntity
  8
0
  6
Continuous
 62
     2
100
AcDbLine
 10
-32.12101618786198
 20
13.34106183692819
 30
0.0
 11
-30.88051177760929
 21
13.34106183692819
 31
0.0
  0
LINE
  5
181
102
{ACAD_REACTORS
330
201
330
202
102
}
330
71
100
AcDbEntity
  8
0
  6
Continuous
 62
     2
100
AcDbLine
 10
-33.51896923480129
 20
10.28725231311711
 30
0.0
 11
-32.27846482454831
 21
10.28725231311711
 31
0.0
  0
LINE
  5
182
102
{ACAD_REACTORS
330
201
330
202
102
}
330
71
100
AcDbEntity
  8
0
  6
Continuous
 62
     2
100
AcDbLine
 10
-31.8009292199275
 20
11.50877612264159
 30
0.0
 11
-31.20059874554499
 21
11.50877612264159
 31
0.0
  0
LINE
  5
183
102
{ACAD_REACTORS
330
201
330
202
102
}
330
71
100
AcDbEntity
  8
0
  6
Continuous
 62
     2
100
AcDbLine
 10
-31.20059874554499
 20
11.50877612264159
 30
0.0
 11
-31.50076398273509
 21
12.27659108862829
 31
0.0
  0
LINE
  5
184
102
{ACAD_REACTORS
330
203
330
204
102
}
330
71
100
AcDbEntity
  8
0
  6
Continuous
 62
     2
100
AcDbLine
 10
-29.09211472713699
 20
13.6464427892914
 30
0.0
 11
-30.33261913738988
 21
13.6464427892914
 31
0.0
  0
LINE
  5
185
102
{ACAD_REACTORS
330
205
330
206
102
}
330
71
100
AcDbEntity
  8
0
  6
Continuous
 62
     2
100
AcDbLine
 10
-27.57011123917189
 20
13.6464427892914
 30
0.0
 11
-28.97283545692011
 21
13.6464427892914
 31
0.0
  0
LINE
  5
186
102
{ACAD_REACTORS
330
205
330
206
102
}
330
71
100
AcDbEntity
  8
0
  6
Continuous
 62
     2
100
AcDbLine
 10
-27.57011123917189
 20
13.6464427892914
 30
0.0
 11
-26.8735203011062
 21
14.43417457458511
 31
0.0
  0
LINE
  5
187
102
{ACAD_REACTORS
330
205
330
206
102
}
330
71
100
AcDbEntity
  8
0
  6
Continuous
 62
     2
100
AcDbLine
 10
-26.27235277921341
 20
16.7002523131026
 30
0.0
 11
-24.86962856146619
 21
16.7002523131026
 31
0.0
  0
LINE
  5
188
102
{ACAD_REACTORS
330
205
330
206
102
}
330
71
100
AcDbEntity
  8
0
  6
Continuous
 62
     2
100
AcDbLine
 10
-28.87741204074729
 20
16.7002523131026
 30
0.0
 11
-27.57488240997981
 21
15.2273017830664
 31
0.0
  0
LINE
  5
189
102
{ACAD_REACTORS
330
205
330
206
102
}
330
71
100
AcDbEntity
  8
0
  6
Continuous
 62
     2
100
AcDbLine
 10
-28.97283545692011
 20
13.6464427892914
 30
0.0
 11
-27.57488240997981
 21
15.2273017830664
 31
0.0
  0
LINE
  5
18A
102
{ACAD_REACTORS
330
20F
330
210
102
}
330
71
100
AcDbEntity
  8
0
  6
Continuous
 62
     2
100
AcDbLine
 10
-27.11207884154018
 20
11.33427272128071
 30
0.0
 11
-27.11207884154018
 21
10.46175571447739
 31
0.0
  0
LINE
  5
18B
102
{ACAD_REACTORS
330
20F
330
210
102
}
330
71
100
AcDbEntity
  8
0
  6
Continuous
 62
     2
100
AcDbLine
 10
-27.88173618450159
 20
12.5557965308046
 30
0.0
 11
-26.77809688493349
 21
12.5557965308046
 31
0.0
  0
LINE
  5
18C
102
{ACAD_REACTORS
330
211
330
212
102
}
330
71
100
AcDbEntity
  8
0
  6
Continuous
 62
     2
100
AcDbLine
 10
-43.2147803207921
 20
11.3342727212812
 30
0.0
 11
-43.2147803207921
 21
10.46175571447799
 31
0.0
  0
LINE
  5
18D
102
{ACAD_REACTORS
330
211
330
212
102
}
330
71
100
AcDbEntity
  8
0
  6
Continuous
 62
     2
100
AcDbLine
 10
-43.2147803207921
 20
12.2940414287641
 30
0.0
 11
-43.2147803207921
 21
13.1665584355674
 31
0.0
  0
LINE
  5
18E
330
71
100
AcDbEntity
  8
1
  6
Continuous
 62
     7
100
AcDbLine
 10
72.6225952641918
 20
11.4937523131008
 30
0.0
 11
-20.52220926255959
 21
11.4937523131008
 31
0.0
  0
LINE
  5
18F
330
71
100
AcDbEntity
  8
1
  6
Continuous
 62
     6
100
AcDbLine
 10
-125.9222092625595
 20
2.9937523131008
 30
0.0
 11
-170.8774047358095
 21
2.9937523131008
 31
0.0
  0
LINE
  5
190
330
71
100
AcDbEntity
  8
1
  6
Continuous
 62
     7
100
AcDbLine
 10
63.70418698251299
 20
28.4937523131008
 30
0.0
 11
63.70418698251299
 21
19.9937523131008
 31
0.0
  0
LINE
  5
191
330
71
100
AcDbEntity
  8
1
  6
Continuous
 62
     7
100
AcDbLine
 10
37.20418698251339
 20
28.4937523131008
 30
0.0
 11
37.20418698251339
 21
19.9937523131008
 31
0.0
  0
LINE
  5
192
330
71
100
AcDbEntity
  8
1
  6
Continuous
 62
     7
100
AcDbLine
 10
-20.52220926255959
 20
19.9937523131008
 30
0.0
 11
-20.52220926255959
 21
28.4937523131008
 31
0.0
  0
LINE
  5
193
330
71
100
AcDbEntity
  8
1
  6
Continuous
 62
     7
100
AcDbLine
 10
-56.92220926255951
 20
19.9937523131008
 30
0.0
 11
-56.92220926255951
 21
28.4937523131008
 31
0.0
  0
LINE
  5
194
330
71
100
AcDbEntity
  8
1
  6
Continuous
 62
     6
100
AcDbLine
 10
-20.52220926255959
 20
19.9937523131008
 30
0.0
 11
72.6225952641922
 21
19.9937523131008
 31
0.0
  0
LINE
  5
195
330
71
100
AcDbEntity
  8
1
  6
Continuous
 62
     7
100
AcDbLine
 10
7.37779073744051
 20
11.49375231310071
 30
0.0
 11
7.37779073744051
 21
19.9937523131008
 31
0.0
  0
LINE
  5
196
330
71
100
AcDbEntity
  8
1
  6
PHANTOM
 62
     2
100
AcDbLine
 10
-41.4355543759969
 20
24.11875231310071
 30
0.0
 11
-46.9355543759969
 21
24.11875231310071
 31
0.0
  0
LINE
  5
197
330
71
100
AcDbEntity
  8
1
  6
PHANTOM
 62
     2
100
AcDbLine
 10
-44.1855543759969
 20
26.86875231310071
 30
0.0
 11
-44.1855543759969
 21
21.36875231310071
 31
0.0
  0
LINE
  5
198
330
71
100
AcDbEntity
  8
1
  6
DOT_CENTER
 62
     2
100
AcDbLine
 10
-52.9355543759969
 20
24.11875231310071
 30
0.0
 11
-47.4355543759969
 21
24.11875231310071
 31
0.0
  0
ARC
  5
199
102
{ACAD_REACTORS
330
211
330
212
102
}
330
71
100
AcDbEntity
  8
0
  6
Continuous
 62
     2
100
AcDbCircle
 10
-44.5507082379099
 20
8.5014761297665
 30
0.0
 40
4.852596863498071
100
AcDbArc
 50
74.02000874164739
 51
84.84185523037506
  0
ARC
  5
19A
102
{ACAD_REACTORS
330
211
330
212
102
}
330
71
100
AcDbEntity
  8
0
  6
Continuous
 62
     2
100
AcDbCircle
 10
-43.97466762915619
 20
11.6572364856508
 30
0.0
 40
0.9059297849853211
100
AcDbArc
 50
71.55192388185344
 51
113.372277888129
  0
ARC
  5
19B
102
{ACAD_REACTORS
330
211
330
212
102
}
330
71
100
AcDbEntity
  8
0
  6
Continuous
 62
     2
100
AcDbCircle
 10
-44.13110766185821
 20
11.60908564568391
 30
0.0
 40
0.5115800601948034
100
AcDbArc
 50
208.5214732576956
 51
246.6277221118276
  0
ARC
  5
19C
102
{ACAD_REACTORS
330
211
330
212
102
}
330
71
100
AcDbEntity
  8
0
  6
Continuous
 62
     2
100
AcDbCircle
 10
-43.97466762915619
 20
11.9710776643939
 30
0.0
 40
0.905929784984916
100
AcDbArc
 50
246.6277221118709
 51
288.4480761181586
  0
ARC
  5
19D
102
{ACAD_REACTORS
330
211
330
212
102
}
330
71
100
AcDbEntity
  8
0
  6
Continuous
 62
     2
100
AcDbCircle
 10
-44.39283536281698
 20
13.22462344043109
 30
0.0
 40
2.227384008972737
100
AcDbArc
 50
288.4480761181328
 51
301.9309089499593
  0
ARC
  5
19E
102
{ACAD_REACTORS
330
20D
330
20E
102
}
330
71
100
AcDbEntity
  8
0
  6
Continuous
 62
     2
100
AcDbCircle
 10
-49.61790909542378
 20
13.9571254693451
 30
0.0
 40
0.9118481501444543
100
AcDbArc
 50
295.3740086781761
 51
64.62599132180802
  0
ARC
  5
19F
102
{ACAD_REACTORS
330
20D
330
20E
102
}
330
71
100
AcDbEntity
  8
0
  6
Continuous
 62
     2
100
AcDbCircle
 10
-49.09186639733591
 20
15.6718023578197
 30
0.0
 40
0.3157169230760728
100
AcDbArc
 50
90.18896704254334
 51
180.0
  0
ARC
  5
1A0
102
{ACAD_REACTORS
330
20F
330
210
102
}
330
71
100
AcDbEntity
  8
0
  6
Continuous
 62
     2
100
AcDbCircle
 10
-27.88173618450159
 20
11.60127352397851
 30
0.0
 40
0.9545230068260899
100
AcDbArc
 50
90.0
 51
109.337143219432
  0
ARC
  5
1A1
102
{ACAD_REACTORS
330
20F
330
210
102
}
330
71
100
AcDbEntity
  8
0
  6
Continuous
 62
     2
100
AcDbCircle
 10
-27.65104892452391
 20
11.81415707502239
 30
0.0
 40
0.9410597353348926
100
AcDbArc
 50
151.4785267423619
 51
208.5214732576696
  0
ARC
  5
1A2
102
{ACAD_REACTORS
330
20F
330
210
102
}
330
71
100
AcDbEntity
  8
0
  6
Continuous
 62
     2
100
AcDbCircle
 10
-27.87196614990219
 20
11.9710776643939
 30
0.0
 40
0.9059297849852797
100
AcDbArc
 50
246.6277221118177
 51
288.4480761180818
  0
ARC
  5
1A3
102
{ACAD_REACTORS
330
20F
330
210
102
}
330
71
100
AcDbEntity
  8
0
  6
Continuous
 62
     2
100
AcDbCircle
 10
-28.2901338835641
 20
13.22462344043049
 30
0.0
 40
2.227384008972748
100
AcDbArc
 50
288.4480761181337
 51
301.9309089499399
  0
ARC
  5
1A4
102
{ACAD_REACTORS
330
20F
330
210
102
}
330
71
100
AcDbEntity
  8
0
  6
Continuous
 62
     2
100
AcDbCircle
 10
-28.4480067586569
 20
15.1268380202788
 30
0.0
 40
4.852596863498824
100
AcDbArc
 50
275.1581447696362
 51
285.9799912583387
  0
ARC
  5
1A5
102
{ACAD_REACTORS
330
20F
330
210
102
}
330
71
100
AcDbEntity
  8
0
  6
Continuous
 62
     2
100
AcDbCircle
 10
-28.15915066392108
 20
11.92694743705721
 30
0.0
 40
1.639695123940456
100
AcDbArc
 50
195.0618917771012
 51
275.158144769676
  0
ARC
  5
1A6
102
{ACAD_REACTORS
330
207
330
208
102
}
330
71
100
AcDbEntity
  8
0
  6
Continuous
 62
     2
100
AcDbCircle
 10
-43.8873639756122
 20
15.64488667176892
 30
0.0
 40
1.05536564133371
100
AcDbArc
 50
270.0
 51
90.0
  0
ARC
  5
1A7
102
{ACAD_REACTORS
330
20D
330
20E
102
}
330
71
100
AcDbEntity
  8
0
  6
Continuous
 62
     2
100
AcDbCircle
 10
-51.66741508386761
 20
11.3155247917507
 30
0.0
 40
0.3157169230756836
100
AcDbArc
 50
180.0
 51
270.0
  0
ARC
  5
1A8
102
{ACAD_REACTORS
330
20D
330
20E
102
}
330
71
100
AcDbEntity
  8
0
  6
Continuous
 62
     2
100
AcDbCircle
 10
-50.19158182285798
 20
15.67197983446781
 30
0.0
 40
0.3157169230765859
100
AcDbArc
 50
0.0
 51
90.0
  0
ARC
  5
1A9
102
{ACAD_REACTORS
330
20D
330
20E
102
}
330
71
100
AcDbEntity
  8
0
  6
Continuous
 62
     2
100
AcDbCircle
 10
-50.19158182285798
 20
15.0679552154073
 30
0.0
 40
0.3157169230761172
100
AcDbArc
 50
295.1944106485386
 51
0.0
  0
ARC
  5
1AA
102
{ACAD_REACTORS
330
20D
330
20E
102
}
330
71
100
AcDbEntity
  8
0
  6
Continuous
 62
     2
100
AcDbCircle
 10
-50.19158182285798
 20
11.3155247917507
 30
0.0
 40
0.3157169230766996
100
AcDbArc
 50
270.0
 51
0.0
  0
ARC
  5
1AB
102
{ACAD_REACTORS
330
20D
330
20E
102
}
330
71
100
AcDbEntity
  8
0
  6
Continuous
 62
     2
100
AcDbCircle
 10
-52.2613097606141
 20
16.27600769770061
 30
0.0
 40
0.4242446153837989
100
AcDbArc
 50
90.0
 51
180.0
  0
ARC
  5
1AC
102
{ACAD_REACTORS
330
20D
330
20E
102
}
330
71
100
AcDbEntity
  8
0
  6
Continuous
 62
     2
100
AcDbCircle
 10
-46.78799766989729
 20
16.27600769770061
 30
0.0
 40
0.424244615383877
100
AcDbArc
 50
0.0
 51
90.0
  0
ARC
  5
1AD
102
{ACAD_REACTORS
330
20D
330
20E
102
}
330
71
100
AcDbEntity
  8
0
  6
Continuous
 62
     2
100
AcDbCircle
 10
-46.78799766989729
 20
10.7114969285004
 30
0.0
 40
0.4242446153832908
100
AcDbArc
 50
270.0
 51
0.0
  0
ARC
  5
1AE
102
{ACAD_REACTORS
330
20B
330
20C
102
}
330
71
100
AcDbEntity
  8
0
  6
Continuous
 62
     2
100
AcDbCircle
 10
-37.56961378280579
 20
15.17334755119671
 30
0.0
 40
0.7717997786796351
100
AcDbArc
 50
321.879580202844
 51
38.12041979715967
  0
ARC
  5
1AF
102
{ACAD_REACTORS
330
20B
330
20C
102
}
330
71
100
AcDbEntity
  8
0
  6
Continuous
 62
     2
100
AcDbCircle
 10
-37.3698737464596
 20
15.01661637307629
 30
0.0
 40
0.5179085730134494
100
AcDbArc
 50
218.1204197971503
 51
321.879580202856
  0
ARC
  5
1B0
102
{ACAD_REACTORS
330
209
330
20A
102
}
330
71
100
AcDbEntity
  8
0
  6
Continuous
 62
     2
100
AcDbCircle
 10
-41.0498813354198
 20
11.81415707502239
 30
0.0
 40
1.458034083652003
100
AcDbArc
 50
297.548148175701
 51
62.45185182429898
  0
ARC
  5
1B1
102
{ACAD_REACTORS
330
209
330
20A
102
}
330
71
100
AcDbEntity
  8
0
  6
Continuous
 62
     2
100
AcDbCircle
 10
-41.6117611190864
 20
11.81415707502239
 30
0.0
 40
1.458034083651485
100
AcDbArc
 50
117.5481481756619
 51
242.451851824338
  0
ARC
  5
1B2
102
{ACAD_REACTORS
330
209
330
20A
102
}
330
71
100
AcDbEntity
  8
0
  6
Continuous
 62
     2
100
AcDbCircle
 10
-41.3308212272531
 20
11.2755820647196
 30
0.0
 40
2.065479772208566
100
AcDbArc
 50
62.45185182430634
 51
117.5481481756662
  0
ARC
  5
1B3
102
{ACAD_REACTORS
330
209
330
20A
102
}
330
71
100
AcDbEntity
  8
0
  6
Continuous
 62
     2
100
AcDbCircle
 10
-41.3308212272531
 20
12.3527320853257
 30
0.0
 40
2.06547977220851
100
AcDbArc
 50
242.4518518243405
 51
297.548148175687
  0
ARC
  5
1B4
102
{ACAD_REACTORS
330
20B
330
20C
102
}
330
71
100
AcDbEntity
  8
0
  6
Continuous
 62
     2
100
AcDbCircle
 10
-37.17013371011331
 20
15.17334755119671
 30
0.0
 40
0.7717997786796735
100
AcDbArc
 50
141.8795802028403
 51
218.120419797156
  0
ARC
  5
1B5
102
{ACAD_REACTORS
330
20B
330
20C
102
}
330
71
100
AcDbEntity
  8
0
  6
Continuous
 62
     2
100
AcDbCircle
 10
-37.3698737464596
 20
15.33007872931719
 30
0.0
 40
0.517908573013522
100
AcDbArc
 50
38.12041979714398
 51
141.8795802028497
  0
ARC
  5
1B6
102
{ACAD_REACTORS
330
20D
330
20E
102
}
330
71
100
AcDbEntity
  8
0
  6
Continuous
 62
     2
100
AcDbCircle
 10
-52.2613097606141
 20
10.7114969285004
 30
0.0
 40
0.4242446153828041
100
AcDbArc
 50
180.0
 51
270.0
  0
ARC
  5
1B7
102
{ACAD_REACTORS
330
20D
330
20E
102
}
330
71
100
AcDbEntity
  8
0
  6
Continuous
 62
     2
100
AcDbCircle
 10
-50.19158182285798
 20
12.84629572328231
 30
0.0
 40
0.3157169230765859
100
AcDbArc
 50
0.0
 51
64.80558935146145
  0
ARC
  5
1B8
102
{ACAD_REACTORS
330
20D
330
20E
102
}
330
71
100
AcDbEntity
  8
0
  6
Continuous
 62
     2
100
AcDbCircle
 10
-49.668997375283
 20
13.9571254693451
 30
0.0
 40
0.911897523557621
100
AcDbArc
 50
115.194410648528
 51
244.8055893514877
  0
ARC
  5
1B9
102
{ACAD_REACTORS
330
20D
330
20E
102
}
330
71
100
AcDbEntity
  8
0
  6
Continuous
 62
     2
100
AcDbCircle
 10
-51.66741508386761
 20
15.67197983446781
 30
0.0
 40
0.3157169230761898
100
AcDbArc
 50
90.0
 51
180.0
  0
ARC
  5
1BA
102
{ACAD_REACTORS
330
207
330
208
102
}
330
71
100
AcDbEntity
  8
0
  6
Continuous
 62
     2
100
AcDbCircle
 10
-44.32883650185059
 20
15.68428264299141
 30
0.0
 40
0.35286382467112
100
AcDbArc
 50
270.0
 51
90.0
  0
ARC
  5
1BB
102
{ACAD_REACTORS
330
20B
330
20C
102
}
330
71
100
AcDbEntity
  8
0
  6
Continuous
 62
     2
100
AcDbCircle
 10
-37.5861457566248
 20
15.17334755119671
 30
0.0
 40
1.52690476190589
100
AcDbArc
 50
90.0
 51
270.0
  0
ARC
  5
1BC
102
{ACAD_REACTORS
330
20F
330
210
102
}
330
71
100
AcDbEntity
  8
0
  6
Continuous
 62
     2
100
AcDbCircle
 10
-28.15915066392108
 20
11.70136671298749
 30
0.0
 40
1.63969512394022
100
AcDbArc
 50
90.0
 51
164.9381082228948
  0
ARC
  5
1BD
102
{ACAD_REACTORS
330
20F
330
210
102
}
330
71
100
AcDbEntity
  8
0
  6
Continuous
 62
     2
100
AcDbCircle
 10
-28.57827850738269
 20
11.81415707502239
 30
0.0
 40
1.205656168393008
100
AcDbArc
 50
164.9381082229025
 51
195.0618917770957
  0
ARC
  5
1BE
102
{ACAD_REACTORS
330
20F
330
210
102
}
330
71
100
AcDbEntity
  8
0
  6
Continuous
 62
     2
100
AcDbCircle
 10
-28.0284061826053
 20
11.60908564568391
 30
0.0
 40
0.5115800601960228
100
AcDbArc
 50
208.5214732576877
 51
246.6277221118451
  0
ARC
  5
1BF
102
{ACAD_REACTORS
330
20F
330
210
102
}
330
71
100
AcDbEntity
  8
0
  6
Continuous
 62
     2
100
AcDbCircle
 10
-28.0284061826053
 20
12.01922850436139
 30
0.0
 40
0.5115800601944182
100
AcDbArc
 50
109.3371432194847
 51
151.4785267424216
  0
ARC
  5
1C0
102
{ACAD_REACTORS
330
20D
330
20E
102
}
330
71
100
AcDbEntity
  8
0
  6
Continuous
 62
     2
100
AcDbCircle
 10
-49.09186639733591
 20
12.26613246268161
 30
0.0
 40
0.3157169230767849
100
AcDbArc
 50
180.0
 51
269.8110329574567
  0
ARC
  5
1C1
102
{ACAD_REACTORS
330
20D
330
20E
102
}
330
71
100
AcDbEntity
  8
0
  6
Continuous
 62
     2
100
AcDbCircle
 10
-49.08625026202589
 20
13.9689674102506
 30
0.0
 40
2.018561131933267
100
AcDbArc
 50
269.8110329575862
 51
90.18896704241376
  0
ARC
  5
1C2
102
{ACAD_REACTORS
330
20D
330
20E
102
}
330
71
100
AcDbEntity
  8
0
  6
Continuous
 62
     2
100
AcDbCircle
 10
-49.09186639733591
 20
15.06626706931291
 30
0.0
 40
0.3157169230767849
100
AcDbArc
 50
180.0
 51
244.6259913216488
  0
ARC
  5
1C3
102
{ACAD_REACTORS
330
20D
330
20E
102
}
330
71
100
AcDbEntity
  8
0
  6
Continuous
 62
     2
100
AcDbCircle
 10
-49.09186639733591
 20
12.84798386937669
 30
0.0
 40
0.3157169230765298
100
AcDbArc
 50
115.3740086783507
 51
180.0
  0
ARC
  5
1C4
102
{ACAD_REACTORS
330
211
330
212
102
}
330
71
100
AcDbEntity
  8
0
  6
Continuous
 62
     2
100
AcDbCircle
 10
-44.261852143174
 20
11.70136671298749
 30
0.0
 40
1.639695123940516
100
AcDbArc
 50
84.84185523036214
 51
164.9381082228861
  0
ARC
  5
1C5
102
{ACAD_REACTORS
330
211
330
212
102
}
330
71
100
AcDbEntity
  8
0
  6
Continuous
 62
     2
100
AcDbCircle
 10
-44.6809799866368
 20
11.81415707502239
 30
0.0
 40
1.205656168390946
100
AcDbArc
 50
164.9381082228761
 51
195.0618917770945
  0
ARC
  5
1C6
102
{ACAD_REACTORS
330
211
330
212
102
}
330
71
100
AcDbEntity
  8
0
  6
Continuous
 62
     2
100
AcDbCircle
 10
-44.261852143174
 20
11.92694743705721
 30
0.0
 40
1.63969512393938
100
AcDbArc
 50
195.0618917770896
 51
275.1581447696398
  0
ARC
  5
1C7
102
{ACAD_REACTORS
330
211
330
212
102
}
330
71
100
AcDbEntity
  8
0
  6
Continuous
 62
     2
100
AcDbCircle
 10
-44.5507082379099
 20
15.1268380202788
 30
0.0
 40
4.852596863498145
100
AcDbArc
 50
275.1581447696249
 51
285.9799912583529
  0
ARC
  5
1C8
102
{ACAD_REACTORS
330
211
330
212
102
}
330
71
100
AcDbEntity
  8
0
  6
Continuous
 62
     2
100
AcDbCircle
 10
-43.7537504037779
 20
11.81415707502239
 30
0.0
 40
0.9410597353332545
100
AcDbArc
 50
151.4785267422669
 51
208.5214732577053
  0
ARC
  5
1C9
102
{ACAD_REACTORS
330
211
330
212
102
}
330
71
100
AcDbEntity
  8
0
  6
Continuous
 62
     2
100
AcDbCircle
 10
-44.13110766185821
 20
12.01922850436139
 30
0.0
 40
0.5115800601948796
100
AcDbArc
 50
113.3722778881991
 51
151.4785267423044
  0
ARC
  5
1CA
102
{ACAD_REACTORS
330
211
330
212
102
}
330
71
100
AcDbEntity
  8
0
  6
Continuous
 62
     2
100
AcDbCircle
 10
-44.39283536281698
 20
10.40369070961421
 30
0.0
 40
2.227384008973474
100
AcDbArc
 50
58.06909105004068
 51
71.55192388186722
  0
ARC
  5
1CB
102
{ACAD_REACTORS
330
209
330
20A
102
}
330
71
100
AcDbEntity
  8
0
  6
Continuous
 62
     2
100
AcDbCircle
 10
-41.3308212272531
 20
11.9708882531429
 30
0.0
 40
0.5179085730133021
100
AcDbArc
 50
38.12041979714734
 51
141.8795802028585
  0
ARC
  5
1CC
102
{ACAD_REACTORS
330
209
330
20A
102
}
330
71
100
AcDbEntity
  8
0
  6
Continuous
 62
     2
100
AcDbCircle
 10
-41.131081190907
 20
11.81415707502239
 30
0.0
 40
0.7717997786794665
100
AcDbArc
 50
141.879580202836
 51
218.1204197971687
  0
ARC
  5
1CD
102
{ACAD_REACTORS
330
209
330
20A
102
}
330
71
100
AcDbEntity
  8
0
  6
Continuous
 62
     2
100
AcDbCircle
 10
-41.3308212272531
 20
11.6574258969024
 30
0.0
 40
0.5179085730137397
100
AcDbArc
 50
218.1204197971938
 51
321.8795802028004
  0
ARC
  5
1CE
102
{ACAD_REACTORS
330
209
330
20A
102
}
330
71
100
AcDbEntity
  8
0
  6
Continuous
 62
     2
100
AcDbCircle
 10
-41.53056126359951
 20
11.81415707502239
 30
0.0
 40
0.7717997786796947
100
AcDbArc
 50
321.8795802028417
 51
38.12041979715359
  0
CIRCLE
  5
1CF
330
71
100
AcDbEntity
  8
1
  6
Continuous
 62
     2
100
AcDbCircle
 10
-44.1855543759969
 20
24.11875231310071
 30
0.0
 40
2.5
  0
CIRCLE
  5
1D0
330
71
100
AcDbEntity
  8
1
  6
Continuous
 62
     2
100
AcDbCircle
 10
-44.1855543759969
 20
24.11875231310071
 30
0.0
 40
1.249999999999908
  0
CIRCLE
  5
1D1
102
{ACAD_REACTORS
330
20D
330
20E
102
}
330
71
100
AcDbEntity
  8
0
  6
Continuous
 62
     2
100
AcDbCircle
 10
-49.64172411009659
 20
13.9571254693451
 30
0.0
 40
0.4709789327785074
  0
MTEXT
  5
1D2
330
71
100
AcDbEntity
  8
1
 62
     3
100
AcDbMText
 10
-214.3723369497377
 20
189.7850604683996
 30
0.0
 40
1.8
 41
0.0
 71
     7
 72
     1
  3
Weitergabe sowie Vervielf\U+00e4ltigung dieses Dokuments, Verwertung und \PMitteilung seines Inhalts sind verboten, soweit nicht ausdr\U+00fccklich gestattet. \PZuwiderhandlungen verpflichten zu Schadenersatz. Alle Rechte f\U+00fcr den Fall\Pder Pat
  1
ent-, Gebrauchsmuster- oder Designeintragung vorbehalten.
  7
CONVERTER_11
 73
     1
 44
0.99639855942377
  0
MTEXT
  5
1D3
330
71
100
AcDbEntity
  8
1
 62
     3
100
AcDbMText
 10
-31.5192271109496
 20
189.7850604683996
 30
0.0
 40
1.8
 41
0.0
 71
     7
 72
     1
  3
Transfer or duplication of this document as well as the utilisation or\Pcommunication of its content are not permitted unless express consent\Pis granted. Violations give rise to claims for damages. All rights reserved\Pin case of patent, utility mo
  1
del or design patent registrations.
  7
CONVERTER_11
 73
     1
 44
0.99639855942377
  0
TEXT
  5
1D4
330
71
100
AcDbEntity
  8
1
 62
     2
100
AcDbText
 10
-37.72220926255969
 20
4.23473509810918
 30
0.0
 40
1.8
  1
of
 41
0.9
  7
CONVERTER_11
100
AcDbText
  0
TEXT
  5
1D5
330
71
100
AcDbEntity
  8
1
 62
     2
100
AcDbText
 10
-55.92220926255951
 20
4.23473509810913
 30
0.0
 40
1.8
  1
page
 41
0.9
  7
CONVERTER_11
100
AcDbText
  0
TEXT
  5
1D6
330
71
100
AcDbEntity
  8
1
 62
     2
100
AcDbText
 10
-47.2759442922175
 20
4.19450365929879
 30
0.0
 40
1.8
  1
1
 41
0.9
  7
CONVERTER_11
100
AcDbText
  0
TEXT
  5
1D7
330
71
100
AcDbEntity
  8
1
 62
     2
100
AcDbText
 10
-32.486900452746
 20
4.24375231310069
 30
0.0
 40
1.8
  1
1
 41
0.9
  7
CONVERTER_11
100
AcDbText
  0
MTEXT
  5
1D9
330
71
100
AcDbEntity
  8
1
 62
     7
100
AcDbMText
 10
26.050193000816
 20
6.24375231310103
 30
0.0
 40
3.0
 41
0.0
 71
     5
 72
     1
  1
HV-M 6-VS 2
  7
CONVERTER_12
 73
     1
 44
1.20048019207683
  0
MTEXT
  5
1DA
330
71
100
AcDbEntity
  8
1
 62
     2
100
AcDbMText
 10
-19.52220926255959
 20
10.4937523131008
 30
0.0
 40
1.8
 41
0.0
 71
     1
 72
     1
  1
description
  7
CONVERTER_11
 73
     1
 44
1.20048019207683
  0
MTEXT
  5
1DB
330
71
100
AcDbEntity
  8
1
 62
     3
100
AcDbMText
 10
-30.7222092625596
 20
24.1187523131008
 30
0.0
 40
2.5
 41
0.0
 71
     5
 72
     1
  1
DIN A4
  7
CONVERTER_11
 73
     1
 44
1.20048019207683
  0
MTEXT
  5
1DC
330
71
100
AcDbEntity
  8
1
 62
     7
100
AcDbMText
 10
-216.8774047358086
 20
25.4937523131008
 30
0.0
 40
3.5
 41
0.0
 71
     5
 72
     1
  1
D
  7
CONVERTER_11
 73
     1
 44
1.20048019207683
  0
MTEXT
  5
1DD
330
71
100
AcDbEntity
  8
1
 62
     7
100
AcDbMText
 10
-216.8774047358086
 20
77.9937523131008
 30
0.0
 40
3.5
 41
0.0
 71
     5
 72
     1
  1
C
  7
CONVERTER_11
 73
     1
 44
1.20048019207683
  0
MTEXT
  5
1DE
330
71
100
AcDbEntity
  8
1
 62
     7
100
AcDbMText
 10
-216.8774047358086
 20
127.9937523131008
 30
0.0
 40
3.5
 41
0.0
 71
     5
 72
     1
  1
B
  7
CONVERTER_11
 73
     1
 44
1.20048019207683
  0
MTEXT
  5
1DF
330
71
100
AcDbEntity
  8
1
 62
     7
100
AcDbMText
 10
-216.8774047358086
 20
180.4937523131008
 30
0.0
 40
3.5
 41
0.0
 71
     5
 72
     1
  1
A
  7
CONVERTER_11
 73
     1
 44
1.20048019207683
  0
MTEXT
  5
1E0
330
71
100
AcDbEntity
  8
1
 62
     7
100
AcDbMText
 10
53.3725952641897
 20
0.49375231310069
 30
0.0
 40
3.5
 41
0.0
 71
     5
 72
     1
  1
6
  7
CONVERTER_11
 73
     1
 44
1.20048019207683
  0
MTEXT
  5
1E1
330
71
100
AcDbEntity
  8
1
 62
     7
100
AcDbMText
 10
4.12259526419049
 20
0.49375231310069
 30
0.0
 40
3.5
 41
0.0
 71
     5
 72
     1
  1
5
  7
CONVERTER_11
 73
     1
 44
1.20048019207683
  0
MTEXT
  5
1E2
330
71
100
AcDbEntity
  8
1
 62
     7
100
AcDbMText
 10
-45.87740473580959
 20
0.49375231310069
 30
0.0
 40
3.5
 41
0.0
 71
     5
 72
     1
  1
4
  7
CONVERTER_11
 73
     1
 44
1.20048019207683
  0
MTEXT
  5
1E3
330
71
100
AcDbEntity
  8
1
 62
     7
100
AcDbMText
 10
-95.87740473580948
 20
0.49375231310069
 30
0.0
 40
3.5
 41
0.0
 71
     5
 72
     1
  1
3
  7
CONVERTER_11
 73
     1
 44
1.20048019207683
  0
MTEXT
  5
1E4
330
71
100
AcDbEntity
  8
1
 62
     7
100
AcDbMText
 10
-145.8774047358095
 20
0.49375231310069
 30
0.0
 40
3.5
 41
0.0
 71
     5
 72
     1
  1
2
  7
CONVERTER_11
 73
     1
 44
1.20048019207683
  0
MTEXT
  5
1E5
330
71
100
AcDbEntity
  8
1
 62
     7
100
AcDbMText
 10
-195.1274047358091
 20
0.49375231310069
 30
0.0
 40
3.5
 41
0.0
 71
     5
 72
     1
  1
1
  7
CONVERTER_11
 73
     1
 44
1.20048019207683
  0
MTEXT
  5
1E6
330
71
100
AcDbEntity
  8
1
 62
     7
100
AcDbMText
 10
75.1225952641895
 20
25.4937523131008
 30
0.0
 40
3.5
 41
0.0
 71
     5
 72
     1
  1
D
  7
CONVERTER_11
 73
     1
 44
1.20048019207683
  0
MTEXT
  5
1E7
330
71
100
AcDbEntity
  8
1
 62
     7
100
AcDbMText
 10
75.1225952641895
 20
127.9937523131027
 30
0.0
 40
3.5
 41
0.0
 71
     5
 72
     1
  1
B
  7
CONVERTER_11
 73
     1
 44
1.20048019207683
  0
MTEXT
  5
1E8
330
71
100
AcDbEntity
  8
1
 62
     7
100
AcDbMText
 10
75.1225952641895
 20
180.4937523131008
 30
0.0
 40
3.5
 41
0.0
 71
     5
 72
     1
  1
A
  7
CONVERTER_11
 73
     1
 44
1.20048019207683
  0
MTEXT
  5
1E9
330
71
100
AcDbEntity
  8
1
 62
     7
100
AcDbMText
 10
75.1225952641895
 20
77.9937523131027
 30
0.0
 40
3.5
 41
0.0
 71
     5
 72
     1
  1
C
  7
CONVERTER_11
 73
     1
 44
1.20048019207683
  0
MTEXT
  5
1EA
330
71
100
AcDbEntity
  8
1
 62
     2
100
AcDbMText
 10
-91.36022398760701
 20
15.74375231310071
 30
0.0
 40
2.0
 41
0.0
 71
     5
 72
     1
  1
General Information\P- Simplified representation\P- Document excluded from change process\P- Linear dimensions [mm]
  7
CONVERTER_11
 73
     1
 44
1.20048019207683
  0
TEXT
  5
1EB
330
71
100
AcDbEntity
  8
1
 62
     7
100
AcDbText
 10
-19.02220926255978
 20
12.7937523131007
 30
0.0
 40
2.5
  1
0711917
 41
0.81
  7
CONVERTER_12
100
AcDbText
  0
MTEXT
  5
1EC
330
71
100
AcDbEntity
  8
1
 62
     2
100
AcDbMText
 10
-19.42220926255951
 20
18.9937523131008
 30
0.0
 40
1.8
 41
0.0
 71
     1
 72
     1
  1
ident.-No.
  7
CONVERTER_11
 73
     1
 44
1.20048019207683
  0
MTEXT
  5
1ED
330
71
100
AcDbEntity
  8
1
 62
     2
100
AcDbMText
 10
64.80418698251322
 20
27.4937523131008
 30
0.0
 40
1.8
 41
0.0
 71
     1
 72
     1
  1
scale
  7
CONVERTER_11
 73
     1
 44
1.20048019207683
  0
MTEXT
  5
1EF
330
71
100
AcDbEntity
  8
1
 62
     3
100
AcDbMText
 10
68.16339112335281
 20
21.2937523131009
 30
0.0
 40
2.5
 41
0.0
 71
     8
 72
     1
  1
1:1
  7
CONVERTER_13
 73
     1
 44
1.32052821128451
  0
TEXT
  5
1F0
330
71
100
AcDbEntity
  8
1
 62
     7
100
AcDbText
 10
-19.42220926255951
 20
21.2937523131007
 30
0.0
 40
2.5
  1
00528768
 41
0.81
  7
CONVERTER_12
100
AcDbText
  0
MTEXT
  5
1F2
330
71
100
AcDbEntity
  8
1
 62
     2
100
AcDbMText
 10
-19.42220926255951
 20
27.4937523131008
 30
0.0
 40
1.8
 41
0.0
 71
     1
 72
     1
  1
document-No. / RI
  7
CONVERTER_14
 73
     1
 44
1.32052821128451
  0
TEXT
  5
1F3
330
71
100
AcDbEntity
  8
1
 62
     3
100
AcDbText
 10
8.37779073744051
 20
12.7937523131007
 30
0.0
 40
2.5
  1
TECDOC 2D_Productdrawing
 41
0.81
  7
CONVERTER_12
100
AcDbText
  0
MTEXT
  5
1F4
330
71
100
AcDbEntity
  8
1
 62
     2
100
AcDbMText
 10
8.37779073744051
 20
18.99375231310071
 30
0.0
 40
1.8
 41
0.0
 71
     1
 72
     1
  1
document-type
  7
CONVERTER_11
 73
     1
 44
1.20048019207683
  0
MTEXT
  5
1F5
330
71
100
AcDbEntity
  8
1
 62
     2
100
AcDbMText
 10
38.20418698251339
 20
27.49375231310071
 30
0.0
 40
1.8
 41
0.0
 71
     1
 72
     1
  1
date
  7
CONVERTER_11
 73
     1
 44
1.32052821128451
  0
TEXT
  5
1F6
330
71
100
AcDbEntity
  8
1
 62
     3
100
AcDbText
 10
38.20418698251339
 20
21.2937523131007
 30
0.0
 40
2.5
  1
17.02.2018
 41
0.81
  7
CONVERTER_12
100
AcDbText
  0
TEXT
  5
1F7
330
71
100
AcDbEntity
  8
1
 62
     7
100
AcDbText
 10
0.6077029564963
 20
21.2937523131007
 30
0.0
 40
2.5
  1
00
 41
0.81
  7
CONVERTER_12
100
AcDbText
  0
TEXT
  5
1F8
330
71
100
AcDbEntity
  8
1
 62
     7
100
AcDbText
 10
-1.54866154054571
 20
21.2937523131007
 30
0.0
 40
2.5
  1
/
 41
0.9
  7
CONVERTER_11
100
AcDbText
  0
HATCH
  5
1F9
330
71
100
AcDbEntity
  8
1
  6
Continuous
 62
     2
100
AcDbHatch
 10
0.0
 20
0.0
 30
0.0
210
0.0
220
0.0
230
1.0
  2
_USER
 70
     0
 71
     1
 91
        1
 92
        1
 93
       12
 72
     1
 10
-39.25470854959841
 20
13.6464427892914
 11
-40.44750125176481
 21
13.6464427892914
 72
     1
 10
-40.44750125176481
 20
13.6464427892914
 11
-40.44750125176481
 21
14.78071489813522
 72
     1
 10
-40.44750125176481
 20
14.78071489813522
 11
-41.49715882967229
 21
14.78071489813522
 72
     1
 10
-41.49715882967229
 20
14.78071489813522
 11
-41.49715882967229
 21
13.6464427892914
 72
     1
 10
-41.49715882967229
 20
13.6464427892914
 11
-42.68995153183889
 21
13.6464427892914
 72
     1
 10
-42.68995153183889
 20
13.6464427892914
 11
-42.68995153183889
 21
16.7002523131026
 72
     1
 10
-42.68995153183889
 20
16.7002523131026
 11
-41.49715882967229
 21
16.7002523131026
 72
     1
 10
-41.49715882967229
 20
16.7002523131026
 11
-41.49715882967229
 21
15.631418979768
 72
     1
 10
-41.49715882967229
 20
15.631418979768
 11
-40.44750125176481
 21
15.631418979768
 72
     1
 10
-40.44750125176481
 20
15.631418979768
 11
-40.44750125176481
 21
16.7002523131026
 72
     1
 10
-40.44750125176481
 20
16.7002523131026
 11
-39.25470854959841
 21
16.7002523131026
 72
     1
 10
-39.25470854959841
 20
16.7002523131026
 11
-39.25470854959841
 21
13.6464427892914
 97
       12
330
166
330
167
330
151
330
150
330
14F
330
163
330
14E
330
164
330
165
330
14D
330
14C
330
14B
 75
     1
 76
     0
 52
45.0
 41
0.1
 77
     0
 78
     1
 53
45.0
 43
0.0
 44
0.0
 45
-0.0707106781186548
 46
0.0707106781186548
 79
     0
 98
        1
 10
0.0
 20
0.0
  0
HATCH
  5
1FA
330
71
100
AcDbEntity
  8
1
  6
Continuous
 62
     2
100
AcDbHatch
 10
0.0
 20
0.0
 30
0.0
210
0.0
220
0.0
230
1.0
  2
_USER
 70
     0
 71
     1
 91
        1
 92
        1
 93
       12
 72
     1
 10
-39.25470854959841
 20
13.6464427892914
 11
-40.44750125176481
 21
13.6464427892914
 72
     1
 10
-40.44750125176481
 20
13.6464427892914
 11
-40.44750125176481
 21
14.78071489813522
 72
     1
 10
-40.44750125176481
 20
14.78071489813522
 11
-41.49715882967229
 21
14.78071489813522
 72
     1
 10
-41.49715882967229
 20
14.78071489813522
 11
-41.49715882967229
 21
13.6464427892914
 72
     1
 10
-41.49715882967229
 20
13.6464427892914
 11
-42.68995153183889
 21
13.6464427892914
 72
     1
 10
-42.68995153183889
 20
13.6464427892914
 11
-42.68995153183889
 21
16.7002523131026
 72
     1
 10
-42.68995153183889
 20
16.7002523131026
 11
-41.49715882967229
 21
16.7002523131026
 72
     1
 10
-41.49715882967229
 20
16.7002523131026
 11
-41.49715882967229
 21
15.631418979768
 72
     1
 10
-41.49715882967229
 20
15.631418979768
 11
-40.44750125176481
 21
15.631418979768
 72
     1
 10
-40.44750125176481
 20
15.631418979768
 11
-40.44750125176481
 21
16.7002523131026
 72
     1
 10
-40.44750125176481
 20
16.7002523131026
 11
-39.25470854959841
 21
16.7002523131026
 72
     1
 10
-39.25470854959841
 20
16.7002523131026
 11
-39.25470854959841
 21
13.6464427892914
 97
       12
330
166
330
167
330
151
330
150
330
14F
330
163
330
14E
330
164
330
165
330
14D
330
14C
330
14B
 75
     1
 76
     0
 52
45.0
 41
0.1
 77
     0
 78
     1
 53
45.0
 43
0.0
 44
0.0
 45
-0.0707106781186548
 46
0.0707106781186548
 79
     0
 98
        1
 10
0.0
 20
0.0
  0
HATCH
  5
1FB
330
71
100
AcDbEntity
  8
1
  6
Continuous
 62
     2
100
AcDbHatch
 10
0.0
 20
0.0
 30
0.0
210
0.0
220
0.0
230
1.0
  2
_USER
 70
     0
 71
     1
 91
        1
 92
        1
 93
       10
 72
     1
 10
-37.0124092004101
 20
12.0322863267231
 11
-38.252913610663
 21
13.34106183692819
 72
     1
 10
-38.252913610663
 20
13.34106183692819
 11
-39.4457063128306
 21
13.34106183692819
 72
     1
 10
-39.4457063128306
 20
13.34106183692819
 11
-39.4457063128306
 21
10.28725231311711
 72
     1
 10
-39.4457063128306
 20
10.28725231311711
 11
-38.252913610663
 21
10.28725231311711
 72
     1
 10
-38.252913610663
 20
10.28725231311711
 11
-38.252913610663
 21
11.59602782332169
 72
     1
 10
-38.252913610663
 20
11.59602782332169
 11
-37.0124092004101
 21
10.28725231311711
 72
     1
 10
-37.0124092004101
 20
10.28725231311711
 11
-35.8196164982437
 21
10.28725231311711
 72
     1
 10
-35.8196164982437
 20
10.28725231311711
 11
-35.8196164982437
 21
13.34106183692819
 72
     1
 10
-35.8196164982437
 20
13.34106183692819
 11
-37.0124092004101
 21
13.34106183692819
 72
     1
 10
-37.0124092004101
 20
13.34106183692819
 11
-37.0124092004101
 21
12.0322863267231
 97
       10
330
174
330
144
330
143
330
146
330
16F
330
170
330
145
330
171
330
172
330
173
 75
     1
 76
     0
 52
45.0
 41
0.1
 77
     0
 78
     1
 53
45.0
 43
0.0
 44
0.0
 45
-0.0707106781186548
 46
0.0707106781186548
 79
     0
 98
        1
 10
0.0
 20
0.0
  0
HATCH
  5
1FC
330
71
100
AcDbEntity
  8
1
  6
Continuous
 62
     2
100
AcDbHatch
 10
0.0
 20
0.0
 30
0.0
210
0.0
220
0.0
230
1.0
  2
_USER
 70
     0
 71
     1
 91
        1
 92
        1
 93
       10
 72
     1
 10
-37.0124092004101
 20
12.0322863267231
 11
-38.252913610663
 21
13.34106183692819
 72
     1
 10
-38.252913610663
 20
13.34106183692819
 11
-39.4457063128306
 21
13.34106183692819
 72
     1
 10
-39.4457063128306
 20
13.34106183692819
 11
-39.4457063128306
 21
10.28725231311711
 72
     1
 10
-39.4457063128306
 20
10.28725231311711
 11
-38.252913610663
 21
10.28725231311711
 72
     1
 10
-38.252913610663
 20
10.28725231311711
 11
-38.252913610663
 21
11.59602782332169
 72
     1
 10
-38.252913610663
 20
11.59602782332169
 11
-37.0124092004101
 21
10.28725231311711
 72
     1
 10
-37.0124092004101
 20
10.28725231311711
 11
-35.8196164982437
 21
10.28725231311711
 72
     1
 10
-35.8196164982437
 20
10.28725231311711
 11
-35.8196164982437
 21
13.34106183692819
 72
     1
 10
-35.8196164982437
 20
13.34106183692819
 11
-37.0124092004101
 21
13.34106183692819
 72
     1
 10
-37.0124092004101
 20
13.34106183692819
 11
-37.0124092004101
 21
12.0322863267231
 97
       10
330
174
330
144
330
143
330
146
330
16F
330
170
330
145
330
171
330
172
330
173
 75
     1
 76
     0
 52
45.0
 41
0.1
 77
     0
 78
     1
 53
45.0
 43
0.0
 44
0.0
 45
-0.0707106781186548
 46
0.0707106781186548
 79
     0
 98
        1
 10
0.0
 20
0.0
  0
HATCH
  5
1FD
330
71
100
AcDbEntity
  8
1
  6
Continuous
 62
     2
100
AcDbHatch
 10
0.0
 20
0.0
 30
0.0
210
0.0
220
0.0
230
1.0
  2
_USER
 70
     0
 71
     1
 91
        1
 92
        1
 93
       10
 72
     1
 10
-31.76397037999038
 20
15.39147680289742
 11
-33.00447479024439
 21
16.7002523131026
 72
     1
 10
-33.00447479024439
 20
16.7002523131026
 11
-34.1972674924109
 21
16.7002523131026
 72
     1
 10
-34.1972674924109
 20
16.7002523131026
 11
-34.1972674924109
 21
13.6464427892914
 72
     1
 10
-34.1972674924109
 20
13.6464427892914
 11
-33.00447479024439
 21
13.6464427892914
 72
     1
 10
-33.00447479024439
 20
13.6464427892914
 11
-33.00447479024439
 21
14.9552182994961
 72
     1
 10
-33.00447479024439
 20
14.9552182994961
 11
-31.76397037999038
 21
13.6464427892914
 72
     1
 10
-31.76397037999038
 20
13.6464427892914
 11
-30.57117767782378
 21
13.6464427892914
 72
     1
 10
-30.57117767782378
 20
13.6464427892914
 11
-30.57117767782378
 21
16.7002523131026
 72
     1
 10
-30.57117767782378
 20
16.7002523131026
 11
-31.76397037999038
 21
16.7002523131026
 72
     1
 10
-31.76397037999038
 20
16.7002523131026
 11
-31.76397037999038
 21
15.39147680289742
 97
       10
330
179
330
141
330
140
330
17A
330
13F
330
175
330
176
330
177
330
178
330
142
 75
     1
 76
     0
 52
45.0
 41
0.1
 77
     0
 78
     1
 53
45.0
 43
0.0
 44
0.0
 45
-0.0707106781186548
 46
0.0707106781186548
 79
     0
 98
        1
 10
0.0
 20
0.0
  0
HATCH
  5
1FE
330
71
100
AcDbEntity
  8
1
  6
Continuous
 62
     2
100
AcDbHatch
 10
0.0
 20
0.0
 30
0.0
210
0.0
220
0.0
230
1.0
  2
_USER
 70
     0
 71
     1
 91
        1
 92
        1
 93
       10
 72
     1
 10
-31.76397037999038
 20
15.39147680289742
 11
-33.00447479024439
 21
16.7002523131026
 72
     1
 10
-33.00447479024439
 20
16.7002523131026
 11
-34.1972674924109
 21
16.7002523131026
 72
     1
 10
-34.1972674924109
 20
16.7002523131026
 11
-34.1972674924109
 21
13.6464427892914
 72
     1
 10
-34.1972674924109
 20
13.6464427892914
 11
-33.00447479024439
 21
13.6464427892914
 72
     1
 10
-33.00447479024439
 20
13.6464427892914
 11
-33.00447479024439
 21
14.9552182994961
 72
     1
 10
-33.00447479024439
 20
14.9552182994961
 11
-31.76397037999038
 21
13.6464427892914
 72
     1
 10
-31.76397037999038
 20
13.6464427892914
 11
-30.57117767782378
 21
13.6464427892914
 72
     1
 10
-30.57117767782378
 20
13.6464427892914
 11
-30.57117767782378
 21
16.7002523131026
 72
     1
 10
-30.57117767782378
 20
16.7002523131026
 11
-31.76397037999038
 21
16.7002523131026
 72
     1
 10
-31.76397037999038
 20
16.7002523131026
 11
-31.76397037999038
 21
15.39147680289742
 97
       10
330
179
330
141
330
140
330
17A
330
13F
330
175
330
176
330
177
330
178
330
142
 75
     1
 76
     0
 52
45.0
 41
0.1
 77
     0
 78
     1
 53
45.0
 43
0.0
 44
0.0
 45
-0.0707106781186548
 46
0.0707106781186548
 79
     0
 98
        1
 10
0.0
 20
0.0
  0
HATCH
  5
1FF
330
71
100
AcDbEntity
  8
1
  6
Continuous
 62
     2
100
AcDbHatch
 10
0.0
 20
0.0
 30
0.0
210
0.0
220
0.0
230
1.0
  2
_USER
 70
     0
 71
     1
 91
        1
 92
        1
 93
        8
 72
     1
 10
-32.86149059686989
 20
13.34106183692819
 11
-35.67648137398351
 21
13.34106183692819
 72
     1
 10
-35.67648137398351
 20
13.34106183692819
 11
-35.67648137398351
 21
12.5557965308046
 72
     1
 10
-35.67648137398351
 20
12.5557965308046
 11
-34.8653823365089
 21
12.5557965308046
 72
     1
 10
-34.8653823365089
 20
12.5557965308046
 11
-34.8653823365089
 21
10.28725231311711
 72
     1
 10
-34.8653823365089
 20
10.28725231311711
 11
-33.67258963434239
 21
10.28725231311711
 72
     1
 10
-33.67258963434239
 20
10.28725231311711
 11
-33.67258963434239
 21
12.5557965308046
 72
     1
 10
-33.67258963434239
 20
12.5557965308046
 11
-32.86149059686989
 21
12.5557965308046
 72
     1
 10
-32.86149059686989
 20
12.5557965308046
 11
-32.86149059686989
 21
13.34106183692819
 97
        8
330
13B
330
17B
330
13A
330
17C
330
17D
330
13E
330
13D
330
13C
 75
     1
 76
     0
 52
45.0
 41
0.1
 77
     0
 78
     1
 53
45.0
 43
0.0
 44
0.0
 45
-0.0707106781186548
 46
0.0707106781186548
 79
     0
 98
        1
 10
0.0
 20
0.0
  0
HATCH
  5
200
330
71
100
AcDbEntity
  8
1
  6
Continuous
 62
     2
100
AcDbHatch
 10
0.0
 20
0.0
 30
0.0
210
0.0
220
0.0
230
1.0
  2
_USER
 70
     0
 71
     1
 91
        1
 92
        1
 93
        8
 72
     1
 10
-32.86149059686989
 20
13.34106183692819
 11
-35.67648137398351
 21
13.34106183692819
 72
     1
 10
-35.67648137398351
 20
13.34106183692819
 11
-35.67648137398351
 21
12.5557965308046
 72
     1
 10
-35.67648137398351
 20
12.5557965308046
 11
-34.8653823365089
 21
12.5557965308046
 72
     1
 10
-34.8653823365089
 20
12.5557965308046
 11
-34.8653823365089
 21
10.28725231311711
 72
     1
 10
-34.8653823365089
 20
10.28725231311711
 11
-33.67258963434239
 21
10.28725231311711
 72
     1
 10
-33.67258963434239
 20
10.28725231311711
 11
-33.67258963434239
 21
12.5557965308046
 72
     1
 10
-33.67258963434239
 20
12.5557965308046
 11
-32.86149059686989
 21
12.5557965308046
 72
     1
 10
-32.86149059686989
 20
12.5557965308046
 11
-32.86149059686989
 21
13.34106183692819
 97
        8
330
13B
330
17B
330
13A
330
17C
330
17D
330
13E
330
13D
330
13C
 75
     1
 76
     0
 52
45.0
 41
0.1
 77
     0
 78
     1
 53
45.0
 43
0.0
 44
0.0
 45
-0.0707106781186548
 46
0.0707106781186548
 79
     0
 98
        1
 10
0.0
 20
0.0
  0
HATCH
  5
201
330
71
100
AcDbEntity
  8
1
  6
Continuous
 62
     2
100
AcDbHatch
 10
0.0
 20
0.0
 30
0.0
210
0.0
220
0.0
230
1.0
  2
_USER
 70
     0
 71
     1
 91
        2
 92
        1
 93
        8
 72
     1
 10
-30.7230631409229
 20
10.28725231311711
 11
-30.93454319439869
 21
10.82821285733499
 72
     1
 10
-30.93454319439869
 20
10.82821285733499
 11
-32.0669847710725
 21
10.82821285733499
 72
     1
 10
-32.0669847710725
 20
10.82821285733499
 11
-32.27846482454831
 21
10.28725231311711
 72
     1
 10
-32.27846482454831
 20
10.28725231311711
 11
-33.51896923480129
 21
10.28725231311711
 72
     1
 10
-33.51896923480129
 20
10.28725231311711
 11
-32.12101618786198
 21
13.34106183692819
 72
     1
 10
-32.12101618786198
 20
13.34106183692819
 11
-30.88051177760929
 21
13.34106183692819
 72
     1
 10
-30.88051177760929
 20
13.34106183692819
 11
-29.48255873066898
 21
10.28725231311711
 72
     1
 10
-29.48255873066898
 20
10.28725231311711
 11
-30.7230631409229
 21
10.28725231311711
 97
        8
330
17F
330
180
330
137
330
181
330
136
330
139
330
17E
330
138
 92
       16
 93
        3
 72
     1
 10
-31.8009292199275
 20
11.50877612264159
 11
-31.50076398273509
 21
12.27659108862829
 72
     1
 10
-31.50076398273509
 20
12.27659108862829
 11
-31.20059874554499
 21
11.50877612264159
 72
     1
 10
-31.20059874554499
 20
11.50877612264159
 11
-31.8009292199275
 21
11.50877612264159
 97
        3
330
135
330
183
330
182
 75
     1
 76
     0
 52
45.0
 41
0.1
 77
     0
 78
     1
 53
45.0
 43
0.0
 44
0.0
 45
-0.0707106781186548
 46
0.0707106781186548
 79
     0
 98
        1
 10
0.0
 20
0.0
  0
HATCH
  5
202
330
71
100
AcDbEntity
  8
1
  6
Continuous
 62
     2
100
AcDbHatch
 10
0.0
 20
0.0
 30
0.0
210
0.0
220
0.0
230
1.0
  2
_USER
 70
     0
 71
     1
 91
        2
 92
        1
 93
        8
 72
     1
 10
-30.7230631409229
 20
10.28725231311711
 11
-30.93454319439869
 21
10.82821285733499
 72
     1
 10
-30.93454319439869
 20
10.82821285733499
 11
-32.0669847710725
 21
10.82821285733499
 72
     1
 10
-32.0669847710725
 20
10.82821285733499
 11
-32.27846482454831
 21
10.28725231311711
 72
     1
 10
-32.27846482454831
 20
10.28725231311711
 11
-33.51896923480129
 21
10.28725231311711
 72
     1
 10
-33.51896923480129
 20
10.28725231311711
 11
-32.12101618786198
 21
13.34106183692819
 72
     1
 10
-32.12101618786198
 20
13.34106183692819
 11
-30.88051177760929
 21
13.34106183692819
 72
     1
 10
-30.88051177760929
 20
13.34106183692819
 11
-29.48255873066898
 21
10.28725231311711
 72
     1
 10
-29.48255873066898
 20
10.28725231311711
 11
-30.7230631409229
 21
10.28725231311711
 97
        8
330
17F
330
180
330
137
330
181
330
136
330
139
330
17E
330
138
 92
       16
 93
        3
 72
     1
 10
-31.8009292199275
 20
11.50877612264159
 11
-31.50076398273509
 21
12.27659108862829
 72
     1
 10
-31.50076398273509
 20
12.27659108862829
 11
-31.20059874554499
 21
11.50877612264159
 72
     1
 10
-31.20059874554499
 20
11.50877612264159
 11
-31.8009292199275
 21
11.50877612264159
 97
        3
330
135
330
183
330
182
 75
     1
 76
     0
 52
45.0
 41
0.1
 77
     0
 78
     1
 53
45.0
 43
0.0
 44
0.0
 45
-0.0707106781186548
 46
0.0707106781186548
 79
     0
 98
        1
 10
0.0
 20
0.0
  0
HATCH
  5
203
330
71
100
AcDbEntity
  8
1
  6
Continuous
 62
     2
100
AcDbHatch
 10
0.0
 20
0.0
 30
0.0
210
0.0
220
0.0
230
1.0
  2
_USER
 70
     0
 71
     1
 91
        1
 92
        1
 93
        4
 72
     1
 10
-29.09211472713699
 20
13.6464427892914
 11
-30.33261913738988
 21
13.6464427892914
 72
     1
 10
-30.33261913738988
 20
13.6464427892914
 11
-30.33261913738988
 21
16.7002523131026
 72
     1
 10
-30.33261913738988
 20
16.7002523131026
 11
-29.09211472713699
 21
16.7002523131026
 72
     1
 10
-29.09211472713699
 20
16.7002523131026
 11
-29.09211472713699
 21
13.6464427892914
 97
        4
330
132
330
134
330
184
330
133
 75
     1
 76
     0
 52
45.0
 41
0.1
 77
     0
 78
     1
 53
45.0
 43
0.0
 44
0.0
 45
-0.0707106781186548
 46
0.0707106781186548
 79
     0
 98
        1
 10
0.0
 20
0.0
  0
HATCH
  5
204
330
71
100
AcDbEntity
  8
1
  6
Continuous
 62
     2
100
AcDbHatch
 10
0.0
 20
0.0
 30
0.0
210
0.0
220
0.0
230
1.0
  2
_USER
 70
     0
 71
     1
 91
        1
 92
        1
 93
        4
 72
     1
 10
-29.09211472713699
 20
13.6464427892914
 11
-30.33261913738988
 21
13.6464427892914
 72
     1
 10
-30.33261913738988
 20
13.6464427892914
 11
-30.33261913738988
 21
16.7002523131026
 72
     1
 10
-30.33261913738988
 20
16.7002523131026
 11
-29.09211472713699
 21
16.7002523131026
 72
     1
 10
-29.09211472713699
 20
16.7002523131026
 11
-29.09211472713699
 21
13.6464427892914
 97
        4
330
132
330
134
330
184
330
133
 75
     1
 76
     0
 52
45.0
 41
0.1
 77
     0
 78
     1
 53
45.0
 43
0.0
 44
0.0
 45
-0.0707106781186548
 46
0.0707106781186548
 79
     0
 98
        1
 10
0.0
 20
0.0
  0
HATCH
  5
205
330
71
100
AcDbEntity
  8
1
  6
Continuous
 62
     2
100
AcDbHatch
 10
0.0
 20
0.0
 30
0.0
210
0.0
220
0.0
230
1.0
  2
_USER
 70
     0
 71
     1
 91
        1
 92
        1
 93
       12
 72
     1
 10
-24.86962856146619
 20
16.7002523131026
 11
-26.1721581922327
 21
15.2273017830664
 72
     1
 10
-26.1721581922327
 20
15.2273017830664
 11
-24.7742051452924
 21
13.6464427892914
 72
     1
 10
-24.7742051452924
 20
13.6464427892914
 11
-26.1769293630407
 21
13.6464427892914
 72
     1
 10
-26.1769293630407
 20
13.6464427892914
 11
-26.8735203011062
 21
14.43417457458511
 72
     1
 10
-26.8735203011062
 20
14.43417457458511
 11
-27.57011123917189
 21
13.6464427892914
 72
     1
 10
-27.57011123917189
 20
13.6464427892914
 11
-28.97283545692011
 21
13.6464427892914
 72
     1
 10
-28.97283545692011
 20
13.6464427892914
 11
-27.57488240997981
 21
15.2273017830664
 72
     1
 10
-27.57488240997981
 20
15.2273017830664
 11
-28.87741204074729
 21
16.7002523131026
 72
     1
 10
-28.87741204074729
 20
16.7002523131026
 11
-27.47468782299799
 21
16.7002523131026
 72
     1
 10
-27.47468782299799
 20
16.7002523131026
 11
-26.8735203011062
 21
16.02042899154711
 72
     1
 10
-26.8735203011062
 20
16.02042899154711
 11
-26.27235277921341
 21
16.7002523131026
 72
     1
 10
-26.27235277921341
 20
16.7002523131026
 11
-24.86962856146619
 21
16.7002523131026
 97
       12
330
12D
330
12C
330
12B
330
188
330
189
330
185
330
186
330
131
330
130
330
12F
330
12E
330
187
 75
     1
 76
     0
 52
45.0
 41
0.1
 77
     0
 78
     1
 53
45.0
 43
0.0
 44
0.0
 45
-0.0707106781186548
 46
0.0707106781186548
 79
     0
 98
        1
 10
0.0
 20
0.0
  0
HATCH
  5
206
330
71
100
AcDbEntity
  8
1
  6
Continuous
 62
     2
100
AcDbHatch
 10
0.0
 20
0.0
 30
0.0
210
0.0
220
0.0
230
1.0
  2
_USER
 70
     0
 71
     1
 91
        1
 92
        1
 93
       12
 72
     1
 10
-24.86962856146619
 20
16.7002523131026
 11
-26.1721581922327
 21
15.2273017830664
 72
     1
 10
-26.1721581922327
 20
15.2273017830664
 11
-24.7742051452924
 21
13.6464427892914
 72
     1
 10
-24.7742051452924
 20
13.6464427892914
 11
-26.1769293630407
 21
13.6464427892914
 72
     1
 10
-26.1769293630407
 20
13.6464427892914
 11
-26.8735203011062
 21
14.43417457458511
 72
     1
 10
-26.8735203011062
 20
14.43417457458511
 11
-27.57011123917189
 21
13.6464427892914
 72
     1
 10
-27.57011123917189
 20
13.6464427892914
 11
-28.97283545692011
 21
13.6464427892914
 72
     1
 10
-28.97283545692011
 20
13.6464427892914
 11
-27.57488240997981
 21
15.2273017830664
 72
     1
 10
-27.57488240997981
 20
15.2273017830664
 11
-28.87741204074729
 21
16.7002523131026
 72
     1
 10
-28.87741204074729
 20
16.7002523131026
 11
-27.47468782299799
 21
16.7002523131026
 72
     1
 10
-27.47468782299799
 20
16.7002523131026
 11
-26.8735203011062
 21
16.02042899154711
 72
     1
 10
-26.8735203011062
 20
16.02042899154711
 11
-26.27235277921341
 21
16.7002523131026
 72
     1
 10
-26.27235277921341
 20
16.7002523131026
 11
-24.86962856146619
 21
16.7002523131026
 97
       12
330
12D
330
12C
330
12B
330
188
330
189
330
185
330
186
330
131
330
130
330
12F
330
12E
330
187
 75
     1
 76
     0
 52
45.0
 41
0.1
 77
     0
 78
     1
 53
45.0
 43
0.0
 44
0.0
 45
-0.0707106781186548
 46
0.0707106781186548
 79
     0
 98
        1
 10
0.0
 20
0.0
  0
HATCH
  5
207
330
71
100
AcDbEntity
  8
1
  6
Continuous
 62
     2
100
AcDbHatch
 10
0.0
 20
0.0
 30
0.0
210
0.0
220
0.0
230
1.0
  2
_USER
 70
     0
 71
     1
 91
        2
 92
        1
 93
        6
 72
     1
 10
-43.8873639756122
 20
14.58952103043521
 11
-44.64613156339249
 21
14.58952103043521
 72
     1
 10
-44.64613156339249
 20
14.58952103043521
 11
-44.64613156339249
 21
13.6464427892914
 72
     1
 10
-44.64613156339249
 20
13.6464427892914
 11
-45.88663597364661
 21
13.6464427892914
 72
     1
 10
-45.88663597364661
 20
13.6464427892914
 11
-45.88663597364661
 21
16.7002523131026
 72
     1
 10
-45.88663597364661
 20
16.7002523131026
 11
-43.8873639756122
 21
16.7002523131026
 72
     2
 10
-43.8873639756122
 20
15.64488667176892
 40
1.05536564133371
 50
270.0
 51
450.0
 73
     0
 97
        6
330
155
330
154
330
161
330
160
330
156
330
1A6
 92
       16
 93
        4
 72
     2
 10
-44.32883650185059
 20
15.68428264299141
 40
0.35286382467112
 50
270.0
 51
450.0
 73
     1
 72
     1
 10
-44.32883650185059
 20
16.0371464676625
 11
-44.64613156339249
 21
16.0371464676625
 72
     1
 10
-44.64613156339249
 20
16.0371464676625
 11
-44.64613156339249
 21
15.33141881832029
 72
     1
 10
-44.64613156339249
 20
15.33141881832029
 11
-44.32883650185059
 21
15.33141881832029
 97
        4
330
1BA
330
152
330
162
330
153
 75
     1
 76
     0
 52
45.0
 41
0.1
 77
     0
 78
     1
 53
45.0
 43
0.0
 44
0.0
 45
-0.0707106781186548
 46
0.0707106781186548
 79
     0
 98
        1
 10
0.0
 20
0.0
  0
HATCH
  5
208
330
71
100
AcDbEntity
  8
1
  6
Continuous
 62
     2
100
AcDbHatch
 10
0.0
 20
0.0
 30
0.0
210
0.0
220
0.0
230
1.0
  2
_USER
 70
     0
 71
     1
 91
        2
 92
        1
 93
        6
 72
     1
 10
-43.8873639756122
 20
14.58952103043521
 11
-44.64613156339249
 21
14.58952103043521
 72
     1
 10
-44.64613156339249
 20
14.58952103043521
 11
-44.64613156339249
 21
13.6464427892914
 72
     1
 10
-44.64613156339249
 20
13.6464427892914
 11
-45.88663597364661
 21
13.6464427892914
 72
     1
 10
-45.88663597364661
 20
13.6464427892914
 11
-45.88663597364661
 21
16.7002523131026
 72
     1
 10
-45.88663597364661
 20
16.7002523131026
 11
-43.8873639756122
 21
16.7002523131026
 72
     2
 10
-43.8873639756122
 20
15.64488667176892
 40
1.05536564133371
 50
270.0
 51
450.0
 73
     0
 97
        6
330
155
330
154
330
161
330
160
330
156
330
1A6
 92
       16
 93
        4
 72
     2
 10
-44.32883650185059
 20
15.68428264299141
 40
0.35286382467112
 50
270.0
 51
450.0
 73
     1
 72
     1
 10
-44.32883650185059
 20
16.0371464676625
 11
-44.64613156339249
 21
16.0371464676625
 72
     1
 10
-44.64613156339249
 20
16.0371464676625
 11
-44.64613156339249
 21
15.33141881832029
 72
     1
 10
-44.64613156339249
 20
15.33141881832029
 11
-44.32883650185059
 21
15.33141881832029
 97
        4
330
1BA
330
152
330
162
330
153
 75
     1
 76
     0
 52
45.0
 41
0.1
 77
     0
 78
     1
 53
45.0
 43
0.0
 44
0.0
 45
-0.0707106781186548
 46
0.0707106781186548
 79
     0
 98
        1
 10
0.0
 20
0.0
  0
HATCH
  5
209
330
71
100
AcDbEntity
  8
1
  6
Continuous
 62
     2
100
AcDbHatch
 10
0.0
 20
0.0
 30
0.0
210
0.0
220
0.0
230
1.0
  2
_USER
 70
     0
 71
     1
 91
        2
 92
        1
 93
        4
 72
     2
 10
-41.3308212272531
 20
11.2755820647196
 40
2.065479772208566
 50
62.45185182430634
 51
117.5481481756662
 73
     1
 72
     2
 10
-41.6117611190864
 20
11.81415707502239
 40
1.458034083651485
 50
117.5481481756619
 51
242.451851824338
 73
     1
 72
     2
 10
-41.3308212272531
 20
12.3527320853257
 40
2.06547977220851
 50
242.4518518243405
 51
297.548148175687
 73
     1
 72
     2
 10
-41.0498813354198
 20
11.81415707502239
 40
1.458034083652003
 50
297.548148175701
 51
422.451851824299
 73
     1
 97
        4
330
1B2
330
1B1
330
1B3
330
1B0
 92
       16
 93
        4
 72
     2
 10
-41.53056126359951
 20
11.81415707502239
 40
0.7717997786796947
 50
321.8795802028417
 51
398.1204197971536
 73
     1
 72
     2
 10
-41.3308212272531
 20
11.9708882531429
 40
0.5179085730133021
 50
38.12041979714734
 51
141.8795802028585
 73
     1
 72
     2
 10
-41.131081190907
 20
11.81415707502239
 40
0.7717997786794665
 50
141.879580202836
 51
218.1204197971687
 73
     1
 72
     2
 10
-41.3308212272531
 20
11.6574258969024
 40
0.5179085730137397
 50
218.1204197971938
 51
321.8795802028004
 73
     1
 97
        4
330
1CE
330
1CB
330
1CC
330
1CD
 75
     1
 76
     0
 52
45.0
 41
0.1
 77
     0
 78
     1
 53
45.0
 43
0.0
 44
0.0
 45
-0.0707106781186548
 46
0.0707106781186548
 79
     0
 98
        1
 10
0.0
 20
0.0
  0
HATCH
  5
20A
330
71
100
AcDbEntity
  8
1
  6
Continuous
 62
     2
100
AcDbHatch
 10
0.0
 20
0.0
 30
0.0
210
0.0
220
0.0
230
1.0
  2
_USER
 70
     0
 71
     1
 91
        2
 92
        1
 93
        4
 72
     2
 10
-41.3308212272531
 20
11.2755820647196
 40
2.065479772208566
 50
62.45185182430634
 51
117.5481481756662
 73
     1
 72
     2
 10
-41.6117611190864
 20
11.81415707502239
 40
1.458034083651485
 50
117.5481481756619
 51
242.451851824338
 73
     1
 72
     2
 10
-41.3308212272531
 20
12.3527320853257
 40
2.06547977220851
 50
242.4518518243405
 51
297.548148175687
 73
     1
 72
     2
 10
-41.0498813354198
 20
11.81415707502239
 40
1.458034083652003
 50
297.548148175701
 51
422.451851824299
 73
     1
 97
        4
330
1B2
330
1B1
330
1B3
330
1B0
 92
       16
 93
        4
 72
     2
 10
-41.53056126359951
 20
11.81415707502239
 40
0.7717997786796947
 50
321.8795802028417
 51
398.1204197971536
 73
     1
 72
     2
 10
-41.3308212272531
 20
11.9708882531429
 40
0.5179085730133021
 50
38.12041979714734
 51
141.8795802028585
 73
     1
 72
     2
 10
-41.131081190907
 20
11.81415707502239
 40
0.7717997786794665
 50
141.879580202836
 51
218.1204197971687
 73
     1
 72
     2
 10
-41.3308212272531
 20
11.6574258969024
 40
0.5179085730137397
 50
218.1204197971938
 51
321.8795802028004
 73
     1
 97
        4
330
1CE
330
1CB
330
1CC
330
1CD
 75
     1
 76
     0
 52
45.0
 41
0.1
 77
     0
 78
     1
 53
45.0
 43
0.0
 44
0.0
 45
-0.0707106781186548
 46
0.0707106781186548
 79
     0
 98
        1
 10
0.0
 20
0.0
  0
HATCH
  5
20B
330
71
100
AcDbEntity
  8
1
  6
Continuous
 62
     2
100
AcDbHatch
 10
0.0
 20
0.0
 30
0.0
210
0.0
220
0.0
230
1.0
  2
_USER
 70
     0
 71
     1
 91
        2
 92
        1
 93
       12
 72
     1
 10
-34.43582603284381
 20
16.00223870765962
 11
-35.77175385927149
 21
16.00223870765962
 72
     1
 10
-35.77175385927149
 20
16.00223870765962
 11
-35.77175385927149
 21
15.52235435391791
 72
     1
 10
-35.77175385927149
 20
15.52235435391791
 11
-34.43582603284381
 21
15.52235435391791
 72
     1
 10
-34.43582603284381
 20
15.52235435391791
 11
-34.43582603284381
 21
14.82434074847561
 72
     1
 10
-34.43582603284381
 20
14.82434074847561
 11
-35.77175385927149
 21
14.82434074847561
 72
     1
 10
-35.77175385927149
 20
14.82434074847561
 11
-35.77175385927149
 21
14.3444563947339
 72
     1
 10
-35.77175385927149
 20
14.3444563947339
 11
-34.43582603284381
 21
14.3444563947339
 72
     1
 10
-34.43582603284381
 20
14.3444563947339
 11
-34.43582603284381
 21
13.6464427892914
 72
     1
 10
-34.43582603284381
 20
13.6464427892914
 11
-37.5861457566248
 21
13.6464427892914
 72
     2
 10
-37.5861457566248
 20
15.17334755119671
 40
1.52690476190589
 50
90.0
 51
270.0
 73
     0
 72
     1
 10
-37.5861457566248
 20
16.7002523131026
 11
-34.43582603284381
 21
16.7002523131026
 72
     1
 10
-34.43582603284381
 20
16.7002523131026
 11
-34.43582603284381
 21
16.00223870765962
 97
       12
330
169
330
1BB
330
16A
330
16B
330
16C
330
16D
330
14A
330
149
330
148
330
147
330
16E
330
168
 92
       16
 93
        4
 72
     2
 10
-37.3698737464596
 20
15.33007872931719
 40
0.517908573013522
 50
38.12041979714398
 51
141.8795802028497
 73
     1
 72
     2
 10
-37.17013371011331
 20
15.17334755119671
 40
0.7717997786796735
 50
141.8795802028403
 51
218.120419797156
 73
     1
 72
     2
 10
-37.3698737464596
 20
15.01661637307629
 40
0.5179085730134494
 50
218.1204197971503
 51
321.879580202856
 73
     1
 72
     2
 10
-37.56961378280579
 20
15.17334755119671
 40
0.7717997786796351
 50
321.879580202844
 51
398.1204197971597
 73
     1
 97
        4
330
1B5
330
1B4
330
1AF
330
1AE
 75
     1
 76
     0
 52
45.0
 41
0.1
 77
     0
 78
     1
 53
45.0
 43
0.0
 44
0.0
 45
-0.0707106781186548
 46
0.0707106781186548
 79
     0
 98
        1
 10
0.0
 20
0.0
  0
HATCH
  5
20C
330
71
100
AcDbEntity
  8
1
  6
Continuous
 62
     2
100
AcDbHatch
 10
0.0
 20
0.0
 30
0.0
210
0.0
220
0.0
230
1.0
  2
_USER
 70
     0
 71
     1
 91
        2
 92
        1
 93
       12
 72
     1
 10
-34.43582603284381
 20
16.00223870765962
 11
-35.77175385927149
 21
16.00223870765962
 72
     1
 10
-35.77175385927149
 20
16.00223870765962
 11
-35.77175385927149
 21
15.52235435391791
 72
     1
 10
-35.77175385927149
 20
15.52235435391791
 11
-34.43582603284381
 21
15.52235435391791
 72
     1
 10
-34.43582603284381
 20
15.52235435391791
 11
-34.43582603284381
 21
14.82434074847561
 72
     1
 10
-34.43582603284381
 20
14.82434074847561
 11
-35.77175385927149
 21
14.82434074847561
 72
     1
 10
-35.77175385927149
 20
14.82434074847561
 11
-35.77175385927149
 21
14.3444563947339
 72
     1
 10
-35.77175385927149
 20
14.3444563947339
 11
-34.43582603284381
 21
14.3444563947339
 72
     1
 10
-34.43582603284381
 20
14.3444563947339
 11
-34.43582603284381
 21
13.6464427892914
 72
     1
 10
-34.43582603284381
 20
13.6464427892914
 11
-37.5861457566248
 21
13.6464427892914
 72
     2
 10
-37.5861457566248
 20
15.17334755119671
 40
1.52690476190589
 50
90.0
 51
270.0
 73
     0
 72
     1
 10
-37.5861457566248
 20
16.7002523131026
 11
-34.43582603284381
 21
16.7002523131026
 72
     1
 10
-34.43582603284381
 20
16.7002523131026
 11
-34.43582603284381
 21
16.00223870765962
 97
       12
330
169
330
1BB
330
16A
330
16B
330
16C
330
16D
330
14A
330
149
330
148
330
147
330
16E
330
168
 92
       16
 93
        4
 72
     2
 10
-37.3698737464596
 20
15.33007872931719
 40
0.517908573013522
 50
38.12041979714398
 51
141.8795802028497
 73
     1
 72
     2
 10
-37.17013371011331
 20
15.17334755119671
 40
0.7717997786796735
 50
141.8795802028403
 51
218.120419797156
 73
     1
 72
     2
 10
-37.3698737464596
 20
15.01661637307629
 40
0.5179085730134494
 50
218.1204197971503
 51
321.879580202856
 73
     1
 72
     2
 10
-37.56961378280579
 20
15.17334755119671
 40
0.7717997786796351
 50
321.879580202844
 51
398.1204197971597
 73
     1
 97
        4
330
1B5
330
1B4
330
1AF
330
1AE
 75
     1
 76
     0
 52
45.0
 41
0.1
 77
     0
 78
     1
 53
45.0
 43
0.0
 44
0.0
 45
-0.0707106781186548
 46
0.0707106781186548
 79
     0
 98
        1
 10
0.0
 20
0.0
  0
HATCH
  5
20D
330
71
100
AcDbEntity
  8
1
  6
Continuous
 62
     2
100
AcDbHatch
 10
0.0
 20
0.0
 30
0.0
210
0.0
220
0.0
230
1.0
  2
_USER
 70
     0
 71
     1
 91
        4
 92
        1
 93
        8
 72
     1
 10
-46.36375305451341
 20
16.27600769770061
 11
-46.36375305451341
 21
10.7114969285004
 72
     2
 10
-46.78799766989729
 20
10.7114969285004
 40
0.4242446153832908
 50
0.0
 51
90.0
 73
     0
 72
     1
 10
-46.78799766989729
 20
10.28725231311711
 11
-52.2613097606141
 21
10.28725231311711
 72
     2
 10
-52.2613097606141
 20
10.7114969285004
 40
0.4242446153828041
 50
90.0
 51
180.0
 73
     0
 72
     1
 10
-52.6855543759969
 20
10.7114969285004
 11
-52.6855543759969
 21
16.27600769770061
 72
     2
 10
-52.2613097606141
 20
16.27600769770061
 40
0.4242446153837989
 50
180.0
 51
270.0
 73
     0
 72
     1
 10
-52.2613097606141
 20
16.70025231308441
 11
-46.78799766989729
 21
16.70025231308441
 72
     2
 10
-46.78799766989729
 20
16.27600769770061
 40
0.424244615383877
 50
270.0
 51
360.0
 73
     0
 97
        8
330
15D
330
1AB
330
15E
330
1B6
330
15B
330
1AD
330
15C
330
1AC
 92
       16
 93
        1
 72
     2
 10
-49.64172411009659
 20
13.9571254693451
 40
0.4709789327785074
 50
0.0
 51
360.0
 73
     1
 97
        1
330
1D1
 92
       16
 93
        8
 72
     2
 10
-49.09186639733591
 20
12.84798386937669
 40
0.3157169230765298
 50
115.3740086783507
 51
180.0
 73
     1
 72
     1
 10
-49.4075833204127
 20
12.84798386937669
 11
-49.4075833204127
 21
12.26613246268161
 72
     2
 10
-49.09186639733591
 20
12.26613246268161
 40
0.3157169230767849
 50
180.0
 51
269.8110329574567
 73
     1
 72
     2
 10
-49.08625026202589
 20
13.9689674102506
 40
2.018561131933267
 50
269.8110329575862
 51
450.1889670424138
 73
     1
 72
     2
 10
-49.09186639733591
 20
15.6718023578197
 40
0.3157169230760728
 50
90.18896704254334
 51
180.0
 73
     1
 72
     1
 10
-49.4075833204127
 20
15.6718023578197
 11
-49.4075833204127
 21
15.06626706931291
 72
     2
 10
-49.09186639733591
 20
15.06626706931291
 40
0.3157169230767849
 50
180.0
 51
244.6259913216488
 73
     1
 72
     2
 10
-49.61790909542378
 20
13.9571254693451
 40
0.9118481501444543
 50
295.374008678192
 51
424.6259913218238
 73
     0
 97
        8
330
1C3
330
124
330
1C0
330
1C1
330
19F
330
123
330
1C2
330
19E
 92
       16
 93
       12
 72
     2
 10
-51.66741508386761
 20
11.3155247917507
 40
0.3157169230756836
 50
180.0
 51
270.0
 73
     1
 72
     1
 10
-51.66741508386761
 20
10.999807868674
 11
-50.19158182285798
 21
10.999807868674
 72
     2
 10
-50.19158182285798
 20
11.3155247917507
 40
0.3157169230766996
 50
270.0
 51
360.0
 73
     1
 72
     1
 10
-49.87586489978139
 20
11.3155247917507
 11
-49.87586489978139
 21
12.84629572328231
 72
     2
 10
-50.19158182285798
 20
12.84629572328231
 40
0.3157169230765859
 50
0.0
 51
64.80558935146145
 73
     1
 72
     2
 10
-49.668997375283
 20
13.9571254693451
 40
0.911897523557621
 50
115.1944106485123
 51
244.805589351472
 73
     0
 72
     2
 10
-50.19158182285798
 20
15.0679552154073
 40
0.3157169230761172
 50
295.1944106485386
 51
360.0
 73
     1
 72
     1
 10
-49.87586489978139
 20
15.0679552154073
 11
-49.87586489978139
 21
15.67197983446781
 72
     2
 10
-50.19158182285798
 20
15.67197983446781
 40
0.3157169230765859
 50
0.0
 51
90.0
 73
     1
 72
     1
 10
-50.19158182285798
 20
15.987696757544
 11
-51.66741508386761
 21
15.987696757544
 72
     2
 10
-51.66741508386761
 20
15.67197983446781
 40
0.3157169230761898
 50
90.0
 51
180.0
 73
     1
 72
     1
 10
-51.98313200694329
 20
15.67197983446781
 11
-51.98313200694329
 21
11.3155247917507
 97
       12
330
1A7
330
15F
330
1AA
330
15A
330
1B7
330
1B8
330
1A9
330
159
330
1A8
330
158
330
1B9
330
157
 75
     1
 76
     0
 52
45.0
 41
0.1
 77
     0
 78
     1
 53
45.0
 43
0.0
 44
0.0
 45
-0.0707106781186548
 46
0.0707106781186548
 79
     0
 98
        1
 10
0.0
 20
0.0
  0
HATCH
  5
20E
330
71
100
AcDbEntity
  8
1
  6
Continuous
 62
     2
100
AcDbHatch
 10
0.0
 20
0.0
 30
0.0
210
0.0
220
0.0
230
1.0
  2
_USER
 70
     0
 71
     1
 91
        4
 92
        1
 93
        8
 72
     1
 10
-46.36375305451341
 20
16.27600769770061
 11
-46.36375305451341
 21
10.7114969285004
 72
     2
 10
-46.78799766989729
 20
10.7114969285004
 40
0.4242446153832908
 50
0.0
 51
90.0
 73
     0
 72
     1
 10
-46.78799766989729
 20
10.28725231311711
 11
-52.2613097606141
 21
10.28725231311711
 72
     2
 10
-52.2613097606141
 20
10.7114969285004
 40
0.4242446153828041
 50
90.0
 51
180.0
 73
     0
 72
     1
 10
-52.6855543759969
 20
10.7114969285004
 11
-52.6855543759969
 21
16.27600769770061
 72
     2
 10
-52.2613097606141
 20
16.27600769770061
 40
0.4242446153837989
 50
180.0
 51
270.0
 73
     0
 72
     1
 10
-52.2613097606141
 20
16.70025231308441
 11
-46.78799766989729
 21
16.70025231308441
 72
     2
 10
-46.78799766989729
 20
16.27600769770061
 40
0.424244615383877
 50
270.0
 51
360.0
 73
     0
 97
        8
330
15D
330
1AB
330
15E
330
1B6
330
15B
330
1AD
330
15C
330
1AC
 92
       16
 93
        1
 72
     2
 10
-49.64172411009659
 20
13.9571254693451
 40
0.4709789327785074
 50
0.0
 51
360.0
 73
     1
 97
        1
330
1D1
 92
       16
 93
        8
 72
     2
 10
-49.09186639733591
 20
12.84798386937669
 40
0.3157169230765298
 50
115.3740086783507
 51
180.0
 73
     1
 72
     1
 10
-49.4075833204127
 20
12.84798386937669
 11
-49.4075833204127
 21
12.26613246268161
 72
     2
 10
-49.09186639733591
 20
12.26613246268161
 40
0.3157169230767849
 50
180.0
 51
269.8110329574567
 73
     1
 72
     2
 10
-49.08625026202589
 20
13.9689674102506
 40
2.018561131933267
 50
269.8110329575862
 51
450.1889670424138
 73
     1
 72
     2
 10
-49.09186639733591
 20
15.6718023578197
 40
0.3157169230760728
 50
90.18896704254334
 51
180.0
 73
     1
 72
     1
 10
-49.4075833204127
 20
15.6718023578197
 11
-49.4075833204127
 21
15.06626706931291
 72
     2
 10
-49.09186639733591
 20
15.06626706931291
 40
0.3157169230767849
 50
180.0
 51
244.6259913216488
 73
     1
 72
     2
 10
-49.61790909542378
 20
13.9571254693451
 40
0.9118481501444543
 50
295.374008678192
 51
424.6259913218238
 73
     0
 97
        8
330
1C3
330
124
330
1C0
330
1C1
330
19F
330
123
330
1C2
330
19E
 92
       16
 93
       12
 72
     2
 10
-51.66741508386761
 20
11.3155247917507
 40
0.3157169230756836
 50
180.0
 51
270.0
 73
     1
 72
     1
 10
-51.66741508386761
 20
10.999807868674
 11
-50.19158182285798
 21
10.999807868674
 72
     2
 10
-50.19158182285798
 20
11.3155247917507
 40
0.3157169230766996
 50
270.0
 51
360.0
 73
     1
 72
     1
 10
-49.87586489978139
 20
11.3155247917507
 11
-49.87586489978139
 21
12.84629572328231
 72
     2
 10
-50.19158182285798
 20
12.84629572328231
 40
0.3157169230765859
 50
0.0
 51
64.80558935146145
 73
     1
 72
     2
 10
-49.668997375283
 20
13.9571254693451
 40
0.911897523557621
 50
115.1944106485123
 51
244.805589351472
 73
     0
 72
     2
 10
-50.19158182285798
 20
15.0679552154073
 40
0.3157169230761172
 50
295.1944106485386
 51
360.0
 73
     1
 72
     1
 10
-49.87586489978139
 20
15.0679552154073
 11
-49.87586489978139
 21
15.67197983446781
 72
     2
 10
-50.19158182285798
 20
15.67197983446781
 40
0.3157169230765859
 50
0.0
 51
90.0
 73
     1
 72
     1
 10
-50.19158182285798
 20
15.987696757544
 11
-51.66741508386761
 21
15.987696757544
 72
     2
 10
-51.66741508386761
 20
15.67197983446781
 40
0.3157169230761898
 50
90.0
 51
180.0
 73
     1
 72
     1
 10
-51.98313200694329
 20
15.67197983446781
 11
-51.98313200694329
 21
11.3155247917507
 97
       12
330
1A7
330
15F
330
1AA
330
15A
330
1B7
330
1B8
330
1A9
330
159
330
1A8
330
158
330
1B9
330
157
 75
     1
 76
     0
 52
45.0
 41
0.1
 77
     0
 78
     1
 53
45.0
 43
0.0
 44
0.0
 45
-0.0707106781186548
 46
0.0707106781186548
 79
     0
 98
        1
 10
0.0
 20
0.0
  0
HATCH
  5
20F
330
71
100
AcDbEntity
  8
1
  6
Continuous
 62
     2
100
AcDbHatch
 10
0.0
 20
0.0
 30
0.0
210
0.0
220
0.0
230
1.0
  2
_USER
 70
     0
 71
     1
 91
        1
 92
        1
 93
       18
 72
     1
 10
-24.7742051452924
 20
12.5557965308046
 11
-25.58530418276578
 21
12.5557965308046
 72
     1
 10
-25.58530418276578
 20
12.5557965308046
 11
-25.58530418276578
 21
10.28725231311711
 72
     1
 10
-25.58530418276578
 20
10.28725231311711
 11
-26.77809688493349
 21
10.28725231311711
 72
     1
 10
-26.77809688493349
 20
10.28725231311711
 11
-26.77809688493349
 21
12.5557965308046
 72
     1
 10
-26.77809688493349
 20
12.5557965308046
 11
-27.88173618450159
 21
12.5557965308046
 72
     2
 10
-27.88173618450159
 20
11.60127352397851
 40
0.9545230068260899
 50
90.0
 51
109.337143219432
 73
     1
 72
     2
 10
-28.0284061826053
 20
12.01922850436139
 40
0.5115800601944182
 50
109.3371432194847
 51
151.4785267424216
 73
     1
 72
     2
 10
-27.65104892452391
 20
11.81415707502239
 40
0.9410597353348926
 50
151.4785267423619
 51
208.5214732576696
 73
     1
 72
     2
 10
-28.0284061826053
 20
11.60908564568391
 40
0.5115800601960228
 50
208.5214732576877
 51
246.6277221118451
 73
     1
 72
     2
 10
-27.87196614990219
 20
11.9710776643939
 40
0.9059297849852797
 50
246.6277221118177
 51
288.4480761180818
 73
     1
 72
     2
 10
-28.2901338835641
 20
13.22462344043049
 40
2.227384008972748
 50
288.4480761181337
 51
301.9309089499399
 73
     1
 72
     1
 10
-27.11207884154018
 20
11.33427272128071
 11
-27.11207884154018
 21
10.46175571447739
 72
     2
 10
-28.4480067586569
 20
15.1268380202788
 40
4.852596863498824
 50
74.02000874166134
 51
84.84185523036375
 73
     0
 72
     2
 10
-28.15915066392108
 20
11.92694743705721
 40
1.639695123940456
 50
84.84185523032401
 51
164.9381082228988
 73
     0
 72
     2
 10
-28.57827850738269
 20
11.81415707502239
 40
1.205656168393008
 50
164.9381082229043
 51
195.0618917770975
 73
     0
 72
     2
 10
-28.15915066392108
 20
11.70136671298749
 40
1.63969512394022
 50
195.0618917771052
 51
270.0
 73
     0
 72
     1
 10
-28.15915066392108
 20
13.34106183692771
 11
-24.7742051452924
 21
13.34106183692819
 72
     1
 10
-24.7742051452924
 20
13.34106183692819
 11
-24.7742051452924
 21
12.5557965308046
 97
       18
330
126
330
1BC
330
1BD
330
1A5
330
1A4
330
18A
330
1A3
330
1A2
330
1BE
330
1A1
330
1BF
330
1A0
330
18B
330
125
330
12A
330
129
330
128
330
127
 75
     1
 76
     0
 52
45.0
 41
0.1
 77
     0
 78
     1
 53
45.0
 43
0.0
 44
0.0
 45
-0.0707106781186548
 46
0.0707106781186548
 79
     0
 98
        1
 10
0.0
 20
0.0
  0
HATCH
  5
210
330
71
100
AcDbEntity
  8
1
  6
Continuous
 62
     2
100
AcDbHatch
 10
0.0
 20
0.0
 30
0.0
210
0.0
220
0.0
230
1.0
  2
_USER
 70
     0
 71
     1
 91
        1
 92
        1
 93
       18
 72
     1
 10
-24.7742051452924
 20
12.5557965308046
 11
-25.58530418276578
 21
12.5557965308046
 72
     1
 10
-25.58530418276578
 20
12.5557965308046
 11
-25.58530418276578
 21
10.28725231311711
 72
     1
 10
-25.58530418276578
 20
10.28725231311711
 11
-26.77809688493349
 21
10.28725231311711
 72
     1
 10
-26.77809688493349
 20
10.28725231311711
 11
-26.77809688493349
 21
12.5557965308046
 72
     1
 10
-26.77809688493349
 20
12.5557965308046
 11
-27.88173618450159
 21
12.5557965308046
 72
     2
 10
-27.88173618450159
 20
11.60127352397851
 40
0.9545230068260899
 50
90.0
 51
109.337143219432
 73
     1
 72
     2
 10
-28.0284061826053
 20
12.01922850436139
 40
0.5115800601944182
 50
109.3371432194847
 51
151.4785267424216
 73
     1
 72
     2
 10
-27.65104892452391
 20
11.81415707502239
 40
0.9410597353348926
 50
151.4785267423619
 51
208.5214732576696
 73
     1
 72
     2
 10
-28.0284061826053
 20
11.60908564568391
 40
0.5115800601960228
 50
208.5214732576877
 51
246.6277221118451
 73
     1
 72
     2
 10
-27.87196614990219
 20
11.9710776643939
 40
0.9059297849852797
 50
246.6277221118177
 51
288.4480761180818
 73
     1
 72
     2
 10
-28.2901338835641
 20
13.22462344043049
 40
2.227384008972748
 50
288.4480761181337
 51
301.9309089499399
 73
     1
 72
     1
 10
-27.11207884154018
 20
11.33427272128071
 11
-27.11207884154018
 21
10.46175571447739
 72
     2
 10
-28.4480067586569
 20
15.1268380202788
 40
4.852596863498824
 50
74.02000874166134
 51
84.84185523036375
 73
     0
 72
     2
 10
-28.15915066392108
 20
11.92694743705721
 40
1.639695123940456
 50
84.84185523032401
 51
164.9381082228988
 73
     0
 72
     2
 10
-28.57827850738269
 20
11.81415707502239
 40
1.205656168393008
 50
164.9381082229043
 51
195.0618917770975
 73
     0
 72
     2
 10
-28.15915066392108
 20
11.70136671298749
 40
1.63969512394022
 50
195.0618917771052
 51
270.0
 73
     0
 72
     1
 10
-28.15915066392108
 20
13.34106183692771
 11
-24.7742051452924
 21
13.34106183692819
 72
     1
 10
-24.7742051452924
 20
13.34106183692819
 11
-24.7742051452924
 21
12.5557965308046
 97
       18
330
126
330
1BC
330
1BD
330
1A5
330
1A4
330
18A
330
1A3
330
1A2
330
1BE
330
1A1
330
1BF
330
1A0
330
18B
330
125
330
12A
330
129
330
128
330
127
 75
     1
 76
     0
 52
45.0
 41
0.1
 77
     0
 78
     1
 53
45.0
 43
0.0
 44
0.0
 45
-0.0707106781186548
 46
0.0707106781186548
 79
     0
 98
        1
 10
0.0
 20
0.0
  0
HATCH
  5
211
330
71
100
AcDbEntity
  8
1
  6
Continuous
 62
     2
100
AcDbHatch
 10
0.0
 20
0.0
 30
0.0
210
0.0
220
0.0
230
1.0
  2
_USER
 70
     0
 71
     1
 91
        1
 92
        1
 93
       14
 72
     2
 10
-44.261852143174
 20
11.70136671298749
 40
1.639695123940516
 50
84.84185523036214
 51
164.9381082228861
 73
     1
 72
     2
 10
-44.6809799866368
 20
11.81415707502239
 40
1.205656168390946
 50
164.9381082228761
 51
195.0618917770945
 73
     1
 72
     2
 10
-44.261852143174
 20
11.92694743705721
 40
1.63969512393938
 50
195.0618917770896
 51
275.1581447696398
 73
     1
 72
     2
 10
-44.5507082379099
 20
15.1268380202788
 40
4.852596863498145
 50
275.1581447696249
 51
285.9799912583529
 73
     1
 72
     1
 10
-43.2147803207921
 20
10.46175571447799
 11
-43.2147803207921
 21
11.3342727212812
 72
     2
 10
-44.39283536281698
 20
13.22462344043109
 40
2.227384008972737
 50
58.06909105004065
 51
71.55192388186722
 73
     0
 72
     2
 10
-43.97466762915619
 20
11.9710776643939
 40
0.905929784984916
 50
71.55192388184143
 51
113.3722778881291
 73
     0
 72
     2
 10
-44.13110766185821
 20
11.60908564568391
 40
0.5115800601948034
 50
113.3722778881724
 51
151.4785267423044
 73
     0
 72
     2
 10
-43.7537504037779
 20
11.81415707502239
 40
0.9410597353332545
 50
151.4785267422947
 51
208.5214732577331
 73
     0
 72
     2
 10
-44.13110766185821
 20
12.01922850436139
 40
0.5115800601948796
 50
208.5214732576956
 51
246.6277221118009
 73
     0
 72
     2
 10
-43.97466762915619
 20
11.6572364856508
 40
0.9059297849853211
 50
246.6277221118709
 51
288.4480761181465
 73
     0
 72
     2
 10
-44.39283536281698
 20
10.40369070961421
 40
2.227384008973474
 50
288.4480761181328
 51
301.9309089499593
 73
     0
 72
     1
 10
-43.2147803207921
 20
12.2940414287641
 11
-43.2147803207921
 21
13.1665584355674
 72
     2
 10
-44.5507082379099
 20
8.501476129766502
 40
4.852596863498071
 50
74.02000874164739
 51
84.84185523037506
 73
     1
 97
       14
330
1C4
330
1C5
330
1C6
330
1C7
330
18C
330
19D
330
19C
330
19B
330
1C8
330
1C9
330
19A
330
1CA
330
18D
330
199
 75
     1
 76
     0
 52
45.0
 41
0.1
 77
     0
 78
     1
 53
45.0
 43
0.0
 44
0.0
 45
-0.0707106781186548
 46
0.0707106781186548
 79
     0
 98
        1
 10
0.0
 20
0.0
  0
HATCH
  5
212
330
71
100
AcDbEntity
  8
1
  6
Continuous
 62
     2
100
AcDbHatch
 10
0.0
 20
0.0
 30
0.0
210
0.0
220
0.0
230
1.0
  2
_USER
 70
     0
 71
     1
 91
        1
 92
        1
 93
       14
 72
     2
 10
-44.261852143174
 20
11.70136671298749
 40
1.639695123940516
 50
84.84185523036214
 51
164.9381082228861
 73
     1
 72
     2
 10
-44.6809799866368
 20
11.81415707502239
 40
1.205656168390946
 50
164.9381082228761
 51
195.0618917770945
 73
     1
 72
     2
 10
-44.261852143174
 20
11.92694743705721
 40
1.63969512393938
 50
195.0618917770896
 51
275.1581447696398
 73
     1
 72
     2
 10
-44.5507082379099
 20
15.1268380202788
 40
4.852596863498145
 50
275.1581447696249
 51
285.9799912583529
 73
     1
 72
     1
 10
-43.2147803207921
 20
10.46175571447799
 11
-43.2147803207921
 21
11.3342727212812
 72
     2
 10
-44.39283536281698
 20
13.22462344043109
 40
2.227384008972737
 50
58.06909105004065
 51
71.55192388186722
 73
     0
 72
     2
 10
-43.97466762915619
 20
11.9710776643939
 40
0.905929784984916
 50
71.55192388184143
 51
113.3722778881291
 73
     0
 72
     2
 10
-44.13110766185821
 20
11.60908564568391
 40
0.5115800601948034
 50
113.3722778881724
 51
151.4785267423044
 73
     0
 72
     2
 10
-43.7537504037779
 20
11.81415707502239
 40
0.9410597353332545
 50
151.4785267422947
 51
208.5214732577331
 73
     0
 72
     2
 10
-44.13110766185821
 20
12.01922850436139
 40
0.5115800601948796
 50
208.5214732576956
 51
246.6277221118009
 73
     0
 72
     2
 10
-43.97466762915619
 20
11.6572364856508
 40
0.9059297849853211
 50
246.6277221118709
 51
288.4480761181465
 73
     0
 72
     2
 10
-44.39283536281698
 20
10.40369070961421
 40
2.227384008973474
 50
288.4480761181328
 51
301.9309089499593
 73
     0
 72
     1
 10
-43.2147803207921
 20
12.2940414287641
 11
-43.2147803207921
 21
13.1665584355674
 72
     2
 10
-44.5507082379099
 20
8.501476129766502
 40
4.852596863498071
 50
74.02000874164739
 51
84.84185523037506
 73
     1
 97
       14
330
1C4
330
1C5
330
1C6
330
1C7
330
18C
330
19D
330
19C
330
19B
330
1C8
330
1C9
330
19A
330
1CA
330
18D
330
199
 75
     1
 76
     0
 52
45.0
 41
0.1
 77
     0
 78
     1
 53
45.0
 43
0.0
 44
0.0
 45
-0.0707106781186548
 46
0.0707106781186548
 79
     0
 98
        1
 10
0.0
 20
0.0
  0
ENDBLK
  5
73
330
71
100
AcDbEntity
  8
0
100
AcDbBlockEnd
  0
BLOCK
  5
75
330
74
100
AcDbEntity
  8
0
100
AcDbBlockBegin
  2
_punkt
 70
     0
 10
72.62259526419051
 20
2.9937523131008
 30
0.0
  3
_punkt
  1

  0
LINE
  5
213
330
74
100
AcDbEntity
  8
1
  6
Continuous
 62
     2
100
AcDbLine
 10
72.62259526419051
 20
2.9937523131008
 30
0.0
 11
77.6225952641895
 21
2.9937523131008
 31
0.0
  0
LINE
  5
214
330
74
100
AcDbEntity
  8
1
  6
Continuous
 62
     2
100
AcDbLine
 10
72.62259526419051
 20
2.9937523131008
 30
0.0
 11
72.62259526419051
 21
-2.00624768689931
 31
0.0
  0
ENDBLK
  5
76
330
74
100
AcDbEntity
  8
0
100
AcDbBlockEnd
  0
BLOCK
  5
7A
330
77
100
AcDbEntity
  8
0
100
AcDbBlockBegin
  2
A4I_CS
 70
     0
 10
72.62259526419051
 20
-2.00624768689931
 30
0.0
  3
A4I_CS
  1

  0
INSERT
  5
78
330
77
100
AcDbEntity
  8
1
100
AcDbBlockReference
  2
_rahmen
 10
72.62259526419051
 20
-2.00624768689931
 30
0.0
  0
INSERT
  5
79
330
77
100
AcDbEntity
  8
1
100
AcDbBlockReference
  2
_punkt
 10
72.62259526419051
 20
2.9937523131008
 30
0.0
  0
ENDBLK
  5
7B
330
77
100
AcDbEntity
  8
0
100
AcDbBlockEnd
  0
BLOCK
  5
84
330
7C
100
AcDbEntity
  8
0
100
AcDbBlockBegin
  2
1
 70
     0
 10
0.0
 20
0.0
 30
0.0
  3
1
  1

  0
INSERT
  5
7D
330
7C
100
AcDbEntity
  8
0
100
AcDbBlockReference
  2
Allg1
 10
-13.00000000000001
 20
93.0
 30
0.0
  0
INSERT
  5
7E
330
7C
100
AcDbEntity
  8
0
100
AcDbBlockReference
  2
Drfsicht1
 10
-111.0
 20
99.00000000000003
 30
0.0
  0
INSERT
  5
7F
330
7C
100
AcDbEntity
  8
0
100
AcDbBlockReference
  2
Rckans1
 10
-18.5
 20
160.25
 30
0.0
  0
INSERT
  5
80
330
7C
100
AcDbEntity
  8
0
100
AcDbBlockReference
  2
SA_Links1
 10
-64.75
 20
160.25
 30
0.0
  0
INSERT
  5
81
330
7C
100
AcDbEntity
  8
0
100
AcDbBlockReference
  2
SA_Rechts1
 10
-162.25
 20
160.25
 30
0.0
  0
INSERT
  5
82
330
7C
100
AcDbEntity
  8
0
100
AcDbBlockReference
  2
Vordans1
 10
-111.0
 20
160.25
 30
0.0
  0
INSERT
  5
83
330
7C
100
AcDbEntity
  8
0
100
AcDbBlockReference
  2
A4I_CS
 10
72.62259526419051
 20
-2.00624768689931
 30
0.0
  0
ENDBLK
  5
85
330
7C
100
AcDbEntity
  8
0
100
AcDbBlockEnd
  0
BLOCK
  5
AC
330
A5
100
AcDbEntity
  8
0
100
AcDbBlockBegin
  2
*D17
 70
     1
 10
0.0
 20
0.0
 30
0.0
  3
*D17
  1

  0
LINE
  5
A6
330
A5
100
AcDbEntity
  8
1
  6
Continuous
 62
     2
100
AcDbLine
 10
-129.035526961183
 20
117.75
 30
0.0
 11
-129.035526961183
 21
80.25
 31
0.0
  0
LINE
  5
A7
330
A5
100
AcDbEntity
  8
1
  6
Continuous
 62
     2
100
AcDbLine
 10
-118.5
 20
117.75
 30
0.0
 11
-130.535526961183
 21
117.75
 31
0.0
  0
LINE
  5
A8
330
A5
100
AcDbEntity
  8
1
  6
Continuous
 62
     2
100
AcDbLine
 10
-118.5
 20
80.25
 30
0.0
 11
-130.535526961183
 21
80.25
 31
0.0
  0
SOLID
  5
A9
330
A5
100
AcDbEntity
  8
1
 62
     2
100
AcDbTrace
 10
-128.5747432196271
 20
114.25
 30
0.0
 11
-129.4963107027389
 21
114.25
 31
0.0
 12
-129.035526961183
 22
117.75
 32
0.0
 13
-129.035526961183
 23
117.75
 33
0.0
  0
SOLID
  5
AA
330
A5
100
AcDbEntity
  8
1
 62
     2
100
AcDbTrace
 10
-129.4963107027389
 20
83.75
 30
0.0
 11
-128.5747432196271
 21
83.75
 31
0.0
 12
-129.035526961183
 22
80.25
 32
0.0
 13
-129.035526961183
 23
80.25
 33
0.0
  0
MTEXT
  5
AB
330
A5
100
AcDbEntity
  8
1
 62
     3
100
AcDbMText
 10
-130.885526961183
 20
96.130831424651
 30
0.0
 40
3.5
 41
0.0
 71
     7
 72
     1
  1
37,5
  7
CONVERTER_11
 11
0.0
 21
1.0
 31
0.0
 73
     1
 44
0.60024009603842
  0
ENDBLK
  5
AD
330
A5
100
AcDbEntity
  8
0
100
AcDbBlockEnd
  0
BLOCK
  5
CB
330
C4
100
AcDbEntity
  8
0
100
AcDbBlockBegin
  2
*D18
 70
     1
 10
0.0
 20
0.0
 30
0.0
  3
*D18
  1

  0
LINE
  5
C5
330
C4
100
AcDbEntity
  8
1
  6
Continuous
 62
     2
100
AcDbLine
 10
-118.5
 20
144.83310229973
 30
0.0
 11
-103.5
 21
144.83310229973
 31
0.0
  0
LINE
  5
C6
330
C4
100
AcDbEntity
  8
1
  6
Continuous
 62
     2
100
AcDbLine
 10
-118.5
 20
158.750000000005
 30
0.0
 11
-118.5
 21
143.33310229973
 31
0.0
  0
LINE
  5
C7
330
C4
100
AcDbEntity
  8
1
  6
Continuous
 62
     2
100
AcDbLine
 10
-103.5
 20
158.750000000005
 30
0.0
 11
-103.5
 21
143.33310229973
 31
0.0
  0
SOLID
  5
C8
330
C4
100
AcDbEntity
  8
1
 62
     2
100
AcDbTrace
 10
-115.0
 20
145.2938860412859
 30
0.0
 11
-115.0
 21
144.3723185581741
 31
0.0
 12
-118.5
 22
144.83310229973
 32
0.0
 13
-118.5
 23
144.83310229973
 33
0.0
  0
SOLID
  5
C9
330
C4
100
AcDbEntity
  8
1
 62
     2
100
AcDbTrace
 10
-107.0
 20
144.3723185581741
 30
0.0
 11
-107.0
 21
145.2938860412859
 31
0.0
 12
-103.5
 22
144.83310229973
 32
0.0
 13
-103.5
 23
144.83310229973
 33
0.0
  0
MTEXT
  5
CA
330
C4
100
AcDbEntity
  8
1
 62
     3
100
AcDbMText
 10
-113.1
 20
146.33310229973
 30
0.0
 40
3.5
 41
0.0
 71
     7
 72
     1
  1
15
  7
CONVERTER_11
 11
0.9999999999970619
 21
2.424068405545306E-6
 31
0.0
 73
     1
 44
0.60024009603842
  0
ENDBLK
  5
CC
330
C4
100
AcDbEntity
  8
0
100
AcDbBlockEnd
  0
BLOCK
  5
D8
330
CF
100
AcDbEntity
  8
0
100
AcDbBlockBegin
  2
*D19
 70
     1
 10
0.0
 20
0.0
 30
0.0
  3
*D19
  1

  0
LINE
  5
D0
330
CF
100
AcDbEntity
  8
1
  6
Continuous
 62
     2
100
AcDbLine
 10
-128.5
 20
168.750000000005
 30
0.0
 11
-128.5
 21
161.750000000005
 31
0.0
  0
LINE
  5
D1
330
CF
100
AcDbEntity
  8
1
  6
Continuous
 62
     2
100
AcDbLine
 10
-128.5
 20
161.750000000005
 30
0.0
 11
-128.5
 21
158.750000000005
 31
0.0
  0
LINE
  5
D2
330
CF
100
AcDbEntity
  8
1
  6
Continuous
 62
     2
100
AcDbLine
 10
-128.5
 20
158.750000000005
 30
0.0
 11
-128.5
 21
151.750000000005
 31
0.0
  0
LINE
  5
D3
330
CF
100
AcDbEntity
  8
1
  6
Continuous
 62
     2
100
AcDbLine
 10
-118.5
 20
161.750000000005
 30
0.0
 11
-130.0
 21
161.750000000005
 31
0.0
  0
LINE
  5
D4
330
CF
100
AcDbEntity
  8
1
  6
Continuous
 62
     2
100
AcDbLine
 10
-118.5
 20
158.750000000005
 30
0.0
 11
-130.0
 21
158.750000000005
 31
0.0
  0
SOLID
  5
D5
330
CF
100
AcDbEntity
  8
1
 62
     2
100
AcDbTrace
 10
-128.9607837415559
 20
165.250000000005
 30
0.0
 11
-128.0392162584441
 21
165.250000000005
 31
0.0
 12
-128.5
 22
161.750000000005
 32
0.0
 13
-128.5
 23
161.750000000005
 33
0.0
  0
SOLID
  5
D6
330
CF
100
AcDbEntity
  8
1
 62
     2
100
AcDbTrace
 10
-128.0392162584441
 20
155.250000000005
 30
0.0
 11
-128.9607837415559
 21
155.250000000005
 31
0.0
 12
-128.5
 22
158.750000000005
 32
0.0
 13
-128.5
 23
158.750000000005
 33
0.0
  0
MTEXT
  5
D7
330
CF
100
AcDbEntity
  8
1
 62
     3
100
AcDbMText
 10
-130.0
 20
152.690642916483
 30
0.0
 40
3.5
 41
0.0
 71
     7
 72
     1
  1
3
  7
CONVERTER_11
 11
0.0
 21
1.0
 31
0.0
 73
     1
 44
0.60024009603842
  0
ENDBLK
  5
D9
330
CF
100
AcDbEntity
  8
0
100
AcDbBlockEnd
  0
ENDSEC
  0
SECTION
  2
ENTITIES
  0
INSERT
  5
86
330
1F
100
AcDbEntity
  8
1
100
AcDbBlockReference
  2
1
 10
0.0
 20
0.0
 30
0.0
  0
ENDSEC
  0
SECTION
  2
OBJECTS
  0
DICTIONARY
  5
C
330
0
100
AcDbDictionary
281
     1
  3
ACAD_GROUP
350
D
  3
ACAD_LAYOUT
350
1A
  3
ACAD_MATERIAL
350
3B
  3
ACAD_MLEADERSTYLE
350
23C
  3
ACAD_MLINESTYLE
350
17
  3
ACAD_PLOTSETTINGS
350
19
  3
ACAD_PLOTSTYLENAME
350
E
  3
ACAD_TABLESTYLE
350
23B
  3
ACAD_VISUALSTYLE
350
2A
  0
DICTIONARY
  5
D
102
{ACAD_REACTORS
330
C
102
}
330
C
100
AcDbDictionary
281
     1
  0
DICTIONARY
  5
1A
102
{ACAD_REACTORS
330
C
102
}
330
C
100
AcDbDictionary
281
     1
  3
Layout1
350
1E
  3
Layout2
350
26
  3
Model
350
22
  0
DICTIONARY
  5
3B
102
{ACAD_REACTORS
330
C
102
}
330
C
100
AcDbDictionary
281
     1
  3
ByBlock
350
3D
  3
ByLayer
350
3C
  3
Global
350
3E
  0
DICTIONARY
  5
23C
102
{ACAD_REACTORS
330
C
102
}
330
C
100
AcDbDictionary
281
     1
  0
DICTIONARY
  5
17
102
{ACAD_REACTORS
330
C
102
}
330
C
100
AcDbDictionary
281
     1
  3
Standard
350
18
  0
DICTIONARY
  5
19
102
{ACAD_REACTORS
330
C
102
}
330
C
100
AcDbDictionary
281
     1
  0
ACDBDICTIONARYWDFLT
  5
E
102
{ACAD_REACTORS
330
C
102
}
330
C
100
AcDbDictionary
281
     1
  3
Normal
350
F
100
AcDbDictionaryWithDefault
340
F
  0
DICTIONARY
  5
23B
102
{ACAD_REACTORS
330
C
102
}
330
C
100
AcDbDictionary
281
     1
  0
DICTIONARY
  5
2A
102
{ACAD_REACTORS
330
C
102
}
330
C
100
AcDbDictionary
281
     1
  3
2dWireframe
350
2F
  3
3D Hidden
350
31
  3
3dWireframe
350
30
  3
Basic
350
32
  3
Brighten
350
36
  3
ColorChange
350
3A
  3
Conceptual
350
34
  3
Dim
350
35
  3
Facepattern
350
39
  3
Flat
350
2B
  3
FlatWithEdges
350
2C
  3
Gouraud
350
2D
  3
GouraudWithEdges
350
2E
  3
Linepattern
350
38
  3
Realistic
350
33
  3
Thicken
350
37
  0
LAYOUT
  5
1E
102
{ACAD_REACTORS
330
1A
102
}
330
1A
100
AcDbPlotSettings
  1

  2
none_device
  4

  6

 40
0.0
 41
0.0
 42
0.0
 43
0.0
 44
0.0
 45
0.0
 46
0.0
 47
0.0
 48
0.0
 49
0.0
140
0.0
141
0.0
142
1.0
143
1.0
 70
   688
 72
     0
 73
     0
 74
     5
  7

 75
    16
 76
     0
 77
     2
 78
   300
147
1.0
148
0.0
149
0.0
100
AcDbLayout
  1
Layout1
 70
     1
 71
     1
 10
0.0
 20
0.0
 11
12.0
 21
9.0
 12
0.0
 22
0.0
 32
0.0
 14
1.00000000000000E+20
 24
1.00000000000000E+20
 34
1.00000000000000E+20
 15
-1.00000000000000E+20
 25
-1.00000000000000E+20
 35
-1.00000000000000E+20
146
0.0
 13
0.0
 23
0.0
 33
0.0
 16
1.0
 26
0.0
 36
0.0
 17
0.0
 27
1.0
 37
0.0
 76
     0
330
1B
  0
LAYOUT
  5
26
102
{ACAD_REACTORS
330
1A
102
}
330
1A
100
AcDbPlotSettings
  1

  2
none_device
  4

  6

 40
0.0
 41
0.0
 42
0.0
 43
0.0
 44
0.0
 45
0.0
 46
0.0
 47
0.0
 48
0.0
 49
0.0
140
0.0
141
0.0
142
1.0
143
1.0
 70
   688
 72
     0
 73
     0
 74
     5
  7

 75
    16
 76
     0
 77
     2
 78
   300
147
1.0
148
0.0
149
0.0
100
AcDbLayout
  1
Layout2
 70
     1
 71
     2
 10
0.0
 20
0.0
 11
0.0
 21
0.0
 12
0.0
 22
0.0
 32
0.0
 14
0.0
 24
0.0
 34
0.0
 15
0.0
 25
0.0
 35
0.0
146
0.0
 13
0.0
 23
0.0
 33
0.0
 16
1.0
 26
0.0
 36
0.0
 17
0.0
 27
1.0
 37
0.0
 76
     0
330
23
  0
LAYOUT
  5
22
102
{ACAD_REACTORS
330
1A
102
}
330
1A
100
AcDbPlotSettings
  1

  2
none_device
  4

  6

 40
0.0
 41
0.0
 42
0.0
 43
0.0
 44
0.0
 45
0.0
 46
0.0
 47
0.0
 48
0.0
 49
0.0
140
0.0
141
0.0
142
1.0
143
1.0
 70
  1712
 72
     0
 73
     0
 74
     0
  7

 75
     0
 76
     0
 77
     2
 78
   300
147
1.0
148
0.0
149
0.0
100
AcDbLayout
  1
Model
 70
     1
 71
     0
 10
0.0
 20
0.0
 11
12.0
 21
9.0
 12
0.0
 22
0.0
 32
0.0
 14
-219.3774047358086
 24
-2.00624768689931
 34
0.0
 15
77.6225952641895
 25
207.9937523131008
 35
0.0
146
0.0
 13
0.0
 23
0.0
 33
0.0
 16
1.0
 26
0.0
 36
0.0
 17
0.0
 27
1.0
 37
0.0
 76
     0
330
1F
331
29
  0
MATERIAL
  5
3D
102
{ACAD_REACTORS
330
3B
102
}
102
{ACAD_XDICTIONARY
360
237
102
}
330
3B
100
AcDbMaterial
  1
ByBlock
  0
MATERIAL
  5
3C
102
{ACAD_REACTORS
330
3B
102
}
102
{ACAD_XDICTIONARY
360
235
102
}
330
3B
100
AcDbMaterial
  1
ByLayer
  0
MATERIAL
  5
3E
102
{ACAD_REACTORS
330
3B
102
}
102
{ACAD_XDICTIONARY
360
239
102
}
330
3B
100
AcDbMaterial
  1
Global
  0
MLINESTYLE
  5
18
102
{ACAD_REACTORS
330
17
102
}
330
17
100
AcDbMlineStyle
  2
Standard
 70
     0
  3

 62
   256
 51
90.0
 52
90.0
 71
     2
 49
0.5
 62
   256
  6
BYLAYER
 49
-0.5
 62
   256
  6
BYLAYER
  0
ACDBPLACEHOLDER
  5
F
102
{ACAD_REACTORS
330
E
102
}
330
E
  0
VISUALSTYLE
  5
2F
102
{ACAD_REACTORS
330
2A
102
}
102
{ACAD_XDICTIONARY
360
21D
102
}
330
2A
100
AcDbVisualStyle
  2
2dWireframe
 70
     4
 71
     0
 72
     2
 73
     0
 90
        0
 40
-0.6
 41
-30.0
 62
     5
 63
     7
421
 16777215
 74
     1
 91
        4
 64
     7
 65
   257
 75
     1
175
     1
 42
1.0
 92
        0
 66
   257
 43
1.0
 76
     1
 77
     6
 78
     2
 67
     7
 79
     5
170
     0
171
     0
290
     0
174
     0
 93
        1
 44
0.0
173
     0
291
     0
 45
0.0
1001
ACAD
1000
AcDbSavedByObjectVersion
1070
     0
  0
VISUALSTYLE
  5
31
102
{ACAD_REACTORS
330
2A
102
}
102
{ACAD_XDICTIONARY
360
221
102
}
330
2A
100
AcDbVisualStyle
  2
3D Hidden
 70
     6
 71
     1
 72
     2
 73
     2
 90
        0
 40
-0.6
 41
-30.0
 62
     5
 63
     7
421
 16777215
 74
     2
 91
        2
 64
     7
 65
   257
 75
     2
175
     1
 42
40.0
 92
        0
 66
   257
 43
1.0
 76
     1
 77
     6
 78
     2
 67
     7
 79
     3
170
     0
171
     0
290
     0
174
     0
 93
        1
 44
0.0
173
     0
291
     0
 45
0.0
1001
ACAD
1000
AcDbSavedByObjectVersion
1070
     0
  0
VISUALSTYLE
  5
30
102
{ACAD_REACTORS
330
2A
102
}
102
{ACAD_XDICTIONARY
360
21F
102
}
330
2A
100
AcDbVisualStyle
  2
3dWireframe
 70
     5
 71
     0
 72
     2
 73
     0
 90
        0
 40
-0.6
 41
-30.0
 62
     5
 63
     7
421
 16777215
 74
     1
 91
        4
 64
     7
 65
   257
 75
     1
175
     1
 42
1.0
 92
        0
 66
   257
 43
1.0
 76
     1
 77
     6
 78
     2
 67
     7
 79
     5
170
     0
171
     0
290
     0
174
     0
 93
        1
 44
0.0
173
     0
291
     0
 45
0.0
1001
ACAD
1000
AcDbSavedByObjectVersion
1070
     0
  0
VISUALSTYLE
  5
32
102
{ACAD_REACTORS
330
2A
102
}
102
{ACAD_XDICTIONARY
360
223
102
}
330
2A
100
AcDbVisualStyle
  2
Basic
 70
     7
 71
     1
 72
     0
 73
     1
 90
        0
 40
-0.6
 41
-30.0
 62
     5
 63
     7
421
 16777215
 74
     0
 91
        4
 64
     7
 65
   257
 75
     1
175
     1
 42
1.0
 92
        8
 66
     7
 43
1.0
 76
     1
 77
     6
 78
     2
 67
     7
 79
     5
170
     0
171
     0
290
     0
174
     0
 93
        1
 44
0.0
173
     0
291
     1
 45
0.0
1001
ACAD
1000
AcDbSavedByObjectVersion
1070
     0
  0
VISUALSTYLE
  5
36
102
{ACAD_REACTORS
330
2A
102
}
102
{ACAD_XDICTIONARY
360
22B
102
}
330
2A
100
AcDbVisualStyle
  2
Brighten
 70
    12
 71
     2
 72
     2
 73
     0
 90
        0
 40
-0.6
 41
-30.0
 62
     5
 63
     7
421
 16777215
 74
     1
 91
        4
 64
     7
 65
   257
 75
     1
175
     1
 42
1.0
 92
        8
 66
     7
 43
1.0
 76
     1
 77
     6
 78
     2
 67
     7
 79
     5
170
     0
171
     0
290
     0
174
     0
 93
        1
 44
50.0
173
     0
291
     1
 45
0.0
1001
ACAD
1000
AcDbSavedByObjectVersion
1070
     0
  0
VISUALSTYLE
  5
3A
102
{ACAD_REACTORS
330
2A
102
}
102
{ACAD_XDICTIONARY
360
233
102
}
330
2A
100
AcDbVisualStyle
  2
ColorChange
 70
    16
 71
     2
 72
     2
 73
     3
 90
        0
 40
-0.6
 41
-30.0
 62
     5
 63
     8
421
  8421504
 74
     1
 91
        4
 64
     7
 65
   257
 75
     1
175
     1
 42
1.0
 92
        8
 66
     8
424
  8421504
 43
1.0
 76
     1
 77
     6
 78
     2
 67
     7
 79
     5
170
     0
171
     0
290
     0
174
     0
 93
        1
 44
0.0
173
     0
291
     1
 45
0.0
1001
ACAD
1000
AcDbSavedByObjectVersion
1070
     0
  0
VISUALSTYLE
  5
34
102
{ACAD_REACTORS
330
2A
102
}
102
{ACAD_XDICTIONARY
360
227
102
}
330
2A
100
AcDbVisualStyle
  2
Conceptual
 70
     9
 71
     3
 72
     2
 73
     0
 90
        0
 40
-0.6
 41
-30.0
 62
     5
 63
     7
421
 16777215
 74
     2
 91
        2
 64
     7
 65
   257
 75
     1
175
     1
 42
40.0
 92
        8
 66
     7
 43
1.0
 76
     1
 77
     6
 78
     2
 67
     7
 79
     3
170
     0
171
     0
290
     0
174
     0
 93
        1
 44
0.0
173
     0
291
     0
 45
0.0
1001
ACAD
1000
AcDbSavedByObjectVersion
1070
     0
  0
VISUALSTYLE
  5
35
102
{ACAD_REACTORS
330
2A
102
}
102
{ACAD_XDICTIONARY
360
229
102
}
330
2A
100
AcDbVisualStyle
  2
Dim
 70
    11
 71
     2
 72
     2
 73
     0
 90
        0
 40
-0.6
 41
-30.0
 62
     5
 63
     7
421
 16777215
 74
     1
 91
        4
 64
     7
 65
   257
 75
     1
175
     1
 42
1.0
 92
        8
 66
     7
 43
1.0
 76
     1
 77
     6
 78
     2
 67
     7
 79
     5
170
     0
171
     0
290
     0
174
     0
 93
        1
 44
-50.0
173
     0
291
     1
 45
0.0
1001
ACAD
1000
AcDbSavedByObjectVersion
1070
     0
  0
VISUALSTYLE
  5
39
102
{ACAD_REACTORS
330
2A
102
}
102
{ACAD_XDICTIONARY
360
231
102
}
330
2A
100
AcDbVisualStyle
  2
Facepattern
 70
    15
 71
     2
 72
     2
 73
     0
 90
        0
 40
-0.6
 41
-30.0
 62
     5
 63
     7
421
 16777215
 74
     1
 91
        4
 64
     7
 65
   257
 75
     1
175
     1
 42
1.0
 92
        8
 66
     7
 43
1.0
 76
     1
 77
     6
 78
     2
 67
     7
 79
     5
170
     0
171
     0
290
     0
174
     0
 93
        1
 44
0.0
173
     0
291
     1
 45
0.0
1001
ACAD
1000
AcDbSavedByObjectVersion
1070
     0
  0
VISUALSTYLE
  5
2B
102
{ACAD_REACTORS
330
2A
102
}
102
{ACAD_XDICTIONARY
360
215
102
}
330
2A
100
AcDbVisualStyle
  2
Flat
 70
     0
 71
     2
 72
     1
 73
     1
 90
        2
 40
-0.6
 41
30.0
 62
     5
 63
     7
421
 16777215
 74
     0
 91
        4
 64
     7
 65
   257
 75
     1
175
     1
 42
1.0
 92
        8
 66
     7
 43
1.0
 76
     1
 77
     6
 78
     2
 67
     7
 79
     5
170
     0
171
     0
290
     0
174
     0
 93
       13
 44
0.0
173
     0
291
     1
 45
0.0
1001
ACAD
1000
AcDbSavedByObjectVersion
1070
     0
  0
VISUALSTYLE
  5
2C
102
{ACAD_REACTORS
330
2A
102
}
102
{ACAD_XDICTIONARY
360
217
102
}
330
2A
100
AcDbVisualStyle
  2
FlatWithEdges
 70
     1
 71
     2
 72
     1
 73
     1
 90
        2
 40
-0.6
 41
30.0
 62
     5
 63
     7
421
 16777215
 74
     1
 91
        4
 64
     7
 65
   257
 75
     1
175
     1
 42
1.0
 92
        0
 66
   257
 43
1.0
 76
     1
 77
     6
 78
     2
 67
     7
 79
     5
170
     0
171
     0
290
     0
174
     0
 93
       13
 44
0.0
173
     0
291
     1
 45
0.0
1001
ACAD
1000
AcDbSavedByObjectVersion
1070
     0
  0
VISUALSTYLE
  5
2D
102
{ACAD_REACTORS
330
2A
102
}
102
{ACAD_XDICTIONARY
360
219
102
}
330
2A
100
AcDbVisualStyle
  2
Gouraud
 70
     2
 71
     2
 72
     2
 73
     1
 90
        2
 40
-0.6
 41
30.0
 62
     5
 63
     7
421
 16777215
 74
     0
 91
        4
 64
     7
 65
   257
 75
     1
175
     1
 42
1.0
 92
        0
 66
     7
 43
1.0
 76
     1
 77
     6
 78
     2
 67
     7
 79
     5
170
     0
171
     0
290
     0
174
     0
 93
       13
 44
0.0
173
     0
291
     1
 45
0.0
1001
ACAD
1000
AcDbSavedByObjectVersion
1070
     0
  0
VISUALSTYLE
  5
2E
102
{ACAD_REACTORS
330
2A
102
}
102
{ACAD_XDICTIONARY
360
21B
102
}
330
2A
100
AcDbVisualStyle
  2
GouraudWithEdges
 70
     3
 71
     2
 72
     2
 73
     1
 90
        2
 40
-0.6
 41
30.0
 62
     5
 63
     7
421
 16777215
 74
     1
 91
        4
 64
     7
 65
   257
 75
     1
175
     1
 42
1.0
 92
        0
 66
   257
 43
1.0
 76
     1
 77
     6
 78
     2
 67
     7
 79
     5
170
     0
171
     0
290
     0
174
     0
 93
       13
 44
0.0
173
     0
291
     1
 45
0.0
1001
ACAD
1000
AcDbSavedByObjectVersion
1070
     0
  0
VISUALSTYLE
  5
38
102
{ACAD_REACTORS
330
2A
102
}
102
{ACAD_XDICTIONARY
360
22F
102
}
330
2A
100
AcDbVisualStyle
  2
Linepattern
 70
    14
 71
     2
 72
     2
 73
     0
 90
        0
 40
-0.6
 41
-30.0
 62
     5
 63
     7
421
 16777215
 74
     1
 91
        4
 64
     7
 65
   257
 75
     7
175
     7
 42
1.0
 92
        8
 66
     7
 43
1.0
 76
     1
 77
     6
 78
     2
 67
     7
 79
     5
170
     0
171
     0
290
     0
174
     0
 93
        1
 44
0.0
173
     0
291
     1
 45
0.0
1001
ACAD
1000
AcDbSavedByObjectVersion
1070
     0
  0
VISUALSTYLE
  5
33
102
{ACAD_REACTORS
330
2A
102
}
102
{ACAD_XDICTIONARY
360
225
102
}
330
2A
100
AcDbVisualStyle
  2
Realistic
 70
     8
 71
     2
 72
     2
 73
     0
 90
        0
 40
-0.6
 41
-30.0
 62
     5
 63
     7
421
 16777215
 74
     1
 91
        0
 64
     7
 65
   257
 75
     1
175
     1
 42
1.0
 92
        8
 66
     8
424
  7895160
 43
1.0
 76
     1
 77
     6
 78
     2
 67
     7
 79
     5
170
     0
171
     0
290
     0
174
     0
 93
       13
 44
0.0
173
     0
291
     0
 45
0.0
1001
ACAD
1000
AcDbSavedByObjectVersion
1070
     0
  0
VISUALSTYLE
  5
37
102
{ACAD_REACTORS
330
2A
102
}
102
{ACAD_XDICTIONARY
360
22D
102
}
330
2A
100
AcDbVisualStyle
  2
Thicken
 70
    13
 71
     2
 72
     2
 73
     0
 90
        0
 40
-0.6
 41
-30.0
 62
     5
 63
     7
421
 16777215
 74
     1
 91
        4
 64
     7
 65
   257
 75
     1
175
     1
 42
1.0
 92
       12
 66
     7
 43
1.0
 76
     1
 77
     6
 78
     2
 67
     7
 79
     5
170
     0
171
     0
290
     0
174
     0
 93
        1
 44
0.0
173
     0
291
     1
 45
0.0
1001
ACAD
1000
AcDbSavedByObjectVersion
1070
     0
  0
DICTIONARY
  5
237
330
3D
100
AcDbDictionary
280
     1
281
     1
  3
ACAD_XREC_ROUNDTRIP
360
238
  0
DICTIONARY
  5
235
330
3C
100
AcDbDictionary
280
     1
281
     1
  3
ACAD_XREC_ROUNDTRIP
360
236
  0
DICTIONARY
  5
239
330
3E
100
AcDbDictionary
280
     1
281
     1
  3
ACAD_XREC_ROUNDTRIP
360
23A
  0
DICTIONARY
  5
21D
330
2F
100
AcDbDictionary
280
     1
281
     1
  3
ACAD_XREC_ROUNDTRIP
360
21E
  0
DICTIONARY
  5
221
330
31
100
AcDbDictionary
280
     1
281
     1
  3
ACAD_XREC_ROUNDTRIP
360
222
  0
DICTIONARY
  5
21F
330
30
100
AcDbDictionary
280
     1
281
     1
  3
ACAD_XREC_ROUNDTRIP
360
220
  0
DICTIONARY
  5
223
330
32
100
AcDbDictionary
280
     1
281
     1
  3
ACAD_XREC_ROUNDTRIP
360
224
  0
DICTIONARY
  5
22B
330
36
100
AcDbDictionary
280
     1
281
     1
  3
ACAD_XREC_ROUNDTRIP
360
22C
  0
DICTIONARY
  5
233
330
3A
100
AcDbDictionary
280
     1
281
     1
  3
ACAD_XREC_ROUNDTRIP
360
234
  0
DICTIONARY
  5
227
330
34
100
AcDbDictionary
280
     1
281
     1
  3
ACAD_XREC_ROUNDTRIP
360
228
  0
DICTIONARY
  5
229
330
35
100
AcDbDictionary
280
     1
281
     1
  3
ACAD_XREC_ROUNDTRIP
360
22A
  0
DICTIONARY
  5
231
330
39
100
AcDbDictionary
280
     1
281
     1
  3
ACAD_XREC_ROUNDTRIP
360
232
  0
DICTIONARY
  5
215
330
2B
100
AcDbDictionary
280
     1
281
     1
  3
ACAD_XREC_ROUNDTRIP
360
216
  0
DICTIONARY
  5
217
330
2C
100
AcDbDictionary
280
     1
281
     1
  3
ACAD_XREC_ROUNDTRIP
360
218
  0
DICTIONARY
  5
219
330
2D
100
AcDbDictionary
280
     1
281
     1
  3
ACAD_XREC_ROUNDTRIP
360
21A
  0
DICTIONARY
  5
21B
330
2E
100
AcDbDictionary
280
     1
281
     1
  3
ACAD_XREC_ROUNDTRIP
360
21C
  0
DICTIONARY
  5
22F
330
38
100
AcDbDictionary
280
     1
281
     1
  3
ACAD_XREC_ROUNDTRIP
360
230
  0
DICTIONARY
  5
225
330
33
100
AcDbDictionary
280
     1
281
     1
  3
ACAD_XREC_ROUNDTRIP
360
226
  0
DICTIONARY
  5
22D
330
37
100
AcDbDictionary
280
     1
281
     1
  3
ACAD_XREC_ROUNDTRIP
360
22E
  0
XRECORD
  5
238
102
{ACAD_REACTORS
330
237
102
}
330
237
100
AcDbXrecord
280
     1
102
MATERIAL
148
0.0
149
0.0
149
0.0
 93
        0
 94
      127
282
     0
 72
     1
 77
     1
171
     1
175
     1
179
     1
273
     0
  0
XRECORD
  5
236
102
{ACAD_REACTORS
330
235
102
}
330
235
100
AcDbXrecord
280
     1
102
MATERIAL
148
0.0
149
0.0
149
0.0
 93
        0
 94
      127
282
     0
 72
     1
 77
     1
171
     1
175
     1
179
     1
273
     0
  0
XRECORD
  5
23A
102
{ACAD_REACTORS
330
239
102
}
330
239
100
AcDbXrecord
280
     1
102
MATERIAL
148
0.0
149
0.0
149
0.0
 93
        0
 94
      127
282
     0
 72
     1
 77
     1
171
     1
175
     1
179
     1
273
     0
  0
XRECORD
  5
21E
102
{ACAD_REACTORS
330
21D
102
}
330
21D
100
AcDbXrecord
280
     1
102
RTVSPropertyOp0
 70
     1
102
RTVSPropertyOp1
 70
     1
102
RTVSPropertyOp2
 70
     1
102
RTVSPropertyOp3
 70
     1
102
RTVSPropertyOp4
 70
     1
102
RTVSPropertyOp5
 70
     1
102
RTVSPropertyOp6
 70
     1
102
RTVSPropertyOp7
 70
     1
102
RTVSPropertyOp8
 70
     1
102
RTVSPropertyOp9
 70
     1
102
RTVSPropertyOp10
 70
     1
102
RTVSPropertyOp11
 70
     1
102
RTVSPropertyOp12
 70
     1
102
RTVSPropertyOp13
 70
     1
102
RTVSPropertyOp14
 70
     1
102
RTVSPropertyOp15
 70
     1
102
RTVSPropertyOp16
 70
     1
102
RTVSPropertyOp17
 70
     1
102
RTVSPropertyOp18
 70
     1
102
RTVSPropertyOp19
 70
     1
102
RTVSPropertyOp20
 70
     1
102
RTVSPropertyOp21
 70
     1
102
RTVSPropertyOp22
 70
     1
102
RTVSPropertyOp23
 70
     1
102
RTVSPropertyOp24
 70
     1
102
RTVSPropertyOp25
 70
     1
102
RTVSPropertyOp26
 70
     1
102
RTVSPropertyOp27
 70
     1
102
RTVSPropertyOp28
 70
     1
102
RTVSPropertyOp29
 70
     1
102
RTVSPropertyOp30
 70
     1
102
RTVSPropertyOp31
 70
     1
102
RTVSPropertyOp32
 70
     1
  0
XRECORD
  5
222
102
{ACAD_REACTORS
330
221
102
}
330
221
100
AcDbXrecord
280
     1
102
RTVSPropertyOp0
 70
     1
102
RTVSPropertyOp1
 70
     1
102
RTVSPropertyOp2
 70
     1
102
RTVSPropertyOp3
 70
     1
102
RTVSPropertyOp4
 70
     1
102
RTVSPropertyOp5
 70
     1
102
RTVSPropertyOp6
 70
     1
102
RTVSPropertyOp7
 70
     1
102
RTVSPropertyOp8
 70
     1
102
RTVSPropertyOp9
 70
     1
102
RTVSPropertyOp10
 70
     1
102
RTVSPropertyOp11
 70
     1
102
RTVSPropertyOp12
 70
     1
102
RTVSPropertyOp13
 70
     1
102
RTVSPropertyOp14
 70
     1
102
RTVSPropertyOp15
 70
     1
102
RTVSPropertyOp16
 70
     1
102
RTVSPropertyOp17
 70
     1
102
RTVSPropertyOp18
 70
     1
102
RTVSPropertyOp19
 70
     1
102
RTVSPropertyOp20
 70
     1
102
RTVSPropertyOp21
 70
     1
102
RTVSPropertyOp22
 70
     1
102
RTVSPropertyOp23
 70
     1
102
RTVSPropertyOp24
 70
     1
102
RTVSPropertyOp25
 70
     1
102
RTVSPropertyOp26
 70
     1
102
RTVSPropertyOp27
 70
     1
102
RTVSPropertyOp28
 70
     1
102
RTVSPropertyOp29
 70
     1
102
RTVSPropertyOp30
 70
     1
102
RTVSPropertyOp31
 70
     1
102
RTVSPropertyOp32
 70
     1
  0
XRECORD
  5
220
102
{ACAD_REACTORS
330
21F
102
}
330
21F
100
AcDbXrecord
280
     1
102
RTVSPropertyOp0
 70
     1
102
RTVSPropertyOp1
 70
     1
102
RTVSPropertyOp2
 70
     1
102
RTVSPropertyOp3
 70
     1
102
RTVSPropertyOp4
 70
     1
102
RTVSPropertyOp5
 70
     1
102
RTVSPropertyOp6
 70
     1
102
RTVSPropertyOp7
 70
     1
102
RTVSPropertyOp8
 70
     1
102
RTVSPropertyOp9
 70
     1
102
RTVSPropertyOp10
 70
     1
102
RTVSPropertyOp11
 70
     1
102
RTVSPropertyOp12
 70
     1
102
RTVSPropertyOp13
 70
     1
102
RTVSPropertyOp14
 70
     1
102
RTVSPropertyOp15
 70
     1
102
RTVSPropertyOp16
 70
     1
102
RTVSPropertyOp17
 70
     1
102
RTVSPropertyOp18
 70
     1
102
RTVSPropertyOp19
 70
     1
102
RTVSPropertyOp20
 70
     1
102
RTVSPropertyOp21
 70
     1
102
RTVSPropertyOp22
 70
     1
102
RTVSPropertyOp23
 70
     1
102
RTVSPropertyOp24
 70
     1
102
RTVSPropertyOp25
 70
     1
102
RTVSPropertyOp26
 70
     1
102
RTVSPropertyOp27
 70
     1
102
RTVSPropertyOp28
 70
     1
102
RTVSPropertyOp29
 70
     1
102
RTVSPropertyOp30
 70
     1
102
RTVSPropertyOp31
 70
     1
102
RTVSPropertyOp32
 70
     1
  0
XRECORD
  5
224
102
{ACAD_REACTORS
330
223
102
}
330
223
100
AcDbXrecord
280
     1
102
RTVSPropertyOp0
 70
     1
102
RTVSPropertyOp1
 70
     1
102
RTVSPropertyOp2
 70
     1
102
RTVSPropertyOp3
 70
     1
102
RTVSPropertyOp4
 70
     1
102
RTVSPropertyOp5
 70
     1
102
RTVSPropertyOp6
 70
     1
102
RTVSPropertyOp7
 70
     1
102
RTVSPropertyOp8
 70
     1
102
RTVSPropertyOp9
 70
     1
102
RTVSPropertyOp10
 70
     1
102
RTVSPropertyOp11
 70
     1
102
RTVSPropertyOp12
 70
     1
102
RTVSPropertyOp13
 70
     1
102
RTVSPropertyOp14
 70
     1
102
RTVSPropertyOp15
 70
     1
102
RTVSPropertyOp16
 70
     1
102
RTVSPropertyOp17
 70
     1
102
RTVSPropertyOp18
 70
     1
102
RTVSPropertyOp19
 70
     1
102
RTVSPropertyOp20
 70
     1
102
RTVSPropertyOp21
 70
     1
102
RTVSPropertyOp22
 70
     1
102
RTVSPropertyOp23
 70
     1
102
RTVSPropertyOp24
 70
     1
102
RTVSPropertyOp25
 70
     1
102
RTVSPropertyOp26
 70
     1
102
RTVSPropertyOp27
 70
     1
102
RTVSPropertyOp28
 70
     1
102
RTVSPropertyOp29
 70
     1
102
RTVSPropertyOp30
 70
     1
102
RTVSPropertyOp31
 70
     1
102
RTVSPropertyOp32
 70
     1
  0
XRECORD
  5
22C
102
{ACAD_REACTORS
330
22B
102
}
330
22B
100
AcDbXrecord
280
     1
102
RTVSPropertyOp0
 70
     1
102
RTVSPropertyOp1
 70
     1
102
RTVSPropertyOp2
 70
     1
102
RTVSPropertyOp3
 70
     1
102
RTVSPropertyOp4
 70
     1
102
RTVSPropertyOp5
 70
     1
102
RTVSPropertyOp6
 70
     1
102
RTVSPropertyOp7
 70
     1
102
RTVSPropertyOp8
 70
     1
102
RTVSPropertyOp9
 70
     1
102
RTVSPropertyOp10
 70
     1
102
RTVSPropertyOp11
 70
     1
102
RTVSPropertyOp12
 70
     1
102
RTVSPropertyOp13
 70
     1
102
RTVSPropertyOp14
 70
     1
102
RTVSPropertyOp15
 70
     1
102
RTVSPropertyOp16
 70
     1
102
RTVSPropertyOp17
 70
     1
102
RTVSPropertyOp18
 70
     1
102
RTVSPropertyOp19
 70
     1
102
RTVSPropertyOp20
 70
     1
102
RTVSPropertyOp21
 70
     1
102
RTVSPropertyOp22
 70
     1
102
RTVSPropertyOp23
 70
     1
102
RTVSPropertyOp24
 70
     1
102
RTVSPropertyOp25
 70
     1
102
RTVSPropertyOp26
 70
     1
102
RTVSPropertyOp27
 70
     1
102
RTVSPropertyOp28
 70
     1
102
RTVSPropertyOp29
 70
     1
102
RTVSPropertyOp30
 70
     1
102
RTVSPropertyOp31
 70
     1
102
RTVSPropertyOp32
 70
     1
  0
XRECORD
  5
234
102
{ACAD_REACTORS
330
233
102
}
330
233
100
AcDbXrecord
280
     1
102
RTVSPropertyOp0
 70
     1
102
RTVSPropertyOp1
 70
     1
102
RTVSPropertyOp2
 70
     1
102
RTVSPropertyOp3
 70
     1
102
RTVSPropertyOp4
 70
     1
102
RTVSPropertyOp5
 70
     1
102
RTVSPropertyOp6
 70
     1
102
RTVSPropertyOp7
 70
     1
102
RTVSPropertyOp8
 70
     1
102
RTVSPropertyOp9
 70
     1
102
RTVSPropertyOp10
 70
     1
102
RTVSPropertyOp11
 70
     1
102
RTVSPropertyOp12
 70
     1
102
RTVSPropertyOp13
 70
     1
102
RTVSPropertyOp14
 70
     1
102
RTVSPropertyOp15
 70
     1
102
RTVSPropertyOp16
 70
     1
102
RTVSPropertyOp17
 70
     1
102
RTVSPropertyOp18
 70
     1
102
RTVSPropertyOp19
 70
     1
102
RTVSPropertyOp20
 70
     1
102
RTVSPropertyOp21
 70
     1
102
RTVSPropertyOp22
 70
     1
102
RTVSPropertyOp23
 70
     1
102
RTVSPropertyOp24
 70
     1
102
RTVSPropertyOp25
 70
     1
102
RTVSPropertyOp26
 70
     1
102
RTVSPropertyOp27
 70
     1
102
RTVSPropertyOp28
 70
     1
102
RTVSPropertyOp29
 70
     1
102
RTVSPropertyOp30
 70
     1
102
RTVSPropertyOp31
 70
     1
102
RTVSPropertyOp32
 70
     1
  0
XRECORD
  5
228
102
{ACAD_REACTORS
330
227
102
}
330
227
100
AcDbXrecord
280
     1
102
RTVSPropertyOp0
 70
     1
102
RTVSPropertyOp1
 70
     1
102
RTVSPropertyOp2
 70
     1
102
RTVSPropertyOp3
 70
     1
102
RTVSPropertyOp4
 70
     1
102
RTVSPropertyOp5
 70
     1
102
RTVSPropertyOp6
 70
     1
102
RTVSPropertyOp7
 70
     1
102
RTVSPropertyOp8
 70
     1
102
RTVSPropertyOp9
 70
     1
102
RTVSPropertyOp10
 70
     1
102
RTVSPropertyOp11
 70
     1
102
RTVSPropertyOp12
 70
     1
102
RTVSPropertyOp13
 70
     1
102
RTVSPropertyOp14
 70
     1
102
RTVSPropertyOp15
 70
     1
102
RTVSPropertyOp16
 70
     1
102
RTVSPropertyOp17
 70
     1
102
RTVSPropertyOp18
 70
     1
102
RTVSPropertyOp19
 70
     1
102
RTVSPropertyOp20
 70
     1
102
RTVSPropertyOp21
 70
     1
102
RTVSPropertyOp22
 70
     1
102
RTVSPropertyOp23
 70
     1
102
RTVSPropertyOp24
 70
     1
102
RTVSPropertyOp25
 70
     1
102
RTVSPropertyOp26
 70
     1
102
RTVSPropertyOp27
 70
     1
102
RTVSPropertyOp28
 70
     1
102
RTVSPropertyOp29
 70
     1
102
RTVSPropertyOp30
 70
     1
102
RTVSPropertyOp31
 70
     1
102
RTVSPropertyOp32
 70
     1
  0
XRECORD
  5
22A
102
{ACAD_REACTORS
330
229
102
}
330
229
100
AcDbXrecord
280
     1
102
RTVSPropertyOp0
 70
     1
102
RTVSPropertyOp1
 70
     1
102
RTVSPropertyOp2
 70
     1
102
RTVSPropertyOp3
 70
     1
102
RTVSPropertyOp4
 70
     1
102
RTVSPropertyOp5
 70
     1
102
RTVSPropertyOp6
 70
     1
102
RTVSPropertyOp7
 70
     1
102
RTVSPropertyOp8
 70
     1
102
RTVSPropertyOp9
 70
     1
102
RTVSPropertyOp10
 70
     1
102
RTVSPropertyOp11
 70
     1
102
RTVSPropertyOp12
 70
     1
102
RTVSPropertyOp13
 70
     1
102
RTVSPropertyOp14
 70
     1
102
RTVSPropertyOp15
 70
     1
102
RTVSPropertyOp16
 70
     1
102
RTVSPropertyOp17
 70
     1
102
RTVSPropertyOp18
 70
     1
102
RTVSPropertyOp19
 70
     1
102
RTVSPropertyOp20
 70
     1
102
RTVSPropertyOp21
 70
     1
102
RTVSPropertyOp22
 70
     1
102
RTVSPropertyOp23
 70
     1
102
RTVSPropertyOp24
 70
     1
102
RTVSPropertyOp25
 70
     1
102
RTVSPropertyOp26
 70
     1
102
RTVSPropertyOp27
 70
     1
102
RTVSPropertyOp28
 70
     1
102
RTVSPropertyOp29
 70
     1
102
RTVSPropertyOp30
 70
     1
102
RTVSPropertyOp31
 70
     1
102
RTVSPropertyOp32
 70
     1
  0
XRECORD
  5
232
102
{ACAD_REACTORS
330
231
102
}
330
231
100
AcDbXrecord
280
     1
102
RTVSPropertyOp0
 70
     1
102
RTVSPropertyOp1
 70
     1
102
RTVSPropertyOp2
 70
     1
102
RTVSPropertyOp3
 70
     1
102
RTVSPropertyOp4
 70
     1
102
RTVSPropertyOp5
 70
     1
102
RTVSPropertyOp6
 70
     1
102
RTVSPropertyOp7
 70
     1
102
RTVSPropertyOp8
 70
     1
102
RTVSPropertyOp9
 70
     1
102
RTVSPropertyOp10
 70
     1
102
RTVSPropertyOp11
 70
     1
102
RTVSPropertyOp12
 70
     1
102
RTVSPropertyOp13
 70
     1
102
RTVSPropertyOp14
 70
     1
102
RTVSPropertyOp15
 70
     1
102
RTVSPropertyOp16
 70
     1
102
RTVSPropertyOp17
 70
     1
102
RTVSPropertyOp18
 70
     1
102
RTVSPropertyOp19
 70
     1
102
RTVSPropertyOp20
 70
     1
102
RTVSPropertyOp21
 70
     1
102
RTVSPropertyOp22
 70
     1
102
RTVSPropertyOp23
 70
     1
102
RTVSPropertyOp24
 70
     1
102
RTVSPropertyOp25
 70
     1
102
RTVSPropertyOp26
 70
     1
102
RTVSPropertyOp27
 70
     1
102
RTVSPropertyOp28
 70
     1
102
RTVSPropertyOp29
 70
     1
102
RTVSPropertyOp30
 70
     1
102
RTVSPropertyOp31
 70
     1
102
RTVSPropertyOp32
 70
     1
  0
XRECORD
  5
216
102
{ACAD_REACTORS
330
215
102
}
330
215
100
AcDbXrecord
280
     1
102
RTVSPropertyOp0
 70
     1
102
RTVSPropertyOp1
 70
     1
102
RTVSPropertyOp2
 70
     1
102
RTVSPropertyOp3
 70
     1
102
RTVSPropertyOp4
 70
     1
102
RTVSPropertyOp5
 70
     1
102
RTVSPropertyOp6
 70
     1
102
RTVSPropertyOp7
 70
     1
102
RTVSPropertyOp8
 70
     1
102
RTVSPropertyOp9
 70
     1
102
RTVSPropertyOp10
 70
     1
102
RTVSPropertyOp11
 70
     1
102
RTVSPropertyOp12
 70
     1
102
RTVSPropertyOp13
 70
     1
102
RTVSPropertyOp14
 70
     1
102
RTVSPropertyOp15
 70
     1
102
RTVSPropertyOp16
 70
     1
102
RTVSPropertyOp17
 70
     1
102
RTVSPropertyOp18
 70
     1
102
RTVSPropertyOp19
 70
     1
102
RTVSPropertyOp20
 70
     1
102
RTVSPropertyOp21
 70
     1
102
RTVSPropertyOp22
 70
     1
102
RTVSPropertyOp23
 70
     1
102
RTVSPropertyOp24
 70
     1
102
RTVSPropertyOp25
 70
     1
102
RTVSPropertyOp26
 70
     1
102
RTVSPropertyOp27
 70
     1
102
RTVSPropertyOp28
 70
     1
102
RTVSPropertyOp29
 70
     1
102
RTVSPropertyOp30
 70
     1
102
RTVSPropertyOp31
 70
     1
102
RTVSPropertyOp32
 70
     1
  0
XRECORD
  5
218
102
{ACAD_REACTORS
330
217
102
}
330
217
100
AcDbXrecord
280
     1
102
RTVSPropertyOp0
 70
     1
102
RTVSPropertyOp1
 70
     1
102
RTVSPropertyOp2
 70
     1
102
RTVSPropertyOp3
 70
     1
102
RTVSPropertyOp4
 70
     1
102
RTVSPropertyOp5
 70
     1
102
RTVSPropertyOp6
 70
     1
102
RTVSPropertyOp7
 70
     1
102
RTVSPropertyOp8
 70
     1
102
RTVSPropertyOp9
 70
     1
102
RTVSPropertyOp10
 70
     1
102
RTVSPropertyOp11
 70
     1
102
RTVSPropertyOp12
 70
     1
102
RTVSPropertyOp13
 70
     1
102
RTVSPropertyOp14
 70
     1
102
RTVSPropertyOp15
 70
     1
102
RTVSPropertyOp16
 70
     1
102
RTVSPropertyOp17
 70
     1
102
RTVSPropertyOp18
 70
     1
102
RTVSPropertyOp19
 70
     1
102
RTVSPropertyOp20
 70
     1
102
RTVSPropertyOp21
 70
     1
102
RTVSPropertyOp22
 70
     1
102
RTVSPropertyOp23
 70
     1
102
RTVSPropertyOp24
 70
     1
102
RTVSPropertyOp25
 70
     1
102
RTVSPropertyOp26
 70
     1
102
RTVSPropertyOp27
 70
     1
102
RTVSPropertyOp28
 70
     1
102
RTVSPropertyOp29
 70
     1
102
RTVSPropertyOp30
 70
     1
102
RTVSPropertyOp31
 70
     1
102
RTVSPropertyOp32
 70
     1
  0
XRECORD
  5
21A
102
{ACAD_REACTORS
330
219
102
}
330
219
100
AcDbXrecord
280
     1
102
RTVSPropertyOp0
 70
     1
102
RTVSPropertyOp1
 70
     1
102
RTVSPropertyOp2
 70
     1
102
RTVSPropertyOp3
 70
     1
102
RTVSPropertyOp4
 70
     1
102
RTVSPropertyOp5
 70
     1
102
RTVSPropertyOp6
 70
     1
102
RTVSPropertyOp7
 70
     1
102
RTVSPropertyOp8
 70
     1
102
RTVSPropertyOp9
 70
     1
102
RTVSPropertyOp10
 70
     1
102
RTVSPropertyOp11
 70
     1
102
RTVSPropertyOp12
 70
     1
102
RTVSPropertyOp13
 70
     1
102
RTVSPropertyOp14
 70
     1
102
RTVSPropertyOp15
 70
     1
102
RTVSPropertyOp16
 70
     1
102
RTVSPropertyOp17
 70
     1
102
RTVSPropertyOp18
 70
     1
102
RTVSPropertyOp19
 70
     1
102
RTVSPropertyOp20
 70
     1
102
RTVSPropertyOp21
 70
     1
102
RTVSPropertyOp22
 70
     1
102
RTVSPropertyOp23
 70
     1
102
RTVSPropertyOp24
 70
     1
102
RTVSPropertyOp25
 70
     1
102
RTVSPropertyOp26
 70
     1
102
RTVSPropertyOp27
 70
     1
102
RTVSPropertyOp28
 70
     1
102
RTVSPropertyOp29
 70
     1
102
RTVSPropertyOp30
 70
     1
102
RTVSPropertyOp31
 70
     1
102
RTVSPropertyOp32
 70
     1
  0
XRECORD
  5
21C
102
{ACAD_REACTORS
330
21B
102
}
330
21B
100
AcDbXrecord
280
     1
102
RTVSPropertyOp0
 70
     1
102
RTVSPropertyOp1
 70
     1
102
RTVSPropertyOp2
 70
     1
102
RTVSPropertyOp3
 70
     1
102
RTVSPropertyOp4
 70
     1
102
RTVSPropertyOp5
 70
     1
102
RTVSPropertyOp6
 70
     1
102
RTVSPropertyOp7
 70
     1
102
RTVSPropertyOp8
 70
     1
102
RTVSPropertyOp9
 70
     1
102
RTVSPropertyOp10
 70
     1
102
RTVSPropertyOp11
 70
     1
102
RTVSPropertyOp12
 70
     1
102
RTVSPropertyOp13
 70
     1
102
RTVSPropertyOp14
 70
     1
102
RTVSPropertyOp15
 70
     1
102
RTVSPropertyOp16
 70
     1
102
RTVSPropertyOp17
 70
     1
102
RTVSPropertyOp18
 70
     1
102
RTVSPropertyOp19
 70
     1
102
RTVSPropertyOp20
 70
     1
102
RTVSPropertyOp21
 70
     1
102
RTVSPropertyOp22
 70
     1
102
RTVSPropertyOp23
 70
     1
102
RTVSPropertyOp24
 70
     1
102
RTVSPropertyOp25
 70
     1
102
RTVSPropertyOp26
 70
     1
102
RTVSPropertyOp27
 70
     1
102
RTVSPropertyOp28
 70
     1
102
RTVSPropertyOp29
 70
     1
102
RTVSPropertyOp30
 70
     1
102
RTVSPropertyOp31
 70
     1
102
RTVSPropertyOp32
 70
     1
  0
XRECORD
  5
230
102
{ACAD_REACTORS
330
22F
102
}
330
22F
100
AcDbXrecord
280
     1
102
RTVSPropertyOp0
 70
     1
102
RTVSPropertyOp1
 70
     1
102
RTVSPropertyOp2
 70
     1
102
RTVSPropertyOp3
 70
     1
102
RTVSPropertyOp4
 70
     1
102
RTVSPropertyOp5
 70
     1
102
RTVSPropertyOp6
 70
     1
102
RTVSPropertyOp7
 70
     1
102
RTVSPropertyOp8
 70
     1
102
RTVSPropertyOp9
 70
     1
102
RTVSPropertyOp10
 70
     1
102
RTVSPropertyOp11
 70
     1
102
RTVSPropertyOp12
 70
     1
102
RTVSPropertyOp13
 70
     1
102
RTVSPropertyOp14
 70
     1
102
RTVSPropertyOp15
 70
     1
102
RTVSPropertyOp16
 70
     1
102
RTVSPropertyOp17
 70
     1
102
RTVSPropertyOp18
 70
     1
102
RTVSPropertyOp19
 70
     1
102
RTVSPropertyOp20
 70
     1
102
RTVSPropertyOp21
 70
     1
102
RTVSPropertyOp22
 70
     1
102
RTVSPropertyOp23
 70
     1
102
RTVSPropertyOp24
 70
     1
102
RTVSPropertyOp25
 70
     1
102
RTVSPropertyOp26
 70
     1
102
RTVSPropertyOp27
 70
     1
102
RTVSPropertyOp28
 70
     1
102
RTVSPropertyOp29
 70
     1
102
RTVSPropertyOp30
 70
     1
102
RTVSPropertyOp31
 70
     1
102
RTVSPropertyOp32
 70
     1
  0
XRECORD
  5
226
102
{ACAD_REACTORS
330
225
102
}
330
225
100
AcDbXrecord
280
     1
102
RTVSPropertyOp0
 70
     1
102
RTVSPropertyOp1
 70
     1
102
RTVSPropertyOp2
 70
     1
102
RTVSPropertyOp3
 70
     1
102
RTVSPropertyOp4
 70
     1
102
RTVSPropertyOp5
 70
     1
102
RTVSPropertyOp6
 70
     1
102
RTVSPropertyOp7
 70
     1
102
RTVSPropertyOp8
 70
     1
102
RTVSPropertyOp9
 70
     1
102
RTVSPropertyOp10
 70
     1
102
RTVSPropertyOp11
 70
     1
102
RTVSPropertyOp12
 70
     1
102
RTVSPropertyOp13
 70
     1
102
RTVSPropertyOp14
 70
     1
102
RTVSPropertyOp15
 70
     1
102
RTVSPropertyOp16
 70
     1
102
RTVSPropertyOp17
 70
     1
102
RTVSPropertyOp18
 70
     1
102
RTVSPropertyOp19
 70
     1
102
RTVSPropertyOp20
 70
     1
102
RTVSPropertyOp21
 70
     1
102
RTVSPropertyOp22
 70
     1
102
RTVSPropertyOp23
 70
     1
102
RTVSPropertyOp24
 70
     1
102
RTVSPropertyOp25
 70
     1
102
RTVSPropertyOp26
 70
     1
102
RTVSPropertyOp27
 70
     1
102
RTVSPropertyOp28
 70
     1
102
RTVSPropertyOp29
 70
     1
102
RTVSPropertyOp30
 70
     1
102
RTVSPropertyOp31
 70
     1
102
RTVSPropertyOp32
 70
     1
  0
XRECORD
  5
22E
102
{ACAD_REACTORS
330
22D
102
}
330
22D
100
AcDbXrecord
280
     1
102
RTVSPropertyOp0
 70
     1
102
RTVSPropertyOp1
 70
     1
102
RTVSPropertyOp2
 70
     1
102
RTVSPropertyOp3
 70
     1
102
RTVSPropertyOp4
 70
     1
102
RTVSPropertyOp5
 70
     1
102
RTVSPropertyOp6
 70
     1
102
RTVSPropertyOp7
 70
     1
102
RTVSPropertyOp8
 70
     1
102
RTVSPropertyOp9
 70
     1
102
RTVSPropertyOp10
 70
     1
102
RTVSPropertyOp11
 70
     1
102
RTVSPropertyOp12
 70
     1
102
RTVSPropertyOp13
 70
     1
102
RTVSPropertyOp14
 70
     1
102
RTVSPropertyOp15
 70
     1
102
RTVSPropertyOp16
 70
     1
102
RTVSPropertyOp17
 70
     1
102
RTVSPropertyOp18
 70
     1
102
RTVSPropertyOp19
 70
     1
102
RTVSPropertyOp20
 70
     1
102
RTVSPropertyOp21
 70
     1
102
RTVSPropertyOp22
 70
     1
102
RTVSPropertyOp23
 70
     1
102
RTVSPropertyOp24
 70
     1
102
RTVSPropertyOp25
 70
     1
102
RTVSPropertyOp26
 70
     1
102
RTVSPropertyOp27
 70
     1
102
RTVSPropertyOp28
 70
     1
102
RTVSPropertyOp29
 70
     1
102
RTVSPropertyOp30
 70
     1
102
RTVSPropertyOp31
 70
     1
102
RTVSPropertyOp32
 70
     1
  0
ENDSEC
  0
EOF
