  0
SECTION
  2
HEADER
  9
$ACADVER
  1
AC1018
  9
$ACADMAINTVER
 70
     0
  9
$DWGCODEPAGE
  3
ANSI_1252
  9
$INSBASE
 10
0.0
 20
0.0
 30
0.0
  9
$EXTMIN
 10
-206.9614422990963
 20
-6.59413332822959
 30
0.0
  9
$EXTMAX
 10
90.03855770090175
 20
203.4058666717705
 30
0.0
  9
$LIMMIN
 10
0.0
 20
0.0
  9
$LIMMAX
 10
12.0
 20
9.0
  9
$ORTHOMODE
 70
     0
  9
$REGENMODE
 70
     1
  9
$FILLMODE
 70
     1
  9
$QTEXTMODE
 70
     0
  9
$MIRRTEXT
 70
     1
  9
$LTSCALE
 40
1.0
  9
$ATTMODE
 70
     1
  9
$TEXTSIZE
 40
0.2
  9
$TRACEWID
 40
0.05
  9
$TEXTSTYLE
  7
Standard
  9
$CLAYER
  8
0
  9
$CELTYPE
  6
ByLayer
  9
$CECOLOR
 62
   256
  9
$CELTSCALE
 40
1.0
  9
$DISPSILH
 70
     0
  9
$DIMSCALE
 40
1.0
  9
$DIMASZ
 40
0.18
  9
$DIMEXO
 40
0.0625
  9
$DIMDLI
 40
0.38
  9
$DIMRND
 40
0.0
  9
$DIMDLE
 40
0.0
  9
$DIMEXE
 40
0.18
  9
$DIMTP
 40
0.0
  9
$DIMTM
 40
0.0
  9
$DIMTXT
 40
0.18
  9
$DIMCEN
 40
0.09
  9
$DIMTSZ
 40
0.0
  9
$DIMTOL
 70
     0
  9
$DIMLIM
 70
     0
  9
$DIMTIH
 70
     1
  9
$DIMTOH
 70
     1
  9
$DIMSE1
 70
     0
  9
$DIMSE2
 70
     0
  9
$DIMTAD
 70
     0
  9
$DIMZIN
 70
     0
  9
$DIMBLK
  1

  9
$DIMASO
 70
     1
  9
$DIMSHO
 70
     1
  9
$DIMPOST
  1

  9
$DIMAPOST
  1

  9
$DIMALT
 70
     0
  9
$DIMALTD
 70
     2
  9
$DIMALTF
 40
25.4
  9
$DIMLFAC
 40
1.0
  9
$DIMTOFL
 70
     0
  9
$DIMTVP
 40
0.0
  9
$DIMTIX
 70
     0
  9
$DIMSOXD
 70
     0
  9
$DIMSAH
 70
     0
  9
$DIMBLK1
  1

  9
$DIMBLK2
  1

  9
$DIMSTYLE
  2
Standard
  9
$DIMCLRD
 70
     0
  9
$DIMCLRE
 70
     0
  9
$DIMCLRT
 70
     0
  9
$DIMTFAC
 40
1.0
  9
$DIMGAP
 40
0.09
  9
$DIMJUST
 70
     0
  9
$DIMSD1
 70
     0
  9
$DIMSD2
 70
     0
  9
$DIMTOLJ
 70
     1
  9
$DIMTZIN
 70
     0
  9
$DIMALTZ
 70
     0
  9
$DIMALTTZ
 70
     0
  9
$DIMUPT
 70
     0
  9
$DIMDEC
 70
     4
  9
$DIMTDEC
 70
     4
  9
$DIMALTU
 70
     2
  9
$DIMALTTD
 70
     2
  9
$DIMTXSTY
  7
Standard
  9
$DIMAUNIT
 70
     0
  9
$DIMADEC
 70
     0
  9
$DIMALTRND
 40
0.0
  9
$DIMAZIN
 70
     0
  9
$DIMDSEP
 70
    46
  9
$DIMATFIT
 70
     3
  9
$DIMFRAC
 70
     0
  9
$DIMLDRBLK
  1

  9
$DIMLUNIT
 70
     2
  9
$DIMLWD
 70
    -2
  9
$DIMLWE
 70
    -2
  9
$DIMTMOVE
 70
     0
  9
$LUNITS
 70
     2
  9
$LUPREC
 70
     4
  9
$SKETCHINC
 40
0.1
  9
$FILLETRAD
 40
0.5
  9
$AUNITS
 70
     0
  9
$AUPREC
 70
     0
  9
$MENU
  1
.
  9
$ELEVATION
 40
0.0
  9
$PELEVATION
 40
0.0
  9
$THICKNESS
 40
0.0
  9
$LIMCHECK
 70
     0
  9
$CHAMFERA
 40
0.0
  9
$CHAMFERB
 40
0.0
  9
$CHAMFERC
 40
0.0
  9
$CHAMFERD
 40
0.0
  9
$SKPOLY
 70
     0
  9
$TDCREATE
 40
2459275.353324282
  9
$TDUCREATE
 40
2459275.311657616
  9
$TDUPDATE
 40
2459275.353324468
  9
$TDUUPDATE
 40
2459275.311657801
  9
$TDINDWG
 40
0.0000000116
  9
$TDUSRTIMER
 40
0.0000000116
  9
$USRTIMER
 70
     1
  9
$ANGBASE
 50
0.0
  9
$ANGDIR
 70
     0
  9
$PDMODE
 70
     0
  9
$PDSIZE
 40
0.0
  9
$PLINEWID
 40
0.0
  9
$SPLFRAME
 70
     0
  9
$SPLINETYPE
 70
     6
  9
$SPLINESEGS
 70
     8
  9
$HANDSEED
  5
371
  9
$SURFTAB1
 70
     6
  9
$SURFTAB2
 70
     6
  9
$SURFTYPE
 70
     6
  9
$SURFU
 70
     6
  9
$SURFV
 70
     6
  9
$UCSBASE
  2

  9
$UCSNAME
  2

  9
$UCSORG
 10
0.0
 20
0.0
 30
0.0
  9
$UCSXDIR
 10
1.0
 20
0.0
 30
0.0
  9
$UCSYDIR
 10
0.0
 20
1.0
 30
0.0
  9
$UCSORTHOREF
  2

  9
$UCSORTHOVIEW
 70
     0
  9
$UCSORGTOP
 10
0.0
 20
0.0
 30
0.0
  9
$UCSORGBOTTOM
 10
0.0
 20
0.0
 30
0.0
  9
$UCSORGLEFT
 10
0.0
 20
0.0
 30
0.0
  9
$UCSORGRIGHT
 10
0.0
 20
0.0
 30
0.0
  9
$UCSORGFRONT
 10
0.0
 20
0.0
 30
0.0
  9
$UCSORGBACK
 10
0.0
 20
0.0
 30
0.0
  9
$PUCSBASE
  2

  9
$PUCSNAME
  2

  9
$PUCSORG
 10
0.0
 20
0.0
 30
0.0
  9
$PUCSXDIR
 10
1.0
 20
0.0
 30
0.0
  9
$PUCSYDIR
 10
0.0
 20
1.0
 30
0.0
  9
$PUCSORTHOREF
  2

  9
$PUCSORTHOVIEW
 70
     0
  9
$PUCSORGTOP
 10
0.0
 20
0.0
 30
0.0
  9
$PUCSORGBOTTOM
 10
0.0
 20
0.0
 30
0.0
  9
$PUCSORGLEFT
 10
0.0
 20
0.0
 30
0.0
  9
$PUCSORGRIGHT
 10
0.0
 20
0.0
 30
0.0
  9
$PUCSORGFRONT
 10
0.0
 20
0.0
 30
0.0
  9
$PUCSORGBACK
 10
0.0
 20
0.0
 30
0.0
  9
$USERI1
 70
     0
  9
$USERI2
 70
     0
  9
$USERI3
 70
     0
  9
$USERI4
 70
     0
  9
$USERI5
 70
     0
  9
$USERR1
 40
20.1
  9
$USERR2
 40
0.0
  9
$USERR3
 40
0.0
  9
$USERR4
 40
0.0
  9
$USERR5
 40
0.0
  9
$WORLDVIEW
 70
     1
  9
$SHADEDGE
 70
     3
  9
$SHADEDIF
 70
    70
  9
$TILEMODE
 70
     1
  9
$MAXACTVP
 70
    64
  9
$PINSBASE
 10
0.0
 20
0.0
 30
0.0
  9
$PLIMCHECK
 70
     0
  9
$PEXTMIN
 10
1.00000000000000E+20
 20
1.00000000000000E+20
 30
1.00000000000000E+20
  9
$PEXTMAX
 10
-1.00000000000000E+20
 20
-1.00000000000000E+20
 30
-1.00000000000000E+20
  9
$PLIMMIN
 10
0.0
 20
0.0
  9
$PLIMMAX
 10
12.0
 20
9.0
  9
$UNITMODE
 70
     0
  9
$VISRETAIN
 70
     1
  9
$PLINEGEN
 70
     0
  9
$PSLTSCALE
 70
     1
  9
$TREEDEPTH
 70
  3020
  9
$CMLSTYLE
  2
Standard
  9
$CMLJUST
 70
     0
  9
$CMLSCALE
 40
1.0
  9
$PROXYGRAPHICS
 70
     1
  9
$MEASUREMENT
 70
     1
  9
$CELWEIGHT
370
    -1
  9
$ENDCAPS
280
     0
  9
$JOINSTYLE
280
     0
  9
$LWDISPLAY
290
     0
  9
$INSUNITS
 70
     4
  9
$HYPERLINKBASE
  1

  9
$STYLESHEET
  1

  9
$XEDIT
290
     1
  9
$CEPSNTYPE
380
     0
  9
$PSTYLEMODE
290
     1
  9
$FINGERPRINTGUID
  2
{2d932b77-63ab-44a5-b41a-0cfbd0e04b67}
  9
$VERSIONGUID
  2
{FAEB1C32-E019-11D5-929B-00C0DF256EC4}
  9
$EXTNAMES
290
     1
  9
$PSVPSCALE
 40
0.0
  9
$OLESTARTUP
290
     0
  9
$SORTENTS
280
   127
  9
$INDEXCTL
280
     0
  9
$HIDETEXT
280
     1
  9
$XCLIPFRAME
290
     0
  9
$HALOGAP
280
     0
  9
$OBSCOLOR
 70
   257
  9
$OBSLTYPE
280
     0
  9
$INTERSECTIONDISPLAY
280
     0
  9
$INTERSECTIONCOLOR
 70
   257
  9
$DIMASSOC
280
     2
  9
$PROJECTNAME
  1

  0
ENDSEC
  0
SECTION
  2
CLASSES
  0
CLASS
  1
ACDBDICTIONARYWDFLT
  2
AcDbDictionaryWithDefault
  3
ObjectDBX Classes
 90
        0
 91
        3
280
     0
281
     0
  0
CLASS
  1
VISUALSTYLE
  2
AcDbVisualStyle
  3
ObjectDBX Classes
 90
     4095
 91
        3
280
     0
281
     0
  0
CLASS
  1
MATERIAL
  2
AcDbMaterial
  3
ObjectDBX Classes
 90
     1153
 91
        3
280
     0
281
     0
  0
CLASS
  1
SCALE
  2
AcDbScale
  3
ObjectDBX Classes
 90
     1153
 91
        3
280
     0
281
     0
  0
CLASS
  1
TABLESTYLE
  2
AcDbTableStyle
  3
ObjectDBX Classes
 90
     4095
 91
        3
280
     0
281
     0
  0
CLASS
  1
MLEADERSTYLE
  2
AcDbMLeaderStyle
  3
ACDB_MLEADERSTYLE_CLASS
 90
     4095
 91
        3
280
     0
281
     0
  0
CLASS
  1
SUN
  2
AcDbSun
  3
SCENEOE
 90
     1153
 91
        3
280
     0
281
     0
  0
CLASS
  1
DICTIONARYVAR
  2
AcDbDictionaryVar
  3
ObjectDBX Classes
 90
        0
 91
        3
280
     0
281
     0
  0
CLASS
  1
CELLSTYLEMAP
  2
AcDbCellStyleMap
  3
ObjectDBX Classes
 90
     1152
 91
        3
280
     0
281
     0
  0
ENDSEC
  0
SECTION
  2
TABLES
  0
TABLE
  2
VPORT
  5
8
102
{ACAD_XDICTIONARY
360
32A
102
}
330
0
100
AcDbSymbolTable
 70
     1
  0
VPORT
  5
29
330
8
100
AcDbSymbolTableRecord
100
AcDbViewportTableRecord
  2
*Active
 70
     0
 10
0.0
 20
0.0
 11
1.0
 21
1.0
 12
-58.46144229909727
 22
98.40586667177045
 13
0.0
 23
0.0
 14
0.5
 24
0.5
 15
0.5
 25
0.5
 16
0.0
 26
0.0
 36
1.0
 17
0.0
 27
0.0
 37
0.0
 40
231.0000000000001
 41
1.60267857142857
 42
50.0
 43
0.0
 44
0.0
 50
0.0
 51
0.0
 71
     0
 72
   100
 73
     1
 74
     3
 75
     0
 76
     0
 77
     0
 78
     0
281
     0
 65
     1
110
0.0
120
0.0
130
0.0
111
1.0
121
0.0
131
0.0
112
0.0
122
1.0
132
0.0
 79
     0
146
0.0
  0
ENDTAB
  0
TABLE
  2
LTYPE
  5
5
330
0
100
AcDbSymbolTable
 70
     8
  0
LTYPE
  5
14
330
5
100
AcDbSymbolTableRecord
100
AcDbLinetypeTableRecord
  2
ByBlock
 70
     0
  3

 72
    65
 73
     0
 40
0.0
  0
LTYPE
  5
15
330
5
100
AcDbSymbolTableRecord
100
AcDbLinetypeTableRecord
  2
ByLayer
 70
     0
  3

 72
    65
 73
     0
 40
0.0
  0
LTYPE
  5
16
330
5
100
AcDbSymbolTableRecord
100
AcDbLinetypeTableRecord
  2
Continuous
 70
     0
  3
Solid line
 72
    65
 73
     0
 40
0.0
  0
LTYPE
  5
6E
330
5
100
AcDbSymbolTableRecord
100
AcDbLinetypeTableRecord
  2
DASHED
 70
     0
  3
Dashed
 72
    65
 73
     2
 40
15.0
 49
7.0
 74
     0
 49
-8.0
 74
     0
  0
LTYPE
  5
6F
330
5
100
AcDbSymbolTableRecord
100
AcDbLinetypeTableRecord
  2
DOTTED
 70
     0
  3
Dotted
 72
    65
 73
     2
 40
1.0
 49
0.0
 74
     0
 49
-1.0
 74
     0
  0
LTYPE
  5
70
330
5
100
AcDbSymbolTableRecord
100
AcDbLinetypeTableRecord
  2
DOT_CENTER
 70
     0
  3
Dot_Center
 72
    65
 73
     4
 40
14.0
 49
12.0
 74
     0
 49
-1.0
 74
     0
 49
0.0
 74
     0
 49
-1.0
 74
     0
  0
LTYPE
  5
71
330
5
100
AcDbSymbolTableRecord
100
AcDbLinetypeTableRecord
  2
LONG_DASHED
 70
     0
  3
Long_Dashed
 72
    65
 73
     2
 40
15.0
 49
10.0
 74
     0
 49
-5.0
 74
     0
  0
LTYPE
  5
72
330
5
100
AcDbSymbolTableRecord
100
AcDbLinetypeTableRecord
  2
DASH_CENTER
 70
     0
  3
Dash_Center
 72
    65
 73
     4
 40
14.0
 49
11.0
 74
     0
 49
-1.0
 74
     0
 49
1.0
 74
     0
 49
-1.0
 74
     0
  0
LTYPE
  5
73
330
5
100
AcDbSymbolTableRecord
100
AcDbLinetypeTableRecord
  2
PHANTOM
 70
     0
  3
Phantom
 72
    65
 73
     6
 40
13.0
 49
10.0
 74
     0
 49
-1.0
 74
     0
 49
0.0
 74
     0
 49
-1.0
 74
     0
 49
0.0
 74
     0
 49
-1.0
 74
     0
  0
LTYPE
  5
74
330
5
100
AcDbSymbolTableRecord
100
AcDbLinetypeTableRecord
  2
CENTER_DASH_DASH
 70
     0
  3
Center_Dash_Dash
 72
    65
 73
     6
 40
14.0
 49
9.0
 74
     0
 49
-1.0
 74
     0
 49
1.0
 74
     0
 49
-1.0
 74
     0
 49
1.0
 74
     0
 49
-1.0
 74
     0
  0
ENDTAB
  0
TABLE
  2
LAYER
  5
2
330
0
100
AcDbSymbolTable
 70
     2
  0
LAYER
  5
10
330
2
100
AcDbSymbolTableRecord
100
AcDbLayerTableRecord
  2
0
 70
     0
 62
     7
  6
Continuous
370
    -3
390
F
  0
LAYER
  5
75
330
2
100
AcDbSymbolTableRecord
100
AcDbLayerTableRecord
  2
1
 70
     0
 62
     7
  6
Continuous
370
    -3
390
F
  0
ENDTAB
  0
TABLE
  2
STYLE
  5
3
330
0
100
AcDbSymbolTable
 70
     5
  0
STYLE
  5
11
330
3
100
AcDbSymbolTableRecord
100
AcDbTextStyleTableRecord
  2
Standard
 70
     0
 40
0.0
 41
1.0
 50
0.0
 71
     0
 42
0.2
  3
txt
  4

  0
STYLE
  5
F0
330
3
100
AcDbSymbolTableRecord
100
AcDbTextStyleTableRecord
  2
CONVERTER_11
 70
     0
 40
0.0
 41
0.9
 50
0.0
 71
     0
 42
0.2
  3
txt.shx
  4

  0
STYLE
  5
2ED
330
3
100
AcDbSymbolTableRecord
100
AcDbTextStyleTableRecord
  2
CONVERTER_12
 70
     0
 40
0.0
 41
0.81
 50
0.0
 71
     0
 42
0.2
  3
txt.shx
  4

  0
STYLE
  5
303
330
3
100
AcDbSymbolTableRecord
100
AcDbTextStyleTableRecord
  2
CONVERTER_13
 70
     0
 40
0.0
 41
0.72
 50
0.0
 71
     0
 42
0.2
  3
txt.shx
  4

  0
STYLE
  5
306
330
3
100
AcDbSymbolTableRecord
100
AcDbTextStyleTableRecord
  2
CONVERTER_14
 70
     0
 40
0.0
 41
0.855
 50
0.0
 71
     0
 42
0.2
  3
txt.shx
  4

  0
ENDTAB
  0
TABLE
  2
VIEW
  5
6
330
0
100
AcDbSymbolTable
 70
     0
  0
ENDTAB
  0
TABLE
  2
UCS
  5
7
330
0
100
AcDbSymbolTable
 70
     0
  0
ENDTAB
  0
TABLE
  2
APPID
  5
9
330
0
100
AcDbSymbolTable
 70
     2
  0
APPID
  5
12
330
9
100
AcDbSymbolTableRecord
100
AcDbRegAppTableRecord
  2
ACAD
 70
     0
  0
APPID
  5
369
330
9
100
AcDbSymbolTableRecord
100
AcDbRegAppTableRecord
  2
ACAD_MLEADERVER
 70
     0
  0
ENDTAB
  0
TABLE
  2
DIMSTYLE
  5
A
330
0
100
AcDbSymbolTable
 70
     2
100
AcDbDimStyleTable
  0
DIMSTYLE
105
27
330
A
100
AcDbSymbolTableRecord
100
AcDbDimStyleTableRecord
  2
Standard
 70
     0
178
     0
340
11
  0
DIMSTYLE
105
1EF
102
{ACAD_REACTORS
330
1F0
102
}
330
A
100
AcDbSymbolTableRecord
100
AcDbDimStyleTableRecord
  2
ME10_DIM_10
 70
     0
 41
3.5
 42
0.0
 44
1.5
 73
     0
 74
     0
 77
     1
 78
     8
140
3.5
147
1.5
172
     1
173
     1
174
     1
175
     1
176
     2
177
     2
178
     3
340
F0
  0
ENDTAB
  0
TABLE
  2
BLOCK_RECORD
  5
1
330
0
100
AcDbSymbolTable
 70
    20
  0
BLOCK_RECORD
  5
1F
330
1
100
AcDbSymbolTableRecord
100
AcDbBlockTableRecord
  2
*Model_Space
340
22
  0
BLOCK_RECORD
  5
1B
330
1
100
AcDbSymbolTableRecord
100
AcDbBlockTableRecord
  2
*Paper_Space
340
1E
  0
BLOCK_RECORD
  5
23
330
1
100
AcDbSymbolTableRecord
100
AcDbBlockTableRecord
  2
*Paper_Space0
340
26
  0
BLOCK_RECORD
  5
76
330
1
100
AcDbSymbolTableRecord
100
AcDbBlockTableRecord
  2
EB_2_6_OG-select__1
340
0
102
{BLKREFS
331
7A
102
}
  0
BLOCK_RECORD
  5
79
330
1
100
AcDbSymbolTableRecord
100
AcDbBlockTableRecord
  2
Back1
340
0
102
{BLKREFS
331
AC
102
}
  0
BLOCK_RECORD
  5
7D
330
1
100
AcDbSymbolTableRecord
100
AcDbBlockTableRecord
  2
EB_2_6_OG-select__2
340
0
102
{BLKREFS
331
81
102
}
  0
BLOCK_RECORD
  5
80
330
1
100
AcDbSymbolTableRecord
100
AcDbBlockTableRecord
  2
Front1
340
0
102
{BLKREFS
331
AD
102
}
  0
BLOCK_RECORD
  5
84
330
1
100
AcDbSymbolTableRecord
100
AcDbBlockTableRecord
  2
EB_2_6_OG-select__3
340
0
102
{BLKREFS
331
88
102
}
  0
BLOCK_RECORD
  5
87
330
1
100
AcDbSymbolTableRecord
100
AcDbBlockTableRecord
  2
Gen1
340
0
102
{BLKREFS
331
AE
102
}
  0
BLOCK_RECORD
  5
8B
330
1
100
AcDbSymbolTableRecord
100
AcDbBlockTableRecord
  2
EB_2_6_OG-select__4
340
0
102
{BLKREFS
331
8F
102
}
  0
BLOCK_RECORD
  5
8E
330
1
100
AcDbSymbolTableRecord
100
AcDbBlockTableRecord
  2
Left1
340
0
102
{BLKREFS
331
AF
102
}
  0
BLOCK_RECORD
  5
92
330
1
100
AcDbSymbolTableRecord
100
AcDbBlockTableRecord
  2
EB_2_6_OG-select__5
340
0
102
{BLKREFS
331
96
102
}
  0
BLOCK_RECORD
  5
95
330
1
100
AcDbSymbolTableRecord
100
AcDbBlockTableRecord
  2
Right1
340
0
102
{BLKREFS
331
B0
102
}
  0
BLOCK_RECORD
  5
99
330
1
100
AcDbSymbolTableRecord
100
AcDbBlockTableRecord
  2
EB_2_6_OG-select__6
340
0
102
{BLKREFS
331
9D
102
}
  0
BLOCK_RECORD
  5
9C
330
1
100
AcDbSymbolTableRecord
100
AcDbBlockTableRecord
  2
Top1
340
0
102
{BLKREFS
331
B1
102
}
  0
BLOCK_RECORD
  5
A0
330
1
100
AcDbSymbolTableRecord
100
AcDbBlockTableRecord
  2
_rahmen
340
0
102
{BLKREFS
331
A7
102
}
  0
BLOCK_RECORD
  5
A3
330
1
100
AcDbSymbolTableRecord
100
AcDbBlockTableRecord
  2
_punkt
340
0
102
{BLKREFS
331
A8
102
}
  0
BLOCK_RECORD
  5
A6
330
1
100
AcDbSymbolTableRecord
100
AcDbBlockTableRecord
  2
A4I_CS
340
0
102
{BLKREFS
331
B2
102
}
  0
BLOCK_RECORD
  5
AB
330
1
100
AcDbSymbolTableRecord
100
AcDbBlockTableRecord
  2
1
340
0
102
{BLKREFS
331
B5
102
}
  0
BLOCK_RECORD
  5
EA
330
1
100
AcDbSymbolTableRecord
100
AcDbBlockTableRecord
  2
*D17
340
0
102
{BLKREFS
331
F4
102
}
  0
BLOCK_RECORD
  5
F5
330
1
100
AcDbSymbolTableRecord
100
AcDbBlockTableRecord
  2
*D18
340
0
102
{BLKREFS
331
100
102
}
  0
BLOCK_RECORD
  5
1E4
330
1
100
AcDbSymbolTableRecord
100
AcDbBlockTableRecord
  2
*D19
340
0
  0
ENDTAB
  0
ENDSEC
  0
SECTION
  2
BLOCKS
  0
BLOCK
  5
20
330
1F
100
AcDbEntity
  8
0
100
AcDbBlockBegin
  2
*Model_Space
 70
     0
 10
0.0
 20
0.0
 30
0.0
  3
*Model_Space
  1

  0
ENDBLK
  5
21
330
1F
100
AcDbEntity
  8
0
100
AcDbBlockEnd
  0
BLOCK
  5
1C
330
1B
100
AcDbEntity
 67
     1
  8
0
100
AcDbBlockBegin
  2
*Paper_Space
 70
     0
 10
0.0
 20
0.0
 30
0.0
  3
*Paper_Space
  1

  0
ENDBLK
  5
1D
330
1B
100
AcDbEntity
 67
     1
  8
0
100
AcDbBlockEnd
  0
BLOCK
  5
24
330
23
100
AcDbEntity
  8
0
100
AcDbBlockBegin
  2
*Paper_Space0
 70
     0
 10
0.0
 20
0.0
 30
0.0
  3
*Paper_Space0
  1

  0
ENDBLK
  5
25
330
23
100
AcDbEntity
  8
0
100
AcDbBlockEnd
  0
BLOCK
  5
77
330
76
100
AcDbEntity
  8
0
100
AcDbBlockBegin
  2
EB_2_6_OG-select__1
 70
     0
 10
-4.70777217330993
 20
126.0103410404097
 30
0.0
  3
EB_2_6_OG-select__1
  1

  0
LINE
  5
B6
330
76
100
AcDbEntity
  8
0
  6
Continuous
 62
     7
100
AcDbLine
 10
-4.70777217330993
 20
127.0103410404097
 30
0.0
 11
-3.87121876812023
 21
127.0103410404098
 31
0.0
  0
LINE
  5
B7
330
76
100
AcDbEntity
  8
0
  6
Continuous
 62
     2
100
AcDbLine
 10
-3.56548808666153
 20
126.0103410404098
 30
0.0
 11
-3.87121876812023
 21
127.0103410404098
 31
0.0
  0
LINE
  5
B8
330
76
100
AcDbEntity
  8
0
  6
Continuous
 62
     7
100
AcDbLine
 10
-3.22793209890052
 20
127.0103410404098
 30
0.0
 11
-3.87121876812023
 21
127.0103410404098
 31
0.0
  0
LINE
  5
B9
330
76
100
AcDbEntity
  8
0
  6
Continuous
 62
     7
100
AcDbLine
 10
-2.92220141744181
 20
126.0103410404098
 30
0.0
 11
-3.56548808666153
 21
126.0103410404098
 31
0.0
  0
LINE
  5
BA
330
76
100
AcDbEntity
  8
0
  6
Continuous
 62
     7
100
AcDbLine
 10
5.95828374285887
 20
127.0103410404098
 30
0.0
 11
7.4977381732748
 21
128.0487161650161
 31
0.0
  0
LINE
  5
BB
330
76
100
AcDbEntity
  8
0
  6
Continuous
 62
     7
100
AcDbLine
 10
-1.7530824919336
 20
126.0103410404098
 30
0.0
 11
-2.05881317339226
 21
127.0103410404098
 31
0.0
  0
LINE
  5
BC
330
76
100
AcDbEntity
  8
0
  6
Continuous
 62
     7
100
AcDbLine
 10
-2.05881317339226
 20
127.0103410404098
 30
0.0
 11
5.95828374285887
 21
127.0103410404098
 31
0.0
  0
LINE
  5
BD
330
76
100
AcDbEntity
  8
0
  6
Continuous
 62
     2
100
AcDbLine
 10
-2.92220141744181
 20
126.0103410404098
 30
0.0
 11
-3.22793209890052
 21
127.0103410404098
 31
0.0
  0
LINE
  5
BE
330
76
100
AcDbEntity
  8
0
  6
Continuous
 62
     7
100
AcDbLine
 10
-2.05881317339226
 20
127.0103410404098
 30
0.0
 11
-3.22793209890052
 21
127.0103410404098
 31
0.0
  0
LINE
  5
BF
330
76
100
AcDbEntity
  8
0
  6
Continuous
 62
     7
100
AcDbLine
 10
-2.92220141744181
 20
126.0103410404098
 30
0.0
 11
-1.7530824919336
 21
126.0103410404098
 31
0.0
  0
LINE
  5
C0
330
76
100
AcDbEntity
  8
0
  6
Continuous
 62
     7
100
AcDbLine
 10
-4.40204149185127
 20
126.0103410404097
 30
0.0
 11
-4.70777217330993
 21
127.0103410404097
 31
0.0
  0
LINE
  5
C1
330
76
100
AcDbEntity
  8
0
  6
Continuous
 62
     7
100
AcDbLine
 10
-3.56548808666153
 20
126.0103410404098
 30
0.0
 11
-4.40204149185127
 21
126.0103410404097
 31
0.0
  0
LINE
  5
C2
330
76
100
AcDbEntity
  8
0
  6
Continuous
 62
     7
100
AcDbLine
 10
16.37916716052994
 20
132.0490560436195
 30
0.0
 11
8.42040646400154
 21
126.6808041703003
 31
0.0
  0
LINE
  5
C3
330
76
100
AcDbEntity
  8
0
  6
Continuous
 62
     7
100
AcDbLine
 10
8.0569310767456
 20
127.219678592461
 30
0.0
 11
8.42040646400154
 21
126.6808041703003
 31
0.0
  0
LINE
  5
C4
330
76
100
AcDbEntity
  8
0
  6
Continuous
 62
     7
100
AcDbLine
 10
7.49842135698087
 20
128.0477033035192
 30
0.0
 11
8.0569310767456
 21
127.219678592461
 31
0.0
  0
LINE
  5
C5
330
76
100
AcDbEntity
  8
0
  6
Continuous
 62
     7
100
AcDbLine
 10
6.26401442431762
 20
126.0103410404098
 30
0.0
 11
8.0569310767456
 21
127.219678592461
 31
0.0
  0
LINE
  5
C6
330
76
100
AcDbEntity
  8
0
  6
Continuous
 62
     7
100
AcDbLine
 10
9.90263031739048
 20
129.6693627235844
 30
0.0
 11
9.90194713368447
 21
129.6703755850813
 31
0.0
  0
LINE
  5
C7
330
76
100
AcDbEntity
  8
0
  6
Continuous
 62
     7
100
AcDbLine
 10
9.90194713368447
 20
129.6703755850813
 30
0.0
 11
9.53847174642844
 21
130.2092500072421
 31
0.0
  0
LINE
  5
C8
330
76
100
AcDbEntity
  8
0
  6
Continuous
 62
     7
100
AcDbLine
 10
15.09302348254722
 20
133.9558424604961
 30
0.0
 11
9.53847174642844
 21
130.2092500072421
 31
0.0
  0
LINE
  5
C9
330
76
100
AcDbEntity
  8
0
  6
Continuous
 62
     7
100
AcDbLine
 10
16.43313609434681
 20
132.3267021388247
 30
0.0
 11
15.37066957775239
 21
133.9018735266792
 31
0.0
  0
LINE
  5
CA
330
76
100
AcDbEntity
  8
0
  6
Continuous
 62
     7
100
AcDbLine
 10
7.49842135698087
 20
128.0477033035192
 30
0.0
 11
9.90263031739048
 21
129.6693627235844
 31
0.0
  0
LINE
  5
CB
330
76
100
AcDbEntity
  8
0
  6
Continuous
 62
     7
100
AcDbLine
 10
7.4977381732748
 20
128.0487161650161
 30
0.0
 11
7.49842135698087
 21
128.0477033035192
 31
0.0
  0
LINE
  5
CC
330
76
100
AcDbEntity
  8
0
  6
Continuous
 62
     7
100
AcDbLine
 10
7.4977381732748
 20
128.0487161650161
 30
0.0
 11
9.90194713368447
 21
129.6703755850813
 31
0.0
  0
LINE
  5
CD
330
76
100
AcDbEntity
  8
0
  6
Continuous
 62
     7
100
AcDbLine
 10
6.26401442431762
 20
126.0103410404098
 30
0.0
 11
-1.7530824919336
 21
126.0103410404098
 31
0.0
  0
ARC
  5
CE
330
76
100
AcDbEntity
  8
0
  6
Continuous
 62
     7
100
AcDbCircle
 10
15.20486206324138
 20
133.7900349459851
 30
0.0
 40
0.1999999999999717
100
AcDbArc
 50
33.99999999998766
 51
124.0000000000059
  0
ARC
  5
CF
330
76
100
AcDbEntity
  8
0
  6
Continuous
 62
     7
100
AcDbCircle
 10
16.26732857983579
 20
132.2148635581305
 30
0.0
 40
0.2000000000000054
100
AcDbArc
 50
303.9999999999984
 51
34.0000000000062
  0
ENDBLK
  5
78
330
76
100
AcDbEntity
  8
0
100
AcDbBlockEnd
  0
BLOCK
  5
7B
330
79
100
AcDbEntity
  8
0
100
AcDbBlockBegin
  2
Back1
 70
     0
 10
5.87972199999984
 20
130.0
 30
0.0
  3
Back1
  1

  0
INSERT
  5
7A
330
79
100
AcDbEntity
  8
0
100
AcDbBlockReference
  2
EB_2_6_OG-select__1
 10
-4.70777217330993
 20
126.0103410404097
 30
0.0
  0
ENDBLK
  5
7C
330
79
100
AcDbEntity
  8
0
100
AcDbBlockEnd
  0
BLOCK
  5
7E
330
7D
100
AcDbEntity
  8
0
100
AcDbBlockBegin
  2
EB_2_6_OG-select__2
 70
     0
 10
-76.58760657983596
 20
126.0103410404097
 30
0.0
  3
EB_2_6_OG-select__2
  1

  0
LINE
  5
D0
330
7D
100
AcDbEntity
  8
0
  6
Continuous
 62
     7
100
AcDbLine
 10
-56.24905923187994
 20
127.0103410404097
 30
0.0
 11
-55.41250582669023
 21
127.0103410404097
 31
0.0
  0
LINE
  5
D1
330
7D
100
AcDbEntity
  8
0
  6
Continuous
 62
     7
100
AcDbLine
 10
-58.36719550806657
 20
126.0103410404097
 30
0.0
 11
-57.19807658255837
 21
126.0103410404097
 31
0.0
  0
LINE
  5
D2
330
7D
100
AcDbEntity
  8
0
  6
Continuous
 62
     7
100
AcDbLine
 10
-56.89234590109967
 20
127.0103410404097
 30
0.0
 11
-56.24905923187994
 21
127.0103410404097
 31
0.0
  0
LINE
  5
D3
330
7D
100
AcDbEntity
  8
0
  6
Continuous
 62
     2
100
AcDbLine
 10
-56.89234590109967
 20
127.0103410404097
 30
0.0
 11
-57.19807658255837
 21
126.0103410404097
 31
0.0
  0
LINE
  5
D4
330
7D
100
AcDbEntity
  8
0
  6
Continuous
 62
     2
100
AcDbLine
 10
-56.55478991333861
 20
126.0103410404097
 30
0.0
 11
-56.24905923187994
 21
127.0103410404097
 31
0.0
  0
LINE
  5
D5
330
7D
100
AcDbEntity
  8
0
  6
Continuous
 62
     7
100
AcDbLine
 10
-56.55478991333861
 20
126.0103410404097
 30
0.0
 11
-57.19807658255837
 21
126.0103410404097
 31
0.0
  0
LINE
  5
D6
330
7D
100
AcDbEntity
  8
0
  6
Continuous
 62
     7
100
AcDbLine
 10
-58.06146482660784
 20
127.0103410404097
 30
0.0
 11
-58.36719550806657
 21
126.0103410404097
 31
0.0
  0
LINE
  5
D7
330
7D
100
AcDbEntity
  8
0
  6
Continuous
 62
     7
100
AcDbLine
 10
-56.89234590109967
 20
127.0103410404097
 30
0.0
 11
-58.06146482660784
 21
127.0103410404097
 31
0.0
  0
LINE
  5
D8
330
7D
100
AcDbEntity
  8
0
  6
Continuous
 62
     7
100
AcDbLine
 10
-55.71823650814889
 20
126.0103410404097
 30
0.0
 11
-55.41250582669023
 21
127.0103410404097
 31
0.0
  0
LINE
  5
D9
330
7D
100
AcDbEntity
  8
0
  6
Continuous
 62
     7
100
AcDbLine
 10
-55.71823650814889
 20
126.0103410404097
 30
0.0
 11
-56.55478991333861
 21
126.0103410404097
 31
0.0
  0
LINE
  5
DA
330
7D
100
AcDbEntity
  8
0
  6
Continuous
 62
     7
100
AcDbLine
 10
-75.21330148254738
 20
133.955842460496
 30
0.0
 11
-69.6587497464286
 21
130.209250007242
 31
0.0
  0
LINE
  5
DB
330
7D
100
AcDbEntity
  8
0
  6
Continuous
 62
     7
100
AcDbLine
 10
-67.61869935698101
 20
128.0477033035191
 30
0.0
 11
-68.17720907674575
 21
127.219678592461
 31
0.0
  0
LINE
  5
DC
330
7D
100
AcDbEntity
  8
0
  6
Continuous
 62
     7
100
AcDbLine
 10
-68.17720907674575
 20
127.219678592461
 30
0.0
 11
-68.5406844640017
 21
126.6808041703002
 31
0.0
  0
LINE
  5
DD
330
7D
100
AcDbEntity
  8
0
  6
Continuous
 62
     7
100
AcDbLine
 10
-70.02222513368459
 20
129.6703755850812
 30
0.0
 11
-70.02290831739064
 21
129.6693627235843
 31
0.0
  0
LINE
  5
DE
330
7D
100
AcDbEntity
  8
0
  6
Continuous
 62
     7
100
AcDbLine
 10
-69.6587497464286
 20
130.209250007242
 30
0.0
 11
-70.02222513368459
 21
129.6703755850812
 31
0.0
  0
LINE
  5
DF
330
7D
100
AcDbEntity
  8
0
  6
Continuous
 62
     7
100
AcDbLine
 10
-76.55341409434698
 20
132.3267021388246
 30
0.0
 11
-75.49094757775255
 21
133.9018735266792
 31
0.0
  0
LINE
  5
E0
330
7D
100
AcDbEntity
  8
0
  6
Continuous
 62
     7
100
AcDbLine
 10
-67.61869935698101
 20
128.0477033035191
 30
0.0
 11
-67.61801617327497
 21
128.048716165016
 31
0.0
  0
LINE
  5
E1
330
7D
100
AcDbEntity
  8
0
  6
Continuous
 62
     7
100
AcDbLine
 10
-70.02222513368459
 20
129.6703755850812
 30
0.0
 11
-67.61801617327497
 21
128.048716165016
 31
0.0
  0
LINE
  5
E2
330
7D
100
AcDbEntity
  8
0
  6
Continuous
 62
     7
100
AcDbLine
 10
-70.02290831739064
 20
129.6693627235843
 30
0.0
 11
-67.61869935698101
 21
128.0477033035191
 31
0.0
  0
LINE
  5
E3
330
7D
100
AcDbEntity
  8
0
  6
Continuous
 62
     7
100
AcDbLine
 10
-66.07856174285901
 20
127.0103410404097
 30
0.0
 11
-67.61801617327497
 21
128.048716165016
 31
0.0
  0
LINE
  5
E4
330
7D
100
AcDbEntity
  8
0
  6
Continuous
 62
     7
100
AcDbLine
 10
-58.06146482660784
 20
127.0103410404097
 30
0.0
 11
-66.07856174285901
 21
127.0103410404097
 31
0.0
  0
LINE
  5
E5
330
7D
100
AcDbEntity
  8
0
  6
Continuous
 62
     7
100
AcDbLine
 10
-76.49944516053012
 20
132.0490560436194
 30
0.0
 11
-68.5406844640017
 21
126.6808041703002
 31
0.0
  0
LINE
  5
E6
330
7D
100
AcDbEntity
  8
0
  6
Continuous
 62
     7
100
AcDbLine
 10
-66.38429242431778
 20
126.0103410404097
 30
0.0
 11
-68.17720907674575
 21
127.219678592461
 31
0.0
  0
LINE
  5
E7
330
7D
100
AcDbEntity
  8
0
  6
Continuous
 62
     7
100
AcDbLine
 10
-66.38429242431778
 20
126.0103410404097
 30
0.0
 11
-58.36719550806657
 21
126.0103410404097
 31
0.0
  0
ARC
  5
E8
330
7D
100
AcDbEntity
  8
0
  6
Continuous
 62
     7
100
AcDbCircle
 10
-75.32514006324155
 20
133.790034945985
 30
0.0
 40
0.1999999999999937
100
AcDbArc
 50
55.99999999999206
 51
145.999999999991
  0
ARC
  5
E9
330
7D
100
AcDbEntity
  8
0
  6
Continuous
 62
     7
100
AcDbCircle
 10
-76.38760657983597
 20
132.2148635581304
 30
0.0
 40
0.2000000000000293
100
AcDbArc
 50
145.9999999999842
 51
235.9999999999988
  0
ENDBLK
  5
7F
330
7D
100
AcDbEntity
  8
0
100
AcDbBlockEnd
  0
BLOCK
  5
82
330
80
100
AcDbEntity
  8
0
100
AcDbBlockBegin
  2
Front1
 70
     0
 10
-66.0
 20
129.9999999999999
 30
0.0
  3
Front1
  1

  0
INSERT
  5
81
330
80
100
AcDbEntity
  8
0
100
AcDbBlockReference
  2
EB_2_6_OG-select__2
 10
-76.58760657983596
 20
126.0103410404097
 30
0.0
  0
INSERT
  5
F4
330
80
100
AcDbEntity
  8
1
100
AcDbBlockReference
  2
*D17
 10
0.0
 20
0.0
 30
0.0
  0
INSERT
  5
100
330
80
100
AcDbEntity
  8
1
100
AcDbBlockReference
  2
*D18
 10
0.0
 20
0.0
 30
0.0
  0
ENDBLK
  5
83
330
80
100
AcDbEntity
  8
0
100
AcDbBlockEnd
  0
BLOCK
  5
85
330
84
100
AcDbEntity
  8
0
100
AcDbBlockBegin
  2
EB_2_6_OG-select__3
 70
     0
 10
-5.84499681109918
 20
77.8659704718858
 30
0.0
  3
EB_2_6_OG-select__3
  1

  0
LINE
  5
101
330
84
100
AcDbEntity
  8
0
  6
Continuous
 62
     7
100
AcDbLine
 10
12.10951387912725
 20
77.93060492951156
 30
0.0
 11
11.55241128166711
 21
78.09142659681649
 31
0.0
  0
LINE
  5
102
330
84
100
AcDbEntity
  8
0
  6
Continuous
 62
     2
100
AcDbLine
 10
12.10951387912725
 20
77.93060492951156
 30
0.0
 11
12.37428441598682
 21
78.72019766293131
 31
0.0
  0
LINE
  5
103
330
84
100
AcDbEntity
  8
0
  6
Continuous
 62
     2
100
AcDbLine
 10
11.81718181852665
 20
78.88101933023626
 30
0.0
 11
11.55241128166711
 21
78.09142659681649
 31
0.0
  0
LINE
  5
104
330
84
100
AcDbEntity
  8
0
  6
Continuous
 62
     7
100
AcDbLine
 10
11.81718181852665
 20
78.88101933023626
 30
0.0
 11
12.37428441598682
 21
78.72019766293131
 31
0.0
  0
LINE
  5
105
330
84
100
AcDbEntity
  8
0
  6
Continuous
 62
     7
100
AcDbLine
 10
12.61718181852665
 20
79.5738396532638
 30
0.0
 11
13.17428441598684
 21
79.41301798595887
 31
0.0
  0
LINE
  5
106
330
84
100
AcDbEntity
  8
0
  6
Continuous
 62
     7
100
AcDbLine
 10
13.32632604640561
 20
78.1965941159209
 30
0.0
 11
13.59109658326515
 21
78.98618684934067
 31
0.0
  0
LINE
  5
107
330
84
100
AcDbEntity
  8
0
  6
Continuous
 62
     7
100
AcDbLine
 10
16.4263260464056
 20
80.88127286765267
 30
0.0
 11
16.69109658326516
 21
81.67086560107244
 31
0.0
  0
LINE
  5
108
330
84
100
AcDbEntity
  8
0
  6
Continuous
 62
     2
100
AcDbLine
 10
15.20951387912729
 20
80.6152836812433
 30
0.0
 11
15.47428441598684
 21
81.40487641466306
 31
0.0
  0
LINE
  5
109
330
84
100
AcDbEntity
  8
0
  6
Continuous
 62
     7
100
AcDbLine
 10
15.20951387912729
 20
80.6152836812433
 30
0.0
 11
14.65241128166711
 21
80.77610534854824
 31
0.0
  0
LINE
  5
10A
330
84
100
AcDbEntity
  8
0
  6
Continuous
 62
     7
100
AcDbLine
 10
13.65469512899136
 20
81.64147146239897
 30
0.0
 11
13.38992459213185
 21
80.85187872897917
 31
0.0
  0
LINE
  5
10B
330
84
100
AcDbEntity
  8
0
  6
Continuous
 62
     7
100
AcDbLine
 10
13.65469512899136
 20
81.64147146239897
 30
0.0
 11
6.71168553491603
 21
83.6457456914617
 31
0.0
  0
LINE
  5
10C
330
84
100
AcDbEntity
  8
0
  6
Continuous
 62
     7
100
AcDbLine
 10
6.44691499805641
 20
82.85615295804197
 30
0.0
 11
13.38992459213185
 21
80.85187872897917
 31
0.0
  0
LINE
  5
10D
330
84
100
AcDbEntity
  8
0
  6
Continuous
 62
     2
100
AcDbLine
 10
14.91718181852666
 20
81.56569808196802
 30
0.0
 11
14.65241128166711
 21
80.77610534854824
 31
0.0
  0
LINE
  5
10E
330
84
100
AcDbEntity
  8
0
  6
Continuous
 62
     7
100
AcDbLine
 10
14.95469512899139
 20
82.76730448731875
 30
0.0
 11
8.01168553491602
 21
84.7715787163815
 31
0.0
  0
LINE
  5
10F
330
84
100
AcDbEntity
  8
0
  6
Continuous
 62
     7
100
AcDbLine
 10
15.71718181852667
 20
82.25851840499557
 30
0.0
 11
16.27428441598683
 21
82.09769673769061
 31
0.0
  0
LINE
  5
110
330
84
100
AcDbEntity
  8
0
  6
Continuous
 62
     7
100
AcDbLine
 10
1.12942471117157
 20
80.98810142769264
 30
0.0
 11
1.92788723576237
 21
81.94137452471594
 31
0.0
  0
LINE
  5
111
330
84
100
AcDbEntity
  8
0
  6
Continuous
 62
     7
100
AcDbLine
 10
14.91718181852666
 20
81.56569808196802
 30
0.0
 11
15.47428441598684
 21
81.40487641466306
 31
0.0
  0
LINE
  5
112
330
84
100
AcDbEntity
  8
0
  6
Continuous
 62
     7
100
AcDbLine
 10
1.12942471117157
 20
80.98810142769264
 30
0.0
 11
1.85062339887762
 21
81.61267781242209
 31
0.0
  0
LINE
  5
113
330
84
100
AcDbEntity
  8
0
  6
Continuous
 62
     7
100
AcDbLine
 10
4.91168553491594
 20
82.08689996464977
 30
0.0
 11
11.85469512899142
 21
80.08262573558696
 31
0.0
  0
LINE
  5
114
330
84
100
AcDbEntity
  8
0
  6
Continuous
 62
     7
100
AcDbLine
 10
2.27847889020728
 20
82.24518978390086
 30
0.0
 11
1.79420363018564
 21
81.6670204112441
 31
0.0
  0
LINE
  5
115
330
84
100
AcDbEntity
  8
0
  6
Continuous
 62
     7
100
AcDbLine
 10
3.57847889020728
 20
83.37102280882063
 30
0.0
 11
3.92788723576238
 21
83.67342533228484
 31
0.0
  0
LINE
  5
116
330
84
100
AcDbEntity
  8
0
  6
Continuous
 62
     7
100
AcDbLine
 10
1.84578120004147
 20
85.67887582645001
 30
0.0
 11
3.92788723576238
 21
83.67342533228484
 31
0.0
  0
LINE
  5
117
330
84
100
AcDbEntity
  8
0
  6
Continuous
 62
     7
100
AcDbLine
 10
3.57847889020728
 20
83.37102280882063
 30
0.0
 11
1.49637285448899
 21
85.37647330298807
 31
0.0
  0
LINE
  5
118
330
84
100
AcDbEntity
  8
0
  6
Continuous
 62
     7
100
AcDbLine
 10
1.98012588189656
 20
85.83926803897904
 30
0.0
 11
4.22942471117158
 21
83.67278017942441
 31
0.0
  0
LINE
  5
119
330
84
100
AcDbEntity
  8
0
  6
Continuous
 62
     7
100
AcDbLine
 10
3.61168553491593
 20
80.96106693972999
 30
0.0
 11
2.27847889020728
 21
82.24518978390086
 31
0.0
  0
LINE
  5
11A
330
84
100
AcDbEntity
  8
0
  6
Continuous
 62
     7
100
AcDbLine
 10
3.3469149980564
 20
80.17147420631022
 30
0.0
 11
1.79420363018564
 21
81.6670204112441
 31
0.0
  0
LINE
  5
11B
330
84
100
AcDbEntity
  8
0
  6
Continuous
 62
     7
100
AcDbLine
 10
4.59637285448416
 20
88.06115205471565
 30
0.0
 11
3.29637285448739
 21
86.93531902979868
 31
0.0
  0
LINE
  5
11C
330
84
100
AcDbEntity
  8
0
  6
Continuous
 62
     7
100
AcDbLine
 10
4.94578120004148
 20
88.36355457818179
 30
0.0
 11
5.26115177350044
 21
88.74007103826902
 31
0.0
  0
LINE
  5
11D
330
84
100
AcDbEntity
  8
0
  6
Continuous
 62
     7
100
AcDbLine
 10
3.26115177350046
 20
87.00802023070015
 30
0.0
 11
2.9457812000415
 21
86.63150377061292
 31
0.0
  0
LINE
  5
11E
330
84
100
AcDbEntity
  8
0
  6
Continuous
 62
     7
100
AcDbLine
 10
1.25139316926786
 20
86.93165690088846
 30
0.0
 11
2.18420037571378
 21
88.04532221044076
 31
0.0
  0
LINE
  5
11F
330
84
100
AcDbEntity
  8
0
  6
Continuous
 62
     7
100
AcDbLine
 10
6.67847889020731
 20
86.05570156055241
 30
0.0
 11
4.59637285448416
 21
88.06115205471565
 31
0.0
  0
LINE
  5
120
330
84
100
AcDbEntity
  8
0
  6
Continuous
 62
     7
100
AcDbLine
 10
7.02788723576238
 20
86.3581040840166
 30
0.0
 11
4.94578120004148
 21
88.36355457818179
 31
0.0
  0
LINE
  5
121
330
84
100
AcDbEntity
  8
0
  6
Continuous
 62
     7
100
AcDbLine
 10
0.22298307724068
 20
93.40890512911609
 30
0.0
 11
-4.8770169227593
 21
88.99217556981549
 31
0.0
  0
LINE
  5
122
330
84
100
AcDbEntity
  8
0
  6
Continuous
 62
     2
100
AcDbLine
 10
0.45076886338662
 20
93.37335321444375
 30
0.0
 11
-4.64923113661338
 21
88.95662365514312
 31
0.0
  0
LINE
  5
123
330
84
100
AcDbEntity
  8
0
  6
Continuous
 62
     7
100
AcDbLine
 10
-5.80980270236372
 20
87.88077490319601
 30
0.0
 11
-4.8896797083226
 21
88.97929671124386
 31
0.0
  0
LINE
  5
124
330
84
100
AcDbEntity
  8
0
  6
Continuous
 62
     7
100
AcDbLine
 10
2.18420037571378
 20
88.04532221044076
 30
0.0
 11
3.26115177350046
 21
87.00802023070015
 31
0.0
  0
LINE
  5
125
330
84
100
AcDbEntity
  8
0
  6
Continuous
 62
     7
100
AcDbLine
 10
4.94578120004148
 20
88.36355457818179
 30
0.0
 11
4.59637285448416
 21
88.06115205471565
 31
0.0
  0
LINE
  5
126
330
84
100
AcDbEntity
  8
0
  6
Continuous
 62
     7
100
AcDbLine
 10
3.26115177350046
 20
87.00802023070015
 30
0.0
 11
5.26115177350044
 21
88.74007103826902
 31
0.0
  0
LINE
  5
127
330
84
100
AcDbEntity
  8
0
  6
Continuous
 62
     7
100
AcDbLine
 10
1.08420037571379
 20
87.09269426627787
 30
0.0
 11
2.18420037571378
 21
88.04532221044076
 31
0.0
  0
LINE
  5
128
330
84
100
AcDbEntity
  8
0
  6
Continuous
 62
     7
100
AcDbLine
 10
0.45076886338662
 20
93.37335321444375
 30
0.0
 11
5.26115177350044
 21
88.74007103826902
 31
0.0
  0
LINE
  5
129
330
84
100
AcDbEntity
  8
0
  6
Continuous
 62
     7
100
AcDbLine
 10
1.08420037571379
 20
87.09269426627787
 30
0.0
 11
2.16115177350046
 21
86.05539228653726
 31
0.0
  0
LINE
  5
12A
330
84
100
AcDbEntity
  8
0
  6
Continuous
 62
     7
100
AcDbLine
 10
0.16115177350044
 20
84.32334147896839
 30
0.0
 11
-0.15421879995855
 21
83.94682501888113
 31
0.0
  0
LINE
  5
12B
330
84
100
AcDbEntity
  8
0
  6
Continuous
 62
     7
100
AcDbLine
 10
-0.15421879995855
 20
83.94682501888113
 30
0.0
 11
0.19637285448407
 21
84.25064027806404
 31
0.0
  0
LINE
  5
12C
330
84
100
AcDbEntity
  8
0
  6
Continuous
 62
     7
100
AcDbLine
 10
1.49637285448899
 20
85.37647330298807
 30
0.0
 11
1.84578120004147
 21
85.67887582645001
 31
0.0
  0
LINE
  5
12D
330
84
100
AcDbEntity
  8
0
  6
Continuous
 62
     7
100
AcDbLine
 10
1.84578120004147
 20
85.67887582645001
 30
0.0
 11
2.16115177350046
 21
86.05539228653726
 31
0.0
  0
LINE
  5
12E
330
84
100
AcDbEntity
  8
0
  6
Continuous
 62
     7
100
AcDbLine
 10
0.16115177350044
 20
84.32334147896839
 30
0.0
 11
2.16115177350046
 21
86.05539228653726
 31
0.0
  0
LINE
  5
12F
330
84
100
AcDbEntity
  8
0
  6
Continuous
 62
     7
100
AcDbLine
 10
0.19637285448407
 20
84.25064027806404
 30
0.0
 11
1.49637285448899
 21
85.37647330298807
 31
0.0
  0
LINE
  5
130
330
84
100
AcDbEntity
  8
0
  6
Continuous
 62
     7
100
AcDbLine
 10
-4.64923113661338
 20
88.95662365514312
 30
0.0
 11
0.16115177350044
 21
84.32334147896839
 31
0.0
  0
LINE
  5
131
330
84
100
AcDbEntity
  8
0
  6
Continuous
 62
     7
100
AcDbLine
 10
4.91168553491594
 20
82.08689996464977
 30
0.0
 11
3.57847889020728
 21
83.37102280882063
 31
0.0
  0
LINE
  5
132
330
84
100
AcDbEntity
  8
0
  6
Continuous
 62
     7
100
AcDbLine
 10
1.92788723576237
 20
81.94137452471594
 30
0.0
 11
2.27847889020728
 21
82.24518978390086
 31
0.0
  0
LINE
  5
133
330
84
100
AcDbEntity
  8
0
  6
Continuous
 62
     7
100
AcDbLine
 10
3.63167659724722
 20
83.31978364710582
 30
0.0
 11
3.92788723576238
 21
83.67342533228484
 31
0.0
  0
LINE
  5
134
330
84
100
AcDbEntity
  8
0
  6
Continuous
 62
     7
100
AcDbLine
 10
6.44691499805641
 20
82.85615295804197
 30
0.0
 11
4.89420363018563
 21
84.35169916297586
 31
0.0
  0
LINE
  5
135
330
84
100
AcDbEntity
  8
0
  6
Continuous
 62
     7
100
AcDbLine
 10
0.19637285448407
 20
84.25064027806404
 30
0.0
 11
2.27847889020728
 21
82.24518978390086
 31
0.0
  0
LINE
  5
136
330
84
100
AcDbEntity
  8
0
  6
Continuous
 62
     7
100
AcDbLine
 10
1.92788723576237
 20
81.94137452471594
 30
0.0
 11
-0.15421879995855
 21
83.94682501888113
 31
0.0
  0
LINE
  5
137
330
84
100
AcDbEntity
  8
0
  6
Continuous
 62
     7
100
AcDbLine
 10
4.95062339887763
 20
84.29735656415386
 30
0.0
 11
4.22942471117158
 21
83.67278017942441
 31
0.0
  0
LINE
  5
138
330
84
100
AcDbEntity
  8
0
  6
Continuous
 62
     7
100
AcDbLine
 10
6.67847889020731
 20
86.05570156055241
 30
0.0
 11
7.02788723576238
 21
86.3581040840166
 31
0.0
  0
LINE
  5
139
330
84
100
AcDbEntity
  8
0
  6
Continuous
 62
     7
100
AcDbLine
 10
7.02788723576238
 20
86.3581040840166
 30
0.0
 11
6.73167659724725
 21
86.0044623988376
 31
0.0
  0
LINE
  5
13A
330
84
100
AcDbEntity
  8
0
  6
Continuous
 62
     7
100
AcDbLine
 10
3.29637285448739
 20
86.93531902979868
 30
0.0
 11
2.9457812000415
 21
86.63150377061292
 31
0.0
  0
LINE
  5
13B
330
84
100
AcDbEntity
  8
0
  6
Continuous
 62
     7
100
AcDbLine
 10
5.02788723576241
 20
84.62605327644775
 30
0.0
 11
5.37847889020998
 21
84.92986853563495
 31
0.0
  0
LINE
  5
13C
330
84
100
AcDbEntity
  8
0
  6
Continuous
 62
     7
100
AcDbLine
 10
3.29637285448739
 20
86.93531902979868
 30
0.0
 11
5.37847889020998
 21
84.92986853563495
 31
0.0
  0
LINE
  5
13D
330
84
100
AcDbEntity
  8
0
  6
Continuous
 62
     7
100
AcDbLine
 10
2.9457812000415
 20
86.63150377061292
 30
0.0
 11
5.02788723576241
 21
84.62605327644775
 31
0.0
  0
LINE
  5
13E
330
84
100
AcDbEntity
  8
0
  6
Continuous
 62
     7
100
AcDbLine
 10
8.01168553491602
 20
84.7715787163815
 30
0.0
 11
6.67847889020731
 21
86.05570156055241
 31
0.0
  0
LINE
  5
13F
330
84
100
AcDbEntity
  8
0
  6
Continuous
 62
     7
100
AcDbLine
 10
6.71168553491603
 20
83.6457456914617
 30
0.0
 11
8.01168553491602
 21
84.7715787163815
 31
0.0
  0
LINE
  5
140
330
84
100
AcDbEntity
  8
0
  6
Continuous
 62
     7
100
AcDbLine
 10
4.89420363018563
 20
84.35169916297586
 30
0.0
 11
5.37847889020998
 21
84.92986853563495
 31
0.0
  0
LINE
  5
141
330
84
100
AcDbEntity
  8
0
  6
Continuous
 62
     7
100
AcDbLine
 10
6.71168553491603
 20
83.6457456914617
 30
0.0
 11
5.37847889020998
 21
84.92986853563495
 31
0.0
  0
LINE
  5
142
330
84
100
AcDbEntity
  8
0
  6
Continuous
 62
     7
100
AcDbLine
 10
5.02788723576241
 20
84.62605327644775
 30
0.0
 11
4.22942471117158
 21
83.67278017942441
 31
0.0
  0
LINE
  5
143
330
84
100
AcDbEntity
  8
0
  6
Continuous
 62
     7
100
AcDbLine
 10
4.91168553491594
 20
82.08689996464977
 30
0.0
 11
3.61168553491593
 21
80.96106693972999
 31
0.0
  0
LINE
  5
144
330
84
100
AcDbEntity
  8
0
  6
Continuous
 62
     7
100
AcDbLine
 10
3.3469149980564
 20
80.17147420631022
 30
0.0
 11
10.28992459213184
 21
78.16719997724742
 31
0.0
  0
LINE
  5
145
330
84
100
AcDbEntity
  8
0
  6
Continuous
 62
     7
100
AcDbLine
 10
10.55469512899139
 20
78.9567927106672
 30
0.0
 11
10.28992459213184
 21
78.16719997724742
 31
0.0
  0
LINE
  5
146
330
84
100
AcDbEntity
  8
0
  6
Continuous
 62
     7
100
AcDbLine
 10
3.61168553491593
 20
80.96106693972999
 30
0.0
 11
10.55469512899139
 21
78.9567927106672
 31
0.0
  0
LINE
  5
147
330
84
100
AcDbEntity
  8
0
  6
Continuous
 62
     7
100
AcDbLine
 10
-5.76306423466317
 20
87.62683409803256
 30
0.0
 11
1.12942471117157
 21
80.98810142769264
 31
0.0
  0
SPLINE
  5
148
330
84
100
AcDbEntity
  8
0
  6
Continuous
 62
     7
100
AcDbSpline
210
0.0
220
0.0
230
1.0
 70
  1064
 71
     3
 72
    11
 73
     7
 74
     5
 42
0.000000001
 43
0.0000000001
 44
0.00000001
 40
0.0
 40
0.0
 40
0.0
 40
0.0
 40
0.3075521008495672
 40
0.6294310207987219
 40
0.9550378889774492
 40
1.27348572465212
 40
1.27348572465212
 40
1.27348572465212
 40
1.27348572465212
 10
11.81718181852665
 20
78.88101933023626
 30
0.0
 10
11.71760228392133
 20
78.90588488226463
 30
0.0
 10
11.51380445930495
 20
78.95677429318073
 30
0.0
 10
11.19628434257488
 20
78.9891497786544
 30
0.0
 10
10.87362925090275
 20
78.9946824043848
 30
0.0
 10
10.6602157653028
 20
78.9693286731717
 30
0.0
 10
10.55469512899139
 20
78.9567927106672
 30
0.0
 11
11.81718181852665
 21
78.88101933023626
 31
0.0
 11
11.5171376800943
 21
78.9485605033241
 31
0.0
 11
11.1972732163759
 21
78.98451554065628
 31
0.0
 11
10.87167825679377
 21
78.9873004305169
 31
0.0
 11
10.55469512899139
 21
78.9567927106672
 31
0.0
  0
SPLINE
  5
149
330
84
100
AcDbEntity
  8
0
  6
Continuous
 62
     7
100
AcDbSpline
210
0.0
220
0.0
230
1.0
 70
  1064
 71
     3
 72
    13
 73
     9
 74
     7
 42
0.000000001
 43
0.0000000001
 44
0.00000001
 40
0.0
 40
0.0
 40
0.0
 40
0.0
 40
0.2520071375658823
 40
0.5149086818028229
 40
0.7686351735835055
 40
0.9948037091863406
 40
1.180932942435458
 40
1.327040912732368
 40
1.327040912732368
 40
1.327040912732368
 40
1.327040912732368
 10
12.37428441598682
 20
78.72019766293131
 30
0.0
 10
12.45635417807102
 20
78.70136621942262
 30
0.0
 10
12.62404162406564
 20
78.66288924609168
 30
0.0
 10
12.8816054628197
 20
78.65769911788854
 30
0.0
 10
13.12910513463364
 20
78.68677962164142
 30
0.0
 10
13.34008810705305
 20
78.75382617043711
 30
0.0
 10
13.51009396532713
 20
78.8458882541365
 30
0.0
 10
13.56635477179038
 20
78.94333339171295
 30
0.0
 10
13.59109658326515
 20
78.98618684934067
 30
0.0
 11
12.37428441598682
 21
78.72019766293131
 31
0.0
 11
12.62165652114244
 21
78.67208701604554
 31
0.0
 11
12.88442673643209
 21
78.66377823410784
 31
0.0
 11
13.13608470188215
 21
78.69611089709804
 31
0.0
 11
13.35124186481233
 21
78.76582173723878
 31
0.0
 11
13.50818983719482
 21
78.86587886149447
 31
0.0
 11
13.59109658326515
 21
78.98618684934067
 31
0.0
  0
SPLINE
  5
14A
330
84
100
AcDbEntity
  8
0
  6
Continuous
 62
     7
100
AcDbSpline
210
0.0
220
0.0
230
1.0
 70
  1064
 71
     3
 72
    11
 73
     7
 74
     5
 42
0.000000001
 43
0.0000000001
 44
0.00000001
 40
0.0
 40
0.0
 40
0.0
 40
0.0
 40
0.1235925261044811
 40
0.2644640811420064
 40
0.4423669369789869
 40
0.6577228583449779
 40
0.6577228583449779
 40
0.6577228583449779
 40
0.6577228583449779
 10
13.59109658326515
 20
78.98618684934067
 30
0.0
 10
13.59675055090959
 20
79.02841718979606
 30
0.0
 10
13.60884893326635
 20
79.11878194319848
 30
0.0
 10
13.51452943494105
 20
79.24607884418683
 30
0.0
 10
13.36759984292702
 20
79.34730018003506
 30
0.0
 10
13.24268832220014
 20
79.38976400141028
 30
0.0
 10
13.17428441598684
 20
79.41301798595887
 30
0.0
 11
13.59109658326515
 21
78.98618684934067
 31
0.0
 11
13.59310114458158
 21
79.10976312339088
 31
0.0
 11
13.51857369071091
 21
79.22930581840077
 31
0.0
 11
13.37447808392286
 21
79.33364125555109
 31
0.0
 11
13.17428441598684
 21
79.41301798595887
 31
0.0
  0
SPLINE
  5
14B
330
84
100
AcDbEntity
  8
0
  6
Continuous
 62
     7
100
AcDbSpline
210
0.0
220
0.0
230
1.0
 70
  1064
 71
     3
 72
    11
 73
     7
 74
     5
 42
0.000000001
 43
0.0000000001
 44
0.00000001
 40
0.0
 40
0.0
 40
0.0
 40
0.0
 40
0.1855312365517218
 40
0.4036673993727545
 40
0.6564586963004364
 40
0.9402507181168052
 40
0.9402507181168052
 40
0.9402507181168052
 40
0.9402507181168052
 10
11.85469512899142
 20
80.08262573558696
 30
0.0
 10
11.88724330273279
 20
80.02950741668157
 30
0.0
 10
11.95805962035048
 20
79.91393586978663
 30
0.0
 10
12.13485750662112
 20
79.77867181187219
 30
0.0
 10
12.35636421040342
 20
79.65832170599595
 30
0.0
 10
12.52695731510109
 20
79.60306448218114
 30
0.0
 10
12.61718181852665
 20
79.5738396532638
 30
0.0
 11
11.85469512899142
 21
80.08262573558696
 31
0.0
 11
11.9603457720898
 21
79.93011415503815
 31
0.0
 11
12.12796682261298
 21
79.79051984679734
 31
0.0
 11
12.35017500591953
 21
79.66999198978941
 31
0.0
 11
12.61718181852665
 21
79.5738396532638
 31
0.0
  0
SPLINE
  5
14C
330
84
100
AcDbEntity
  8
0
  6
Continuous
 62
     7
100
AcDbSpline
210
0.0
220
0.0
230
1.0
 70
  1064
 71
     3
 72
    11
 73
     7
 74
     5
 42
0.000000001
 43
0.0000000001
 44
0.00000001
 40
0.0
 40
0.0
 40
0.0
 40
0.0
 40
0.3184478356746909
 40
0.6440547038534149
 40
0.9659336238025592
 40
1.273485724652132
 40
1.273485724652132
 40
1.273485724652132
 40
1.273485724652132
 10
10.28992459213184
 20
78.16719997724742
 30
0.0
 10
10.39544522844326
 20
78.17973593975192
 30
0.0
 10
10.6088587140432
 20
78.20508967096507
 30
0.0
 10
10.93151380571534
 20
78.19955704523463
 30
0.0
 10
11.24903392244541
 20
78.16718155976093
 30
0.0
 10
11.45283174706179
 20
78.11629214884486
 30
0.0
 10
11.55241128166711
 20
78.09142659681649
 30
0.0
 11
10.28992459213184
 21
78.16719997724742
 31
0.0
 11
10.60690771993423
 21
78.19770769709714
 31
0.0
 11
10.93250267951636
 21
78.1949228072365
 31
0.0
 11
11.25236714323475
 21
78.15896776990434
 31
0.0
 11
11.55241128166711
 21
78.09142659681649
 31
0.0
  0
SPLINE
  5
14D
330
84
100
AcDbEntity
  8
0
  6
Continuous
 62
     7
100
AcDbSpline
210
0.0
220
0.0
230
1.0
 70
  1064
 71
     3
 72
    13
 73
     9
 74
     7
 42
0.000000001
 43
0.0000000001
 44
0.00000001
 40
0.0
 40
0.0
 40
0.0
 40
0.0
 40
0.1461079702969177
 40
0.332237203546044
 40
0.5584057391488791
 40
0.8121322309295618
 40
1.075033775166505
 40
1.327040912732389
 40
1.327040912732389
 40
1.327040912732389
 40
1.327040912732389
 10
13.32632604640561
 20
78.1965941159209
 30
0.0
 10
13.30158423493083
 20
78.15374065829319
 30
0.0
 10
13.24532342846758
 20
78.05629552071673
 30
0.0
 10
13.07531757019349
 20
77.96423343701734
 30
0.0
 10
12.86433459777407
 20
77.89718688822164
 30
0.0
 10
12.61683492596014
 20
77.86810638446879
 30
0.0
 10
12.35927108720607
 20
77.87329651267194
 30
0.0
 10
12.19158364121146
 20
77.91177348600286
 30
0.0
 10
12.10951387912725
 20
77.93060492951156
 30
0.0
 11
13.32632604640561
 21
78.1965941159209
 31
0.0
 11
13.24341930033527
 21
78.0762861280747
 31
0.0
 11
13.08647132795276
 21
77.97622900381901
 31
0.0
 11
12.87131416502258
 21
77.90651816367827
 31
0.0
 11
12.61965619957252
 21
77.87418550068807
 31
0.0
 11
12.35688598428287
 21
77.88249428262579
 31
0.0
 11
12.10951387912725
 21
77.93060492951156
 31
0.0
  0
SPLINE
  5
14E
330
84
100
AcDbEntity
  8
0
  6
Continuous
 62
     7
100
AcDbSpline
210
0.0
220
0.0
230
1.0
 70
  1064
 71
     3
 72
    13
 73
     9
 74
     7
 42
0.000000001
 43
0.0000000001
 44
0.00000001
 40
0.0
 40
0.0
 40
0.0
 40
0.0
 40
0.1461079702969146
 40
0.3322372035460365
 40
0.5584057391488632
 40
0.812132230929537
 40
1.075033775166469
 40
1.327040912732335
 40
1.327040912732335
 40
1.327040912732335
 40
1.327040912732335
 10
16.4263260464056
 20
80.88127286765267
 30
0.0
 10
16.40158423493083
 20
80.83841941002495
 30
0.0
 10
16.34532342846757
 20
80.74097427244851
 30
0.0
 10
16.17531757019349
 20
80.6489121887491
 30
0.0
 10
15.96433459777408
 20
80.58186563995339
 30
0.0
 10
15.71683492596015
 20
80.55278513620055
 30
0.0
 10
15.45927108720612
 20
80.55797526440377
 30
0.0
 10
15.29158364121149
 20
80.59645223773457
 30
0.0
 10
15.20951387912729
 20
80.6152836812433
 30
0.0
 11
16.4263260464056
 21
80.88127286765267
 31
0.0
 11
16.34341930033526
 21
80.76096487980647
 31
0.0
 11
16.18647132795277
 21
80.66090775555078
 31
0.0
 11
15.97131416502259
 21
80.59119691541004
 31
0.0
 11
15.71965619957254
 21
80.55886425241985
 31
0.0
 11
15.4568859842829
 21
80.56717303435755
 31
0.0
 11
15.20951387912729
 21
80.6152836812433
 31
0.0
  0
SPLINE
  5
14F
330
84
100
AcDbEntity
  8
0
  6
Continuous
 62
     7
100
AcDbSpline
210
0.0
220
0.0
230
1.0
 70
  1064
 71
     3
 72
    11
 73
     7
 74
     5
 42
0.000000001
 43
0.0000000001
 44
0.00000001
 40
0.0
 40
0.0
 40
0.0
 40
0.0
 40
0.3184478356746839
 40
0.6440547038534061
 40
0.9659336238025522
 40
1.273485724652121
 40
1.273485724652121
 40
1.273485724652121
 40
1.273485724652121
 10
13.38992459213185
 20
80.85187872897917
 30
0.0
 10
13.49544522844327
 20
80.8644146914837
 30
0.0
 10
13.7088587140432
 20
80.88976842269682
 30
0.0
 10
14.03151380571534
 20
80.88423579696635
 30
0.0
 10
14.34903392244541
 20
80.85186031149269
 30
0.0
 10
14.55283174706179
 20
80.80097090057662
 30
0.0
 10
14.65241128166711
 20
80.77610534854824
 30
0.0
 11
13.38992459213185
 21
80.85187872897917
 31
0.0
 11
13.70690771993424
 21
80.8823864488289
 31
0.0
 11
14.03250267951637
 21
80.87960155896825
 31
0.0
 11
14.35236714323476
 21
80.84364652163609
 31
0.0
 11
14.65241128166711
 21
80.77610534854824
 31
0.0
  0
SPLINE
  5
150
330
84
100
AcDbEntity
  8
0
  6
Continuous
 62
     7
100
AcDbSpline
210
0.0
220
0.0
230
1.0
 70
  1064
 71
     3
 72
    11
 73
     7
 74
     5
 42
0.000000001
 43
0.0000000001
 44
0.00000001
 40
0.0
 40
0.0
 40
0.0
 40
0.0
 40
0.3075521008495468
 40
0.6294310207987086
 40
0.9550378889774503
 40
1.273485724652158
 40
1.273485724652158
 40
1.273485724652158
 40
1.273485724652158
 10
14.91718181852666
 20
81.56569808196802
 30
0.0
 10
14.81760228392134
 20
81.59056363399638
 30
0.0
 10
14.61380445930497
 20
81.64145304491251
 30
0.0
 10
14.29628434257489
 20
81.67382853038612
 30
0.0
 10
13.97362925090274
 20
81.67936115611661
 30
0.0
 10
13.76021576530279
 20
81.65400742490348
 30
0.0
 10
13.65469512899136
 20
81.64147146239897
 30
0.0
 11
14.91718181852666
 21
81.56569808196802
 31
0.0
 11
14.61713768009433
 21
81.63323925505586
 31
0.0
 11
14.29727321637592
 21
81.66919429238803
 31
0.0
 11
13.97167825679377
 21
81.67197918224868
 31
0.0
 11
13.65469512899136
 21
81.64147146239897
 31
0.0
  0
SPLINE
  5
151
330
84
100
AcDbEntity
  8
0
  6
Continuous
 62
     7
100
AcDbSpline
210
0.0
220
0.0
230
1.0
 70
  1064
 71
     3
 72
    11
 73
     7
 74
     5
 42
0.000000001
 43
0.0000000001
 44
0.00000001
 40
0.0
 40
0.0
 40
0.0
 40
0.0
 40
0.1855312365517491
 40
0.4036673993728068
 40
0.6564586963004918
 40
0.9402507181168522
 40
0.9402507181168522
 40
0.9402507181168522
 40
0.9402507181168522
 10
14.95469512899139
 20
82.76730448731875
 30
0.0
 10
14.98724330273278
 20
82.71418616841336
 30
0.0
 10
15.05805962035051
 20
82.59861462151844
 30
0.0
 10
15.23485750662113
 20
82.46335056360394
 30
0.0
 10
15.45636421040345
 20
82.34300045772773
 30
0.0
 10
15.62695731510111
 20
82.28774323391289
 30
0.0
 10
15.71718181852667
 20
82.25851840499557
 30
0.0
 11
14.95469512899139
 21
82.76730448731875
 31
0.0
 11
15.06034577208982
 21
82.61479290676995
 31
0.0
 11
15.22796682261301
 21
82.4751985985291
 31
0.0
 11
15.45017500591956
 21
82.35467074152118
 31
0.0
 11
15.71718181852667
 21
82.25851840499557
 31
0.0
  0
SPLINE
  5
152
330
84
100
AcDbEntity
  8
0
  6
Continuous
 62
     7
100
AcDbSpline
210
0.0
220
0.0
230
1.0
 70
  1064
 71
     3
 72
    13
 73
     9
 74
     7
 42
0.000000001
 43
0.0000000001
 44
0.00000001
 40
0.0
 40
0.0
 40
0.0
 40
0.0
 40
0.2520071375658771
 40
0.5149086818028177
 40
0.7686351735834969
 40
0.9948037091863297
 40
1.180932942435456
 40
1.327040912732367
 40
1.327040912732367
 40
1.327040912732367
 40
1.327040912732367
 10
15.47428441598684
 20
81.40487641466306
 30
0.0
 10
15.55635417807104
 20
81.38604497115435
 30
0.0
 10
15.72404162406566
 20
81.34756799782346
 30
0.0
 10
15.98160546281972
 20
81.34237786962032
 30
0.0
 10
16.22910513463365
 20
81.37145837337312
 30
0.0
 10
16.44008810705306
 20
81.43850492216885
 30
0.0
 10
16.61009396532714
 20
81.53056700586825
 30
0.0
 10
16.66635477179039
 20
81.62801214344474
 30
0.0
 10
16.69109658326516
 20
81.67086560107244
 30
0.0
 11
15.47428441598684
 21
81.40487641466306
 31
0.0
 11
15.72165652114246
 21
81.35676576777729
 31
0.0
 11
15.98442673643211
 21
81.34845698583959
 31
0.0
 11
16.23608470188216
 21
81.38078964882978
 31
0.0
 11
16.45124186481234
 21
81.45050048897053
 31
0.0
 11
16.60818983719483
 21
81.55055761322623
 31
0.0
 11
16.69109658326516
 21
81.67086560107244
 31
0.0
  0
SPLINE
  5
153
330
84
100
AcDbEntity
  8
0
  6
Continuous
 62
     7
100
AcDbSpline
210
0.0
220
0.0
230
1.0
 70
  1064
 71
     3
 72
    11
 73
     7
 74
     5
 42
0.000000001
 43
0.0000000001
 44
0.00000001
 40
0.0
 40
0.0
 40
0.0
 40
0.0
 40
0.123592526104481
 40
0.26446408114201
 40
0.4423669369789779
 40
0.6577228583449702
 40
0.6577228583449702
 40
0.6577228583449702
 40
0.6577228583449702
 10
16.69109658326516
 20
81.67086560107244
 30
0.0
 10
16.69675055090959
 20
81.7130959415278
 30
0.0
 10
16.70884893326636
 20
81.8034606949303
 30
0.0
 10
16.61452943494104
 20
81.93075759591855
 30
0.0
 10
16.46759984292702
 20
82.03197893176684
 30
0.0
 10
16.34268832220013
 20
82.07444275314204
 30
0.0
 10
16.27428441598683
 20
82.09769673769061
 30
0.0
 11
16.69109658326516
 21
81.67086560107244
 31
0.0
 11
16.69310114458158
 21
81.79444187512264
 31
0.0
 11
16.6185736907109
 21
81.91398457013254
 31
0.0
 11
16.47447808392285
 21
82.01832000728284
 31
0.0
 11
16.27428441598683
 21
82.09769673769061
 31
0.0
  0
SPLINE
  5
154
330
84
100
AcDbEntity
  8
0
  6
Continuous
 62
     7
100
AcDbSpline
210
0.0
220
0.0
230
1.0
 70
  1064
 71
     3
 72
    11
 73
     7
 74
     5
 42
0.000000001
 43
0.0000000001
 44
0.00000001
 40
0.0
 40
0.0
 40
0.0
 40
0.0
 40
0.0606940211364614
 40
0.1281899110760303
 40
0.2026607533535728
 40
0.2805981776265574
 40
0.2805981776265574
 40
0.2805981776265574
 40
0.2805981776265574
 10
-5.809802702363719
 20
87.88077490319601
 30
0.0
 10
-5.82033290033095
 20
87.86304776072784
 30
0.0
 10
-5.842573383168856
 20
87.82560682110193
 30
0.0
 10
-5.839251995562003
 20
87.75514544034071
 30
0.0
 10
-5.814169284340471
 20
87.68506017696527
 30
0.0
 10
-5.780355623210027
 20
87.64653487882948
 30
0.0
 10
-5.763064234663169
 20
87.62683409803256
 30
0.0
 11
-5.809802702363719
 21
87.88077490319601
 31
0.0
 11
-5.835936604201425
 21
87.82599549301027
 31
0.0
 11
-5.83623199824105
 21
87.758500244283
 31
0.0
 11
-5.810642004663412
 21
87.68856413744845
 31
0.0
 11
-5.763064234663169
 21
87.62683409803256
 31
0.0
  0
SPLINE
  5
155
330
84
100
AcDbEntity
  8
0
  6
Continuous
 62
     7
100
AcDbSpline
210
0.0
220
0.0
230
1.0
 70
  1064
 71
     3
 72
    11
 73
     7
 74
     5
 42
0.000000001
 43
0.0000000001
 44
0.00000001
 40
0.0
 40
0.0
 40
0.0
 40
0.0
 40
0.0707212642331072
 40
0.1365803551611638
 40
0.1960434998406329
 40
0.2508188527683446
 40
0.2508188527683446
 40
0.2508188527683446
 40
0.2508188527683446
 10
-4.649231136613381
 20
88.95662365514312
 30
0.0
 10
-4.667554054687561
 20
88.97176778860619
 30
0.0
 10
-4.702940175850971
 20
89.00101486613337
 30
0.0
 10
-4.765864172017277
 20
89.0221632505398
 30
0.0
 10
-4.828544035343387
 20
89.02291652114931
 30
0.0
 10
-4.861307445922812
 20
89.00213834601493
 30
0.0
 10
-4.877016922759296
 20
88.99217556981549
 30
0.0
 11
-4.649231136613381
 21
88.95662365514312
 31
0.0
 11
-4.706466017561862
 21
88.9981647854843
 31
0.0
 11
-4.768853733884068
 21
89.01926438557994
 31
0.0
 11
-4.828280237105123
 21
89.01717707247708
 31
0.0
 11
-4.877016922759296
 21
88.99217556981549
 31
0.0
  0
SPLINE
  5
156
330
84
100
AcDbEntity
  8
0
  6
Continuous
 62
     7
100
AcDbSpline
210
0.0
220
0.0
230
1.0
 70
  1064
 71
     3
 72
    11
 73
     7
 74
     5
 42
0.000000001
 43
0.0000000001
 44
0.00000001
 40
0.0
 40
0.0
 40
0.0
 40
0.0
 40
0.0707212642331134
 40
0.1365803551611671
 40
0.196043499840634
 40
0.2508188527683607
 40
0.2508188527683607
 40
0.2508188527683607
 40
0.2508188527683607
 10
0.4507688633866209
 20
93.37335321444375
 30
0.0
 10
0.4324459453124335
 20
93.3884973479068
 30
0.0
 10
0.3970598241490132
 20
93.41774442543394
 30
0.0
 10
0.3341358279827093
 20
93.43889280984048
 30
0.0
 10
0.2714559646565975
 20
93.43964608044992
 30
0.0
 10
0.2386925540771713
 20
93.41886790531551
 30
0.0
 10
0.2229830772406842
 20
93.40890512911609
 30
0.0
 11
0.4507688633866209
 21
93.37335321444375
 31
0.0
 11
0.3935339824381221
 21
93.41489434478493
 31
0.0
 11
0.331146266115919
 21
93.43599394488056
 31
0.0
 11
0.2717197628948669
 21
93.4339066317777
 31
0.0
 11
0.2229830772406842
 21
93.40890512911609
 31
0.0
  0
SPLINE
  5
157
330
84
100
AcDbEntity
  8
0
  6
Continuous
 62
     7
100
AcDbSpline
210
0.0
220
0.0
230
1.0
 70
  1064
 71
     3
 72
     9
 73
     5
 74
     3
 42
0.000000001
 43
0.0000000001
 44
0.00000001
 40
0.0
 40
0.0
 40
0.0
 40
0.0
 40
0.0090252442593069
 40
0.018075761256449
 40
0.018075761256449
 40
0.018075761256449
 40
0.018075761256449
 10
-4.877016922759296
 20
88.99217556981549
 30
0.0
 10
-4.879253109963583
 20
88.99015862373767
 30
0.0
 10
-4.883731732248314
 20
88.98611906938797
 30
0.0
 10
-4.887695207291174
 20
88.98157295393028
 30
0.0
 10
-4.889679708322596
 20
88.97929671124386
 30
0.0
 11
-4.877016922759296
 21
88.99217556981549
 31
0.0
 11
-4.88359705063093
 21
88.98599843792859
 31
0.0
 11
-4.889679708322596
 21
88.97929671124386
 31
0.0
  0
ENDBLK
  5
86
330
84
100
AcDbEntity
  8
0
100
AcDbBlockEnd
  0
BLOCK
  5
89
330
87
100
AcDbEntity
  8
0
100
AcDbBlockBegin
  2
Gen1
 70
     0
 10
5.879722
 20
85.435803
 30
0.0
  3
Gen1
  1

  0
INSERT
  5
88
330
87
100
AcDbEntity
  8
0
100
AcDbBlockReference
  2
EB_2_6_OG-select__3
 10
-5.84499681109918
 20
77.8659704718858
 30
0.0
  0
ENDBLK
  5
8A
330
87
100
AcDbEntity
  8
0
100
AcDbBlockEnd
  0
BLOCK
  5
8C
330
8B
100
AcDbEntity
  8
0
100
AcDbBlockBegin
  2
EB_2_6_OG-select__4
 70
     0
 10
-35.16013899999498
 20
126.0103410404098
 30
0.0
  3
EB_2_6_OG-select__4
  1

  0
LINE
  5
158
330
8B
100
AcDbEntity
  8
0
  6
Continuous
 62
     7
100
AcDbLine
 10
-31.16013899999501
 20
129.1412529455716
 30
0.0
 11
-31.16013899999501
 21
126.6808041703003
 31
0.0
  0
LINE
  5
159
330
8B
100
AcDbEntity
  8
0
  6
Continuous
 62
     7
100
AcDbLine
 10
-31.86013899999503
 20
126.0103410404098
 30
0.0
 11
-31.86013899999503
 21
126.6808041703003
 31
0.0
  0
LINE
  5
15A
330
8B
100
AcDbEntity
  8
0
  6
Continuous
 62
     7
100
AcDbLine
 10
-28.96013899999499
 20
129.1412529455716
 30
0.0
 11
-31.16013899999501
 21
129.1412529455716
 31
0.0
  0
LINE
  5
15B
330
8B
100
AcDbEntity
  8
0
  6
Continuous
 62
     7
100
AcDbLine
 10
-35.16013899999498
 20
132.3267021388247
 30
0.0
 11
-35.16013899999498
 21
132.0490560436195
 31
0.0
  0
LINE
  5
15C
330
8B
100
AcDbEntity
  8
0
  6
Continuous
 62
     7
100
AcDbLine
 10
-35.16013899999498
 20
132.0490560436195
 30
0.0
 11
-35.16013899999498
 21
126.6808041703003
 31
0.0
  0
LINE
  5
15D
330
8B
100
AcDbEntity
  8
0
  6
Continuous
 62
     7
100
AcDbLine
 10
-34.46013899999503
 20
126.0103410404098
 30
0.0
 11
-34.46013899999503
 21
126.6808041703003
 31
0.0
  0
LINE
  5
15E
330
8B
100
AcDbEntity
  8
0
  6
Continuous
 62
     7
100
AcDbLine
 10
-24.96013899999502
 20
132.3267021388247
 30
0.0
 11
-24.96013899999502
 21
133.9018735266793
 31
0.0
  0
LINE
  5
15F
330
8B
100
AcDbEntity
  8
0
  6
Continuous
 62
     7
100
AcDbLine
 10
-24.96013899999502
 20
133.9900349459851
 30
0.0
 11
-24.96013899999502
 21
133.9018735266793
 31
0.0
  0
LINE
  5
160
330
8B
100
AcDbEntity
  8
0
  6
Continuous
 62
     7
100
AcDbLine
 10
-24.96013899999502
 20
132.3267021388247
 30
0.0
 11
-24.96013899999498
 21
132.0490560436195
 31
0.0
  0
LINE
  5
161
330
8B
100
AcDbEntity
  8
0
  6
Continuous
 62
     7
100
AcDbLine
 10
-24.96013899999498
 20
132.0490560436195
 30
0.0
 11
-24.96013899999498
 21
126.6808041703003
 31
0.0
  0
LINE
  5
162
330
8B
100
AcDbEntity
  8
0
  6
Continuous
 62
     7
100
AcDbLine
 10
-25.66013899999503
 20
126.0103410404098
 30
0.0
 11
-25.66013899999503
 21
126.6808041703003
 31
0.0
  0
LINE
  5
163
330
8B
100
AcDbEntity
  8
0
  6
Continuous
 62
     7
100
AcDbLine
 10
-34.46013899999503
 20
126.0103410404098
 30
0.0
 11
-31.86013899999503
 21
126.0103410404098
 31
0.0
  0
LINE
  5
164
330
8B
100
AcDbEntity
  8
0
  6
Continuous
 62
     7
100
AcDbLine
 10
-35.16013899999498
 20
126.6808041703003
 30
0.0
 11
-31.16013899999501
 21
126.6808041703003
 31
0.0
  0
LINE
  5
165
330
8B
100
AcDbEntity
  8
0
  6
Continuous
 62
     7
100
AcDbLine
 10
-24.96013899999498
 20
126.6808041703003
 30
0.0
 11
-28.96013899999499
 21
126.6808041703003
 31
0.0
  0
LINE
  5
166
330
8B
100
AcDbEntity
  8
0
  6
Continuous
 62
     7
100
AcDbLine
 10
-28.26013899999504
 20
126.0103410404098
 30
0.0
 11
-25.66013899999503
 21
126.0103410404098
 31
0.0
  0
LINE
  5
167
330
8B
100
AcDbEntity
  8
0
  6
Continuous
 62
     2
100
AcDbLine
 10
-35.16013899999498
 20
132.0490560436195
 30
0.0
 11
-24.96013899999498
 21
132.0490560436195
 31
0.0
  0
LINE
  5
168
330
8B
100
AcDbEntity
  8
0
  6
Continuous
 62
     7
100
AcDbLine
 10
-28.96013899999499
 20
129.1412529455716
 30
0.0
 11
-28.96013899999499
 21
126.6808041703003
 31
0.0
  0
LINE
  5
169
330
8B
100
AcDbEntity
  8
0
  6
Continuous
 62
     7
100
AcDbLine
 10
-28.26013899999504
 20
126.0103410404098
 30
0.0
 11
-28.26013899999503
 21
126.6808041703003
 31
0.0
  0
LINE
  5
16A
330
8B
100
AcDbEntity
  8
0
  6
Continuous
 62
     7
100
AcDbLine
 10
-35.16013899999498
 20
132.3267021388247
 30
0.0
 11
-35.16013899999498
 21
133.9018735266793
 31
0.0
  0
LINE
  5
16B
330
8B
100
AcDbEntity
  8
0
  6
Continuous
 62
     7
100
AcDbLine
 10
-35.16013899999498
 20
133.9900349459851
 30
0.0
 11
-35.16013899999498
 21
133.9018735266793
 31
0.0
  0
LINE
  5
16C
330
8B
100
AcDbEntity
  8
0
  6
Continuous
 62
     2
100
AcDbLine
 10
-35.16013899999498
 20
133.9018735266793
 30
0.0
 11
-24.96013899999502
 21
133.9018735266793
 31
0.0
  0
LINE
  5
16D
330
8B
100
AcDbEntity
  8
0
  6
Continuous
 62
     7
100
AcDbLine
 10
-35.16013899999498
 20
133.9900349459851
 30
0.0
 11
-24.96013899999502
 21
133.9900349459851
 31
0.0
  0
LINE
  5
16E
330
8B
100
AcDbEntity
  8
0
  6
Continuous
 62
     2
100
AcDbLine
 10
-35.16013899999498
 20
132.3267021388247
 30
0.0
 11
-24.96013899999502
 21
132.3267021388247
 31
0.0
  0
ENDBLK
  5
8D
330
8B
100
AcDbEntity
  8
0
100
AcDbBlockEnd
  0
BLOCK
  5
90
330
8E
100
AcDbEntity
  8
0
100
AcDbBlockBegin
  2
Left1
 70
     0
 10
-30.060139
 20
130.0
 30
0.0
  3
Left1
  1

  0
INSERT
  5
8F
330
8E
100
AcDbEntity
  8
0
100
AcDbBlockReference
  2
EB_2_6_OG-select__4
 10
-35.16013899999498
 20
126.0103410404098
 30
0.0
  0
ENDBLK
  5
91
330
8E
100
AcDbEntity
  8
0
100
AcDbBlockEnd
  0
BLOCK
  5
93
330
92
100
AcDbEntity
  8
0
100
AcDbBlockBegin
  2
EB_2_6_OG-select__5
 70
     0
 10
-121.8740450000048
 20
126.0103410404097
 30
0.0
  3
EB_2_6_OG-select__5
  1

  0
LINE
  5
16F
330
92
100
AcDbEntity
  8
0
  6
Continuous
 62
     7
100
AcDbLine
 10
-120.6740450000048
 20
126.0103410404097
 30
0.0
 11
-120.6740450000048
 21
127.0103410404097
 31
0.0
  0
LINE
  5
170
330
92
100
AcDbEntity
  8
0
  6
Continuous
 62
     7
100
AcDbLine
 10
-119.0740450000048
 20
126.0103410404097
 30
0.0
 11
-118.5740450000048
 21
126.0103410404097
 31
0.0
  0
LINE
  5
171
330
92
100
AcDbEntity
  8
0
  6
Continuous
 62
     7
100
AcDbLine
 10
-117.8740450000048
 20
129.1412529455715
 30
0.0
 11
-117.8740450000048
 21
128.0477033035191
 31
0.0
  0
LINE
  5
172
330
92
100
AcDbEntity
  8
0
  6
Continuous
 62
     7
100
AcDbLine
 10
-117.8740450000048
 20
131.0480393624481
 30
0.0
 11
-117.8740450000048
 21
130.209250007242
 31
0.0
  0
LINE
  5
173
330
92
100
AcDbEntity
  8
0
  6
Continuous
 62
     7
100
AcDbLine
 10
-118.5740450000048
 20
128.048716165016
 30
0.0
 11
-117.8740450000048
 21
128.0477033035191
 31
0.0
  0
LINE
  5
174
330
92
100
AcDbEntity
  8
0
  6
Continuous
 62
     7
100
AcDbLine
 10
-118.5740450000048
 20
128.048716165016
 30
0.0
 11
-118.5740449999995
 21
129.6703755850812
 31
0.0
  0
LINE
  5
175
330
92
100
AcDbEntity
  8
0
  6
Continuous
 62
     7
100
AcDbLine
 10
-118.5740450000048
 20
127.0103410404097
 30
0.0
 11
-118.5740450000048
 21
128.048716165016
 31
0.0
  0
LINE
  5
176
330
92
100
AcDbEntity
  8
0
  6
Continuous
 62
     7
100
AcDbLine
 10
-118.5740450000048
 20
126.0103410404097
 30
0.0
 11
-118.5740450000048
 21
127.0103410404097
 31
0.0
  0
LINE
  5
177
330
92
100
AcDbEntity
  8
0
  6
Continuous
 62
     7
100
AcDbLine
 10
-119.0740450000048
 20
126.0103410404097
 30
0.0
 11
-119.0740450000048
 21
127.0103410404097
 31
0.0
  0
LINE
  5
178
330
92
100
AcDbEntity
  8
0
  6
Continuous
 62
     7
100
AcDbLine
 10
-119.0740450000048
 20
126.0103410404097
 30
0.0
 11
-120.6740450000048
 21
126.0103410404097
 31
0.0
  0
LINE
  5
179
330
92
100
AcDbEntity
  8
0
  6
Continuous
 62
     7
100
AcDbLine
 10
-121.1740450000093
 20
129.6703755850812
 30
0.0
 11
-118.5740449999995
 21
129.6703755850812
 31
0.0
  0
LINE
  5
17A
330
92
100
AcDbEntity
  8
0
  6
Continuous
 62
     7
100
AcDbLine
 10
-121.8740450000048
 20
129.6693627235842
 30
0.0
 11
-121.1740450000093
 21
129.6703755850812
 31
0.0
  0
LINE
  5
17B
330
92
100
AcDbEntity
  8
0
  6
Continuous
 62
     7
100
AcDbLine
 10
-112.3740450000093
 20
129.6703755850812
 30
0.0
 11
-114.9740450000028
 21
129.6703755850812
 31
0.0
  0
LINE
  5
17C
330
92
100
AcDbEntity
  8
0
  6
Continuous
 62
     7
100
AcDbLine
 10
-111.6740450000048
 20
129.6693627235843
 30
0.0
 11
-112.3740450000093
 21
129.6703755850812
 31
0.0
  0
LINE
  5
17D
330
92
100
AcDbEntity
  8
0
  6
Continuous
 62
     7
100
AcDbLine
 10
-117.8740450000048
 20
131.0480393624481
 30
0.0
 11
-115.6740450000048
 21
131.0480393624481
 31
0.0
  0
LINE
  5
17E
330
92
100
AcDbEntity
  8
0
  6
Continuous
 62
     7
100
AcDbLine
 10
-115.6740450000048
 20
129.6693627235843
 30
0.0
 11
-115.6740450000048
 21
129.1412529455715
 31
0.0
  0
LINE
  5
17F
330
92
100
AcDbEntity
  8
0
  6
Continuous
 62
     7
100
AcDbLine
 10
-117.8740450000048
 20
129.6693627235842
 30
0.0
 11
-117.8740450000048
 21
129.1412529455715
 31
0.0
  0
LINE
  5
180
330
92
100
AcDbEntity
  8
0
  6
Continuous
 62
     7
100
AcDbLine
 10
-117.8740450000048
 20
129.1412529455715
 30
0.0
 11
-115.6740450000048
 21
129.1412529455715
 31
0.0
  0
LINE
  5
181
330
92
100
AcDbEntity
  8
0
  6
Continuous
 62
     7
100
AcDbLine
 10
-114.9740450000028
 20
129.6703755850812
 30
0.0
 11
-114.9740449999994
 21
128.0487161650161
 31
0.0
  0
LINE
  5
182
330
92
100
AcDbEntity
  8
0
  6
Continuous
 62
     7
100
AcDbLine
 10
-118.5740449999995
 20
129.6703755850812
 30
0.0
 11
-117.8740450000048
 21
129.6693627235842
 31
0.0
  0
LINE
  5
183
330
92
100
AcDbEntity
  8
0
  6
Continuous
 62
     7
100
AcDbLine
 10
-114.9740450000028
 20
129.6703755850812
 30
0.0
 11
-115.6740450000048
 21
129.6693627235843
 31
0.0
  0
LINE
  5
184
330
92
100
AcDbEntity
  8
0
  6
Continuous
 62
     7
100
AcDbLine
 10
-115.6740450000048
 20
128.0477033035191
 30
0.0
 11
-114.9740449999994
 21
128.0487161650161
 31
0.0
  0
LINE
  5
185
330
92
100
AcDbEntity
  8
0
  6
Continuous
 62
     7
100
AcDbLine
 10
-120.6740450000048
 20
127.0103410404097
 30
0.0
 11
-121.1740450000048
 21
127.0103410404097
 31
0.0
  0
LINE
  5
186
330
92
100
AcDbEntity
  8
0
  6
Continuous
 62
     7
100
AcDbLine
 10
-118.5740450000048
 20
127.0103410404097
 30
0.0
 11
-119.0740450000048
 21
127.0103410404097
 31
0.0
  0
LINE
  5
187
330
92
100
AcDbEntity
  8
0
  6
Continuous
 62
     7
100
AcDbLine
 10
-120.6740450000048
 20
127.0103410404097
 30
0.0
 11
-119.0740450000048
 21
127.0103410404097
 31
0.0
  0
LINE
  5
188
330
92
100
AcDbEntity
  8
0
  6
Continuous
 62
     7
100
AcDbLine
 10
-121.8740450000048
 20
126.6808041703002
 30
0.0
 11
-121.1740450000048
 21
126.6808041703002
 31
0.0
  0
LINE
  5
189
330
92
100
AcDbEntity
  8
0
  6
Continuous
 62
     7
100
AcDbLine
 10
-118.5740450000048
 20
126.6808041703002
 30
0.0
 11
-117.8740450000048
 21
126.6808041703002
 31
0.0
  0
LINE
  5
18A
330
92
100
AcDbEntity
  8
0
  6
Continuous
 62
     7
100
AcDbLine
 10
-121.8740450000048
 20
130.209250007242
 30
0.0
 11
-117.8740450000048
 21
130.209250007242
 31
0.0
  0
LINE
  5
18B
330
92
100
AcDbEntity
  8
0
  6
Continuous
 62
     7
100
AcDbLine
 10
-117.8740450000048
 20
126.6808041703002
 30
0.0
 11
-117.8740450000048
 21
128.0477033035191
 31
0.0
  0
LINE
  5
18C
330
92
100
AcDbEntity
  8
0
  6
Continuous
 62
     7
100
AcDbLine
 10
-117.8740450000048
 20
129.6693627235842
 30
0.0
 11
-117.8740450000048
 21
130.209250007242
 31
0.0
  0
LINE
  5
18D
330
92
100
AcDbEntity
  8
0
  6
Continuous
 62
     7
100
AcDbLine
 10
-115.6740450000048
 20
129.1412529455715
 30
0.0
 11
-115.6740450000048
 21
128.0477033035191
 31
0.0
  0
LINE
  5
18E
330
92
100
AcDbEntity
  8
0
  6
Continuous
 62
     7
100
AcDbLine
 10
-115.6740450000048
 20
128.0477033035191
 30
0.0
 11
-115.6740450000048
 21
126.6808041703002
 31
0.0
  0
LINE
  5
18F
330
92
100
AcDbEntity
  8
0
  6
Continuous
 62
     7
100
AcDbLine
 10
-114.9740450000048
 20
127.0103410404097
 30
0.0
 11
-114.9740450000048
 21
126.0103410404097
 31
0.0
  0
LINE
  5
190
330
92
100
AcDbEntity
  8
0
  6
Continuous
 62
     7
100
AcDbLine
 10
-114.9740450000048
 20
126.0103410404097
 30
0.0
 11
-114.4740450000048
 21
126.0103410404097
 31
0.0
  0
LINE
  5
191
330
92
100
AcDbEntity
  8
0
  6
Continuous
 62
     7
100
AcDbLine
 10
-121.8740450000048
 20
133.955842460496
 30
0.0
 11
-121.8740450000048
 21
133.990034945985
 31
0.0
  0
LINE
  5
192
330
92
100
AcDbEntity
  8
0
  6
Continuous
 62
     2
100
AcDbLine
 10
-111.6740450000048
 20
133.955842460496
 30
0.0
 11
-121.8740450000048
 21
133.955842460496
 31
0.0
  0
LINE
  5
193
330
92
100
AcDbEntity
  8
0
  6
Continuous
 62
     7
100
AcDbLine
 10
-111.6740450000048
 20
133.955842460496
 30
0.0
 11
-111.6740450000048
 21
133.990034945985
 31
0.0
  0
LINE
  5
194
330
92
100
AcDbEntity
  8
0
  6
Continuous
 62
     7
100
AcDbLine
 10
-111.6740450000048
 20
133.990034945985
 30
0.0
 11
-121.8740450000048
 21
133.990034945985
 31
0.0
  0
LINE
  5
195
330
92
100
AcDbEntity
  8
0
  6
Continuous
 62
     7
100
AcDbLine
 10
-114.4740450000048
 20
126.0103410404097
 30
0.0
 11
-114.4740450000048
 21
127.0103410404097
 31
0.0
  0
LINE
  5
196
330
92
100
AcDbEntity
  8
0
  6
Continuous
 62
     7
100
AcDbLine
 10
-112.8740450000048
 20
126.0103410404097
 30
0.0
 11
-114.4740450000048
 21
126.0103410404097
 31
0.0
  0
LINE
  5
197
330
92
100
AcDbEntity
  8
0
  6
Continuous
 62
     7
100
AcDbLine
 10
-112.8740450000048
 20
126.0103410404097
 30
0.0
 11
-112.8740450000048
 21
127.0103410404097
 31
0.0
  0
LINE
  5
198
330
92
100
AcDbEntity
  8
0
  6
Continuous
 62
     7
100
AcDbLine
 10
-112.3740450000048
 20
126.0103410404097
 30
0.0
 11
-112.3740450000048
 21
127.0103410404097
 31
0.0
  0
LINE
  5
199
330
92
100
AcDbEntity
  8
0
  6
Continuous
 62
     7
100
AcDbLine
 10
-112.8740450000048
 20
126.0103410404097
 30
0.0
 11
-112.3740450000048
 21
126.0103410404097
 31
0.0
  0
LINE
  5
19A
330
92
100
AcDbEntity
  8
0
  6
Continuous
 62
     7
100
AcDbLine
 10
-111.6740450000048
 20
128.0477033035191
 30
0.0
 11
-111.6740450000048
 21
126.6808041703002
 31
0.0
  0
LINE
  5
19B
330
92
100
AcDbEntity
  8
0
  6
Continuous
 62
     7
100
AcDbLine
 10
-112.3740450000048
 20
127.0103410404097
 30
0.0
 11
-112.8740450000048
 21
127.0103410404097
 31
0.0
  0
LINE
  5
19C
330
92
100
AcDbEntity
  8
0
  6
Continuous
 62
     7
100
AcDbLine
 10
-114.4740450000048
 20
127.0103410404097
 30
0.0
 11
-114.9740450000048
 21
127.0103410404097
 31
0.0
  0
LINE
  5
19D
330
92
100
AcDbEntity
  8
0
  6
Continuous
 62
     7
100
AcDbLine
 10
-111.6740450000048
 20
128.0477033035191
 30
0.0
 11
-111.6740450000048
 21
129.6693627235843
 31
0.0
  0
LINE
  5
19E
330
92
100
AcDbEntity
  8
0
  6
Continuous
 62
     7
100
AcDbLine
 10
-114.9740450000048
 20
127.0103410404097
 30
0.0
 11
-114.9740449999994
 21
128.0487161650161
 31
0.0
  0
LINE
  5
19F
330
92
100
AcDbEntity
  8
0
  6
Continuous
 62
     7
100
AcDbLine
 10
-112.3740450000048
 20
127.0103410404097
 30
0.0
 11
-112.3740450000048
 21
128.0487161650161
 31
0.0
  0
LINE
  5
1A0
330
92
100
AcDbEntity
  8
0
  6
Continuous
 62
     7
100
AcDbLine
 10
-115.6740450000048
 20
130.209250007242
 30
0.0
 11
-111.6740450000048
 21
130.209250007242
 31
0.0
  0
LINE
  5
1A1
330
92
100
AcDbEntity
  8
0
  6
Continuous
 62
     7
100
AcDbLine
 10
-111.6740450000048
 20
129.6693627235843
 30
0.0
 11
-111.6740450000048
 21
130.209250007242
 31
0.0
  0
LINE
  5
1A2
330
92
100
AcDbEntity
  8
0
  6
Continuous
 62
     7
100
AcDbLine
 10
-115.6740450000048
 20
130.209250007242
 30
0.0
 11
-115.6740450000048
 21
129.6693627235843
 31
0.0
  0
LINE
  5
1A3
330
92
100
AcDbEntity
  8
0
  6
Continuous
 62
     7
100
AcDbLine
 10
-112.3740450000048
 20
128.0487161650161
 30
0.0
 11
-112.3740450000093
 21
129.6703755850812
 31
0.0
  0
LINE
  5
1A4
330
92
100
AcDbEntity
  8
0
  6
Continuous
 62
     7
100
AcDbLine
 10
-114.9740450000048
 20
126.6808041703002
 30
0.0
 11
-115.6740450000048
 21
126.6808041703002
 31
0.0
  0
LINE
  5
1A5
330
92
100
AcDbEntity
  8
0
  6
Continuous
 62
     7
100
AcDbLine
 10
-111.6740450000048
 20
126.6808041703002
 30
0.0
 11
-112.3740450000048
 21
126.6808041703002
 31
0.0
  0
LINE
  5
1A6
330
92
100
AcDbEntity
  8
0
  6
Continuous
 62
     7
100
AcDbLine
 10
-114.4740450000048
 20
127.0103410404097
 30
0.0
 11
-112.8740450000048
 21
127.0103410404097
 31
0.0
  0
LINE
  5
1A7
330
92
100
AcDbEntity
  8
0
  6
Continuous
 62
     7
100
AcDbLine
 10
-115.6740450000048
 20
131.0480393624481
 30
0.0
 11
-115.6740450000048
 21
130.209250007242
 31
0.0
  0
LINE
  5
1A8
330
92
100
AcDbEntity
  8
0
  6
Continuous
 62
     7
100
AcDbLine
 10
-111.6740450000048
 20
133.955842460496
 30
0.0
 11
-111.6740450000048
 21
130.209250007242
 31
0.0
  0
LINE
  5
1A9
330
92
100
AcDbEntity
  8
0
  6
Continuous
 62
     7
100
AcDbLine
 10
-121.8740450000048
 20
128.0477033035191
 30
0.0
 11
-121.8740450000048
 21
129.6693627235842
 31
0.0
  0
LINE
  5
1AA
330
92
100
AcDbEntity
  8
0
  6
Continuous
 62
     7
100
AcDbLine
 10
-121.8740450000048
 20
130.209250007242
 30
0.0
 11
-121.8740450000048
 21
129.6693627235842
 31
0.0
  0
LINE
  5
1AB
330
92
100
AcDbEntity
  8
0
  6
Continuous
 62
     7
100
AcDbLine
 10
-121.8740450000048
 20
133.955842460496
 30
0.0
 11
-121.8740450000048
 21
130.209250007242
 31
0.0
  0
LINE
  5
1AC
330
92
100
AcDbEntity
  8
0
  6
Continuous
 62
     7
100
AcDbLine
 10
-121.1740450000093
 20
129.6703755850812
 30
0.0
 11
-121.1740450000048
 21
128.048716165016
 31
0.0
  0
LINE
  5
1AD
330
92
100
AcDbEntity
  8
0
  6
Continuous
 62
     7
100
AcDbLine
 10
-121.8740450000048
 20
128.0477033035191
 30
0.0
 11
-121.1740450000048
 21
128.048716165016
 31
0.0
  0
LINE
  5
1AE
330
92
100
AcDbEntity
  8
0
  6
Continuous
 62
     7
100
AcDbLine
 10
-121.1740450000048
 20
127.0103410404097
 30
0.0
 11
-121.1740450000048
 21
128.048716165016
 31
0.0
  0
LINE
  5
1AF
330
92
100
AcDbEntity
  8
0
  6
Continuous
 62
     7
100
AcDbLine
 10
-121.8740450000048
 20
126.6808041703002
 30
0.0
 11
-121.8740450000048
 21
128.0477033035191
 31
0.0
  0
LINE
  5
1B0
330
92
100
AcDbEntity
  8
0
  6
Continuous
 62
     7
100
AcDbLine
 10
-121.1740450000048
 20
126.0103410404097
 30
0.0
 11
-120.6740450000048
 21
126.0103410404097
 31
0.0
  0
LINE
  5
1B1
330
92
100
AcDbEntity
  8
0
  6
Continuous
 62
     7
100
AcDbLine
 10
-121.1740450000048
 20
127.0103410404097
 30
0.0
 11
-121.1740450000048
 21
126.0103410404097
 31
0.0
  0
LINE
  5
1B2
330
92
100
AcDbEntity
  8
0
  6
Continuous
 62
     7
100
AcDbLine
 10
-112.3740450000048
 20
128.0487161650161
 30
0.0
 11
-111.6740450000048
 21
128.0477033035191
 31
0.0
  0
ENDBLK
  5
94
330
92
100
AcDbEntity
  8
0
100
AcDbBlockEnd
  0
BLOCK
  5
97
330
95
100
AcDbEntity
  8
0
100
AcDbBlockBegin
  2
Right1
 70
     0
 10
-116.7740449999998
 20
129.9999999999999
 30
0.0
  3
Right1
  1

  0
INSERT
  5
96
330
95
100
AcDbEntity
  8
0
100
AcDbBlockReference
  2
EB_2_6_OG-select__5
 10
-121.8740450000048
 20
126.0103410404097
 30
0.0
  0
ENDBLK
  5
98
330
95
100
AcDbEntity
  8
0
100
AcDbBlockEnd
  0
BLOCK
  5
9A
330
99
100
AcDbEntity
  8
0
100
AcDbBlockBegin
  2
EB_2_6_OG-select__6
 70
     0
 10
-76.587606579836
 20
80.33580299999501
 30
0.0
  3
EB_2_6_OG-select__6
  1

  0
LINE
  5
1B3
330
99
100
AcDbEntity
  8
0
  6
Continuous
 62
     7
100
AcDbLine
 10
-56.89234590109972
 20
83.13580299999506
 30
0.0
 11
-56.24905923188
 21
83.13580299999506
 31
0.0
  0
LINE
  5
1B4
330
99
100
AcDbEntity
  8
0
  6
Continuous
 62
     7
100
AcDbLine
 10
-67.61801617327504
 20
83.63580299999506
 30
0.0
 11
-69.65874974642867
 21
83.63580299999788
 31
0.0
  0
LINE
  5
1B5
330
99
100
AcDbEntity
  8
0
  6
Continuous
 62
     7
100
AcDbLine
 10
-69.65874974642863
 20
84.33580299999502
 30
0.0
 11
-67.61869935698108
 21
84.33580299999502
 31
0.0
  0
LINE
  5
1B6
330
99
100
AcDbEntity
  8
0
  6
Continuous
 62
     7
100
AcDbLine
 10
-70.9023061052612
 20
84.33580299999502
 30
0.0
 11
-69.65874974642863
 21
84.33580299999502
 31
0.0
  0
LINE
  5
1B7
330
99
100
AcDbEntity
  8
0
  6
Continuous
 62
     7
100
AcDbLine
 10
-67.61801617327504
 20
83.63580299999506
 30
0.0
 11
-67.61869935698108
 21
84.33580299999502
 31
0.0
  0
LINE
  5
1B8
330
99
100
AcDbEntity
  8
0
  6
Continuous
 62
     7
100
AcDbLine
 10
-66.07856174285915
 20
83.63580299999506
 30
0.0
 11
-67.61801617327504
 21
83.63580299999506
 31
0.0
  0
LINE
  5
1B9
330
99
100
AcDbEntity
  8
0
  6
Continuous
 62
     7
100
AcDbLine
 10
-66.07856174285915
 20
83.63580299999506
 30
0.0
 11
-58.06146482660788
 21
83.63580299999506
 31
0.0
  0
LINE
  5
1BA
330
99
100
AcDbEntity
  8
0
  6
Continuous
 62
     7
100
AcDbLine
 10
-66.07856174285905
 20
87.23580299999506
 30
0.0
 11
-66.07856174285907
 21
89.83580299999507
 31
0.0
  0
LINE
  5
1BB
330
99
100
AcDbEntity
  8
0
  6
Continuous
 62
     7
100
AcDbLine
 10
-69.65874974642864
 20
86.53580299999504
 30
0.0
 11
-69.65874974642864
 21
90.53580299999501
 31
0.0
  0
LINE
  5
1BC
330
99
100
AcDbEntity
  8
0
  6
Continuous
 62
     7
100
AcDbLine
 10
-67.61869935698105
 20
86.53580299999504
 30
0.0
 11
-67.61801617327501
 21
87.2358030000004
 31
0.0
  0
LINE
  5
1BD
330
99
100
AcDbEntity
  8
0
  6
Continuous
 62
     7
100
AcDbLine
 10
-70.9023061052612
 20
84.33580299999502
 30
0.0
 11
-70.9023061052612
 21
86.53580299999504
 31
0.0
  0
LINE
  5
1BE
330
99
100
AcDbEntity
  8
0
  6
Continuous
 62
     7
100
AcDbLine
 10
-76.553414094347
 20
80.33580299999505
 30
0.0
 11
-75.49094757775259
 21
80.33580299999505
 31
0.0
  0
LINE
  5
1BF
330
99
100
AcDbEntity
  8
0
  6
Continuous
 62
     7
100
AcDbLine
 10
-75.21330148254742
 20
80.33580299999501
 30
0.0
 11
-75.49094757775259
 21
80.33580299999505
 31
0.0
  0
LINE
  5
1C0
330
99
100
AcDbEntity
  8
0
  6
Continuous
 62
     7
100
AcDbLine
 10
-67.61869935698108
 20
80.33580299999501
 30
0.0
 11
-69.65874974642864
 21
80.33580299999501
 31
0.0
  0
LINE
  5
1C1
330
99
100
AcDbEntity
  8
0
  6
Continuous
 62
     7
100
AcDbLine
 10
-76.553414094347
 20
80.33580299999505
 30
0.0
 11
-76.587606579836
 21
80.33580299999505
 31
0.0
  0
LINE
  5
1C2
330
99
100
AcDbEntity
  8
0
  6
Continuous
 62
     7
100
AcDbLine
 10
-69.65874974642867
 20
81.0358029999891
 30
0.0
 11
-67.61801617327504
 21
81.03580299999507
 31
0.0
  0
LINE
  5
1C3
330
99
100
AcDbEntity
  8
0
  6
Continuous
 62
     7
100
AcDbLine
 10
-75.21330148254742
 20
80.33580299999501
 30
0.0
 11
-69.65874974642864
 21
80.33580299999501
 31
0.0
  0
LINE
  5
1C4
330
99
100
AcDbEntity
  8
0
  6
Continuous
 62
     7
100
AcDbLine
 10
-67.61869935698108
 20
80.33580299999501
 30
0.0
 11
-67.61801617327504
 21
81.03580299999507
 31
0.0
  0
LINE
  5
1C5
330
99
100
AcDbEntity
  8
0
  6
Continuous
 62
     7
100
AcDbLine
 10
-66.07856174285916
 20
81.03580299999507
 30
0.0
 11
-67.61801617327504
 21
81.03580299999507
 31
0.0
  0
LINE
  5
1C6
330
99
100
AcDbEntity
  8
0
  6
Continuous
 62
     7
100
AcDbLine
 10
-66.07856174285916
 20
81.03580299999507
 30
0.0
 11
-58.06146482660795
 21
81.03580299999506
 31
0.0
  0
LINE
  5
1C7
330
99
100
AcDbEntity
  8
0
  6
Continuous
 62
     7
100
AcDbLine
 10
-56.89234590109974
 20
81.53580299999507
 30
0.0
 11
-56.24905923188
 21
81.53580299999507
 31
0.0
  0
LINE
  5
1C8
330
99
100
AcDbEntity
  8
0
  6
Continuous
 62
     7
100
AcDbLine
 10
-69.65874974642864
 20
80.33580299999501
 30
0.0
 11
-69.65874974642863
 21
84.33580299999502
 31
0.0
  0
LINE
  5
1C9
330
99
100
AcDbEntity
  8
0
  6
Continuous
 62
     7
100
AcDbLine
 10
-66.07856174285915
 20
83.63580299999506
 30
0.0
 11
-66.07856174285916
 21
81.03580299999507
 31
0.0
  0
LINE
  5
1CA
330
99
100
AcDbEntity
  8
0
  6
Continuous
 62
     2
100
AcDbLine
 10
-75.21330148254742
 20
90.53580299999501
 30
0.0
 11
-75.21330148254742
 21
80.33580299999501
 31
0.0
  0
LINE
  5
1CB
330
99
100
AcDbEntity
  8
0
  6
Continuous
 62
     2
100
AcDbLine
 10
-75.49094757775259
 20
90.53580299999501
 30
0.0
 11
-75.49094757775259
 21
80.33580299999505
 31
0.0
  0
LINE
  5
1CC
330
99
100
AcDbEntity
  8
0
  6
Continuous
 62
     2
100
AcDbLine
 10
-76.553414094347
 20
90.53580299999501
 30
0.0
 11
-76.553414094347
 21
80.33580299999505
 31
0.0
  0
LINE
  5
1CD
330
99
100
AcDbEntity
  8
0
  6
Continuous
 62
     7
100
AcDbLine
 10
-76.587606579836
 20
90.53580299999501
 30
0.0
 11
-76.587606579836
 21
80.33580299999505
 31
0.0
  0
LINE
  5
1CE
330
99
100
AcDbEntity
  8
0
  6
Continuous
 62
     7
100
AcDbLine
 10
-58.06146482660793
 20
89.83580299999507
 30
0.0
 11
-66.07856174285907
 21
89.83580299999507
 31
0.0
  0
LINE
  5
1CF
330
99
100
AcDbEntity
  8
0
  6
Continuous
 62
     7
100
AcDbLine
 10
-56.8923459010997
 20
89.33580299999507
 30
0.0
 11
-56.24905923188
 21
89.33580299999507
 31
0.0
  0
LINE
  5
1D0
330
99
100
AcDbEntity
  8
0
  6
Continuous
 62
     7
100
AcDbLine
 10
-67.61801617327501
 20
89.83580299999507
 30
0.0
 11
-69.65874974642867
 21
89.83580299998464
 31
0.0
  0
LINE
  5
1D1
330
99
100
AcDbEntity
  8
0
  6
Continuous
 62
     7
100
AcDbLine
 10
-66.07856174285907
 20
89.83580299999507
 30
0.0
 11
-67.61801617327501
 21
89.83580299999507
 31
0.0
  0
LINE
  5
1D2
330
99
100
AcDbEntity
  8
0
  6
Continuous
 62
     7
100
AcDbLine
 10
-75.21330148254742
 20
90.53580299999501
 30
0.0
 11
-75.49094757775259
 21
90.53580299999501
 31
0.0
  0
LINE
  5
1D3
330
99
100
AcDbEntity
  8
0
  6
Continuous
 62
     7
100
AcDbLine
 10
-76.553414094347
 20
90.53580299999501
 30
0.0
 11
-75.49094757775259
 21
90.53580299999501
 31
0.0
  0
LINE
  5
1D4
330
99
100
AcDbEntity
  8
0
  6
Continuous
 62
     7
100
AcDbLine
 10
-75.21330148254742
 20
90.53580299999501
 30
0.0
 11
-69.65874974642864
 21
90.53580299999501
 31
0.0
  0
LINE
  5
1D5
330
99
100
AcDbEntity
  8
0
  6
Continuous
 62
     7
100
AcDbLine
 10
-67.61869935698107
 20
90.53580299999501
 30
0.0
 11
-69.65874974642864
 21
90.53580299999501
 31
0.0
  0
LINE
  5
1D6
330
99
100
AcDbEntity
  8
0
  6
Continuous
 62
     7
100
AcDbLine
 10
-76.553414094347
 20
90.53580299999501
 30
0.0
 11
-76.587606579836
 21
90.53580299999501
 31
0.0
  0
LINE
  5
1D7
330
99
100
AcDbEntity
  8
0
  6
Continuous
 62
     7
100
AcDbLine
 10
-67.61801617327501
 20
89.83580299999507
 30
0.0
 11
-67.61869935698107
 21
90.53580299999501
 31
0.0
  0
LINE
  5
1D8
330
99
100
AcDbEntity
  8
0
  6
Continuous
 62
     7
100
AcDbLine
 10
-69.65874974642864
 20
86.53580299999504
 30
0.0
 11
-67.61869935698105
 21
86.53580299999504
 31
0.0
  0
LINE
  5
1D9
330
99
100
AcDbEntity
  8
0
  6
Continuous
 62
     7
100
AcDbLine
 10
-70.9023061052612
 20
86.53580299999504
 30
0.0
 11
-69.65874974642864
 21
86.53580299999504
 31
0.0
  0
LINE
  5
1DA
330
99
100
AcDbEntity
  8
0
  6
Continuous
 62
     7
100
AcDbLine
 10
-69.65874974642867
 20
87.23580300000027
 30
0.0
 11
-67.61801617327501
 21
87.2358030000004
 31
0.0
  0
LINE
  5
1DB
330
99
100
AcDbEntity
  8
0
  6
Continuous
 62
     7
100
AcDbLine
 10
-66.07856174285905
 20
87.23580299999506
 30
0.0
 11
-67.61801617327501
 21
87.2358030000004
 31
0.0
  0
LINE
  5
1DC
330
99
100
AcDbEntity
  8
0
  6
Continuous
 62
     7
100
AcDbLine
 10
-58.06146482660795
 20
87.23580299999506
 30
0.0
 11
-66.07856174285905
 21
87.23580299999506
 31
0.0
  0
LINE
  5
1DD
330
99
100
AcDbEntity
  8
0
  6
Continuous
 62
     7
100
AcDbLine
 10
-56.8923459010997
 20
87.73580299999506
 30
0.0
 11
-56.24905923188
 21
87.73580299999506
 31
0.0
  0
SPLINE
  5
1DE
330
99
100
AcDbEntity
  8
0
  6
Continuous
 62
     7
100
AcDbSpline
210
0.0
220
0.0
230
1.0
 70
  1064
 71
     3
 72
    11
 73
     7
 74
     5
 42
0.000000001
 43
0.0000000001
 44
0.00000001
 40
0.0
 40
0.0
 40
0.0
 40
0.0
 40
0.3228020856338827
 40
0.6484446792724694
 40
0.9762927121497775
 40
1.305342441902329
 40
1.305342441902329
 40
1.305342441902329
 40
1.305342441902329
 10
-58.06146482660788
 20
83.63580299999506
 30
0.0
 10
-57.98299628316153
 20
83.56154503952955
 30
0.0
 10
-57.82536870005499
 20
83.41237569449733
 30
0.0
 10
-57.53578419652963
 20
83.25729952916755
 30
0.0
 10
-57.22170324596035
 20
83.15479733137026
 30
0.0
 10
-57.00226549287716
 20
83.14214215578654
 30
0.0
 10
-56.89234590109972
 20
83.13580299999506
 30
0.0
 11
-58.06146482660788
 21
83.63580299999506
 31
0.0
 11
-57.81745710520972
 21
83.4244705152911
 31
0.0
 11
-57.53269870900679
 21
83.26649660623215
 31
0.0
 11
-57.2197329203266
 21
83.1688403258203
 31
0.0
 11
-56.89234590109972
 21
83.13580299999506
 31
0.0
  0
SPLINE
  5
1DF
330
99
100
AcDbEntity
  8
0
  6
Continuous
 62
     7
100
AcDbSpline
210
0.0
220
0.0
230
1.0
 70
  1064
 71
     3
 72
    17
 73
    13
 74
    11
 42
0.000000001
 43
0.0000000001
 44
0.00000001
 40
0.0
 40
0.0
 40
0.0
 40
0.0
 40
0.2614575521816927
 40
0.5208731583383202
 40
0.776950234204727
 40
1.029644780487339
 40
1.280225913833941
 40
1.530807047180544
 40
1.783501593463143
 40
2.03957866932955
 40
2.298994275486189
 40
2.56045182766788
 40
2.56045182766788
 40
2.56045182766788
 40
2.56045182766788
 10
-56.24905923188
 20
81.53580299999507
 30
0.0
 10
-56.16157755164265
 20
81.54341515332905
 30
0.0
 10
-55.98729741256017
 20
81.55858002250488
 30
0.0
 10
-55.75063723166316
 20
81.67780869726371
 30
0.0
 10
-55.56210379816839
 20
81.85611527239297
 30
0.0
 10
-55.44054626625515
 20
82.08347857283782
 30
0.0
 10
-55.39854549516792
 20
82.3358029999951
 30
0.0
 10
-55.44054626625513
 20
82.58812742715227
 30
0.0
 10
-55.56210379816842
 20
82.81549072759717
 30
0.0
 10
-55.75063723166314
 20
82.99379730272639
 30
0.0
 10
-55.98729741256017
 20
83.11302597748528
 30
0.0
 10
-56.16157755164265
 20
83.12819084666108
 30
0.0
 10
-56.24905923188
 20
83.13580299999506
 30
0.0
 11
-56.24905923188
 21
81.53580299999507
 31
0.0
 11
-55.99055021885477
 21
81.57495839290753
 31
0.0
 11
-55.75734547755442
 21
81.6885894044951
 31
0.0
 11
-55.57227384938178
 21
81.8655751726579
 31
0.0
 11
-55.4534496646454
 21
82.08858940449511
 31
0.0
 11
-55.412506492934
 21
82.33580299999507
 31
0.0
 11
-55.4534496646454
 21
82.58301659549502
 31
0.0
 11
-55.57227384938178
 21
82.80603082733222
 31
0.0
 11
-55.75734547755442
 21
82.98301659549502
 31
0.0
 11
-55.99055021885477
 21
83.09664760708262
 31
0.0
 11
-56.24905923188
 21
83.13580299999506
 31
0.0
  0
SPLINE
  5
1E0
330
99
100
AcDbEntity
  8
0
  6
Continuous
 62
     7
100
AcDbSpline
210
0.0
220
0.0
230
1.0
 70
  1064
 71
     3
 72
    11
 73
     7
 74
     5
 42
0.000000001
 43
0.0000000001
 44
0.00000001
 40
0.0
 40
0.0
 40
0.0
 40
0.0
 40
0.3290497297525384
 40
0.6568977626298422
 40
0.9825403562684413
 40
1.305342441902376
 40
1.305342441902376
 40
1.305342441902376
 40
1.305342441902376
 10
-56.89234590109974
 20
81.53580299999507
 30
0.0
 10
-57.00226549287717
 20
81.5294638442036
 30
0.0
 10
-57.22170324596034
 20
81.51680866861982
 30
0.0
 10
-57.53578419652963
 20
81.4143064708226
 30
0.0
 10
-57.82536870005505
 20
81.25923030549279
 30
0.0
 10
-57.98299628316158
 20
81.11006096046059
 30
0.0
 10
-58.06146482660795
 20
81.03580299999506
 30
0.0
 11
-56.89234590109974
 21
81.53580299999507
 31
0.0
 11
-57.2197329203266
 21
81.50276567416982
 31
0.0
 11
-57.53269870900679
 21
81.40510939375798
 31
0.0
 11
-57.81745710520973
 21
81.24713548469903
 31
0.0
 11
-58.06146482660795
 21
81.03580299999506
 31
0.0
  0
SPLINE
  5
1E1
330
99
100
AcDbEntity
  8
0
  6
Continuous
 62
     7
100
AcDbSpline
210
0.0
220
0.0
230
1.0
 70
  1064
 71
     3
 72
    11
 73
     7
 74
     5
 42
0.000000001
 43
0.0000000001
 44
0.00000001
 40
0.0
 40
0.0
 40
0.0
 40
0.0
 40
0.3228020856339497
 40
0.6484446792725356
 40
0.9762927121498395
 40
1.305342441902391
 40
1.305342441902391
 40
1.305342441902391
 40
1.305342441902391
 10
-58.06146482660793
 20
89.83580299999507
 30
0.0
 10
-57.98299628316155
 20
89.76154503952954
 30
0.0
 10
-57.82536870005502
 20
89.61237569449736
 30
0.0
 10
-57.53578419652958
 20
89.45729952916747
 30
0.0
 10
-57.22170324596032
 20
89.35479733137032
 30
0.0
 10
-57.00226549287715
 20
89.34214215578655
 30
0.0
 10
-56.8923459010997
 20
89.33580299999507
 30
0.0
 11
-58.06146482660793
 21
89.83580299999507
 31
0.0
 11
-57.81745710520971
 21
89.62447051529108
 31
0.0
 11
-57.53269870900677
 21
89.46649660623214
 31
0.0
 11
-57.21973292032658
 21
89.3688403258203
 31
0.0
 11
-56.8923459010997
 21
89.33580299999507
 31
0.0
  0
SPLINE
  5
1E2
330
99
100
AcDbEntity
  8
0
  6
Continuous
 62
     7
100
AcDbSpline
210
0.0
220
0.0
230
1.0
 70
  1064
 71
     3
 72
    11
 73
     7
 74
     5
 42
0.000000001
 43
0.0000000001
 44
0.00000001
 40
0.0
 40
0.0
 40
0.0
 40
0.0
 40
0.3290497297525511
 40
0.656897762629855
 40
0.982540356268454
 40
1.305342441902405
 40
1.305342441902405
 40
1.305342441902405
 40
1.305342441902405
 10
-56.8923459010997
 20
87.73580299999506
 30
0.0
 10
-57.00226549287713
 20
87.7294638442036
 30
0.0
 10
-57.22170324596033
 20
87.71680866861985
 30
0.0
 10
-57.5357841965296
 20
87.61430647082258
 30
0.0
 10
-57.82536870005501
 20
87.45923030549281
 30
0.0
 10
-57.98299628316155
 20
87.31006096046058
 30
0.0
 10
-58.06146482660795
 20
87.23580299999506
 30
0.0
 11
-56.8923459010997
 21
87.73580299999506
 31
0.0
 11
-57.21973292032658
 21
87.70276567416983
 31
0.0
 11
-57.53269870900677
 21
87.60510939375799
 31
0.0
 11
-57.81745710520971
 21
87.44713548469903
 31
0.0
 11
-58.06146482660795
 21
87.23580299999506
 31
0.0
  0
SPLINE
  5
1E3
330
99
100
AcDbEntity
  8
0
  6
Continuous
 62
     7
100
AcDbSpline
210
0.0
220
0.0
230
1.0
 70
  1064
 71
     3
 72
    17
 73
    13
 74
    11
 42
0.000000001
 43
0.0000000001
 44
0.00000001
 40
0.0
 40
0.0
 40
0.0
 40
0.0
 40
0.2614575521816906
 40
0.5208731583383241
 40
0.7769502342047407
 40
1.02964478048734
 40
1.280225913833956
 40
1.530807047180559
 40
1.783501593463158
 40
2.039578669329565
 40
2.298994275486192
 40
2.560451827667887
 40
2.560451827667887
 40
2.560451827667887
 40
2.560451827667887
 10
-56.24905923188
 20
87.73580299999506
 30
0.0
 10
-56.16157755164266
 20
87.74341515332902
 30
0.0
 10
-55.98729741256018
 20
87.75858002250487
 30
0.0
 10
-55.75063723166312
 20
87.87780869726367
 30
0.0
 10
-55.56210379816842
 20
88.05611527239297
 30
0.0
 10
-55.44054626625513
 20
88.28347857283782
 30
0.0
 10
-55.39854549516792
 20
88.53580299999507
 30
0.0
 10
-55.44054626625514
 20
88.78812742715228
 30
0.0
 10
-55.56210379816842
 20
89.01549072759717
 30
0.0
 10
-55.75063723166315
 20
89.19379730272642
 30
0.0
 10
-55.98729741256017
 20
89.31302597748518
 30
0.0
 10
-56.16157755164266
 20
89.32819084666113
 30
0.0
 10
-56.24905923188
 20
89.33580299999507
 30
0.0
 11
-56.24905923188
 21
87.73580299999506
 31
0.0
 11
-55.99055021885477
 21
87.77495839290751
 31
0.0
 11
-55.75734547755442
 21
87.8885894044951
 31
0.0
 11
-55.57227384938178
 21
88.0655751726579
 31
0.0
 11
-55.4534496646454
 21
88.2885894044951
 31
0.0
 11
-55.412506492934
 21
88.53580299999507
 31
0.0
 11
-55.4534496646454
 21
88.78301659549503
 31
0.0
 11
-55.57227384938178
 21
89.00603082733222
 31
0.0
 11
-55.75734547755442
 21
89.18301659549502
 31
0.0
 11
-55.99055021885477
 21
89.29664760708259
 31
0.0
 11
-56.24905923188
 21
89.33580299999507
 31
0.0
  0
ENDBLK
  5
9B
330
99
100
AcDbEntity
  8
0
100
AcDbBlockEnd
  0
BLOCK
  5
9E
330
9C
100
AcDbEntity
  8
0
100
AcDbBlockBegin
  2
Top1
 70
     0
 10
-66.00000000000003
 20
85.43580300000002
 30
0.0
  3
Top1
  1

  0
INSERT
  5
9D
330
9C
100
AcDbEntity
  8
0
100
AcDbBlockReference
  2
EB_2_6_OG-select__6
 10
-76.587606579836
 20
80.33580299999501
 30
0.0
  0
DIMENSION
  5
1F0
330
9C
100
AcDbEntity
  8
1
100
AcDbDimension
  2
*D19
 10
-86.553414094347
 20
90.53580299999501
 30
0.0
 11
-89.978414094347
 21
98.29864424797752
 31
0.0
 70
    32
  1
<>
 71
     5
 42
-1.0
 53
90.0
  3
ME10_DIM_10
100
AcDbAlignedDimension
 13
-76.553414094347
 23
80.33580299999505
 33
0.0
 14
-76.553414094347
 24
90.53580299999501
 34
0.0
 50
90.0
100
AcDbRotatedDimension
  0
ENDBLK
  5
9F
330
9C
100
AcDbEntity
  8
0
100
AcDbBlockEnd
  0
BLOCK
  5
A1
330
A0
100
AcDbEntity
  8
0
100
AcDbBlockBegin
  2
_rahmen
 70
     0
 10
85.03855770090276
 20
-6.59413332822959
 30
0.0
  3
_rahmen
  1

  0
LINE
  5
1F1
330
A0
100
AcDbEntity
  8
1
  6
Continuous
 62
     6
100
AcDbLine
 10
-44.50624682584726
 20
23.90586667177053
 30
0.0
 11
85.03855770090445
 21
23.90586667177053
 31
0.0
  0
LINE
  5
1F2
330
A0
100
AcDbEntity
  8
1
  6
Continuous
 62
     7
100
AcDbLine
 10
-26.30624682584724
 20
2.65586667177053
 30
0.0
 11
-8.10624682584734
 21
2.65586667177053
 31
0.0
  0
LINE
  5
1F3
330
A0
100
AcDbEntity
  8
1
  6
Continuous
 62
     6
100
AcDbLine
 10
-26.30624682584724
 20
-1.59413332822947
 30
0.0
 11
-44.50624682584726
 21
-1.59413332822959
 31
0.0
  0
LINE
  5
1F4
330
A0
100
AcDbEntity
  8
1
  6
Continuous
 62
     7
100
AcDbLine
 10
-26.30624682584724
 20
2.65586667177053
 30
0.0
 11
-26.30624682584724
 21
-1.59413332822947
 31
0.0
  0
LINE
  5
1F5
330
A0
100
AcDbEntity
  8
1
  6
Continuous
 62
     7
100
AcDbLine
 10
-8.10624682584734
 20
2.65586667177053
 30
0.0
 11
-8.10624682584734
 21
-1.59413332822959
 31
0.0
  0
LINE
  5
1F6
330
A0
100
AcDbEntity
  8
1
  6
Continuous
 62
     7
100
AcDbLine
 10
-44.50624682584726
 20
2.65586667177041
 30
0.0
 11
-44.50624682584726
 21
-1.59413332822959
 31
0.0
  0
LINE
  5
1F7
330
A0
100
AcDbEntity
  8
1
  6
Continuous
 62
     7
100
AcDbLine
 10
-44.50624682584726
 20
2.65586667177041
 30
0.0
 11
-26.30624682584724
 21
2.65586667177053
 31
0.0
  0
LINE
  5
1F8
330
A0
100
AcDbEntity
  8
1
  6
Continuous
 62
     2
100
AcDbLine
 10
-35.26959193928465
 20
22.03086667177044
 30
0.0
 11
-35.26959193928465
 21
17.03086667177044
 31
0.0
  0
LINE
  5
1F9
330
A0
100
AcDbEntity
  8
1
  6
Continuous
 62
     2
100
AcDbLine
 10
-35.26959193928465
 20
17.03086667177044
 30
0.0
 11
-40.26959193928465
 21
18.28086667177044
 31
0.0
  0
LINE
  5
1FA
330
A0
100
AcDbEntity
  8
1
  6
Continuous
 62
     2
100
AcDbLine
 10
-40.26959193928465
 20
18.28086667177044
 30
0.0
 11
-40.26959193928465
 21
20.78086667177044
 31
0.0
  0
LINE
  5
1FB
330
A0
100
AcDbEntity
  8
1
  6
Continuous
 62
     2
100
AcDbLine
 10
-40.26959193928465
 20
20.78086667177044
 30
0.0
 11
-35.26959193928465
 21
22.03086667177044
 31
0.0
  0
LINE
  5
1FC
330
A0
100
AcDbEntity
  8
1
  6
Continuous
 62
     6
100
AcDbLine
 10
-166.9614422990955
 20
-1.59413332822947
 30
0.0
 11
-201.9614422990954
 21
-1.59413332822947
 31
0.0
  0
LINE
  5
1FD
330
A0
100
AcDbEntity
  8
1
  6
Continuous
 62
     6
100
AcDbLine
 10
85.03855770090445
 20
15.40586667177053
 30
0.0
 11
85.03855770090405
 21
6.90586667177053
 31
0.0
  0
LINE
  5
1FE
330
A0
100
AcDbEntity
  8
1
  6
Continuous
 62
     6
100
AcDbLine
 10
-8.10624682584734
 20
-1.59413332822959
 30
0.0
 11
-8.46144229909726
 21
-1.59413332822947
 31
0.0
  0
LINE
  5
1FF
330
A0
100
AcDbEntity
  8
1
  6
Continuous
 62
     6
100
AcDbLine
 10
-160.7614422990975
 20
-1.59413332822959
 30
0.0
 11
-166.9614422990955
 21
-1.59413332822947
 31
0.0
  0
LINE
  5
200
330
A0
100
AcDbEntity
  8
1
  6
Continuous
 62
     7
100
AcDbLine
 10
-8.10624682584734
 20
15.40586667177053
 30
0.0
 11
-8.10624682584734
 21
2.65586667177053
 31
0.0
  0
LINE
  5
201
330
A0
100
AcDbEntity
  8
1
  6
Continuous
 62
     7
100
AcDbLine
 10
-44.50624682584726
 20
15.40586667177053
 30
0.0
 11
-44.50624682584726
 21
2.65586667177041
 31
0.0
  0
LINE
  5
202
330
A0
100
AcDbEntity
  8
1
  6
Continuous
 62
     6
100
AcDbLine
 10
-58.46144229909723
 20
-1.59413332822947
 30
0.0
 11
-108.4614422990975
 21
-1.59413332822947
 31
0.0
  0
LINE
  5
203
330
A0
100
AcDbEntity
  8
1
  6
Continuous
 62
     6
100
AcDbLine
 10
-160.7614422990975
 20
-1.59413332822959
 30
0.0
 11
-158.4614422990972
 21
-1.59413332822947
 31
0.0
  0
LINE
  5
204
330
A0
100
AcDbEntity
  8
1
  6
Continuous
 62
     6
100
AcDbLine
 10
-8.10624682584734
 20
-1.59413332822959
 30
0.0
 11
41.53855770090274
 21
-1.59413332822947
 31
0.0
  0
LINE
  5
205
330
A0
100
AcDbEntity
  8
1
  6
Continuous
 62
     6
100
AcDbLine
 10
85.03855770090276
 20
-1.59413332822947
 30
0.0
 11
85.03855770090405
 21
6.90586667177053
 31
0.0
  0
LINE
  5
206
330
A0
100
AcDbEntity
  8
1
  6
Continuous
 62
     2
100
AcDbLine
 10
-206.9614422990963
 20
-1.59413332822947
 30
0.0
 11
-206.9614422990963
 21
-6.59413332822959
 31
0.0
  0
LINE
  5
207
330
A0
100
AcDbEntity
  8
1
  6
Continuous
 62
     2
100
AcDbLine
 10
-201.9614422990954
 20
-1.59413332822947
 30
0.0
 11
-206.9614422990963
 21
-1.59413332822947
 31
0.0
  0
LINE
  5
208
330
A0
100
AcDbEntity
  8
1
  6
Continuous
 62
     2
100
AcDbLine
 10
-201.9614422990954
 20
-6.59413332822959
 30
0.0
 11
-158.4614422990972
 21
-6.59413332822959
 31
0.0
  0
LINE
  5
209
330
A0
100
AcDbEntity
  8
1
  6
Continuous
 62
     2
100
AcDbLine
 10
-201.9614422990954
 20
-1.59413332822947
 30
0.0
 11
-201.9614422990954
 21
-6.59413332822959
 31
0.0
  0
LINE
  5
20A
330
A0
100
AcDbEntity
  8
1
  6
Continuous
 62
     2
100
AcDbLine
 10
41.53855770090274
 20
-6.59413332822959
 30
0.0
 11
-8.46144229909726
 21
-6.59413332822959
 31
0.0
  0
LINE
  5
20B
330
A0
100
AcDbEntity
  8
1
  6
Continuous
 62
     2
100
AcDbLine
 10
41.53855770090274
 20
-6.59413332822959
 30
0.0
 11
41.53855770090274
 21
-1.59413332822947
 31
0.0
  0
LINE
  5
20C
330
A0
100
AcDbEntity
  8
1
  6
Continuous
 62
     2
100
AcDbLine
 10
-8.46144229909726
 20
-6.59413332822959
 30
0.0
 11
-8.46144229909726
 21
-1.59413332822947
 31
0.0
  0
LINE
  5
20D
330
A0
100
AcDbEntity
  8
1
  6
Continuous
 62
     2
100
AcDbLine
 10
-58.46144229909723
 20
-6.59413332822959
 30
0.0
 11
-8.46144229909726
 21
-6.59413332822959
 31
0.0
  0
LINE
  5
20E
330
A0
100
AcDbEntity
  8
1
  6
Continuous
 62
     2
100
AcDbLine
 10
-58.46144229909723
 20
-6.59413332822959
 30
0.0
 11
-58.46144229909723
 21
-1.59413332822947
 31
0.0
  0
LINE
  5
20F
330
A0
100
AcDbEntity
  8
1
  6
Continuous
 62
     2
100
AcDbLine
 10
-108.4614422990975
 20
-6.59413332822959
 30
0.0
 11
-58.46144229909723
 21
-6.59413332822959
 31
0.0
  0
LINE
  5
210
330
A0
100
AcDbEntity
  8
1
  6
Continuous
 62
     2
100
AcDbLine
 10
-108.4614422990975
 20
-6.59413332822959
 30
0.0
 11
-108.4614422990975
 21
-1.59413332822947
 31
0.0
  0
LINE
  5
211
330
A0
100
AcDbEntity
  8
1
  6
Continuous
 62
     2
100
AcDbLine
 10
-158.4614422990972
 20
-6.59413332822959
 30
0.0
 11
-108.4614422990975
 21
-6.59413332822959
 31
0.0
  0
LINE
  5
212
330
A0
100
AcDbEntity
  8
1
  6
Continuous
 62
     2
100
AcDbLine
 10
-158.4614422990972
 20
-6.59413332822959
 30
0.0
 11
-158.4614422990972
 21
-1.59413332822947
 31
0.0
  0
LINE
  5
213
330
A0
100
AcDbEntity
  8
1
  6
Continuous
 62
     6
100
AcDbLine
 10
-201.9614422990955
 20
48.40586667177064
 30
0.0
 11
-201.9614422990954
 21
-1.59413332822947
 31
0.0
  0
LINE
  5
214
330
A0
100
AcDbEntity
  8
1
  6
Continuous
 62
     2
100
AcDbLine
 10
-206.9614422990963
 20
48.40586667177064
 30
0.0
 11
-206.9614422990963
 21
-1.59413332822947
 31
0.0
  0
LINE
  5
215
330
A0
100
AcDbEntity
  8
1
  6
Continuous
 62
     2
100
AcDbLine
 10
-206.9614422990963
 20
48.40586667177064
 30
0.0
 11
-201.9614422990955
 21
48.40586667177064
 31
0.0
  0
LINE
  5
216
330
A0
100
AcDbEntity
  8
1
  6
Continuous
 62
     6
100
AcDbLine
 10
-201.9614422990958
 20
98.40586667177044
 30
0.0
 11
-201.9614422990955
 21
48.40586667177064
 31
0.0
  0
LINE
  5
217
330
A0
100
AcDbEntity
  8
1
  6
Continuous
 62
     2
100
AcDbLine
 10
-206.9614422990963
 20
98.40586667177044
 30
0.0
 11
-206.9614422990963
 21
48.40586667177064
 31
0.0
  0
LINE
  5
218
330
A0
100
AcDbEntity
  8
1
  6
Continuous
 62
     2
100
AcDbLine
 10
-206.9614422990963
 20
98.40586667177044
 30
0.0
 11
-201.9614422990958
 21
98.40586667177044
 31
0.0
  0
LINE
  5
219
330
A0
100
AcDbEntity
  8
1
  6
Continuous
 62
     6
100
AcDbLine
 10
-201.9614422990963
 20
148.4058666717705
 30
0.0
 11
-201.9614422990958
 21
98.40586667177044
 31
0.0
  0
LINE
  5
21A
330
A0
100
AcDbEntity
  8
1
  6
Continuous
 62
     2
100
AcDbLine
 10
-206.9614422990963
 20
148.4058666717705
 30
0.0
 11
-206.9614422990963
 21
98.40586667177044
 31
0.0
  0
LINE
  5
21B
330
A0
100
AcDbEntity
  8
1
  6
Continuous
 62
     2
100
AcDbLine
 10
-206.9614422990963
 20
148.4058666717705
 30
0.0
 11
-201.9614422990963
 21
148.4058666717705
 31
0.0
  0
LINE
  5
21C
330
A0
100
AcDbEntity
  8
1
  6
Continuous
 62
     6
100
AcDbLine
 10
-201.9614422990963
 20
183.4058666717705
 30
0.0
 11
-201.9614422990963
 21
148.4058666717705
 31
0.0
  0
LINE
  5
21D
330
A0
100
AcDbEntity
  8
1
  6
Continuous
 62
     2
100
AcDbLine
 10
-206.9614422990963
 20
203.4058666717705
 30
0.0
 11
-206.9614422990963
 21
148.4058666717705
 31
0.0
  0
LINE
  5
21E
330
A0
100
AcDbEntity
  8
1
  6
Continuous
 62
     2
100
AcDbLine
 10
-206.9614422990963
 20
-6.59413332822959
 30
0.0
 11
-201.9614422990954
 21
-6.59413332822959
 31
0.0
  0
LINE
  5
21F
330
A0
100
AcDbEntity
  8
1
  6
Continuous
 62
     2
100
AcDbLine
 10
-58.46144229909723
 20
203.4058666717705
 30
0.0
 11
-58.46144229909723
 21
194.1971748270692
 31
0.0
  0
LINE
  5
220
330
A0
100
AcDbEntity
  8
1
  6
Continuous
 62
     2
100
AcDbLine
 10
-58.46144229909723
 20
203.4058666717705
 30
0.0
 11
-206.9614422990963
 21
203.4058666717705
 31
0.0
  0
LINE
  5
221
330
A0
100
AcDbEntity
  8
1
  6
Continuous
 62
     2
100
AcDbLine
 10
90.03855770090175
 20
-1.59413332822947
 30
0.0
 11
90.03855770090175
 21
48.40586667177064
 31
0.0
  0
LINE
  5
222
330
A0
100
AcDbEntity
  8
1
  6
Continuous
 62
     2
100
AcDbLine
 10
90.03855770090175
 20
148.4058666717705
 30
0.0
 11
90.03855770090175
 21
203.4058666717705
 31
0.0
  0
LINE
  5
223
330
A0
100
AcDbEntity
  8
1
  6
Continuous
 62
     6
100
AcDbLine
 10
85.03855770090195
 20
148.4058666717705
 30
0.0
 11
85.03855770090175
 21
183.4058666717705
 31
0.0
  0
LINE
  5
224
330
A0
100
AcDbEntity
  8
1
  6
Continuous
 62
     2
100
AcDbLine
 10
85.03855770090195
 20
148.4058666717705
 30
0.0
 11
90.03855770090175
 21
148.4058666717705
 31
0.0
  0
LINE
  5
225
330
A0
100
AcDbEntity
  8
1
  6
Continuous
 62
     2
100
AcDbLine
 10
90.03855770090175
 20
98.40586667177044
 30
0.0
 11
90.03855770090175
 21
148.4058666717705
 31
0.0
  0
LINE
  5
226
330
A0
100
AcDbEntity
  8
1
  6
Continuous
 62
     6
100
AcDbLine
 10
85.03855770090316
 20
98.40586667177044
 30
0.0
 11
85.03855770090195
 21
148.4058666717705
 31
0.0
  0
LINE
  5
227
330
A0
100
AcDbEntity
  8
1
  6
Continuous
 62
     2
100
AcDbLine
 10
85.03855770090316
 20
98.40586667177044
 30
0.0
 11
90.03855770090175
 21
98.40586667177044
 31
0.0
  0
LINE
  5
228
330
A0
100
AcDbEntity
  8
1
  6
Continuous
 62
     2
100
AcDbLine
 10
90.03855770090175
 20
48.40586667177064
 30
0.0
 11
90.03855770090175
 21
98.40586667177044
 31
0.0
  0
LINE
  5
229
330
A0
100
AcDbEntity
  8
1
  6
Continuous
 62
     6
100
AcDbLine
 10
85.03855770090365
 20
48.40586667177064
 30
0.0
 11
85.03855770090316
 21
98.40586667177044
 31
0.0
  0
LINE
  5
22A
330
A0
100
AcDbEntity
  8
1
  6
Continuous
 62
     2
100
AcDbLine
 10
85.03855770090365
 20
48.40586667177064
 30
0.0
 11
90.03855770090175
 21
48.40586667177064
 31
0.0
  0
LINE
  5
22B
330
A0
100
AcDbEntity
  8
1
  6
Continuous
 62
     6
100
AcDbLine
 10
85.03855770090175
 20
183.4058666717705
 30
0.0
 11
-201.9614422990963
 21
183.4058666717705
 31
0.0
  0
LINE
  5
22C
330
A0
100
AcDbEntity
  8
1
  6
Continuous
 62
     2
100
AcDbLine
 10
90.03855770090175
 20
203.4058666717705
 30
0.0
 11
-58.46144229909723
 21
203.4058666717705
 31
0.0
  0
LINE
  5
22D
330
A0
100
AcDbEntity
  8
1
  6
Continuous
 62
     6
100
AcDbLine
 10
85.03855770090445
 20
15.40586667177053
 30
0.0
 11
85.03855770090365
 21
48.40586667177064
 31
0.0
  0
LINE
  5
22E
330
A0
100
AcDbEntity
  8
1
  6
Continuous
 62
     2
100
AcDbLine
 10
85.03855770090276
 20
-6.59413332822959
 30
0.0
 11
41.53855770090274
 21
-6.59413332822959
 31
0.0
  0
LINE
  5
22F
330
A0
100
AcDbEntity
  8
1
  6
Continuous
 62
     2
100
AcDbLine
 10
90.03855770090175
 20
-6.59413332822959
 30
0.0
 11
85.03855770090276
 21
-6.59413332822959
 31
0.0
  0
LINE
  5
230
330
A0
100
AcDbEntity
  8
1
  6
Continuous
 62
     2
100
AcDbLine
 10
90.03855770090175
 20
-6.59413332822959
 30
0.0
 11
90.03855770090175
 21
-1.59413332822947
 31
0.0
  0
LINE
  5
231
330
A0
100
AcDbEntity
  8
1
  6
Continuous
 62
     6
100
AcDbLine
 10
-44.50624682584726
 20
15.40586667177053
 30
0.0
 11
-8.10624682584734
 21
15.40586667177053
 31
0.0
  0
LINE
  5
232
330
A0
100
AcDbEntity
  8
1
  6
Continuous
 62
     2
100
AcDbLine
 10
85.03855770090276
 20
-1.59413332822947
 30
0.0
 11
85.03855770090276
 21
-6.59413332822959
 31
0.0
  0
LINE
  5
233
330
A0
100
AcDbEntity
  8
1
  6
Continuous
 62
     2
100
AcDbLine
 10
85.03855770090276
 20
-1.59413332822947
 30
0.0
 11
90.03855770090175
 21
-1.59413332822947
 31
0.0
  0
LINE
  5
234
330
A0
100
AcDbEntity
  8
1
  6
Continuous
 62
     6
100
AcDbLine
 10
-8.46144229909726
 20
-1.59413332822947
 30
0.0
 11
-26.30624682584724
 21
-1.59413332822947
 31
0.0
  0
LINE
  5
235
330
A0
100
AcDbEntity
  8
1
  6
Continuous
 62
     6
100
AcDbLine
 10
41.53855770090274
 20
-1.59413332822947
 30
0.0
 11
85.03855770090276
 21
-1.59413332822947
 31
0.0
  0
LINE
  5
236
330
A0
100
AcDbEntity
  8
1
  6
Continuous
 62
     6
100
AcDbLine
 10
-108.4614422990975
 20
-1.59413332822947
 30
0.0
 11
-113.5062468258472
 21
-1.59413332822947
 31
0.0
  0
LINE
  5
237
330
A0
100
AcDbEntity
  8
1
  6
Continuous
 62
     6
100
AcDbLine
 10
-58.46144229909723
 20
-1.59413332822947
 30
0.0
 11
-44.50624682584726
 21
-1.59413332822959
 31
0.0
  0
LINE
  5
238
102
{ACAD_REACTORS
330
322
330
323
102
}
330
A0
100
AcDbEntity
  8
0
  6
Continuous
 62
     2
100
AcDbLine
 10
-36.99162088370045
 20
10.47838142798264
 30
0.0
 11
-36.99162088370045
 21
11.08391671648943
 31
0.0
  0
LINE
  5
239
102
{ACAD_REACTORS
330
322
330
323
102
}
330
A0
100
AcDbEntity
  8
0
  6
Continuous
 62
     2
100
AcDbLine
 10
-36.99162088370045
 20
7.67824682135134
 30
0.0
 11
-36.99162088370045
 21
8.26009822804642
 31
0.0
  0
LINE
  5
23A
102
{ACAD_REACTORS
330
324
330
325
102
}
330
A0
100
AcDbEntity
  8
0
  6
Continuous
 62
     2
100
AcDbLine
 10
-14.36213444822124
 20
7.96791088947433
 30
0.0
 11
-14.36213444822124
 21
5.69936667178683
 31
0.0
  0
LINE
  5
23B
102
{ACAD_REACTORS
330
324
330
325
102
}
330
A0
100
AcDbEntity
  8
0
  6
Continuous
 62
     2
100
AcDbLine
 10
-15.74318822720883
 20
8.75317619559743
 30
0.0
 11
-12.35824270858015
 21
8.75317619559792
 31
0.0
  0
LINE
  5
23C
102
{ACAD_REACTORS
330
324
330
325
102
}
330
A0
100
AcDbEntity
  8
0
  6
Continuous
 62
     2
100
AcDbLine
 10
-12.35824270858015
 20
7.96791088947433
 30
0.0
 11
-12.35824270858015
 21
8.75317619559792
 31
0.0
  0
LINE
  5
23D
102
{ACAD_REACTORS
330
324
330
325
102
}
330
A0
100
AcDbEntity
  8
0
  6
Continuous
 62
     2
100
AcDbLine
 10
-13.16934174605353
 20
7.96791088947433
 30
0.0
 11
-12.35824270858015
 21
7.96791088947433
 31
0.0
  0
LINE
  5
23E
102
{ACAD_REACTORS
330
324
330
325
102
}
330
A0
100
AcDbEntity
  8
0
  6
Continuous
 62
     2
100
AcDbLine
 10
-13.16934174605353
 20
5.69936667178683
 30
0.0
 11
-13.16934174605353
 21
7.96791088947433
 31
0.0
  0
LINE
  5
23F
102
{ACAD_REACTORS
330
324
330
325
102
}
330
A0
100
AcDbEntity
  8
0
  6
Continuous
 62
     2
100
AcDbLine
 10
-14.36213444822124
 20
5.69936667178683
 30
0.0
 11
-13.16934174605353
 21
5.69936667178683
 31
0.0
  0
LINE
  5
240
102
{ACAD_REACTORS
330
31A
330
31B
102
}
330
A0
100
AcDbEntity
  8
0
  6
Continuous
 62
     2
100
AcDbLine
 10
-15.05872538628574
 20
12.11236667177232
 30
0.0
 11
-16.46144960403504
 21
12.11236667177232
 31
0.0
  0
LINE
  5
241
102
{ACAD_REACTORS
330
31A
330
31B
102
}
330
A0
100
AcDbEntity
  8
0
  6
Continuous
 62
     2
100
AcDbLine
 10
-15.05872538628574
 20
12.11236667177232
 30
0.0
 11
-14.45755786439395
 21
11.43254335021683
 31
0.0
  0
LINE
  5
242
102
{ACAD_REACTORS
330
31A
330
31B
102
}
330
A0
100
AcDbEntity
  8
0
  6
Continuous
 62
     2
100
AcDbLine
 10
-14.45755786439395
 20
11.43254335021683
 30
0.0
 11
-13.85639034250116
 21
12.11236667177232
 31
0.0
  0
LINE
  5
243
102
{ACAD_REACTORS
330
31A
330
31B
102
}
330
A0
100
AcDbEntity
  8
0
  6
Continuous
 62
     2
100
AcDbLine
 10
-13.75619575552045
 20
10.63941614173612
 30
0.0
 11
-12.45366612475394
 21
12.11236667177232
 31
0.0
  0
LINE
  5
244
102
{ACAD_REACTORS
330
31A
330
31B
102
}
330
A0
100
AcDbEntity
  8
0
  6
Continuous
 62
     2
100
AcDbLine
 10
-13.75619575552045
 20
10.63941614173612
 30
0.0
 11
-12.35824270858015
 21
9.05855714796112
 31
0.0
  0
LINE
  5
245
102
{ACAD_REACTORS
330
31A
330
31B
102
}
330
A0
100
AcDbEntity
  8
0
  6
Continuous
 62
     2
100
AcDbLine
 10
-13.76096692632845
 20
9.05855714796112
 30
0.0
 11
-12.35824270858015
 21
9.05855714796112
 31
0.0
  0
LINE
  5
246
102
{ACAD_REACTORS
330
31A
330
31B
102
}
330
A0
100
AcDbEntity
  8
0
  6
Continuous
 62
     2
100
AcDbLine
 10
-14.45755786439395
 20
9.84628893325484
 30
0.0
 11
-13.76096692632845
 21
9.05855714796112
 31
0.0
  0
LINE
  5
247
102
{ACAD_REACTORS
330
318
330
319
102
}
330
A0
100
AcDbEntity
  8
0
  6
Continuous
 62
     2
100
AcDbLine
 10
-17.91665670067764
 20
12.11236667177232
 30
0.0
 11
-16.67615229042474
 21
12.11236667177232
 31
0.0
  0
LINE
  5
248
102
{ACAD_REACTORS
330
318
330
319
102
}
330
A0
100
AcDbEntity
  8
0
  6
Continuous
 62
     2
100
AcDbLine
 10
-16.67615229042474
 20
12.11236667177232
 30
0.0
 11
-16.67615229042474
 21
9.05855714796112
 31
0.0
  0
LINE
  5
249
102
{ACAD_REACTORS
330
318
330
319
102
}
330
A0
100
AcDbEntity
  8
0
  6
Continuous
 62
     2
100
AcDbLine
 10
-17.91665670067764
 20
9.05855714796112
 30
0.0
 11
-17.91665670067764
 21
12.11236667177232
 31
0.0
  0
LINE
  5
24A
102
{ACAD_REACTORS
330
316
330
317
102
}
330
A0
100
AcDbEntity
  8
0
  6
Continuous
 62
     2
100
AcDbLine
 10
-19.38496678321525
 20
6.92089048131132
 30
0.0
 11
-19.08480154602285
 21
7.68870544729802
 31
0.0
  0
LINE
  5
24B
102
{ACAD_REACTORS
330
316
330
317
102
}
330
A0
100
AcDbEntity
  8
0
  6
Continuous
 62
     2
100
AcDbLine
 10
-19.86250238783606
 20
5.69936667178683
 30
0.0
 11
-19.65102233436025
 21
6.24032721600472
 31
0.0
  0
LINE
  5
24C
102
{ACAD_REACTORS
330
316
330
317
102
}
330
A0
100
AcDbEntity
  8
0
  6
Continuous
 62
     2
100
AcDbLine
 10
-19.70505375114973
 20
8.75317619559792
 30
0.0
 11
-21.10300679808904
 21
5.69936667178683
 31
0.0
  0
LINE
  5
24D
102
{ACAD_REACTORS
330
316
330
317
102
}
330
A0
100
AcDbEntity
  8
0
  6
Continuous
 62
     2
100
AcDbLine
 10
-17.06659629395674
 20
5.69936667178683
 30
0.0
 11
-18.30710070421065
 21
5.69936667178683
 31
0.0
  0
LINE
  5
24E
102
{ACAD_REACTORS
330
316
330
317
102
}
330
A0
100
AcDbEntity
  8
0
  6
Continuous
 62
     2
100
AcDbLine
 10
-19.65102233436025
 20
6.24032721600472
 30
0.0
 11
-18.51858075768644
 21
6.24032721600472
 31
0.0
  0
LINE
  5
24F
102
{ACAD_REACTORS
330
314
330
315
102
}
330
A0
100
AcDbEntity
  8
0
  6
Continuous
 62
     2
100
AcDbLine
 10
-23.26051893727126
 20
7.96791088947433
 30
0.0
 11
-22.44941989979665
 21
7.96791088947433
 31
0.0
  0
LINE
  5
250
102
{ACAD_REACTORS
330
314
330
315
102
}
330
A0
100
AcDbEntity
  8
0
  6
Continuous
 62
     2
100
AcDbLine
 10
-20.44552816015764
 20
8.75317619559792
 30
0.0
 11
-23.26051893727126
 21
8.75317619559792
 31
0.0
  0
LINE
  5
251
102
{ACAD_REACTORS
330
314
330
315
102
}
330
A0
100
AcDbEntity
  8
0
  6
Continuous
 62
     2
100
AcDbLine
 10
-20.44552816015764
 20
7.96791088947433
 30
0.0
 11
-20.44552816015764
 21
8.75317619559792
 31
0.0
  0
LINE
  5
252
102
{ACAD_REACTORS
330
314
330
315
102
}
330
A0
100
AcDbEntity
  8
0
  6
Continuous
 62
     2
100
AcDbLine
 10
-21.25662719763014
 20
7.96791088947433
 30
0.0
 11
-20.44552816015764
 21
7.96791088947433
 31
0.0
  0
LINE
  5
253
102
{ACAD_REACTORS
330
314
330
315
102
}
330
A0
100
AcDbEntity
  8
0
  6
Continuous
 62
     2
100
AcDbLine
 10
-21.25662719763014
 20
5.69936667178683
 30
0.0
 11
-21.25662719763014
 21
7.96791088947433
 31
0.0
  0
LINE
  5
254
102
{ACAD_REACTORS
330
312
330
313
102
}
330
A0
100
AcDbEntity
  8
0
  6
Continuous
 62
     2
100
AcDbLine
 10
-20.58851235353214
 20
9.05855714796112
 30
0.0
 11
-20.58851235353214
 21
10.36733265816582
 31
0.0
  0
LINE
  5
255
102
{ACAD_REACTORS
330
312
330
313
102
}
330
A0
100
AcDbEntity
  8
0
  6
Continuous
 62
     2
100
AcDbLine
 10
-21.78130505569865
 20
12.11236667177232
 30
0.0
 11
-21.78130505569865
 21
9.05855714796112
 31
0.0
  0
LINE
  5
256
102
{ACAD_REACTORS
330
312
330
313
102
}
330
A0
100
AcDbEntity
  8
0
  6
Continuous
 62
     2
100
AcDbLine
 10
-20.58851235353214
 20
12.11236667177232
 30
0.0
 11
-21.78130505569865
 21
12.11236667177232
 31
0.0
  0
LINE
  5
257
102
{ACAD_REACTORS
330
312
330
313
102
}
330
A0
100
AcDbEntity
  8
0
  6
Continuous
 62
     2
100
AcDbLine
 10
-19.34800794327813
 20
12.11236667177232
 30
0.0
 11
-19.34800794327813
 21
10.80359116156714
 31
0.0
  0
LINE
  5
258
102
{ACAD_REACTORS
330
310
330
311
102
}
330
A0
100
AcDbEntity
  8
0
  6
Continuous
 62
     2
100
AcDbLine
 10
-27.02974387611835
 20
8.75317619559792
 30
0.0
 11
-27.02974387611835
 21
5.69936667178683
 31
0.0
  0
LINE
  5
259
102
{ACAD_REACTORS
330
310
330
311
102
}
330
A0
100
AcDbEntity
  8
0
  6
Continuous
 62
     2
100
AcDbLine
 10
-25.83695117395075
 20
8.75317619559792
 30
0.0
 11
-27.02974387611835
 21
8.75317619559792
 31
0.0
  0
LINE
  5
25A
102
{ACAD_REACTORS
330
310
330
311
102
}
330
A0
100
AcDbEntity
  8
0
  6
Continuous
 62
     2
100
AcDbLine
 10
-24.59644676369786
 20
5.69936667178683
 30
0.0
 11
-23.40365406153146
 21
5.69936667178683
 31
0.0
  0
LINE
  5
25B
102
{ACAD_REACTORS
330
310
330
311
102
}
330
A0
100
AcDbEntity
  8
0
  6
Continuous
 62
     2
100
AcDbLine
 10
-27.02974387611835
 20
5.69936667178683
 30
0.0
 11
-25.83695117395075
 21
5.69936667178683
 31
0.0
  0
LINE
  5
25C
102
{ACAD_REACTORS
330
320
330
321
102
}
330
A0
100
AcDbEntity
  8
0
  6
Continuous
 62
     2
100
AcDbLine
 10
-23.35579142255924
 20
10.93446871258763
 30
0.0
 11
-23.35579142255924
 21
11.41435306632934
 31
0.0
  0
LINE
  5
25D
102
{ACAD_REACTORS
330
320
330
321
102
}
330
A0
100
AcDbEntity
  8
0
  6
Continuous
 62
     2
100
AcDbLine
 10
-22.01986359613156
 20
10.93446871258763
 30
0.0
 11
-23.35579142255924
 21
10.93446871258763
 31
0.0
  0
LINE
  5
25E
102
{ACAD_REACTORS
330
320
330
321
102
}
330
A0
100
AcDbEntity
  8
0
  6
Continuous
 62
     2
100
AcDbLine
 10
-22.01986359613156
 20
10.23645510714533
 30
0.0
 11
-22.01986359613156
 21
10.93446871258763
 31
0.0
  0
LINE
  5
25F
102
{ACAD_REACTORS
330
320
330
321
102
}
330
A0
100
AcDbEntity
  8
0
  6
Continuous
 62
     2
100
AcDbLine
 10
-23.35579142255924
 20
10.23645510714533
 30
0.0
 11
-22.01986359613156
 21
10.23645510714533
 31
0.0
  0
LINE
  5
260
102
{ACAD_REACTORS
330
30E
330
30F
102
}
330
A0
100
AcDbEntity
  8
0
  6
Continuous
 62
     2
100
AcDbLine
 10
-26.83874611288616
 20
12.11236667177232
 30
0.0
 11
-26.83874611288616
 21
9.05855714796112
 31
0.0
  0
LINE
  5
261
102
{ACAD_REACTORS
330
30E
330
30F
102
}
330
A0
100
AcDbEntity
  8
0
  6
Continuous
 62
     2
100
AcDbLine
 10
-26.83874611288616
 20
9.05855714796112
 30
0.0
 11
-28.03153881505256
 21
9.05855714796112
 31
0.0
  0
LINE
  5
262
102
{ACAD_REACTORS
330
30E
330
30F
102
}
330
A0
100
AcDbEntity
  8
0
  6
Continuous
 62
     2
100
AcDbLine
 10
-28.03153881505256
 20
9.05855714796112
 30
0.0
 11
-28.03153881505256
 21
10.19282925680494
 31
0.0
  0
LINE
  5
263
102
{ACAD_REACTORS
330
30E
330
30F
102
}
330
A0
100
AcDbEntity
  8
0
  6
Continuous
 62
     2
100
AcDbLine
 10
-29.08119639296004
 20
9.05855714796112
 30
0.0
 11
-30.27398909512664
 21
9.05855714796112
 31
0.0
  0
LINE
  5
264
102
{ACAD_REACTORS
330
30E
330
30F
102
}
330
A0
100
AcDbEntity
  8
0
  6
Continuous
 62
     2
100
AcDbLine
 10
-30.27398909512664
 20
12.11236667177232
 30
0.0
 11
-29.08119639296004
 21
12.11236667177232
 31
0.0
  0
LINE
  5
265
102
{ACAD_REACTORS
330
30E
330
30F
102
}
330
A0
100
AcDbEntity
  8
0
  6
Continuous
 62
     2
100
AcDbLine
 10
-29.08119639296004
 20
12.11236667177232
 30
0.0
 11
-29.08119639296004
 21
11.04353333843773
 31
0.0
  0
LINE
  5
266
102
{ACAD_REACTORS
330
30E
330
30F
102
}
330
A0
100
AcDbEntity
  8
0
  6
Continuous
 62
     2
100
AcDbLine
 10
-29.08119639296004
 20
11.04353333843773
 30
0.0
 11
-28.03153881505256
 21
11.04353333843773
 31
0.0
  0
LINE
  5
267
102
{ACAD_REACTORS
330
31C
330
31D
102
}
330
A0
100
AcDbEntity
  8
0
  6
Continuous
 62
     2
100
AcDbLine
 10
-32.23016912668024
 20
11.44926082633222
 30
0.0
 11
-31.91287406513834
 21
11.44926082633222
 31
0.0
  0
LINE
  5
268
102
{ACAD_REACTORS
330
31C
330
31D
102
}
330
A0
100
AcDbEntity
  8
0
  6
Continuous
 62
     2
100
AcDbLine
 10
-32.23016912668024
 20
10.74353317699001
 30
0.0
 11
-31.91287406513834
 21
10.74353317699001
 31
0.0
  0
LINE
  5
269
102
{ACAD_REACTORS
330
31C
330
31D
102
}
330
A0
100
AcDbEntity
  8
0
  6
Continuous
 62
     2
100
AcDbLine
 10
-33.47067353693436
 20
12.11236667177232
 30
0.0
 11
-33.47067353693436
 21
9.05855714796112
 31
0.0
  0
LINE
  5
26A
102
{ACAD_REACTORS
330
31C
330
31D
102
}
330
A0
100
AcDbEntity
  8
0
  6
Continuous
 62
     2
100
AcDbLine
 10
-33.47067353693436
 20
12.11236667177232
 30
0.0
 11
-31.47140153889995
 21
12.11236667177232
 31
0.0
  0
LINE
  5
26B
102
{ACAD_REACTORS
330
31C
330
31D
102
}
330
A0
100
AcDbEntity
  8
0
  6
Continuous
 62
     2
100
AcDbLine
 10
-32.23016912668024
 20
10.00163538910493
 30
0.0
 11
-31.47140153889995
 21
10.00163538910493
 31
0.0
  0
LINE
  5
26C
102
{ACAD_REACTORS
330
322
330
323
102
}
330
A0
100
AcDbEntity
  8
0
  6
Continuous
 62
     2
100
AcDbLine
 10
-39.56716957023104
 20
11.08409419313753
 30
0.0
 11
-39.56716957023104
 21
6.72763915042043
 31
0.0
  0
LINE
  5
26D
102
{ACAD_REACTORS
330
322
330
323
102
}
330
A0
100
AcDbEntity
  8
0
  6
Continuous
 62
     2
100
AcDbLine
 10
-39.25145264715536
 20
11.39981111621373
 30
0.0
 11
-37.77561938614574
 21
11.39981111621373
 31
0.0
  0
LINE
  5
26E
102
{ACAD_REACTORS
330
322
330
323
102
}
330
A0
100
AcDbEntity
  8
0
  6
Continuous
 62
     2
100
AcDbLine
 10
-37.45990246306914
 20
10.48006957407702
 30
0.0
 11
-37.45990246306914
 21
11.08409419313753
 31
0.0
  0
LINE
  5
26F
102
{ACAD_REACTORS
330
322
330
323
102
}
330
A0
100
AcDbEntity
  8
0
  6
Continuous
 62
     2
100
AcDbLine
 10
-37.45990246306914
 20
6.72763915042043
 30
0.0
 11
-37.45990246306914
 21
8.25841008195204
 31
0.0
  0
LINE
  5
270
102
{ACAD_REACTORS
330
322
330
323
102
}
330
A0
100
AcDbEntity
  8
0
  6
Continuous
 62
     2
100
AcDbLine
 10
-34.37203523318505
 20
5.69936667178683
 30
0.0
 11
-39.84534732390185
 21
5.69936667178683
 31
0.0
  0
LINE
  5
271
102
{ACAD_REACTORS
330
322
330
323
102
}
330
A0
100
AcDbEntity
  8
0
  6
Continuous
 62
     2
100
AcDbLine
 10
-33.94779061780116
 20
11.68812205637033
 30
0.0
 11
-33.94779061780116
 21
6.12361128717012
 31
0.0
  0
LINE
  5
272
102
{ACAD_REACTORS
330
322
330
323
102
}
330
A0
100
AcDbEntity
  8
0
  6
Continuous
 62
     2
100
AcDbLine
 10
-39.84534732390185
 20
12.11236667175413
 30
0.0
 11
-34.37203523318505
 21
12.11236667175413
 31
0.0
  0
LINE
  5
273
102
{ACAD_REACTORS
330
322
330
323
102
}
330
A0
100
AcDbEntity
  8
0
  6
Continuous
 62
     2
100
AcDbLine
 10
-40.26959193928465
 20
11.68812205637033
 30
0.0
 11
-40.26959193928465
 21
6.12361128717012
 31
0.0
  0
LINE
  5
274
102
{ACAD_REACTORS
330
322
330
323
102
}
330
A0
100
AcDbEntity
  8
0
  6
Continuous
 62
     2
100
AcDbLine
 10
-37.77561938614574
 20
6.41192222734372
 30
0.0
 11
-39.25145264715536
 21
6.41192222734372
 31
0.0
  0
LINE
  5
275
102
{ACAD_REACTORS
330
31C
330
31D
102
}
330
A0
100
AcDbEntity
  8
0
  6
Continuous
 62
     2
100
AcDbLine
 10
-32.23016912668024
 20
9.05855714796112
 30
0.0
 11
-32.23016912668024
 21
10.00163538910493
 31
0.0
  0
LINE
  5
276
102
{ACAD_REACTORS
330
31C
330
31D
102
}
330
A0
100
AcDbEntity
  8
0
  6
Continuous
 62
     2
100
AcDbLine
 10
-33.47067353693436
 20
9.05855714796112
 30
0.0
 11
-32.23016912668024
 21
9.05855714796112
 31
0.0
  0
LINE
  5
277
102
{ACAD_REACTORS
330
31C
330
31D
102
}
330
A0
100
AcDbEntity
  8
0
  6
Continuous
 62
     2
100
AcDbLine
 10
-32.23016912668024
 20
10.74353317699001
 30
0.0
 11
-32.23016912668024
 21
11.44926082633222
 31
0.0
  0
LINE
  5
278
102
{ACAD_REACTORS
330
30E
330
30F
102
}
330
A0
100
AcDbEntity
  8
0
  6
Continuous
 62
     2
100
AcDbLine
 10
-30.27398909512664
 20
12.11236667177232
 30
0.0
 11
-30.27398909512664
 21
9.05855714796112
 31
0.0
  0
LINE
  5
279
102
{ACAD_REACTORS
330
30E
330
30F
102
}
330
A0
100
AcDbEntity
  8
0
  6
Continuous
 62
     2
100
AcDbLine
 10
-29.08119639296004
 20
10.19282925680494
 30
0.0
 11
-29.08119639296004
 21
9.05855714796112
 31
0.0
  0
LINE
  5
27A
102
{ACAD_REACTORS
330
30E
330
30F
102
}
330
A0
100
AcDbEntity
  8
0
  6
Continuous
 62
     2
100
AcDbLine
 10
-28.03153881505256
 20
10.19282925680494
 30
0.0
 11
-29.08119639296004
 21
10.19282925680494
 31
0.0
  0
LINE
  5
27B
102
{ACAD_REACTORS
330
30E
330
30F
102
}
330
A0
100
AcDbEntity
  8
0
  6
Continuous
 62
     2
100
AcDbLine
 10
-28.03153881505256
 20
12.11236667177232
 30
0.0
 11
-26.83874611288616
 21
12.11236667177232
 31
0.0
  0
LINE
  5
27C
102
{ACAD_REACTORS
330
30E
330
30F
102
}
330
A0
100
AcDbEntity
  8
0
  6
Continuous
 62
     2
100
AcDbLine
 10
-28.03153881505256
 20
11.04353333843773
 30
0.0
 11
-28.03153881505256
 21
12.11236667177232
 31
0.0
  0
LINE
  5
27D
102
{ACAD_REACTORS
330
320
330
321
102
}
330
A0
100
AcDbEntity
  8
0
  6
Continuous
 62
     2
100
AcDbLine
 10
-22.01986359613156
 20
11.41435306632934
 30
0.0
 11
-22.01986359613156
 21
12.11236667177232
 31
0.0
  0
LINE
  5
27E
102
{ACAD_REACTORS
330
320
330
321
102
}
330
A0
100
AcDbEntity
  8
0
  6
Continuous
 62
     2
100
AcDbLine
 10
-25.17018331991255
 20
12.11236667177232
 30
0.0
 11
-22.01986359613156
 21
12.11236667177232
 31
0.0
  0
LINE
  5
27F
102
{ACAD_REACTORS
330
320
330
321
102
}
330
A0
100
AcDbEntity
  8
0
  6
Continuous
 62
     2
100
AcDbLine
 10
-25.17018331991255
 20
9.05855714796112
 30
0.0
 11
-22.01986359613156
 21
9.05855714796112
 31
0.0
  0
LINE
  5
280
102
{ACAD_REACTORS
330
320
330
321
102
}
330
A0
100
AcDbEntity
  8
0
  6
Continuous
 62
     2
100
AcDbLine
 10
-22.01986359613156
 20
9.05855714796112
 30
0.0
 11
-22.01986359613156
 21
9.75657075340362
 31
0.0
  0
LINE
  5
281
102
{ACAD_REACTORS
330
320
330
321
102
}
330
A0
100
AcDbEntity
  8
0
  6
Continuous
 62
     2
100
AcDbLine
 10
-22.01986359613156
 20
9.75657075340362
 30
0.0
 11
-23.35579142255924
 21
9.75657075340362
 31
0.0
  0
LINE
  5
282
102
{ACAD_REACTORS
330
320
330
321
102
}
330
A0
100
AcDbEntity
  8
0
  6
Continuous
 62
     2
100
AcDbLine
 10
-23.35579142255924
 20
9.75657075340362
 30
0.0
 11
-23.35579142255924
 21
10.23645510714533
 31
0.0
  0
LINE
  5
283
102
{ACAD_REACTORS
330
320
330
321
102
}
330
A0
100
AcDbEntity
  8
0
  6
Continuous
 62
     2
100
AcDbLine
 10
-23.35579142255924
 20
11.41435306632934
 30
0.0
 11
-22.01986359613156
 21
11.41435306632934
 31
0.0
  0
LINE
  5
284
102
{ACAD_REACTORS
330
310
330
311
102
}
330
A0
100
AcDbEntity
  8
0
  6
Continuous
 62
     2
100
AcDbLine
 10
-25.83695117395075
 20
5.69936667178683
 30
0.0
 11
-25.83695117395075
 21
7.00814218199142
 31
0.0
  0
LINE
  5
285
102
{ACAD_REACTORS
330
310
330
311
102
}
330
A0
100
AcDbEntity
  8
0
  6
Continuous
 62
     2
100
AcDbLine
 10
-25.83695117395075
 20
7.00814218199142
 30
0.0
 11
-24.59644676369786
 21
5.69936667178683
 31
0.0
  0
LINE
  5
286
102
{ACAD_REACTORS
330
310
330
311
102
}
330
A0
100
AcDbEntity
  8
0
  6
Continuous
 62
     2
100
AcDbLine
 10
-23.40365406153146
 20
5.69936667178683
 30
0.0
 11
-23.40365406153146
 21
8.75317619559792
 31
0.0
  0
LINE
  5
287
102
{ACAD_REACTORS
330
310
330
311
102
}
330
A0
100
AcDbEntity
  8
0
  6
Continuous
 62
     2
100
AcDbLine
 10
-23.40365406153146
 20
8.75317619559792
 30
0.0
 11
-24.59644676369786
 21
8.75317619559792
 31
0.0
  0
LINE
  5
288
102
{ACAD_REACTORS
330
310
330
311
102
}
330
A0
100
AcDbEntity
  8
0
  6
Continuous
 62
     2
100
AcDbLine
 10
-24.59644676369786
 20
8.75317619559792
 30
0.0
 11
-24.59644676369786
 21
7.44440068539282
 31
0.0
  0
LINE
  5
289
102
{ACAD_REACTORS
330
310
330
311
102
}
330
A0
100
AcDbEntity
  8
0
  6
Continuous
 62
     2
100
AcDbLine
 10
-24.59644676369786
 20
7.44440068539282
 30
0.0
 11
-25.83695117395075
 21
8.75317619559792
 31
0.0
  0
LINE
  5
28A
102
{ACAD_REACTORS
330
312
330
313
102
}
330
A0
100
AcDbEntity
  8
0
  6
Continuous
 62
     2
100
AcDbLine
 10
-20.58851235353214
 20
10.36733265816582
 30
0.0
 11
-19.34800794327813
 21
9.05855714796112
 31
0.0
  0
LINE
  5
28B
102
{ACAD_REACTORS
330
312
330
313
102
}
330
A0
100
AcDbEntity
  8
0
  6
Continuous
 62
     2
100
AcDbLine
 10
-19.34800794327813
 20
9.05855714796112
 30
0.0
 11
-18.15521524111153
 21
9.05855714796112
 31
0.0
  0
LINE
  5
28C
102
{ACAD_REACTORS
330
312
330
313
102
}
330
A0
100
AcDbEntity
  8
0
  6
Continuous
 62
     2
100
AcDbLine
 10
-18.15521524111153
 20
9.05855714796112
 30
0.0
 11
-18.15521524111153
 21
12.11236667177232
 31
0.0
  0
LINE
  5
28D
102
{ACAD_REACTORS
330
312
330
313
102
}
330
A0
100
AcDbEntity
  8
0
  6
Continuous
 62
     2
100
AcDbLine
 10
-18.15521524111153
 20
12.11236667177232
 30
0.0
 11
-19.34800794327813
 21
12.11236667177232
 31
0.0
  0
LINE
  5
28E
102
{ACAD_REACTORS
330
312
330
313
102
}
330
A0
100
AcDbEntity
  8
0
  6
Continuous
 62
     2
100
AcDbLine
 10
-19.34800794327813
 20
10.80359116156714
 30
0.0
 11
-20.58851235353214
 21
12.11236667177232
 31
0.0
  0
LINE
  5
28F
102
{ACAD_REACTORS
330
312
330
313
102
}
330
A0
100
AcDbEntity
  8
0
  6
Continuous
 62
     2
100
AcDbLine
 10
-21.78130505569865
 20
9.05855714796112
 30
0.0
 11
-20.58851235353214
 21
9.05855714796112
 31
0.0
  0
LINE
  5
290
102
{ACAD_REACTORS
330
314
330
315
102
}
330
A0
100
AcDbEntity
  8
0
  6
Continuous
 62
     2
100
AcDbLine
 10
-23.26051893727126
 20
8.75317619559792
 30
0.0
 11
-23.26051893727126
 21
7.96791088947433
 31
0.0
  0
LINE
  5
291
102
{ACAD_REACTORS
330
314
330
315
102
}
330
A0
100
AcDbEntity
  8
0
  6
Continuous
 62
     2
100
AcDbLine
 10
-22.44941989979665
 20
7.96791088947433
 30
0.0
 11
-22.44941989979665
 21
5.69936667178683
 31
0.0
  0
LINE
  5
292
102
{ACAD_REACTORS
330
314
330
315
102
}
330
A0
100
AcDbEntity
  8
0
  6
Continuous
 62
     2
100
AcDbLine
 10
-22.44941989979665
 20
5.69936667178683
 30
0.0
 11
-21.25662719763014
 21
5.69936667178683
 31
0.0
  0
LINE
  5
293
102
{ACAD_REACTORS
330
316
330
317
102
}
330
A0
100
AcDbEntity
  8
0
  6
Continuous
 62
     2
100
AcDbLine
 10
-18.30710070421065
 20
5.69936667178683
 30
0.0
 11
-18.51858075768644
 21
6.24032721600472
 31
0.0
  0
LINE
  5
294
102
{ACAD_REACTORS
330
316
330
317
102
}
330
A0
100
AcDbEntity
  8
0
  6
Continuous
 62
     2
100
AcDbLine
 10
-18.46454934089704
 20
8.75317619559792
 30
0.0
 11
-17.06659629395674
 21
5.69936667178683
 31
0.0
  0
LINE
  5
295
102
{ACAD_REACTORS
330
316
330
317
102
}
330
A0
100
AcDbEntity
  8
0
  6
Continuous
 62
     2
100
AcDbLine
 10
-19.70505375114973
 20
8.75317619559792
 30
0.0
 11
-18.46454934089704
 21
8.75317619559792
 31
0.0
  0
LINE
  5
296
102
{ACAD_REACTORS
330
316
330
317
102
}
330
A0
100
AcDbEntity
  8
0
  6
Continuous
 62
     2
100
AcDbLine
 10
-21.10300679808904
 20
5.69936667178683
 30
0.0
 11
-19.86250238783606
 21
5.69936667178683
 31
0.0
  0
LINE
  5
297
102
{ACAD_REACTORS
330
316
330
317
102
}
330
A0
100
AcDbEntity
  8
0
  6
Continuous
 62
     2
100
AcDbLine
 10
-19.38496678321525
 20
6.92089048131132
 30
0.0
 11
-18.78463630883275
 21
6.92089048131132
 31
0.0
  0
LINE
  5
298
102
{ACAD_REACTORS
330
316
330
317
102
}
330
A0
100
AcDbEntity
  8
0
  6
Continuous
 62
     2
100
AcDbLine
 10
-18.78463630883275
 20
6.92089048131132
 30
0.0
 11
-19.08480154602285
 21
7.68870544729802
 31
0.0
  0
LINE
  5
299
102
{ACAD_REACTORS
330
318
330
319
102
}
330
A0
100
AcDbEntity
  8
0
  6
Continuous
 62
     2
100
AcDbLine
 10
-16.67615229042474
 20
9.05855714796112
 30
0.0
 11
-17.91665670067764
 21
9.05855714796112
 31
0.0
  0
LINE
  5
29A
102
{ACAD_REACTORS
330
31A
330
31B
102
}
330
A0
100
AcDbEntity
  8
0
  6
Continuous
 62
     2
100
AcDbLine
 10
-15.15414880245965
 20
9.05855714796112
 30
0.0
 11
-16.55687302020786
 21
9.05855714796112
 31
0.0
  0
LINE
  5
29B
102
{ACAD_REACTORS
330
31A
330
31B
102
}
330
A0
100
AcDbEntity
  8
0
  6
Continuous
 62
     2
100
AcDbLine
 10
-15.15414880245965
 20
9.05855714796112
 30
0.0
 11
-14.45755786439395
 21
9.84628893325484
 31
0.0
  0
LINE
  5
29C
102
{ACAD_REACTORS
330
31A
330
31B
102
}
330
A0
100
AcDbEntity
  8
0
  6
Continuous
 62
     2
100
AcDbLine
 10
-13.85639034250116
 20
12.11236667177232
 30
0.0
 11
-12.45366612475394
 21
12.11236667177232
 31
0.0
  0
LINE
  5
29D
102
{ACAD_REACTORS
330
31A
330
31B
102
}
330
A0
100
AcDbEntity
  8
0
  6
Continuous
 62
     2
100
AcDbLine
 10
-16.46144960403504
 20
12.11236667177232
 30
0.0
 11
-15.15891997326756
 21
10.63941614173612
 31
0.0
  0
LINE
  5
29E
102
{ACAD_REACTORS
330
31A
330
31B
102
}
330
A0
100
AcDbEntity
  8
0
  6
Continuous
 62
     2
100
AcDbLine
 10
-16.55687302020786
 20
9.05855714796112
 30
0.0
 11
-15.15891997326756
 21
10.63941614173612
 31
0.0
  0
LINE
  5
29F
102
{ACAD_REACTORS
330
324
330
325
102
}
330
A0
100
AcDbEntity
  8
0
  6
Continuous
 62
     2
100
AcDbLine
 10
-14.69611640482793
 20
6.74638707995044
 30
0.0
 11
-14.69611640482793
 21
5.87387007314712
 31
0.0
  0
LINE
  5
2A0
102
{ACAD_REACTORS
330
324
330
325
102
}
330
A0
100
AcDbEntity
  8
0
  6
Continuous
 62
     2
100
AcDbLine
 10
-15.46577374778934
 20
7.96791088947433
 30
0.0
 11
-14.36213444822124
 21
7.96791088947433
 31
0.0
  0
LINE
  5
2A1
102
{ACAD_REACTORS
330
326
330
327
102
}
330
A0
100
AcDbEntity
  8
0
  6
Continuous
 62
     2
100
AcDbLine
 10
-30.79881788407985
 20
6.74638707995092
 30
0.0
 11
-30.79881788407985
 21
5.87387007314771
 31
0.0
  0
LINE
  5
2A2
102
{ACAD_REACTORS
330
326
330
327
102
}
330
A0
100
AcDbEntity
  8
0
  6
Continuous
 62
     2
100
AcDbLine
 10
-30.79881788407985
 20
7.70615578743383
 30
0.0
 11
-30.79881788407985
 21
8.57867279423712
 31
0.0
  0
LINE
  5
2A3
330
A0
100
AcDbEntity
  8
1
  6
Continuous
 62
     7
100
AcDbLine
 10
85.03855770090405
 20
6.90586667177053
 30
0.0
 11
-8.10624682584734
 21
6.90586667177053
 31
0.0
  0
LINE
  5
2A4
330
A0
100
AcDbEntity
  8
1
  6
Continuous
 62
     6
100
AcDbLine
 10
-113.5062468258472
 20
-1.59413332822947
 30
0.0
 11
-158.4614422990972
 21
-1.59413332822947
 31
0.0
  0
LINE
  5
2A5
330
A0
100
AcDbEntity
  8
1
  6
Continuous
 62
     7
100
AcDbLine
 10
76.12014941922524
 20
23.90586667177053
 30
0.0
 11
76.12014941922524
 21
15.40586667177053
 31
0.0
  0
LINE
  5
2A6
330
A0
100
AcDbEntity
  8
1
  6
Continuous
 62
     7
100
AcDbLine
 10
49.62014941922564
 20
23.90586667177053
 30
0.0
 11
49.62014941922564
 21
15.40586667177053
 31
0.0
  0
LINE
  5
2A7
330
A0
100
AcDbEntity
  8
1
  6
Continuous
 62
     7
100
AcDbLine
 10
-8.10624682584734
 20
15.40586667177053
 30
0.0
 11
-8.10624682584734
 21
23.90586667177053
 31
0.0
  0
LINE
  5
2A8
330
A0
100
AcDbEntity
  8
1
  6
Continuous
 62
     7
100
AcDbLine
 10
-44.50624682584726
 20
15.40586667177053
 30
0.0
 11
-44.50624682584726
 21
23.90586667177053
 31
0.0
  0
LINE
  5
2A9
330
A0
100
AcDbEntity
  8
1
  6
Continuous
 62
     6
100
AcDbLine
 10
-8.10624682584734
 20
15.40586667177053
 30
0.0
 11
85.03855770090445
 21
15.40586667177053
 31
0.0
  0
LINE
  5
2AA
330
A0
100
AcDbEntity
  8
1
  6
Continuous
 62
     7
100
AcDbLine
 10
19.79375317415276
 20
6.90586667177044
 30
0.0
 11
19.79375317415276
 21
15.40586667177053
 31
0.0
  0
LINE
  5
2AB
330
A0
100
AcDbEntity
  8
1
  6
PHANTOM
 62
     2
100
AcDbLine
 10
-29.01959193928465
 20
19.53086667177044
 30
0.0
 11
-34.51959193928465
 21
19.53086667177044
 31
0.0
  0
LINE
  5
2AC
330
A0
100
AcDbEntity
  8
1
  6
PHANTOM
 62
     2
100
AcDbLine
 10
-31.76959193928465
 20
22.28086667177044
 30
0.0
 11
-31.76959193928465
 21
16.78086667177044
 31
0.0
  0
LINE
  5
2AD
330
A0
100
AcDbEntity
  8
1
  6
DOT_CENTER
 62
     2
100
AcDbLine
 10
-40.51959193928465
 20
19.53086667177044
 30
0.0
 11
-35.01959193928465
 21
19.53086667177044
 31
0.0
  0
ARC
  5
2AE
102
{ACAD_REACTORS
330
326
330
327
102
}
330
A0
100
AcDbEntity
  8
0
  6
Continuous
 62
     2
100
AcDbCircle
 10
-32.13474580119765
 20
3.91359048843623
 30
0.0
 40
4.85259686349807
100
AcDbArc
 50
74.02000874164735
 51
84.84185523037506
  0
ARC
  5
2AF
102
{ACAD_REACTORS
330
326
330
327
102
}
330
A0
100
AcDbEntity
  8
0
  6
Continuous
 62
     2
100
AcDbCircle
 10
-31.55870519244394
 20
7.06935084432052
 30
0.0
 40
0.905929784985324
100
AcDbArc
 50
71.55192388185326
 51
113.3722778881286
  0
ARC
  5
2B0
102
{ACAD_REACTORS
330
326
330
327
102
}
330
A0
100
AcDbEntity
  8
0
  6
Continuous
 62
     2
100
AcDbCircle
 10
-31.71514522514596
 20
7.02120000435363
 30
0.0
 40
0.5115800601948034
100
AcDbArc
 50
208.5214732576956
 51
246.6277221118278
  0
ARC
  5
2B1
102
{ACAD_REACTORS
330
326
330
327
102
}
330
A0
100
AcDbEntity
  8
0
  6
Continuous
 62
     2
100
AcDbCircle
 10
-31.55870519244394
 20
7.38319202306363
 30
0.0
 40
0.9059297849849173
100
AcDbArc
 50
246.6277221118715
 51
288.4480761181587
  0
ARC
  5
2B2
102
{ACAD_REACTORS
330
326
330
327
102
}
330
A0
100
AcDbEntity
  8
0
  6
Continuous
 62
     2
100
AcDbCircle
 10
-31.97687292610473
 20
8.63673779910081
 30
0.0
 40
2.227384008972736
100
AcDbArc
 50
288.4480761181327
 51
301.9309089499593
  0
ARC
  5
2B3
102
{ACAD_REACTORS
330
322
330
323
102
}
330
A0
100
AcDbEntity
  8
0
  6
Continuous
 62
     2
100
AcDbCircle
 10
-37.20194665871154
 20
9.36923982801483
 30
0.0
 40
0.9118481501444621
100
AcDbArc
 50
295.3740086781768
 51
64.625991321807
  0
ARC
  5
2B4
102
{ACAD_REACTORS
330
322
330
323
102
}
330
A0
100
AcDbEntity
  8
0
  6
Continuous
 62
     2
100
AcDbCircle
 10
-36.67590396062366
 20
11.08391671648943
 30
0.0
 40
0.315716923076064
100
AcDbArc
 50
90.18896704254722
 51
180.0
  0
ARC
  5
2B5
102
{ACAD_REACTORS
330
324
330
325
102
}
330
A0
100
AcDbEntity
  8
0
  6
Continuous
 62
     2
100
AcDbCircle
 10
-15.46577374778934
 20
7.01338788264823
 30
0.0
 40
0.9545230068260935
100
AcDbArc
 50
90.0
 51
109.337143219432
  0
ARC
  5
2B6
102
{ACAD_REACTORS
330
324
330
325
102
}
330
A0
100
AcDbEntity
  8
0
  6
Continuous
 62
     2
100
AcDbCircle
 10
-15.23508648781166
 20
7.22627143369212
 30
0.0
 40
0.9410597353348862
100
AcDbArc
 50
151.4785267423622
 51
208.5214732576697
  0
ARC
  5
2B7
102
{ACAD_REACTORS
330
324
330
325
102
}
330
A0
100
AcDbEntity
  8
0
  6
Continuous
 62
     2
100
AcDbCircle
 10
-15.45600371318994
 20
7.38319202306363
 30
0.0
 40
0.9059297849852822
100
AcDbArc
 50
246.6277221118181
 51
288.4480761180811
  0
ARC
  5
2B8
102
{ACAD_REACTORS
330
324
330
325
102
}
330
A0
100
AcDbEntity
  8
0
  6
Continuous
 62
     2
100
AcDbCircle
 10
-15.87417144685185
 20
8.63673779910022
 30
0.0
 40
2.227384008972745
100
AcDbArc
 50
288.4480761181334
 51
301.9309089499399
  0
ARC
  5
2B9
102
{ACAD_REACTORS
330
324
330
325
102
}
330
A0
100
AcDbEntity
  8
0
  6
Continuous
 62
     2
100
AcDbCircle
 10
-16.03204432194465
 20
10.53895237894852
 30
0.0
 40
4.852596863498821
100
AcDbArc
 50
275.1581447696363
 51
285.9799912583387
  0
ARC
  5
2BA
102
{ACAD_REACTORS
330
324
330
325
102
}
330
A0
100
AcDbEntity
  8
0
  6
Continuous
 62
     2
100
AcDbCircle
 10
-15.74318822720883
 20
7.33906179572693
 30
0.0
 40
1.639695123940455
100
AcDbArc
 50
195.0618917771011
 51
275.158144769676
  0
ARC
  5
2BB
102
{ACAD_REACTORS
330
31C
330
31D
102
}
330
A0
100
AcDbEntity
  8
0
  6
Continuous
 62
     2
100
AcDbCircle
 10
-31.47140153889995
 20
11.05700103043864
 30
0.0
 40
1.05536564133371
100
AcDbArc
 50
270.0
 51
90.0
  0
ARC
  5
2BC
102
{ACAD_REACTORS
330
322
330
323
102
}
330
A0
100
AcDbEntity
  8
0
  6
Continuous
 62
     2
100
AcDbCircle
 10
-39.25145264715536
 20
6.72763915042043
 30
0.0
 40
0.3157169230756764
100
AcDbArc
 50
180.0
 51
270.0
  0
ARC
  5
2BD
102
{ACAD_REACTORS
330
322
330
323
102
}
330
A0
100
AcDbEntity
  8
0
  6
Continuous
 62
     2
100
AcDbCircle
 10
-37.77561938614574
 20
11.08409419313753
 30
0.0
 40
0.3157169230766002
100
AcDbArc
 50
0.0
 51
90.0
  0
ARC
  5
2BE
102
{ACAD_REACTORS
330
322
330
323
102
}
330
A0
100
AcDbEntity
  8
0
  6
Continuous
 62
     2
100
AcDbCircle
 10
-37.77561938614574
 20
10.48006957407702
 30
0.0
 40
0.3157169230761233
100
AcDbArc
 50
295.1944106485409
 51
0.0
  0
ARC
  5
2BF
102
{ACAD_REACTORS
330
322
330
323
102
}
330
A0
100
AcDbEntity
  8
0
  6
Continuous
 62
     2
100
AcDbCircle
 10
-37.77561938614574
 20
6.72763915042043
 30
0.0
 40
0.3157169230767067
100
AcDbArc
 50
270.0
 51
0.0
  0
ARC
  5
2C0
102
{ACAD_REACTORS
330
322
330
323
102
}
330
A0
100
AcDbEntity
  8
0
  6
Continuous
 62
     2
100
AcDbCircle
 10
-39.84534732390185
 20
11.68812205637033
 30
0.0
 40
0.4242446153837989
100
AcDbArc
 50
90.0
 51
180.0
  0
ARC
  5
2C1
102
{ACAD_REACTORS
330
322
330
323
102
}
330
A0
100
AcDbEntity
  8
0
  6
Continuous
 62
     2
100
AcDbCircle
 10
-34.37203523318505
 20
11.68812205637033
 30
0.0
 40
0.4242446153838912
100
AcDbArc
 50
0.0
 51
90.0
  0
ARC
  5
2C2
102
{ACAD_REACTORS
330
322
330
323
102
}
330
A0
100
AcDbEntity
  8
0
  6
Continuous
 62
     2
100
AcDbCircle
 10
-34.37203523318505
 20
6.12361128717012
 30
0.0
 40
0.4242446153832873
100
AcDbArc
 50
270.0
 51
0.0
  0
ARC
  5
2C3
102
{ACAD_REACTORS
330
320
330
321
102
}
330
A0
100
AcDbEntity
  8
0
  6
Continuous
 62
     2
100
AcDbCircle
 10
-25.15365134609354
 20
10.58546190986644
 30
0.0
 40
0.7717997786796362
100
AcDbArc
 50
321.8795802028439
 51
38.12041979715956
  0
ARC
  5
2C4
102
{ACAD_REACTORS
330
320
330
321
102
}
330
A0
100
AcDbEntity
  8
0
  6
Continuous
 62
     2
100
AcDbCircle
 10
-24.95391130974736
 20
10.42873073174602
 30
0.0
 40
0.5179085730134354
100
AcDbArc
 50
218.1204197971515
 51
321.879580202857
  0
ARC
  5
2C5
102
{ACAD_REACTORS
330
31E
330
31F
102
}
330
A0
100
AcDbEntity
  8
0
  6
Continuous
 62
     2
100
AcDbCircle
 10
-28.63391889870755
 20
7.22627143369212
 30
0.0
 40
1.458034083652004
100
AcDbArc
 50
297.5481481757012
 51
62.45185182429882
  0
ARC
  5
2C6
102
{ACAD_REACTORS
330
31E
330
31F
102
}
330
A0
100
AcDbEntity
  8
0
  6
Continuous
 62
     2
100
AcDbCircle
 10
-29.19579868237415
 20
7.22627143369212
 30
0.0
 40
1.45803408365149
100
AcDbArc
 50
117.5481481756624
 51
242.4518518243375
  0
ARC
  5
2C7
102
{ACAD_REACTORS
330
31E
330
31F
102
}
330
A0
100
AcDbEntity
  8
0
  6
Continuous
 62
     2
100
AcDbCircle
 10
-28.91485879054085
 20
6.68769642338933
 30
0.0
 40
2.065479772208571
100
AcDbArc
 50
62.45185182430619
 51
117.5481481756664
  0
ARC
  5
2C8
102
{ACAD_REACTORS
330
31E
330
31F
102
}
330
A0
100
AcDbEntity
  8
0
  6
Continuous
 62
     2
100
AcDbCircle
 10
-28.91485879054085
 20
7.76484644399542
 30
0.0
 40
2.065479772208509
100
AcDbArc
 50
242.4518518243402
 51
297.5481481756872
  0
ARC
  5
2C9
102
{ACAD_REACTORS
330
320
330
321
102
}
330
A0
100
AcDbEntity
  8
0
  6
Continuous
 62
     2
100
AcDbCircle
 10
-24.75417127340106
 20
10.58546190986644
 30
0.0
 40
0.7717997786796724
100
AcDbArc
 50
141.8795802028404
 51
218.1204197971561
  0
ARC
  5
2CA
102
{ACAD_REACTORS
330
320
330
321
102
}
330
A0
100
AcDbEntity
  8
0
  6
Continuous
 62
     2
100
AcDbCircle
 10
-24.95391130974736
 20
10.74219308798692
 30
0.0
 40
0.5179085730135332
100
AcDbArc
 50
38.12041979714301
 51
141.8795802028485
  0
ARC
  5
2CB
102
{ACAD_REACTORS
330
322
330
323
102
}
330
A0
100
AcDbEntity
  8
0
  6
Continuous
 62
     2
100
AcDbCircle
 10
-39.84534732390185
 20
6.12361128717012
 30
0.0
 40
0.4242446153828041
100
AcDbArc
 50
180.0
 51
270.0
  0
ARC
  5
2CC
102
{ACAD_REACTORS
330
322
330
323
102
}
330
A0
100
AcDbEntity
  8
0
  6
Continuous
 62
     2
100
AcDbCircle
 10
-37.77561938614574
 20
8.25841008195204
 30
0.0
 40
0.3157169230766002
100
AcDbArc
 50
0.0
 51
64.8055893514591
  0
ARC
  5
2CD
102
{ACAD_REACTORS
330
322
330
323
102
}
330
A0
100
AcDbEntity
  8
0
  6
Continuous
 62
     2
100
AcDbCircle
 10
-37.25303493857075
 20
9.36923982801483
 30
0.0
 40
0.911897523557613
100
AcDbArc
 50
115.1944106485283
 51
244.8055893514878
  0
ARC
  5
2CE
102
{ACAD_REACTORS
330
322
330
323
102
}
330
A0
100
AcDbEntity
  8
0
  6
Continuous
 62
     2
100
AcDbCircle
 10
-39.25145264715536
 20
11.08409419313753
 30
0.0
 40
0.3157169230762005
100
AcDbArc
 50
90.0
 51
180.0
  0
ARC
  5
2CF
102
{ACAD_REACTORS
330
31C
330
31D
102
}
330
A0
100
AcDbEntity
  8
0
  6
Continuous
 62
     2
100
AcDbCircle
 10
-31.91287406513834
 20
11.09639700166113
 30
0.0
 40
0.35286382467112
100
AcDbArc
 50
270.0
 51
90.0
  0
ARC
  5
2D0
102
{ACAD_REACTORS
330
320
330
321
102
}
330
A0
100
AcDbEntity
  8
0
  6
Continuous
 62
     2
100
AcDbCircle
 10
-25.17018331991255
 20
10.58546190986644
 30
0.0
 40
1.526904761905879
100
AcDbArc
 50
90.0
 51
270.0
  0
ARC
  5
2D1
102
{ACAD_REACTORS
330
324
330
325
102
}
330
A0
100
AcDbEntity
  8
0
  6
Continuous
 62
     2
100
AcDbCircle
 10
-15.74318822720883
 20
7.11348107165722
 30
0.0
 40
1.639695123940214
100
AcDbArc
 50
90.0
 51
164.938108222895
  0
ARC
  5
2D2
102
{ACAD_REACTORS
330
324
330
325
102
}
330
A0
100
AcDbEntity
  8
0
  6
Continuous
 62
     2
100
AcDbCircle
 10
-16.16231607067044
 20
7.22627143369212
 30
0.0
 40
1.205656168393009
100
AcDbArc
 50
164.9381082229029
 51
195.0618917770958
  0
ARC
  5
2D3
102
{ACAD_REACTORS
330
324
330
325
102
}
330
A0
100
AcDbEntity
  8
0
  6
Continuous
 62
     2
100
AcDbCircle
 10
-15.61244374589305
 20
7.02120000435363
 30
0.0
 40
0.5115800601960153
100
AcDbArc
 50
208.521473257687
 51
246.6277221118453
  0
ARC
  5
2D4
102
{ACAD_REACTORS
330
324
330
325
102
}
330
A0
100
AcDbEntity
  8
0
  6
Continuous
 62
     2
100
AcDbCircle
 10
-15.61244374589305
 20
7.43134286303112
 30
0.0
 40
0.5115800601944125
100
AcDbArc
 50
109.3371432194847
 51
151.4785267424221
  0
ARC
  5
2D5
102
{ACAD_REACTORS
330
322
330
323
102
}
330
A0
100
AcDbEntity
  8
0
  6
Continuous
 62
     2
100
AcDbCircle
 10
-36.67590396062366
 20
7.67824682135134
 30
0.0
 40
0.315716923076792
100
AcDbArc
 50
180.0
 51
269.8110329574529
  0
ARC
  5
2D6
102
{ACAD_REACTORS
330
322
330
323
102
}
330
A0
100
AcDbEntity
  8
0
  6
Continuous
 62
     2
100
AcDbCircle
 10
-36.67028782531364
 20
9.38108176892032
 30
0.0
 40
2.018561131933266
100
AcDbArc
 50
269.8110329575858
 51
90.18896704241416
  0
ARC
  5
2D7
102
{ACAD_REACTORS
330
322
330
323
102
}
330
A0
100
AcDbEntity
  8
0
  6
Continuous
 62
     2
100
AcDbCircle
 10
-36.67590396062366
 20
10.47838142798264
 30
0.0
 40
0.315716923076792
100
AcDbArc
 50
180.0
 51
244.6259913216483
  0
ARC
  5
2D8
102
{ACAD_REACTORS
330
322
330
323
102
}
330
A0
100
AcDbEntity
  8
0
  6
Continuous
 62
     2
100
AcDbCircle
 10
-36.67590396062366
 20
8.26009822804642
 30
0.0
 40
0.3157169230765328
100
AcDbArc
 50
115.3740086783519
 51
180.0
  0
ARC
  5
2D9
102
{ACAD_REACTORS
330
326
330
327
102
}
330
A0
100
AcDbEntity
  8
0
  6
Continuous
 62
     2
100
AcDbCircle
 10
-31.84588970646175
 20
7.11348107165722
 30
0.0
 40
1.639695123940507
100
AcDbArc
 50
84.84185523036223
 51
164.9381082228864
  0
ARC
  5
2DA
102
{ACAD_REACTORS
330
326
330
327
102
}
330
A0
100
AcDbEntity
  8
0
  6
Continuous
 62
     2
100
AcDbCircle
 10
-32.26501754992455
 20
7.22627143369212
 30
0.0
 40
1.205656168390944
100
AcDbArc
 50
164.9381082228765
 51
195.0618917770948
  0
ARC
  5
2DB
102
{ACAD_REACTORS
330
326
330
327
102
}
330
A0
100
AcDbEntity
  8
0
  6
Continuous
 62
     2
100
AcDbCircle
 10
-31.84588970646175
 20
7.33906179572693
 30
0.0
 40
1.639695123939384
100
AcDbArc
 50
195.0618917770896
 51
275.1581447696396
  0
ARC
  5
2DC
102
{ACAD_REACTORS
330
326
330
327
102
}
330
A0
100
AcDbEntity
  8
0
  6
Continuous
 62
     2
100
AcDbCircle
 10
-32.13474580119765
 20
10.53895237894852
 30
0.0
 40
4.852596863498136
100
AcDbArc
 50
275.1581447696249
 51
285.979991258353
  0
ARC
  5
2DD
102
{ACAD_REACTORS
330
326
330
327
102
}
330
A0
100
AcDbEntity
  8
0
  6
Continuous
 62
     2
100
AcDbCircle
 10
-31.33778796706565
 20
7.22627143369212
 30
0.0
 40
0.9410597353332545
100
AcDbArc
 50
151.4785267422669
 51
208.5214732577057
  0
ARC
  5
2DE
102
{ACAD_REACTORS
330
326
330
327
102
}
330
A0
100
AcDbEntity
  8
0
  6
Continuous
 62
     2
100
AcDbCircle
 10
-31.71514522514596
 20
7.43134286303112
 30
0.0
 40
0.5115800601948765
100
AcDbArc
 50
113.3722778881988
 51
151.4785267423044
  0
ARC
  5
2DF
102
{ACAD_REACTORS
330
326
330
327
102
}
330
A0
100
AcDbEntity
  8
0
  6
Continuous
 62
     2
100
AcDbCircle
 10
-31.97687292610473
 20
5.81580506828394
 30
0.0
 40
2.227384008973478
100
AcDbArc
 50
58.06909105004071
 51
71.55192388186731
  0
ARC
  5
2E0
102
{ACAD_REACTORS
330
31E
330
31F
102
}
330
A0
100
AcDbEntity
  8
0
  6
Continuous
 62
     2
100
AcDbCircle
 10
-28.91485879054085
 20
7.38300261181263
 30
0.0
 40
0.5179085730133026
100
AcDbArc
 50
38.12041979714679
 51
141.8795802028585
  0
ARC
  5
2E1
102
{ACAD_REACTORS
330
31E
330
31F
102
}
330
A0
100
AcDbEntity
  8
0
  6
Continuous
 62
     2
100
AcDbCircle
 10
-28.71511875419475
 20
7.22627143369212
 30
0.0
 40
0.7717997786794605
100
AcDbArc
 50
141.8795802028361
 51
218.1204197971688
  0
ARC
  5
2E2
102
{ACAD_REACTORS
330
31E
330
31F
102
}
330
A0
100
AcDbEntity
  8
0
  6
Continuous
 62
     2
100
AcDbCircle
 10
-28.91485879054085
 20
7.06954025557212
 30
0.0
 40
0.5179085730137326
100
AcDbArc
 50
218.1204197971934
 51
321.8795802028013
  0
ARC
  5
2E3
102
{ACAD_REACTORS
330
31E
330
31F
102
}
330
A0
100
AcDbEntity
  8
0
  6
Continuous
 62
     2
100
AcDbCircle
 10
-29.11459882688726
 20
7.22627143369212
 30
0.0
 40
0.7717997786796947
100
AcDbArc
 50
321.8795802028417
 51
38.12041979715329
  0
CIRCLE
  5
2E4
330
A0
100
AcDbEntity
  8
1
  6
Continuous
 62
     2
100
AcDbCircle
 10
-31.76959193928465
 20
19.53086667177044
 30
0.0
 40
2.5
  0
CIRCLE
  5
2E5
330
A0
100
AcDbEntity
  8
1
  6
Continuous
 62
     2
100
AcDbCircle
 10
-31.76959193928465
 20
19.53086667177044
 30
0.0
 40
1.249999999999908
  0
CIRCLE
  5
2E6
102
{ACAD_REACTORS
330
322
330
323
102
}
330
A0
100
AcDbEntity
  8
0
  6
Continuous
 62
     2
100
AcDbCircle
 10
-37.22576167338434
 20
9.36923982801483
 30
0.0
 40
0.4709789327785074
  0
MTEXT
  5
2E7
330
A0
100
AcDbEntity
  8
1
 62
     3
100
AcDbMText
 10
-201.9563745130255
 20
185.1971748270693
 30
0.0
 40
1.8
 41
0.0
 71
     7
 72
     1
  3
Weitergabe sowie Vervielfältigung dieses Dokuments, Verwertung und \PMitteilung seines Inhalts sind verboten, soweit nicht ausdrücklich gestattet. \PZuwiderhandlungen verpflichten zu Schadenersatz. Alle Rechte für den Fall\Pder Patent-, Gebrauchsmus
  1
ter- oder Designeintragung vorbehalten.
  7
CONVERTER_11
 73
     1
 44
0.99639855942377
  0
MTEXT
  5
2E8
330
A0
100
AcDbEntity
  8
1
 62
     3
100
AcDbMText
 10
-19.10326467423735
 20
185.1971748270693
 30
0.0
 40
1.8
 41
0.0
 71
     7
 72
     1
  3
Transfer or duplication of this document as well as the utilisation or\Pcommunication of its content are not permitted unless express consent\Pis granted. Violations give rise to claims for damages. All rights reserved\Pin case of patent, utility mo
  1
del or design patent registrations.
  7
CONVERTER_11
 73
     1
 44
0.99639855942377
  0
TEXT
  5
2E9
330
A0
100
AcDbEntity
  8
1
 62
     2
100
AcDbText
 10
-25.30624682584744
 20
-0.35315054322109
 30
0.0
 40
1.8
  1
of
 41
0.9
  7
CONVERTER_11
100
AcDbText
  0
TEXT
  5
2EA
330
A0
100
AcDbEntity
  8
1
 62
     2
100
AcDbText
 10
-43.50624682584726
 20
-0.35315054322115
 30
0.0
 40
1.8
  1
page
 41
0.9
  7
CONVERTER_11
100
AcDbText
  0
TEXT
  5
2EB
330
A0
100
AcDbEntity
  8
1
 62
     2
100
AcDbText
 10
-34.85998185550525
 20
-0.39338198203149
 30
0.0
 40
1.8
  1
1
 41
0.9
  7
CONVERTER_11
100
AcDbText
  0
TEXT
  5
2EC
330
A0
100
AcDbEntity
  8
1
 62
     2
100
AcDbText
 10
-20.07093801603375
 20
-0.34413332822959
 30
0.0
 40
1.8
  1
1
 41
0.9
  7
CONVERTER_11
100
AcDbText
  0
MTEXT
  5
2EE
330
A0
100
AcDbEntity
  8
1
 62
     7
100
AcDbMText
 10
38.46615543752824
 20
1.65586667177075
 30
0.0
 40
3.0
 41
0.0
 71
     5
 72
     1
  1
EB  2- 6 OG
  7
CONVERTER_12
 73
     1
 44
1.20048019207683
  0
MTEXT
  5
2EF
330
A0
100
AcDbEntity
  8
1
 62
     2
100
AcDbMText
 10
-7.10624682584734
 20
5.90586667177053
 30
0.0
 40
1.8
 41
0.0
 71
     1
 72
     1
  1
description
  7
CONVERTER_11
 73
     1
 44
1.20048019207683
  0
MTEXT
  5
2F0
330
A0
100
AcDbEntity
  8
1
 62
     3
100
AcDbMText
 10
-18.30624682584735
 20
19.53086667177053
 30
0.0
 40
2.5
 41
0.0
 71
     5
 72
     1
  1
DIN A4
  7
CONVERTER_11
 73
     1
 44
1.20048019207683
  0
MTEXT
  5
2F1
330
A0
100
AcDbEntity
  8
1
 62
     7
100
AcDbMText
 10
-204.4614422990963
 20
20.90586667177053
 30
0.0
 40
3.5
 41
0.0
 71
     5
 72
     1
  1
D
  7
CONVERTER_11
 73
     1
 44
1.20048019207683
  0
MTEXT
  5
2F2
330
A0
100
AcDbEntity
  8
1
 62
     7
100
AcDbMText
 10
-204.4614422990963
 20
73.40586667177053
 30
0.0
 40
3.5
 41
0.0
 71
     5
 72
     1
  1
C
  7
CONVERTER_11
 73
     1
 44
1.20048019207683
  0
MTEXT
  5
2F3
330
A0
100
AcDbEntity
  8
1
 62
     7
100
AcDbMText
 10
-204.4614422990963
 20
123.4058666717705
 30
0.0
 40
3.5
 41
0.0
 71
     5
 72
     1
  1
B
  7
CONVERTER_11
 73
     1
 44
1.20048019207683
  0
MTEXT
  5
2F4
330
A0
100
AcDbEntity
  8
1
 62
     7
100
AcDbMText
 10
-204.4614422990963
 20
175.9058666717705
 30
0.0
 40
3.5
 41
0.0
 71
     5
 72
     1
  1
A
  7
CONVERTER_11
 73
     1
 44
1.20048019207683
  0
MTEXT
  5
2F5
330
A0
100
AcDbEntity
  8
1
 62
     7
100
AcDbMText
 10
65.78855770090195
 20
-4.09413332822959
 30
0.0
 40
3.5
 41
0.0
 71
     5
 72
     1
  1
6
  7
CONVERTER_11
 73
     1
 44
1.20048019207683
  0
MTEXT
  5
2F6
330
A0
100
AcDbEntity
  8
1
 62
     7
100
AcDbMText
 10
16.53855770090274
 20
-4.09413332822959
 30
0.0
 40
3.5
 41
0.0
 71
     5
 72
     1
  1
5
  7
CONVERTER_11
 73
     1
 44
1.20048019207683
  0
MTEXT
  5
2F7
330
A0
100
AcDbEntity
  8
1
 62
     7
100
AcDbMText
 10
-33.46144229909734
 20
-4.09413332822959
 30
0.0
 40
3.5
 41
0.0
 71
     5
 72
     1
  1
4
  7
CONVERTER_11
 73
     1
 44
1.20048019207683
  0
MTEXT
  5
2F8
330
A0
100
AcDbEntity
  8
1
 62
     7
100
AcDbMText
 10
-83.46144229909723
 20
-4.09413332822959
 30
0.0
 40
3.5
 41
0.0
 71
     5
 72
     1
  1
3
  7
CONVERTER_11
 73
     1
 44
1.20048019207683
  0
MTEXT
  5
2F9
330
A0
100
AcDbEntity
  8
1
 62
     7
100
AcDbMText
 10
-133.4614422990972
 20
-4.09413332822959
 30
0.0
 40
3.5
 41
0.0
 71
     5
 72
     1
  1
2
  7
CONVERTER_11
 73
     1
 44
1.20048019207683
  0
MTEXT
  5
2FA
330
A0
100
AcDbEntity
  8
1
 62
     7
100
AcDbMText
 10
-182.7114422990968
 20
-4.09413332822959
 30
0.0
 40
3.5
 41
0.0
 71
     5
 72
     1
  1
1
  7
CONVERTER_11
 73
     1
 44
1.20048019207683
  0
MTEXT
  5
2FB
330
A0
100
AcDbEntity
  8
1
 62
     7
100
AcDbMText
 10
87.53855770090175
 20
20.90586667177053
 30
0.0
 40
3.5
 41
0.0
 71
     5
 72
     1
  1
D
  7
CONVERTER_11
 73
     1
 44
1.20048019207683
  0
MTEXT
  5
2FC
330
A0
100
AcDbEntity
  8
1
 62
     7
100
AcDbMText
 10
87.53855770090175
 20
123.4058666717724
 30
0.0
 40
3.5
 41
0.0
 71
     5
 72
     1
  1
B
  7
CONVERTER_11
 73
     1
 44
1.20048019207683
  0
MTEXT
  5
2FD
330
A0
100
AcDbEntity
  8
1
 62
     7
100
AcDbMText
 10
87.53855770090175
 20
175.9058666717705
 30
0.0
 40
3.5
 41
0.0
 71
     5
 72
     1
  1
A
  7
CONVERTER_11
 73
     1
 44
1.20048019207683
  0
MTEXT
  5
2FE
330
A0
100
AcDbEntity
  8
1
 62
     7
100
AcDbMText
 10
87.53855770090175
 20
73.40586667177243
 30
0.0
 40
3.5
 41
0.0
 71
     5
 72
     1
  1
C
  7
CONVERTER_11
 73
     1
 44
1.20048019207683
  0
MTEXT
  5
2FF
330
A0
100
AcDbEntity
  8
1
 62
     2
100
AcDbMText
 10
-78.94426155089477
 20
11.15586667177044
 30
0.0
 40
2.0
 41
0.0
 71
     5
 72
     1
  1
General Information\P- Simplified representation\P- Document excluded from change process\P- Linear dimensions [mm]
  7
CONVERTER_11
 73
     1
 44
1.20048019207683
  0
TEXT
  5
300
330
A0
100
AcDbEntity
  8
1
 62
     7
100
AcDbText
 10
-6.60624682584753
 20
8.20586667177042
 30
0.0
 40
2.5
  1
0710882
 41
0.81
  7
CONVERTER_12
100
AcDbText
  0
MTEXT
  5
301
330
A0
100
AcDbEntity
  8
1
 62
     2
100
AcDbMText
 10
-7.00624682584726
 20
14.40586667177053
 30
0.0
 40
1.8
 41
0.0
 71
     1
 72
     1
  1
ident.-No.
  7
CONVERTER_11
 73
     1
 44
1.20048019207683
  0
MTEXT
  5
302
330
A0
100
AcDbEntity
  8
1
 62
     2
100
AcDbMText
 10
77.22014941922546
 20
22.90586667177053
 30
0.0
 40
1.8
 41
0.0
 71
     1
 72
     1
  1
scale
  7
CONVERTER_11
 73
     1
 44
1.20048019207683
  0
MTEXT
  5
304
330
A0
100
AcDbEntity
  8
1
 62
     3
100
AcDbMText
 10
80.57935356006506
 20
16.70586667177062
 30
0.0
 40
2.5
 41
0.0
 71
     8
 72
     1
  1
1:1
  7
CONVERTER_13
 73
     1
 44
1.32052821128451
  0
TEXT
  5
305
330
A0
100
AcDbEntity
  8
1
 62
     7
100
AcDbText
 10
-7.00624682584726
 20
16.70586667177042
 30
0.0
 40
2.5
  1
01103331
 41
0.81
  7
CONVERTER_12
100
AcDbText
  0
MTEXT
  5
307
330
A0
100
AcDbEntity
  8
1
 62
     2
100
AcDbMText
 10
-7.00624682584726
 20
22.90586667177053
 30
0.0
 40
1.8
 41
0.0
 71
     1
 72
     1
  1
document-No. / RI
  7
CONVERTER_14
 73
     1
 44
1.32052821128451
  0
TEXT
  5
308
330
A0
100
AcDbEntity
  8
1
 62
     3
100
AcDbText
 10
20.79375317415276
 20
8.20586667177042
 30
0.0
 40
2.5
  1
TECDOC 2D_Productdrawing
 41
0.81
  7
CONVERTER_12
100
AcDbText
  0
MTEXT
  5
309
330
A0
100
AcDbEntity
  8
1
 62
     2
100
AcDbMText
 10
20.79375317415276
 20
14.40586667177044
 30
0.0
 40
1.8
 41
0.0
 71
     1
 72
     1
  1
document-type
  7
CONVERTER_11
 73
     1
 44
1.20048019207683
  0
MTEXT
  5
30A
330
A0
100
AcDbEntity
  8
1
 62
     2
100
AcDbMText
 10
50.62014941922564
 20
22.90586667177044
 30
0.0
 40
1.8
 41
0.0
 71
     1
 72
     1
  1
date
  7
CONVERTER_11
 73
     1
 44
1.32052821128451
  0
TEXT
  5
30B
330
A0
100
AcDbEntity
  8
1
 62
     3
100
AcDbText
 10
50.62014941922564
 20
16.70586667177042
 30
0.0
 40
2.5
  1
02.01.2018
 41
0.81
  7
CONVERTER_12
100
AcDbText
  0
TEXT
  5
30C
330
A0
100
AcDbEntity
  8
1
 62
     7
100
AcDbText
 10
13.02366539320855
 20
16.70586667177042
 30
0.0
 40
2.5
  1
00
 41
0.81
  7
CONVERTER_12
100
AcDbText
  0
TEXT
  5
30D
330
A0
100
AcDbEntity
  8
1
 62
     7
100
AcDbText
 10
10.86730089616654
 20
16.70586667177042
 30
0.0
 40
2.5
  1
/
 41
0.9
  7
CONVERTER_11
100
AcDbText
  0
HATCH
  5
30E
330
A0
100
AcDbEntity
  8
1
  6
Continuous
 62
     2
100
AcDbHatch
 10
0.0
 20
0.0
 30
0.0
210
0.0
220
0.0
230
1.0
  2
_USER
 70
     0
 71
     1
 91
        1
 92
        1
 93
       12
 72
     1
 10
-26.83874611288616
 20
9.058557147961125
 11
-28.03153881505256
 21
9.058557147961125
 72
     1
 10
-28.03153881505256
 20
9.058557147961125
 11
-28.03153881505256
 21
10.19282925680494
 72
     1
 10
-28.03153881505256
 20
10.19282925680494
 11
-29.08119639296004
 21
10.19282925680494
 72
     1
 10
-29.08119639296004
 20
10.19282925680494
 11
-29.08119639296004
 21
9.058557147961125
 72
     1
 10
-29.08119639296004
 20
9.058557147961125
 11
-30.27398909512664
 21
9.058557147961125
 72
     1
 10
-30.27398909512664
 20
9.058557147961125
 11
-30.27398909512664
 21
12.11236667177232
 72
     1
 10
-30.27398909512664
 20
12.11236667177232
 11
-29.08119639296004
 21
12.11236667177232
 72
     1
 10
-29.08119639296004
 20
12.11236667177232
 11
-29.08119639296004
 21
11.04353333843773
 72
     1
 10
-29.08119639296004
 20
11.04353333843773
 11
-28.03153881505256
 21
11.04353333843773
 72
     1
 10
-28.03153881505256
 20
11.04353333843773
 11
-28.03153881505256
 21
12.11236667177232
 72
     1
 10
-28.03153881505256
 20
12.11236667177232
 11
-26.83874611288616
 21
12.11236667177232
 72
     1
 10
-26.83874611288616
 20
12.11236667177232
 11
-26.83874611288616
 21
9.058557147961125
 97
       12
330
27B
330
27C
330
266
330
265
330
264
330
278
330
263
330
279
330
27A
330
262
330
261
330
260
 75
     1
 76
     0
 52
45.0
 41
0.1
 77
     0
 78
     1
 53
45.0
 43
0.0
 44
0.0
 45
-0.0707106781186548
 46
0.0707106781186548
 79
     0
 98
        1
 10
0.0
 20
0.0
  0
HATCH
  5
30F
330
A0
100
AcDbEntity
  8
1
  6
Continuous
 62
     2
100
AcDbHatch
 10
0.0
 20
0.0
 30
0.0
210
0.0
220
0.0
230
1.0
  2
_USER
 70
     0
 71
     1
 91
        1
 92
        1
 93
       12
 72
     1
 10
-26.83874611288616
 20
9.058557147961125
 11
-28.03153881505256
 21
9.058557147961125
 72
     1
 10
-28.03153881505256
 20
9.058557147961125
 11
-28.03153881505256
 21
10.19282925680494
 72
     1
 10
-28.03153881505256
 20
10.19282925680494
 11
-29.08119639296004
 21
10.19282925680494
 72
     1
 10
-29.08119639296004
 20
10.19282925680494
 11
-29.08119639296004
 21
9.058557147961125
 72
     1
 10
-29.08119639296004
 20
9.058557147961125
 11
-30.27398909512664
 21
9.058557147961125
 72
     1
 10
-30.27398909512664
 20
9.058557147961125
 11
-30.27398909512664
 21
12.11236667177232
 72
     1
 10
-30.27398909512664
 20
12.11236667177232
 11
-29.08119639296004
 21
12.11236667177232
 72
     1
 10
-29.08119639296004
 20
12.11236667177232
 11
-29.08119639296004
 21
11.04353333843773
 72
     1
 10
-29.08119639296004
 20
11.04353333843773
 11
-28.03153881505256
 21
11.04353333843773
 72
     1
 10
-28.03153881505256
 20
11.04353333843773
 11
-28.03153881505256
 21
12.11236667177232
 72
     1
 10
-28.03153881505256
 20
12.11236667177232
 11
-26.83874611288616
 21
12.11236667177232
 72
     1
 10
-26.83874611288616
 20
12.11236667177232
 11
-26.83874611288616
 21
9.058557147961125
 97
       12
330
27B
330
27C
330
266
330
265
330
264
330
278
330
263
330
279
330
27A
330
262
330
261
330
260
 75
     1
 76
     0
 52
45.0
 41
0.1
 77
     0
 78
     1
 53
45.0
 43
0.0
 44
0.0
 45
-0.0707106781186548
 46
0.0707106781186548
 79
     0
 98
        1
 10
0.0
 20
0.0
  0
HATCH
  5
310
330
A0
100
AcDbEntity
  8
1
  6
Continuous
 62
     2
100
AcDbHatch
 10
0.0
 20
0.0
 30
0.0
210
0.0
220
0.0
230
1.0
  2
_USER
 70
     0
 71
     1
 91
        1
 92
        1
 93
       10
 72
     1
 10
-24.59644676369786
 20
7.444400685392822
 11
-25.83695117395075
 21
8.753176195597916
 72
     1
 10
-25.83695117395075
 20
8.753176195597916
 11
-27.02974387611835
 21
8.753176195597916
 72
     1
 10
-27.02974387611835
 20
8.753176195597916
 11
-27.02974387611835
 21
5.699366671786834
 72
     1
 10
-27.02974387611835
 20
5.699366671786834
 11
-25.83695117395075
 21
5.699366671786834
 72
     1
 10
-25.83695117395075
 20
5.699366671786834
 11
-25.83695117395075
 21
7.008142181991417
 72
     1
 10
-25.83695117395075
 20
7.008142181991417
 11
-24.59644676369786
 21
5.699366671786834
 72
     1
 10
-24.59644676369786
 20
5.699366671786834
 11
-23.40365406153146
 21
5.699366671786834
 72
     1
 10
-23.40365406153146
 20
5.699366671786834
 11
-23.40365406153146
 21
8.753176195597916
 72
     1
 10
-23.40365406153146
 20
8.753176195597916
 11
-24.59644676369786
 21
8.753176195597916
 72
     1
 10
-24.59644676369786
 20
8.753176195597916
 11
-24.59644676369786
 21
7.444400685392822
 97
       10
330
289
330
259
330
258
330
25B
330
284
330
285
330
25A
330
286
330
287
330
288
 75
     1
 76
     0
 52
45.0
 41
0.1
 77
     0
 78
     1
 53
45.0
 43
0.0
 44
0.0
 45
-0.0707106781186548
 46
0.0707106781186548
 79
     0
 98
        1
 10
0.0
 20
0.0
  0
HATCH
  5
311
330
A0
100
AcDbEntity
  8
1
  6
Continuous
 62
     2
100
AcDbHatch
 10
0.0
 20
0.0
 30
0.0
210
0.0
220
0.0
230
1.0
  2
_USER
 70
     0
 71
     1
 91
        1
 92
        1
 93
       10
 72
     1
 10
-24.59644676369786
 20
7.444400685392822
 11
-25.83695117395075
 21
8.753176195597916
 72
     1
 10
-25.83695117395075
 20
8.753176195597916
 11
-27.02974387611835
 21
8.753176195597916
 72
     1
 10
-27.02974387611835
 20
8.753176195597916
 11
-27.02974387611835
 21
5.699366671786834
 72
     1
 10
-27.02974387611835
 20
5.699366671786834
 11
-25.83695117395075
 21
5.699366671786834
 72
     1
 10
-25.83695117395075
 20
5.699366671786834
 11
-25.83695117395075
 21
7.008142181991417
 72
     1
 10
-25.83695117395075
 20
7.008142181991417
 11
-24.59644676369786
 21
5.699366671786834
 72
     1
 10
-24.59644676369786
 20
5.699366671786834
 11
-23.40365406153146
 21
5.699366671786834
 72
     1
 10
-23.40365406153146
 20
5.699366671786834
 11
-23.40365406153146
 21
8.753176195597916
 72
     1
 10
-23.40365406153146
 20
8.753176195597916
 11
-24.59644676369786
 21
8.753176195597916
 72
     1
 10
-24.59644676369786
 20
8.753176195597916
 11
-24.59644676369786
 21
7.444400685392822
 97
       10
330
289
330
259
330
258
330
25B
330
284
330
285
330
25A
330
286
330
287
330
288
 75
     1
 76
     0
 52
45.0
 41
0.1
 77
     0
 78
     1
 53
45.0
 43
0.0
 44
0.0
 45
-0.0707106781186548
 46
0.0707106781186548
 79
     0
 98
        1
 10
0.0
 20
0.0
  0
HATCH
  5
312
330
A0
100
AcDbEntity
  8
1
  6
Continuous
 62
     2
100
AcDbHatch
 10
0.0
 20
0.0
 30
0.0
210
0.0
220
0.0
230
1.0
  2
_USER
 70
     0
 71
     1
 91
        1
 92
        1
 93
       10
 72
     1
 10
-19.34800794327813
 20
10.80359116156714
 11
-20.58851235353214
 21
12.11236667177232
 72
     1
 10
-20.58851235353214
 20
12.11236667177232
 11
-21.78130505569865
 21
12.11236667177232
 72
     1
 10
-21.78130505569865
 20
12.11236667177232
 11
-21.78130505569865
 21
9.058557147961125
 72
     1
 10
-21.78130505569865
 20
9.058557147961125
 11
-20.58851235353214
 21
9.058557147961125
 72
     1
 10
-20.58851235353214
 20
9.058557147961125
 11
-20.58851235353214
 21
10.36733265816582
 72
     1
 10
-20.58851235353214
 20
10.36733265816582
 11
-19.34800794327813
 21
9.058557147961125
 72
     1
 10
-19.34800794327813
 20
9.058557147961125
 11
-18.15521524111153
 21
9.058557147961125
 72
     1
 10
-18.15521524111153
 20
9.058557147961125
 11
-18.15521524111153
 21
12.11236667177232
 72
     1
 10
-18.15521524111153
 20
12.11236667177232
 11
-19.34800794327813
 21
12.11236667177232
 72
     1
 10
-19.34800794327813
 20
12.11236667177232
 11
-19.34800794327813
 21
10.80359116156714
 97
       10
330
28E
330
256
330
255
330
28F
330
254
330
28A
330
28B
330
28C
330
28D
330
257
 75
     1
 76
     0
 52
45.0
 41
0.1
 77
     0
 78
     1
 53
45.0
 43
0.0
 44
0.0
 45
-0.0707106781186548
 46
0.0707106781186548
 79
     0
 98
        1
 10
0.0
 20
0.0
  0
HATCH
  5
313
330
A0
100
AcDbEntity
  8
1
  6
Continuous
 62
     2
100
AcDbHatch
 10
0.0
 20
0.0
 30
0.0
210
0.0
220
0.0
230
1.0
  2
_USER
 70
     0
 71
     1
 91
        1
 92
        1
 93
       10
 72
     1
 10
-19.34800794327813
 20
10.80359116156714
 11
-20.58851235353214
 21
12.11236667177232
 72
     1
 10
-20.58851235353214
 20
12.11236667177232
 11
-21.78130505569865
 21
12.11236667177232
 72
     1
 10
-21.78130505569865
 20
12.11236667177232
 11
-21.78130505569865
 21
9.058557147961125
 72
     1
 10
-21.78130505569865
 20
9.058557147961125
 11
-20.58851235353214
 21
9.058557147961125
 72
     1
 10
-20.58851235353214
 20
9.058557147961125
 11
-20.58851235353214
 21
10.36733265816582
 72
     1
 10
-20.58851235353214
 20
10.36733265816582
 11
-19.34800794327813
 21
9.058557147961125
 72
     1
 10
-19.34800794327813
 20
9.058557147961125
 11
-18.15521524111153
 21
9.058557147961125
 72
     1
 10
-18.15521524111153
 20
9.058557147961125
 11
-18.15521524111153
 21
12.11236667177232
 72
     1
 10
-18.15521524111153
 20
12.11236667177232
 11
-19.34800794327813
 21
12.11236667177232
 72
     1
 10
-19.34800794327813
 20
12.11236667177232
 11
-19.34800794327813
 21
10.80359116156714
 97
       10
330
28E
330
256
330
255
330
28F
330
254
330
28A
330
28B
330
28C
330
28D
330
257
 75
     1
 76
     0
 52
45.0
 41
0.1
 77
     0
 78
     1
 53
45.0
 43
0.0
 44
0.0
 45
-0.0707106781186548
 46
0.0707106781186548
 79
     0
 98
        1
 10
0.0
 20
0.0
  0
HATCH
  5
314
330
A0
100
AcDbEntity
  8
1
  6
Continuous
 62
     2
100
AcDbHatch
 10
0.0
 20
0.0
 30
0.0
210
0.0
220
0.0
230
1.0
  2
_USER
 70
     0
 71
     1
 91
        1
 92
        1
 93
        8
 72
     1
 10
-20.44552816015764
 20
8.753176195597916
 11
-23.26051893727126
 21
8.753176195597916
 72
     1
 10
-23.26051893727126
 20
8.753176195597916
 11
-23.26051893727126
 21
7.967910889474325
 72
     1
 10
-23.26051893727126
 20
7.967910889474325
 11
-22.44941989979665
 21
7.967910889474325
 72
     1
 10
-22.44941989979665
 20
7.967910889474325
 11
-22.44941989979665
 21
5.699366671786834
 72
     1
 10
-22.44941989979665
 20
5.699366671786834
 11
-21.25662719763014
 21
5.699366671786834
 72
     1
 10
-21.25662719763014
 20
5.699366671786834
 11
-21.25662719763014
 21
7.967910889474325
 72
     1
 10
-21.25662719763014
 20
7.967910889474325
 11
-20.44552816015764
 21
7.967910889474325
 72
     1
 10
-20.44552816015764
 20
7.967910889474325
 11
-20.44552816015764
 21
8.753176195597916
 97
        8
330
250
330
290
330
24F
330
291
330
292
330
253
330
252
330
251
 75
     1
 76
     0
 52
45.0
 41
0.1
 77
     0
 78
     1
 53
45.0
 43
0.0
 44
0.0
 45
-0.0707106781186548
 46
0.0707106781186548
 79
     0
 98
        1
 10
0.0
 20
0.0
  0
HATCH
  5
315
330
A0
100
AcDbEntity
  8
1
  6
Continuous
 62
     2
100
AcDbHatch
 10
0.0
 20
0.0
 30
0.0
210
0.0
220
0.0
230
1.0
  2
_USER
 70
     0
 71
     1
 91
        1
 92
        1
 93
        8
 72
     1
 10
-20.44552816015764
 20
8.753176195597916
 11
-23.26051893727126
 21
8.753176195597916
 72
     1
 10
-23.26051893727126
 20
8.753176195597916
 11
-23.26051893727126
 21
7.967910889474325
 72
     1
 10
-23.26051893727126
 20
7.967910889474325
 11
-22.44941989979665
 21
7.967910889474325
 72
     1
 10
-22.44941989979665
 20
7.967910889474325
 11
-22.44941989979665
 21
5.699366671786834
 72
     1
 10
-22.44941989979665
 20
5.699366671786834
 11
-21.25662719763014
 21
5.699366671786834
 72
     1
 10
-21.25662719763014
 20
5.699366671786834
 11
-21.25662719763014
 21
7.967910889474325
 72
     1
 10
-21.25662719763014
 20
7.967910889474325
 11
-20.44552816015764
 21
7.967910889474325
 72
     1
 10
-20.44552816015764
 20
7.967910889474325
 11
-20.44552816015764
 21
8.753176195597916
 97
        8
330
250
330
290
330
24F
330
291
330
292
330
253
330
252
330
251
 75
     1
 76
     0
 52
45.0
 41
0.1
 77
     0
 78
     1
 53
45.0
 43
0.0
 44
0.0
 45
-0.0707106781186548
 46
0.0707106781186548
 79
     0
 98
        1
 10
0.0
 20
0.0
  0
HATCH
  5
316
330
A0
100
AcDbEntity
  8
1
  6
Continuous
 62
     2
100
AcDbHatch
 10
0.0
 20
0.0
 30
0.0
210
0.0
220
0.0
230
1.0
  2
_USER
 70
     0
 71
     1
 91
        2
 92
        1
 93
        8
 72
     1
 10
-18.30710070421065
 20
5.699366671786834
 11
-18.51858075768644
 21
6.240327216004715
 72
     1
 10
-18.51858075768644
 20
6.240327216004715
 11
-19.65102233436025
 21
6.240327216004715
 72
     1
 10
-19.65102233436025
 20
6.240327216004715
 11
-19.86250238783606
 21
5.699366671786834
 72
     1
 10
-19.86250238783606
 20
5.699366671786834
 11
-21.10300679808904
 21
5.699366671786834
 72
     1
 10
-21.10300679808904
 20
5.699366671786834
 11
-19.70505375114973
 21
8.753176195597916
 72
     1
 10
-19.70505375114973
 20
8.753176195597916
 11
-18.46454934089704
 21
8.753176195597916
 72
     1
 10
-18.46454934089704
 20
8.753176195597916
 11
-17.06659629395674
 21
5.699366671786834
 72
     1
 10
-17.06659629395674
 20
5.699366671786834
 11
-18.30710070421065
 21
5.699366671786834
 97
        8
330
294
330
295
330
24C
330
296
330
24B
330
24E
330
293
330
24D
 92
       16
 93
        3
 72
     1
 10
-19.38496678321525
 20
6.920890481311318
 11
-19.08480154602285
 21
7.68870544729802
 72
     1
 10
-19.08480154602285
 20
7.68870544729802
 11
-18.78463630883275
 21
6.920890481311318
 72
     1
 10
-18.78463630883275
 20
6.920890481311318
 11
-19.38496678321525
 21
6.920890481311318
 97
        3
330
24A
330
298
330
297
 75
     1
 76
     0
 52
45.0
 41
0.1
 77
     0
 78
     1
 53
45.0
 43
0.0
 44
0.0
 45
-0.0707106781186548
 46
0.0707106781186548
 79
     0
 98
        1
 10
0.0
 20
0.0
  0
HATCH
  5
317
330
A0
100
AcDbEntity
  8
1
  6
Continuous
 62
     2
100
AcDbHatch
 10
0.0
 20
0.0
 30
0.0
210
0.0
220
0.0
230
1.0
  2
_USER
 70
     0
 71
     1
 91
        2
 92
        1
 93
        8
 72
     1
 10
-18.30710070421065
 20
5.699366671786834
 11
-18.51858075768644
 21
6.240327216004715
 72
     1
 10
-18.51858075768644
 20
6.240327216004715
 11
-19.65102233436025
 21
6.240327216004715
 72
     1
 10
-19.65102233436025
 20
6.240327216004715
 11
-19.86250238783606
 21
5.699366671786834
 72
     1
 10
-19.86250238783606
 20
5.699366671786834
 11
-21.10300679808904
 21
5.699366671786834
 72
     1
 10
-21.10300679808904
 20
5.699366671786834
 11
-19.70505375114973
 21
8.753176195597916
 72
     1
 10
-19.70505375114973
 20
8.753176195597916
 11
-18.46454934089704
 21
8.753176195597916
 72
     1
 10
-18.46454934089704
 20
8.753176195597916
 11
-17.06659629395674
 21
5.699366671786834
 72
     1
 10
-17.06659629395674
 20
5.699366671786834
 11
-18.30710070421065
 21
5.699366671786834
 97
        8
330
294
330
295
330
24C
330
296
330
24B
330
24E
330
293
330
24D
 92
       16
 93
        3
 72
     1
 10
-19.38496678321525
 20
6.920890481311318
 11
-19.08480154602285
 21
7.68870544729802
 72
     1
 10
-19.08480154602285
 20
7.68870544729802
 11
-18.78463630883275
 21
6.920890481311318
 72
     1
 10
-18.78463630883275
 20
6.920890481311318
 11
-19.38496678321525
 21
6.920890481311318
 97
        3
330
24A
330
298
330
297
 75
     1
 76
     0
 52
45.0
 41
0.1
 77
     0
 78
     1
 53
45.0
 43
0.0
 44
0.0
 45
-0.0707106781186548
 46
0.0707106781186548
 79
     0
 98
        1
 10
0.0
 20
0.0
  0
HATCH
  5
318
330
A0
100
AcDbEntity
  8
1
  6
Continuous
 62
     2
100
AcDbHatch
 10
0.0
 20
0.0
 30
0.0
210
0.0
220
0.0
230
1.0
  2
_USER
 70
     0
 71
     1
 91
        1
 92
        1
 93
        4
 72
     1
 10
-16.67615229042474
 20
9.058557147961125
 11
-17.91665670067764
 21
9.058557147961125
 72
     1
 10
-17.91665670067764
 20
9.058557147961125
 11
-17.91665670067764
 21
12.11236667177232
 72
     1
 10
-17.91665670067764
 20
12.11236667177232
 11
-16.67615229042474
 21
12.11236667177232
 72
     1
 10
-16.67615229042474
 20
12.11236667177232
 11
-16.67615229042474
 21
9.058557147961125
 97
        4
330
247
330
249
330
299
330
248
 75
     1
 76
     0
 52
45.0
 41
0.1
 77
     0
 78
     1
 53
45.0
 43
0.0
 44
0.0
 45
-0.0707106781186548
 46
0.0707106781186548
 79
     0
 98
        1
 10
0.0
 20
0.0
  0
HATCH
  5
319
330
A0
100
AcDbEntity
  8
1
  6
Continuous
 62
     2
100
AcDbHatch
 10
0.0
 20
0.0
 30
0.0
210
0.0
220
0.0
230
1.0
  2
_USER
 70
     0
 71
     1
 91
        1
 92
        1
 93
        4
 72
     1
 10
-16.67615229042474
 20
9.058557147961125
 11
-17.91665670067764
 21
9.058557147961125
 72
     1
 10
-17.91665670067764
 20
9.058557147961125
 11
-17.91665670067764
 21
12.11236667177232
 72
     1
 10
-17.91665670067764
 20
12.11236667177232
 11
-16.67615229042474
 21
12.11236667177232
 72
     1
 10
-16.67615229042474
 20
12.11236667177232
 11
-16.67615229042474
 21
9.058557147961125
 97
        4
330
247
330
249
330
299
330
248
 75
     1
 76
     0
 52
45.0
 41
0.1
 77
     0
 78
     1
 53
45.0
 43
0.0
 44
0.0
 45
-0.0707106781186548
 46
0.0707106781186548
 79
     0
 98
        1
 10
0.0
 20
0.0
  0
HATCH
  5
31A
330
A0
100
AcDbEntity
  8
1
  6
Continuous
 62
     2
100
AcDbHatch
 10
0.0
 20
0.0
 30
0.0
210
0.0
220
0.0
230
1.0
  2
_USER
 70
     0
 71
     1
 91
        1
 92
        1
 93
       12
 72
     1
 10
-12.45366612475394
 20
12.11236667177232
 11
-13.75619575552045
 21
10.63941614173612
 72
     1
 10
-13.75619575552045
 20
10.63941614173612
 11
-12.35824270858015
 21
9.058557147961125
 72
     1
 10
-12.35824270858015
 20
9.058557147961125
 11
-13.76096692632845
 21
9.058557147961125
 72
     1
 10
-13.76096692632845
 20
9.058557147961125
 11
-14.45755786439395
 21
9.84628893325484
 72
     1
 10
-14.45755786439395
 20
9.84628893325484
 11
-15.15414880245965
 21
9.058557147961125
 72
     1
 10
-15.15414880245965
 20
9.058557147961125
 11
-16.55687302020786
 21
9.058557147961125
 72
     1
 10
-16.55687302020786
 20
9.058557147961125
 11
-15.15891997326756
 21
10.63941614173612
 72
     1
 10
-15.15891997326756
 20
10.63941614173612
 11
-16.46144960403504
 21
12.11236667177232
 72
     1
 10
-16.46144960403504
 20
12.11236667177232
 11
-15.05872538628574
 21
12.11236667177232
 72
     1
 10
-15.05872538628574
 20
12.11236667177232
 11
-14.45755786439395
 21
11.43254335021683
 72
     1
 10
-14.45755786439395
 20
11.43254335021683
 11
-13.85639034250116
 21
12.11236667177232
 72
     1
 10
-13.85639034250116
 20
12.11236667177232
 11
-12.45366612475394
 21
12.11236667177232
 97
       12
330
242
330
241
330
240
330
29D
330
29E
330
29A
330
29B
330
246
330
245
330
244
330
243
330
29C
 75
     1
 76
     0
 52
45.0
 41
0.1
 77
     0
 78
     1
 53
45.0
 43
0.0
 44
0.0
 45
-0.0707106781186548
 46
0.0707106781186548
 79
     0
 98
        1
 10
0.0
 20
0.0
  0
HATCH
  5
31B
330
A0
100
AcDbEntity
  8
1
  6
Continuous
 62
     2
100
AcDbHatch
 10
0.0
 20
0.0
 30
0.0
210
0.0
220
0.0
230
1.0
  2
_USER
 70
     0
 71
     1
 91
        1
 92
        1
 93
       12
 72
     1
 10
-12.45366612475394
 20
12.11236667177232
 11
-13.75619575552045
 21
10.63941614173612
 72
     1
 10
-13.75619575552045
 20
10.63941614173612
 11
-12.35824270858015
 21
9.058557147961125
 72
     1
 10
-12.35824270858015
 20
9.058557147961125
 11
-13.76096692632845
 21
9.058557147961125
 72
     1
 10
-13.76096692632845
 20
9.058557147961125
 11
-14.45755786439395
 21
9.84628893325484
 72
     1
 10
-14.45755786439395
 20
9.84628893325484
 11
-15.15414880245965
 21
9.058557147961125
 72
     1
 10
-15.15414880245965
 20
9.058557147961125
 11
-16.55687302020786
 21
9.058557147961125
 72
     1
 10
-16.55687302020786
 20
9.058557147961125
 11
-15.15891997326756
 21
10.63941614173612
 72
     1
 10
-15.15891997326756
 20
10.63941614173612
 11
-16.46144960403504
 21
12.11236667177232
 72
     1
 10
-16.46144960403504
 20
12.11236667177232
 11
-15.05872538628574
 21
12.11236667177232
 72
     1
 10
-15.05872538628574
 20
12.11236667177232
 11
-14.45755786439395
 21
11.43254335021683
 72
     1
 10
-14.45755786439395
 20
11.43254335021683
 11
-13.85639034250116
 21
12.11236667177232
 72
     1
 10
-13.85639034250116
 20
12.11236667177232
 11
-12.45366612475394
 21
12.11236667177232
 97
       12
330
242
330
241
330
240
330
29D
330
29E
330
29A
330
29B
330
246
330
245
330
244
330
243
330
29C
 75
     1
 76
     0
 52
45.0
 41
0.1
 77
     0
 78
     1
 53
45.0
 43
0.0
 44
0.0
 45
-0.0707106781186548
 46
0.0707106781186548
 79
     0
 98
        1
 10
0.0
 20
0.0
  0
HATCH
  5
31C
330
A0
100
AcDbEntity
  8
1
  6
Continuous
 62
     2
100
AcDbHatch
 10
0.0
 20
0.0
 30
0.0
210
0.0
220
0.0
230
1.0
  2
_USER
 70
     0
 71
     1
 91
        2
 92
        1
 93
        6
 72
     1
 10
-31.47140153889995
 20
10.00163538910493
 11
-32.23016912668024
 21
10.00163538910493
 72
     1
 10
-32.23016912668024
 20
10.00163538910493
 11
-32.23016912668024
 21
9.058557147961125
 72
     1
 10
-32.23016912668024
 20
9.058557147961125
 11
-33.47067353693436
 21
9.058557147961125
 72
     1
 10
-33.47067353693436
 20
9.058557147961125
 11
-33.47067353693436
 21
12.11236667177232
 72
     1
 10
-33.47067353693436
 20
12.11236667177232
 11
-31.47140153889995
 21
12.11236667177232
 72
     2
 10
-31.47140153889995
 20
11.05700103043864
 40
1.05536564133371
 50
270.0
 51
450.0
 73
     0
 97
        6
330
26A
330
269
330
276
330
275
330
26B
330
2BB
 92
       16
 93
        4
 72
     2
 10
-31.91287406513834
 20
11.09639700166113
 40
0.35286382467112
 50
270.0
 51
450.0
 73
     1
 72
     1
 10
-31.91287406513834
 20
11.44926082633222
 11
-32.23016912668024
 21
11.44926082633222
 72
     1
 10
-32.23016912668024
 20
11.44926082633222
 11
-32.23016912668024
 21
10.74353317699001
 72
     1
 10
-32.23016912668024
 20
10.74353317699001
 11
-31.91287406513834
 21
10.74353317699001
 97
        4
330
2CF
330
267
330
277
330
268
 75
     1
 76
     0
 52
45.0
 41
0.1
 77
     0
 78
     1
 53
45.0
 43
0.0
 44
0.0
 45
-0.0707106781186548
 46
0.0707106781186548
 79
     0
 98
        1
 10
0.0
 20
0.0
  0
HATCH
  5
31D
330
A0
100
AcDbEntity
  8
1
  6
Continuous
 62
     2
100
AcDbHatch
 10
0.0
 20
0.0
 30
0.0
210
0.0
220
0.0
230
1.0
  2
_USER
 70
     0
 71
     1
 91
        2
 92
        1
 93
        6
 72
     1
 10
-31.47140153889995
 20
10.00163538910493
 11
-32.23016912668024
 21
10.00163538910493
 72
     1
 10
-32.23016912668024
 20
10.00163538910493
 11
-32.23016912668024
 21
9.058557147961125
 72
     1
 10
-32.23016912668024
 20
9.058557147961125
 11
-33.47067353693436
 21
9.058557147961125
 72
     1
 10
-33.47067353693436
 20
9.058557147961125
 11
-33.47067353693436
 21
12.11236667177232
 72
     1
 10
-33.47067353693436
 20
12.11236667177232
 11
-31.47140153889995
 21
12.11236667177232
 72
     2
 10
-31.47140153889995
 20
11.05700103043864
 40
1.05536564133371
 50
270.0
 51
450.0
 73
     0
 97
        6
330
26A
330
269
330
276
330
275
330
26B
330
2BB
 92
       16
 93
        4
 72
     2
 10
-31.91287406513834
 20
11.09639700166113
 40
0.35286382467112
 50
270.0
 51
450.0
 73
     1
 72
     1
 10
-31.91287406513834
 20
11.44926082633222
 11
-32.23016912668024
 21
11.44926082633222
 72
     1
 10
-32.23016912668024
 20
11.44926082633222
 11
-32.23016912668024
 21
10.74353317699001
 72
     1
 10
-32.23016912668024
 20
10.74353317699001
 11
-31.91287406513834
 21
10.74353317699001
 97
        4
330
2CF
330
267
330
277
330
268
 75
     1
 76
     0
 52
45.0
 41
0.1
 77
     0
 78
     1
 53
45.0
 43
0.0
 44
0.0
 45
-0.0707106781186548
 46
0.0707106781186548
 79
     0
 98
        1
 10
0.0
 20
0.0
  0
HATCH
  5
31E
330
A0
100
AcDbEntity
  8
1
  6
Continuous
 62
     2
100
AcDbHatch
 10
0.0
 20
0.0
 30
0.0
210
0.0
220
0.0
230
1.0
  2
_USER
 70
     0
 71
     1
 91
        2
 92
        1
 93
        4
 72
     2
 10
-28.91485879054085
 20
6.687696423389326
 40
2.065479772208571
 50
62.45185182430619
 51
117.5481481756664
 73
     1
 72
     2
 10
-29.19579868237415
 20
7.226271433692119
 40
1.45803408365149
 50
117.5481481756624
 51
242.4518518243375
 73
     1
 72
     2
 10
-28.91485879054085
 20
7.764846443995424
 40
2.065479772208509
 50
242.4518518243402
 51
297.5481481756872
 73
     1
 72
     2
 10
-28.63391889870755
 20
7.226271433692119
 40
1.458034083652004
 50
297.5481481757012
 51
422.4518518242988
 73
     1
 97
        4
330
2C7
330
2C6
330
2C8
330
2C5
 92
       16
 93
        4
 72
     2
 10
-29.11459882688726
 20
7.226271433692119
 40
0.7717997786796947
 50
321.8795802028417
 51
398.1204197971533
 73
     1
 72
     2
 10
-28.91485879054085
 20
7.383002611812628
 40
0.5179085730133026
 50
38.12041979714679
 51
141.8795802028585
 73
     1
 72
     2
 10
-28.71511875419475
 20
7.226271433692119
 40
0.7717997786794605
 50
141.8795802028361
 51
218.1204197971688
 73
     1
 72
     2
 10
-28.91485879054085
 20
7.069540255572122
 40
0.5179085730137326
 50
218.1204197971934
 51
321.8795802028013
 73
     1
 97
        4
330
2E3
330
2E0
330
2E1
330
2E2
 75
     1
 76
     0
 52
45.0
 41
0.1
 77
     0
 78
     1
 53
45.0
 43
0.0
 44
0.0
 45
-0.0707106781186548
 46
0.0707106781186548
 79
     0
 98
        1
 10
0.0
 20
0.0
  0
HATCH
  5
31F
330
A0
100
AcDbEntity
  8
1
  6
Continuous
 62
     2
100
AcDbHatch
 10
0.0
 20
0.0
 30
0.0
210
0.0
220
0.0
230
1.0
  2
_USER
 70
     0
 71
     1
 91
        2
 92
        1
 93
        4
 72
     2
 10
-28.91485879054085
 20
6.687696423389326
 40
2.065479772208571
 50
62.45185182430619
 51
117.5481481756664
 73
     1
 72
     2
 10
-29.19579868237415
 20
7.226271433692119
 40
1.45803408365149
 50
117.5481481756624
 51
242.4518518243375
 73
     1
 72
     2
 10
-28.91485879054085
 20
7.764846443995424
 40
2.065479772208509
 50
242.4518518243402
 51
297.5481481756872
 73
     1
 72
     2
 10
-28.63391889870755
 20
7.226271433692119
 40
1.458034083652004
 50
297.5481481757012
 51
422.4518518242988
 73
     1
 97
        4
330
2C7
330
2C6
330
2C8
330
2C5
 92
       16
 93
        4
 72
     2
 10
-29.11459882688726
 20
7.226271433692119
 40
0.7717997786796947
 50
321.8795802028417
 51
398.1204197971533
 73
     1
 72
     2
 10
-28.91485879054085
 20
7.383002611812628
 40
0.5179085730133026
 50
38.12041979714679
 51
141.8795802028585
 73
     1
 72
     2
 10
-28.71511875419475
 20
7.226271433692119
 40
0.7717997786794605
 50
141.8795802028361
 51
218.1204197971688
 73
     1
 72
     2
 10
-28.91485879054085
 20
7.069540255572122
 40
0.5179085730137326
 50
218.1204197971934
 51
321.8795802028013
 73
     1
 97
        4
330
2E3
330
2E0
330
2E1
330
2E2
 75
     1
 76
     0
 52
45.0
 41
0.1
 77
     0
 78
     1
 53
45.0
 43
0.0
 44
0.0
 45
-0.0707106781186548
 46
0.0707106781186548
 79
     0
 98
        1
 10
0.0
 20
0.0
  0
HATCH
  5
320
330
A0
100
AcDbEntity
  8
1
  6
Continuous
 62
     2
100
AcDbHatch
 10
0.0
 20
0.0
 30
0.0
210
0.0
220
0.0
230
1.0
  2
_USER
 70
     0
 71
     1
 91
        2
 92
        1
 93
       12
 72
     1
 10
-22.01986359613156
 20
11.41435306632934
 11
-23.35579142255924
 21
11.41435306632934
 72
     1
 10
-23.35579142255924
 20
11.41435306632934
 11
-23.35579142255924
 21
10.93446871258763
 72
     1
 10
-23.35579142255924
 20
10.93446871258763
 11
-22.01986359613156
 21
10.93446871258763
 72
     1
 10
-22.01986359613156
 20
10.93446871258763
 11
-22.01986359613156
 21
10.23645510714533
 72
     1
 10
-22.01986359613156
 20
10.23645510714533
 11
-23.35579142255924
 21
10.23645510714533
 72
     1
 10
-23.35579142255924
 20
10.23645510714533
 11
-23.35579142255924
 21
9.756570753403622
 72
     1
 10
-23.35579142255924
 20
9.756570753403622
 11
-22.01986359613156
 21
9.756570753403622
 72
     1
 10
-22.01986359613156
 20
9.756570753403622
 11
-22.01986359613156
 21
9.058557147961125
 72
     1
 10
-22.01986359613156
 20
9.058557147961125
 11
-25.17018331991255
 21
9.058557147961125
 72
     2
 10
-25.17018331991255
 20
10.58546190986644
 40
1.526904761905879
 50
90.0
 51
270.0
 73
     0
 72
     1
 10
-25.17018331991255
 20
12.11236667177232
 11
-22.01986359613156
 21
12.11236667177232
 72
     1
 10
-22.01986359613156
 20
12.11236667177232
 11
-22.01986359613156
 21
11.41435306632934
 97
       12
330
27E
330
2D0
330
27F
330
280
330
281
330
282
330
25F
330
25E
330
25D
330
25C
330
283
330
27D
 92
       16
 93
        4
 72
     2
 10
-24.95391130974736
 20
10.74219308798692
 40
0.5179085730135332
 50
38.12041979714301
 51
141.8795802028485
 73
     1
 72
     2
 10
-24.75417127340106
 20
10.58546190986644
 40
0.7717997786796724
 50
141.8795802028404
 51
218.1204197971561
 73
     1
 72
     2
 10
-24.95391130974736
 20
10.42873073174602
 40
0.5179085730134354
 50
218.1204197971515
 51
321.879580202857
 73
     1
 72
     2
 10
-25.15365134609354
 20
10.58546190986644
 40
0.7717997786796362
 50
321.8795802028439
 51
398.1204197971596
 73
     1
 97
        4
330
2CA
330
2C9
330
2C4
330
2C3
 75
     1
 76
     0
 52
45.0
 41
0.1
 77
     0
 78
     1
 53
45.0
 43
0.0
 44
0.0
 45
-0.0707106781186548
 46
0.0707106781186548
 79
     0
 98
        1
 10
0.0
 20
0.0
  0
HATCH
  5
321
330
A0
100
AcDbEntity
  8
1
  6
Continuous
 62
     2
100
AcDbHatch
 10
0.0
 20
0.0
 30
0.0
210
0.0
220
0.0
230
1.0
  2
_USER
 70
     0
 71
     1
 91
        2
 92
        1
 93
       12
 72
     1
 10
-22.01986359613156
 20
11.41435306632934
 11
-23.35579142255924
 21
11.41435306632934
 72
     1
 10
-23.35579142255924
 20
11.41435306632934
 11
-23.35579142255924
 21
10.93446871258763
 72
     1
 10
-23.35579142255924
 20
10.93446871258763
 11
-22.01986359613156
 21
10.93446871258763
 72
     1
 10
-22.01986359613156
 20
10.93446871258763
 11
-22.01986359613156
 21
10.23645510714533
 72
     1
 10
-22.01986359613156
 20
10.23645510714533
 11
-23.35579142255924
 21
10.23645510714533
 72
     1
 10
-23.35579142255924
 20
10.23645510714533
 11
-23.35579142255924
 21
9.756570753403622
 72
     1
 10
-23.35579142255924
 20
9.756570753403622
 11
-22.01986359613156
 21
9.756570753403622
 72
     1
 10
-22.01986359613156
 20
9.756570753403622
 11
-22.01986359613156
 21
9.058557147961125
 72
     1
 10
-22.01986359613156
 20
9.058557147961125
 11
-25.17018331991255
 21
9.058557147961125
 72
     2
 10
-25.17018331991255
 20
10.58546190986644
 40
1.526904761905879
 50
90.0
 51
270.0
 73
     0
 72
     1
 10
-25.17018331991255
 20
12.11236667177232
 11
-22.01986359613156
 21
12.11236667177232
 72
     1
 10
-22.01986359613156
 20
12.11236667177232
 11
-22.01986359613156
 21
11.41435306632934
 97
       12
330
27E
330
2D0
330
27F
330
280
330
281
330
282
330
25F
330
25E
330
25D
330
25C
330
283
330
27D
 92
       16
 93
        4
 72
     2
 10
-24.95391130974736
 20
10.74219308798692
 40
0.5179085730135332
 50
38.12041979714301
 51
141.8795802028485
 73
     1
 72
     2
 10
-24.75417127340106
 20
10.58546190986644
 40
0.7717997786796724
 50
141.8795802028404
 51
218.1204197971561
 73
     1
 72
     2
 10
-24.95391130974736
 20
10.42873073174602
 40
0.5179085730134354
 50
218.1204197971515
 51
321.879580202857
 73
     1
 72
     2
 10
-25.15365134609354
 20
10.58546190986644
 40
0.7717997786796362
 50
321.8795802028439
 51
398.1204197971596
 73
     1
 97
        4
330
2CA
330
2C9
330
2C4
330
2C3
 75
     1
 76
     0
 52
45.0
 41
0.1
 77
     0
 78
     1
 53
45.0
 43
0.0
 44
0.0
 45
-0.0707106781186548
 46
0.0707106781186548
 79
     0
 98
        1
 10
0.0
 20
0.0
  0
HATCH
  5
322
330
A0
100
AcDbEntity
  8
1
  6
Continuous
 62
     2
100
AcDbHatch
 10
0.0
 20
0.0
 30
0.0
210
0.0
220
0.0
230
1.0
  2
_USER
 70
     0
 71
     1
 91
        4
 92
        1
 93
        8
 72
     1
 10
-33.94779061780116
 20
11.68812205637033
 11
-33.94779061780116
 21
6.123611287170121
 72
     2
 10
-34.37203523318505
 20
6.123611287170121
 40
0.4242446153832873
 50
0.0
 51
90.0
 73
     0
 72
     1
 10
-34.37203523318505
 20
5.699366671786834
 11
-39.84534732390185
 21
5.699366671786834
 72
     2
 10
-39.84534732390185
 20
6.123611287170121
 40
0.4242446153828041
 50
90.0
 51
180.0
 73
     0
 72
     1
 10
-40.26959193928465
 20
6.123611287170121
 11
-40.26959193928465
 21
11.68812205637033
 72
     2
 10
-39.84534732390185
 20
11.68812205637033
 40
0.4242446153837989
 50
180.0
 51
270.0
 73
     0
 72
     1
 10
-39.84534732390185
 20
12.11236667175413
 11
-34.37203523318505
 21
12.11236667175413
 72
     2
 10
-34.37203523318505
 20
11.68812205637033
 40
0.4242446153838912
 50
270.0
 51
360.0
 73
     0
 97
        8
330
272
330
2C0
330
273
330
2CB
330
270
330
2C2
330
271
330
2C1
 92
       16
 93
        1
 72
     2
 10
-37.22576167338434
 20
9.369239828014827
 40
0.4709789327785074
 50
0.0
 51
360.0
 73
     1
 97
        1
330
2E6
 92
       16
 93
        8
 72
     2
 10
-36.67590396062366
 20
8.260098228046417
 40
0.3157169230765328
 50
115.3740086783519
 51
180.0
 73
     1
 72
     1
 10
-36.99162088370045
 20
8.260098228046417
 11
-36.99162088370045
 21
7.678246821351337
 72
     2
 10
-36.67590396062366
 20
7.678246821351337
 40
0.315716923076792
 50
180.0
 51
269.8110329574529
 73
     1
 72
     2
 10
-36.67028782531364
 20
9.381081768920325
 40
2.018561131933266
 50
269.8110329575858
 51
450.1889670424142
 73
     1
 72
     2
 10
-36.67590396062366
 20
11.08391671648943
 40
0.315716923076064
 50
90.18896704254722
 51
180.0
 73
     1
 72
     1
 10
-36.99162088370045
 20
11.08391671648943
 11
-36.99162088370045
 21
10.47838142798264
 72
     2
 10
-36.67590396062366
 20
10.47838142798264
 40
0.315716923076792
 50
180.0
 51
244.6259913216483
 73
     1
 72
     2
 10
-37.20194665871154
 20
9.369239828014827
 40
0.9118481501444621
 50
295.374008678193
 51
424.6259913218232
 73
     0
 97
        8
330
2D8
330
239
330
2D5
330
2D6
330
2B4
330
238
330
2D7
330
2B3
 92
       16
 93
       12
 72
     2
 10
-39.25145264715536
 20
6.72763915042043
 40
0.3157169230756764
 50
180.0
 51
270.0
 73
     1
 72
     1
 10
-39.25145264715536
 20
6.411922227343723
 11
-37.77561938614574
 21
6.411922227343723
 72
     2
 10
-37.77561938614574
 20
6.72763915042043
 40
0.3157169230767067
 50
270.0
 51
360.0
 73
     1
 72
     1
 10
-37.45990246306914
 20
6.72763915042043
 11
-37.45990246306914
 21
8.258410081952036
 72
     2
 10
-37.77561938614574
 20
8.258410081952036
 40
0.3157169230766002
 50
0.0
 51
64.8055893514591
 73
     1
 72
     2
 10
-37.25303493857075
 20
9.369239828014827
 40
0.911897523557613
 50
115.1944106485122
 51
244.8055893514717
 73
     0
 72
     2
 10
-37.77561938614574
 20
10.48006957407702
 40
0.3157169230761233
 50
295.1944106485409
 51
360.0
 73
     1
 72
     1
 10
-37.45990246306914
 20
10.48006957407702
 11
-37.45990246306914
 21
11.08409419313753
 72
     2
 10
-37.77561938614574
 20
11.08409419313753
 40
0.3157169230766002
 50
0.0
 51
90.0
 73
     1
 72
     1
 10
-37.77561938614574
 20
11.39981111621373
 11
-39.25145264715536
 21
11.39981111621373
 72
     2
 10
-39.25145264715536
 20
11.08409419313753
 40
0.3157169230762005
 50
90.0
 51
180.0
 73
     1
 72
     1
 10
-39.56716957023104
 20
11.08409419313753
 11
-39.56716957023104
 21
6.72763915042043
 97
       12
330
2BC
330
274
330
2BF
330
26F
330
2CC
330
2CD
330
2BE
330
26E
330
2BD
330
26D
330
2CE
330
26C
 75
     1
 76
     0
 52
45.0
 41
0.1
 77
     0
 78
     1
 53
45.0
 43
0.0
 44
0.0
 45
-0.0707106781186548
 46
0.0707106781186548
 79
     0
 98
        1
 10
0.0
 20
0.0
  0
HATCH
  5
323
330
A0
100
AcDbEntity
  8
1
  6
Continuous
 62
     2
100
AcDbHatch
 10
0.0
 20
0.0
 30
0.0
210
0.0
220
0.0
230
1.0
  2
_USER
 70
     0
 71
     1
 91
        4
 92
        1
 93
        8
 72
     1
 10
-33.94779061780116
 20
11.68812205637033
 11
-33.94779061780116
 21
6.123611287170121
 72
     2
 10
-34.37203523318505
 20
6.123611287170121
 40
0.4242446153832873
 50
0.0
 51
90.0
 73
     0
 72
     1
 10
-34.37203523318505
 20
5.699366671786834
 11
-39.84534732390185
 21
5.699366671786834
 72
     2
 10
-39.84534732390185
 20
6.123611287170121
 40
0.4242446153828041
 50
90.0
 51
180.0
 73
     0
 72
     1
 10
-40.26959193928465
 20
6.123611287170121
 11
-40.26959193928465
 21
11.68812205637033
 72
     2
 10
-39.84534732390185
 20
11.68812205637033
 40
0.4242446153837989
 50
180.0
 51
270.0
 73
     0
 72
     1
 10
-39.84534732390185
 20
12.11236667175413
 11
-34.37203523318505
 21
12.11236667175413
 72
     2
 10
-34.37203523318505
 20
11.68812205637033
 40
0.4242446153838912
 50
270.0
 51
360.0
 73
     0
 97
        8
330
272
330
2C0
330
273
330
2CB
330
270
330
2C2
330
271
330
2C1
 92
       16
 93
        1
 72
     2
 10
-37.22576167338434
 20
9.369239828014827
 40
0.4709789327785074
 50
0.0
 51
360.0
 73
     1
 97
        1
330
2E6
 92
       16
 93
        8
 72
     2
 10
-36.67590396062366
 20
8.260098228046417
 40
0.3157169230765328
 50
115.3740086783519
 51
180.0
 73
     1
 72
     1
 10
-36.99162088370045
 20
8.260098228046417
 11
-36.99162088370045
 21
7.678246821351337
 72
     2
 10
-36.67590396062366
 20
7.678246821351337
 40
0.315716923076792
 50
180.0
 51
269.8110329574529
 73
     1
 72
     2
 10
-36.67028782531364
 20
9.381081768920325
 40
2.018561131933266
 50
269.8110329575858
 51
450.1889670424142
 73
     1
 72
     2
 10
-36.67590396062366
 20
11.08391671648943
 40
0.315716923076064
 50
90.18896704254722
 51
180.0
 73
     1
 72
     1
 10
-36.99162088370045
 20
11.08391671648943
 11
-36.99162088370045
 21
10.47838142798264
 72
     2
 10
-36.67590396062366
 20
10.47838142798264
 40
0.315716923076792
 50
180.0
 51
244.6259913216483
 73
     1
 72
     2
 10
-37.20194665871154
 20
9.369239828014827
 40
0.9118481501444621
 50
295.374008678193
 51
424.6259913218232
 73
     0
 97
        8
330
2D8
330
239
330
2D5
330
2D6
330
2B4
330
238
330
2D7
330
2B3
 92
       16
 93
       12
 72
     2
 10
-39.25145264715536
 20
6.72763915042043
 40
0.3157169230756764
 50
180.0
 51
270.0
 73
     1
 72
     1
 10
-39.25145264715536
 20
6.411922227343723
 11
-37.77561938614574
 21
6.411922227343723
 72
     2
 10
-37.77561938614574
 20
6.72763915042043
 40
0.3157169230767067
 50
270.0
 51
360.0
 73
     1
 72
     1
 10
-37.45990246306914
 20
6.72763915042043
 11
-37.45990246306914
 21
8.258410081952036
 72
     2
 10
-37.77561938614574
 20
8.258410081952036
 40
0.3157169230766002
 50
0.0
 51
64.8055893514591
 73
     1
 72
     2
 10
-37.25303493857075
 20
9.369239828014827
 40
0.911897523557613
 50
115.1944106485122
 51
244.8055893514717
 73
     0
 72
     2
 10
-37.77561938614574
 20
10.48006957407702
 40
0.3157169230761233
 50
295.1944106485409
 51
360.0
 73
     1
 72
     1
 10
-37.45990246306914
 20
10.48006957407702
 11
-37.45990246306914
 21
11.08409419313753
 72
     2
 10
-37.77561938614574
 20
11.08409419313753
 40
0.3157169230766002
 50
0.0
 51
90.0
 73
     1
 72
     1
 10
-37.77561938614574
 20
11.39981111621373
 11
-39.25145264715536
 21
11.39981111621373
 72
     2
 10
-39.25145264715536
 20
11.08409419313753
 40
0.3157169230762005
 50
90.0
 51
180.0
 73
     1
 72
     1
 10
-39.56716957023104
 20
11.08409419313753
 11
-39.56716957023104
 21
6.72763915042043
 97
       12
330
2BC
330
274
330
2BF
330
26F
330
2CC
330
2CD
330
2BE
330
26E
330
2BD
330
26D
330
2CE
330
26C
 75
     1
 76
     0
 52
45.0
 41
0.1
 77
     0
 78
     1
 53
45.0
 43
0.0
 44
0.0
 45
-0.0707106781186548
 46
0.0707106781186548
 79
     0
 98
        1
 10
0.0
 20
0.0
  0
HATCH
  5
324
330
A0
100
AcDbEntity
  8
1
  6
Continuous
 62
     2
100
AcDbHatch
 10
0.0
 20
0.0
 30
0.0
210
0.0
220
0.0
230
1.0
  2
_USER
 70
     0
 71
     1
 91
        1
 92
        1
 93
       18
 72
     1
 10
-12.35824270858015
 20
7.967910889474325
 11
-13.16934174605353
 21
7.967910889474325
 72
     1
 10
-13.16934174605353
 20
7.967910889474325
 11
-13.16934174605353
 21
5.699366671786834
 72
     1
 10
-13.16934174605353
 20
5.699366671786834
 11
-14.36213444822124
 21
5.699366671786834
 72
     1
 10
-14.36213444822124
 20
5.699366671786834
 11
-14.36213444822124
 21
7.967910889474325
 72
     1
 10
-14.36213444822124
 20
7.967910889474325
 11
-15.46577374778934
 21
7.967910889474325
 72
     2
 10
-15.46577374778934
 20
7.013387882648232
 40
0.9545230068260935
 50
90.0
 51
109.337143219432
 73
     1
 72
     2
 10
-15.61244374589305
 20
7.431342863031119
 40
0.5115800601944125
 50
109.3371432194847
 51
151.4785267424221
 73
     1
 72
     2
 10
-15.23508648781166
 20
7.226271433692119
 40
0.9410597353348862
 50
151.4785267423622
 51
208.5214732576697
 73
     1
 72
     2
 10
-15.61244374589305
 20
7.021200004353631
 40
0.5115800601960153
 50
208.521473257687
 51
246.6277221118453
 73
     1
 72
     2
 10
-15.45600371318994
 20
7.383192023063629
 40
0.9059297849852822
 50
246.6277221118181
 51
288.4480761180811
 73
     1
 72
     2
 10
-15.87417144685185
 20
8.636737799100217
 40
2.227384008972745
 50
288.4480761181334
 51
301.9309089499399
 73
     1
 72
     1
 10
-14.69611640482793
 20
6.746387079950438
 11
-14.69611640482793
 21
5.873870073147117
 72
     2
 10
-16.03204432194465
 20
10.53895237894852
 40
4.852596863498821
 50
74.02000874166129
 51
84.8418552303637
 73
     0
 72
     2
 10
-15.74318822720883
 20
7.339061795726934
 40
1.639695123940455
 50
84.84185523032396
 51
164.9381082228989
 73
     0
 72
     2
 10
-16.16231607067044
 20
7.226271433692119
 40
1.205656168393009
 50
164.9381082229042
 51
195.0618917770971
 73
     0
 72
     2
 10
-15.74318822720883
 20
7.113481071657219
 40
1.639695123940214
 50
195.061891777105
 51
270.0
 73
     0
 72
     1
 10
-15.74318822720883
 20
8.753176195597433
 11
-12.35824270858015
 21
8.753176195597916
 72
     1
 10
-12.35824270858015
 20
8.753176195597916
 11
-12.35824270858015
 21
7.967910889474325
 97
       18
330
23B
330
2D1
330
2D2
330
2BA
330
2B9
330
29F
330
2B8
330
2B7
330
2D3
330
2B6
330
2D4
330
2B5
330
2A0
330
23A
330
23F
330
23E
330
23D
330
23C
 75
     1
 76
     0
 52
45.0
 41
0.1
 77
     0
 78
     1
 53
45.0
 43
0.0
 44
0.0
 45
-0.0707106781186548
 46
0.0707106781186548
 79
     0
 98
        1
 10
0.0
 20
0.0
  0
HATCH
  5
325
330
A0
100
AcDbEntity
  8
1
  6
Continuous
 62
     2
100
AcDbHatch
 10
0.0
 20
0.0
 30
0.0
210
0.0
220
0.0
230
1.0
  2
_USER
 70
     0
 71
     1
 91
        1
 92
        1
 93
       18
 72
     1
 10
-12.35824270858015
 20
7.967910889474325
 11
-13.16934174605353
 21
7.967910889474325
 72
     1
 10
-13.16934174605353
 20
7.967910889474325
 11
-13.16934174605353
 21
5.699366671786834
 72
     1
 10
-13.16934174605353
 20
5.699366671786834
 11
-14.36213444822124
 21
5.699366671786834
 72
     1
 10
-14.36213444822124
 20
5.699366671786834
 11
-14.36213444822124
 21
7.967910889474325
 72
     1
 10
-14.36213444822124
 20
7.967910889474325
 11
-15.46577374778934
 21
7.967910889474325
 72
     2
 10
-15.46577374778934
 20
7.013387882648232
 40
0.9545230068260935
 50
90.0
 51
109.337143219432
 73
     1
 72
     2
 10
-15.61244374589305
 20
7.431342863031119
 40
0.5115800601944125
 50
109.3371432194847
 51
151.4785267424221
 73
     1
 72
     2
 10
-15.23508648781166
 20
7.226271433692119
 40
0.9410597353348862
 50
151.4785267423622
 51
208.5214732576697
 73
     1
 72
     2
 10
-15.61244374589305
 20
7.021200004353631
 40
0.5115800601960153
 50
208.521473257687
 51
246.6277221118453
 73
     1
 72
     2
 10
-15.45600371318994
 20
7.383192023063629
 40
0.9059297849852822
 50
246.6277221118181
 51
288.4480761180811
 73
     1
 72
     2
 10
-15.87417144685185
 20
8.636737799100217
 40
2.227384008972745
 50
288.4480761181334
 51
301.9309089499399
 73
     1
 72
     1
 10
-14.69611640482793
 20
6.746387079950438
 11
-14.69611640482793
 21
5.873870073147117
 72
     2
 10
-16.03204432194465
 20
10.53895237894852
 40
4.852596863498821
 50
74.02000874166129
 51
84.8418552303637
 73
     0
 72
     2
 10
-15.74318822720883
 20
7.339061795726934
 40
1.639695123940455
 50
84.84185523032396
 51
164.9381082228989
 73
     0
 72
     2
 10
-16.16231607067044
 20
7.226271433692119
 40
1.205656168393009
 50
164.9381082229042
 51
195.0618917770971
 73
     0
 72
     2
 10
-15.74318822720883
 20
7.113481071657219
 40
1.639695123940214
 50
195.061891777105
 51
270.0
 73
     0
 72
     1
 10
-15.74318822720883
 20
8.753176195597433
 11
-12.35824270858015
 21
8.753176195597916
 72
     1
 10
-12.35824270858015
 20
8.753176195597916
 11
-12.35824270858015
 21
7.967910889474325
 97
       18
330
23B
330
2D1
330
2D2
330
2BA
330
2B9
330
29F
330
2B8
330
2B7
330
2D3
330
2B6
330
2D4
330
2B5
330
2A0
330
23A
330
23F
330
23E
330
23D
330
23C
 75
     1
 76
     0
 52
45.0
 41
0.1
 77
     0
 78
     1
 53
45.0
 43
0.0
 44
0.0
 45
-0.0707106781186548
 46
0.0707106781186548
 79
     0
 98
        1
 10
0.0
 20
0.0
  0
HATCH
  5
326
330
A0
100
AcDbEntity
  8
1
  6
Continuous
 62
     2
100
AcDbHatch
 10
0.0
 20
0.0
 30
0.0
210
0.0
220
0.0
230
1.0
  2
_USER
 70
     0
 71
     1
 91
        1
 92
        1
 93
       14
 72
     2
 10
-31.84588970646175
 20
7.113481071657219
 40
1.639695123940507
 50
84.84185523036223
 51
164.9381082228864
 73
     1
 72
     2
 10
-32.26501754992455
 20
7.226271433692119
 40
1.205656168390944
 50
164.9381082228765
 51
195.0618917770948
 73
     1
 72
     2
 10
-31.84588970646175
 20
7.339061795726934
 40
1.639695123939384
 50
195.0618917770896
 51
275.1581447696396
 73
     1
 72
     2
 10
-32.13474580119765
 20
10.53895237894852
 40
4.852596863498136
 50
275.1581447696249
 51
285.979991258353
 73
     1
 72
     1
 10
-30.79881788407985
 20
5.873870073147714
 11
-30.79881788407985
 21
6.746387079950921
 72
     2
 10
-31.97687292610473
 20
8.636737799100814
 40
2.227384008972736
 50
58.0690910500407
 51
71.55192388186732
 73
     0
 72
     2
 10
-31.55870519244394
 20
7.383192023063629
 40
0.9059297849849173
 50
71.55192388184133
 51
113.3722778881285
 73
     0
 72
     2
 10
-31.71514522514596
 20
7.021200004353631
 40
0.5115800601948034
 50
113.3722778881722
 51
151.4785267423044
 73
     0
 72
     2
 10
-31.33778796706565
 20
7.226271433692119
 40
0.9410597353332545
 50
151.4785267422943
 51
208.5214732577331
 73
     0
 72
     2
 10
-31.71514522514596
 20
7.431342863031119
 40
0.5115800601948765
 50
208.5214732576956
 51
246.6277221118012
 73
     0
 72
     2
 10
-31.55870519244394
 20
7.069350844320525
 40
0.905929784985324
 50
246.6277221118714
 51
288.4480761181467
 73
     0
 72
     2
 10
-31.97687292610473
 20
5.815805068283936
 40
2.227384008973478
 50
288.4480761181327
 51
301.9309089499592
 73
     0
 72
     1
 10
-30.79881788407985
 20
7.706155787433829
 11
-30.79881788407985
 21
8.578672794237121
 72
     2
 10
-32.13474580119765
 20
3.913590488436228
 40
4.85259686349807
 50
74.02000874164735
 51
84.84185523037506
 73
     1
 97
       14
330
2D9
330
2DA
330
2DB
330
2DC
330
2A1
330
2B2
330
2B1
330
2B0
330
2DD
330
2DE
330
2AF
330
2DF
330
2A2
330
2AE
 75
     1
 76
     0
 52
45.0
 41
0.1
 77
     0
 78
     1
 53
45.0
 43
0.0
 44
0.0
 45
-0.0707106781186548
 46
0.0707106781186548
 79
     0
 98
        1
 10
0.0
 20
0.0
  0
HATCH
  5
327
330
A0
100
AcDbEntity
  8
1
  6
Continuous
 62
     2
100
AcDbHatch
 10
0.0
 20
0.0
 30
0.0
210
0.0
220
0.0
230
1.0
  2
_USER
 70
     0
 71
     1
 91
        1
 92
        1
 93
       14
 72
     2
 10
-31.84588970646175
 20
7.113481071657219
 40
1.639695123940507
 50
84.84185523036223
 51
164.9381082228864
 73
     1
 72
     2
 10
-32.26501754992455
 20
7.226271433692119
 40
1.205656168390944
 50
164.9381082228765
 51
195.0618917770948
 73
     1
 72
     2
 10
-31.84588970646175
 20
7.339061795726934
 40
1.639695123939384
 50
195.0618917770896
 51
275.1581447696396
 73
     1
 72
     2
 10
-32.13474580119765
 20
10.53895237894852
 40
4.852596863498136
 50
275.1581447696249
 51
285.979991258353
 73
     1
 72
     1
 10
-30.79881788407985
 20
5.873870073147714
 11
-30.79881788407985
 21
6.746387079950921
 72
     2
 10
-31.97687292610473
 20
8.636737799100814
 40
2.227384008972736
 50
58.0690910500407
 51
71.55192388186732
 73
     0
 72
     2
 10
-31.55870519244394
 20
7.383192023063629
 40
0.9059297849849173
 50
71.55192388184133
 51
113.3722778881285
 73
     0
 72
     2
 10
-31.71514522514596
 20
7.021200004353631
 40
0.5115800601948034
 50
113.3722778881722
 51
151.4785267423044
 73
     0
 72
     2
 10
-31.33778796706565
 20
7.226271433692119
 40
0.9410597353332545
 50
151.4785267422943
 51
208.5214732577331
 73
     0
 72
     2
 10
-31.71514522514596
 20
7.431342863031119
 40
0.5115800601948765
 50
208.5214732576956
 51
246.6277221118012
 73
     0
 72
     2
 10
-31.55870519244394
 20
7.069350844320525
 40
0.905929784985324
 50
246.6277221118714
 51
288.4480761181467
 73
     0
 72
     2
 10
-31.97687292610473
 20
5.815805068283936
 40
2.227384008973478
 50
288.4480761181327
 51
301.9309089499592
 73
     0
 72
     1
 10
-30.79881788407985
 20
7.706155787433829
 11
-30.79881788407985
 21
8.578672794237121
 72
     2
 10
-32.13474580119765
 20
3.913590488436228
 40
4.85259686349807
 50
74.02000874164735
 51
84.84185523037506
 73
     1
 97
       14
330
2D9
330
2DA
330
2DB
330
2DC
330
2A1
330
2B2
330
2B1
330
2B0
330
2DD
330
2DE
330
2AF
330
2DF
330
2A2
330
2AE
 75
     1
 76
     0
 52
45.0
 41
0.1
 77
     0
 78
     1
 53
45.0
 43
0.0
 44
0.0
 45
-0.0707106781186548
 46
0.0707106781186548
 79
     0
 98
        1
 10
0.0
 20
0.0
  0
ENDBLK
  5
A2
330
A0
100
AcDbEntity
  8
0
100
AcDbBlockEnd
  0
BLOCK
  5
A4
330
A3
100
AcDbEntity
  8
0
100
AcDbBlockBegin
  2
_punkt
 70
     0
 10
85.03855770090276
 20
-1.59413332822947
 30
0.0
  3
_punkt
  1

  0
LINE
  5
328
330
A3
100
AcDbEntity
  8
1
  6
Continuous
 62
     2
100
AcDbLine
 10
85.03855770090276
 20
-1.59413332822947
 30
0.0
 11
90.03855770090175
 21
-1.59413332822947
 31
0.0
  0
LINE
  5
329
330
A3
100
AcDbEntity
  8
1
  6
Continuous
 62
     2
100
AcDbLine
 10
85.03855770090276
 20
-1.59413332822947
 30
0.0
 11
85.03855770090276
 21
-6.59413332822959
 31
0.0
  0
ENDBLK
  5
A5
330
A3
100
AcDbEntity
  8
0
100
AcDbBlockEnd
  0
BLOCK
  5
A9
330
A6
100
AcDbEntity
  8
0
100
AcDbBlockBegin
  2
A4I_CS
 70
     0
 10
85.03855770090276
 20
-6.59413332822959
 30
0.0
  3
A4I_CS
  1

  0
INSERT
  5
A7
330
A6
100
AcDbEntity
  8
1
100
AcDbBlockReference
  2
_rahmen
 10
85.03855770090276
 20
-6.59413332822959
 30
0.0
  0
INSERT
  5
A8
330
A6
100
AcDbEntity
  8
1
100
AcDbBlockReference
  2
_punkt
 10
85.03855770090276
 20
-1.59413332822947
 30
0.0
  0
ENDBLK
  5
AA
330
A6
100
AcDbEntity
  8
0
100
AcDbBlockEnd
  0
BLOCK
  5
B3
330
AB
100
AcDbEntity
  8
0
100
AcDbBlockBegin
  2
1
 70
     0
 10
0.0
 20
0.0
 30
0.0
  3
1
  1

  0
INSERT
  5
AC
330
AB
100
AcDbEntity
  8
0
100
AcDbBlockReference
  2
Back1
 10
5.87972199999984
 20
130.0
 30
0.0
  0
INSERT
  5
AD
330
AB
100
AcDbEntity
  8
0
100
AcDbBlockReference
  2
Front1
 10
-66.0
 20
129.9999999999999
 30
0.0
  0
INSERT
  5
AE
330
AB
100
AcDbEntity
  8
0
100
AcDbBlockReference
  2
Gen1
 10
5.879722
 20
85.435803
 30
0.0
  0
INSERT
  5
AF
330
AB
100
AcDbEntity
  8
0
100
AcDbBlockReference
  2
Left1
 10
-30.060139
 20
130.0
 30
0.0
  0
INSERT
  5
B0
330
AB
100
AcDbEntity
  8
0
100
AcDbBlockReference
  2
Right1
 10
-116.7740449999998
 20
129.9999999999999
 30
0.0
  0
INSERT
  5
B1
330
AB
100
AcDbEntity
  8
0
100
AcDbBlockReference
  2
Top1
 10
-66.00000000000003
 20
85.43580300000002
 30
0.0
  0
INSERT
  5
B2
330
AB
100
AcDbEntity
  8
0
100
AcDbBlockReference
  2
A4I_CS
 10
85.03855770090276
 20
-6.59413332822959
 30
0.0
  0
ENDBLK
  5
B4
330
AB
100
AcDbEntity
  8
0
100
AcDbBlockEnd
  0
BLOCK
  5
F2
330
EA
100
AcDbEntity
  8
0
100
AcDbBlockBegin
  2
*D17
 70
     1
 10
0.0
 20
0.0
 30
0.0
  3
*D17
  1

  0
LINE
  5
EB
330
EA
100
AcDbEntity
  8
1
  6
Continuous
 62
     2
100
AcDbLine
 10
-76.58760657983598
 20
117.0103410404097
 30
0.0
 11
-55.41250582669023
 21
117.0103410404097
 31
0.0
  0
LINE
  5
EC
330
EA
100
AcDbEntity
  8
1
  6
Continuous
 62
     2
100
AcDbLine
 10
-76.58760657983598
 20
132.2148635581304
 30
0.0
 11
-76.58760657983598
 21
115.5103410404097
 31
0.0
  0
LINE
  5
ED
330
EA
100
AcDbEntity
  8
1
  6
Continuous
 62
     2
100
AcDbLine
 10
-55.41250582669023
 20
127.0103410404096
 30
0.0
 11
-55.41250582669023
 21
115.5103410404097
 31
0.0
  0
SOLID
  5
EE
330
EA
100
AcDbEntity
  8
1
 62
     2
100
AcDbTrace
 10
-73.08760657983598
 20
117.4711247819656
 30
0.0
 11
-73.08760657983598
 21
116.5495572988538
 31
0.0
 12
-76.58760657983598
 22
117.0103410404097
 32
0.0
 13
-76.58760657983598
 23
117.0103410404097
 33
0.0
  0
SOLID
  5
EF
330
EA
100
AcDbEntity
  8
1
 62
     2
100
AcDbTrace
 10
-58.91250582669023
 20
116.5495572988538
 30
0.0
 11
-58.91250582669023
 21
117.4711247819656
 31
0.0
 12
-55.41250582669023
 22
117.0103410404097
 32
0.0
 13
-55.41250582669023
 23
117.0103410404097
 33
0.0
  0
MTEXT
  5
F1
330
EA
100
AcDbEntity
  8
1
 62
     3
100
AcDbMText
 10
-71.3066705063499
 20
118.8603410404097
 30
0.0
 40
3.5
 41
0.0
 71
     7
 72
     1
  1
21,18
  7
CONVERTER_11
 11
0.9999999999970619
 21
2.424068405545306E-6
 31
0.0
 73
     1
 44
0.60024009603842
  0
ENDBLK
  5
F3
330
EA
100
AcDbEntity
  8
0
100
AcDbBlockEnd
  0
BLOCK
  5
FE
330
F5
100
AcDbEntity
  8
0
100
AcDbBlockBegin
  2
*D18
 70
     1
 10
0.0
 20
0.0
 30
0.0
  3
*D18
  1

  0
LINE
  5
F6
330
F5
100
AcDbEntity
  8
1
  6
Continuous
 62
     2
100
AcDbLine
 10
-86.55341409434692
 20
119.0103410404097
 30
0.0
 11
-86.55341409434692
 21
126.0103410404097
 31
0.0
  0
LINE
  5
F7
330
F5
100
AcDbEntity
  8
1
  6
Continuous
 62
     2
100
AcDbLine
 10
-86.55341409434692
 20
126.0103410404097
 30
0.0
 11
-86.55341409434692
 21
133.990034945985
 31
0.0
  0
LINE
  5
F8
330
F5
100
AcDbEntity
  8
1
  6
Continuous
 62
     2
100
AcDbLine
 10
-86.55341409434692
 20
133.990034945985
 30
0.0
 11
-86.55341409434692
 21
148.1057249259839
 31
0.0
  0
LINE
  5
F9
330
F5
100
AcDbEntity
  8
1
  6
Continuous
 62
     2
100
AcDbLine
 10
-66.38429242431778
 20
126.0103410404097
 30
0.0
 11
-88.05341409434692
 21
126.0103410404097
 31
0.0
  0
LINE
  5
FA
330
F5
100
AcDbEntity
  8
1
  6
Continuous
 62
     2
100
AcDbLine
 10
-75.32514006324155
 20
133.990034945985
 30
0.0
 11
-88.05341409434692
 21
133.990034945985
 31
0.0
  0
SOLID
  5
FB
330
F5
100
AcDbEntity
  8
1
 62
     2
100
AcDbTrace
 10
-86.09263035279103
 20
122.5103410404097
 30
0.0
 11
-87.0141978359028
 21
122.5103410404097
 31
0.0
 12
-86.55341409434692
 22
126.0103410404097
 32
0.0
 13
-86.55341409434692
 23
126.0103410404097
 33
0.0
  0
SOLID
  5
FC
330
F5
100
AcDbEntity
  8
1
 62
     2
100
AcDbTrace
 10
-87.0141978359028
 20
137.490034945985
 30
0.0
 11
-86.09263035279103
 21
137.490034945985
 31
0.0
 12
-86.55341409434692
 22
133.990034945985
 32
0.0
 13
-86.55341409434692
 23
133.990034945985
 33
0.0
  0
MTEXT
  5
FD
330
F5
100
AcDbEntity
  8
1
 62
     3
100
AcDbMText
 10
-88.40341409434691
 20
138.4807249259839
 30
0.0
 40
3.5
 41
0.0
 71
     7
 72
     1
  1
7,98
  7
CONVERTER_11
 11
0.0
 21
1.0
 31
0.0
 73
     1
 44
0.60024009603842
  0
ENDBLK
  5
FF
330
F5
100
AcDbEntity
  8
0
100
AcDbBlockEnd
  0
BLOCK
  5
1ED
330
1E4
100
AcDbEntity
  8
0
100
AcDbBlockBegin
  2
*D19
 70
     1
 10
0.0
 20
0.0
 30
0.0
  3
*D19
  1

  0
LINE
  5
1E5
330
1E4
100
AcDbEntity
  8
1
  6
Continuous
 62
     2
100
AcDbLine
 10
-86.553414094347
 20
102.5861442479775
 30
0.0
 11
-86.553414094347
 21
90.53580299999501
 31
0.0
  0
LINE
  5
1E6
330
1E4
100
AcDbEntity
  8
1
  6
Continuous
 62
     2
100
AcDbLine
 10
-86.553414094347
 20
90.53580299999501
 30
0.0
 11
-86.553414094347
 21
80.33580299999505
 31
0.0
  0
LINE
  5
1E7
330
1E4
100
AcDbEntity
  8
1
  6
Continuous
 62
     2
100
AcDbLine
 10
-86.553414094347
 20
80.33580299999505
 30
0.0
 11
-86.553414094347
 21
73.33580299999505
 31
0.0
  0
LINE
  5
1E8
330
1E4
100
AcDbEntity
  8
1
  6
Continuous
 62
     2
100
AcDbLine
 10
-76.553414094347
 20
90.53580299999501
 30
0.0
 11
-88.053414094347
 21
90.53580299999501
 31
0.0
  0
LINE
  5
1E9
330
1E4
100
AcDbEntity
  8
1
  6
Continuous
 62
     2
100
AcDbLine
 10
-76.553414094347
 20
80.33580299999505
 30
0.0
 11
-88.053414094347
 21
80.33580299999505
 31
0.0
  0
SOLID
  5
1EA
330
1E4
100
AcDbEntity
  8
1
 62
     2
100
AcDbTrace
 10
-87.01419783590289
 20
94.03580299999501
 30
0.0
 11
-86.09263035279112
 21
94.03580299999501
 31
0.0
 12
-86.553414094347
 22
90.53580299999501
 32
0.0
 13
-86.553414094347
 23
90.53580299999501
 33
0.0
  0
SOLID
  5
1EB
330
1E4
100
AcDbEntity
  8
1
 62
     2
100
AcDbTrace
 10
-86.09263035279112
 20
76.83580299999505
 30
0.0
 11
-87.01419783590289
 21
76.83580299999505
 31
0.0
 12
-86.553414094347
 22
80.33580299999505
 32
0.0
 13
-86.553414094347
 23
80.33580299999505
 33
0.0
  0
MTEXT
  5
1EC
330
1E4
100
AcDbEntity
  8
1
 62
     3
100
AcDbMText
 10
-88.403414094347
 20
94.01114424797751
 30
0.0
 40
3.5
 41
0.0
 71
     7
 72
     1
  1
10,2
  7
CONVERTER_11
 11
0.0
 21
1.0
 31
0.0
 73
     1
 44
0.60024009603842
  0
ENDBLK
  5
1EE
330
1E4
100
AcDbEntity
  8
0
100
AcDbBlockEnd
  0
ENDSEC
  0
SECTION
  2
ENTITIES
  0
INSERT
  5
B5
330
1F
100
AcDbEntity
  8
1
100
AcDbBlockReference
  2
1
 10
0.0
 20
0.0
 30
0.0
  0
ENDSEC
  0
SECTION
  2
OBJECTS
  0
DICTIONARY
  5
C
330
0
100
AcDbDictionary
281
     1
  3
ACAD_DETAILVIEWSTYLE
350
36F
  3
ACAD_GROUP
350
D
  3
ACAD_LAYOUT
350
1A
  3
ACAD_MATERIAL
350
43
  3
ACAD_MLEADERSTYLE
350
6B
  3
ACAD_MLINESTYLE
350
17
  3
ACAD_PLOTSETTINGS
350
19
  3
ACAD_PLOTSTYLENAME
350
E
  3
ACAD_SCALELIST
350
47
  3
ACAD_SECTIONVIEWSTYLE
350
370
  3
ACAD_TABLESTYLE
350
69
  3
ACAD_VISUALSTYLE
350
2A
  3
ACDB_RECOMPOSE_DATA
350
36C
  3
AcDbVariableDictionary
350
32C
  0
DICTIONARY
  5
32A
330
8
100
AcDbDictionary
280
     1
281
     1
  3
ACAD_XREC_ROUNDTRIP
360
32B
  0
DICTIONARY
  5
36F
102
{ACAD_REACTORS
330
C
102
}
330
C
100
AcDbDictionary
281
     1
  0
DICTIONARY
  5
D
102
{ACAD_REACTORS
330
C
102
}
330
C
100
AcDbDictionary
281
     1
  0
DICTIONARY
  5
1A
102
{ACAD_REACTORS
330
C
102
}
330
C
100
AcDbDictionary
281
     1
  3
Layout1
350
1E
  3
Layout2
350
26
  3
Model
350
22
  0
DICTIONARY
  5
43
102
{ACAD_REACTORS
330
C
102
}
330
C
100
AcDbDictionary
281
     1
  3
ByBlock
350
45
  3
ByLayer
350
44
  3
Global
350
46
  0
DICTIONARY
  5
6B
102
{ACAD_REACTORS
330
C
102
}
330
C
100
AcDbDictionary
281
     1
  3
Standard
350
6C
  0
DICTIONARY
  5
17
102
{ACAD_REACTORS
330
C
102
}
330
C
100
AcDbDictionary
281
     1
  3
Standard
350
18
  0
DICTIONARY
  5
19
102
{ACAD_REACTORS
330
C
102
}
330
C
100
AcDbDictionary
281
     1
  0
ACDBDICTIONARYWDFLT
  5
E
102
{ACAD_REACTORS
330
C
102
}
330
C
100
AcDbDictionary
281
     1
  3
Normal
350
F
100
AcDbDictionaryWithDefault
340
F
  0
DICTIONARY
  5
47
102
{ACAD_REACTORS
330
C
102
}
330
C
100
AcDbDictionary
281
     1
  3
A0
350
48
  3
A1
350
49
  3
A2
350
4A
  3
A3
350
4B
  3
A4
350
4C
  3
A5
350
4D
  3
A6
350
4E
  3
A7
350
4F
  3
A8
350
50
  3
A9
350
51
  3
B0
350
52
  3
B1
350
53
  3
B2
350
54
  3
B3
350
55
  3
B4
350
56
  3
B5
350
57
  3
B6
350
58
  3
B7
350
59
  3
B8
350
5A
  3
B9
350
5B
  3
C0
350
5C
  3
C1
350
5D
  3
C2
350
5E
  3
C3
350
5F
  3
C4
350
60
  3
C5
350
61
  3
C6
350
62
  3
C7
350
63
  3
C8
350
64
  3
C9
350
65
  3
D0
350
66
  3
D1
350
67
  3
D2
350
68
  0
DICTIONARY
  5
370
102
{ACAD_REACTORS
330
C
102
}
330
C
100
AcDbDictionary
281
     1
  0
DICTIONARY
  5
69
102
{ACAD_REACTORS
330
C
102
}
330
C
100
AcDbDictionary
281
     1
  3
Standard
350
6A
  0
DICTIONARY
  5
2A
102
{ACAD_REACTORS
330
C
102
}
330
C
100
AcDbDictionary
281
     1
  3
2dWireframe
350
2F
  3
Basic
350
32
  3
Brighten
350
36
  3
ColorChange
350
3A
  3
Conceptual
350
34
  3
Dim
350
35
  3
EdgeColorOff
350
3D
  3
Facepattern
350
39
  3
Flat
350
2B
  3
FlatWithEdges
350
2C
  3
Gouraud
350
2D
  3
GouraudWithEdges
350
2E
  3
Hidden
350
31
  3
JitterOff
350
3B
  3
Linepattern
350
38
  3
OverhangOff
350
3C
  3
Realistic
350
33
  3
Shaded
350
42
  3
Shaded with edges
350
41
  3
Shades of Gray
350
3E
  3
Sketchy
350
3F
  3
Thicken
350
37
  3
Wireframe
350
30
  3
X-Ray
350
40
  0
XRECORD
  5
36C
102
{ACAD_REACTORS
330
C
102
}
330
C
100
AcDbXrecord
280
     1
 90
        1
330
6A
  0
DICTIONARY
  5
32C
102
{ACAD_REACTORS
330
C
102
}
330
C
100
AcDbDictionary
281
     1
  3
CANNOSCALE
350
32D
  3
CMLEADERSTYLE
350
36E
  3
CTABLESTYLE
350
36D
  3
MSLTSCALE
350
32E
  3
XCLIPFRAME
350
32F
  0
XRECORD
  5
32B
102
{ACAD_REACTORS
330
32A
102
}
330
32A
100
AcDbXrecord
280
     1
102
VTR_0.000_0.000_1.000_1.000_VISUALSTYLE
340
2F
102
VTR_0.000_0.000_1.000_1.000_GRIDDISPLAY
 70
     3
102
VTR_0.000_0.000_1.000_1.000_GRIDMAJOR
 70
     5
102
VTR_0.000_0.000_1.000_1.000_DEFAULTLIGHTING
280
     1
102
VTR_0.000_0.000_1.000_1.000_DEFAULTLIGHTINGTYPE
 70
     1
102
VTR_0.000_0.000_1.000_1.000_BRIGHTNESS
141
0.0
102
VTR_0.000_0.000_1.000_1.000_CONTRAST
142
0.0
  0
LAYOUT
  5
1E
102
{ACAD_REACTORS
330
1A
102
}
330
1A
100
AcDbPlotSettings
  1

  2
none_device
  4

  6

 40
0.0
 41
0.0
 42
0.0
 43
0.0
 44
0.0
 45
0.0
 46
0.0
 47
0.0
 48
0.0
 49
0.0
140
0.0
141
0.0
142
1.0
143
1.0
 70
   688
 72
     0
 73
     0
 74
     5
  7

 75
    16
 76
     0
 77
     2
 78
   300
147
1.0
148
0.0
149
0.0
100
AcDbLayout
  1
Layout1
 70
     1
 71
     1
 10
0.0
 20
0.0
 11
12.0
 21
9.0
 12
0.0
 22
0.0
 32
0.0
 14
1.00000000000000E+20
 24
1.00000000000000E+20
 34
1.00000000000000E+20
 15
-1.00000000000000E+20
 25
-1.00000000000000E+20
 35
-1.00000000000000E+20
146
0.0
 13
0.0
 23
0.0
 33
0.0
 16
1.0
 26
0.0
 36
0.0
 17
0.0
 27
1.0
 37
0.0
 76
     0
330
1B
  0
LAYOUT
  5
26
102
{ACAD_REACTORS
330
1A
102
}
330
1A
100
AcDbPlotSettings
  1

  2
none_device
  4

  6

 40
0.0
 41
0.0
 42
0.0
 43
0.0
 44
0.0
 45
0.0
 46
0.0
 47
0.0
 48
0.0
 49
0.0
140
0.0
141
0.0
142
1.0
143
1.0
 70
   688
 72
     0
 73
     0
 74
     5
  7

 75
    16
 76
     0
 77
     2
 78
   300
147
1.0
148
0.0
149
0.0
100
AcDbLayout
  1
Layout2
 70
     1
 71
     2
 10
0.0
 20
0.0
 11
0.0
 21
0.0
 12
0.0
 22
0.0
 32
0.0
 14
0.0
 24
0.0
 34
0.0
 15
0.0
 25
0.0
 35
0.0
146
0.0
 13
0.0
 23
0.0
 33
0.0
 16
1.0
 26
0.0
 36
0.0
 17
0.0
 27
1.0
 37
0.0
 76
     0
330
23
  0
LAYOUT
  5
22
102
{ACAD_REACTORS
330
1A
102
}
330
1A
100
AcDbPlotSettings
  1

  2
none_device
  4
Letter_(8.50_x_11.00_Inches)
  6

 40
6.35
 41
6.35
 42
6.35000508
 43
6.35000508
 44
215.9
 45
279.4
 46
0.0
 47
0.0
 48
0.0
 49
0.0
140
0.0
141
0.0
142
1.0
143
1.0
 70
  1712
 72
     0
 73
     0
 74
     0
  7

 75
     0
 76
     0
 77
     2
 78
   300
147
1.0
148
0.0
149
0.0
100
AcDbLayout
  1
Model
 70
     1
 71
     0
 10
0.0
 20
0.0
 11
12.0
 21
9.0
 12
0.0
 22
0.0
 32
0.0
 14
-206.9614422990963
 24
-6.59413332822959
 34
0.0
 15
90.03855770090175
 25
203.4058666717705
 35
0.0
146
0.0
 13
0.0
 23
0.0
 33
0.0
 16
1.0
 26
0.0
 36
0.0
 17
0.0
 27
1.0
 37
0.0
 76
     0
330
1F
331
29
  0
MATERIAL
  5
45
102
{ACAD_REACTORS
330
43
102
}
102
{ACAD_XDICTIONARY
360
362
102
}
330
43
100
AcDbMaterial
  1
ByBlock
  0
MATERIAL
  5
44
102
{ACAD_REACTORS
330
43
102
}
102
{ACAD_XDICTIONARY
360
360
102
}
330
43
100
AcDbMaterial
  1
ByLayer
  0
MATERIAL
  5
46
102
{ACAD_REACTORS
330
43
102
}
102
{ACAD_XDICTIONARY
360
364
102
}
330
43
100
AcDbMaterial
  1
Global
  0
MLEADERSTYLE
  5
6C
102
{ACAD_REACTORS
330
6B
102
}
102
{ACAD_XDICTIONARY
360
36A
102
}
330
6B
100
AcDbMLeaderStyle
170
     2
171
     1
172
     0
 90
        2
 40
0.0
 41
0.0
173
     1
 91
-1056964608
340
14
 92
       -2
290
     1
 42
0.09
291
     1
 43
0.36
  3
Standard
341
0
 44
0.18
300

342
11
174
     1
178
     6
175
     1
176
     0
 93
-1056964608
 45
0.18
292
     0
297
     0
 46
0.18
343
0
 94
-1056964608
 47
1.0
 49
1.0
140
1.0
293
     1
141
0.0
294
     1
177
     0
142
1.0
295
     0
296
     0
143
0.125
1001
ACAD_MLEADERVER
1070
     2
  0
MLINESTYLE
  5
18
102
{ACAD_REACTORS
330
17
102
}
330
17
100
AcDbMlineStyle
  2
Standard
 70
     0
  3

 62
   256
 51
90.0
 52
90.0
 71
     2
 49
0.5
 62
   256
  6
BYLAYER
 49
-0.5
 62
   256
  6
BYLAYER
  0
ACDBPLACEHOLDER
  5
F
102
{ACAD_REACTORS
330
E
102
}
330
E
  0
SCALE
  5
48
102
{ACAD_REACTORS
330
47
102
}
330
47
100
AcDbScale
 70
     0
300
1:1
140
1.0
141
1.0
290
     1
  0
SCALE
  5
49
102
{ACAD_REACTORS
330
47
102
}
330
47
100
AcDbScale
 70
     0
300
1:2
140
1.0
141
2.0
290
     0
  0
SCALE
  5
4A
102
{ACAD_REACTORS
330
47
102
}
330
47
100
AcDbScale
 70
     0
300
1:4
140
1.0
141
4.0
290
     0
  0
SCALE
  5
4B
102
{ACAD_REACTORS
330
47
102
}
330
47
100
AcDbScale
 70
     0
300
1:5
140
1.0
141
5.0
290
     0
  0
SCALE
  5
4C
102
{ACAD_REACTORS
330
47
102
}
330
47
100
AcDbScale
 70
     0
300
1:8
140
1.0
141
8.0
290
     0
  0
SCALE
  5
4D
102
{ACAD_REACTORS
330
47
102
}
330
47
100
AcDbScale
 70
     0
300
1:10
140
1.0
141
10.0
290
     0
  0
SCALE
  5
4E
102
{ACAD_REACTORS
330
47
102
}
330
47
100
AcDbScale
 70
     0
300
1:16
140
1.0
141
16.0
290
     0
  0
SCALE
  5
4F
102
{ACAD_REACTORS
330
47
102
}
330
47
100
AcDbScale
 70
     0
300
1:20
140
1.0
141
20.0
290
     0
  0
SCALE
  5
50
102
{ACAD_REACTORS
330
47
102
}
330
47
100
AcDbScale
 70
     0
300
1:30
140
1.0
141
30.0
290
     0
  0
SCALE
  5
51
102
{ACAD_REACTORS
330
47
102
}
330
47
100
AcDbScale
 70
     0
300
1:40
140
1.0
141
40.0
290
     0
  0
SCALE
  5
52
102
{ACAD_REACTORS
330
47
102
}
330
47
100
AcDbScale
 70
     0
300
1:50
140
1.0
141
50.0
290
     0
  0
SCALE
  5
53
102
{ACAD_REACTORS
330
47
102
}
330
47
100
AcDbScale
 70
     0
300
1:100
140
1.0
141
100.0
290
     0
  0
SCALE
  5
54
102
{ACAD_REACTORS
330
47
102
}
330
47
100
AcDbScale
 70
     0
300
2:1
140
2.0
141
1.0
290
     0
  0
SCALE
  5
55
102
{ACAD_REACTORS
330
47
102
}
330
47
100
AcDbScale
 70
     0
300
4:1
140
4.0
141
1.0
290
     0
  0
SCALE
  5
56
102
{ACAD_REACTORS
330
47
102
}
330
47
100
AcDbScale
 70
     0
300
8:1
140
8.0
141
1.0
290
     0
  0
SCALE
  5
57
102
{ACAD_REACTORS
330
47
102
}
330
47
100
AcDbScale
 70
     0
300
10:1
140
10.0
141
1.0
290
     0
  0
SCALE
  5
58
102
{ACAD_REACTORS
330
47
102
}
330
47
100
AcDbScale
 70
     0
300
100:1
140
100.0
141
1.0
290
     0
  0
SCALE
  5
59
102
{ACAD_REACTORS
330
47
102
}
330
47
100
AcDbScale
 70
     0
300
1/128" = 1'-0"
140
0.0078125
141
12.0
290
     0
  0
SCALE
  5
5A
102
{ACAD_REACTORS
330
47
102
}
330
47
100
AcDbScale
 70
     0
300
1/64" = 1'-0"
140
0.015625
141
12.0
290
     0
  0
SCALE
  5
5B
102
{ACAD_REACTORS
330
47
102
}
330
47
100
AcDbScale
 70
     0
300
1/32" = 1'-0"
140
0.03125
141
12.0
290
     0
  0
SCALE
  5
5C
102
{ACAD_REACTORS
330
47
102
}
330
47
100
AcDbScale
 70
     0
300
1/16" = 1'-0"
140
0.0625
141
12.0
290
     0
  0
SCALE
  5
5D
102
{ACAD_REACTORS
330
47
102
}
330
47
100
AcDbScale
 70
     0
300
3/32" = 1'-0"
140
0.09375
141
12.0
290
     0
  0
SCALE
  5
5E
102
{ACAD_REACTORS
330
47
102
}
330
47
100
AcDbScale
 70
     0
300
1/8" = 1'-0"
140
0.125
141
12.0
290
     0
  0
SCALE
  5
5F
102
{ACAD_REACTORS
330
47
102
}
330
47
100
AcDbScale
 70
     0
300
3/16" = 1'-0"
140
0.1875
141
12.0
290
     0
  0
SCALE
  5
60
102
{ACAD_REACTORS
330
47
102
}
330
47
100
AcDbScale
 70
     0
300
1/4" = 1'-0"
140
0.25
141
12.0
290
     0
  0
SCALE
  5
61
102
{ACAD_REACTORS
330
47
102
}
330
47
100
AcDbScale
 70
     0
300
3/8" = 1'-0"
140
0.375
141
12.0
290
     0
  0
SCALE
  5
62
102
{ACAD_REACTORS
330
47
102
}
330
47
100
AcDbScale
 70
     0
300
1/2" = 1'-0"
140
0.5
141
12.0
290
     0
  0
SCALE
  5
63
102
{ACAD_REACTORS
330
47
102
}
330
47
100
AcDbScale
 70
     0
300
3/4" = 1'-0"
140
0.75
141
12.0
290
     0
  0
SCALE
  5
64
102
{ACAD_REACTORS
330
47
102
}
330
47
100
AcDbScale
 70
     0
300
1" = 1'-0"
140
1.0
141
12.0
290
     0
  0
SCALE
  5
65
102
{ACAD_REACTORS
330
47
102
}
330
47
100
AcDbScale
 70
     0
300
1-1/2" = 1'-0"
140
1.5
141
12.0
290
     0
  0
SCALE
  5
66
102
{ACAD_REACTORS
330
47
102
}
330
47
100
AcDbScale
 70
     0
300
3" = 1'-0"
140
3.0
141
12.0
290
     0
  0
SCALE
  5
67
102
{ACAD_REACTORS
330
47
102
}
330
47
100
AcDbScale
 70
     0
300
6" = 1'-0"
140
6.0
141
12.0
290
     0
  0
SCALE
  5
68
102
{ACAD_REACTORS
330
47
102
}
330
47
100
AcDbScale
 70
     0
300
1'-0" = 1'-0"
140
12.0
141
12.0
290
     0
  0
TABLESTYLE
  5
6A
102
{ACAD_REACTORS
330
69
102
}
102
{ACAD_XDICTIONARY
360
366
102
}
330
69
100
AcDbTableStyle
  3
Standard
 70
     0
 71
     0
 40
0.06
 41
0.06
280
     0
281
     0
  7
Standard
140
0.18
170
     2
 62
     0
 63
   257
283
     0
274
    -2
284
     1
 64
     0
275
    -2
285
     1
 65
     0
276
    -2
286
     1
 66
     0
277
    -2
287
     1
 67
     0
278
    -2
288
     1
 68
     0
279
    -2
289
     1
 69
     0
  7
Standard
140
0.25
170
     5
 62
     0
 63
   257
283
     0
274
    -2
284
     1
 64
     0
275
    -2
285
     1
 65
     0
276
    -2
286
     1
 66
     0
277
    -2
287
     1
 67
     0
278
    -2
288
     1
 68
     0
279
    -2
289
     1
 69
     0
  7
Standard
140
0.18
170
     5
 62
     0
 63
   257
283
     0
274
    -2
284
     1
 64
     0
275
    -2
285
     1
 65
     0
276
    -2
286
     1
 66
     0
277
    -2
287
     1
 67
     0
278
    -2
288
     1
 68
     0
279
    -2
289
     1
 69
     0
  0
VISUALSTYLE
  5
2F
102
{ACAD_REACTORS
330
2A
102
}
102
{ACAD_XDICTIONARY
360
338
102
}
330
2A
100
AcDbVisualStyle
  2
2dWireframe
 70
     4
 71
     0
 72
     2
 73
     0
 90
        0
 40
0.6
 41
30.0
 62
     5
 63
     7
421
 16777215
 74
     1
 91
        4
 64
     7
 65
   257
 75
     1
175
     1
 42
1.0
 92
        0
 66
   257
 43
1.0
 76
     1
 77
     6
 78
     2
 67
     7
 79
     5
170
     0
171
     0
290
     0
174
     0
 93
        1
 44
0.0
173
     0
291
     0
 45
0.0
1001
ACAD
1000
AcDbSavedByObjectVersion
1070
     0
  0
VISUALSTYLE
  5
32
102
{ACAD_REACTORS
330
2A
102
}
102
{ACAD_XDICTIONARY
360
33E
102
}
330
2A
100
AcDbVisualStyle
  2
Basic
 70
     7
 71
     1
 72
     0
 73
     1
 90
        0
 40
0.6
 41
30.0
 62
     5
 63
     7
421
 16777215
 74
     0
 91
        4
 64
     7
 65
   257
 75
     1
175
     1
 42
1.0
 92
        8
 66
     7
 43
1.0
 76
     1
 77
     6
 78
     2
 67
     7
 79
     5
170
     0
171
     0
290
     0
174
     0
 93
        1
 44
0.0
173
     0
291
     1
 45
0.0
1001
ACAD
1000
AcDbSavedByObjectVersion
1070
     0
  0
VISUALSTYLE
  5
36
102
{ACAD_REACTORS
330
2A
102
}
102
{ACAD_XDICTIONARY
360
346
102
}
330
2A
100
AcDbVisualStyle
  2
Brighten
 70
    12
 71
     2
 72
     2
 73
     0
 90
        0
 40
0.6
 41
30.0
 62
     5
 63
     7
421
 16777215
 74
     1
 91
        4
 64
     7
 65
   257
 75
     1
175
     1
 42
1.0
 92
        8
 66
     7
 43
1.0
 76
     1
 77
     6
 78
     2
 67
     7
 79
     5
170
     0
171
     0
290
     0
174
     0
 93
        1
 44
50.0
173
     0
291
     1
 45
0.0
1001
ACAD
1000
AcDbSavedByObjectVersion
1070
     0
  0
VISUALSTYLE
  5
3A
102
{ACAD_REACTORS
330
2A
102
}
102
{ACAD_XDICTIONARY
360
34E
102
}
330
2A
100
AcDbVisualStyle
  2
ColorChange
 70
    16
 71
     2
 72
     2
 73
     3
 90
        0
 40
0.6
 41
30.0
 62
     5
 63
     8
421
  8421504
 74
     1
 91
        4
 64
     7
 65
   257
 75
     1
175
     1
 42
1.0
 92
        8
 66
     8
424
  8421504
 43
1.0
 76
     1
 77
     6
 78
     2
 67
     7
 79
     5
170
     0
171
     0
290
     0
174
     0
 93
        1
 44
0.0
173
     0
291
     1
 45
0.0
1001
ACAD
1000
AcDbSavedByObjectVersion
1070
     0
  0
VISUALSTYLE
  5
34
102
{ACAD_REACTORS
330
2A
102
}
102
{ACAD_XDICTIONARY
360
342
102
}
330
2A
100
AcDbVisualStyle
  2
Conceptual
 70
     9
 71
     3
 72
     2
 73
     0
 90
        0
 40
0.6
 41
30.0
 62
     5
 63
     7
421
 16777215
 74
     2
 91
        2
 64
     7
 65
   257
 75
     1
175
     1
 42
179.0
 92
        8
 66
     7
 43
1.0
 76
     1
 77
     6
 78
     2
 67
     7
 79
     3
170
     0
171
     0
290
     0
174
     0
 93
        1
 44
0.0
173
     0
291
     0
 45
0.0
1001
ACAD
1000
AcDbSavedByObjectVersion
1070
     0
  0
VISUALSTYLE
  5
35
102
{ACAD_REACTORS
330
2A
102
}
102
{ACAD_XDICTIONARY
360
344
102
}
330
2A
100
AcDbVisualStyle
  2
Dim
 70
    11
 71
     2
 72
     2
 73
     0
 90
        0
 40
0.6
 41
30.0
 62
     5
 63
     7
421
 16777215
 74
     1
 91
        4
 64
     7
 65
   257
 75
     1
175
     1
 42
1.0
 92
        8
 66
     7
 43
1.0
 76
     1
 77
     6
 78
     2
 67
     7
 79
     5
170
     0
171
     0
290
     0
174
     0
 93
        1
 44
-50.0
173
     0
291
     1
 45
0.0
1001
ACAD
1000
AcDbSavedByObjectVersion
1070
     0
  0
VISUALSTYLE
  5
3D
102
{ACAD_REACTORS
330
2A
102
}
102
{ACAD_XDICTIONARY
360
354
102
}
330
2A
100
AcDbVisualStyle
  2
EdgeColorOff
 70
    22
 71
     2
 72
     2
 73
     0
 90
        0
 40
0.6
 41
30.0
 62
     5
 63
     7
421
 16777215
 74
     1
 91
        4
 64
     7
 65
   257
 75
     1
175
     1
 42
1.0
 92
        8
 66
     7
 43
1.0
 76
     1
 77
     6
 78
     2
 67
     7
 79
     5
170
     0
171
     0
290
     0
174
     0
 93
        1
 44
0.0
173
     0
291
     1
 45
0.0
1001
ACAD
1000
AcDbSavedByObjectVersion
1070
     0
  0
VISUALSTYLE
  5
39
102
{ACAD_REACTORS
330
2A
102
}
102
{ACAD_XDICTIONARY
360
34C
102
}
330
2A
100
AcDbVisualStyle
  2
Facepattern
 70
    15
 71
     2
 72
     2
 73
     0
 90
        0
 40
0.6
 41
30.0
 62
     5
 63
     7
421
 16777215
 74
     1
 91
        4
 64
     7
 65
   257
 75
     1
175
     1
 42
1.0
 92
        8
 66
     7
 43
1.0
 76
     1
 77
     6
 78
     2
 67
     7
 79
     5
170
     0
171
     0
290
     0
174
     0
 93
        1
 44
0.0
173
     0
291
     1
 45
0.0
1001
ACAD
1000
AcDbSavedByObjectVersion
1070
     0
  0
VISUALSTYLE
  5
2B
102
{ACAD_REACTORS
330
2A
102
}
102
{ACAD_XDICTIONARY
360
330
102
}
330
2A
100
AcDbVisualStyle
  2
Flat
 70
     0
 71
     2
 72
     1
 73
     1
 90
        2
 40
0.6
 41
30.0
 62
     5
 63
     7
421
 16777215
 74
     0
 91
        0
 64
     7
 65
   257
 75
     1
175
     1
 42
1.0
 92
        8
 66
     7
 43
1.0
 76
     1
 77
     6
 78
     2
 67
     7
 79
     5
170
     0
171
     0
290
     0
174
     0
 93
       13
 44
0.0
173
     0
291
     1
 45
0.0
1001
ACAD
1000
AcDbSavedByObjectVersion
1070
     0
  0
VISUALSTYLE
  5
2C
102
{ACAD_REACTORS
330
2A
102
}
102
{ACAD_XDICTIONARY
360
332
102
}
330
2A
100
AcDbVisualStyle
  2
FlatWithEdges
 70
     1
 71
     2
 72
     1
 73
     1
 90
        2
 40
0.6
 41
30.0
 62
     5
 63
     7
421
 16777215
 74
     1
 91
        0
 64
     7
 65
   257
 75
     1
175
     1
 42
1.0
 92
        0
 66
   257
 43
1.0
 76
     1
 77
     6
 78
     2
 67
     7
 79
     5
170
     0
171
     0
290
     0
174
     0
 93
       13
 44
0.0
173
     0
291
     1
 45
0.0
1001
ACAD
1000
AcDbSavedByObjectVersion
1070
     0
  0
VISUALSTYLE
  5
2D
102
{ACAD_REACTORS
330
2A
102
}
102
{ACAD_XDICTIONARY
360
334
102
}
330
2A
100
AcDbVisualStyle
  2
Gouraud
 70
     2
 71
     2
 72
     2
 73
     1
 90
        2
 40
0.6
 41
30.0
 62
     5
 63
     7
421
 16777215
 74
     0
 91
        0
 64
     7
 65
   257
 75
     1
175
     1
 42
1.0
 92
        0
 66
     7
 43
1.0
 76
     1
 77
     6
 78
     2
 67
     7
 79
     5
170
     0
171
     0
290
     0
174
     0
 93
       13
 44
0.0
173
     0
291
     1
 45
0.0
1001
ACAD
1000
AcDbSavedByObjectVersion
1070
     0
  0
VISUALSTYLE
  5
2E
102
{ACAD_REACTORS
330
2A
102
}
102
{ACAD_XDICTIONARY
360
336
102
}
330
2A
100
AcDbVisualStyle
  2
GouraudWithEdges
 70
     3
 71
     2
 72
     2
 73
     1
 90
        2
 40
0.6
 41
30.0
 62
     5
 63
     7
421
 16777215
 74
     1
 91
        0
 64
     7
 65
   257
 75
     1
175
     1
 42
1.0
 92
        0
 66
   257
 43
1.0
 76
     1
 77
     6
 78
     2
 67
     7
 79
     5
170
     0
171
     0
290
     0
174
     0
 93
       13
 44
0.0
173
     0
291
     1
 45
0.0
1001
ACAD
1000
AcDbSavedByObjectVersion
1070
     0
  0
VISUALSTYLE
  5
31
102
{ACAD_REACTORS
330
2A
102
}
102
{ACAD_XDICTIONARY
360
33C
102
}
330
2A
100
AcDbVisualStyle
  2
Hidden
 70
     6
 71
     1
 72
     2
 73
     2
 90
        0
 40
0.6
 41
30.0
 62
     5
 63
     7
421
 16777215
 74
     2
 91
        2
 64
     7
 65
   257
 75
     2
175
     1
 42
40.0
 92
        0
 66
   257
 43
1.0
 76
     1
 77
     6
 78
     2
 67
     7
 79
     3
170
     0
171
     0
290
     0
174
     0
 93
        1
 44
0.0
173
     0
291
     0
 45
0.0
1001
ACAD
1000
AcDbSavedByObjectVersion
1070
     0
  0
VISUALSTYLE
  5
3B
102
{ACAD_REACTORS
330
2A
102
}
102
{ACAD_XDICTIONARY
360
350
102
}
330
2A
100
AcDbVisualStyle
  2
JitterOff
 70
    20
 71
     2
 72
     2
 73
     0
 90
        0
 40
0.6
 41
30.0
 62
     5
 63
     7
421
 16777215
 74
     1
 91
        4
 64
     7
 65
   257
 75
     1
175
     1
 42
1.0
 92
       10
 66
     7
 43
1.0
 76
     1
 77
     6
 78
     2
 67
     7
 79
     5
170
     0
171
     0
290
     0
174
     0
 93
        1
 44
0.0
173
     0
291
     1
 45
0.0
1001
ACAD
1000
AcDbSavedByObjectVersion
1070
     0
  0
VISUALSTYLE
  5
38
102
{ACAD_REACTORS
330
2A
102
}
102
{ACAD_XDICTIONARY
360
34A
102
}
330
2A
100
AcDbVisualStyle
  2
Linepattern
 70
    14
 71
     2
 72
     2
 73
     0
 90
        0
 40
0.6
 41
30.0
 62
     5
 63
     7
421
 16777215
 74
     1
 91
        4
 64
     7
 65
   257
 75
     7
175
     7
 42
1.0
 92
        8
 66
     7
 43
1.0
 76
     1
 77
     6
 78
     2
 67
     7
 79
     5
170
     0
171
     0
290
     0
174
     0
 93
        1
 44
0.0
173
     0
291
     1
 45
0.0
1001
ACAD
1000
AcDbSavedByObjectVersion
1070
     0
  0
VISUALSTYLE
  5
3C
102
{ACAD_REACTORS
330
2A
102
}
102
{ACAD_XDICTIONARY
360
352
102
}
330
2A
100
AcDbVisualStyle
  2
OverhangOff
 70
    21
 71
     2
 72
     2
 73
     0
 90
        0
 40
0.6
 41
30.0
 62
     5
 63
     7
421
 16777215
 74
     1
 91
        4
 64
     7
 65
   257
 75
     1
175
     1
 42
1.0
 92
        9
 66
     7
 43
1.0
 76
     1
 77
     6
 78
     2
 67
     7
 79
     5
170
     0
171
     0
290
     0
174
     0
 93
        1
 44
0.0
173
     0
291
     1
 45
0.0
1001
ACAD
1000
AcDbSavedByObjectVersion
1070
     0
  0
VISUALSTYLE
  5
33
102
{ACAD_REACTORS
330
2A
102
}
102
{ACAD_XDICTIONARY
360
340
102
}
330
2A
100
AcDbVisualStyle
  2
Realistic
 70
     8
 71
     2
 72
     3
 73
     0
 90
        2
 40
0.6
 41
30.0
 62
     5
 63
     7
421
 16777215
 74
     0
 91
        0
 64
     7
 65
   257
 75
     1
175
     1
 42
1.0
 92
        8
 66
   257
 43
1.0
 76
     1
 77
     6
 78
     2
 67
     7
 79
     3
170
     0
171
     0
290
     0
174
     0
 93
       13
 44
0.0
173
     0
291
     0
 45
0.0
1001
ACAD
1000
AcDbSavedByObjectVersion
1070
     0
  0
VISUALSTYLE
  5
42
102
{ACAD_REACTORS
330
2A
102
}
102
{ACAD_XDICTIONARY
360
35E
102
}
330
2A
100
AcDbVisualStyle
  2
Shaded
 70
    27
 71
     2
 72
     2
 73
     1
 90
        2
 40
0.6
 41
30.0
 62
     5
 63
     7
421
 16777215
 74
     0
 91
        4
 64
     7
 65
   257
 75
     1
175
     1
 42
1.0
 92
        8
 66
   257
 43
1.0
 76
     1
 77
     6
 78
     2
 67
     8
425
  7895160
 79
     3
170
     0
171
     0
290
     0
174
     0
 93
        5
 44
0.0
173
     0
291
     0
 45
0.0
1001
ACAD
1000
AcDbSavedByObjectVersion
1070
     0
  0
VISUALSTYLE
  5
41
102
{ACAD_REACTORS
330
2A
102
}
102
{ACAD_XDICTIONARY
360
35C
102
}
330
2A
100
AcDbVisualStyle
  2
Shaded with edges
 70
    26
 71
     2
 72
     2
 73
     1
 90
        2
 40
0.6
 41
30.0
 62
     5
 63
     7
421
 16777215
 74
     1
 91
       10
 64
     7
 65
   257
 75
     2
175
     1
 42
1.0
 92
        8
 66
   257
 43
1.0
 76
     1
 77
     6
 78
     2
 67
     7
 79
     3
170
     0
171
     0
290
     0
174
     0
 93
        5
 44
0.0
173
     0
291
     0
 45
0.0
1001
ACAD
1000
AcDbSavedByObjectVersion
1070
     0
  0
VISUALSTYLE
  5
3E
102
{ACAD_REACTORS
330
2A
102
}
102
{ACAD_XDICTIONARY
360
356
102
}
330
2A
100
AcDbVisualStyle
  2
Shades of Gray
 70
    23
 71
     2
 72
     2
 73
     3
 90
        0
 40
0.6
 41
30.0
 62
     5
 63
     7
421
 16777215
 74
     2
 91
        2
 64
     7
 65
     7
 75
     1
175
     1
 42
40.0
 92
        8
 66
     7
 43
1.0
 76
     1
 77
     6
 78
     2
 67
     7
 79
     3
170
     0
171
     0
290
     0
174
     0
 93
        1
 44
0.0
173
     0
291
     0
 45
0.0
1001
ACAD
1000
AcDbSavedByObjectVersion
1070
     0
  0
VISUALSTYLE
  5
3F
102
{ACAD_REACTORS
330
2A
102
}
102
{ACAD_XDICTIONARY
360
358
102
}
330
2A
100
AcDbVisualStyle
  2
Sketchy
 70
    24
 71
     1
 72
     2
 73
     2
 90
        0
 40
0.6
 41
30.0
 62
     5
 63
     7
421
 16777215
 74
     2
 91
        2
 64
     7
 65
     7
 75
     1
175
     1
 42
40.0
 92
       11
 66
     7
 43
1.0
 76
     1
 77
     6
 78
     2
 67
     7
 79
     6
170
     0
171
     0
290
     0
174
     0
 93
        1
 44
0.0
173
     0
291
     0
 45
0.0
1001
ACAD
1000
AcDbSavedByObjectVersion
1070
     0
  0
VISUALSTYLE
  5
37
102
{ACAD_REACTORS
330
2A
102
}
102
{ACAD_XDICTIONARY
360
348
102
}
330
2A
100
AcDbVisualStyle
  2
Thicken
 70
    13
 71
     2
 72
     2
 73
     0
 90
        0
 40
0.6
 41
30.0
 62
     5
 63
     7
421
 16777215
 74
     1
 91
        4
 64
     7
 65
   257
 75
     1
175
     1
 42
1.0
 92
       12
 66
     7
 43
1.0
 76
     1
 77
     6
 78
     2
 67
     7
 79
     5
170
     0
171
     0
290
     0
174
     0
 93
        1
 44
0.0
173
     0
291
     1
 45
0.0
1001
ACAD
1000
AcDbSavedByObjectVersion
1070
     0
  0
VISUALSTYLE
  5
30
102
{ACAD_REACTORS
330
2A
102
}
102
{ACAD_XDICTIONARY
360
33A
102
}
330
2A
100
AcDbVisualStyle
  2
Wireframe
 70
     5
 71
     0
 72
     2
 73
     0
 90
        0
 40
0.6
 41
30.0
 62
     5
 63
     7
421
 16777215
 74
     1
 91
        4
 64
     7
 65
   257
 75
     1
175
     1
 42
1.0
 92
        0
 66
   257
 43
1.0
 76
     1
 77
     6
 78
     2
 67
     7
 79
     3
170
     0
171
     0
290
     0
174
     0
 93
        1
 44
0.0
173
     0
291
     0
 45
0.0
1001
ACAD
1000
AcDbSavedByObjectVersion
1070
     0
  0
VISUALSTYLE
  5
40
102
{ACAD_REACTORS
330
2A
102
}
102
{ACAD_XDICTIONARY
360
35A
102
}
330
2A
100
AcDbVisualStyle
  2
X-Ray
 70
    25
 71
     2
 72
     2
 73
     1
 90
        1
 40
0.5
 41
30.0
 62
     5
 63
     7
421
 16777215
 74
     1
 91
        0
 64
     7
 65
   257
 75
     1
175
     1
 42
1.0
 92
        8
 66
     7
 43
1.0
 76
     1
 77
     6
 78
     2
 67
     7
 79
     3
170
     0
171
     0
290
     0
174
     0
 93
       13
 44
0.0
173
     0
291
     0
 45
0.0
1001
ACAD
1000
AcDbSavedByObjectVersion
1070
     0
  0
DICTIONARYVAR
  5
32D
102
{ACAD_REACTORS
330
32C
102
}
330
32C
100
DictionaryVariables
280
     0
  1
1:1
  0
DICTIONARYVAR
  5
36E
102
{ACAD_REACTORS
330
32C
102
}
330
32C
100
DictionaryVariables
280
     0
  1
Standard
  0
DICTIONARYVAR
  5
36D
102
{ACAD_REACTORS
330
32C
102
}
330
32C
100
DictionaryVariables
280
     0
  1
Standard
  0
DICTIONARYVAR
  5
32E
102
{ACAD_REACTORS
330
32C
102
}
330
32C
100
DictionaryVariables
280
     0
  1
1
  0
DICTIONARYVAR
  5
32F
102
{ACAD_REACTORS
330
32C
102
}
330
32C
100
DictionaryVariables
280
     0
  1
2
  0
DICTIONARY
  5
362
330
45
100
AcDbDictionary
280
     1
281
     1
  3
ACAD_XREC_ROUNDTRIP
360
363
  0
DICTIONARY
  5
360
330
44
100
AcDbDictionary
280
     1
281
     1
  3
ACAD_XREC_ROUNDTRIP
360
361
  0
DICTIONARY
  5
364
330
46
100
AcDbDictionary
280
     1
281
     1
  3
ACAD_XREC_ROUNDTRIP
360
365
  0
DICTIONARY
  5
36A
330
6C
100
AcDbDictionary
280
     1
281
     1
  3
ACAD_XREC_ROUNDTRIP
360
36B
  0
DICTIONARY
  5
366
330
6A
100
AcDbDictionary
280
     1
281
     1
  3
ACAD_ROUNDTRIP_2008_TABLESTYLE_CELLSTYLEMAP
360
368
  3
ACAD_XREC_ROUNDTRIP
360
367
  0
DICTIONARY
  5
338
330
2F
100
AcDbDictionary
280
     1
281
     1
  3
ACAD_XREC_ROUNDTRIP
360
339
  0
DICTIONARY
  5
33E
330
32
100
AcDbDictionary
280
     1
281
     1
  3
ACAD_XREC_ROUNDTRIP
360
33F
  0
DICTIONARY
  5
346
330
36
100
AcDbDictionary
280
     1
281
     1
  3
ACAD_XREC_ROUNDTRIP
360
347
  0
DICTIONARY
  5
34E
330
3A
100
AcDbDictionary
280
     1
281
     1
  3
ACAD_XREC_ROUNDTRIP
360
34F
  0
DICTIONARY
  5
342
330
34
100
AcDbDictionary
280
     1
281
     1
  3
ACAD_XREC_ROUNDTRIP
360
343
  0
DICTIONARY
  5
344
330
35
100
AcDbDictionary
280
     1
281
     1
  3
ACAD_XREC_ROUNDTRIP
360
345
  0
DICTIONARY
  5
354
330
3D
100
AcDbDictionary
280
     1
281
     1
  3
ACAD_XREC_ROUNDTRIP
360
355
  0
DICTIONARY
  5
34C
330
39
100
AcDbDictionary
280
     1
281
     1
  3
ACAD_XREC_ROUNDTRIP
360
34D
  0
DICTIONARY
  5
330
330
2B
100
AcDbDictionary
280
     1
281
     1
  3
ACAD_XREC_ROUNDTRIP
360
331
  0
DICTIONARY
  5
332
330
2C
100
AcDbDictionary
280
     1
281
     1
  3
ACAD_XREC_ROUNDTRIP
360
333
  0
DICTIONARY
  5
334
330
2D
100
AcDbDictionary
280
     1
281
     1
  3
ACAD_XREC_ROUNDTRIP
360
335
  0
DICTIONARY
  5
336
330
2E
100
AcDbDictionary
280
     1
281
     1
  3
ACAD_XREC_ROUNDTRIP
360
337
  0
DICTIONARY
  5
33C
330
31
100
AcDbDictionary
280
     1
281
     1
  3
ACAD_XREC_ROUNDTRIP
360
33D
  0
DICTIONARY
  5
350
330
3B
100
AcDbDictionary
280
     1
281
     1
  3
ACAD_XREC_ROUNDTRIP
360
351
  0
DICTIONARY
  5
34A
330
38
100
AcDbDictionary
280
     1
281
     1
  3
ACAD_XREC_ROUNDTRIP
360
34B
  0
DICTIONARY
  5
352
330
3C
100
AcDbDictionary
280
     1
281
     1
  3
ACAD_XREC_ROUNDTRIP
360
353
  0
DICTIONARY
  5
340
330
33
100
AcDbDictionary
280
     1
281
     1
  3
ACAD_XREC_ROUNDTRIP
360
341
  0
DICTIONARY
  5
35E
330
42
100
AcDbDictionary
280
     1
281
     1
  3
ACAD_XREC_ROUNDTRIP
360
35F
  0
DICTIONARY
  5
35C
330
41
100
AcDbDictionary
280
     1
281
     1
  3
ACAD_XREC_ROUNDTRIP
360
35D
  0
DICTIONARY
  5
356
330
3E
100
AcDbDictionary
280
     1
281
     1
  3
ACAD_XREC_ROUNDTRIP
360
357
  0
DICTIONARY
  5
358
330
3F
100
AcDbDictionary
280
     1
281
     1
  3
ACAD_XREC_ROUNDTRIP
360
359
  0
DICTIONARY
  5
348
330
37
100
AcDbDictionary
280
     1
281
     1
  3
ACAD_XREC_ROUNDTRIP
360
349
  0
DICTIONARY
  5
33A
330
30
100
AcDbDictionary
280
     1
281
     1
  3
ACAD_XREC_ROUNDTRIP
360
33B
  0
DICTIONARY
  5
35A
330
40
100
AcDbDictionary
280
     1
281
     1
  3
ACAD_XREC_ROUNDTRIP
360
35B
  0
XRECORD
  5
363
102
{ACAD_REACTORS
330
362
102
}
330
362
100
AcDbXrecord
280
     1
102
MATERIAL
148
0.0
149
0.0
149
0.0
 93
        0
 94
      127
282
     0
 72
     1
 77
     1
171
     1
175
     1
179
     1
273
     0
  0
XRECORD
  5
361
102
{ACAD_REACTORS
330
360
102
}
330
360
100
AcDbXrecord
280
     1
102
MATERIAL
148
0.0
149
0.0
149
0.0
 93
        0
 94
      127
282
     0
 72
     1
 77
     1
171
     1
175
     1
179
     1
273
     0
  0
XRECORD
  5
365
102
{ACAD_REACTORS
330
364
102
}
330
364
100
AcDbXrecord
280
     1
102
MATERIAL
148
0.0
149
0.0
149
0.0
 93
        0
 94
      127
282
     0
 72
     1
 77
     1
171
     1
175
     1
179
     1
273
     0
  0
XRECORD
  5
36B
102
{ACAD_REACTORS
330
36A
102
}
330
36A
100
AcDbXrecord
280
     1
102
ACAD_ROUNDTRIP_2010_MLEADER_STYLE
  0
CELLSTYLEMAP
  5
368
102
{ACAD_REACTORS
330
366
102
}
330
366
100
AcDbCellStyleMap
 90
        3
300
CELLSTYLE
  1
TABLEFORMAT_BEGIN
 90
        5
170
     1
 91
        0
 92
    32768
 62
   257
 93
        1
300
CONTENTFORMAT
  1
CONTENTFORMAT_BEGIN
 90
        0
 91
        0
 92
        4
 93
        0
300

 40
0.0
140
1.0
 94
        5
 62
     0
340
11
144
0.25
309
CONTENTFORMAT_END
171
     1
301
MARGIN
  1
CELLMARGIN_BEGIN
 40
0.06
 40
0.06
 40
0.06
 40
0.06
 40
0.06
 40
0.06
309
CELLMARGIN_END
 94
        6
 95
        1
302
GRIDFORMAT
  1
GRIDFORMAT_BEGIN
 90
        0
 91
        1
 62
     0
 92
       -2
340
14
 93
        0
 40
0.045
309
GRIDFORMAT_END
 95
        2
302
GRIDFORMAT
  1
GRIDFORMAT_BEGIN
 90
        0
 91
        1
 62
     0
 92
       -2
340
14
 93
        0
 40
0.045
309
GRIDFORMAT_END
 95
        4
302
GRIDFORMAT
  1
GRIDFORMAT_BEGIN
 90
        0
 91
        1
 62
     0
 92
       -2
340
14
 93
        0
 40
0.045
309
GRIDFORMAT_END
 95
        8
302
GRIDFORMAT
  1
GRIDFORMAT_BEGIN
 90
        0
 91
        1
 62
     0
 92
       -2
340
14
 93
        0
 40
0.045
309
GRIDFORMAT_END
 95
       16
302
GRIDFORMAT
  1
GRIDFORMAT_BEGIN
 90
        0
 91
        1
 62
     0
 92
       -2
340
14
 93
        0
 40
0.045
309
GRIDFORMAT_END
 95
       32
302
GRIDFORMAT
  1
GRIDFORMAT_BEGIN
 90
        0
 91
        1
 62
     0
 92
       -2
340
14
 93
        0
 40
0.045
309
GRIDFORMAT_END
309
TABLEFORMAT_END
  1
CELLSTYLE_BEGIN
 90
        1
 91
        1
300
_TITLE
309
CELLSTYLE_END
300
CELLSTYLE
  1
TABLEFORMAT_BEGIN
 90
        5
170
     1
 91
        0
 92
        0
 62
   257
 93
        1
300
CONTENTFORMAT
  1
CONTENTFORMAT_BEGIN
 90
        0
 91
        0
 92
        4
 93
        0
300

 40
0.0
140
1.0
 94
        5
 62
     0
340
11
144
0.18
309
CONTENTFORMAT_END
171
     1
301
MARGIN
  1
CELLMARGIN_BEGIN
 40
0.06
 40
0.06
 40
0.06
 40
0.06
 40
0.06
 40
0.06
309
CELLMARGIN_END
 94
        6
 95
        1
302
GRIDFORMAT
  1
GRIDFORMAT_BEGIN
 90
        0
 91
        1
 62
     0
 92
       -2
340
14
 93
        0
 40
0.045
309
GRIDFORMAT_END
 95
        2
302
GRIDFORMAT
  1
GRIDFORMAT_BEGIN
 90
        0
 91
        1
 62
     0
 92
       -2
340
14
 93
        0
 40
0.045
309
GRIDFORMAT_END
 95
        4
302
GRIDFORMAT
  1
GRIDFORMAT_BEGIN
 90
        0
 91
        1
 62
     0
 92
       -2
340
14
 93
        0
 40
0.045
309
GRIDFORMAT_END
 95
        8
302
GRIDFORMAT
  1
GRIDFORMAT_BEGIN
 90
        0
 91
        1
 62
     0
 92
       -2
340
14
 93
        0
 40
0.045
309
GRIDFORMAT_END
 95
       16
302
GRIDFORMAT
  1
GRIDFORMAT_BEGIN
 90
        0
 91
        1
 62
     0
 92
       -2
340
14
 93
        0
 40
0.045
309
GRIDFORMAT_END
 95
       32
302
GRIDFORMAT
  1
GRIDFORMAT_BEGIN
 90
        0
 91
        1
 62
     0
 92
       -2
340
14
 93
        0
 40
0.045
309
GRIDFORMAT_END
309
TABLEFORMAT_END
  1
CELLSTYLE_BEGIN
 90
        2
 91
        1
300
_HEADER
309
CELLSTYLE_END
300
CELLSTYLE
  1
TABLEFORMAT_BEGIN
 90
        5
170
     1
 91
        0
 92
        0
 62
   257
 93
        1
300
CONTENTFORMAT
  1
CONTENTFORMAT_BEGIN
 90
        0
 91
        0
 92
        4
 93
        0
300

 40
0.0
140
1.0
 94
        2
 62
     0
340
11
144
0.18
309
CONTENTFORMAT_END
171
     1
301
MARGIN
  1
CELLMARGIN_BEGIN
 40
0.06
 40
0.06
 40
0.06
 40
0.06
 40
0.06
 40
0.06
309
CELLMARGIN_END
 94
        6
 95
        1
302
GRIDFORMAT
  1
GRIDFORMAT_BEGIN
 90
        0
 91
        1
 62
     0
 92
       -2
340
14
 93
        0
 40
0.045
309
GRIDFORMAT_END
 95
        2
302
GRIDFORMAT
  1
GRIDFORMAT_BEGIN
 90
        0
 91
        1
 62
     0
 92
       -2
340
14
 93
        0
 40
0.045
309
GRIDFORMAT_END
 95
        4
302
GRIDFORMAT
  1
GRIDFORMAT_BEGIN
 90
        0
 91
        1
 62
     0
 92
       -2
340
14
 93
        0
 40
0.045
309
GRIDFORMAT_END
 95
        8
302
GRIDFORMAT
  1
GRIDFORMAT_BEGIN
 90
        0
 91
        1
 62
     0
 92
       -2
340
14
 93
        0
 40
0.045
309
GRIDFORMAT_END
 95
       16
302
GRIDFORMAT
  1
GRIDFORMAT_BEGIN
 90
        0
 91
        1
 62
     0
 92
       -2
340
14
 93
        0
 40
0.045
309
GRIDFORMAT_END
 95
       32
302
GRIDFORMAT
  1
GRIDFORMAT_BEGIN
 90
        0
 91
        1
 62
     0
 92
       -2
340
14
 93
        0
 40
0.045
309
GRIDFORMAT_END
309
TABLEFORMAT_END
  1
CELLSTYLE_BEGIN
 90
        3
 91
        2
300
_DATA
309
CELLSTYLE_END
  0
XRECORD
  5
367
102
{ACAD_REACTORS
330
366
102
}
330
366
100
AcDbXrecord
280
     1
102
ACAD_ROUNDTRIP_PRE2007_TABLESTYLE
 90
        4
 91
        0
  1

 92
        4
 93
        0
  2

 94
        4
 95
        0
  3

  0
XRECORD
  5
339
102
{ACAD_REACTORS
330
338
102
}
330
338
100
AcDbXrecord
280
     1
102
RTVSPropertyOp0
 70
     1
102
RTVSPropertyOp1
 70
     1
102
RTVSPropertyOp2
 70
     1
102
RTVSPropertyOp3
 70
     1
102
RTVSPropertyOp4
 70
     1
102
RTVSPropertyOp5
 70
     1
102
RTVSPropertyOp6
 70
     1
102
RTVSPropertyOp7
 70
     1
102
RTVSPropertyOp8
 70
     1
102
RTVSPropertyOp9
 70
     1
102
RTVSPropertyOp10
 70
     1
102
RTVSPropertyOp11
 70
     1
102
RTVSPropertyOp12
 70
     1
102
RTVSPropertyOp13
 70
     1
102
RTVSPropertyOp14
 70
     1
102
RTVSPropertyOp15
 70
     1
102
RTVSPropertyOp16
 70
     1
102
RTVSPropertyOp17
 70
     1
102
RTVSPropertyOp18
 70
     1
102
RTVSPropertyOp19
 70
     1
102
RTVSPropertyOp20
 70
     1
102
RTVSPropertyOp21
 70
     1
102
RTVSPropertyOp22
 70
     1
102
RTVSPropertyOp23
 70
     1
102
RTVSPropertyOp24
 70
     1
102
RTVSPropertyOp25
 70
     1
102
RTVSPropertyOp26
 70
     1
102
RTVSPropertyOp27
 70
     1
102
RTVSPropertyOp28
 70
     1
102
RTVSPropertyOp29
 70
     1
102
RTVSPropertyOp30
 70
     1
102
RTVSPropertyOp31
 70
     1
102
RTVSPropertyOp32
 70
     1
102
RTVSPropertyOp33
 70
     1
102
RTVSPropertyOp34
 70
     1
102
RTVSPropertyOp35
 70
     1
102
RTVSPropertyOp36
 70
     1
102
RTVSPropertyOp37
 70
     1
102
RTVSPropertyOp38
 70
     1
102
RTVSPropertyOp39
 70
     1
102
RTVSPropertyOp40
 70
     1
102
RTVSPropertyOp41
 70
     1
102
RTVSPropertyOp42
 70
     1
102
RTVSPropertyOp43
 70
     1
102
RTVSPropertyOp44
 70
     1
102
RTVSPropertyOp45
 70
     1
102
RTVSPropertyOp46
 70
     1
102
RTVSPropertyOp47
 70
     1
102
RTVSPropertyOp48
 70
     1
102
RTVSPropertyOp49
 70
     1
102
RTVSPropertyOp50
 70
     1
102
RTVSPropertyOp51
 70
     0
102
RTVSPropertyOp52
 70
     0
102
RTVSPropertyOp53
 70
     1
102
RTVSPropertyOp54
 70
     1
102
RTVSPropertyOp55
 70
     1
102
RTVSPropertyOp56
 70
     1
102
RTVSPropertyOp57
 70
     1
102
RTVSPost2010Prop28
280
     1
102
RTVSPost2010PropOp28
 70
     1
102
RTVSPost2010Prop29
280
     1
102
RTVSPost2010PropOp29
 70
     1
102
RTVSPost2010Prop30
280
     0
102
RTVSPost2010PropOp30
 70
     1
102
RTVSPost2010Prop31
280
     0
102
RTVSPost2010PropOp31
 70
     1
102
RTVSPost2010Prop32
280
     0
102
RTVSPost2010PropOp32
 70
     1
102
RTVSPost2010Prop33
280
     0
102
RTVSPost2010PropOp33
 70
     1
102
RTVSPost2010Prop34
280
     0
102
RTVSPost2010PropOp34
 70
     1
102
RTVSPost2010Prop35
280
     0
102
RTVSPost2010PropOp35
 70
     1
102
RTVSPost2010Prop36
280
     0
102
RTVSPost2010PropOp36
 70
     1
102
RTVSPost2010Prop37
 90
       50
102
RTVSPost2010PropOp37
 70
     1
102
RTVSPost2010Prop38
140
0.0
102
RTVSPost2010PropOp38
 70
     1
102
RTVSPost2010Prop39
140
1.0
102
RTVSPost2010PropOp39
 70
     1
102
RTVSPost2010Prop40
 90
        0
102
RTVSPost2010PropOp40
 70
     1
102
RTVSPost2010Prop41ColorIndex
 90
       18
102
RTVSPost2010Prop41ColorRGB
 90
        0
102
RTVSPost2010PropOp41
 70
     1
102
RTVSPost2010Prop42
 90
       50
102
RTVSPost2010PropOp42
 70
     1
102
RTVSPost2010Prop43
 90
        3
102
RTVSPost2010PropOp43
 70
     1
102
RTVSPost2010Prop44ColorIndex
 90
        5
102
RTVSPost2010Prop44ColorRGB
 90
      255
102
RTVSPost2010PropOp44
 70
     1
102
RTVSPost2010Prop45
280
     0
102
RTVSPost2010PropOp45
 70
     1
102
RTVSPost2010Prop46
 90
       50
102
RTVSPost2010PropOp46
 70
     1
102
RTVSPost2010Prop47
 90
       50
102
RTVSPost2010PropOp47
 70
     1
102
RTVSPost2010Prop48
 90
       50
102
RTVSPost2010PropOp48
 70
     1
102
RTVSPost2010Prop49
280
     0
102
RTVSPost2010PropOp49
 70
     1
102
RTVSPost2010Prop50
 90
       50
102
RTVSPost2010PropOp50
 70
     1
102
RTVSPost2010Prop51ColorIndex
 90
      256
102
RTVSPost2010Prop51ColorRGB
 90
-16777216
102
RTVSPost2010PropOp51
 70
     0
102
RTVSPost2010Prop52
140
1.0
102
RTVSPost2010PropOp52
 70
     0
102
RTVSPost2010Prop53
 90
        2
102
RTVSPost2010PropOp53
 70
     1
102
RTVSPost2010Prop54
  1
strokes_ogs.tif
102
RTVSPost2010PropOp54
 70
     1
102
RTVSPost2010Prop55
280
     0
102
RTVSPost2010PropOp55
 70
     1
102
RTVSPost2010Prop56
140
1.0
102
RTVSPost2010PropOp56
 70
     1
102
RTVSPost2010Prop57
140
1.0
102
RTVSPost2010PropOp57
 70
     1
  0
XRECORD
  5
33F
102
{ACAD_REACTORS
330
33E
102
}
330
33E
100
AcDbXrecord
280
     1
102
RTVSPropertyOp0
 70
     1
102
RTVSPropertyOp1
 70
     1
102
RTVSPropertyOp2
 70
     1
102
RTVSPropertyOp3
 70
     1
102
RTVSPropertyOp4
 70
     1
102
RTVSPropertyOp5
 70
     1
102
RTVSPropertyOp6
 70
     1
102
RTVSPropertyOp7
 70
     1
102
RTVSPropertyOp8
 70
     1
102
RTVSPropertyOp9
 70
     1
102
RTVSPropertyOp10
 70
     1
102
RTVSPropertyOp11
 70
     1
102
RTVSPropertyOp12
 70
     1
102
RTVSPropertyOp13
 70
     1
102
RTVSPropertyOp14
 70
     1
102
RTVSPropertyOp15
 70
     1
102
RTVSPropertyOp16
 70
     1
102
RTVSPropertyOp17
 70
     1
102
RTVSPropertyOp18
 70
     1
102
RTVSPropertyOp19
 70
     1
102
RTVSPropertyOp20
 70
     1
102
RTVSPropertyOp21
 70
     1
102
RTVSPropertyOp22
 70
     1
102
RTVSPropertyOp23
 70
     1
102
RTVSPropertyOp24
 70
     1
102
RTVSPropertyOp25
 70
     1
102
RTVSPropertyOp26
 70
     1
102
RTVSPropertyOp27
 70
     1
102
RTVSPropertyOp28
 70
     1
102
RTVSPropertyOp29
 70
     1
102
RTVSPropertyOp30
 70
     1
102
RTVSPropertyOp31
 70
     1
102
RTVSPropertyOp32
 70
     1
102
RTVSPropertyOp33
 70
     1
102
RTVSPropertyOp34
 70
     1
102
RTVSPropertyOp35
 70
     1
102
RTVSPropertyOp36
 70
     1
102
RTVSPropertyOp37
 70
     1
102
RTVSPropertyOp38
 70
     1
102
RTVSPropertyOp39
 70
     1
102
RTVSPropertyOp40
 70
     1
102
RTVSPropertyOp41
 70
     1
102
RTVSPropertyOp42
 70
     1
102
RTVSPropertyOp43
 70
     1
102
RTVSPropertyOp44
 70
     1
102
RTVSPropertyOp45
 70
     1
102
RTVSPropertyOp46
 70
     1
102
RTVSPropertyOp47
 70
     1
102
RTVSPropertyOp48
 70
     1
102
RTVSPropertyOp49
 70
     1
102
RTVSPropertyOp50
 70
     1
102
RTVSPropertyOp51
 70
     0
102
RTVSPropertyOp52
 70
     0
102
RTVSPropertyOp53
 70
     1
102
RTVSPropertyOp54
 70
     1
102
RTVSPropertyOp55
 70
     1
102
RTVSPropertyOp56
 70
     1
102
RTVSPropertyOp57
 70
     1
102
RTVSPost2010Prop28
280
     0
102
RTVSPost2010PropOp28
 70
     1
102
RTVSPost2010Prop29
280
     1
102
RTVSPost2010PropOp29
 70
     1
102
RTVSPost2010Prop30
280
     1
102
RTVSPost2010PropOp30
 70
     1
102
RTVSPost2010Prop31
280
     0
102
RTVSPost2010PropOp31
 70
     1
102
RTVSPost2010Prop32
280
     0
102
RTVSPost2010PropOp32
 70
     1
102
RTVSPost2010Prop33
280
     0
102
RTVSPost2010PropOp33
 70
     1
102
RTVSPost2010Prop34
280
     0
102
RTVSPost2010PropOp34
 70
     1
102
RTVSPost2010Prop35
280
     0
102
RTVSPost2010PropOp35
 70
     1
102
RTVSPost2010Prop36
280
     0
102
RTVSPost2010PropOp36
 70
     1
102
RTVSPost2010Prop37
 90
       50
102
RTVSPost2010PropOp37
 70
     1
102
RTVSPost2010Prop38
140
0.0
102
RTVSPost2010PropOp38
 70
     1
102
RTVSPost2010Prop39
140
1.0
102
RTVSPost2010PropOp39
 70
     1
102
RTVSPost2010Prop40
 90
        0
102
RTVSPost2010PropOp40
 70
     1
102
RTVSPost2010Prop41ColorIndex
 90
       18
102
RTVSPost2010Prop41ColorRGB
 90
        0
102
RTVSPost2010PropOp41
 70
     1
102
RTVSPost2010Prop42
 90
       50
102
RTVSPost2010PropOp42
 70
     1
102
RTVSPost2010Prop43
 90
        3
102
RTVSPost2010PropOp43
 70
     1
102
RTVSPost2010Prop44ColorIndex
 90
        5
102
RTVSPost2010Prop44ColorRGB
 90
      255
102
RTVSPost2010PropOp44
 70
     1
102
RTVSPost2010Prop45
280
     0
102
RTVSPost2010PropOp45
 70
     1
102
RTVSPost2010Prop46
 90
       50
102
RTVSPost2010PropOp46
 70
     1
102
RTVSPost2010Prop47
 90
       50
102
RTVSPost2010PropOp47
 70
     1
102
RTVSPost2010Prop48
 90
       50
102
RTVSPost2010PropOp48
 70
     1
102
RTVSPost2010Prop49
280
     0
102
RTVSPost2010PropOp49
 70
     1
102
RTVSPost2010Prop50
 90
       50
102
RTVSPost2010PropOp50
 70
     1
102
RTVSPost2010Prop51ColorIndex
 90
      256
102
RTVSPost2010Prop51ColorRGB
 90
-16777216
102
RTVSPost2010PropOp51
 70
     0
102
RTVSPost2010Prop52
140
1.0
102
RTVSPost2010PropOp52
 70
     0
102
RTVSPost2010Prop53
 90
        2
102
RTVSPost2010PropOp53
 70
     1
102
RTVSPost2010Prop54
  1
strokes_ogs.tif
102
RTVSPost2010PropOp54
 70
     1
102
RTVSPost2010Prop55
280
     0
102
RTVSPost2010PropOp55
 70
     1
102
RTVSPost2010Prop56
140
1.0
102
RTVSPost2010PropOp56
 70
     1
102
RTVSPost2010Prop57
140
1.0
102
RTVSPost2010PropOp57
 70
     1
  0
XRECORD
  5
347
102
{ACAD_REACTORS
330
346
102
}
330
346
100
AcDbXrecord
280
     1
102
RTVSPropertyOp0
 70
     1
102
RTVSPropertyOp1
 70
     1
102
RTVSPropertyOp2
 70
     1
102
RTVSPropertyOp3
 70
     1
102
RTVSPropertyOp4
 70
     1
102
RTVSPropertyOp5
 70
     1
102
RTVSPropertyOp6
 70
     1
102
RTVSPropertyOp7
 70
     1
102
RTVSPropertyOp8
 70
     1
102
RTVSPropertyOp9
 70
     1
102
RTVSPropertyOp10
 70
     1
102
RTVSPropertyOp11
 70
     1
102
RTVSPropertyOp12
 70
     1
102
RTVSPropertyOp13
 70
     1
102
RTVSPropertyOp14
 70
     1
102
RTVSPropertyOp15
 70
     1
102
RTVSPropertyOp16
 70
     1
102
RTVSPropertyOp17
 70
     1
102
RTVSPropertyOp18
 70
     1
102
RTVSPropertyOp19
 70
     1
102
RTVSPropertyOp20
 70
     1
102
RTVSPropertyOp21
 70
     1
102
RTVSPropertyOp22
 70
     1
102
RTVSPropertyOp23
 70
     1
102
RTVSPropertyOp24
 70
     1
102
RTVSPropertyOp25
 70
     1
102
RTVSPropertyOp26
 70
     1
102
RTVSPropertyOp27
 70
     1
102
RTVSPropertyOp28
 70
     1
102
RTVSPropertyOp29
 70
     1
102
RTVSPropertyOp30
 70
     1
102
RTVSPropertyOp31
 70
     1
102
RTVSPropertyOp32
 70
     1
102
RTVSPropertyOp33
 70
     1
102
RTVSPropertyOp34
 70
     1
102
RTVSPropertyOp35
 70
     1
102
RTVSPropertyOp36
 70
     1
102
RTVSPropertyOp37
 70
     1
102
RTVSPropertyOp38
 70
     1
102
RTVSPropertyOp39
 70
     1
102
RTVSPropertyOp40
 70
     1
102
RTVSPropertyOp41
 70
     1
102
RTVSPropertyOp42
 70
     1
102
RTVSPropertyOp43
 70
     1
102
RTVSPropertyOp44
 70
     1
102
RTVSPropertyOp45
 70
     1
102
RTVSPropertyOp46
 70
     1
102
RTVSPropertyOp47
 70
     1
102
RTVSPropertyOp48
 70
     1
102
RTVSPropertyOp49
 70
     1
102
RTVSPropertyOp50
 70
     1
102
RTVSPropertyOp51
 70
     0
102
RTVSPropertyOp52
 70
     0
102
RTVSPropertyOp53
 70
     1
102
RTVSPropertyOp54
 70
     1
102
RTVSPropertyOp55
 70
     1
102
RTVSPropertyOp56
 70
     1
102
RTVSPropertyOp57
 70
     1
102
RTVSPost2010Prop28
280
     0
102
RTVSPost2010PropOp28
 70
     1
102
RTVSPost2010Prop29
280
     1
102
RTVSPost2010PropOp29
 70
     1
102
RTVSPost2010Prop30
280
     1
102
RTVSPost2010PropOp30
 70
     1
102
RTVSPost2010Prop31
280
     0
102
RTVSPost2010PropOp31
 70
     1
102
RTVSPost2010Prop32
280
     0
102
RTVSPost2010PropOp32
 70
     1
102
RTVSPost2010Prop33
280
     0
102
RTVSPost2010PropOp33
 70
     1
102
RTVSPost2010Prop34
280
     0
102
RTVSPost2010PropOp34
 70
     1
102
RTVSPost2010Prop35
280
     0
102
RTVSPost2010PropOp35
 70
     1
102
RTVSPost2010Prop36
280
     0
102
RTVSPost2010PropOp36
 70
     1
102
RTVSPost2010Prop37
 90
       50
102
RTVSPost2010PropOp37
 70
     1
102
RTVSPost2010Prop38
140
0.0
102
RTVSPost2010PropOp38
 70
     1
102
RTVSPost2010Prop39
140
1.0
102
RTVSPost2010PropOp39
 70
     1
102
RTVSPost2010Prop40
 90
        0
102
RTVSPost2010PropOp40
 70
     1
102
RTVSPost2010Prop41ColorIndex
 90
       18
102
RTVSPost2010Prop41ColorRGB
 90
        0
102
RTVSPost2010PropOp41
 70
     1
102
RTVSPost2010Prop42
 90
       50
102
RTVSPost2010PropOp42
 70
     1
102
RTVSPost2010Prop43
 90
        3
102
RTVSPost2010PropOp43
 70
     1
102
RTVSPost2010Prop44ColorIndex
 90
        5
102
RTVSPost2010Prop44ColorRGB
 90
      255
102
RTVSPost2010PropOp44
 70
     1
102
RTVSPost2010Prop45
280
     0
102
RTVSPost2010PropOp45
 70
     1
102
RTVSPost2010Prop46
 90
       50
102
RTVSPost2010PropOp46
 70
     1
102
RTVSPost2010Prop47
 90
       50
102
RTVSPost2010PropOp47
 70
     1
102
RTVSPost2010Prop48
 90
       50
102
RTVSPost2010PropOp48
 70
     1
102
RTVSPost2010Prop49
280
     0
102
RTVSPost2010PropOp49
 70
     1
102
RTVSPost2010Prop50
 90
       50
102
RTVSPost2010PropOp50
 70
     1
102
RTVSPost2010Prop51ColorIndex
 90
      256
102
RTVSPost2010Prop51ColorRGB
 90
-16777216
102
RTVSPost2010PropOp51
 70
     0
102
RTVSPost2010Prop52
140
1.0
102
RTVSPost2010PropOp52
 70
     0
102
RTVSPost2010Prop53
 90
        2
102
RTVSPost2010PropOp53
 70
     1
102
RTVSPost2010Prop54
  1
strokes_ogs.tif
102
RTVSPost2010PropOp54
 70
     1
102
RTVSPost2010Prop55
280
     0
102
RTVSPost2010PropOp55
 70
     1
102
RTVSPost2010Prop56
140
1.0
102
RTVSPost2010PropOp56
 70
     1
102
RTVSPost2010Prop57
140
1.0
102
RTVSPost2010PropOp57
 70
     1
  0
XRECORD
  5
34F
102
{ACAD_REACTORS
330
34E
102
}
330
34E
100
AcDbXrecord
280
     1
102
RTVSPropertyOp0
 70
     1
102
RTVSPropertyOp1
 70
     1
102
RTVSPropertyOp2
 70
     1
102
RTVSPropertyOp3
 70
     1
102
RTVSPropertyOp4
 70
     1
102
RTVSPropertyOp5
 70
     1
102
RTVSPropertyOp6
 70
     1
102
RTVSPropertyOp7
 70
     1
102
RTVSPropertyOp8
 70
     1
102
RTVSPropertyOp9
 70
     1
102
RTVSPropertyOp10
 70
     1
102
RTVSPropertyOp11
 70
     1
102
RTVSPropertyOp12
 70
     1
102
RTVSPropertyOp13
 70
     1
102
RTVSPropertyOp14
 70
     1
102
RTVSPropertyOp15
 70
     1
102
RTVSPropertyOp16
 70
     1
102
RTVSPropertyOp17
 70
     1
102
RTVSPropertyOp18
 70
     1
102
RTVSPropertyOp19
 70
     1
102
RTVSPropertyOp20
 70
     1
102
RTVSPropertyOp21
 70
     1
102
RTVSPropertyOp22
 70
     1
102
RTVSPropertyOp23
 70
     1
102
RTVSPropertyOp24
 70
     1
102
RTVSPropertyOp25
 70
     1
102
RTVSPropertyOp26
 70
     1
102
RTVSPropertyOp27
 70
     1
102
RTVSPropertyOp28
 70
     1
102
RTVSPropertyOp29
 70
     1
102
RTVSPropertyOp30
 70
     1
102
RTVSPropertyOp31
 70
     1
102
RTVSPropertyOp32
 70
     1
102
RTVSPropertyOp33
 70
     1
102
RTVSPropertyOp34
 70
     1
102
RTVSPropertyOp35
 70
     1
102
RTVSPropertyOp36
 70
     1
102
RTVSPropertyOp37
 70
     1
102
RTVSPropertyOp38
 70
     1
102
RTVSPropertyOp39
 70
     1
102
RTVSPropertyOp40
 70
     1
102
RTVSPropertyOp41
 70
     1
102
RTVSPropertyOp42
 70
     1
102
RTVSPropertyOp43
 70
     1
102
RTVSPropertyOp44
 70
     1
102
RTVSPropertyOp45
 70
     1
102
RTVSPropertyOp46
 70
     1
102
RTVSPropertyOp47
 70
     1
102
RTVSPropertyOp48
 70
     1
102
RTVSPropertyOp49
 70
     1
102
RTVSPropertyOp50
 70
     1
102
RTVSPropertyOp51
 70
     0
102
RTVSPropertyOp52
 70
     0
102
RTVSPropertyOp53
 70
     1
102
RTVSPropertyOp54
 70
     1
102
RTVSPropertyOp55
 70
     1
102
RTVSPropertyOp56
 70
     1
102
RTVSPropertyOp57
 70
     1
102
RTVSPost2010Prop28
280
     0
102
RTVSPost2010PropOp28
 70
     1
102
RTVSPost2010Prop29
280
     1
102
RTVSPost2010PropOp29
 70
     1
102
RTVSPost2010Prop30
280
     1
102
RTVSPost2010PropOp30
 70
     1
102
RTVSPost2010Prop31
280
     0
102
RTVSPost2010PropOp31
 70
     1
102
RTVSPost2010Prop32
280
     0
102
RTVSPost2010PropOp32
 70
     1
102
RTVSPost2010Prop33
280
     0
102
RTVSPost2010PropOp33
 70
     1
102
RTVSPost2010Prop34
280
     0
102
RTVSPost2010PropOp34
 70
     1
102
RTVSPost2010Prop35
280
     0
102
RTVSPost2010PropOp35
 70
     1
102
RTVSPost2010Prop36
280
     0
102
RTVSPost2010PropOp36
 70
     1
102
RTVSPost2010Prop37
 90
       50
102
RTVSPost2010PropOp37
 70
     1
102
RTVSPost2010Prop38
140
0.0
102
RTVSPost2010PropOp38
 70
     1
102
RTVSPost2010Prop39
140
1.0
102
RTVSPost2010PropOp39
 70
     1
102
RTVSPost2010Prop40
 90
        0
102
RTVSPost2010PropOp40
 70
     1
102
RTVSPost2010Prop41ColorIndex
 90
       18
102
RTVSPost2010Prop41ColorRGB
 90
        0
102
RTVSPost2010PropOp41
 70
     1
102
RTVSPost2010Prop42
 90
       50
102
RTVSPost2010PropOp42
 70
     1
102
RTVSPost2010Prop43
 90
        3
102
RTVSPost2010PropOp43
 70
     1
102
RTVSPost2010Prop44ColorIndex
 90
        5
102
RTVSPost2010Prop44ColorRGB
 90
      255
102
RTVSPost2010PropOp44
 70
     1
102
RTVSPost2010Prop45
280
     0
102
RTVSPost2010PropOp45
 70
     1
102
RTVSPost2010Prop46
 90
       50
102
RTVSPost2010PropOp46
 70
     1
102
RTVSPost2010Prop47
 90
       50
102
RTVSPost2010PropOp47
 70
     1
102
RTVSPost2010Prop48
 90
       50
102
RTVSPost2010PropOp48
 70
     1
102
RTVSPost2010Prop49
280
     0
102
RTVSPost2010PropOp49
 70
     1
102
RTVSPost2010Prop50
 90
       50
102
RTVSPost2010PropOp50
 70
     1
102
RTVSPost2010Prop51ColorIndex
 90
      256
102
RTVSPost2010Prop51ColorRGB
 90
-16777216
102
RTVSPost2010PropOp51
 70
     0
102
RTVSPost2010Prop52
140
1.0
102
RTVSPost2010PropOp52
 70
     0
102
RTVSPost2010Prop53
 90
        2
102
RTVSPost2010PropOp53
 70
     1
102
RTVSPost2010Prop54
  1
strokes_ogs.tif
102
RTVSPost2010PropOp54
 70
     1
102
RTVSPost2010Prop55
280
     0
102
RTVSPost2010PropOp55
 70
     1
102
RTVSPost2010Prop56
140
1.0
102
RTVSPost2010PropOp56
 70
     1
102
RTVSPost2010Prop57
140
1.0
102
RTVSPost2010PropOp57
 70
     1
  0
XRECORD
  5
343
102
{ACAD_REACTORS
330
342
102
}
330
342
100
AcDbXrecord
280
     1
102
RTVSPropertyOp0
 70
     1
102
RTVSPropertyOp1
 70
     1
102
RTVSPropertyOp2
 70
     1
102
RTVSPropertyOp3
 70
     1
102
RTVSPropertyOp4
 70
     1
102
RTVSPropertyOp5
 70
     1
102
RTVSPropertyOp6
 70
     1
102
RTVSPropertyOp7
 70
     1
102
RTVSPropertyOp8
 70
     1
102
RTVSPropertyOp9
 70
     1
102
RTVSPropertyOp10
 70
     1
102
RTVSPropertyOp11
 70
     1
102
RTVSPropertyOp12
 70
     1
102
RTVSPropertyOp13
 70
     1
102
RTVSPropertyOp14
 70
     1
102
RTVSPropertyOp15
 70
     1
102
RTVSPropertyOp16
 70
     1
102
RTVSPropertyOp17
 70
     1
102
RTVSPropertyOp18
 70
     1
102
RTVSPropertyOp19
 70
     1
102
RTVSPropertyOp20
 70
     1
102
RTVSPropertyOp21
 70
     1
102
RTVSPropertyOp22
 70
     1
102
RTVSPropertyOp23
 70
     1
102
RTVSPropertyOp24
 70
     1
102
RTVSPropertyOp25
 70
     1
102
RTVSPropertyOp26
 70
     1
102
RTVSPropertyOp27
 70
     1
102
RTVSPropertyOp28
 70
     1
102
RTVSPropertyOp29
 70
     1
102
RTVSPropertyOp30
 70
     1
102
RTVSPropertyOp31
 70
     1
102
RTVSPropertyOp32
 70
     1
102
RTVSPropertyOp33
 70
     1
102
RTVSPropertyOp34
 70
     1
102
RTVSPropertyOp35
 70
     1
102
RTVSPropertyOp36
 70
     1
102
RTVSPropertyOp37
 70
     1
102
RTVSPropertyOp38
 70
     1
102
RTVSPropertyOp39
 70
     1
102
RTVSPropertyOp40
 70
     1
102
RTVSPropertyOp41
 70
     1
102
RTVSPropertyOp42
 70
     1
102
RTVSPropertyOp43
 70
     1
102
RTVSPropertyOp44
 70
     1
102
RTVSPropertyOp45
 70
     1
102
RTVSPropertyOp46
 70
     1
102
RTVSPropertyOp47
 70
     1
102
RTVSPropertyOp48
 70
     1
102
RTVSPropertyOp49
 70
     1
102
RTVSPropertyOp50
 70
     1
102
RTVSPropertyOp51
 70
     0
102
RTVSPropertyOp52
 70
     0
102
RTVSPropertyOp53
 70
     1
102
RTVSPropertyOp54
 70
     1
102
RTVSPropertyOp55
 70
     1
102
RTVSPropertyOp56
 70
     1
102
RTVSPropertyOp57
 70
     1
102
RTVSPost2010Prop28
280
     0
102
RTVSPost2010PropOp28
 70
     1
102
RTVSPost2010Prop29
280
     1
102
RTVSPost2010PropOp29
 70
     1
102
RTVSPost2010Prop30
280
     1
102
RTVSPost2010PropOp30
 70
     1
102
RTVSPost2010Prop31
280
     0
102
RTVSPost2010PropOp31
 70
     1
102
RTVSPost2010Prop32
280
     0
102
RTVSPost2010PropOp32
 70
     1
102
RTVSPost2010Prop33
280
     0
102
RTVSPost2010PropOp33
 70
     1
102
RTVSPost2010Prop34
280
     0
102
RTVSPost2010PropOp34
 70
     1
102
RTVSPost2010Prop35
280
     0
102
RTVSPost2010PropOp35
 70
     1
102
RTVSPost2010Prop36
280
     0
102
RTVSPost2010PropOp36
 70
     1
102
RTVSPost2010Prop37
 90
       50
102
RTVSPost2010PropOp37
 70
     1
102
RTVSPost2010Prop38
140
0.0
102
RTVSPost2010PropOp38
 70
     1
102
RTVSPost2010Prop39
140
1.0
102
RTVSPost2010PropOp39
 70
     1
102
RTVSPost2010Prop40
 90
        0
102
RTVSPost2010PropOp40
 70
     1
102
RTVSPost2010Prop41ColorIndex
 90
       18
102
RTVSPost2010Prop41ColorRGB
 90
        0
102
RTVSPost2010PropOp41
 70
     1
102
RTVSPost2010Prop42
 90
       50
102
RTVSPost2010PropOp42
 70
     1
102
RTVSPost2010Prop43
 90
        3
102
RTVSPost2010PropOp43
 70
     1
102
RTVSPost2010Prop44ColorIndex
 90
        5
102
RTVSPost2010Prop44ColorRGB
 90
      255
102
RTVSPost2010PropOp44
 70
     1
102
RTVSPost2010Prop45
280
     0
102
RTVSPost2010PropOp45
 70
     1
102
RTVSPost2010Prop46
 90
       50
102
RTVSPost2010PropOp46
 70
     1
102
RTVSPost2010Prop47
 90
       50
102
RTVSPost2010PropOp47
 70
     1
102
RTVSPost2010Prop48
 90
       50
102
RTVSPost2010PropOp48
 70
     1
102
RTVSPost2010Prop49
280
     0
102
RTVSPost2010PropOp49
 70
     1
102
RTVSPost2010Prop50
 90
       50
102
RTVSPost2010PropOp50
 70
     1
102
RTVSPost2010Prop51ColorIndex
 90
      256
102
RTVSPost2010Prop51ColorRGB
 90
-16777216
102
RTVSPost2010PropOp51
 70
     0
102
RTVSPost2010Prop52
140
1.0
102
RTVSPost2010PropOp52
 70
     0
102
RTVSPost2010Prop53
 90
        2
102
RTVSPost2010PropOp53
 70
     1
102
RTVSPost2010Prop54
  1
strokes_ogs.tif
102
RTVSPost2010PropOp54
 70
     1
102
RTVSPost2010Prop55
280
     0
102
RTVSPost2010PropOp55
 70
     1
102
RTVSPost2010Prop56
140
1.0
102
RTVSPost2010PropOp56
 70
     1
102
RTVSPost2010Prop57
140
1.0
102
RTVSPost2010PropOp57
 70
     1
  0
XRECORD
  5
345
102
{ACAD_REACTORS
330
344
102
}
330
344
100
AcDbXrecord
280
     1
102
RTVSPropertyOp0
 70
     1
102
RTVSPropertyOp1
 70
     1
102
RTVSPropertyOp2
 70
     1
102
RTVSPropertyOp3
 70
     1
102
RTVSPropertyOp4
 70
     1
102
RTVSPropertyOp5
 70
     1
102
RTVSPropertyOp6
 70
     1
102
RTVSPropertyOp7
 70
     1
102
RTVSPropertyOp8
 70
     1
102
RTVSPropertyOp9
 70
     1
102
RTVSPropertyOp10
 70
     1
102
RTVSPropertyOp11
 70
     1
102
RTVSPropertyOp12
 70
     1
102
RTVSPropertyOp13
 70
     1
102
RTVSPropertyOp14
 70
     1
102
RTVSPropertyOp15
 70
     1
102
RTVSPropertyOp16
 70
     1
102
RTVSPropertyOp17
 70
     1
102
RTVSPropertyOp18
 70
     1
102
RTVSPropertyOp19
 70
     1
102
RTVSPropertyOp20
 70
     1
102
RTVSPropertyOp21
 70
     1
102
RTVSPropertyOp22
 70
     1
102
RTVSPropertyOp23
 70
     1
102
RTVSPropertyOp24
 70
     1
102
RTVSPropertyOp25
 70
     1
102
RTVSPropertyOp26
 70
     1
102
RTVSPropertyOp27
 70
     1
102
RTVSPropertyOp28
 70
     1
102
RTVSPropertyOp29
 70
     1
102
RTVSPropertyOp30
 70
     1
102
RTVSPropertyOp31
 70
     1
102
RTVSPropertyOp32
 70
     1
102
RTVSPropertyOp33
 70
     1
102
RTVSPropertyOp34
 70
     1
102
RTVSPropertyOp35
 70
     1
102
RTVSPropertyOp36
 70
     1
102
RTVSPropertyOp37
 70
     1
102
RTVSPropertyOp38
 70
     1
102
RTVSPropertyOp39
 70
     1
102
RTVSPropertyOp40
 70
     1
102
RTVSPropertyOp41
 70
     1
102
RTVSPropertyOp42
 70
     1
102
RTVSPropertyOp43
 70
     1
102
RTVSPropertyOp44
 70
     1
102
RTVSPropertyOp45
 70
     1
102
RTVSPropertyOp46
 70
     1
102
RTVSPropertyOp47
 70
     1
102
RTVSPropertyOp48
 70
     1
102
RTVSPropertyOp49
 70
     1
102
RTVSPropertyOp50
 70
     1
102
RTVSPropertyOp51
 70
     0
102
RTVSPropertyOp52
 70
     0
102
RTVSPropertyOp53
 70
     1
102
RTVSPropertyOp54
 70
     1
102
RTVSPropertyOp55
 70
     1
102
RTVSPropertyOp56
 70
     1
102
RTVSPropertyOp57
 70
     1
102
RTVSPost2010Prop28
280
     0
102
RTVSPost2010PropOp28
 70
     1
102
RTVSPost2010Prop29
280
     1
102
RTVSPost2010PropOp29
 70
     1
102
RTVSPost2010Prop30
280
     1
102
RTVSPost2010PropOp30
 70
     1
102
RTVSPost2010Prop31
280
     0
102
RTVSPost2010PropOp31
 70
     1
102
RTVSPost2010Prop32
280
     0
102
RTVSPost2010PropOp32
 70
     1
102
RTVSPost2010Prop33
280
     0
102
RTVSPost2010PropOp33
 70
     1
102
RTVSPost2010Prop34
280
     0
102
RTVSPost2010PropOp34
 70
     1
102
RTVSPost2010Prop35
280
     0
102
RTVSPost2010PropOp35
 70
     1
102
RTVSPost2010Prop36
280
     0
102
RTVSPost2010PropOp36
 70
     1
102
RTVSPost2010Prop37
 90
       50
102
RTVSPost2010PropOp37
 70
     1
102
RTVSPost2010Prop38
140
0.0
102
RTVSPost2010PropOp38
 70
     1
102
RTVSPost2010Prop39
140
1.0
102
RTVSPost2010PropOp39
 70
     1
102
RTVSPost2010Prop40
 90
        0
102
RTVSPost2010PropOp40
 70
     1
102
RTVSPost2010Prop41ColorIndex
 90
       18
102
RTVSPost2010Prop41ColorRGB
 90
        0
102
RTVSPost2010PropOp41
 70
     1
102
RTVSPost2010Prop42
 90
       50
102
RTVSPost2010PropOp42
 70
     1
102
RTVSPost2010Prop43
 90
        3
102
RTVSPost2010PropOp43
 70
     1
102
RTVSPost2010Prop44ColorIndex
 90
        5
102
RTVSPost2010Prop44ColorRGB
 90
      255
102
RTVSPost2010PropOp44
 70
     1
102
RTVSPost2010Prop45
280
     0
102
RTVSPost2010PropOp45
 70
     1
102
RTVSPost2010Prop46
 90
       50
102
RTVSPost2010PropOp46
 70
     1
102
RTVSPost2010Prop47
 90
       50
102
RTVSPost2010PropOp47
 70
     1
102
RTVSPost2010Prop48
 90
       50
102
RTVSPost2010PropOp48
 70
     1
102
RTVSPost2010Prop49
280
     0
102
RTVSPost2010PropOp49
 70
     1
102
RTVSPost2010Prop50
 90
       50
102
RTVSPost2010PropOp50
 70
     1
102
RTVSPost2010Prop51ColorIndex
 90
      256
102
RTVSPost2010Prop51ColorRGB
 90
-16777216
102
RTVSPost2010PropOp51
 70
     0
102
RTVSPost2010Prop52
140
1.0
102
RTVSPost2010PropOp52
 70
     0
102
RTVSPost2010Prop53
 90
        2
102
RTVSPost2010PropOp53
 70
     1
102
RTVSPost2010Prop54
  1
strokes_ogs.tif
102
RTVSPost2010PropOp54
 70
     1
102
RTVSPost2010Prop55
280
     0
102
RTVSPost2010PropOp55
 70
     1
102
RTVSPost2010Prop56
140
1.0
102
RTVSPost2010PropOp56
 70
     1
102
RTVSPost2010Prop57
140
1.0
102
RTVSPost2010PropOp57
 70
     1
  0
XRECORD
  5
355
102
{ACAD_REACTORS
330
354
102
}
330
354
100
AcDbXrecord
280
     1
102
RTVSPropertyOp0
 70
     0
102
RTVSPropertyOp1
 70
     0
102
RTVSPropertyOp2
 70
     0
102
RTVSPropertyOp3
 70
     0
102
RTVSPropertyOp4
 70
     0
102
RTVSPropertyOp5
 70
     0
102
RTVSPropertyOp6
 70
     0
102
RTVSPropertyOp7
 70
     0
102
RTVSPropertyOp8
 70
     0
102
RTVSPropertyOp9
 70
     0
102
RTVSPropertyOp10
 70
     0
102
RTVSPropertyOp11
 70
     0
102
RTVSPropertyOp12
 70
     0
102
RTVSPropertyOp13
 70
     0
102
RTVSPropertyOp14
 70
     2
102
RTVSPropertyOp15
 70
     0
102
RTVSPropertyOp16
 70
     0
102
RTVSPropertyOp17
 70
     0
102
RTVSPropertyOp18
 70
     0
102
RTVSPropertyOp19
 70
     0
102
RTVSPropertyOp20
 70
     0
102
RTVSPropertyOp21
 70
     0
102
RTVSPropertyOp22
 70
     0
102
RTVSPropertyOp23
 70
     0
102
RTVSPropertyOp24
 70
     0
102
RTVSPropertyOp25
 70
     0
102
RTVSPropertyOp26
 70
     0
102
RTVSPropertyOp27
 70
     0
102
RTVSPropertyOp28
 70
     0
102
RTVSPropertyOp29
 70
     0
102
RTVSPropertyOp30
 70
     0
102
RTVSPropertyOp31
 70
     0
102
RTVSPropertyOp32
 70
     0
102
RTVSPropertyOp33
 70
     0
102
RTVSPropertyOp34
 70
     0
102
RTVSPropertyOp35
 70
     0
102
RTVSPropertyOp36
 70
     0
102
RTVSPropertyOp37
 70
     0
102
RTVSPropertyOp38
 70
     0
102
RTVSPropertyOp39
 70
     0
102
RTVSPropertyOp40
 70
     0
102
RTVSPropertyOp41
 70
     0
102
RTVSPropertyOp42
 70
     0
102
RTVSPropertyOp43
 70
     0
102
RTVSPropertyOp44
 70
     0
102
RTVSPropertyOp45
 70
     0
102
RTVSPropertyOp46
 70
     0
102
RTVSPropertyOp47
 70
     0
102
RTVSPropertyOp48
 70
     0
102
RTVSPropertyOp49
 70
     0
102
RTVSPropertyOp50
 70
     0
102
RTVSPropertyOp51
 70
     0
102
RTVSPropertyOp52
 70
     0
102
RTVSPropertyOp53
 70
     0
102
RTVSPropertyOp54
 70
     0
102
RTVSPropertyOp55
 70
     0
102
RTVSPropertyOp56
 70
     0
102
RTVSPropertyOp57
 70
     0
102
RTVSPost2010Prop28
280
     0
102
RTVSPost2010PropOp28
 70
     0
102
RTVSPost2010Prop29
280
     1
102
RTVSPost2010PropOp29
 70
     0
102
RTVSPost2010Prop30
280
     1
102
RTVSPost2010PropOp30
 70
     0
102
RTVSPost2010Prop31
280
     0
102
RTVSPost2010PropOp31
 70
     0
102
RTVSPost2010Prop32
280
     0
102
RTVSPost2010PropOp32
 70
     0
102
RTVSPost2010Prop33
280
     0
102
RTVSPost2010PropOp33
 70
     0
102
RTVSPost2010Prop34
280
     0
102
RTVSPost2010PropOp34
 70
     0
102
RTVSPost2010Prop35
280
     0
102
RTVSPost2010PropOp35
 70
     0
102
RTVSPost2010Prop36
280
     0
102
RTVSPost2010PropOp36
 70
     0
102
RTVSPost2010Prop37
 90
       50
102
RTVSPost2010PropOp37
 70
     0
102
RTVSPost2010Prop38
140
0.0
102
RTVSPost2010PropOp38
 70
     0
102
RTVSPost2010Prop39
140
1.0
102
RTVSPost2010PropOp39
 70
     0
102
RTVSPost2010Prop40
 90
        0
102
RTVSPost2010PropOp40
 70
     0
102
RTVSPost2010Prop41ColorIndex
 90
       18
102
RTVSPost2010Prop41ColorRGB
 90
        0
102
RTVSPost2010PropOp41
 70
     0
102
RTVSPost2010Prop42
 90
       50
102
RTVSPost2010PropOp42
 70
     0
102
RTVSPost2010Prop43
 90
        3
102
RTVSPost2010PropOp43
 70
     0
102
RTVSPost2010Prop44ColorIndex
 90
        5
102
RTVSPost2010Prop44ColorRGB
 90
      255
102
RTVSPost2010PropOp44
 70
     0
102
RTVSPost2010Prop45
280
     0
102
RTVSPost2010PropOp45
 70
     0
102
RTVSPost2010Prop46
 90
       50
102
RTVSPost2010PropOp46
 70
     0
102
RTVSPost2010Prop47
 90
       50
102
RTVSPost2010PropOp47
 70
     0
102
RTVSPost2010Prop48
 90
       50
102
RTVSPost2010PropOp48
 70
     0
102
RTVSPost2010Prop49
280
     0
102
RTVSPost2010PropOp49
 70
     0
102
RTVSPost2010Prop50
 90
       50
102
RTVSPost2010PropOp50
 70
     0
102
RTVSPost2010Prop51ColorIndex
 90
      256
102
RTVSPost2010Prop51ColorRGB
 90
-16777216
102
RTVSPost2010PropOp51
 70
     0
102
RTVSPost2010Prop52
140
1.0
102
RTVSPost2010PropOp52
 70
     0
102
RTVSPost2010Prop53
 90
        2
102
RTVSPost2010PropOp53
 70
     0
102
RTVSPost2010Prop54
  1
strokes_ogs.tif
102
RTVSPost2010PropOp54
 70
     0
102
RTVSPost2010Prop55
280
     0
102
RTVSPost2010PropOp55
 70
     0
102
RTVSPost2010Prop56
140
1.0
102
RTVSPost2010PropOp56
 70
     0
102
RTVSPost2010Prop57
140
1.0
102
RTVSPost2010PropOp57
 70
     0
  0
XRECORD
  5
34D
102
{ACAD_REACTORS
330
34C
102
}
330
34C
100
AcDbXrecord
280
     1
102
RTVSPropertyOp0
 70
     1
102
RTVSPropertyOp1
 70
     1
102
RTVSPropertyOp2
 70
     1
102
RTVSPropertyOp3
 70
     1
102
RTVSPropertyOp4
 70
     1
102
RTVSPropertyOp5
 70
     1
102
RTVSPropertyOp6
 70
     1
102
RTVSPropertyOp7
 70
     1
102
RTVSPropertyOp8
 70
     1
102
RTVSPropertyOp9
 70
     1
102
RTVSPropertyOp10
 70
     1
102
RTVSPropertyOp11
 70
     1
102
RTVSPropertyOp12
 70
     1
102
RTVSPropertyOp13
 70
     1
102
RTVSPropertyOp14
 70
     1
102
RTVSPropertyOp15
 70
     1
102
RTVSPropertyOp16
 70
     1
102
RTVSPropertyOp17
 70
     1
102
RTVSPropertyOp18
 70
     1
102
RTVSPropertyOp19
 70
     1
102
RTVSPropertyOp20
 70
     1
102
RTVSPropertyOp21
 70
     1
102
RTVSPropertyOp22
 70
     1
102
RTVSPropertyOp23
 70
     1
102
RTVSPropertyOp24
 70
     1
102
RTVSPropertyOp25
 70
     1
102
RTVSPropertyOp26
 70
     1
102
RTVSPropertyOp27
 70
     1
102
RTVSPropertyOp28
 70
     1
102
RTVSPropertyOp29
 70
     1
102
RTVSPropertyOp30
 70
     1
102
RTVSPropertyOp31
 70
     1
102
RTVSPropertyOp32
 70
     1
102
RTVSPropertyOp33
 70
     1
102
RTVSPropertyOp34
 70
     1
102
RTVSPropertyOp35
 70
     1
102
RTVSPropertyOp36
 70
     1
102
RTVSPropertyOp37
 70
     1
102
RTVSPropertyOp38
 70
     1
102
RTVSPropertyOp39
 70
     1
102
RTVSPropertyOp40
 70
     1
102
RTVSPropertyOp41
 70
     1
102
RTVSPropertyOp42
 70
     1
102
RTVSPropertyOp43
 70
     1
102
RTVSPropertyOp44
 70
     1
102
RTVSPropertyOp45
 70
     1
102
RTVSPropertyOp46
 70
     1
102
RTVSPropertyOp47
 70
     1
102
RTVSPropertyOp48
 70
     1
102
RTVSPropertyOp49
 70
     1
102
RTVSPropertyOp50
 70
     1
102
RTVSPropertyOp51
 70
     0
102
RTVSPropertyOp52
 70
     0
102
RTVSPropertyOp53
 70
     1
102
RTVSPropertyOp54
 70
     1
102
RTVSPropertyOp55
 70
     1
102
RTVSPropertyOp56
 70
     1
102
RTVSPropertyOp57
 70
     1
102
RTVSPost2010Prop28
280
     0
102
RTVSPost2010PropOp28
 70
     1
102
RTVSPost2010Prop29
280
     1
102
RTVSPost2010PropOp29
 70
     1
102
RTVSPost2010Prop30
280
     1
102
RTVSPost2010PropOp30
 70
     1
102
RTVSPost2010Prop31
280
     0
102
RTVSPost2010PropOp31
 70
     1
102
RTVSPost2010Prop32
280
     0
102
RTVSPost2010PropOp32
 70
     1
102
RTVSPost2010Prop33
280
     0
102
RTVSPost2010PropOp33
 70
     1
102
RTVSPost2010Prop34
280
     0
102
RTVSPost2010PropOp34
 70
     1
102
RTVSPost2010Prop35
280
     0
102
RTVSPost2010PropOp35
 70
     1
102
RTVSPost2010Prop36
280
     0
102
RTVSPost2010PropOp36
 70
     1
102
RTVSPost2010Prop37
 90
       50
102
RTVSPost2010PropOp37
 70
     1
102
RTVSPost2010Prop38
140
0.0
102
RTVSPost2010PropOp38
 70
     1
102
RTVSPost2010Prop39
140
1.0
102
RTVSPost2010PropOp39
 70
     1
102
RTVSPost2010Prop40
 90
        0
102
RTVSPost2010PropOp40
 70
     1
102
RTVSPost2010Prop41ColorIndex
 90
       18
102
RTVSPost2010Prop41ColorRGB
 90
        0
102
RTVSPost2010PropOp41
 70
     1
102
RTVSPost2010Prop42
 90
       50
102
RTVSPost2010PropOp42
 70
     1
102
RTVSPost2010Prop43
 90
        3
102
RTVSPost2010PropOp43
 70
     1
102
RTVSPost2010Prop44ColorIndex
 90
        5
102
RTVSPost2010Prop44ColorRGB
 90
      255
102
RTVSPost2010PropOp44
 70
     1
102
RTVSPost2010Prop45
280
     0
102
RTVSPost2010PropOp45
 70
     1
102
RTVSPost2010Prop46
 90
       50
102
RTVSPost2010PropOp46
 70
     1
102
RTVSPost2010Prop47
 90
       50
102
RTVSPost2010PropOp47
 70
     1
102
RTVSPost2010Prop48
 90
       50
102
RTVSPost2010PropOp48
 70
     1
102
RTVSPost2010Prop49
280
     0
102
RTVSPost2010PropOp49
 70
     1
102
RTVSPost2010Prop50
 90
       50
102
RTVSPost2010PropOp50
 70
     1
102
RTVSPost2010Prop51ColorIndex
 90
      256
102
RTVSPost2010Prop51ColorRGB
 90
-16777216
102
RTVSPost2010PropOp51
 70
     0
102
RTVSPost2010Prop52
140
1.0
102
RTVSPost2010PropOp52
 70
     0
102
RTVSPost2010Prop53
 90
        2
102
RTVSPost2010PropOp53
 70
     1
102
RTVSPost2010Prop54
  1
strokes_ogs.tif
102
RTVSPost2010PropOp54
 70
     1
102
RTVSPost2010Prop55
280
     0
102
RTVSPost2010PropOp55
 70
     1
102
RTVSPost2010Prop56
140
1.0
102
RTVSPost2010PropOp56
 70
     1
102
RTVSPost2010Prop57
140
1.0
102
RTVSPost2010PropOp57
 70
     1
  0
XRECORD
  5
331
102
{ACAD_REACTORS
330
330
102
}
330
330
100
AcDbXrecord
280
     1
102
RTVSPropertyOp0
 70
     1
102
RTVSPropertyOp1
 70
     1
102
RTVSPropertyOp2
 70
     1
102
RTVSPropertyOp3
 70
     1
102
RTVSPropertyOp4
 70
     1
102
RTVSPropertyOp5
 70
     1
102
RTVSPropertyOp6
 70
     1
102
RTVSPropertyOp7
 70
     1
102
RTVSPropertyOp8
 70
     1
102
RTVSPropertyOp9
 70
     1
102
RTVSPropertyOp10
 70
     1
102
RTVSPropertyOp11
 70
     1
102
RTVSPropertyOp12
 70
     1
102
RTVSPropertyOp13
 70
     1
102
RTVSPropertyOp14
 70
     1
102
RTVSPropertyOp15
 70
     1
102
RTVSPropertyOp16
 70
     1
102
RTVSPropertyOp17
 70
     1
102
RTVSPropertyOp18
 70
     1
102
RTVSPropertyOp19
 70
     1
102
RTVSPropertyOp20
 70
     1
102
RTVSPropertyOp21
 70
     1
102
RTVSPropertyOp22
 70
     1
102
RTVSPropertyOp23
 70
     1
102
RTVSPropertyOp24
 70
     1
102
RTVSPropertyOp25
 70
     1
102
RTVSPropertyOp26
 70
     1
102
RTVSPropertyOp27
 70
     1
102
RTVSPropertyOp28
 70
     1
102
RTVSPropertyOp29
 70
     1
102
RTVSPropertyOp30
 70
     1
102
RTVSPropertyOp31
 70
     1
102
RTVSPropertyOp32
 70
     1
102
RTVSPropertyOp33
 70
     1
102
RTVSPropertyOp34
 70
     1
102
RTVSPropertyOp35
 70
     1
102
RTVSPropertyOp36
 70
     1
102
RTVSPropertyOp37
 70
     1
102
RTVSPropertyOp38
 70
     1
102
RTVSPropertyOp39
 70
     1
102
RTVSPropertyOp40
 70
     1
102
RTVSPropertyOp41
 70
     1
102
RTVSPropertyOp42
 70
     1
102
RTVSPropertyOp43
 70
     1
102
RTVSPropertyOp44
 70
     1
102
RTVSPropertyOp45
 70
     1
102
RTVSPropertyOp46
 70
     1
102
RTVSPropertyOp47
 70
     1
102
RTVSPropertyOp48
 70
     1
102
RTVSPropertyOp49
 70
     1
102
RTVSPropertyOp50
 70
     1
102
RTVSPropertyOp51
 70
     0
102
RTVSPropertyOp52
 70
     0
102
RTVSPropertyOp53
 70
     1
102
RTVSPropertyOp54
 70
     1
102
RTVSPropertyOp55
 70
     1
102
RTVSPropertyOp56
 70
     1
102
RTVSPropertyOp57
 70
     1
102
RTVSPost2010Prop28
280
     0
102
RTVSPost2010PropOp28
 70
     1
102
RTVSPost2010Prop29
280
     1
102
RTVSPost2010PropOp29
 70
     1
102
RTVSPost2010Prop30
280
     1
102
RTVSPost2010PropOp30
 70
     1
102
RTVSPost2010Prop31
280
     0
102
RTVSPost2010PropOp31
 70
     1
102
RTVSPost2010Prop32
280
     0
102
RTVSPost2010PropOp32
 70
     1
102
RTVSPost2010Prop33
280
     0
102
RTVSPost2010PropOp33
 70
     1
102
RTVSPost2010Prop34
280
     0
102
RTVSPost2010PropOp34
 70
     1
102
RTVSPost2010Prop35
280
     0
102
RTVSPost2010PropOp35
 70
     1
102
RTVSPost2010Prop36
280
     0
102
RTVSPost2010PropOp36
 70
     1
102
RTVSPost2010Prop37
 90
       50
102
RTVSPost2010PropOp37
 70
     1
102
RTVSPost2010Prop38
140
0.0
102
RTVSPost2010PropOp38
 70
     1
102
RTVSPost2010Prop39
140
1.0
102
RTVSPost2010PropOp39
 70
     1
102
RTVSPost2010Prop40
 90
        0
102
RTVSPost2010PropOp40
 70
     1
102
RTVSPost2010Prop41ColorIndex
 90
       18
102
RTVSPost2010Prop41ColorRGB
 90
        0
102
RTVSPost2010PropOp41
 70
     1
102
RTVSPost2010Prop42
 90
       50
102
RTVSPost2010PropOp42
 70
     1
102
RTVSPost2010Prop43
 90
        3
102
RTVSPost2010PropOp43
 70
     1
102
RTVSPost2010Prop44ColorIndex
 90
        5
102
RTVSPost2010Prop44ColorRGB
 90
      255
102
RTVSPost2010PropOp44
 70
     1
102
RTVSPost2010Prop45
280
     0
102
RTVSPost2010PropOp45
 70
     1
102
RTVSPost2010Prop46
 90
       50
102
RTVSPost2010PropOp46
 70
     1
102
RTVSPost2010Prop47
 90
       50
102
RTVSPost2010PropOp47
 70
     1
102
RTVSPost2010Prop48
 90
       50
102
RTVSPost2010PropOp48
 70
     1
102
RTVSPost2010Prop49
280
     0
102
RTVSPost2010PropOp49
 70
     1
102
RTVSPost2010Prop50
 90
       50
102
RTVSPost2010PropOp50
 70
     1
102
RTVSPost2010Prop51ColorIndex
 90
      256
102
RTVSPost2010Prop51ColorRGB
 90
-16777216
102
RTVSPost2010PropOp51
 70
     0
102
RTVSPost2010Prop52
140
1.0
102
RTVSPost2010PropOp52
 70
     0
102
RTVSPost2010Prop53
 90
        2
102
RTVSPost2010PropOp53
 70
     1
102
RTVSPost2010Prop54
  1
strokes_ogs.tif
102
RTVSPost2010PropOp54
 70
     1
102
RTVSPost2010Prop55
280
     0
102
RTVSPost2010PropOp55
 70
     1
102
RTVSPost2010Prop56
140
1.0
102
RTVSPost2010PropOp56
 70
     1
102
RTVSPost2010Prop57
140
1.0
102
RTVSPost2010PropOp57
 70
     1
  0
XRECORD
  5
333
102
{ACAD_REACTORS
330
332
102
}
330
332
100
AcDbXrecord
280
     1
102
RTVSPropertyOp0
 70
     1
102
RTVSPropertyOp1
 70
     1
102
RTVSPropertyOp2
 70
     1
102
RTVSPropertyOp3
 70
     1
102
RTVSPropertyOp4
 70
     1
102
RTVSPropertyOp5
 70
     1
102
RTVSPropertyOp6
 70
     1
102
RTVSPropertyOp7
 70
     1
102
RTVSPropertyOp8
 70
     1
102
RTVSPropertyOp9
 70
     1
102
RTVSPropertyOp10
 70
     1
102
RTVSPropertyOp11
 70
     1
102
RTVSPropertyOp12
 70
     1
102
RTVSPropertyOp13
 70
     1
102
RTVSPropertyOp14
 70
     1
102
RTVSPropertyOp15
 70
     1
102
RTVSPropertyOp16
 70
     1
102
RTVSPropertyOp17
 70
     1
102
RTVSPropertyOp18
 70
     1
102
RTVSPropertyOp19
 70
     1
102
RTVSPropertyOp20
 70
     1
102
RTVSPropertyOp21
 70
     1
102
RTVSPropertyOp22
 70
     1
102
RTVSPropertyOp23
 70
     1
102
RTVSPropertyOp24
 70
     1
102
RTVSPropertyOp25
 70
     1
102
RTVSPropertyOp26
 70
     1
102
RTVSPropertyOp27
 70
     1
102
RTVSPropertyOp28
 70
     1
102
RTVSPropertyOp29
 70
     1
102
RTVSPropertyOp30
 70
     1
102
RTVSPropertyOp31
 70
     1
102
RTVSPropertyOp32
 70
     1
102
RTVSPropertyOp33
 70
     1
102
RTVSPropertyOp34
 70
     1
102
RTVSPropertyOp35
 70
     1
102
RTVSPropertyOp36
 70
     1
102
RTVSPropertyOp37
 70
     1
102
RTVSPropertyOp38
 70
     1
102
RTVSPropertyOp39
 70
     1
102
RTVSPropertyOp40
 70
     1
102
RTVSPropertyOp41
 70
     1
102
RTVSPropertyOp42
 70
     1
102
RTVSPropertyOp43
 70
     1
102
RTVSPropertyOp44
 70
     1
102
RTVSPropertyOp45
 70
     1
102
RTVSPropertyOp46
 70
     1
102
RTVSPropertyOp47
 70
     1
102
RTVSPropertyOp48
 70
     1
102
RTVSPropertyOp49
 70
     1
102
RTVSPropertyOp50
 70
     1
102
RTVSPropertyOp51
 70
     0
102
RTVSPropertyOp52
 70
     0
102
RTVSPropertyOp53
 70
     1
102
RTVSPropertyOp54
 70
     1
102
RTVSPropertyOp55
 70
     1
102
RTVSPropertyOp56
 70
     1
102
RTVSPropertyOp57
 70
     1
102
RTVSPost2010Prop28
280
     0
102
RTVSPost2010PropOp28
 70
     1
102
RTVSPost2010Prop29
280
     1
102
RTVSPost2010PropOp29
 70
     1
102
RTVSPost2010Prop30
280
     1
102
RTVSPost2010PropOp30
 70
     1
102
RTVSPost2010Prop31
280
     0
102
RTVSPost2010PropOp31
 70
     1
102
RTVSPost2010Prop32
280
     0
102
RTVSPost2010PropOp32
 70
     1
102
RTVSPost2010Prop33
280
     0
102
RTVSPost2010PropOp33
 70
     1
102
RTVSPost2010Prop34
280
     0
102
RTVSPost2010PropOp34
 70
     1
102
RTVSPost2010Prop35
280
     0
102
RTVSPost2010PropOp35
 70
     1
102
RTVSPost2010Prop36
280
     0
102
RTVSPost2010PropOp36
 70
     1
102
RTVSPost2010Prop37
 90
       50
102
RTVSPost2010PropOp37
 70
     1
102
RTVSPost2010Prop38
140
0.0
102
RTVSPost2010PropOp38
 70
     1
102
RTVSPost2010Prop39
140
1.0
102
RTVSPost2010PropOp39
 70
     1
102
RTVSPost2010Prop40
 90
        0
102
RTVSPost2010PropOp40
 70
     1
102
RTVSPost2010Prop41ColorIndex
 90
       18
102
RTVSPost2010Prop41ColorRGB
 90
        0
102
RTVSPost2010PropOp41
 70
     1
102
RTVSPost2010Prop42
 90
       50
102
RTVSPost2010PropOp42
 70
     1
102
RTVSPost2010Prop43
 90
        3
102
RTVSPost2010PropOp43
 70
     1
102
RTVSPost2010Prop44ColorIndex
 90
        5
102
RTVSPost2010Prop44ColorRGB
 90
      255
102
RTVSPost2010PropOp44
 70
     1
102
RTVSPost2010Prop45
280
     0
102
RTVSPost2010PropOp45
 70
     1
102
RTVSPost2010Prop46
 90
       50
102
RTVSPost2010PropOp46
 70
     1
102
RTVSPost2010Prop47
 90
       50
102
RTVSPost2010PropOp47
 70
     1
102
RTVSPost2010Prop48
 90
       50
102
RTVSPost2010PropOp48
 70
     1
102
RTVSPost2010Prop49
280
     0
102
RTVSPost2010PropOp49
 70
     1
102
RTVSPost2010Prop50
 90
       50
102
RTVSPost2010PropOp50
 70
     1
102
RTVSPost2010Prop51ColorIndex
 90
      256
102
RTVSPost2010Prop51ColorRGB
 90
-16777216
102
RTVSPost2010PropOp51
 70
     0
102
RTVSPost2010Prop52
140
1.0
102
RTVSPost2010PropOp52
 70
     0
102
RTVSPost2010Prop53
 90
        2
102
RTVSPost2010PropOp53
 70
     1
102
RTVSPost2010Prop54
  1
strokes_ogs.tif
102
RTVSPost2010PropOp54
 70
     1
102
RTVSPost2010Prop55
280
     0
102
RTVSPost2010PropOp55
 70
     1
102
RTVSPost2010Prop56
140
1.0
102
RTVSPost2010PropOp56
 70
     1
102
RTVSPost2010Prop57
140
1.0
102
RTVSPost2010PropOp57
 70
     1
  0
XRECORD
  5
335
102
{ACAD_REACTORS
330
334
102
}
330
334
100
AcDbXrecord
280
     1
102
RTVSPropertyOp0
 70
     1
102
RTVSPropertyOp1
 70
     1
102
RTVSPropertyOp2
 70
     1
102
RTVSPropertyOp3
 70
     1
102
RTVSPropertyOp4
 70
     1
102
RTVSPropertyOp5
 70
     1
102
RTVSPropertyOp6
 70
     1
102
RTVSPropertyOp7
 70
     1
102
RTVSPropertyOp8
 70
     1
102
RTVSPropertyOp9
 70
     1
102
RTVSPropertyOp10
 70
     1
102
RTVSPropertyOp11
 70
     1
102
RTVSPropertyOp12
 70
     1
102
RTVSPropertyOp13
 70
     1
102
RTVSPropertyOp14
 70
     1
102
RTVSPropertyOp15
 70
     1
102
RTVSPropertyOp16
 70
     1
102
RTVSPropertyOp17
 70
     1
102
RTVSPropertyOp18
 70
     1
102
RTVSPropertyOp19
 70
     1
102
RTVSPropertyOp20
 70
     1
102
RTVSPropertyOp21
 70
     1
102
RTVSPropertyOp22
 70
     1
102
RTVSPropertyOp23
 70
     1
102
RTVSPropertyOp24
 70
     1
102
RTVSPropertyOp25
 70
     1
102
RTVSPropertyOp26
 70
     1
102
RTVSPropertyOp27
 70
     1
102
RTVSPropertyOp28
 70
     1
102
RTVSPropertyOp29
 70
     1
102
RTVSPropertyOp30
 70
     1
102
RTVSPropertyOp31
 70
     1
102
RTVSPropertyOp32
 70
     1
102
RTVSPropertyOp33
 70
     1
102
RTVSPropertyOp34
 70
     1
102
RTVSPropertyOp35
 70
     1
102
RTVSPropertyOp36
 70
     1
102
RTVSPropertyOp37
 70
     1
102
RTVSPropertyOp38
 70
     1
102
RTVSPropertyOp39
 70
     1
102
RTVSPropertyOp40
 70
     1
102
RTVSPropertyOp41
 70
     1
102
RTVSPropertyOp42
 70
     1
102
RTVSPropertyOp43
 70
     1
102
RTVSPropertyOp44
 70
     1
102
RTVSPropertyOp45
 70
     1
102
RTVSPropertyOp46
 70
     1
102
RTVSPropertyOp47
 70
     1
102
RTVSPropertyOp48
 70
     1
102
RTVSPropertyOp49
 70
     1
102
RTVSPropertyOp50
 70
     1
102
RTVSPropertyOp51
 70
     0
102
RTVSPropertyOp52
 70
     0
102
RTVSPropertyOp53
 70
     1
102
RTVSPropertyOp54
 70
     1
102
RTVSPropertyOp55
 70
     1
102
RTVSPropertyOp56
 70
     1
102
RTVSPropertyOp57
 70
     1
102
RTVSPost2010Prop28
280
     0
102
RTVSPost2010PropOp28
 70
     1
102
RTVSPost2010Prop29
280
     1
102
RTVSPost2010PropOp29
 70
     1
102
RTVSPost2010Prop30
280
     1
102
RTVSPost2010PropOp30
 70
     1
102
RTVSPost2010Prop31
280
     0
102
RTVSPost2010PropOp31
 70
     1
102
RTVSPost2010Prop32
280
     0
102
RTVSPost2010PropOp32
 70
     1
102
RTVSPost2010Prop33
280
     0
102
RTVSPost2010PropOp33
 70
     1
102
RTVSPost2010Prop34
280
     0
102
RTVSPost2010PropOp34
 70
     1
102
RTVSPost2010Prop35
280
     0
102
RTVSPost2010PropOp35
 70
     1
102
RTVSPost2010Prop36
280
     0
102
RTVSPost2010PropOp36
 70
     1
102
RTVSPost2010Prop37
 90
       50
102
RTVSPost2010PropOp37
 70
     1
102
RTVSPost2010Prop38
140
0.0
102
RTVSPost2010PropOp38
 70
     1
102
RTVSPost2010Prop39
140
1.0
102
RTVSPost2010PropOp39
 70
     1
102
RTVSPost2010Prop40
 90
        0
102
RTVSPost2010PropOp40
 70
     1
102
RTVSPost2010Prop41ColorIndex
 90
       18
102
RTVSPost2010Prop41ColorRGB
 90
        0
102
RTVSPost2010PropOp41
 70
     1
102
RTVSPost2010Prop42
 90
       50
102
RTVSPost2010PropOp42
 70
     1
102
RTVSPost2010Prop43
 90
        3
102
RTVSPost2010PropOp43
 70
     1
102
RTVSPost2010Prop44ColorIndex
 90
        5
102
RTVSPost2010Prop44ColorRGB
 90
      255
102
RTVSPost2010PropOp44
 70
     1
102
RTVSPost2010Prop45
280
     0
102
RTVSPost2010PropOp45
 70
     1
102
RTVSPost2010Prop46
 90
       50
102
RTVSPost2010PropOp46
 70
     1
102
RTVSPost2010Prop47
 90
       50
102
RTVSPost2010PropOp47
 70
     1
102
RTVSPost2010Prop48
 90
       50
102
RTVSPost2010PropOp48
 70
     1
102
RTVSPost2010Prop49
280
     0
102
RTVSPost2010PropOp49
 70
     1
102
RTVSPost2010Prop50
 90
       50
102
RTVSPost2010PropOp50
 70
     1
102
RTVSPost2010Prop51ColorIndex
 90
      256
102
RTVSPost2010Prop51ColorRGB
 90
-16777216
102
RTVSPost2010PropOp51
 70
     0
102
RTVSPost2010Prop52
140
1.0
102
RTVSPost2010PropOp52
 70
     0
102
RTVSPost2010Prop53
 90
        2
102
RTVSPost2010PropOp53
 70
     1
102
RTVSPost2010Prop54
  1
strokes_ogs.tif
102
RTVSPost2010PropOp54
 70
     1
102
RTVSPost2010Prop55
280
     0
102
RTVSPost2010PropOp55
 70
     1
102
RTVSPost2010Prop56
140
1.0
102
RTVSPost2010PropOp56
 70
     1
102
RTVSPost2010Prop57
140
1.0
102
RTVSPost2010PropOp57
 70
     1
  0
XRECORD
  5
337
102
{ACAD_REACTORS
330
336
102
}
330
336
100
AcDbXrecord
280
     1
102
RTVSPropertyOp0
 70
     1
102
RTVSPropertyOp1
 70
     1
102
RTVSPropertyOp2
 70
     1
102
RTVSPropertyOp3
 70
     1
102
RTVSPropertyOp4
 70
     1
102
RTVSPropertyOp5
 70
     1
102
RTVSPropertyOp6
 70
     1
102
RTVSPropertyOp7
 70
     1
102
RTVSPropertyOp8
 70
     1
102
RTVSPropertyOp9
 70
     1
102
RTVSPropertyOp10
 70
     1
102
RTVSPropertyOp11
 70
     1
102
RTVSPropertyOp12
 70
     1
102
RTVSPropertyOp13
 70
     1
102
RTVSPropertyOp14
 70
     1
102
RTVSPropertyOp15
 70
     1
102
RTVSPropertyOp16
 70
     1
102
RTVSPropertyOp17
 70
     1
102
RTVSPropertyOp18
 70
     1
102
RTVSPropertyOp19
 70
     1
102
RTVSPropertyOp20
 70
     1
102
RTVSPropertyOp21
 70
     1
102
RTVSPropertyOp22
 70
     1
102
RTVSPropertyOp23
 70
     1
102
RTVSPropertyOp24
 70
     1
102
RTVSPropertyOp25
 70
     1
102
RTVSPropertyOp26
 70
     1
102
RTVSPropertyOp27
 70
     1
102
RTVSPropertyOp28
 70
     1
102
RTVSPropertyOp29
 70
     1
102
RTVSPropertyOp30
 70
     1
102
RTVSPropertyOp31
 70
     1
102
RTVSPropertyOp32
 70
     1
102
RTVSPropertyOp33
 70
     1
102
RTVSPropertyOp34
 70
     1
102
RTVSPropertyOp35
 70
     1
102
RTVSPropertyOp36
 70
     1
102
RTVSPropertyOp37
 70
     1
102
RTVSPropertyOp38
 70
     1
102
RTVSPropertyOp39
 70
     1
102
RTVSPropertyOp40
 70
     1
102
RTVSPropertyOp41
 70
     1
102
RTVSPropertyOp42
 70
     1
102
RTVSPropertyOp43
 70
     1
102
RTVSPropertyOp44
 70
     1
102
RTVSPropertyOp45
 70
     1
102
RTVSPropertyOp46
 70
     1
102
RTVSPropertyOp47
 70
     1
102
RTVSPropertyOp48
 70
     1
102
RTVSPropertyOp49
 70
     1
102
RTVSPropertyOp50
 70
     1
102
RTVSPropertyOp51
 70
     0
102
RTVSPropertyOp52
 70
     0
102
RTVSPropertyOp53
 70
     1
102
RTVSPropertyOp54
 70
     1
102
RTVSPropertyOp55
 70
     1
102
RTVSPropertyOp56
 70
     1
102
RTVSPropertyOp57
 70
     1
102
RTVSPost2010Prop28
280
     0
102
RTVSPost2010PropOp28
 70
     1
102
RTVSPost2010Prop29
280
     1
102
RTVSPost2010PropOp29
 70
     1
102
RTVSPost2010Prop30
280
     1
102
RTVSPost2010PropOp30
 70
     1
102
RTVSPost2010Prop31
280
     0
102
RTVSPost2010PropOp31
 70
     1
102
RTVSPost2010Prop32
280
     0
102
RTVSPost2010PropOp32
 70
     1
102
RTVSPost2010Prop33
280
     0
102
RTVSPost2010PropOp33
 70
     1
102
RTVSPost2010Prop34
280
     0
102
RTVSPost2010PropOp34
 70
     1
102
RTVSPost2010Prop35
280
     0
102
RTVSPost2010PropOp35
 70
     1
102
RTVSPost2010Prop36
280
     0
102
RTVSPost2010PropOp36
 70
     1
102
RTVSPost2010Prop37
 90
       50
102
RTVSPost2010PropOp37
 70
     1
102
RTVSPost2010Prop38
140
0.0
102
RTVSPost2010PropOp38
 70
     1
102
RTVSPost2010Prop39
140
1.0
102
RTVSPost2010PropOp39
 70
     1
102
RTVSPost2010Prop40
 90
        0
102
RTVSPost2010PropOp40
 70
     1
102
RTVSPost2010Prop41ColorIndex
 90
       18
102
RTVSPost2010Prop41ColorRGB
 90
        0
102
RTVSPost2010PropOp41
 70
     1
102
RTVSPost2010Prop42
 90
       50
102
RTVSPost2010PropOp42
 70
     1
102
RTVSPost2010Prop43
 90
        3
102
RTVSPost2010PropOp43
 70
     1
102
RTVSPost2010Prop44ColorIndex
 90
        5
102
RTVSPost2010Prop44ColorRGB
 90
      255
102
RTVSPost2010PropOp44
 70
     1
102
RTVSPost2010Prop45
280
     0
102
RTVSPost2010PropOp45
 70
     1
102
RTVSPost2010Prop46
 90
       50
102
RTVSPost2010PropOp46
 70
     1
102
RTVSPost2010Prop47
 90
       50
102
RTVSPost2010PropOp47
 70
     1
102
RTVSPost2010Prop48
 90
       50
102
RTVSPost2010PropOp48
 70
     1
102
RTVSPost2010Prop49
280
     0
102
RTVSPost2010PropOp49
 70
     1
102
RTVSPost2010Prop50
 90
       50
102
RTVSPost2010PropOp50
 70
     1
102
RTVSPost2010Prop51ColorIndex
 90
      256
102
RTVSPost2010Prop51ColorRGB
 90
-16777216
102
RTVSPost2010PropOp51
 70
     0
102
RTVSPost2010Prop52
140
1.0
102
RTVSPost2010PropOp52
 70
     0
102
RTVSPost2010Prop53
 90
        2
102
RTVSPost2010PropOp53
 70
     1
102
RTVSPost2010Prop54
  1
strokes_ogs.tif
102
RTVSPost2010PropOp54
 70
     1
102
RTVSPost2010Prop55
280
     0
102
RTVSPost2010PropOp55
 70
     1
102
RTVSPost2010Prop56
140
1.0
102
RTVSPost2010PropOp56
 70
     1
102
RTVSPost2010Prop57
140
1.0
102
RTVSPost2010PropOp57
 70
     1
  0
XRECORD
  5
33D
102
{ACAD_REACTORS
330
33C
102
}
330
33C
100
AcDbXrecord
280
     1
102
RTVSPropertyOp0
 70
     1
102
RTVSPropertyOp1
 70
     1
102
RTVSPropertyOp2
 70
     1
102
RTVSPropertyOp3
 70
     1
102
RTVSPropertyOp4
 70
     1
102
RTVSPropertyOp5
 70
     1
102
RTVSPropertyOp6
 70
     1
102
RTVSPropertyOp7
 70
     1
102
RTVSPropertyOp8
 70
     1
102
RTVSPropertyOp9
 70
     1
102
RTVSPropertyOp10
 70
     1
102
RTVSPropertyOp11
 70
     1
102
RTVSPropertyOp12
 70
     1
102
RTVSPropertyOp13
 70
     1
102
RTVSPropertyOp14
 70
     1
102
RTVSPropertyOp15
 70
     1
102
RTVSPropertyOp16
 70
     1
102
RTVSPropertyOp17
 70
     1
102
RTVSPropertyOp18
 70
     1
102
RTVSPropertyOp19
 70
     1
102
RTVSPropertyOp20
 70
     1
102
RTVSPropertyOp21
 70
     1
102
RTVSPropertyOp22
 70
     1
102
RTVSPropertyOp23
 70
     1
102
RTVSPropertyOp24
 70
     1
102
RTVSPropertyOp25
 70
     1
102
RTVSPropertyOp26
 70
     1
102
RTVSPropertyOp27
 70
     1
102
RTVSPropertyOp28
 70
     1
102
RTVSPropertyOp29
 70
     1
102
RTVSPropertyOp30
 70
     1
102
RTVSPropertyOp31
 70
     1
102
RTVSPropertyOp32
 70
     1
102
RTVSPropertyOp33
 70
     1
102
RTVSPropertyOp34
 70
     1
102
RTVSPropertyOp35
 70
     1
102
RTVSPropertyOp36
 70
     1
102
RTVSPropertyOp37
 70
     1
102
RTVSPropertyOp38
 70
     1
102
RTVSPropertyOp39
 70
     1
102
RTVSPropertyOp40
 70
     1
102
RTVSPropertyOp41
 70
     1
102
RTVSPropertyOp42
 70
     1
102
RTVSPropertyOp43
 70
     1
102
RTVSPropertyOp44
 70
     1
102
RTVSPropertyOp45
 70
     1
102
RTVSPropertyOp46
 70
     1
102
RTVSPropertyOp47
 70
     1
102
RTVSPropertyOp48
 70
     1
102
RTVSPropertyOp49
 70
     1
102
RTVSPropertyOp50
 70
     1
102
RTVSPropertyOp51
 70
     0
102
RTVSPropertyOp52
 70
     0
102
RTVSPropertyOp53
 70
     1
102
RTVSPropertyOp54
 70
     1
102
RTVSPropertyOp55
 70
     1
102
RTVSPropertyOp56
 70
     1
102
RTVSPropertyOp57
 70
     1
102
RTVSPost2010Prop28
280
     0
102
RTVSPost2010PropOp28
 70
     1
102
RTVSPost2010Prop29
280
     1
102
RTVSPost2010PropOp29
 70
     1
102
RTVSPost2010Prop30
280
     1
102
RTVSPost2010PropOp30
 70
     1
102
RTVSPost2010Prop31
280
     0
102
RTVSPost2010PropOp31
 70
     1
102
RTVSPost2010Prop32
280
     0
102
RTVSPost2010PropOp32
 70
     1
102
RTVSPost2010Prop33
280
     0
102
RTVSPost2010PropOp33
 70
     1
102
RTVSPost2010Prop34
280
     0
102
RTVSPost2010PropOp34
 70
     1
102
RTVSPost2010Prop35
280
     0
102
RTVSPost2010PropOp35
 70
     1
102
RTVSPost2010Prop36
280
     0
102
RTVSPost2010PropOp36
 70
     1
102
RTVSPost2010Prop37
 90
       50
102
RTVSPost2010PropOp37
 70
     1
102
RTVSPost2010Prop38
140
0.0
102
RTVSPost2010PropOp38
 70
     1
102
RTVSPost2010Prop39
140
1.0
102
RTVSPost2010PropOp39
 70
     1
102
RTVSPost2010Prop40
 90
        0
102
RTVSPost2010PropOp40
 70
     1
102
RTVSPost2010Prop41ColorIndex
 90
       18
102
RTVSPost2010Prop41ColorRGB
 90
        0
102
RTVSPost2010PropOp41
 70
     1
102
RTVSPost2010Prop42
 90
       50
102
RTVSPost2010PropOp42
 70
     1
102
RTVSPost2010Prop43
 90
        3
102
RTVSPost2010PropOp43
 70
     1
102
RTVSPost2010Prop44ColorIndex
 90
        5
102
RTVSPost2010Prop44ColorRGB
 90
      255
102
RTVSPost2010PropOp44
 70
     1
102
RTVSPost2010Prop45
280
     0
102
RTVSPost2010PropOp45
 70
     1
102
RTVSPost2010Prop46
 90
       50
102
RTVSPost2010PropOp46
 70
     1
102
RTVSPost2010Prop47
 90
       50
102
RTVSPost2010PropOp47
 70
     1
102
RTVSPost2010Prop48
 90
       50
102
RTVSPost2010PropOp48
 70
     1
102
RTVSPost2010Prop49
280
     0
102
RTVSPost2010PropOp49
 70
     1
102
RTVSPost2010Prop50
 90
       50
102
RTVSPost2010PropOp50
 70
     1
102
RTVSPost2010Prop51ColorIndex
 90
      256
102
RTVSPost2010Prop51ColorRGB
 90
-16777216
102
RTVSPost2010PropOp51
 70
     0
102
RTVSPost2010Prop52
140
1.0
102
RTVSPost2010PropOp52
 70
     0
102
RTVSPost2010Prop53
 90
        2
102
RTVSPost2010PropOp53
 70
     1
102
RTVSPost2010Prop54
  1
strokes_ogs.tif
102
RTVSPost2010PropOp54
 70
     1
102
RTVSPost2010Prop55
280
     0
102
RTVSPost2010PropOp55
 70
     1
102
RTVSPost2010Prop56
140
1.0
102
RTVSPost2010PropOp56
 70
     1
102
RTVSPost2010Prop57
140
1.0
102
RTVSPost2010PropOp57
 70
     1
  0
XRECORD
  5
351
102
{ACAD_REACTORS
330
350
102
}
330
350
100
AcDbXrecord
280
     1
102
RTVSPropertyOp0
 70
     0
102
RTVSPropertyOp1
 70
     0
102
RTVSPropertyOp2
 70
     0
102
RTVSPropertyOp3
 70
     0
102
RTVSPropertyOp4
 70
     0
102
RTVSPropertyOp5
 70
     0
102
RTVSPropertyOp6
 70
     0
102
RTVSPropertyOp7
 70
     0
102
RTVSPropertyOp8
 70
     0
102
RTVSPropertyOp9
 70
     0
102
RTVSPropertyOp10
 70
     0
102
RTVSPropertyOp11
 70
     0
102
RTVSPropertyOp12
 70
     0
102
RTVSPropertyOp13
 70
     0
102
RTVSPropertyOp14
 70
     2
102
RTVSPropertyOp15
 70
     0
102
RTVSPropertyOp16
 70
     0
102
RTVSPropertyOp17
 70
     0
102
RTVSPropertyOp18
 70
     0
102
RTVSPropertyOp19
 70
     0
102
RTVSPropertyOp20
 70
     0
102
RTVSPropertyOp21
 70
     0
102
RTVSPropertyOp22
 70
     0
102
RTVSPropertyOp23
 70
     0
102
RTVSPropertyOp24
 70
     0
102
RTVSPropertyOp25
 70
     0
102
RTVSPropertyOp26
 70
     0
102
RTVSPropertyOp27
 70
     0
102
RTVSPropertyOp28
 70
     0
102
RTVSPropertyOp29
 70
     0
102
RTVSPropertyOp30
 70
     0
102
RTVSPropertyOp31
 70
     0
102
RTVSPropertyOp32
 70
     0
102
RTVSPropertyOp33
 70
     0
102
RTVSPropertyOp34
 70
     0
102
RTVSPropertyOp35
 70
     0
102
RTVSPropertyOp36
 70
     0
102
RTVSPropertyOp37
 70
     0
102
RTVSPropertyOp38
 70
     0
102
RTVSPropertyOp39
 70
     0
102
RTVSPropertyOp40
 70
     0
102
RTVSPropertyOp41
 70
     0
102
RTVSPropertyOp42
 70
     0
102
RTVSPropertyOp43
 70
     0
102
RTVSPropertyOp44
 70
     0
102
RTVSPropertyOp45
 70
     0
102
RTVSPropertyOp46
 70
     0
102
RTVSPropertyOp47
 70
     0
102
RTVSPropertyOp48
 70
     0
102
RTVSPropertyOp49
 70
     0
102
RTVSPropertyOp50
 70
     0
102
RTVSPropertyOp51
 70
     0
102
RTVSPropertyOp52
 70
     0
102
RTVSPropertyOp53
 70
     0
102
RTVSPropertyOp54
 70
     0
102
RTVSPropertyOp55
 70
     0
102
RTVSPropertyOp56
 70
     0
102
RTVSPropertyOp57
 70
     0
102
RTVSPost2010Prop28
280
     0
102
RTVSPost2010PropOp28
 70
     0
102
RTVSPost2010Prop29
280
     1
102
RTVSPost2010PropOp29
 70
     0
102
RTVSPost2010Prop30
280
     1
102
RTVSPost2010PropOp30
 70
     0
102
RTVSPost2010Prop31
280
     0
102
RTVSPost2010PropOp31
 70
     0
102
RTVSPost2010Prop32
280
     0
102
RTVSPost2010PropOp32
 70
     0
102
RTVSPost2010Prop33
280
     0
102
RTVSPost2010PropOp33
 70
     0
102
RTVSPost2010Prop34
280
     0
102
RTVSPost2010PropOp34
 70
     0
102
RTVSPost2010Prop35
280
     0
102
RTVSPost2010PropOp35
 70
     0
102
RTVSPost2010Prop36
280
     0
102
RTVSPost2010PropOp36
 70
     0
102
RTVSPost2010Prop37
 90
       50
102
RTVSPost2010PropOp37
 70
     0
102
RTVSPost2010Prop38
140
0.0
102
RTVSPost2010PropOp38
 70
     0
102
RTVSPost2010Prop39
140
1.0
102
RTVSPost2010PropOp39
 70
     0
102
RTVSPost2010Prop40
 90
        0
102
RTVSPost2010PropOp40
 70
     0
102
RTVSPost2010Prop41ColorIndex
 90
       18
102
RTVSPost2010Prop41ColorRGB
 90
        0
102
RTVSPost2010PropOp41
 70
     0
102
RTVSPost2010Prop42
 90
       50
102
RTVSPost2010PropOp42
 70
     0
102
RTVSPost2010Prop43
 90
        3
102
RTVSPost2010PropOp43
 70
     0
102
RTVSPost2010Prop44ColorIndex
 90
        5
102
RTVSPost2010Prop44ColorRGB
 90
      255
102
RTVSPost2010PropOp44
 70
     0
102
RTVSPost2010Prop45
280
     0
102
RTVSPost2010PropOp45
 70
     0
102
RTVSPost2010Prop46
 90
       50
102
RTVSPost2010PropOp46
 70
     0
102
RTVSPost2010Prop47
 90
       50
102
RTVSPost2010PropOp47
 70
     0
102
RTVSPost2010Prop48
 90
       50
102
RTVSPost2010PropOp48
 70
     0
102
RTVSPost2010Prop49
280
     0
102
RTVSPost2010PropOp49
 70
     0
102
RTVSPost2010Prop50
 90
       50
102
RTVSPost2010PropOp50
 70
     0
102
RTVSPost2010Prop51ColorIndex
 90
      256
102
RTVSPost2010Prop51ColorRGB
 90
-16777216
102
RTVSPost2010PropOp51
 70
     0
102
RTVSPost2010Prop52
140
1.0
102
RTVSPost2010PropOp52
 70
     0
102
RTVSPost2010Prop53
 90
        2
102
RTVSPost2010PropOp53
 70
     0
102
RTVSPost2010Prop54
  1
strokes_ogs.tif
102
RTVSPost2010PropOp54
 70
     0
102
RTVSPost2010Prop55
280
     0
102
RTVSPost2010PropOp55
 70
     0
102
RTVSPost2010Prop56
140
1.0
102
RTVSPost2010PropOp56
 70
     0
102
RTVSPost2010Prop57
140
1.0
102
RTVSPost2010PropOp57
 70
     0
  0
XRECORD
  5
34B
102
{ACAD_REACTORS
330
34A
102
}
330
34A
100
AcDbXrecord
280
     1
102
RTVSPropertyOp0
 70
     1
102
RTVSPropertyOp1
 70
     1
102
RTVSPropertyOp2
 70
     1
102
RTVSPropertyOp3
 70
     1
102
RTVSPropertyOp4
 70
     1
102
RTVSPropertyOp5
 70
     1
102
RTVSPropertyOp6
 70
     1
102
RTVSPropertyOp7
 70
     1
102
RTVSPropertyOp8
 70
     1
102
RTVSPropertyOp9
 70
     1
102
RTVSPropertyOp10
 70
     1
102
RTVSPropertyOp11
 70
     1
102
RTVSPropertyOp12
 70
     1
102
RTVSPropertyOp13
 70
     1
102
RTVSPropertyOp14
 70
     1
102
RTVSPropertyOp15
 70
     1
102
RTVSPropertyOp16
 70
     1
102
RTVSPropertyOp17
 70
     1
102
RTVSPropertyOp18
 70
     1
102
RTVSPropertyOp19
 70
     1
102
RTVSPropertyOp20
 70
     1
102
RTVSPropertyOp21
 70
     1
102
RTVSPropertyOp22
 70
     1
102
RTVSPropertyOp23
 70
     1
102
RTVSPropertyOp24
 70
     1
102
RTVSPropertyOp25
 70
     1
102
RTVSPropertyOp26
 70
     1
102
RTVSPropertyOp27
 70
     1
102
RTVSPropertyOp28
 70
     1
102
RTVSPropertyOp29
 70
     1
102
RTVSPropertyOp30
 70
     1
102
RTVSPropertyOp31
 70
     1
102
RTVSPropertyOp32
 70
     1
102
RTVSPropertyOp33
 70
     1
102
RTVSPropertyOp34
 70
     1
102
RTVSPropertyOp35
 70
     1
102
RTVSPropertyOp36
 70
     1
102
RTVSPropertyOp37
 70
     1
102
RTVSPropertyOp38
 70
     1
102
RTVSPropertyOp39
 70
     1
102
RTVSPropertyOp40
 70
     1
102
RTVSPropertyOp41
 70
     1
102
RTVSPropertyOp42
 70
     1
102
RTVSPropertyOp43
 70
     1
102
RTVSPropertyOp44
 70
     1
102
RTVSPropertyOp45
 70
     1
102
RTVSPropertyOp46
 70
     1
102
RTVSPropertyOp47
 70
     1
102
RTVSPropertyOp48
 70
     1
102
RTVSPropertyOp49
 70
     1
102
RTVSPropertyOp50
 70
     1
102
RTVSPropertyOp51
 70
     0
102
RTVSPropertyOp52
 70
     0
102
RTVSPropertyOp53
 70
     1
102
RTVSPropertyOp54
 70
     1
102
RTVSPropertyOp55
 70
     1
102
RTVSPropertyOp56
 70
     1
102
RTVSPropertyOp57
 70
     1
102
RTVSPost2010Prop28
280
     0
102
RTVSPost2010PropOp28
 70
     1
102
RTVSPost2010Prop29
280
     1
102
RTVSPost2010PropOp29
 70
     1
102
RTVSPost2010Prop30
280
     1
102
RTVSPost2010PropOp30
 70
     1
102
RTVSPost2010Prop31
280
     0
102
RTVSPost2010PropOp31
 70
     1
102
RTVSPost2010Prop32
280
     0
102
RTVSPost2010PropOp32
 70
     1
102
RTVSPost2010Prop33
280
     0
102
RTVSPost2010PropOp33
 70
     1
102
RTVSPost2010Prop34
280
     0
102
RTVSPost2010PropOp34
 70
     1
102
RTVSPost2010Prop35
280
     0
102
RTVSPost2010PropOp35
 70
     1
102
RTVSPost2010Prop36
280
     0
102
RTVSPost2010PropOp36
 70
     1
102
RTVSPost2010Prop37
 90
       50
102
RTVSPost2010PropOp37
 70
     1
102
RTVSPost2010Prop38
140
0.0
102
RTVSPost2010PropOp38
 70
     1
102
RTVSPost2010Prop39
140
1.0
102
RTVSPost2010PropOp39
 70
     1
102
RTVSPost2010Prop40
 90
        0
102
RTVSPost2010PropOp40
 70
     1
102
RTVSPost2010Prop41ColorIndex
 90
       18
102
RTVSPost2010Prop41ColorRGB
 90
        0
102
RTVSPost2010PropOp41
 70
     1
102
RTVSPost2010Prop42
 90
       50
102
RTVSPost2010PropOp42
 70
     1
102
RTVSPost2010Prop43
 90
        3
102
RTVSPost2010PropOp43
 70
     1
102
RTVSPost2010Prop44ColorIndex
 90
        5
102
RTVSPost2010Prop44ColorRGB
 90
      255
102
RTVSPost2010PropOp44
 70
     1
102
RTVSPost2010Prop45
280
     0
102
RTVSPost2010PropOp45
 70
     1
102
RTVSPost2010Prop46
 90
       50
102
RTVSPost2010PropOp46
 70
     1
102
RTVSPost2010Prop47
 90
       50
102
RTVSPost2010PropOp47
 70
     1
102
RTVSPost2010Prop48
 90
       50
102
RTVSPost2010PropOp48
 70
     1
102
RTVSPost2010Prop49
280
     0
102
RTVSPost2010PropOp49
 70
     1
102
RTVSPost2010Prop50
 90
       50
102
RTVSPost2010PropOp50
 70
     1
102
RTVSPost2010Prop51ColorIndex
 90
      256
102
RTVSPost2010Prop51ColorRGB
 90
-16777216
102
RTVSPost2010PropOp51
 70
     0
102
RTVSPost2010Prop52
140
1.0
102
RTVSPost2010PropOp52
 70
     0
102
RTVSPost2010Prop53
 90
        2
102
RTVSPost2010PropOp53
 70
     1
102
RTVSPost2010Prop54
  1
strokes_ogs.tif
102
RTVSPost2010PropOp54
 70
     1
102
RTVSPost2010Prop55
280
     0
102
RTVSPost2010PropOp55
 70
     1
102
RTVSPost2010Prop56
140
1.0
102
RTVSPost2010PropOp56
 70
     1
102
RTVSPost2010Prop57
140
1.0
102
RTVSPost2010PropOp57
 70
     1
  0
XRECORD
  5
353
102
{ACAD_REACTORS
330
352
102
}
330
352
100
AcDbXrecord
280
     1
102
RTVSPropertyOp0
 70
     0
102
RTVSPropertyOp1
 70
     0
102
RTVSPropertyOp2
 70
     0
102
RTVSPropertyOp3
 70
     0
102
RTVSPropertyOp4
 70
     0
102
RTVSPropertyOp5
 70
     0
102
RTVSPropertyOp6
 70
     0
102
RTVSPropertyOp7
 70
     0
102
RTVSPropertyOp8
 70
     0
102
RTVSPropertyOp9
 70
     0
102
RTVSPropertyOp10
 70
     0
102
RTVSPropertyOp11
 70
     0
102
RTVSPropertyOp12
 70
     0
102
RTVSPropertyOp13
 70
     0
102
RTVSPropertyOp14
 70
     2
102
RTVSPropertyOp15
 70
     0
102
RTVSPropertyOp16
 70
     0
102
RTVSPropertyOp17
 70
     0
102
RTVSPropertyOp18
 70
     0
102
RTVSPropertyOp19
 70
     0
102
RTVSPropertyOp20
 70
     0
102
RTVSPropertyOp21
 70
     0
102
RTVSPropertyOp22
 70
     0
102
RTVSPropertyOp23
 70
     0
102
RTVSPropertyOp24
 70
     0
102
RTVSPropertyOp25
 70
     0
102
RTVSPropertyOp26
 70
     0
102
RTVSPropertyOp27
 70
     0
102
RTVSPropertyOp28
 70
     0
102
RTVSPropertyOp29
 70
     0
102
RTVSPropertyOp30
 70
     0
102
RTVSPropertyOp31
 70
     0
102
RTVSPropertyOp32
 70
     0
102
RTVSPropertyOp33
 70
     0
102
RTVSPropertyOp34
 70
     0
102
RTVSPropertyOp35
 70
     0
102
RTVSPropertyOp36
 70
     0
102
RTVSPropertyOp37
 70
     0
102
RTVSPropertyOp38
 70
     0
102
RTVSPropertyOp39
 70
     0
102
RTVSPropertyOp40
 70
     0
102
RTVSPropertyOp41
 70
     0
102
RTVSPropertyOp42
 70
     0
102
RTVSPropertyOp43
 70
     0
102
RTVSPropertyOp44
 70
     0
102
RTVSPropertyOp45
 70
     0
102
RTVSPropertyOp46
 70
     0
102
RTVSPropertyOp47
 70
     0
102
RTVSPropertyOp48
 70
     0
102
RTVSPropertyOp49
 70
     0
102
RTVSPropertyOp50
 70
     0
102
RTVSPropertyOp51
 70
     0
102
RTVSPropertyOp52
 70
     0
102
RTVSPropertyOp53
 70
     0
102
RTVSPropertyOp54
 70
     0
102
RTVSPropertyOp55
 70
     0
102
RTVSPropertyOp56
 70
     0
102
RTVSPropertyOp57
 70
     0
102
RTVSPost2010Prop28
280
     0
102
RTVSPost2010PropOp28
 70
     0
102
RTVSPost2010Prop29
280
     1
102
RTVSPost2010PropOp29
 70
     0
102
RTVSPost2010Prop30
280
     1
102
RTVSPost2010PropOp30
 70
     0
102
RTVSPost2010Prop31
280
     0
102
RTVSPost2010PropOp31
 70
     0
102
RTVSPost2010Prop32
280
     0
102
RTVSPost2010PropOp32
 70
     0
102
RTVSPost2010Prop33
280
     0
102
RTVSPost2010PropOp33
 70
     0
102
RTVSPost2010Prop34
280
     0
102
RTVSPost2010PropOp34
 70
     0
102
RTVSPost2010Prop35
280
     0
102
RTVSPost2010PropOp35
 70
     0
102
RTVSPost2010Prop36
280
     0
102
RTVSPost2010PropOp36
 70
     0
102
RTVSPost2010Prop37
 90
       50
102
RTVSPost2010PropOp37
 70
     0
102
RTVSPost2010Prop38
140
0.0
102
RTVSPost2010PropOp38
 70
     0
102
RTVSPost2010Prop39
140
1.0
102
RTVSPost2010PropOp39
 70
     0
102
RTVSPost2010Prop40
 90
        0
102
RTVSPost2010PropOp40
 70
     0
102
RTVSPost2010Prop41ColorIndex
 90
       18
102
RTVSPost2010Prop41ColorRGB
 90
        0
102
RTVSPost2010PropOp41
 70
     0
102
RTVSPost2010Prop42
 90
       50
102
RTVSPost2010PropOp42
 70
     0
102
RTVSPost2010Prop43
 90
        3
102
RTVSPost2010PropOp43
 70
     0
102
RTVSPost2010Prop44ColorIndex
 90
        5
102
RTVSPost2010Prop44ColorRGB
 90
      255
102
RTVSPost2010PropOp44
 70
     0
102
RTVSPost2010Prop45
280
     0
102
RTVSPost2010PropOp45
 70
     0
102
RTVSPost2010Prop46
 90
       50
102
RTVSPost2010PropOp46
 70
     0
102
RTVSPost2010Prop47
 90
       50
102
RTVSPost2010PropOp47
 70
     0
102
RTVSPost2010Prop48
 90
       50
102
RTVSPost2010PropOp48
 70
     0
102
RTVSPost2010Prop49
280
     0
102
RTVSPost2010PropOp49
 70
     0
102
RTVSPost2010Prop50
 90
       50
102
RTVSPost2010PropOp50
 70
     0
102
RTVSPost2010Prop51ColorIndex
 90
      256
102
RTVSPost2010Prop51ColorRGB
 90
-16777216
102
RTVSPost2010PropOp51
 70
     0
102
RTVSPost2010Prop52
140
1.0
102
RTVSPost2010PropOp52
 70
     0
102
RTVSPost2010Prop53
 90
        2
102
RTVSPost2010PropOp53
 70
     0
102
RTVSPost2010Prop54
  1
strokes_ogs.tif
102
RTVSPost2010PropOp54
 70
     0
102
RTVSPost2010Prop55
280
     0
102
RTVSPost2010PropOp55
 70
     0
102
RTVSPost2010Prop56
140
1.0
102
RTVSPost2010PropOp56
 70
     0
102
RTVSPost2010Prop57
140
1.0
102
RTVSPost2010PropOp57
 70
     0
  0
XRECORD
  5
341
102
{ACAD_REACTORS
330
340
102
}
330
340
100
AcDbXrecord
280
     1
102
RTVSPropertyOp0
 70
     1
102
RTVSPropertyOp1
 70
     1
102
RTVSPropertyOp2
 70
     1
102
RTVSPropertyOp3
 70
     1
102
RTVSPropertyOp4
 70
     1
102
RTVSPropertyOp5
 70
     1
102
RTVSPropertyOp6
 70
     1
102
RTVSPropertyOp7
 70
     1
102
RTVSPropertyOp8
 70
     1
102
RTVSPropertyOp9
 70
     1
102
RTVSPropertyOp10
 70
     1
102
RTVSPropertyOp11
 70
     1
102
RTVSPropertyOp12
 70
     1
102
RTVSPropertyOp13
 70
     1
102
RTVSPropertyOp14
 70
     1
102
RTVSPropertyOp15
 70
     1
102
RTVSPropertyOp16
 70
     1
102
RTVSPropertyOp17
 70
     1
102
RTVSPropertyOp18
 70
     1
102
RTVSPropertyOp19
 70
     1
102
RTVSPropertyOp20
 70
     1
102
RTVSPropertyOp21
 70
     1
102
RTVSPropertyOp22
 70
     1
102
RTVSPropertyOp23
 70
     1
102
RTVSPropertyOp24
 70
     1
102
RTVSPropertyOp25
 70
     1
102
RTVSPropertyOp26
 70
     1
102
RTVSPropertyOp27
 70
     1
102
RTVSPropertyOp28
 70
     1
102
RTVSPropertyOp29
 70
     1
102
RTVSPropertyOp30
 70
     1
102
RTVSPropertyOp31
 70
     1
102
RTVSPropertyOp32
 70
     1
102
RTVSPropertyOp33
 70
     1
102
RTVSPropertyOp34
 70
     1
102
RTVSPropertyOp35
 70
     1
102
RTVSPropertyOp36
 70
     1
102
RTVSPropertyOp37
 70
     1
102
RTVSPropertyOp38
 70
     1
102
RTVSPropertyOp39
 70
     1
102
RTVSPropertyOp40
 70
     1
102
RTVSPropertyOp41
 70
     1
102
RTVSPropertyOp42
 70
     1
102
RTVSPropertyOp43
 70
     1
102
RTVSPropertyOp44
 70
     1
102
RTVSPropertyOp45
 70
     1
102
RTVSPropertyOp46
 70
     1
102
RTVSPropertyOp47
 70
     1
102
RTVSPropertyOp48
 70
     1
102
RTVSPropertyOp49
 70
     1
102
RTVSPropertyOp50
 70
     1
102
RTVSPropertyOp51
 70
     0
102
RTVSPropertyOp52
 70
     0
102
RTVSPropertyOp53
 70
     1
102
RTVSPropertyOp54
 70
     1
102
RTVSPropertyOp55
 70
     1
102
RTVSPropertyOp56
 70
     1
102
RTVSPropertyOp57
 70
     1
102
RTVSPost2010Prop28
280
     0
102
RTVSPost2010PropOp28
 70
     1
102
RTVSPost2010Prop29
280
     1
102
RTVSPost2010PropOp29
 70
     1
102
RTVSPost2010Prop30
280
     1
102
RTVSPost2010PropOp30
 70
     1
102
RTVSPost2010Prop31
280
     0
102
RTVSPost2010PropOp31
 70
     1
102
RTVSPost2010Prop32
280
     0
102
RTVSPost2010PropOp32
 70
     1
102
RTVSPost2010Prop33
280
     0
102
RTVSPost2010PropOp33
 70
     1
102
RTVSPost2010Prop34
280
     0
102
RTVSPost2010PropOp34
 70
     1
102
RTVSPost2010Prop35
280
     0
102
RTVSPost2010PropOp35
 70
     1
102
RTVSPost2010Prop36
280
     0
102
RTVSPost2010PropOp36
 70
     1
102
RTVSPost2010Prop37
 90
       50
102
RTVSPost2010PropOp37
 70
     1
102
RTVSPost2010Prop38
140
0.0
102
RTVSPost2010PropOp38
 70
     1
102
RTVSPost2010Prop39
140
1.0
102
RTVSPost2010PropOp39
 70
     1
102
RTVSPost2010Prop40
 90
        0
102
RTVSPost2010PropOp40
 70
     1
102
RTVSPost2010Prop41ColorIndex
 90
       18
102
RTVSPost2010Prop41ColorRGB
 90
        0
102
RTVSPost2010PropOp41
 70
     1
102
RTVSPost2010Prop42
 90
       50
102
RTVSPost2010PropOp42
 70
     1
102
RTVSPost2010Prop43
 90
        3
102
RTVSPost2010PropOp43
 70
     1
102
RTVSPost2010Prop44ColorIndex
 90
        5
102
RTVSPost2010Prop44ColorRGB
 90
      255
102
RTVSPost2010PropOp44
 70
     1
102
RTVSPost2010Prop45
280
     0
102
RTVSPost2010PropOp45
 70
     1
102
RTVSPost2010Prop46
 90
       50
102
RTVSPost2010PropOp46
 70
     1
102
RTVSPost2010Prop47
 90
       50
102
RTVSPost2010PropOp47
 70
     1
102
RTVSPost2010Prop48
 90
       50
102
RTVSPost2010PropOp48
 70
     1
102
RTVSPost2010Prop49
280
     0
102
RTVSPost2010PropOp49
 70
     1
102
RTVSPost2010Prop50
 90
       50
102
RTVSPost2010PropOp50
 70
     1
102
RTVSPost2010Prop51ColorIndex
 90
      256
102
RTVSPost2010Prop51ColorRGB
 90
-16777216
102
RTVSPost2010PropOp51
 70
     0
102
RTVSPost2010Prop52
140
1.0
102
RTVSPost2010PropOp52
 70
     0
102
RTVSPost2010Prop53
 90
        2
102
RTVSPost2010PropOp53
 70
     1
102
RTVSPost2010Prop54
  1
strokes_ogs.tif
102
RTVSPost2010PropOp54
 70
     1
102
RTVSPost2010Prop55
280
     0
102
RTVSPost2010PropOp55
 70
     1
102
RTVSPost2010Prop56
140
1.0
102
RTVSPost2010PropOp56
 70
     1
102
RTVSPost2010Prop57
140
1.0
102
RTVSPost2010PropOp57
 70
     1
  0
XRECORD
  5
35F
102
{ACAD_REACTORS
330
35E
102
}
330
35E
100
AcDbXrecord
280
     1
102
RTVSPropertyOp0
 70
     1
102
RTVSPropertyOp1
 70
     1
102
RTVSPropertyOp2
 70
     1
102
RTVSPropertyOp3
 70
     1
102
RTVSPropertyOp4
 70
     1
102
RTVSPropertyOp5
 70
     1
102
RTVSPropertyOp6
 70
     1
102
RTVSPropertyOp7
 70
     1
102
RTVSPropertyOp8
 70
     1
102
RTVSPropertyOp9
 70
     1
102
RTVSPropertyOp10
 70
     1
102
RTVSPropertyOp11
 70
     1
102
RTVSPropertyOp12
 70
     1
102
RTVSPropertyOp13
 70
     1
102
RTVSPropertyOp14
 70
     1
102
RTVSPropertyOp15
 70
     1
102
RTVSPropertyOp16
 70
     1
102
RTVSPropertyOp17
 70
     1
102
RTVSPropertyOp18
 70
     1
102
RTVSPropertyOp19
 70
     1
102
RTVSPropertyOp20
 70
     1
102
RTVSPropertyOp21
 70
     1
102
RTVSPropertyOp22
 70
     1
102
RTVSPropertyOp23
 70
     1
102
RTVSPropertyOp24
 70
     1
102
RTVSPropertyOp25
 70
     1
102
RTVSPropertyOp26
 70
     1
102
RTVSPropertyOp27
 70
     1
102
RTVSPropertyOp28
 70
     1
102
RTVSPropertyOp29
 70
     1
102
RTVSPropertyOp30
 70
     1
102
RTVSPropertyOp31
 70
     1
102
RTVSPropertyOp32
 70
     1
102
RTVSPropertyOp33
 70
     1
102
RTVSPropertyOp34
 70
     1
102
RTVSPropertyOp35
 70
     1
102
RTVSPropertyOp36
 70
     1
102
RTVSPropertyOp37
 70
     1
102
RTVSPropertyOp38
 70
     1
102
RTVSPropertyOp39
 70
     1
102
RTVSPropertyOp40
 70
     1
102
RTVSPropertyOp41
 70
     1
102
RTVSPropertyOp42
 70
     1
102
RTVSPropertyOp43
 70
     1
102
RTVSPropertyOp44
 70
     1
102
RTVSPropertyOp45
 70
     1
102
RTVSPropertyOp46
 70
     1
102
RTVSPropertyOp47
 70
     1
102
RTVSPropertyOp48
 70
     1
102
RTVSPropertyOp49
 70
     1
102
RTVSPropertyOp50
 70
     1
102
RTVSPropertyOp51
 70
     0
102
RTVSPropertyOp52
 70
     0
102
RTVSPropertyOp53
 70
     1
102
RTVSPropertyOp54
 70
     1
102
RTVSPropertyOp55
 70
     1
102
RTVSPropertyOp56
 70
     1
102
RTVSPropertyOp57
 70
     1
102
RTVSPost2010Prop28
280
     0
102
RTVSPost2010PropOp28
 70
     1
102
RTVSPost2010Prop29
280
     1
102
RTVSPost2010PropOp29
 70
     1
102
RTVSPost2010Prop30
280
     1
102
RTVSPost2010PropOp30
 70
     1
102
RTVSPost2010Prop31
280
     0
102
RTVSPost2010PropOp31
 70
     1
102
RTVSPost2010Prop32
280
     0
102
RTVSPost2010PropOp32
 70
     1
102
RTVSPost2010Prop33
280
     0
102
RTVSPost2010PropOp33
 70
     1
102
RTVSPost2010Prop34
280
     0
102
RTVSPost2010PropOp34
 70
     1
102
RTVSPost2010Prop35
280
     0
102
RTVSPost2010PropOp35
 70
     1
102
RTVSPost2010Prop36
280
     0
102
RTVSPost2010PropOp36
 70
     1
102
RTVSPost2010Prop37
 90
       50
102
RTVSPost2010PropOp37
 70
     1
102
RTVSPost2010Prop38
140
0.0
102
RTVSPost2010PropOp38
 70
     1
102
RTVSPost2010Prop39
140
1.0
102
RTVSPost2010PropOp39
 70
     1
102
RTVSPost2010Prop40
 90
        0
102
RTVSPost2010PropOp40
 70
     1
102
RTVSPost2010Prop41ColorIndex
 90
       18
102
RTVSPost2010Prop41ColorRGB
 90
        0
102
RTVSPost2010PropOp41
 70
     1
102
RTVSPost2010Prop42
 90
       50
102
RTVSPost2010PropOp42
 70
     1
102
RTVSPost2010Prop43
 90
        3
102
RTVSPost2010PropOp43
 70
     1
102
RTVSPost2010Prop44ColorIndex
 90
        5
102
RTVSPost2010Prop44ColorRGB
 90
      255
102
RTVSPost2010PropOp44
 70
     1
102
RTVSPost2010Prop45
280
     0
102
RTVSPost2010PropOp45
 70
     1
102
RTVSPost2010Prop46
 90
       50
102
RTVSPost2010PropOp46
 70
     1
102
RTVSPost2010Prop47
 90
       50
102
RTVSPost2010PropOp47
 70
     1
102
RTVSPost2010Prop48
 90
       50
102
RTVSPost2010PropOp48
 70
     1
102
RTVSPost2010Prop49
280
     0
102
RTVSPost2010PropOp49
 70
     1
102
RTVSPost2010Prop50
 90
       50
102
RTVSPost2010PropOp50
 70
     1
102
RTVSPost2010Prop51ColorIndex
 90
      256
102
RTVSPost2010Prop51ColorRGB
 90
-16777216
102
RTVSPost2010PropOp51
 70
     0
102
RTVSPost2010Prop52
140
1.0
102
RTVSPost2010PropOp52
 70
     0
102
RTVSPost2010Prop53
 90
        2
102
RTVSPost2010PropOp53
 70
     1
102
RTVSPost2010Prop54
  1
strokes_ogs.tif
102
RTVSPost2010PropOp54
 70
     1
102
RTVSPost2010Prop55
280
     0
102
RTVSPost2010PropOp55
 70
     1
102
RTVSPost2010Prop56
140
1.0
102
RTVSPost2010PropOp56
 70
     1
102
RTVSPost2010Prop57
140
1.0
102
RTVSPost2010PropOp57
 70
     1
  0
XRECORD
  5
35D
102
{ACAD_REACTORS
330
35C
102
}
330
35C
100
AcDbXrecord
280
     1
102
RTVSPropertyOp0
 70
     1
102
RTVSPropertyOp1
 70
     1
102
RTVSPropertyOp2
 70
     1
102
RTVSPropertyOp3
 70
     1
102
RTVSPropertyOp4
 70
     1
102
RTVSPropertyOp5
 70
     1
102
RTVSPropertyOp6
 70
     1
102
RTVSPropertyOp7
 70
     1
102
RTVSPropertyOp8
 70
     1
102
RTVSPropertyOp9
 70
     1
102
RTVSPropertyOp10
 70
     1
102
RTVSPropertyOp11
 70
     1
102
RTVSPropertyOp12
 70
     1
102
RTVSPropertyOp13
 70
     1
102
RTVSPropertyOp14
 70
     1
102
RTVSPropertyOp15
 70
     1
102
RTVSPropertyOp16
 70
     1
102
RTVSPropertyOp17
 70
     1
102
RTVSPropertyOp18
 70
     1
102
RTVSPropertyOp19
 70
     1
102
RTVSPropertyOp20
 70
     1
102
RTVSPropertyOp21
 70
     1
102
RTVSPropertyOp22
 70
     1
102
RTVSPropertyOp23
 70
     1
102
RTVSPropertyOp24
 70
     1
102
RTVSPropertyOp25
 70
     1
102
RTVSPropertyOp26
 70
     1
102
RTVSPropertyOp27
 70
     1
102
RTVSPropertyOp28
 70
     1
102
RTVSPropertyOp29
 70
     1
102
RTVSPropertyOp30
 70
     1
102
RTVSPropertyOp31
 70
     1
102
RTVSPropertyOp32
 70
     1
102
RTVSPropertyOp33
 70
     1
102
RTVSPropertyOp34
 70
     1
102
RTVSPropertyOp35
 70
     1
102
RTVSPropertyOp36
 70
     1
102
RTVSPropertyOp37
 70
     1
102
RTVSPropertyOp38
 70
     1
102
RTVSPropertyOp39
 70
     1
102
RTVSPropertyOp40
 70
     1
102
RTVSPropertyOp41
 70
     1
102
RTVSPropertyOp42
 70
     1
102
RTVSPropertyOp43
 70
     1
102
RTVSPropertyOp44
 70
     1
102
RTVSPropertyOp45
 70
     1
102
RTVSPropertyOp46
 70
     1
102
RTVSPropertyOp47
 70
     1
102
RTVSPropertyOp48
 70
     1
102
RTVSPropertyOp49
 70
     1
102
RTVSPropertyOp50
 70
     1
102
RTVSPropertyOp51
 70
     0
102
RTVSPropertyOp52
 70
     0
102
RTVSPropertyOp53
 70
     1
102
RTVSPropertyOp54
 70
     1
102
RTVSPropertyOp55
 70
     1
102
RTVSPropertyOp56
 70
     1
102
RTVSPropertyOp57
 70
     1
102
RTVSPost2010Prop28
280
     0
102
RTVSPost2010PropOp28
 70
     1
102
RTVSPost2010Prop29
280
     1
102
RTVSPost2010PropOp29
 70
     1
102
RTVSPost2010Prop30
280
     1
102
RTVSPost2010PropOp30
 70
     1
102
RTVSPost2010Prop31
280
     0
102
RTVSPost2010PropOp31
 70
     1
102
RTVSPost2010Prop32
280
     0
102
RTVSPost2010PropOp32
 70
     1
102
RTVSPost2010Prop33
280
     0
102
RTVSPost2010PropOp33
 70
     1
102
RTVSPost2010Prop34
280
     0
102
RTVSPost2010PropOp34
 70
     1
102
RTVSPost2010Prop35
280
     0
102
RTVSPost2010PropOp35
 70
     1
102
RTVSPost2010Prop36
280
     0
102
RTVSPost2010PropOp36
 70
     1
102
RTVSPost2010Prop37
 90
       50
102
RTVSPost2010PropOp37
 70
     1
102
RTVSPost2010Prop38
140
0.0
102
RTVSPost2010PropOp38
 70
     1
102
RTVSPost2010Prop39
140
1.0
102
RTVSPost2010PropOp39
 70
     1
102
RTVSPost2010Prop40
 90
        0
102
RTVSPost2010PropOp40
 70
     1
102
RTVSPost2010Prop41ColorIndex
 90
       18
102
RTVSPost2010Prop41ColorRGB
 90
        0
102
RTVSPost2010PropOp41
 70
     1
102
RTVSPost2010Prop42
 90
       50
102
RTVSPost2010PropOp42
 70
     1
102
RTVSPost2010Prop43
 90
        3
102
RTVSPost2010PropOp43
 70
     1
102
RTVSPost2010Prop44ColorIndex
 90
        5
102
RTVSPost2010Prop44ColorRGB
 90
      255
102
RTVSPost2010PropOp44
 70
     1
102
RTVSPost2010Prop45
280
     0
102
RTVSPost2010PropOp45
 70
     1
102
RTVSPost2010Prop46
 90
       50
102
RTVSPost2010PropOp46
 70
     1
102
RTVSPost2010Prop47
 90
       50
102
RTVSPost2010PropOp47
 70
     1
102
RTVSPost2010Prop48
 90
       50
102
RTVSPost2010PropOp48
 70
     1
102
RTVSPost2010Prop49
280
     0
102
RTVSPost2010PropOp49
 70
     1
102
RTVSPost2010Prop50
 90
       50
102
RTVSPost2010PropOp50
 70
     1
102
RTVSPost2010Prop51ColorIndex
 90
      256
102
RTVSPost2010Prop51ColorRGB
 90
-16777216
102
RTVSPost2010PropOp51
 70
     0
102
RTVSPost2010Prop52
140
1.0
102
RTVSPost2010PropOp52
 70
     0
102
RTVSPost2010Prop53
 90
        2
102
RTVSPost2010PropOp53
 70
     1
102
RTVSPost2010Prop54
  1
strokes_ogs.tif
102
RTVSPost2010PropOp54
 70
     1
102
RTVSPost2010Prop55
280
     0
102
RTVSPost2010PropOp55
 70
     1
102
RTVSPost2010Prop56
140
1.0
102
RTVSPost2010PropOp56
 70
     1
102
RTVSPost2010Prop57
140
1.0
102
RTVSPost2010PropOp57
 70
     1
  0
XRECORD
  5
357
102
{ACAD_REACTORS
330
356
102
}
330
356
100
AcDbXrecord
280
     1
102
RTVSPropertyOp0
 70
     1
102
RTVSPropertyOp1
 70
     1
102
RTVSPropertyOp2
 70
     1
102
RTVSPropertyOp3
 70
     1
102
RTVSPropertyOp4
 70
     1
102
RTVSPropertyOp5
 70
     1
102
RTVSPropertyOp6
 70
     1
102
RTVSPropertyOp7
 70
     1
102
RTVSPropertyOp8
 70
     1
102
RTVSPropertyOp9
 70
     1
102
RTVSPropertyOp10
 70
     1
102
RTVSPropertyOp11
 70
     1
102
RTVSPropertyOp12
 70
     1
102
RTVSPropertyOp13
 70
     1
102
RTVSPropertyOp14
 70
     1
102
RTVSPropertyOp15
 70
     1
102
RTVSPropertyOp16
 70
     1
102
RTVSPropertyOp17
 70
     1
102
RTVSPropertyOp18
 70
     1
102
RTVSPropertyOp19
 70
     1
102
RTVSPropertyOp20
 70
     1
102
RTVSPropertyOp21
 70
     1
102
RTVSPropertyOp22
 70
     1
102
RTVSPropertyOp23
 70
     1
102
RTVSPropertyOp24
 70
     1
102
RTVSPropertyOp25
 70
     1
102
RTVSPropertyOp26
 70
     1
102
RTVSPropertyOp27
 70
     1
102
RTVSPropertyOp28
 70
     1
102
RTVSPropertyOp29
 70
     1
102
RTVSPropertyOp30
 70
     1
102
RTVSPropertyOp31
 70
     1
102
RTVSPropertyOp32
 70
     1
102
RTVSPropertyOp33
 70
     1
102
RTVSPropertyOp34
 70
     1
102
RTVSPropertyOp35
 70
     1
102
RTVSPropertyOp36
 70
     1
102
RTVSPropertyOp37
 70
     1
102
RTVSPropertyOp38
 70
     1
102
RTVSPropertyOp39
 70
     1
102
RTVSPropertyOp40
 70
     1
102
RTVSPropertyOp41
 70
     1
102
RTVSPropertyOp42
 70
     1
102
RTVSPropertyOp43
 70
     1
102
RTVSPropertyOp44
 70
     1
102
RTVSPropertyOp45
 70
     1
102
RTVSPropertyOp46
 70
     1
102
RTVSPropertyOp47
 70
     1
102
RTVSPropertyOp48
 70
     1
102
RTVSPropertyOp49
 70
     1
102
RTVSPropertyOp50
 70
     1
102
RTVSPropertyOp51
 70
     0
102
RTVSPropertyOp52
 70
     0
102
RTVSPropertyOp53
 70
     1
102
RTVSPropertyOp54
 70
     1
102
RTVSPropertyOp55
 70
     1
102
RTVSPropertyOp56
 70
     1
102
RTVSPropertyOp57
 70
     1
102
RTVSPost2010Prop28
280
     0
102
RTVSPost2010PropOp28
 70
     1
102
RTVSPost2010Prop29
280
     1
102
RTVSPost2010PropOp29
 70
     1
102
RTVSPost2010Prop30
280
     1
102
RTVSPost2010PropOp30
 70
     1
102
RTVSPost2010Prop31
280
     0
102
RTVSPost2010PropOp31
 70
     1
102
RTVSPost2010Prop32
280
     0
102
RTVSPost2010PropOp32
 70
     1
102
RTVSPost2010Prop33
280
     0
102
RTVSPost2010PropOp33
 70
     1
102
RTVSPost2010Prop34
280
     0
102
RTVSPost2010PropOp34
 70
     1
102
RTVSPost2010Prop35
280
     0
102
RTVSPost2010PropOp35
 70
     1
102
RTVSPost2010Prop36
280
     0
102
RTVSPost2010PropOp36
 70
     1
102
RTVSPost2010Prop37
 90
       50
102
RTVSPost2010PropOp37
 70
     1
102
RTVSPost2010Prop38
140
0.0
102
RTVSPost2010PropOp38
 70
     1
102
RTVSPost2010Prop39
140
1.0
102
RTVSPost2010PropOp39
 70
     1
102
RTVSPost2010Prop40
 90
        0
102
RTVSPost2010PropOp40
 70
     1
102
RTVSPost2010Prop41ColorIndex
 90
       18
102
RTVSPost2010Prop41ColorRGB
 90
        0
102
RTVSPost2010PropOp41
 70
     1
102
RTVSPost2010Prop42
 90
       50
102
RTVSPost2010PropOp42
 70
     1
102
RTVSPost2010Prop43
 90
        3
102
RTVSPost2010PropOp43
 70
     1
102
RTVSPost2010Prop44ColorIndex
 90
        5
102
RTVSPost2010Prop44ColorRGB
 90
      255
102
RTVSPost2010PropOp44
 70
     1
102
RTVSPost2010Prop45
280
     0
102
RTVSPost2010PropOp45
 70
     1
102
RTVSPost2010Prop46
 90
       50
102
RTVSPost2010PropOp46
 70
     1
102
RTVSPost2010Prop47
 90
       50
102
RTVSPost2010PropOp47
 70
     1
102
RTVSPost2010Prop48
 90
       50
102
RTVSPost2010PropOp48
 70
     1
102
RTVSPost2010Prop49
280
     0
102
RTVSPost2010PropOp49
 70
     1
102
RTVSPost2010Prop50
 90
       50
102
RTVSPost2010PropOp50
 70
     1
102
RTVSPost2010Prop51ColorIndex
 90
      256
102
RTVSPost2010Prop51ColorRGB
 90
-16777216
102
RTVSPost2010PropOp51
 70
     0
102
RTVSPost2010Prop52
140
1.0
102
RTVSPost2010PropOp52
 70
     0
102
RTVSPost2010Prop53
 90
        2
102
RTVSPost2010PropOp53
 70
     1
102
RTVSPost2010Prop54
  1
strokes_ogs.tif
102
RTVSPost2010PropOp54
 70
     1
102
RTVSPost2010Prop55
280
     0
102
RTVSPost2010PropOp55
 70
     1
102
RTVSPost2010Prop56
140
1.0
102
RTVSPost2010PropOp56
 70
     1
102
RTVSPost2010Prop57
140
1.0
102
RTVSPost2010PropOp57
 70
     1
  0
XRECORD
  5
359
102
{ACAD_REACTORS
330
358
102
}
330
358
100
AcDbXrecord
280
     1
102
RTVSPropertyOp0
 70
     1
102
RTVSPropertyOp1
 70
     1
102
RTVSPropertyOp2
 70
     1
102
RTVSPropertyOp3
 70
     1
102
RTVSPropertyOp4
 70
     1
102
RTVSPropertyOp5
 70
     1
102
RTVSPropertyOp6
 70
     1
102
RTVSPropertyOp7
 70
     1
102
RTVSPropertyOp8
 70
     1
102
RTVSPropertyOp9
 70
     1
102
RTVSPropertyOp10
 70
     1
102
RTVSPropertyOp11
 70
     1
102
RTVSPropertyOp12
 70
     1
102
RTVSPropertyOp13
 70
     1
102
RTVSPropertyOp14
 70
     1
102
RTVSPropertyOp15
 70
     1
102
RTVSPropertyOp16
 70
     1
102
RTVSPropertyOp17
 70
     1
102
RTVSPropertyOp18
 70
     1
102
RTVSPropertyOp19
 70
     1
102
RTVSPropertyOp20
 70
     1
102
RTVSPropertyOp21
 70
     1
102
RTVSPropertyOp22
 70
     1
102
RTVSPropertyOp23
 70
     1
102
RTVSPropertyOp24
 70
     1
102
RTVSPropertyOp25
 70
     1
102
RTVSPropertyOp26
 70
     1
102
RTVSPropertyOp27
 70
     1
102
RTVSPropertyOp28
 70
     1
102
RTVSPropertyOp29
 70
     1
102
RTVSPropertyOp30
 70
     1
102
RTVSPropertyOp31
 70
     1
102
RTVSPropertyOp32
 70
     1
102
RTVSPropertyOp33
 70
     1
102
RTVSPropertyOp34
 70
     1
102
RTVSPropertyOp35
 70
     1
102
RTVSPropertyOp36
 70
     1
102
RTVSPropertyOp37
 70
     1
102
RTVSPropertyOp38
 70
     1
102
RTVSPropertyOp39
 70
     1
102
RTVSPropertyOp40
 70
     1
102
RTVSPropertyOp41
 70
     1
102
RTVSPropertyOp42
 70
     1
102
RTVSPropertyOp43
 70
     1
102
RTVSPropertyOp44
 70
     1
102
RTVSPropertyOp45
 70
     1
102
RTVSPropertyOp46
 70
     1
102
RTVSPropertyOp47
 70
     1
102
RTVSPropertyOp48
 70
     1
102
RTVSPropertyOp49
 70
     1
102
RTVSPropertyOp50
 70
     1
102
RTVSPropertyOp51
 70
     0
102
RTVSPropertyOp52
 70
     0
102
RTVSPropertyOp53
 70
     1
102
RTVSPropertyOp54
 70
     1
102
RTVSPropertyOp55
 70
     1
102
RTVSPropertyOp56
 70
     1
102
RTVSPropertyOp57
 70
     1
102
RTVSPost2010Prop28
280
     0
102
RTVSPost2010PropOp28
 70
     1
102
RTVSPost2010Prop29
280
     1
102
RTVSPost2010PropOp29
 70
     1
102
RTVSPost2010Prop30
280
     1
102
RTVSPost2010PropOp30
 70
     1
102
RTVSPost2010Prop31
280
     0
102
RTVSPost2010PropOp31
 70
     1
102
RTVSPost2010Prop32
280
     0
102
RTVSPost2010PropOp32
 70
     1
102
RTVSPost2010Prop33
280
     0
102
RTVSPost2010PropOp33
 70
     1
102
RTVSPost2010Prop34
280
     0
102
RTVSPost2010PropOp34
 70
     1
102
RTVSPost2010Prop35
280
     0
102
RTVSPost2010PropOp35
 70
     1
102
RTVSPost2010Prop36
280
     0
102
RTVSPost2010PropOp36
 70
     1
102
RTVSPost2010Prop37
 90
       50
102
RTVSPost2010PropOp37
 70
     1
102
RTVSPost2010Prop38
140
0.0
102
RTVSPost2010PropOp38
 70
     1
102
RTVSPost2010Prop39
140
1.0
102
RTVSPost2010PropOp39
 70
     1
102
RTVSPost2010Prop40
 90
        0
102
RTVSPost2010PropOp40
 70
     1
102
RTVSPost2010Prop41ColorIndex
 90
       18
102
RTVSPost2010Prop41ColorRGB
 90
        0
102
RTVSPost2010PropOp41
 70
     1
102
RTVSPost2010Prop42
 90
       50
102
RTVSPost2010PropOp42
 70
     1
102
RTVSPost2010Prop43
 90
        3
102
RTVSPost2010PropOp43
 70
     1
102
RTVSPost2010Prop44ColorIndex
 90
        5
102
RTVSPost2010Prop44ColorRGB
 90
      255
102
RTVSPost2010PropOp44
 70
     1
102
RTVSPost2010Prop45
280
     0
102
RTVSPost2010PropOp45
 70
     1
102
RTVSPost2010Prop46
 90
       50
102
RTVSPost2010PropOp46
 70
     1
102
RTVSPost2010Prop47
 90
       50
102
RTVSPost2010PropOp47
 70
     1
102
RTVSPost2010Prop48
 90
       50
102
RTVSPost2010PropOp48
 70
     1
102
RTVSPost2010Prop49
280
     0
102
RTVSPost2010PropOp49
 70
     1
102
RTVSPost2010Prop50
 90
       50
102
RTVSPost2010PropOp50
 70
     1
102
RTVSPost2010Prop51ColorIndex
 90
      256
102
RTVSPost2010Prop51ColorRGB
 90
-16777216
102
RTVSPost2010PropOp51
 70
     0
102
RTVSPost2010Prop52
140
1.0
102
RTVSPost2010PropOp52
 70
     0
102
RTVSPost2010Prop53
 90
        2
102
RTVSPost2010PropOp53
 70
     1
102
RTVSPost2010Prop54
  1
strokes_ogs.tif
102
RTVSPost2010PropOp54
 70
     1
102
RTVSPost2010Prop55
280
     0
102
RTVSPost2010PropOp55
 70
     1
102
RTVSPost2010Prop56
140
1.0
102
RTVSPost2010PropOp56
 70
     1
102
RTVSPost2010Prop57
140
1.0
102
RTVSPost2010PropOp57
 70
     1
  0
XRECORD
  5
349
102
{ACAD_REACTORS
330
348
102
}
330
348
100
AcDbXrecord
280
     1
102
RTVSPropertyOp0
 70
     1
102
RTVSPropertyOp1
 70
     1
102
RTVSPropertyOp2
 70
     1
102
RTVSPropertyOp3
 70
     1
102
RTVSPropertyOp4
 70
     1
102
RTVSPropertyOp5
 70
     1
102
RTVSPropertyOp6
 70
     1
102
RTVSPropertyOp7
 70
     1
102
RTVSPropertyOp8
 70
     1
102
RTVSPropertyOp9
 70
     1
102
RTVSPropertyOp10
 70
     1
102
RTVSPropertyOp11
 70
     1
102
RTVSPropertyOp12
 70
     1
102
RTVSPropertyOp13
 70
     1
102
RTVSPropertyOp14
 70
     1
102
RTVSPropertyOp15
 70
     1
102
RTVSPropertyOp16
 70
     1
102
RTVSPropertyOp17
 70
     1
102
RTVSPropertyOp18
 70
     1
102
RTVSPropertyOp19
 70
     1
102
RTVSPropertyOp20
 70
     1
102
RTVSPropertyOp21
 70
     1
102
RTVSPropertyOp22
 70
     1
102
RTVSPropertyOp23
 70
     1
102
RTVSPropertyOp24
 70
     1
102
RTVSPropertyOp25
 70
     1
102
RTVSPropertyOp26
 70
     1
102
RTVSPropertyOp27
 70
     1
102
RTVSPropertyOp28
 70
     1
102
RTVSPropertyOp29
 70
     1
102
RTVSPropertyOp30
 70
     1
102
RTVSPropertyOp31
 70
     1
102
RTVSPropertyOp32
 70
     1
102
RTVSPropertyOp33
 70
     1
102
RTVSPropertyOp34
 70
     1
102
RTVSPropertyOp35
 70
     1
102
RTVSPropertyOp36
 70
     1
102
RTVSPropertyOp37
 70
     1
102
RTVSPropertyOp38
 70
     1
102
RTVSPropertyOp39
 70
     1
102
RTVSPropertyOp40
 70
     1
102
RTVSPropertyOp41
 70
     1
102
RTVSPropertyOp42
 70
     1
102
RTVSPropertyOp43
 70
     1
102
RTVSPropertyOp44
 70
     1
102
RTVSPropertyOp45
 70
     1
102
RTVSPropertyOp46
 70
     1
102
RTVSPropertyOp47
 70
     1
102
RTVSPropertyOp48
 70
     1
102
RTVSPropertyOp49
 70
     1
102
RTVSPropertyOp50
 70
     1
102
RTVSPropertyOp51
 70
     0
102
RTVSPropertyOp52
 70
     0
102
RTVSPropertyOp53
 70
     1
102
RTVSPropertyOp54
 70
     1
102
RTVSPropertyOp55
 70
     1
102
RTVSPropertyOp56
 70
     1
102
RTVSPropertyOp57
 70
     1
102
RTVSPost2010Prop28
280
     0
102
RTVSPost2010PropOp28
 70
     1
102
RTVSPost2010Prop29
280
     1
102
RTVSPost2010PropOp29
 70
     1
102
RTVSPost2010Prop30
280
     1
102
RTVSPost2010PropOp30
 70
     1
102
RTVSPost2010Prop31
280
     0
102
RTVSPost2010PropOp31
 70
     1
102
RTVSPost2010Prop32
280
     0
102
RTVSPost2010PropOp32
 70
     1
102
RTVSPost2010Prop33
280
     0
102
RTVSPost2010PropOp33
 70
     1
102
RTVSPost2010Prop34
280
     0
102
RTVSPost2010PropOp34
 70
     1
102
RTVSPost2010Prop35
280
     0
102
RTVSPost2010PropOp35
 70
     1
102
RTVSPost2010Prop36
280
     0
102
RTVSPost2010PropOp36
 70
     1
102
RTVSPost2010Prop37
 90
       50
102
RTVSPost2010PropOp37
 70
     1
102
RTVSPost2010Prop38
140
0.0
102
RTVSPost2010PropOp38
 70
     1
102
RTVSPost2010Prop39
140
1.0
102
RTVSPost2010PropOp39
 70
     1
102
RTVSPost2010Prop40
 90
        0
102
RTVSPost2010PropOp40
 70
     1
102
RTVSPost2010Prop41ColorIndex
 90
       18
102
RTVSPost2010Prop41ColorRGB
 90
        0
102
RTVSPost2010PropOp41
 70
     1
102
RTVSPost2010Prop42
 90
       50
102
RTVSPost2010PropOp42
 70
     1
102
RTVSPost2010Prop43
 90
        3
102
RTVSPost2010PropOp43
 70
     1
102
RTVSPost2010Prop44ColorIndex
 90
        5
102
RTVSPost2010Prop44ColorRGB
 90
      255
102
RTVSPost2010PropOp44
 70
     1
102
RTVSPost2010Prop45
280
     0
102
RTVSPost2010PropOp45
 70
     1
102
RTVSPost2010Prop46
 90
       50
102
RTVSPost2010PropOp46
 70
     1
102
RTVSPost2010Prop47
 90
       50
102
RTVSPost2010PropOp47
 70
     1
102
RTVSPost2010Prop48
 90
       50
102
RTVSPost2010PropOp48
 70
     1
102
RTVSPost2010Prop49
280
     0
102
RTVSPost2010PropOp49
 70
     1
102
RTVSPost2010Prop50
 90
       50
102
RTVSPost2010PropOp50
 70
     1
102
RTVSPost2010Prop51ColorIndex
 90
      256
102
RTVSPost2010Prop51ColorRGB
 90
-16777216
102
RTVSPost2010PropOp51
 70
     0
102
RTVSPost2010Prop52
140
1.0
102
RTVSPost2010PropOp52
 70
     0
102
RTVSPost2010Prop53
 90
        2
102
RTVSPost2010PropOp53
 70
     1
102
RTVSPost2010Prop54
  1
strokes_ogs.tif
102
RTVSPost2010PropOp54
 70
     1
102
RTVSPost2010Prop55
280
     0
102
RTVSPost2010PropOp55
 70
     1
102
RTVSPost2010Prop56
140
1.0
102
RTVSPost2010PropOp56
 70
     1
102
RTVSPost2010Prop57
140
1.0
102
RTVSPost2010PropOp57
 70
     1
  0
XRECORD
  5
33B
102
{ACAD_REACTORS
330
33A
102
}
330
33A
100
AcDbXrecord
280
     1
102
RTVSPropertyOp0
 70
     1
102
RTVSPropertyOp1
 70
     1
102
RTVSPropertyOp2
 70
     1
102
RTVSPropertyOp3
 70
     1
102
RTVSPropertyOp4
 70
     1
102
RTVSPropertyOp5
 70
     1
102
RTVSPropertyOp6
 70
     1
102
RTVSPropertyOp7
 70
     1
102
RTVSPropertyOp8
 70
     1
102
RTVSPropertyOp9
 70
     1
102
RTVSPropertyOp10
 70
     1
102
RTVSPropertyOp11
 70
     1
102
RTVSPropertyOp12
 70
     1
102
RTVSPropertyOp13
 70
     1
102
RTVSPropertyOp14
 70
     1
102
RTVSPropertyOp15
 70
     1
102
RTVSPropertyOp16
 70
     1
102
RTVSPropertyOp17
 70
     1
102
RTVSPropertyOp18
 70
     1
102
RTVSPropertyOp19
 70
     1
102
RTVSPropertyOp20
 70
     1
102
RTVSPropertyOp21
 70
     1
102
RTVSPropertyOp22
 70
     1
102
RTVSPropertyOp23
 70
     1
102
RTVSPropertyOp24
 70
     1
102
RTVSPropertyOp25
 70
     1
102
RTVSPropertyOp26
 70
     1
102
RTVSPropertyOp27
 70
     1
102
RTVSPropertyOp28
 70
     1
102
RTVSPropertyOp29
 70
     1
102
RTVSPropertyOp30
 70
     1
102
RTVSPropertyOp31
 70
     1
102
RTVSPropertyOp32
 70
     1
102
RTVSPropertyOp33
 70
     1
102
RTVSPropertyOp34
 70
     1
102
RTVSPropertyOp35
 70
     1
102
RTVSPropertyOp36
 70
     1
102
RTVSPropertyOp37
 70
     1
102
RTVSPropertyOp38
 70
     1
102
RTVSPropertyOp39
 70
     1
102
RTVSPropertyOp40
 70
     1
102
RTVSPropertyOp41
 70
     1
102
RTVSPropertyOp42
 70
     1
102
RTVSPropertyOp43
 70
     1
102
RTVSPropertyOp44
 70
     1
102
RTVSPropertyOp45
 70
     1
102
RTVSPropertyOp46
 70
     1
102
RTVSPropertyOp47
 70
     1
102
RTVSPropertyOp48
 70
     1
102
RTVSPropertyOp49
 70
     1
102
RTVSPropertyOp50
 70
     1
102
RTVSPropertyOp51
 70
     0
102
RTVSPropertyOp52
 70
     0
102
RTVSPropertyOp53
 70
     1
102
RTVSPropertyOp54
 70
     1
102
RTVSPropertyOp55
 70
     1
102
RTVSPropertyOp56
 70
     1
102
RTVSPropertyOp57
 70
     1
102
RTVSPost2010Prop28
280
     0
102
RTVSPost2010PropOp28
 70
     1
102
RTVSPost2010Prop29
280
     1
102
RTVSPost2010PropOp29
 70
     1
102
RTVSPost2010Prop30
280
     1
102
RTVSPost2010PropOp30
 70
     1
102
RTVSPost2010Prop31
280
     0
102
RTVSPost2010PropOp31
 70
     1
102
RTVSPost2010Prop32
280
     0
102
RTVSPost2010PropOp32
 70
     1
102
RTVSPost2010Prop33
280
     0
102
RTVSPost2010PropOp33
 70
     1
102
RTVSPost2010Prop34
280
     0
102
RTVSPost2010PropOp34
 70
     1
102
RTVSPost2010Prop35
280
     0
102
RTVSPost2010PropOp35
 70
     1
102
RTVSPost2010Prop36
280
     0
102
RTVSPost2010PropOp36
 70
     1
102
RTVSPost2010Prop37
 90
       50
102
RTVSPost2010PropOp37
 70
     1
102
RTVSPost2010Prop38
140
0.0
102
RTVSPost2010PropOp38
 70
     1
102
RTVSPost2010Prop39
140
1.0
102
RTVSPost2010PropOp39
 70
     1
102
RTVSPost2010Prop40
 90
        0
102
RTVSPost2010PropOp40
 70
     1
102
RTVSPost2010Prop41ColorIndex
 90
       18
102
RTVSPost2010Prop41ColorRGB
 90
        0
102
RTVSPost2010PropOp41
 70
     1
102
RTVSPost2010Prop42
 90
       50
102
RTVSPost2010PropOp42
 70
     1
102
RTVSPost2010Prop43
 90
        3
102
RTVSPost2010PropOp43
 70
     1
102
RTVSPost2010Prop44ColorIndex
 90
        5
102
RTVSPost2010Prop44ColorRGB
 90
      255
102
RTVSPost2010PropOp44
 70
     1
102
RTVSPost2010Prop45
280
     0
102
RTVSPost2010PropOp45
 70
     1
102
RTVSPost2010Prop46
 90
       50
102
RTVSPost2010PropOp46
 70
     1
102
RTVSPost2010Prop47
 90
       50
102
RTVSPost2010PropOp47
 70
     1
102
RTVSPost2010Prop48
 90
       50
102
RTVSPost2010PropOp48
 70
     1
102
RTVSPost2010Prop49
280
     0
102
RTVSPost2010PropOp49
 70
     1
102
RTVSPost2010Prop50
 90
       50
102
RTVSPost2010PropOp50
 70
     1
102
RTVSPost2010Prop51ColorIndex
 90
      256
102
RTVSPost2010Prop51ColorRGB
 90
-16777216
102
RTVSPost2010PropOp51
 70
     0
102
RTVSPost2010Prop52
140
1.0
102
RTVSPost2010PropOp52
 70
     0
102
RTVSPost2010Prop53
 90
        2
102
RTVSPost2010PropOp53
 70
     1
102
RTVSPost2010Prop54
  1
strokes_ogs.tif
102
RTVSPost2010PropOp54
 70
     1
102
RTVSPost2010Prop55
280
     0
102
RTVSPost2010PropOp55
 70
     1
102
RTVSPost2010Prop56
140
1.0
102
RTVSPost2010PropOp56
 70
     1
102
RTVSPost2010Prop57
140
1.0
102
RTVSPost2010PropOp57
 70
     1
  0
XRECORD
  5
35B
102
{ACAD_REACTORS
330
35A
102
}
330
35A
100
AcDbXrecord
280
     1
102
RTVSPropertyOp0
 70
     1
102
RTVSPropertyOp1
 70
     1
102
RTVSPropertyOp2
 70
     1
102
RTVSPropertyOp3
 70
     1
102
RTVSPropertyOp4
 70
     1
102
RTVSPropertyOp5
 70
     1
102
RTVSPropertyOp6
 70
     1
102
RTVSPropertyOp7
 70
     1
102
RTVSPropertyOp8
 70
     1
102
RTVSPropertyOp9
 70
     1
102
RTVSPropertyOp10
 70
     1
102
RTVSPropertyOp11
 70
     1
102
RTVSPropertyOp12
 70
     1
102
RTVSPropertyOp13
 70
     1
102
RTVSPropertyOp14
 70
     1
102
RTVSPropertyOp15
 70
     1
102
RTVSPropertyOp16
 70
     1
102
RTVSPropertyOp17
 70
     1
102
RTVSPropertyOp18
 70
     1
102
RTVSPropertyOp19
 70
     1
102
RTVSPropertyOp20
 70
     1
102
RTVSPropertyOp21
 70
     1
102
RTVSPropertyOp22
 70
     1
102
RTVSPropertyOp23
 70
     1
102
RTVSPropertyOp24
 70
     1
102
RTVSPropertyOp25
 70
     1
102
RTVSPropertyOp26
 70
     1
102
RTVSPropertyOp27
 70
     1
102
RTVSPropertyOp28
 70
     1
102
RTVSPropertyOp29
 70
     1
102
RTVSPropertyOp30
 70
     1
102
RTVSPropertyOp31
 70
     1
102
RTVSPropertyOp32
 70
     1
102
RTVSPropertyOp33
 70
     1
102
RTVSPropertyOp34
 70
     1
102
RTVSPropertyOp35
 70
     1
102
RTVSPropertyOp36
 70
     1
102
RTVSPropertyOp37
 70
     1
102
RTVSPropertyOp38
 70
     1
102
RTVSPropertyOp39
 70
     1
102
RTVSPropertyOp40
 70
     1
102
RTVSPropertyOp41
 70
     1
102
RTVSPropertyOp42
 70
     1
102
RTVSPropertyOp43
 70
     1
102
RTVSPropertyOp44
 70
     1
102
RTVSPropertyOp45
 70
     1
102
RTVSPropertyOp46
 70
     1
102
RTVSPropertyOp47
 70
     1
102
RTVSPropertyOp48
 70
     1
102
RTVSPropertyOp49
 70
     1
102
RTVSPropertyOp50
 70
     1
102
RTVSPropertyOp51
 70
     0
102
RTVSPropertyOp52
 70
     0
102
RTVSPropertyOp53
 70
     1
102
RTVSPropertyOp54
 70
     1
102
RTVSPropertyOp55
 70
     1
102
RTVSPropertyOp56
 70
     1
102
RTVSPropertyOp57
 70
     1
102
RTVSPost2010Prop28
280
     0
102
RTVSPost2010PropOp28
 70
     1
102
RTVSPost2010Prop29
280
     1
102
RTVSPost2010PropOp29
 70
     1
102
RTVSPost2010Prop30
280
     1
102
RTVSPost2010PropOp30
 70
     1
102
RTVSPost2010Prop31
280
     0
102
RTVSPost2010PropOp31
 70
     1
102
RTVSPost2010Prop32
280
     0
102
RTVSPost2010PropOp32
 70
     1
102
RTVSPost2010Prop33
280
     0
102
RTVSPost2010PropOp33
 70
     1
102
RTVSPost2010Prop34
280
     0
102
RTVSPost2010PropOp34
 70
     1
102
RTVSPost2010Prop35
280
     0
102
RTVSPost2010PropOp35
 70
     1
102
RTVSPost2010Prop36
280
     0
102
RTVSPost2010PropOp36
 70
     1
102
RTVSPost2010Prop37
 90
       50
102
RTVSPost2010PropOp37
 70
     1
102
RTVSPost2010Prop38
140
0.0
102
RTVSPost2010PropOp38
 70
     1
102
RTVSPost2010Prop39
140
1.0
102
RTVSPost2010PropOp39
 70
     1
102
RTVSPost2010Prop40
 90
        0
102
RTVSPost2010PropOp40
 70
     1
102
RTVSPost2010Prop41ColorIndex
 90
       18
102
RTVSPost2010Prop41ColorRGB
 90
        0
102
RTVSPost2010PropOp41
 70
     1
102
RTVSPost2010Prop42
 90
       50
102
RTVSPost2010PropOp42
 70
     1
102
RTVSPost2010Prop43
 90
        3
102
RTVSPost2010PropOp43
 70
     1
102
RTVSPost2010Prop44ColorIndex
 90
        5
102
RTVSPost2010Prop44ColorRGB
 90
      255
102
RTVSPost2010PropOp44
 70
     1
102
RTVSPost2010Prop45
280
     0
102
RTVSPost2010PropOp45
 70
     1
102
RTVSPost2010Prop46
 90
       50
102
RTVSPost2010PropOp46
 70
     1
102
RTVSPost2010Prop47
 90
       50
102
RTVSPost2010PropOp47
 70
     1
102
RTVSPost2010Prop48
 90
       50
102
RTVSPost2010PropOp48
 70
     1
102
RTVSPost2010Prop49
280
     0
102
RTVSPost2010PropOp49
 70
     1
102
RTVSPost2010Prop50
 90
       50
102
RTVSPost2010PropOp50
 70
     1
102
RTVSPost2010Prop51ColorIndex
 90
      256
102
RTVSPost2010Prop51ColorRGB
 90
-16777216
102
RTVSPost2010PropOp51
 70
     0
102
RTVSPost2010Prop52
140
1.0
102
RTVSPost2010PropOp52
 70
     0
102
RTVSPost2010Prop53
 90
        2
102
RTVSPost2010PropOp53
 70
     1
102
RTVSPost2010Prop54
  1
strokes_ogs.tif
102
RTVSPost2010PropOp54
 70
     1
102
RTVSPost2010Prop55
280
     0
102
RTVSPost2010PropOp55
 70
     1
102
RTVSPost2010Prop56
140
1.0
102
RTVSPost2010PropOp56
 70
     1
102
RTVSPost2010Prop57
140
1.0
102
RTVSPost2010PropOp57
 70
     1
  0
ENDSEC
  0
EOF
