  0
SECTION
  2
HEADER
  9
$ACADVER
  1
AC1018
  9
$ACADMAINTVER
 70
     0
  9
$DWGCODEPAGE
  3
ANSI_1252
  9
$INSBASE
 10
0.0
 20
0.0
 30
0.0
  9
$EXTMIN
 10
-75.49166903931882
 20
317.2132089700043
 30
0.0
  9
$EXTMAX
 10
221.5083309606793
 20
527.2132089700044
 30
0.0
  9
$LIMMIN
 10
0.0
 20
0.0
  9
$LIMMAX
 10
12.0
 20
9.0
  9
$ORTHOMODE
 70
     0
  9
$REGENMODE
 70
     1
  9
$FILLMODE
 70
     1
  9
$QTEXTMODE
 70
     0
  9
$MIRRTEXT
 70
     1
  9
$LTSCALE
 40
1.0
  9
$ATTMODE
 70
     1
  9
$TEXTSIZE
 40
0.2
  9
$TRACEWID
 40
0.05
  9
$TEXTSTYLE
  7
Standard
  9
$CLAYER
  8
0
  9
$CELTYPE
  6
ByLayer
  9
$CECOLOR
 62
   256
  9
$CELTSCALE
 40
1.0
  9
$DISPSILH
 70
     0
  9
$DIMSCALE
 40
1.0
  9
$DIMASZ
 40
0.18
  9
$DIMEXO
 40
0.0625
  9
$DIMDLI
 40
0.38
  9
$DIMRND
 40
0.0
  9
$DIMDLE
 40
0.0
  9
$DIMEXE
 40
0.18
  9
$DIMTP
 40
0.0
  9
$DIMTM
 40
0.0
  9
$DIMTXT
 40
0.18
  9
$DIMCEN
 40
0.09
  9
$DIMTSZ
 40
0.0
  9
$DIMTOL
 70
     0
  9
$DIMLIM
 70
     0
  9
$DIMTIH
 70
     1
  9
$DIMTOH
 70
     1
  9
$DIMSE1
 70
     0
  9
$DIMSE2
 70
     0
  9
$DIMTAD
 70
     0
  9
$DIMZIN
 70
     0
  9
$DIMBLK
  1

  9
$DIMASO
 70
     1
  9
$DIMSHO
 70
     1
  9
$DIMPOST
  1

  9
$DIMAPOST
  1

  9
$DIMALT
 70
     0
  9
$DIMALTD
 70
     2
  9
$DIMALTF
 40
25.4
  9
$DIMLFAC
 40
1.0
  9
$DIMTOFL
 70
     0
  9
$DIMTVP
 40
0.0
  9
$DIMTIX
 70
     0
  9
$DIMSOXD
 70
     0
  9
$DIMSAH
 70
     0
  9
$DIMBLK1
  1

  9
$DIMBLK2
  1

  9
$DIMSTYLE
  2
Standard
  9
$DIMCLRD
 70
     0
  9
$DIMCLRE
 70
     0
  9
$DIMCLRT
 70
     0
  9
$DIMTFAC
 40
1.0
  9
$DIMGAP
 40
0.09
  9
$DIMJUST
 70
     0
  9
$DIMSD1
 70
     0
  9
$DIMSD2
 70
     0
  9
$DIMTOLJ
 70
     1
  9
$DIMTZIN
 70
     0
  9
$DIMALTZ
 70
     0
  9
$DIMALTTZ
 70
     0
  9
$DIMUPT
 70
     0
  9
$DIMDEC
 70
     4
  9
$DIMTDEC
 70
     4
  9
$DIMALTU
 70
     2
  9
$DIMALTTD
 70
     2
  9
$DIMTXSTY
  7
Standard
  9
$DIMAUNIT
 70
     0
  9
$DIMADEC
 70
     0
  9
$DIMALTRND
 40
0.0
  9
$DIMAZIN
 70
     0
  9
$DIMDSEP
 70
    46
  9
$DIMATFIT
 70
     3
  9
$DIMFRAC
 70
     0
  9
$DIMLDRBLK
  1

  9
$DIMLUNIT
 70
     2
  9
$DIMLWD
 70
    -2
  9
$DIMLWE
 70
    -2
  9
$DIMTMOVE
 70
     0
  9
$LUNITS
 70
     2
  9
$LUPREC
 70
     4
  9
$SKETCHINC
 40
0.1
  9
$FILLETRAD
 40
0.5
  9
$AUNITS
 70
     0
  9
$AUPREC
 70
     0
  9
$MENU
  1
.
  9
$ELEVATION
 40
0.0
  9
$PELEVATION
 40
0.0
  9
$THICKNESS
 40
0.0
  9
$LIMCHECK
 70
     0
  9
$CHAMFERA
 40
0.5
  9
$CHAMFERB
 40
0.5
  9
$CHAMFERC
 40
1.0
  9
$CHAMFERD
 40
0.0
  9
$SKPOLY
 70
     0
  9
$TDCREATE
 40
2458137.567192014
  9
$TDUCREATE
 40
2458137.525525347
  9
$TDUPDATE
 40
2458137.567192558
  9
$TDUUPDATE
 40
2458137.525525891
  9
$TDINDWG
 40
0.0000000116
  9
$TDUSRTIMER
 40
0.0000000116
  9
$USRTIMER
 70
     1
  9
$ANGBASE
 50
0.0
  9
$ANGDIR
 70
     0
  9
$PDMODE
 70
     0
  9
$PDSIZE
 40
0.0
  9
$PLINEWID
 40
0.0
  9
$SPLFRAME
 70
     0
  9
$SPLINETYPE
 70
     6
  9
$SPLINESEGS
 70
     8
  9
$HANDSEED
  5
299
  9
$SURFTAB1
 70
     6
  9
$SURFTAB2
 70
     6
  9
$SURFTYPE
 70
     6
  9
$SURFU
 70
     6
  9
$SURFV
 70
     6
  9
$UCSBASE
  2

  9
$UCSNAME
  2

  9
$UCSORG
 10
0.0
 20
0.0
 30
0.0
  9
$UCSXDIR
 10
1.0
 20
0.0
 30
0.0
  9
$UCSYDIR
 10
0.0
 20
1.0
 30
0.0
  9
$UCSORTHOREF
  2

  9
$UCSORTHOVIEW
 70
     0
  9
$UCSORGTOP
 10
0.0
 20
0.0
 30
0.0
  9
$UCSORGBOTTOM
 10
0.0
 20
0.0
 30
0.0
  9
$UCSORGLEFT
 10
0.0
 20
0.0
 30
0.0
  9
$UCSORGRIGHT
 10
0.0
 20
0.0
 30
0.0
  9
$UCSORGFRONT
 10
0.0
 20
0.0
 30
0.0
  9
$UCSORGBACK
 10
0.0
 20
0.0
 30
0.0
  9
$PUCSBASE
  2

  9
$PUCSNAME
  2

  9
$PUCSORG
 10
0.0
 20
0.0
 30
0.0
  9
$PUCSXDIR
 10
1.0
 20
0.0
 30
0.0
  9
$PUCSYDIR
 10
0.0
 20
1.0
 30
0.0
  9
$PUCSORTHOREF
  2

  9
$PUCSORTHOVIEW
 70
     0
  9
$PUCSORGTOP
 10
0.0
 20
0.0
 30
0.0
  9
$PUCSORGBOTTOM
 10
0.0
 20
0.0
 30
0.0
  9
$PUCSORGLEFT
 10
0.0
 20
0.0
 30
0.0
  9
$PUCSORGRIGHT
 10
0.0
 20
0.0
 30
0.0
  9
$PUCSORGFRONT
 10
0.0
 20
0.0
 30
0.0
  9
$PUCSORGBACK
 10
0.0
 20
0.0
 30
0.0
  9
$USERI1
 70
     0
  9
$USERI2
 70
     0
  9
$USERI3
 70
     0
  9
$USERI4
 70
     0
  9
$USERI5
 70
     0
  9
$USERR1
 40
18.1
  9
$USERR2
 40
0.0
  9
$USERR3
 40
0.0
  9
$USERR4
 40
0.0
  9
$USERR5
 40
0.0
  9
$WORLDVIEW
 70
     1
  9
$SHADEDGE
 70
     3
  9
$SHADEDIF
 70
    70
  9
$TILEMODE
 70
     1
  9
$MAXACTVP
 70
    64
  9
$PINSBASE
 10
0.0
 20
0.0
 30
0.0
  9
$PLIMCHECK
 70
     0
  9
$PEXTMIN
 10
1.00000000000000E+20
 20
1.00000000000000E+20
 30
1.00000000000000E+20
  9
$PEXTMAX
 10
-1.00000000000000E+20
 20
-1.00000000000000E+20
 30
-1.00000000000000E+20
  9
$PLIMMIN
 10
0.0
 20
0.0
  9
$PLIMMAX
 10
12.0
 20
9.0
  9
$UNITMODE
 70
     0
  9
$VISRETAIN
 70
     1
  9
$PLINEGEN
 70
     0
  9
$PSLTSCALE
 70
     1
  9
$TREEDEPTH
 70
  3020
  9
$CMLSTYLE
  2
Standard
  9
$CMLJUST
 70
     0
  9
$CMLSCALE
 40
1.0
  9
$PROXYGRAPHICS
 70
     1
  9
$MEASUREMENT
 70
     1
  9
$CELWEIGHT
370
    -1
  9
$ENDCAPS
280
     0
  9
$JOINSTYLE
280
     0
  9
$LWDISPLAY
290
     0
  9
$INSUNITS
 70
     4
  9
$HYPERLINKBASE
  1

  9
$STYLESHEET
  1

  9
$XEDIT
290
     1
  9
$CEPSNTYPE
380
     0
  9
$PSTYLEMODE
290
     1
  9
$FINGERPRINTGUID
  2
{B5C237F7-32EF-4482-BA56-536F2A4AE882}
  9
$VERSIONGUID
  2
{FAEB1C32-E019-11D5-929B-00C0DF256EC4}
  9
$EXTNAMES
290
     1
  9
$PSVPSCALE
 40
0.0
  9
$OLESTARTUP
290
     0
  9
$SORTENTS
280
   127
  9
$INDEXCTL
280
     0
  9
$HIDETEXT
280
     1
  9
$XCLIPFRAME
290
     0
  9
$HALOGAP
280
     0
  9
$OBSCOLOR
 70
   257
  9
$OBSLTYPE
280
     0
  9
$INTERSECTIONDISPLAY
280
     0
  9
$INTERSECTIONCOLOR
 70
   257
  9
$DIMASSOC
280
     2
  9
$PROJECTNAME
  1

  0
ENDSEC
  0
SECTION
  2
CLASSES
  0
CLASS
  1
ACDBDICTIONARYWDFLT
  2
AcDbDictionaryWithDefault
  3
ObjectDBX Classes
 90
        0
 91
        4
280
     0
281
     0
  0
CLASS
  1
VISUALSTYLE
  2
AcDbVisualStyle
  3
ObjectDBX Classes
 90
     4095
 91
        4
280
     0
281
     0
  0
CLASS
  1
MATERIAL
  2
AcDbMaterial
  3
ObjectDBX Classes
 90
     1153
 91
        4
280
     0
281
     0
  0
ENDSEC
  0
SECTION
  2
TABLES
  0
TABLE
  2
VPORT
  5
8
330
0
100
AcDbSymbolTable
 70
     1
  0
VPORT
  5
29
330
8
100
AcDbSymbolTableRecord
100
AcDbViewportTableRecord
  2
*Active
 70
     0
 10
0.0
 20
0.0
 11
1.0
 21
1.0
 12
73.00833096068024
 22
422.2132089700044
 13
0.0
 23
0.0
 14
0.5
 24
0.5
 15
0.5
 25
0.5
 16
0.0
 26
0.0
 36
1.0
 17
0.0
 27
0.0
 37
0.0
 40
231.0000000000001
 41
1.60267857142857
 42
50.0
 43
0.0
 44
0.0
 50
0.0
 51
0.0
 71
     0
 72
   100
 73
     1
 74
     3
 75
     0
 76
     0
 77
     0
 78
     0
281
     0
 65
     1
110
0.0
120
0.0
130
0.0
111
1.0
121
0.0
131
0.0
112
0.0
122
1.0
132
0.0
 79
     0
146
0.0
  0
ENDTAB
  0
TABLE
  2
LTYPE
  5
5
330
0
100
AcDbSymbolTable
 70
     8
  0
LTYPE
  5
14
330
5
100
AcDbSymbolTableRecord
100
AcDbLinetypeTableRecord
  2
ByBlock
 70
     0
  3

 72
    65
 73
     0
 40
0.0
  0
LTYPE
  5
15
330
5
100
AcDbSymbolTableRecord
100
AcDbLinetypeTableRecord
  2
ByLayer
 70
     0
  3

 72
    65
 73
     0
 40
0.0
  0
LTYPE
  5
16
330
5
100
AcDbSymbolTableRecord
100
AcDbLinetypeTableRecord
  2
Continuous
 70
     0
  3
Solid line
 72
    65
 73
     0
 40
0.0
  0
LTYPE
  5
3F
330
5
100
AcDbSymbolTableRecord
100
AcDbLinetypeTableRecord
  2
DASHED
 70
     0
  3
Dashed
 72
    65
 73
     2
 40
15.0
 49
7.0
 74
     0
 49
-8.0
 74
     0
  0
LTYPE
  5
40
330
5
100
AcDbSymbolTableRecord
100
AcDbLinetypeTableRecord
  2
DOTTED
 70
     0
  3
Dotted
 72
    65
 73
     2
 40
1.0
 49
0.0
 74
     0
 49
-1.0
 74
     0
  0
LTYPE
  5
41
330
5
100
AcDbSymbolTableRecord
100
AcDbLinetypeTableRecord
  2
DOT_CENTER
 70
     0
  3
Dot_Center
 72
    65
 73
     4
 40
14.0
 49
12.0
 74
     0
 49
-1.0
 74
     0
 49
0.0
 74
     0
 49
-1.0
 74
     0
  0
LTYPE
  5
42
330
5
100
AcDbSymbolTableRecord
100
AcDbLinetypeTableRecord
  2
LONG_DASHED
 70
     0
  3
Long_Dashed
 72
    65
 73
     2
 40
15.0
 49
10.0
 74
     0
 49
-5.0
 74
     0
  0
LTYPE
  5
43
330
5
100
AcDbSymbolTableRecord
100
AcDbLinetypeTableRecord
  2
DASH_CENTER
 70
     0
  3
Dash_Center
 72
    65
 73
     4
 40
14.0
 49
11.0
 74
     0
 49
-1.0
 74
     0
 49
1.0
 74
     0
 49
-1.0
 74
     0
  0
LTYPE
  5
44
330
5
100
AcDbSymbolTableRecord
100
AcDbLinetypeTableRecord
  2
PHANTOM
 70
     0
  3
Phantom
 72
    65
 73
     6
 40
13.0
 49
10.0
 74
     0
 49
-1.0
 74
     0
 49
0.0
 74
     0
 49
-1.0
 74
     0
 49
0.0
 74
     0
 49
-1.0
 74
     0
  0
LTYPE
  5
45
330
5
100
AcDbSymbolTableRecord
100
AcDbLinetypeTableRecord
  2
CENTER_DASH_DASH
 70
     0
  3
Center_Dash_Dash
 72
    65
 73
     6
 40
14.0
 49
9.0
 74
     0
 49
-1.0
 74
     0
 49
1.0
 74
     0
 49
-1.0
 74
     0
 49
1.0
 74
     0
 49
-1.0
 74
     0
  0
ENDTAB
  0
TABLE
  2
LAYER
  5
2
330
0
100
AcDbSymbolTable
 70
     2
  0
LAYER
  5
10
330
2
100
AcDbSymbolTableRecord
100
AcDbLayerTableRecord
  2
0
 70
     0
 62
     7
  6
Continuous
370
    -3
390
F
  0
LAYER
  5
46
330
2
100
AcDbSymbolTableRecord
100
AcDbLayerTableRecord
  2
1
 70
     0
 62
     7
  6
Continuous
370
    -3
390
F
  0
ENDTAB
  0
TABLE
  2
STYLE
  5
3
330
0
100
AcDbSymbolTable
 70
     5
  0
STYLE
  5
11
330
3
100
AcDbSymbolTableRecord
100
AcDbTextStyleTableRecord
  2
Standard
 70
     0
 40
0.0
 41
1.0
 50
0.0
 71
     0
 42
0.2
  3
txt
  4

  0
STYLE
  5
A6
330
3
100
AcDbSymbolTableRecord
100
AcDbTextStyleTableRecord
  2
CONVERTER_11
 70
     0
 40
0.0
 41
0.9
 50
0.0
 71
     0
 42
0.2
  3
txt.shx
  4

  0
STYLE
  5
234
330
3
100
AcDbSymbolTableRecord
100
AcDbTextStyleTableRecord
  2
CONVERTER_12
 70
     0
 40
0.0
 41
0.81
 50
0.0
 71
     0
 42
0.2
  3
txt.shx
  4

  0
STYLE
  5
24A
330
3
100
AcDbSymbolTableRecord
100
AcDbTextStyleTableRecord
  2
CONVERTER_13
 70
     0
 40
0.0
 41
0.72
 50
0.0
 71
     0
 42
0.2
  3
txt.shx
  4

  0
STYLE
  5
24D
330
3
100
AcDbSymbolTableRecord
100
AcDbTextStyleTableRecord
  2
CONVERTER_14
 70
     0
 40
0.0
 41
0.855
 50
0.0
 71
     0
 42
0.2
  3
txt.shx
  4

  0
ENDTAB
  0
TABLE
  2
VIEW
  5
6
330
0
100
AcDbSymbolTable
 70
     0
  0
ENDTAB
  0
TABLE
  2
UCS
  5
7
330
0
100
AcDbSymbolTable
 70
     0
  0
ENDTAB
  0
TABLE
  2
APPID
  5
9
330
0
100
AcDbSymbolTable
 70
     1
  0
APPID
  5
12
330
9
100
AcDbSymbolTableRecord
100
AcDbRegAppTableRecord
  2
ACAD
 70
     0
  0
ENDTAB
  0
TABLE
  2
DIMSTYLE
  5
A
330
0
100
AcDbSymbolTable
 70
     4
100
AcDbDimStyleTable
  0
DIMSTYLE
105
27
330
A
100
AcDbSymbolTableRecord
100
AcDbDimStyleTableRecord
  2
Standard
 70
     0
178
     0
340
11
  0
DIMSTYLE
105
C9
102
{ACAD_REACTORS
330
CA
102
}
330
A
100
AcDbSymbolTableRecord
100
AcDbDimStyleTableRecord
  2
ME10_DIM_10
 70
     0
 41
3.5
 42
0.0
 44
2.0
 73
     0
 74
     0
 77
     1
 78
     8
140
3.5
147
2.0
172
     1
173
     1
174
     1
175
     1
176
     2
177
     2
178
     3
340
A6
  0
DIMSTYLE
105
12B
102
{ACAD_REACTORS
330
12C
102
}
330
A
100
AcDbSymbolTableRecord
100
AcDbDimStyleTableRecord
  2
ME10_DIM_11
 70
     0
 41
3.5
 42
0.0
 44
2.0
 73
     0
 74
     0
 77
     1
 78
     8
140
3.5
147
2.0
172
     1
173
     1
174
     1
175
     1
176
     2
177
     2
178
     3
340
A6
  0
DIMSTYLE
105
136
102
{ACAD_REACTORS
330
137
102
}
330
A
100
AcDbSymbolTableRecord
100
AcDbDimStyleTableRecord
  2
ME10_DIM_12
 70
     0
 41
3.5
 42
0.0
 44
2.0
 73
     0
 74
     0
 77
     1
 78
     8
140
3.5
147
2.0
172
     1
173
     1
174
     1
175
     1
176
     2
177
     2
178
     3
340
A6
  0
ENDTAB
  0
TABLE
  2
BLOCK_RECORD
  5
1
330
0
100
AcDbSymbolTable
 70
    20
  0
BLOCK_RECORD
  5
1F
330
1
100
AcDbSymbolTableRecord
100
AcDbBlockTableRecord
  2
*Model_Space
340
22
  0
BLOCK_RECORD
  5
1B
330
1
100
AcDbSymbolTableRecord
100
AcDbBlockTableRecord
  2
*Paper_Space
340
1E
  0
BLOCK_RECORD
  5
23
330
1
100
AcDbSymbolTableRecord
100
AcDbBlockTableRecord
  2
*Paper_Space0
340
26
  0
BLOCK_RECORD
  5
47
330
1
100
AcDbSymbolTableRecord
100
AcDbBlockTableRecord
  2
D_UHSK_2000-select__1
340
0
102
{BLKREFS
331
4B
102
}
  0
BLOCK_RECORD
  5
4A
330
1
100
AcDbSymbolTableRecord
100
AcDbBlockTableRecord
  2
AllgSicht1
340
0
102
{BLKREFS
331
7D
102
}
  0
BLOCK_RECORD
  5
4E
330
1
100
AcDbSymbolTableRecord
100
AcDbBlockTableRecord
  2
D_UHSK_2000-select__2
340
0
102
{BLKREFS
331
52
102
}
  0
BLOCK_RECORD
  5
51
330
1
100
AcDbSymbolTableRecord
100
AcDbBlockTableRecord
  2
Drfsicht1
340
0
102
{BLKREFS
331
7E
102
}
  0
BLOCK_RECORD
  5
55
330
1
100
AcDbSymbolTableRecord
100
AcDbBlockTableRecord
  2
D_UHSK_2000-select__3
340
0
102
{BLKREFS
331
59
102
}
  0
BLOCK_RECORD
  5
58
330
1
100
AcDbSymbolTableRecord
100
AcDbBlockTableRecord
  2
Rckans1
340
0
102
{BLKREFS
331
7F
102
}
  0
BLOCK_RECORD
  5
5C
330
1
100
AcDbSymbolTableRecord
100
AcDbBlockTableRecord
  2
D_UHSK_2000-select__4
340
0
102
{BLKREFS
331
60
102
}
  0
BLOCK_RECORD
  5
5F
330
1
100
AcDbSymbolTableRecord
100
AcDbBlockTableRecord
  2
SA_Links1
340
0
102
{BLKREFS
331
80
102
}
  0
BLOCK_RECORD
  5
63
330
1
100
AcDbSymbolTableRecord
100
AcDbBlockTableRecord
  2
D_UHSK_2000-select__5
340
0
102
{BLKREFS
331
67
102
}
  0
BLOCK_RECORD
  5
66
330
1
100
AcDbSymbolTableRecord
100
AcDbBlockTableRecord
  2
SA_Rechts1
340
0
102
{BLKREFS
331
81
102
}
  0
BLOCK_RECORD
  5
6A
330
1
100
AcDbSymbolTableRecord
100
AcDbBlockTableRecord
  2
D_UHSK_2000-select__6
340
0
102
{BLKREFS
331
6E
102
}
  0
BLOCK_RECORD
  5
6D
330
1
100
AcDbSymbolTableRecord
100
AcDbBlockTableRecord
  2
Vordans1
340
0
102
{BLKREFS
331
82
102
}
  0
BLOCK_RECORD
  5
71
330
1
100
AcDbSymbolTableRecord
100
AcDbBlockTableRecord
  2
_rahmen
340
0
102
{BLKREFS
331
78
102
}
  0
BLOCK_RECORD
  5
74
330
1
100
AcDbSymbolTableRecord
100
AcDbBlockTableRecord
  2
_punkt
340
0
102
{BLKREFS
331
79
102
}
  0
BLOCK_RECORD
  5
77
330
1
100
AcDbSymbolTableRecord
100
AcDbBlockTableRecord
  2
A4I_CS
340
0
102
{BLKREFS
331
83
102
}
  0
BLOCK_RECORD
  5
7C
330
1
100
AcDbSymbolTableRecord
100
AcDbBlockTableRecord
  2
1
340
0
102
{BLKREFS
331
86
102
}
  0
BLOCK_RECORD
  5
BE
330
1
100
AcDbSymbolTableRecord
100
AcDbBlockTableRecord
  2
*D17
340
0
  0
BLOCK_RECORD
  5
122
330
1
100
AcDbSymbolTableRecord
100
AcDbBlockTableRecord
  2
*D18
340
0
  0
BLOCK_RECORD
  5
12D
330
1
100
AcDbSymbolTableRecord
100
AcDbBlockTableRecord
  2
*D19
340
0
  0
ENDTAB
  0
ENDSEC
  0
SECTION
  2
BLOCKS
  0
BLOCK
  5
20
330
1F
100
AcDbEntity
  8
0
100
AcDbBlockBegin
  2
*Model_Space
 70
     0
 10
0.0
 20
0.0
 30
0.0
  3
*Model_Space
  1

  0
ENDBLK
  5
21
330
1F
100
AcDbEntity
  8
0
100
AcDbBlockEnd
  0
BLOCK
  5
1C
330
1B
100
AcDbEntity
 67
     1
  8
0
100
AcDbBlockBegin
  2
*Paper_Space
 70
     0
 10
0.0
 20
0.0
 30
0.0
  3
*Paper_Space
  1

  0
ENDBLK
  5
1D
330
1B
100
AcDbEntity
 67
     1
  8
0
100
AcDbBlockEnd
  0
BLOCK
  5
24
330
23
100
AcDbEntity
  8
0
100
AcDbBlockBegin
  2
*Paper_Space0
 70
     0
 10
0.0
 20
0.0
 30
0.0
  3
*Paper_Space0
  1

  0
ENDBLK
  5
25
330
23
100
AcDbEntity
  8
0
100
AcDbBlockEnd
  0
BLOCK
  5
48
330
47
100
AcDbEntity
  8
0
100
AcDbBlockBegin
  2
D_UHSK_2000-select__1
 70
     0
 10
139.983340209304
 20
359.5639444898116
 30
0.0
  3
D_UHSK_2000-select__1
  1

  0
LINE
  5
87
330
47
100
AcDbEntity
  8
0
  6
Continuous
 62
     7
100
AcDbLine
 10
139.983340209304
 20
381.7528827050931
 30
0.0
 11
142.6519244963461
 21
371.0232366333326
 31
0.0
  0
LINE
  5
88
330
47
100
AcDbEntity
  8
0
  6
Continuous
 62
     7
100
AcDbLine
 10
175.8367919259797
 20
413.9247300309091
 30
0.0
 11
176.3367919259797
 21
414.3577427328013
 31
0.0
  0
LINE
  5
89
330
47
100
AcDbEntity
  8
0
  6
Continuous
 62
     7
100
AcDbLine
 10
178.5457174906061
 20
412.5885055526861
 30
0.0
 11
178.0070423560113
 21
412.2053325350734
 31
0.0
  0
LINE
  5
8A
330
47
100
AcDbEntity
  8
0
  6
Continuous
 62
     7
100
AcDbLine
 10
178.5457174906061
 20
412.5885055526861
 30
0.0
 11
178.0457174906061
 21
412.1554928507939
 31
0.0
  0
LINE
  5
8B
330
47
100
AcDbEntity
  8
0
  6
Continuous
 62
     7
100
AcDbLine
 10
185.0166612060948
 20
402.094860750794
 30
0.0
 11
175.8367919259797
 21
413.9247300309091
 31
0.0
  0
LINE
  5
8C
330
47
100
AcDbEntity
  8
0
  6
Continuous
 62
     7
100
AcDbLine
 10
176.3367919259797
 20
414.3577427328013
 30
0.0
 11
178.0457174906061
 21
412.1554928507939
 31
0.0
  0
LINE
  5
8D
330
47
100
AcDbEntity
  8
0
  6
Continuous
 62
     7
100
AcDbLine
 10
178.5457174906061
 20
412.5885055526861
 30
0.0
 11
186.0166612060948
 21
402.9608861545785
 31
0.0
  0
LINE
  5
8E
330
47
100
AcDbEntity
  8
0
  6
Continuous
 62
     7
100
AcDbLine
 10
185.5166612060948
 20
396.886829420752
 30
0.0
 11
186.0166612060948
 21
397.4060142642648
 31
0.0
  0
LINE
  5
8F
330
47
100
AcDbEntity
  8
0
  6
Continuous
 62
     7
100
AcDbLine
 10
186.0166612060948
 20
402.9608861545785
 30
0.0
 11
186.0166612060948
 21
397.4060142642648
 31
0.0
  0
LINE
  5
90
330
47
100
AcDbEntity
  8
0
  6
Continuous
 62
     7
100
AcDbLine
 10
185.0166612060948
 20
368.7528827050932
 30
0.0
 11
186.0166612060948
 21
369.6189081088776
 31
0.0
  0
LINE
  5
91
330
47
100
AcDbEntity
  8
0
  6
Continuous
 62
     7
100
AcDbLine
 10
186.0166612060948
 20
370.843652980269
 30
0.0
 11
186.0166612060948
 21
369.6189081088776
 31
0.0
  0
LINE
  5
92
330
47
100
AcDbEntity
  8
0
  6
Continuous
 62
     7
100
AcDbLine
 10
186.0166612060948
 20
370.843652980269
 30
0.0
 11
185.5166612060948
 21
371.4879905475665
 31
0.0
  0
LINE
  5
93
330
47
100
AcDbEntity
  8
0
  6
Continuous
 62
     7
100
AcDbLine
 10
182.3480769190527
 20
359.5639444898116
 30
0.0
 11
185.0166612060948
 21
368.7528827050932
 31
0.0
  0
LINE
  5
94
330
47
100
AcDbEntity
  8
0
  6
Continuous
 62
     7
100
AcDbLine
 10
186.0166612060948
 20
369.6189081088776
 30
0.0
 11
183.3480769190527
 21
360.429969893596
 31
0.0
  0
LINE
  5
95
330
47
100
AcDbEntity
  8
0
  6
Continuous
 62
     7
100
AcDbLine
 10
185.5166612060948
 20
396.9730015623726
 30
0.0
 11
186.0166612060948
 21
397.4060142642648
 31
0.0
  0
LINE
  5
96
330
47
100
AcDbEntity
  8
0
  6
Continuous
 62
     7
100
AcDbLine
 10
185.5166612060948
 20
396.9730015623726
 30
0.0
 11
185.5166612060948
 21
370.4106402783768
 31
0.0
  0
LINE
  5
97
330
47
100
AcDbEntity
  8
0
  6
Continuous
 62
     7
100
AcDbLine
 10
186.0166612060948
 20
370.843652980269
 30
0.0
 11
185.5166612060948
 21
370.4106402783768
 31
0.0
  0
LINE
  5
98
330
47
100
AcDbEntity
  8
0
  6
Continuous
 62
     7
100
AcDbLine
 10
185.0166612060948
 20
368.7528827050932
 30
0.0
 11
185.0166612060948
 21
402.094860750794
 31
0.0
  0
LINE
  5
99
330
47
100
AcDbEntity
  8
0
  6
Continuous
 62
     7
100
AcDbLine
 10
186.0166612060948
 20
402.9608861545785
 30
0.0
 11
185.0166612060948
 21
402.094860750794
 31
0.0
  0
LINE
  5
9A
330
47
100
AcDbEntity
  8
0
  6
Continuous
 62
     7
100
AcDbLine
 10
140.983340209304
 20
415.9608861545785
 30
0.0
 11
139.983340209304
 21
415.0948607507941
 31
0.0
  0
LINE
  5
9B
330
47
100
AcDbEntity
  8
0
  6
Continuous
 62
     7
100
AcDbLine
 10
148.4929590593875
 20
421.2253145031688
 30
0.0
 11
148.4542839247927
 21
421.2751541874482
 31
0.0
  0
LINE
  5
9C
330
47
100
AcDbEntity
  8
0
  6
Continuous
 62
     7
100
AcDbLine
 10
140.983340209304
 20
415.9608861545785
 30
0.0
 11
148.4542839247927
 21
421.2751541874482
 31
0.0
  0
LINE
  5
9D
330
47
100
AcDbEntity
  8
0
  6
Continuous
 62
     7
100
AcDbLine
 10
147.9542839247927
 20
420.842141485556
 30
0.0
 11
148.4542839247927
 21
421.2751541874482
 31
0.0
  0
LINE
  5
9E
330
47
100
AcDbEntity
  8
0
  6
Continuous
 62
     7
100
AcDbLine
 10
149.163209489419
 20
421.6247300309091
 30
0.0
 11
139.983340209304
 21
415.0948607507941
 31
0.0
  0
LINE
  5
9F
330
47
100
AcDbEntity
  8
0
  6
Continuous
 62
     7
100
AcDbLine
 10
175.8367919259797
 20
413.9247300309091
 30
0.0
 11
149.163209489419
 21
421.6247300309091
 31
0.0
  0
LINE
  5
A0
330
47
100
AcDbEntity
  8
0
  6
Continuous
 62
     7
100
AcDbLine
 10
149.663209489419
 20
422.0577427328013
 30
0.0
 11
176.3367919259797
 21
414.3577427328013
 31
0.0
  0
LINE
  5
A1
330
47
100
AcDbEntity
  8
0
  6
Continuous
 62
     7
100
AcDbLine
 10
149.163209489419
 20
421.6247300309091
 30
0.0
 11
149.663209489419
 21
422.0577427328013
 31
0.0
  0
LINE
  5
A2
330
47
100
AcDbEntity
  8
0
  6
Continuous
 62
     7
100
AcDbLine
 10
147.9542839247927
 20
420.842141485556
 30
0.0
 11
149.663209489419
 21
422.0577427328013
 31
0.0
  0
LINE
  5
A3
330
47
100
AcDbEntity
  8
0
  6
Continuous
 62
     7
100
AcDbLine
 10
183.3480769190527
 20
360.429969893596
 30
0.0
 11
182.3480769190527
 21
359.5639444898116
 31
0.0
  0
LINE
  5
A4
330
47
100
AcDbEntity
  8
0
  6
Continuous
 62
     7
100
AcDbLine
 10
139.983340209304
 20
415.0948607507941
 30
0.0
 11
139.983340209304
 21
381.7528827050931
 31
0.0
  0
LINE
  5
A5
330
47
100
AcDbEntity
  8
0
  6
Continuous
 62
     7
100
AcDbLine
 10
142.6519244963461
 20
371.0232366333326
 30
0.0
 11
182.3480769190527
 21
359.5639444898116
 31
0.0
  0
ENDBLK
  5
49
330
47
100
AcDbEntity
  8
0
100
AcDbBlockEnd
  0
BLOCK
  5
4C
330
4A
100
AcDbEntity
  8
0
100
AcDbBlockBegin
  2
AllgSicht1
 70
     0
 10
163.0000000000005
 20
391.9671730118
 30
0.0
  3
AllgSicht1
  1

  0
INSERT
  5
4B
330
4A
100
AcDbEntity
  8
0
100
AcDbBlockReference
  2
D_UHSK_2000-select__1
 10
139.983340209304
 20
359.5639444898116
 30
0.0
  0
MTEXT
  5
A7
330
4A
100
AcDbEntity
  8
1
 62
     6
100
AcDbMText
 10
163.0000000000001
 20
353.7935908985869
 30
0.0
 40
5.0
 41
0.0
 71
     2
 72
     1
  1
 
  7
CONVERTER_11
 73
     1
 44
1.32052821128451
  0
ENDBLK
  5
4D
330
4A
100
AcDbEntity
  8
0
100
AcDbBlockEnd
  0
BLOCK
  5
4F
330
4E
100
AcDbEntity
  8
0
100
AcDbBlockBegin
  2
D_UHSK_2000-select__2
 70
     0
 10
4.00000081717738
 20
384.0000000000152
 30
0.0
  3
D_UHSK_2000-select__2
  1

  0
LINE
  5
A8
330
4E
100
AcDbEntity
  8
0
  6
Continuous
 62
     7
100
AcDbLine
 10
4.00000081717738
 20
386.0000000000152
 30
0.0
 11
12.62670354765329
 21
386.0000000000152
 31
0.0
  0
LINE
  5
A9
330
4E
100
AcDbEntity
  8
0
  6
Continuous
 62
     7
100
AcDbLine
 10
17.85000081717741
 20
386.0000000000152
 30
0.0
 11
12.62670354765329
 21
386.0000000000152
 31
0.0
  0
LINE
  5
AA
330
4E
100
AcDbEntity
  8
0
  6
Continuous
 62
     7
100
AcDbLine
 10
42.15000081717738
 20
386.0000000000152
 30
0.0
 11
17.85000081717741
 21
386.0000000000152
 31
0.0
  0
LINE
  5
AB
330
4E
100
AcDbEntity
  8
0
  6
Continuous
 62
     7
100
AcDbLine
 10
56.00000081717738
 20
386.0000000000152
 30
0.0
 11
56.00000081717738
 21
384.0000000000152
 31
0.0
  0
LINE
  5
AC
330
4E
100
AcDbEntity
  8
0
  6
Continuous
 62
     7
100
AcDbLine
 10
56.00000081717738
 20
384.0000000000152
 30
0.0
 11
45.40000081717733
 21
384.0000000000152
 31
0.0
  0
LINE
  5
AD
330
4E
100
AcDbEntity
  8
0
  6
Continuous
 62
     7
100
AcDbLine
 10
14.60000081717739
 20
384.0000000000152
 30
0.0
 11
4.00000081717738
 21
384.0000000000152
 31
0.0
  0
LINE
  5
AE
330
4E
100
AcDbEntity
  8
0
  6
Continuous
 62
     7
100
AcDbLine
 10
45.40000081717733
 20
384.0000000000152
 30
0.0
 11
14.60000081717739
 21
384.0000000000152
 31
0.0
  0
LINE
  5
AF
330
4E
100
AcDbEntity
  8
0
  6
Continuous
 62
     7
100
AcDbLine
 10
47.37329808670151
 20
386.0000000000152
 30
0.0
 11
42.15000081717738
 21
386.0000000000152
 31
0.0
  0
LINE
  5
B0
330
4E
100
AcDbEntity
  8
0
  6
Continuous
 62
     7
100
AcDbLine
 10
47.37329808670151
 20
386.0000000000152
 30
0.0
 11
56.00000081717738
 21
386.0000000000152
 31
0.0
  0
LINE
  5
B1
330
4E
100
AcDbEntity
  8
0
  6
Continuous
 62
     7
100
AcDbLine
 10
14.60000081717739
 20
384.0000000000152
 30
0.0
 11
14.60000081717739
 21
385.0000000000152
 31
0.0
  0
LINE
  5
B2
330
4E
100
AcDbEntity
  8
0
  6
Continuous
 62
     7
100
AcDbLine
 10
42.15000081717738
 20
386.0000000000152
 30
0.0
 11
42.15000081717738
 21
385.0000000000152
 31
0.0
  0
LINE
  5
B3
330
4E
100
AcDbEntity
  8
0
  6
Continuous
 62
     7
100
AcDbLine
 10
47.37329808670151
 20
386.0000000000152
 30
0.0
 11
47.37329808670151
 21
385.0000000000152
 31
0.0
  0
LINE
  5
B4
330
4E
100
AcDbEntity
  8
0
  6
Continuous
 62
     7
100
AcDbLine
 10
45.40000081717733
 20
384.0000000000152
 30
0.0
 11
45.40000081717733
 21
385.0000000000152
 31
0.0
  0
LINE
  5
B5
330
4E
100
AcDbEntity
  8
0
  6
Continuous
 62
     7
100
AcDbLine
 10
45.40000081717733
 20
385.0000000000152
 30
0.0
 11
47.37329808670151
 21
385.0000000000152
 31
0.0
  0
LINE
  5
B6
330
4E
100
AcDbEntity
  8
0
  6
Continuous
 62
     7
100
AcDbLine
 10
42.15000081717738
 20
385.0000000000152
 30
0.0
 11
45.40000081717733
 21
385.0000000000152
 31
0.0
  0
LINE
  5
B7
330
4E
100
AcDbEntity
  8
0
  6
Continuous
 62
     7
100
AcDbLine
 10
4.00000081717738
 20
386.0000000000152
 30
0.0
 11
4.00000081717738
 21
384.0000000000152
 31
0.0
  0
LINE
  5
B8
330
4E
100
AcDbEntity
  8
0
  6
Continuous
 62
     7
100
AcDbLine
 10
12.62670354765327
 20
385.0000000000152
 30
0.0
 11
14.60000081717739
 21
385.0000000000152
 31
0.0
  0
LINE
  5
B9
330
4E
100
AcDbEntity
  8
0
  6
Continuous
 62
     7
100
AcDbLine
 10
17.85000081717741
 20
386.0000000000152
 30
0.0
 11
17.85000081717741
 21
385.0000000000152
 31
0.0
  0
LINE
  5
BA
330
4E
100
AcDbEntity
  8
0
  6
Continuous
 62
     7
100
AcDbLine
 10
12.62670354765327
 20
385.0000000000152
 30
0.0
 11
12.62670354765329
 21
386.0000000000152
 31
0.0
  0
LINE
  5
BB
330
4E
100
AcDbEntity
  8
0
  6
Continuous
 62
     7
100
AcDbLine
 10
14.60000081717739
 20
385.0000000000152
 30
0.0
 11
17.85000081717741
 21
385.0000000000152
 31
0.0
  0
LINE
  5
BC
330
4E
100
AcDbEntity
  8
0
  6
Continuous
 62
     7
100
AcDbLine
 10
17.85000081717741
 20
385.0000000000152
 30
0.0
 11
42.15000081717738
 21
385.0000000000152
 31
0.0
  0
ENDBLK
  5
50
330
4E
100
AcDbEntity
  8
0
100
AcDbBlockEnd
  0
BLOCK
  5
53
330
51
100
AcDbEntity
  8
0
100
AcDbBlockBegin
  2
Drfsicht1
 70
     0
 10
30.0
 20
385.0000000000102
 30
0.0
  3
Drfsicht1
  1

  0
INSERT
  5
52
330
51
100
AcDbEntity
  8
0
100
AcDbBlockReference
  2
D_UHSK_2000-select__2
 10
4.00000081717738
 20
384.0000000000152
 30
0.0
  0
MTEXT
  5
BD
330
51
100
AcDbEntity
  8
1
 62
     6
100
AcDbMText
 10
30.0
 20
379.00000000001
 30
0.0
 40
5.0
 41
0.0
 71
     2
 72
     1
  1
 
  7
CONVERTER_11
 73
     1
 44
1.32052821128451
  0
DIMENSION
  5
CA
330
51
100
AcDbEntity
  8
1
100
AcDbDimension
  2
*D17
 10
-6.8441575335636
 20
384.0000000000153
 30
0.0
 11
-10.5941575335636
 21
393.6176603145253
 31
0.0
 70
    32
  1
<>
 71
     5
 42
-1.0
 53
90.0
  3
ME10_DIM_10
100
AcDbAlignedDimension
 13
4.00000081717738
 23
386.0000000000152
 33
0.0
 14
4.00000081717738
 24
384.0000000000152
 34
0.0
 50
90.0
100
AcDbRotatedDimension
  0
ENDBLK
  5
54
330
51
100
AcDbEntity
  8
0
100
AcDbBlockEnd
  0
BLOCK
  5
56
330
55
100
AcDbEntity
  8
0
100
AcDbBlockBegin
  2
D_UHSK_2000-select__3
 70
     0
 10
133.9999977523112
 20
434.0000000532217
 30
0.0
  3
D_UHSK_2000-select__3
  1

  0
LINE
  5
CB
330
55
100
AcDbEntity
  8
0
  6
Continuous
 62
     7
100
AcDbLine
 10
147.8499977523112
 20
487.4034055141734
 30
0.0
 11
147.8499977523113
 21
472.5000000532217
 31
0.0
  0
LINE
  5
CC
330
55
100
AcDbEntity
  8
0
  6
Continuous
 62
     7
100
AcDbLine
 10
133.9999977523112
 20
484.0000000532217
 30
0.0
 11
133.9999977523112
 21
477.5857864908488
 31
0.0
  0
LINE
  5
CD
330
55
100
AcDbEntity
  8
0
  6
Continuous
 62
     7
100
AcDbLine
 10
133.9999977523112
 20
477.5857864908488
 30
0.0
 11
133.9999977523112
 21
446.9142136155946
 31
0.0
  0
LINE
  5
CE
330
55
100
AcDbEntity
  8
0
  6
Continuous
 62
     7
100
AcDbLine
 10
172.1499977523112
 20
487.4034055141734
 30
0.0
 11
177.3732950218353
 21
492.6267027836976
 31
0.0
  0
LINE
  5
CF
330
55
100
AcDbEntity
  8
0
  6
Continuous
 62
     7
100
AcDbLine
 10
185.9999977523112
 20
484.0000000532218
 30
0.0
 11
177.3732950218353
 21
492.6267027836976
 31
0.0
  0
LINE
  5
D0
330
55
100
AcDbEntity
  8
0
  6
Continuous
 62
     7
100
AcDbLine
 10
175.3999977523112
 20
494.6000000532217
 30
0.0
 11
144.5999977523113
 21
494.6000000532217
 31
0.0
  0
LINE
  5
D1
330
55
100
AcDbEntity
  8
0
  6
Continuous
 62
     7
100
AcDbLine
 10
147.8499977523113
 20
472.5000000532217
 30
0.0
 11
172.1499977523112
 21
472.5000000532217
 31
0.0
  0
LINE
  5
D2
330
55
100
AcDbEntity
  8
0
  6
Continuous
 62
     7
100
AcDbLine
 10
172.1499977523112
 20
465.9000000532217
 30
0.0
 11
172.1499977523112
 21
470.9000000532217
 31
0.0
  0
LINE
  5
D3
330
55
100
AcDbEntity
  8
0
  6
Continuous
 62
     7
100
AcDbLine
 10
176.2499977523112
 20
456.6642136155949
 30
0.0
 11
185.9999977523112
 21
446.9142136155948
 31
0.0
  0
LINE
  5
D4
330
55
100
AcDbEntity
  8
0
  6
Continuous
 62
     7
100
AcDbLine
 10
185.9999977523112
 20
477.5857864908487
 30
0.0
 11
176.2499977523112
 21
464.6470994800496
 31
0.0
  0
LINE
  5
D5
330
55
100
AcDbEntity
  8
0
  6
Continuous
 62
     7
100
AcDbLine
 10
142.6267004827871
 20
492.6267027836976
 30
0.0
 11
147.8499977523112
 21
487.4034055141734
 31
0.0
  0
LINE
  5
D6
330
55
100
AcDbEntity
  8
0
  6
Continuous
 62
     7
100
AcDbLine
 10
142.6267004827871
 20
492.6267027836976
 30
0.0
 11
133.9999977523112
 21
484.0000000532217
 31
0.0
  0
LINE
  5
D7
330
55
100
AcDbEntity
  8
0
  6
Continuous
 62
     7
100
AcDbLine
 10
144.5999977523113
 20
494.6000000532217
 30
0.0
 11
142.6267004827871
 21
492.6267027836976
 31
0.0
  0
LINE
  5
D8
330
55
100
AcDbEntity
  8
0
  6
Continuous
 62
     7
100
AcDbLine
 10
172.1499977523112
 20
470.9000000532217
 30
0.0
 11
147.8499977523113
 21
470.9000000532217
 31
0.0
  0
LINE
  5
D9
330
55
100
AcDbEntity
  8
0
  6
Continuous
 62
     7
100
AcDbLine
 10
176.2499977523112
 20
464.6470994800496
 30
0.0
 11
176.2499977523112
 21
456.6642136155949
 31
0.0
  0
LINE
  5
DA
330
55
100
AcDbEntity
  8
0
  6
Continuous
 62
     7
100
AcDbLine
 10
147.8499977523113
 20
465.9000000532217
 30
0.0
 11
172.1499977523112
 21
465.9000000532217
 31
0.0
  0
LINE
  5
DB
330
55
100
AcDbEntity
  8
0
  6
Continuous
 62
     7
100
AcDbLine
 10
137.0814134652692
 20
434.0000000532217
 30
0.0
 11
182.9185820393533
 21
434.0000000532217
 31
0.0
  0
LINE
  5
DC
330
55
100
AcDbEntity
  8
0
  6
Continuous
 62
     7
100
AcDbLine
 10
147.8499977523113
 20
470.9000000532217
 30
0.0
 11
147.8499977523113
 21
465.9000000532217
 31
0.0
  0
LINE
  5
DD
330
55
100
AcDbEntity
  8
0
  6
Continuous
 62
     7
100
AcDbLine
 10
143.7499977523114
 20
456.6642136155949
 30
0.0
 11
143.7499977523114
 21
464.6470994800496
 31
0.0
  0
LINE
  5
DE
330
55
100
AcDbEntity
  8
0
  6
Continuous
 62
     7
100
AcDbLine
 10
133.9999977523112
 20
446.9142136155946
 30
0.0
 11
143.7499977523114
 21
456.6642136155949
 31
0.0
  0
LINE
  5
DF
330
55
100
AcDbEntity
  8
0
  6
Continuous
 62
     7
100
AcDbLine
 10
133.9999977523112
 20
446.9142136155946
 30
0.0
 11
133.9999977523112
 21
445.5000000532217
 31
0.0
  0
LINE
  5
E0
330
55
100
AcDbEntity
  8
0
  6
Continuous
 62
     7
100
AcDbLine
 10
133.9999977523112
 20
445.5000000532217
 30
0.0
 11
137.0814134652692
 21
434.0000000532217
 31
0.0
  0
LINE
  5
E1
330
55
100
AcDbEntity
  8
0
  6
Continuous
 62
     7
100
AcDbLine
 10
185.9999977523112
 20
446.9142136155948
 30
0.0
 11
185.9999977523112
 21
477.5857864908487
 31
0.0
  0
LINE
  5
E2
330
55
100
AcDbEntity
  8
0
  6
Continuous
 62
     7
100
AcDbLine
 10
185.9999977523112
 20
445.5000000532217
 30
0.0
 11
185.9999977523112
 21
446.9142136155948
 31
0.0
  0
LINE
  5
E3
330
55
100
AcDbEntity
  8
0
  6
Continuous
 62
     7
100
AcDbLine
 10
185.9999977523112
 20
477.5857864908487
 30
0.0
 11
185.9999977523112
 21
484.0000000532218
 31
0.0
  0
LINE
  5
E4
330
55
100
AcDbEntity
  8
0
  6
Continuous
 62
     7
100
AcDbLine
 10
182.9185820393533
 20
434.0000000532217
 30
0.0
 11
185.9999977523112
 21
445.5000000532217
 31
0.0
  0
LINE
  5
E5
330
55
100
AcDbEntity
  8
0
  6
Continuous
 62
     7
100
AcDbLine
 10
172.1499977523112
 20
472.5000000532217
 30
0.0
 11
172.1499977523112
 21
487.4034055141734
 31
0.0
  0
LINE
  5
E6
330
55
100
AcDbEntity
  8
0
  6
Continuous
 62
     7
100
AcDbLine
 10
177.3732950218353
 20
492.6267027836976
 30
0.0
 11
175.3999977523112
 21
494.6000000532217
 31
0.0
  0
LINE
  5
E7
330
55
100
AcDbEntity
  8
0
  6
Continuous
 62
     7
100
AcDbLine
 10
143.7499977523114
 20
464.6470994800496
 30
0.0
 11
133.9999977523112
 21
477.5857864908488
 31
0.0
  0
ENDBLK
  5
57
330
55
100
AcDbEntity
  8
0
100
AcDbBlockEnd
  0
BLOCK
  5
5A
330
58
100
AcDbEntity
  8
0
100
AcDbBlockBegin
  2
Rckans1
 70
     0
 10
159.9999985694886
 20
464.299999833107
 30
0.0
  3
Rckans1
  1

  0
INSERT
  5
59
330
58
100
AcDbEntity
  8
0
100
AcDbBlockReference
  2
D_UHSK_2000-select__3
 10
133.9999977523112
 20
434.0000000532217
 30
0.0
  0
MTEXT
  5
E8
330
58
100
AcDbEntity
  8
1
 62
     6
100
AcDbMText
 10
159.9999985694886
 20
429.0
 30
0.0
 40
5.0
 41
0.0
 71
     2
 72
     1
  1
 
  7
CONVERTER_11
 73
     1
 44
1.32052821128451
  0
ENDBLK
  5
5B
330
58
100
AcDbEntity
  8
0
100
AcDbBlockEnd
  0
BLOCK
  5
5D
330
5C
100
AcDbEntity
  8
0
100
AcDbBlockBegin
  2
D_UHSK_2000-select__4
 70
     0
 10
87.99999928473507
 20
434.0000000532218
 30
0.0
  3
D_UHSK_2000-select__4
  1

  0
LINE
  5
E9
330
5C
100
AcDbEntity
  8
0
  6
Continuous
 62
     7
100
AcDbLine
 10
87.99999928473507
 20
464.6470994800496
 30
0.0
 11
88.99999928473507
 21
464.6470994800496
 31
0.0
  0
LINE
  5
EA
330
5C
100
AcDbEntity
  8
0
  6
Continuous
 62
     7
100
AcDbLine
 10
88.99999928473507
 20
446.9142136155948
 30
0.0
 11
87.99999928473507
 21
446.9142136155948
 31
0.0
  0
LINE
  5
EB
330
5C
100
AcDbEntity
  8
0
  6
Continuous
 62
     7
100
AcDbLine
 10
87.99999928473507
 20
456.6642136155948
 30
0.0
 11
88.99999928473507
 21
456.6642136155948
 31
0.0
  0
LINE
  5
EC
330
5C
100
AcDbEntity
  8
0
  6
Continuous
 62
     7
100
AcDbLine
 10
87.99999928473507
 20
484.0000000532218
 30
0.0
 11
87.99999928473507
 21
492.6267027836976
 31
0.0
  0
LINE
  5
ED
330
5C
100
AcDbEntity
  8
0
  6
Continuous
 62
     7
100
AcDbLine
 10
88.99999928473507
 20
492.6267027836976
 30
0.0
 11
87.99999928473507
 21
492.6267027836976
 31
0.0
  0
LINE
  5
EE
330
5C
100
AcDbEntity
  8
0
  6
Continuous
 62
     7
100
AcDbLine
 10
87.99999928473507
 20
477.5857864908486
 30
0.0
 11
88.99999928473507
 21
477.5857864908486
 31
0.0
  0
LINE
  5
EF
330
5C
100
AcDbEntity
  8
0
  6
Continuous
 62
     7
100
AcDbLine
 10
87.99999928473507
 20
477.5857864908486
 30
0.0
 11
87.99999928473507
 21
484.0000000532218
 31
0.0
  0
LINE
  5
F0
330
5C
100
AcDbEntity
  8
0
  6
Continuous
 62
     7
100
AcDbLine
 10
89.99999928473507
 20
494.6000000532217
 30
0.0
 11
89.99999928473507
 21
484.0000000532218
 31
0.0
  0
LINE
  5
F1
330
5C
100
AcDbEntity
  8
0
  6
Continuous
 62
     7
100
AcDbLine
 10
89.99999928473507
 20
494.6000000532217
 30
0.0
 11
88.99999928473507
 21
494.6000000532217
 31
0.0
  0
LINE
  5
F2
330
5C
100
AcDbEntity
  8
0
  6
Continuous
 62
     7
100
AcDbLine
 10
87.99999928473507
 20
464.6470994800496
 30
0.0
 11
87.99999928473507
 21
456.6642136155948
 31
0.0
  0
LINE
  5
F3
330
5C
100
AcDbEntity
  8
0
  6
Continuous
 62
     7
100
AcDbLine
 10
87.99999928473507
 20
477.5857864908486
 30
0.0
 11
87.99999928473507
 21
464.6470994800496
 31
0.0
  0
LINE
  5
F4
330
5C
100
AcDbEntity
  8
0
  6
Continuous
 62
     7
100
AcDbLine
 10
87.99999928473507
 20
445.5000000532217
 30
0.0
 11
87.99999928473507
 21
446.9142136155948
 31
0.0
  0
LINE
  5
F5
330
5C
100
AcDbEntity
  8
0
  6
Continuous
 62
     7
100
AcDbLine
 10
87.99999928473507
 20
456.6642136155948
 30
0.0
 11
87.99999928473507
 21
446.9142136155948
 31
0.0
  0
LINE
  5
F6
330
5C
100
AcDbEntity
  8
0
  6
Continuous
 62
     7
100
AcDbLine
 10
88.99999928473507
 20
492.6267027836976
 30
0.0
 11
88.99999928473507
 21
494.6000000532217
 31
0.0
  0
LINE
  5
F7
330
5C
100
AcDbEntity
  8
0
  6
Continuous
 62
     7
100
AcDbLine
 10
88.99999928473507
 20
456.6642136155948
 30
0.0
 11
88.99999928473507
 21
464.6470994800496
 31
0.0
  0
LINE
  5
F8
330
5C
100
AcDbEntity
  8
0
  6
Continuous
 62
     7
100
AcDbLine
 10
88.99999928473507
 20
464.6470994800496
 30
0.0
 11
88.99999928473507
 21
477.5857864908486
 31
0.0
  0
LINE
  5
F9
330
5C
100
AcDbEntity
  8
0
  6
Continuous
 62
     7
100
AcDbLine
 10
88.99999928473507
 20
446.9142136155948
 30
0.0
 11
88.99999928473507
 21
456.6642136155948
 31
0.0
  0
LINE
  5
FA
330
5C
100
AcDbEntity
  8
0
  6
Continuous
 62
     7
100
AcDbLine
 10
87.99999928473507
 20
484.0000000532218
 30
0.0
 11
89.99999928473507
 21
484.0000000532218
 31
0.0
  0
LINE
  5
FB
330
5C
100
AcDbEntity
  8
0
  6
Continuous
 62
     7
100
AcDbLine
 10
89.99999928473507
 20
445.5000000532217
 30
0.0
 11
89.99999928473507
 21
434.0000000532218
 31
0.0
  0
LINE
  5
FC
330
5C
100
AcDbEntity
  8
0
  6
Continuous
 62
     7
100
AcDbLine
 10
87.99999928473507
 20
434.0000000532218
 30
0.0
 11
89.99999928473507
 21
434.0000000532218
 31
0.0
  0
LINE
  5
FD
330
5C
100
AcDbEntity
  8
0
  6
Continuous
 62
     7
100
AcDbLine
 10
87.99999928473507
 20
434.0000000532218
 30
0.0
 11
87.99999928473507
 21
445.5000000532217
 31
0.0
  0
LINE
  5
FE
330
5C
100
AcDbEntity
  8
0
  6
Continuous
 62
     7
100
AcDbLine
 10
87.99999928473507
 20
445.5000000532217
 30
0.0
 11
89.99999928473507
 21
445.5000000532217
 31
0.0
  0
LINE
  5
FF
330
5C
100
AcDbEntity
  8
0
  6
Continuous
 62
     7
100
AcDbLine
 10
89.99999928473507
 20
484.0000000532218
 30
0.0
 11
89.99999928473507
 21
445.5000000532217
 31
0.0
  0
ENDBLK
  5
5E
330
5C
100
AcDbEntity
  8
0
100
AcDbBlockEnd
  0
BLOCK
  5
61
330
5F
100
AcDbEntity
  8
0
100
AcDbBlockBegin
  2
SA_Links1
 70
     0
 10
88.99999928474007
 20
464.299999833107
 30
0.0
  3
SA_Links1
  1

  0
INSERT
  5
60
330
5F
100
AcDbEntity
  8
0
100
AcDbBlockReference
  2
D_UHSK_2000-select__4
 10
87.99999928473507
 20
434.0000000532218
 30
0.0
  0
MTEXT
  5
100
330
5F
100
AcDbEntity
  8
1
 62
     6
100
AcDbMText
 10
88.99999928473937
 20
429.0
 30
0.0
 40
5.0
 41
0.0
 71
     2
 72
     1
  1
 
  7
CONVERTER_11
 73
     1
 44
1.32052821128451
  0
ENDBLK
  5
62
330
5F
100
AcDbEntity
  8
0
100
AcDbBlockEnd
  0
BLOCK
  5
64
330
63
100
AcDbEntity
  8
0
100
AcDbBlockBegin
  2
D_UHSK_2000-select__5
 70
     0
 10
-41.99999928472923
 20
434.0000000532217
 30
0.0
  3
D_UHSK_2000-select__5
  1

  0
LINE
  5
101
330
63
100
AcDbEntity
  8
0
  6
Continuous
 62
     7
100
AcDbLine
 10
-39.99999928472923
 20
446.9142136155946
 30
0.0
 11
-39.99999928472923
 21
445.5000000532217
 31
0.0
  0
LINE
  5
102
330
63
100
AcDbEntity
  8
0
  6
Continuous
 62
     7
100
AcDbLine
 10
-39.99999928472923
 20
446.9142136155946
 30
0.0
 11
-40.99999928472923
 21
446.9142136155946
 31
0.0
  0
LINE
  5
103
330
63
100
AcDbEntity
  8
0
  6
Continuous
 62
     7
100
AcDbLine
 10
-39.99999928472923
 20
456.6642136155949
 30
0.0
 11
-40.99999928472923
 21
456.6642136155949
 31
0.0
  0
LINE
  5
104
330
63
100
AcDbEntity
  8
0
  6
Continuous
 62
     7
100
AcDbLine
 10
-39.99999928472923
 20
464.6470994800496
 30
0.0
 11
-40.99999928472923
 21
464.6470994800496
 31
0.0
  0
LINE
  5
105
330
63
100
AcDbEntity
  8
0
  6
Continuous
 62
     7
100
AcDbLine
 10
-41.99999928472923
 20
494.6000000532217
 30
0.0
 11
-40.99999928472923
 21
494.6000000532217
 31
0.0
  0
LINE
  5
106
330
63
100
AcDbEntity
  8
0
  6
Continuous
 62
     7
100
AcDbLine
 10
-39.99999928472923
 20
484.0000000532217
 30
0.0
 11
-41.99999928472923
 21
484.0000000532217
 31
0.0
  0
LINE
  5
107
330
63
100
AcDbEntity
  8
0
  6
Continuous
 62
     7
100
AcDbLine
 10
-40.99999928472923
 20
477.5857864908488
 30
0.0
 11
-39.99999928472923
 21
477.5857864908488
 31
0.0
  0
LINE
  5
108
330
63
100
AcDbEntity
  8
0
  6
Continuous
 62
     7
100
AcDbLine
 10
-40.99999928472923
 20
464.6470994800496
 30
0.0
 11
-40.99999928472923
 21
456.6642136155949
 31
0.0
  0
LINE
  5
109
330
63
100
AcDbEntity
  8
0
  6
Continuous
 62
     7
100
AcDbLine
 10
-40.99999928472923
 20
456.6642136155949
 30
0.0
 11
-40.99999928472923
 21
446.9142136155946
 31
0.0
  0
LINE
  5
10A
330
63
100
AcDbEntity
  8
0
  6
Continuous
 62
     7
100
AcDbLine
 10
-40.99999928472923
 20
494.6000000532217
 30
0.0
 11
-40.99999928472923
 21
492.6267027836976
 31
0.0
  0
LINE
  5
10B
330
63
100
AcDbEntity
  8
0
  6
Continuous
 62
     7
100
AcDbLine
 10
-40.99999928472923
 20
477.5857864908488
 30
0.0
 11
-40.99999928472923
 21
464.6470994800496
 31
0.0
  0
LINE
  5
10C
330
63
100
AcDbEntity
  8
0
  6
Continuous
 62
     7
100
AcDbLine
 10
-39.99999928472923
 20
492.6267027836976
 30
0.0
 11
-40.99999928472923
 21
492.6267027836976
 31
0.0
  0
LINE
  5
10D
330
63
100
AcDbEntity
  8
0
  6
Continuous
 62
     7
100
AcDbLine
 10
-39.99999928472923
 20
456.6642136155949
 30
0.0
 11
-39.99999928472923
 21
464.6470994800496
 31
0.0
  0
LINE
  5
10E
330
63
100
AcDbEntity
  8
0
  6
Continuous
 62
     7
100
AcDbLine
 10
-39.99999928472923
 20
464.6470994800496
 30
0.0
 11
-39.99999928472923
 21
477.5857864908488
 31
0.0
  0
LINE
  5
10F
330
63
100
AcDbEntity
  8
0
  6
Continuous
 62
     7
100
AcDbLine
 10
-39.99999928472923
 20
446.9142136155946
 30
0.0
 11
-39.99999928472923
 21
456.6642136155949
 31
0.0
  0
LINE
  5
110
330
63
100
AcDbEntity
  8
0
  6
Continuous
 62
     7
100
AcDbLine
 10
-39.99999928472923
 20
484.0000000532217
 30
0.0
 11
-39.99999928472923
 21
477.5857864908488
 31
0.0
  0
LINE
  5
111
330
63
100
AcDbEntity
  8
0
  6
Continuous
 62
     7
100
AcDbLine
 10
-39.99999928472923
 20
492.6267027836976
 30
0.0
 11
-39.99999928472923
 21
484.0000000532217
 31
0.0
  0
LINE
  5
112
330
63
100
AcDbEntity
  8
0
  6
Continuous
 62
     7
100
AcDbLine
 10
-39.99999928472923
 20
445.5000000532217
 30
0.0
 11
-39.99999928472923
 21
434.0000000532217
 31
0.0
  0
LINE
  5
113
330
63
100
AcDbEntity
  8
0
  6
Continuous
 62
     7
100
AcDbLine
 10
-41.99999928472923
 20
484.0000000532217
 30
0.0
 11
-41.99999928472923
 21
494.6000000532217
 31
0.0
  0
LINE
  5
114
330
63
100
AcDbEntity
  8
0
  6
Continuous
 62
     7
100
AcDbLine
 10
-41.99999928472923
 20
445.5000000532217
 30
0.0
 11
-39.99999928472923
 21
445.5000000532217
 31
0.0
  0
LINE
  5
115
330
63
100
AcDbEntity
  8
0
  6
Continuous
 62
     7
100
AcDbLine
 10
-41.99999928472923
 20
434.0000000532217
 30
0.0
 11
-41.99999928472923
 21
445.5000000532217
 31
0.0
  0
LINE
  5
116
330
63
100
AcDbEntity
  8
0
  6
Continuous
 62
     7
100
AcDbLine
 10
-39.99999928472923
 20
434.0000000532217
 30
0.0
 11
-41.99999928472923
 21
434.0000000532217
 31
0.0
  0
LINE
  5
117
330
63
100
AcDbEntity
  8
0
  6
Continuous
 62
     7
100
AcDbLine
 10
-41.99999928472923
 20
445.5000000532217
 30
0.0
 11
-41.99999928472923
 21
484.0000000532217
 31
0.0
  0
ENDBLK
  5
65
330
63
100
AcDbEntity
  8
0
100
AcDbBlockEnd
  0
BLOCK
  5
68
330
66
100
AcDbEntity
  8
0
100
AcDbBlockBegin
  2
SA_Rechts1
 70
     0
 10
-40.99999928473423
 20
464.299999833107
 30
0.0
  3
SA_Rechts1
  1

  0
INSERT
  5
67
330
66
100
AcDbEntity
  8
0
100
AcDbBlockReference
  2
D_UHSK_2000-select__5
 10
-41.99999928472923
 20
434.0000000532217
 30
0.0
  0
MTEXT
  5
118
330
66
100
AcDbEntity
  8
1
 62
     6
100
AcDbMText
 10
-40.99999928473426
 20
429.0
 30
0.0
 40
5.0
 41
0.0
 71
     2
 72
     1
  1
 
  7
CONVERTER_11
 73
     1
 44
1.32052821128451
  0
ENDBLK
  5
69
330
66
100
AcDbEntity
  8
0
100
AcDbBlockEnd
  0
BLOCK
  5
6B
330
6A
100
AcDbEntity
  8
0
100
AcDbBlockBegin
  2
D_UHSK_2000-select__6
 70
     0
 10
4.00000081717747
 20
434.0000000532218
 30
0.0
  3
D_UHSK_2000-select__6
  1

  0
LINE
  5
119
330
6A
100
AcDbEntity
  8
0
  6
Continuous
 62
     7
100
AcDbLine
 10
45.40000081717741
 20
494.6000000532217
 30
0.0
 11
14.60000081717749
 21
494.6000000532217
 31
0.0
  0
LINE
  5
11A
330
6A
100
AcDbEntity
  8
0
  6
Continuous
 62
     7
100
AcDbLine
 10
14.60000081717749
 20
494.6000000532217
 30
0.0
 11
4.00000081717747
 21
484.0000000532218
 31
0.0
  0
LINE
  5
11B
330
6A
100
AcDbEntity
  8
0
  6
Continuous
 62
     7
100
AcDbLine
 10
56.00000081717747
 20
445.5000000532217
 30
0.0
 11
56.00000081717747
 21
484.0000000532217
 31
0.0
  0
LINE
  5
11C
330
6A
100
AcDbEntity
  8
0
  6
Continuous
 62
     7
100
AcDbLine
 10
52.9185851042195
 20
434.0000000532218
 30
0.0
 11
56.00000081717747
 21
445.5000000532217
 31
0.0
  0
LINE
  5
11D
330
6A
100
AcDbEntity
  8
0
  6
Continuous
 62
     7
100
AcDbLine
 10
7.08141653013543
 20
434.0000000532218
 30
0.0
 11
52.9185851042195
 21
434.0000000532218
 31
0.0
  0
LINE
  5
11E
330
6A
100
AcDbEntity
  8
0
  6
Continuous
 62
     7
100
AcDbLine
 10
4.00000081717747
 20
445.5000000532217
 30
0.0
 11
7.08141653013543
 21
434.0000000532218
 31
0.0
  0
LINE
  5
11F
330
6A
100
AcDbEntity
  8
0
  6
Continuous
 62
     7
100
AcDbLine
 10
4.00000081717747
 20
484.0000000532218
 30
0.0
 11
4.00000081717747
 21
445.5000000532217
 31
0.0
  0
LINE
  5
120
330
6A
100
AcDbEntity
  8
0
  6
Continuous
 62
     7
100
AcDbLine
 10
56.00000081717747
 20
484.0000000532217
 30
0.0
 11
45.40000081717741
 21
494.6000000532217
 31
0.0
  0
ENDBLK
  5
6C
330
6A
100
AcDbEntity
  8
0
100
AcDbBlockEnd
  0
BLOCK
  5
6F
330
6D
100
AcDbEntity
  8
0
100
AcDbBlockBegin
  2
Vordans1
 70
     0
 10
30.00000000000009
 20
464.299999833107
 30
0.0
  3
Vordans1
  1

  0
INSERT
  5
6E
330
6D
100
AcDbEntity
  8
0
100
AcDbBlockReference
  2
D_UHSK_2000-select__6
 10
4.00000081717747
 20
434.0000000532218
 30
0.0
  0
MTEXT
  5
121
330
6D
100
AcDbEntity
  8
1
 62
     6
100
AcDbMText
 10
26.6790978330459
 20
428.758620991496
 30
0.0
 40
5.0
 41
0.0
 71
     2
 72
     1
  1
 
  7
CONVERTER_11
 73
     1
 44
1.32052821128451
  0
DIMENSION
  5
12C
330
6D
100
AcDbEntity
  8
1
100
AcDbDimension
  2
*D18
 10
-5.60151684644433
 20
494.6000000532217
 30
0.0
 11
-9.52651684644433
 21
466.101822291211
 31
0.0
 70
    32
  1
<>
 71
     5
 42
-1.0
 53
90.0
  3
ME10_DIM_11
100
AcDbAlignedDimension
 13
7.08141653013543
 23
434.0000000532218
 33
0.0
 14
45.40000081717741
 24
494.6000000532217
 34
0.0
 50
90.0
100
AcDbRotatedDimension
  0
DIMENSION
  5
137
330
6D
100
AcDbEntity
  8
1
100
AcDbDimension
  2
*D19
 10
4.00000081717746
 20
422.40580074845
 30
0.0
 11
29.85412188217234
 21
426.15580074845
 31
0.0
 70
    32
  1
<>
 71
     5
 42
-1.0
 53
0.00013888888889
  3
ME10_DIM_12
100
AcDbAlignedDimension
 13
56.00000081717747
 23
445.5000000532217
 33
0.0
 14
4.00000081717747
 24
445.5000000532217
 34
0.0
100
AcDbRotatedDimension
  0
ENDBLK
  5
70
330
6D
100
AcDbEntity
  8
0
100
AcDbBlockEnd
  0
BLOCK
  5
72
330
71
100
AcDbEntity
  8
0
100
AcDbBlockBegin
  2
_rahmen
 70
     0
 10
216.5083309606803
 20
317.2132089700043
 30
0.0
  3
_rahmen
  1

  0
LINE
  5
138
330
71
100
AcDbEntity
  8
1
  6
Continuous
 62
     6
100
AcDbLine
 10
86.96352643393024
 20
347.7132089700044
 30
0.0
 11
216.508330960682
 21
347.7132089700044
 31
0.0
  0
LINE
  5
139
330
71
100
AcDbEntity
  8
1
  6
Continuous
 62
     7
100
AcDbLine
 10
105.1635264339303
 20
326.4632089700044
 30
0.0
 11
123.3635264339302
 21
326.4632089700044
 31
0.0
  0
LINE
  5
13A
330
71
100
AcDbEntity
  8
1
  6
Continuous
 62
     6
100
AcDbLine
 10
105.1635264339303
 20
322.2132089700044
 30
0.0
 11
86.96352643393024
 21
322.2132089700043
 31
0.0
  0
LINE
  5
13B
330
71
100
AcDbEntity
  8
1
  6
Continuous
 62
     7
100
AcDbLine
 10
105.1635264339303
 20
326.4632089700044
 30
0.0
 11
105.1635264339303
 21
322.2132089700044
 31
0.0
  0
LINE
  5
13C
330
71
100
AcDbEntity
  8
1
  6
Continuous
 62
     7
100
AcDbLine
 10
123.3635264339302
 20
326.4632089700044
 30
0.0
 11
123.3635264339302
 21
322.2132089700043
 31
0.0
  0
LINE
  5
13D
330
71
100
AcDbEntity
  8
1
  6
Continuous
 62
     7
100
AcDbLine
 10
86.96352643393024
 20
326.4632089700043
 30
0.0
 11
86.96352643393024
 21
322.2132089700043
 31
0.0
  0
LINE
  5
13E
330
71
100
AcDbEntity
  8
1
  6
Continuous
 62
     7
100
AcDbLine
 10
86.96352643393024
 20
326.4632089700043
 30
0.0
 11
105.1635264339303
 21
326.4632089700044
 31
0.0
  0
LINE
  5
13F
330
71
100
AcDbEntity
  8
1
  6
Continuous
 62
     2
100
AcDbLine
 10
96.20018132049285
 20
345.8382089700043
 30
0.0
 11
96.20018132049285
 21
340.8382089700043
 31
0.0
  0
LINE
  5
140
330
71
100
AcDbEntity
  8
1
  6
Continuous
 62
     2
100
AcDbLine
 10
96.20018132049285
 20
340.8382089700043
 30
0.0
 11
91.20018132049285
 21
342.0882089700043
 31
0.0
  0
LINE
  5
141
330
71
100
AcDbEntity
  8
1
  6
Continuous
 62
     2
100
AcDbLine
 10
91.20018132049285
 20
342.0882089700043
 30
0.0
 11
91.20018132049285
 21
344.5882089700043
 31
0.0
  0
LINE
  5
142
330
71
100
AcDbEntity
  8
1
  6
Continuous
 62
     2
100
AcDbLine
 10
91.20018132049285
 20
344.5882089700043
 30
0.0
 11
96.20018132049285
 21
345.8382089700043
 31
0.0
  0
LINE
  5
143
330
71
100
AcDbEntity
  8
1
  6
Continuous
 62
     6
100
AcDbLine
 10
-35.49166903931797
 20
322.2132089700044
 30
0.0
 11
-70.49166903931786
 21
322.2132089700044
 31
0.0
  0
LINE
  5
144
330
71
100
AcDbEntity
  8
1
  6
Continuous
 62
     6
100
AcDbLine
 10
216.508330960682
 20
339.2132089700044
 30
0.0
 11
216.5083309606816
 21
330.7132089700044
 31
0.0
  0
LINE
  5
145
330
71
100
AcDbEntity
  8
1
  6
Continuous
 62
     6
100
AcDbLine
 10
123.3635264339302
 20
322.2132089700043
 30
0.0
 11
123.0083309606802
 21
322.2132089700044
 31
0.0
  0
LINE
  5
146
330
71
100
AcDbEntity
  8
1
  6
Continuous
 62
     6
100
AcDbLine
 10
-29.29166903931997
 20
322.2132089700043
 30
0.0
 11
-35.49166903931797
 21
322.2132089700044
 31
0.0
  0
LINE
  5
147
330
71
100
AcDbEntity
  8
1
  6
Continuous
 62
     7
100
AcDbLine
 10
123.3635264339302
 20
339.2132089700044
 30
0.0
 11
123.3635264339302
 21
326.4632089700044
 31
0.0
  0
LINE
  5
148
330
71
100
AcDbEntity
  8
1
  6
Continuous
 62
     7
100
AcDbLine
 10
86.96352643393024
 20
339.2132089700044
 30
0.0
 11
86.96352643393024
 21
326.4632089700043
 31
0.0
  0
LINE
  5
149
330
71
100
AcDbEntity
  8
1
  6
Continuous
 62
     6
100
AcDbLine
 10
73.00833096068027
 20
322.2132089700044
 30
0.0
 11
23.00833096068004
 21
322.2132089700044
 31
0.0
  0
LINE
  5
14A
330
71
100
AcDbEntity
  8
1
  6
Continuous
 62
     6
100
AcDbLine
 10
-29.29166903931997
 20
322.2132089700043
 30
0.0
 11
-26.99166903931973
 21
322.2132089700044
 31
0.0
  0
LINE
  5
14B
330
71
100
AcDbEntity
  8
1
  6
Continuous
 62
     6
100
AcDbLine
 10
123.3635264339302
 20
322.2132089700043
 30
0.0
 11
173.0083309606802
 21
322.2132089700044
 31
0.0
  0
LINE
  5
14C
330
71
100
AcDbEntity
  8
1
  6
Continuous
 62
     6
100
AcDbLine
 10
216.5083309606803
 20
322.2132089700044
 30
0.0
 11
216.5083309606816
 21
330.7132089700044
 31
0.0
  0
LINE
  5
14D
330
71
100
AcDbEntity
  8
1
  6
Continuous
 62
     2
100
AcDbLine
 10
-75.49166903931882
 20
322.2132089700044
 30
0.0
 11
-75.49166903931882
 21
317.2132089700043
 31
0.0
  0
LINE
  5
14E
330
71
100
AcDbEntity
  8
1
  6
Continuous
 62
     2
100
AcDbLine
 10
-70.49166903931786
 20
322.2132089700044
 30
0.0
 11
-75.49166903931882
 21
322.2132089700044
 31
0.0
  0
LINE
  5
14F
330
71
100
AcDbEntity
  8
1
  6
Continuous
 62
     2
100
AcDbLine
 10
-70.49166903931786
 20
317.2132089700043
 30
0.0
 11
-26.99166903931973
 21
317.2132089700043
 31
0.0
  0
LINE
  5
150
330
71
100
AcDbEntity
  8
1
  6
Continuous
 62
     2
100
AcDbLine
 10
-70.49166903931786
 20
322.2132089700044
 30
0.0
 11
-70.49166903931786
 21
317.2132089700043
 31
0.0
  0
LINE
  5
151
330
71
100
AcDbEntity
  8
1
  6
Continuous
 62
     2
100
AcDbLine
 10
173.0083309606802
 20
317.2132089700043
 30
0.0
 11
123.0083309606802
 21
317.2132089700043
 31
0.0
  0
LINE
  5
152
330
71
100
AcDbEntity
  8
1
  6
Continuous
 62
     2
100
AcDbLine
 10
173.0083309606802
 20
317.2132089700043
 30
0.0
 11
173.0083309606802
 21
322.2132089700044
 31
0.0
  0
LINE
  5
153
330
71
100
AcDbEntity
  8
1
  6
Continuous
 62
     2
100
AcDbLine
 10
123.0083309606802
 20
317.2132089700043
 30
0.0
 11
123.0083309606802
 21
322.2132089700044
 31
0.0
  0
LINE
  5
154
330
71
100
AcDbEntity
  8
1
  6
Continuous
 62
     2
100
AcDbLine
 10
73.00833096068027
 20
317.2132089700043
 30
0.0
 11
123.0083309606802
 21
317.2132089700043
 31
0.0
  0
LINE
  5
155
330
71
100
AcDbEntity
  8
1
  6
Continuous
 62
     2
100
AcDbLine
 10
73.00833096068027
 20
317.2132089700043
 30
0.0
 11
73.00833096068027
 21
322.2132089700044
 31
0.0
  0
LINE
  5
156
330
71
100
AcDbEntity
  8
1
  6
Continuous
 62
     2
100
AcDbLine
 10
23.00833096068004
 20
317.2132089700043
 30
0.0
 11
73.00833096068027
 21
317.2132089700043
 31
0.0
  0
LINE
  5
157
330
71
100
AcDbEntity
  8
1
  6
Continuous
 62
     2
100
AcDbLine
 10
23.00833096068004
 20
317.2132089700043
 30
0.0
 11
23.00833096068004
 21
322.2132089700044
 31
0.0
  0
LINE
  5
158
330
71
100
AcDbEntity
  8
1
  6
Continuous
 62
     2
100
AcDbLine
 10
-26.99166903931973
 20
317.2132089700043
 30
0.0
 11
23.00833096068004
 21
317.2132089700043
 31
0.0
  0
LINE
  5
159
330
71
100
AcDbEntity
  8
1
  6
Continuous
 62
     2
100
AcDbLine
 10
-26.99166903931973
 20
317.2132089700043
 30
0.0
 11
-26.99166903931973
 21
322.2132089700044
 31
0.0
  0
LINE
  5
15A
330
71
100
AcDbEntity
  8
1
  6
Continuous
 62
     6
100
AcDbLine
 10
-70.49166903931803
 20
372.2132089700045
 30
0.0
 11
-70.49166903931786
 21
322.2132089700044
 31
0.0
  0
LINE
  5
15B
330
71
100
AcDbEntity
  8
1
  6
Continuous
 62
     2
100
AcDbLine
 10
-75.49166903931882
 20
372.2132089700045
 30
0.0
 11
-75.49166903931882
 21
322.2132089700044
 31
0.0
  0
LINE
  5
15C
330
71
100
AcDbEntity
  8
1
  6
Continuous
 62
     2
100
AcDbLine
 10
-75.49166903931882
 20
372.2132089700045
 30
0.0
 11
-70.49166903931803
 21
372.2132089700045
 31
0.0
  0
LINE
  5
15D
330
71
100
AcDbEntity
  8
1
  6
Continuous
 62
     6
100
AcDbLine
 10
-70.49166903931825
 20
422.2132089700043
 30
0.0
 11
-70.49166903931803
 21
372.2132089700045
 31
0.0
  0
LINE
  5
15E
330
71
100
AcDbEntity
  8
1
  6
Continuous
 62
     2
100
AcDbLine
 10
-75.49166903931882
 20
422.2132089700043
 30
0.0
 11
-75.49166903931882
 21
372.2132089700045
 31
0.0
  0
LINE
  5
15F
330
71
100
AcDbEntity
  8
1
  6
Continuous
 62
     2
100
AcDbLine
 10
-75.49166903931882
 20
422.2132089700043
 30
0.0
 11
-70.49166903931825
 21
422.2132089700043
 31
0.0
  0
LINE
  5
160
330
71
100
AcDbEntity
  8
1
  6
Continuous
 62
     6
100
AcDbLine
 10
-70.49166903931877
 20
472.2132089700044
 30
0.0
 11
-70.49166903931825
 21
422.2132089700043
 31
0.0
  0
LINE
  5
161
330
71
100
AcDbEntity
  8
1
  6
Continuous
 62
     2
100
AcDbLine
 10
-75.49166903931882
 20
472.2132089700044
 30
0.0
 11
-75.49166903931882
 21
422.2132089700043
 31
0.0
  0
LINE
  5
162
330
71
100
AcDbEntity
  8
1
  6
Continuous
 62
     2
100
AcDbLine
 10
-75.49166903931882
 20
472.2132089700044
 30
0.0
 11
-70.49166903931877
 21
472.2132089700044
 31
0.0
  0
LINE
  5
163
330
71
100
AcDbEntity
  8
1
  6
Continuous
 62
     6
100
AcDbLine
 10
-70.49166903931882
 20
507.2132089700044
 30
0.0
 11
-70.49166903931877
 21
472.2132089700044
 31
0.0
  0
LINE
  5
164
330
71
100
AcDbEntity
  8
1
  6
Continuous
 62
     2
100
AcDbLine
 10
-75.49166903931882
 20
527.2132089700044
 30
0.0
 11
-75.49166903931882
 21
472.2132089700044
 31
0.0
  0
LINE
  5
165
330
71
100
AcDbEntity
  8
1
  6
Continuous
 62
     2
100
AcDbLine
 10
-75.49166903931882
 20
317.2132089700043
 30
0.0
 11
-70.49166903931786
 21
317.2132089700043
 31
0.0
  0
LINE
  5
166
330
71
100
AcDbEntity
  8
1
  6
Continuous
 62
     2
100
AcDbLine
 10
73.00833096068027
 20
527.2132089700044
 30
0.0
 11
73.00833096068027
 21
518.0045171253031
 31
0.0
  0
LINE
  5
167
330
71
100
AcDbEntity
  8
1
  6
Continuous
 62
     2
100
AcDbLine
 10
73.00833096068027
 20
527.2132089700044
 30
0.0
 11
-75.49166903931882
 21
527.2132089700044
 31
0.0
  0
LINE
  5
168
330
71
100
AcDbEntity
  8
1
  6
Continuous
 62
     2
100
AcDbLine
 10
221.5083309606793
 20
322.2132089700044
 30
0.0
 11
221.5083309606793
 21
372.2132089700045
 31
0.0
  0
LINE
  5
169
330
71
100
AcDbEntity
  8
1
  6
Continuous
 62
     2
100
AcDbLine
 10
221.5083309606793
 20
472.2132089700044
 30
0.0
 11
221.5083309606793
 21
527.2132089700044
 31
0.0
  0
LINE
  5
16A
330
71
100
AcDbEntity
  8
1
  6
Continuous
 62
     6
100
AcDbLine
 10
216.5083309606794
 20
472.2132089700044
 30
0.0
 11
216.5083309606793
 21
507.2132089700044
 31
0.0
  0
LINE
  5
16B
330
71
100
AcDbEntity
  8
1
  6
Continuous
 62
     2
100
AcDbLine
 10
216.5083309606794
 20
472.2132089700044
 30
0.0
 11
221.5083309606793
 21
472.2132089700044
 31
0.0
  0
LINE
  5
16C
330
71
100
AcDbEntity
  8
1
  6
Continuous
 62
     2
100
AcDbLine
 10
221.5083309606793
 20
422.2132089700043
 30
0.0
 11
221.5083309606793
 21
472.2132089700044
 31
0.0
  0
LINE
  5
16D
330
71
100
AcDbEntity
  8
1
  6
Continuous
 62
     6
100
AcDbLine
 10
216.5083309606807
 20
422.2132089700043
 30
0.0
 11
216.5083309606794
 21
472.2132089700044
 31
0.0
  0
LINE
  5
16E
330
71
100
AcDbEntity
  8
1
  6
Continuous
 62
     2
100
AcDbLine
 10
216.5083309606807
 20
422.2132089700043
 30
0.0
 11
221.5083309606793
 21
422.2132089700043
 31
0.0
  0
LINE
  5
16F
330
71
100
AcDbEntity
  8
1
  6
Continuous
 62
     2
100
AcDbLine
 10
221.5083309606793
 20
372.2132089700045
 30
0.0
 11
221.5083309606793
 21
422.2132089700043
 31
0.0
  0
LINE
  5
170
330
71
100
AcDbEntity
  8
1
  6
Continuous
 62
     6
100
AcDbLine
 10
216.5083309606812
 20
372.2132089700045
 30
0.0
 11
216.5083309606807
 21
422.2132089700043
 31
0.0
  0
LINE
  5
171
330
71
100
AcDbEntity
  8
1
  6
Continuous
 62
     2
100
AcDbLine
 10
216.5083309606812
 20
372.2132089700045
 30
0.0
 11
221.5083309606793
 21
372.2132089700045
 31
0.0
  0
LINE
  5
172
330
71
100
AcDbEntity
  8
1
  6
Continuous
 62
     6
100
AcDbLine
 10
216.5083309606793
 20
507.2132089700044
 30
0.0
 11
-70.49166903931882
 21
507.2132089700044
 31
0.0
  0
LINE
  5
173
330
71
100
AcDbEntity
  8
1
  6
Continuous
 62
     2
100
AcDbLine
 10
221.5083309606793
 20
527.2132089700044
 30
0.0
 11
73.00833096068027
 21
527.2132089700044
 31
0.0
  0
LINE
  5
174
330
71
100
AcDbEntity
  8
1
  6
Continuous
 62
     6
100
AcDbLine
 10
216.508330960682
 20
339.2132089700044
 30
0.0
 11
216.5083309606812
 21
372.2132089700045
 31
0.0
  0
LINE
  5
175
330
71
100
AcDbEntity
  8
1
  6
Continuous
 62
     2
100
AcDbLine
 10
216.5083309606803
 20
317.2132089700043
 30
0.0
 11
173.0083309606802
 21
317.2132089700043
 31
0.0
  0
LINE
  5
176
330
71
100
AcDbEntity
  8
1
  6
Continuous
 62
     2
100
AcDbLine
 10
221.5083309606793
 20
317.2132089700043
 30
0.0
 11
216.5083309606803
 21
317.2132089700043
 31
0.0
  0
LINE
  5
177
330
71
100
AcDbEntity
  8
1
  6
Continuous
 62
     2
100
AcDbLine
 10
221.5083309606793
 20
317.2132089700043
 30
0.0
 11
221.5083309606793
 21
322.2132089700044
 31
0.0
  0
LINE
  5
178
330
71
100
AcDbEntity
  8
1
  6
Continuous
 62
     6
100
AcDbLine
 10
86.96352643393024
 20
339.2132089700044
 30
0.0
 11
123.3635264339302
 21
339.2132089700044
 31
0.0
  0
LINE
  5
179
330
71
100
AcDbEntity
  8
1
  6
Continuous
 62
     2
100
AcDbLine
 10
216.5083309606803
 20
322.2132089700044
 30
0.0
 11
216.5083309606803
 21
317.2132089700043
 31
0.0
  0
LINE
  5
17A
330
71
100
AcDbEntity
  8
1
  6
Continuous
 62
     2
100
AcDbLine
 10
216.5083309606803
 20
322.2132089700044
 30
0.0
 11
221.5083309606793
 21
322.2132089700044
 31
0.0
  0
LINE
  5
17B
330
71
100
AcDbEntity
  8
1
  6
Continuous
 62
     6
100
AcDbLine
 10
123.0083309606802
 20
322.2132089700044
 30
0.0
 11
105.1635264339303
 21
322.2132089700044
 31
0.0
  0
LINE
  5
17C
330
71
100
AcDbEntity
  8
1
  6
Continuous
 62
     6
100
AcDbLine
 10
173.0083309606802
 20
322.2132089700044
 30
0.0
 11
216.5083309606803
 21
322.2132089700044
 31
0.0
  0
LINE
  5
17D
330
71
100
AcDbEntity
  8
1
  6
Continuous
 62
     6
100
AcDbLine
 10
23.00833096068004
 20
322.2132089700044
 30
0.0
 11
17.96352643393027
 21
322.2132089700044
 31
0.0
  0
LINE
  5
17E
330
71
100
AcDbEntity
  8
1
  6
Continuous
 62
     6
100
AcDbLine
 10
73.00833096068027
 20
322.2132089700044
 30
0.0
 11
86.96352643393024
 21
322.2132089700043
 31
0.0
  0
LINE
  5
17F
102
{ACAD_REACTORS
330
269
330
26A
102
}
330
71
100
AcDbEntity
  8
0
  6
Continuous
 62
     2
100
AcDbLine
 10
94.47815237607705
 20
334.2857237262165
 30
0.0
 11
94.47815237607705
 21
334.8912590147234
 31
0.0
  0
LINE
  5
180
102
{ACAD_REACTORS
330
269
330
26A
102
}
330
71
100
AcDbEntity
  8
0
  6
Continuous
 62
     2
100
AcDbLine
 10
94.47815237607705
 20
331.4855891195853
 30
0.0
 11
94.47815237607705
 21
332.0674405262803
 31
0.0
  0
LINE
  5
181
102
{ACAD_REACTORS
330
26B
330
26C
102
}
330
71
100
AcDbEntity
  8
0
  6
Continuous
 62
     2
100
AcDbLine
 10
117.1076388115563
 20
331.7752531877082
 30
0.0
 11
117.1076388115563
 21
329.5067089700207
 31
0.0
  0
LINE
  5
182
102
{ACAD_REACTORS
330
26B
330
26C
102
}
330
71
100
AcDbEntity
  8
0
  6
Continuous
 62
     2
100
AcDbLine
 10
115.7265850325687
 20
332.5605184938313
 30
0.0
 11
119.1115305511974
 21
332.5605184938318
 31
0.0
  0
LINE
  5
183
102
{ACAD_REACTORS
330
26B
330
26C
102
}
330
71
100
AcDbEntity
  8
0
  6
Continuous
 62
     2
100
AcDbLine
 10
119.1115305511974
 20
331.7752531877082
 30
0.0
 11
119.1115305511974
 21
332.5605184938318
 31
0.0
  0
LINE
  5
184
102
{ACAD_REACTORS
330
26B
330
26C
102
}
330
71
100
AcDbEntity
  8
0
  6
Continuous
 62
     2
100
AcDbLine
 10
118.300431513724
 20
331.7752531877082
 30
0.0
 11
119.1115305511974
 21
331.7752531877082
 31
0.0
  0
LINE
  5
185
102
{ACAD_REACTORS
330
26B
330
26C
102
}
330
71
100
AcDbEntity
  8
0
  6
Continuous
 62
     2
100
AcDbLine
 10
118.300431513724
 20
329.5067089700207
 30
0.0
 11
118.300431513724
 21
331.7752531877082
 31
0.0
  0
LINE
  5
186
102
{ACAD_REACTORS
330
26B
330
26C
102
}
330
71
100
AcDbEntity
  8
0
  6
Continuous
 62
     2
100
AcDbLine
 10
117.1076388115563
 20
329.5067089700207
 30
0.0
 11
118.300431513724
 21
329.5067089700207
 31
0.0
  0
LINE
  5
187
102
{ACAD_REACTORS
330
261
330
262
102
}
330
71
100
AcDbEntity
  8
0
  6
Continuous
 62
     2
100
AcDbLine
 10
116.4110478734918
 20
335.9197089700062
 30
0.0
 11
115.0083236557425
 21
335.9197089700062
 31
0.0
  0
LINE
  5
188
102
{ACAD_REACTORS
330
261
330
262
102
}
330
71
100
AcDbEntity
  8
0
  6
Continuous
 62
     2
100
AcDbLine
 10
116.4110478734918
 20
335.9197089700062
 30
0.0
 11
117.0122153953836
 21
335.2398856484507
 31
0.0
  0
LINE
  5
189
102
{ACAD_REACTORS
330
261
330
262
102
}
330
71
100
AcDbEntity
  8
0
  6
Continuous
 62
     2
100
AcDbLine
 10
117.0122153953836
 20
335.2398856484507
 30
0.0
 11
117.6133829172763
 21
335.9197089700062
 31
0.0
  0
LINE
  5
18A
102
{ACAD_REACTORS
330
261
330
262
102
}
330
71
100
AcDbEntity
  8
0
  6
Continuous
 62
     2
100
AcDbLine
 10
117.7135775042571
 20
334.44675843997
 30
0.0
 11
119.0161071350236
 21
335.9197089700062
 31
0.0
  0
LINE
  5
18B
102
{ACAD_REACTORS
330
261
330
262
102
}
330
71
100
AcDbEntity
  8
0
  6
Continuous
 62
     2
100
AcDbLine
 10
117.7135775042571
 20
334.44675843997
 30
0.0
 11
119.1115305511974
 21
332.865899446195
 31
0.0
  0
LINE
  5
18C
102
{ACAD_REACTORS
330
261
330
262
102
}
330
71
100
AcDbEntity
  8
0
  6
Continuous
 62
     2
100
AcDbLine
 10
117.7088063334491
 20
332.865899446195
 30
0.0
 11
119.1115305511974
 21
332.865899446195
 31
0.0
  0
LINE
  5
18D
102
{ACAD_REACTORS
330
261
330
262
102
}
330
71
100
AcDbEntity
  8
0
  6
Continuous
 62
     2
100
AcDbLine
 10
117.0122153953836
 20
333.6536312314887
 30
0.0
 11
117.7088063334491
 21
332.865899446195
 31
0.0
  0
LINE
  5
18E
102
{ACAD_REACTORS
330
25F
330
260
102
}
330
71
100
AcDbEntity
  8
0
  6
Continuous
 62
     2
100
AcDbLine
 10
113.5531165590999
 20
335.9197089700062
 30
0.0
 11
114.7936209693528
 21
335.9197089700062
 31
0.0
  0
LINE
  5
18F
102
{ACAD_REACTORS
330
25F
330
260
102
}
330
71
100
AcDbEntity
  8
0
  6
Continuous
 62
     2
100
AcDbLine
 10
114.7936209693528
 20
335.9197089700062
 30
0.0
 11
114.7936209693528
 21
332.865899446195
 31
0.0
  0
LINE
  5
190
102
{ACAD_REACTORS
330
25F
330
260
102
}
330
71
100
AcDbEntity
  8
0
  6
Continuous
 62
     2
100
AcDbLine
 10
113.5531165590999
 20
332.865899446195
 30
0.0
 11
113.5531165590999
 21
335.9197089700062
 31
0.0
  0
LINE
  5
191
102
{ACAD_REACTORS
330
25D
330
25E
102
}
330
71
100
AcDbEntity
  8
0
  6
Continuous
 62
     2
100
AcDbLine
 10
112.0848064765623
 20
330.7282327795452
 30
0.0
 11
112.3849717137547
 21
331.4960477455319
 31
0.0
  0
LINE
  5
192
102
{ACAD_REACTORS
330
25D
330
25E
102
}
330
71
100
AcDbEntity
  8
0
  6
Continuous
 62
     2
100
AcDbLine
 10
111.6072708719414
 20
329.5067089700207
 30
0.0
 11
111.8187509254173
 21
330.0476695142386
 31
0.0
  0
LINE
  5
193
102
{ACAD_REACTORS
330
25D
330
25E
102
}
330
71
100
AcDbEntity
  8
0
  6
Continuous
 62
     2
100
AcDbLine
 10
111.7647195086278
 20
332.5605184938318
 30
0.0
 11
110.3667664616885
 21
329.5067089700207
 31
0.0
  0
LINE
  5
194
102
{ACAD_REACTORS
330
25D
330
25E
102
}
330
71
100
AcDbEntity
  8
0
  6
Continuous
 62
     2
100
AcDbLine
 10
114.4031769658208
 20
329.5067089700207
 30
0.0
 11
113.1626725555668
 21
329.5067089700207
 31
0.0
  0
LINE
  5
195
102
{ACAD_REACTORS
330
25D
330
25E
102
}
330
71
100
AcDbEntity
  8
0
  6
Continuous
 62
     2
100
AcDbLine
 10
111.8187509254173
 20
330.0476695142386
 30
0.0
 11
112.9511925020911
 21
330.0476695142386
 31
0.0
  0
LINE
  5
196
102
{ACAD_REACTORS
330
25B
330
25C
102
}
330
71
100
AcDbEntity
  8
0
  6
Continuous
 62
     2
100
AcDbLine
 10
108.2092543225062
 20
331.7752531877082
 30
0.0
 11
109.0203533599809
 21
331.7752531877082
 31
0.0
  0
LINE
  5
197
102
{ACAD_REACTORS
330
25B
330
25C
102
}
330
71
100
AcDbEntity
  8
0
  6
Continuous
 62
     2
100
AcDbLine
 10
111.0242450996199
 20
332.5605184938318
 30
0.0
 11
108.2092543225062
 21
332.5605184938318
 31
0.0
  0
LINE
  5
198
102
{ACAD_REACTORS
330
25B
330
25C
102
}
330
71
100
AcDbEntity
  8
0
  6
Continuous
 62
     2
100
AcDbLine
 10
111.0242450996199
 20
331.7752531877082
 30
0.0
 11
111.0242450996199
 21
332.5605184938318
 31
0.0
  0
LINE
  5
199
102
{ACAD_REACTORS
330
25B
330
25C
102
}
330
71
100
AcDbEntity
  8
0
  6
Continuous
 62
     2
100
AcDbLine
 10
110.2131460621474
 20
331.7752531877082
 30
0.0
 11
111.0242450996199
 21
331.7752531877082
 31
0.0
  0
LINE
  5
19A
102
{ACAD_REACTORS
330
25B
330
25C
102
}
330
71
100
AcDbEntity
  8
0
  6
Continuous
 62
     2
100
AcDbLine
 10
110.2131460621474
 20
329.5067089700207
 30
0.0
 11
110.2131460621474
 21
331.7752531877082
 31
0.0
  0
LINE
  5
19B
102
{ACAD_REACTORS
330
259
330
25A
102
}
330
71
100
AcDbEntity
  8
0
  6
Continuous
 62
     2
100
AcDbLine
 10
110.8812609062454
 20
332.865899446195
 30
0.0
 11
110.8812609062454
 21
334.1746749563997
 31
0.0
  0
LINE
  5
19C
102
{ACAD_REACTORS
330
259
330
25A
102
}
330
71
100
AcDbEntity
  8
0
  6
Continuous
 62
     2
100
AcDbLine
 10
109.6884682040788
 20
335.9197089700062
 30
0.0
 11
109.6884682040788
 21
332.865899446195
 31
0.0
  0
LINE
  5
19D
102
{ACAD_REACTORS
330
259
330
25A
102
}
330
71
100
AcDbEntity
  8
0
  6
Continuous
 62
     2
100
AcDbLine
 10
110.8812609062454
 20
335.9197089700062
 30
0.0
 11
109.6884682040788
 21
335.9197089700062
 31
0.0
  0
LINE
  5
19E
102
{ACAD_REACTORS
330
259
330
25A
102
}
330
71
100
AcDbEntity
  8
0
  6
Continuous
 62
     2
100
AcDbLine
 10
112.1217653164994
 20
335.9197089700062
 30
0.0
 11
112.1217653164994
 21
334.610933459801
 31
0.0
  0
LINE
  5
19F
102
{ACAD_REACTORS
330
257
330
258
102
}
330
71
100
AcDbEntity
  8
0
  6
Continuous
 62
     2
100
AcDbLine
 10
104.4400293836592
 20
332.5605184938318
 30
0.0
 11
104.4400293836592
 21
329.5067089700207
 31
0.0
  0
LINE
  5
1A0
102
{ACAD_REACTORS
330
257
330
258
102
}
330
71
100
AcDbEntity
  8
0
  6
Continuous
 62
     2
100
AcDbLine
 10
105.6328220858268
 20
332.5605184938318
 30
0.0
 11
104.4400293836592
 21
332.5605184938318
 31
0.0
  0
LINE
  5
1A1
102
{ACAD_REACTORS
330
257
330
258
102
}
330
71
100
AcDbEntity
  8
0
  6
Continuous
 62
     2
100
AcDbLine
 10
106.8733264960796
 20
329.5067089700207
 30
0.0
 11
108.066119198246
 21
329.5067089700207
 31
0.0
  0
LINE
  5
1A2
102
{ACAD_REACTORS
330
257
330
258
102
}
330
71
100
AcDbEntity
  8
0
  6
Continuous
 62
     2
100
AcDbLine
 10
104.4400293836592
 20
329.5067089700207
 30
0.0
 11
105.6328220858268
 21
329.5067089700207
 31
0.0
  0
LINE
  5
1A3
102
{ACAD_REACTORS
330
267
330
268
102
}
330
71
100
AcDbEntity
  8
0
  6
Continuous
 62
     2
100
AcDbLine
 10
108.1139818372183
 20
334.7418110108215
 30
0.0
 11
108.1139818372183
 21
335.2216953645632
 31
0.0
  0
LINE
  5
1A4
102
{ACAD_REACTORS
330
267
330
268
102
}
330
71
100
AcDbEntity
  8
0
  6
Continuous
 62
     2
100
AcDbLine
 10
109.4499096636459
 20
334.7418110108215
 30
0.0
 11
108.1139818372183
 21
334.7418110108215
 31
0.0
  0
LINE
  5
1A5
102
{ACAD_REACTORS
330
267
330
268
102
}
330
71
100
AcDbEntity
  8
0
  6
Continuous
 62
     2
100
AcDbLine
 10
109.4499096636459
 20
334.0437974053792
 30
0.0
 11
109.4499096636459
 21
334.7418110108215
 31
0.0
  0
LINE
  5
1A6
102
{ACAD_REACTORS
330
267
330
268
102
}
330
71
100
AcDbEntity
  8
0
  6
Continuous
 62
     2
100
AcDbLine
 10
108.1139818372183
 20
334.0437974053792
 30
0.0
 11
109.4499096636459
 21
334.0437974053792
 31
0.0
  0
LINE
  5
1A7
102
{ACAD_REACTORS
330
255
330
256
102
}
330
71
100
AcDbEntity
  8
0
  6
Continuous
 62
     2
100
AcDbLine
 10
104.6310271468913
 20
335.9197089700062
 30
0.0
 11
104.6310271468913
 21
332.865899446195
 31
0.0
  0
LINE
  5
1A8
102
{ACAD_REACTORS
330
255
330
256
102
}
330
71
100
AcDbEntity
  8
0
  6
Continuous
 62
     2
100
AcDbLine
 10
104.6310271468913
 20
332.865899446195
 30
0.0
 11
103.4382344447249
 21
332.865899446195
 31
0.0
  0
LINE
  5
1A9
102
{ACAD_REACTORS
330
255
330
256
102
}
330
71
100
AcDbEntity
  8
0
  6
Continuous
 62
     2
100
AcDbLine
 10
103.4382344447249
 20
332.865899446195
 30
0.0
 11
103.4382344447249
 21
334.0001715550388
 31
0.0
  0
LINE
  5
1AA
102
{ACAD_REACTORS
330
255
330
256
102
}
330
71
100
AcDbEntity
  8
0
  6
Continuous
 62
     2
100
AcDbLine
 10
102.3885768668175
 20
332.865899446195
 30
0.0
 11
101.1957841646509
 21
332.865899446195
 31
0.0
  0
LINE
  5
1AB
102
{ACAD_REACTORS
330
255
330
256
102
}
330
71
100
AcDbEntity
  8
0
  6
Continuous
 62
     2
100
AcDbLine
 10
101.1957841646509
 20
335.9197089700062
 30
0.0
 11
102.3885768668175
 21
335.9197089700062
 31
0.0
  0
LINE
  5
1AC
102
{ACAD_REACTORS
330
255
330
256
102
}
330
71
100
AcDbEntity
  8
0
  6
Continuous
 62
     2
100
AcDbLine
 10
102.3885768668175
 20
335.9197089700062
 30
0.0
 11
102.3885768668175
 21
334.8508756366716
 31
0.0
  0
LINE
  5
1AD
102
{ACAD_REACTORS
330
255
330
256
102
}
330
71
100
AcDbEntity
  8
0
  6
Continuous
 62
     2
100
AcDbLine
 10
102.3885768668175
 20
334.8508756366716
 30
0.0
 11
103.4382344447249
 21
334.8508756366716
 31
0.0
  0
LINE
  5
1AE
102
{ACAD_REACTORS
330
263
330
264
102
}
330
71
100
AcDbEntity
  8
0
  6
Continuous
 62
     2
100
AcDbLine
 10
99.23960413309726
 20
335.2566031245661
 30
0.0
 11
99.55689919463916
 21
335.2566031245661
 31
0.0
  0
LINE
  5
1AF
102
{ACAD_REACTORS
330
263
330
264
102
}
330
71
100
AcDbEntity
  8
0
  6
Continuous
 62
     2
100
AcDbLine
 10
99.23960413309726
 20
334.5508754752239
 30
0.0
 11
99.55689919463916
 21
334.5508754752239
 31
0.0
  0
LINE
  5
1B0
102
{ACAD_REACTORS
330
263
330
264
102
}
330
71
100
AcDbEntity
  8
0
  6
Continuous
 62
     2
100
AcDbLine
 10
97.99909972284314
 20
335.9197089700062
 30
0.0
 11
97.99909972284314
 21
332.865899446195
 31
0.0
  0
LINE
  5
1B1
102
{ACAD_REACTORS
330
263
330
264
102
}
330
71
100
AcDbEntity
  8
0
  6
Continuous
 62
     2
100
AcDbLine
 10
97.99909972284314
 20
335.9197089700062
 30
0.0
 11
99.99837172087754
 21
335.9197089700062
 31
0.0
  0
LINE
  5
1B2
102
{ACAD_REACTORS
330
263
330
264
102
}
330
71
100
AcDbEntity
  8
0
  6
Continuous
 62
     2
100
AcDbLine
 10
99.23960413309726
 20
333.8089776873388
 30
0.0
 11
99.99837172087754
 21
333.8089776873388
 31
0.0
  0
LINE
  5
1B3
102
{ACAD_REACTORS
330
269
330
26A
102
}
330
71
100
AcDbEntity
  8
0
  6
Continuous
 62
     2
100
AcDbLine
 10
91.90260368954645
 20
334.8914364913715
 30
0.0
 11
91.90260368954645
 21
330.5349814486543
 31
0.0
  0
LINE
  5
1B4
102
{ACAD_REACTORS
330
269
330
26A
102
}
330
71
100
AcDbEntity
  8
0
  6
Continuous
 62
     2
100
AcDbLine
 10
92.21832061262214
 20
335.2071534144476
 30
0.0
 11
93.69415387363176
 21
335.2071534144476
 31
0.0
  0
LINE
  5
1B5
102
{ACAD_REACTORS
330
269
330
26A
102
}
330
71
100
AcDbEntity
  8
0
  6
Continuous
 62
     2
100
AcDbLine
 10
94.00987079670836
 20
334.2874118723109
 30
0.0
 11
94.00987079670836
 21
334.8914364913715
 31
0.0
  0
LINE
  5
1B6
102
{ACAD_REACTORS
330
269
330
26A
102
}
330
71
100
AcDbEntity
  8
0
  6
Continuous
 62
     2
100
AcDbLine
 10
94.00987079670836
 20
330.5349814486543
 30
0.0
 11
94.00987079670836
 21
332.0657523801859
 31
0.0
  0
LINE
  5
1B7
102
{ACAD_REACTORS
330
269
330
26A
102
}
330
71
100
AcDbEntity
  8
0
  6
Continuous
 62
     2
100
AcDbLine
 10
97.09773802659245
 20
329.5067089700207
 30
0.0
 11
91.62442593587565
 21
329.5067089700207
 31
0.0
  0
LINE
  5
1B8
102
{ACAD_REACTORS
330
269
330
26A
102
}
330
71
100
AcDbEntity
  8
0
  6
Continuous
 62
     2
100
AcDbLine
 10
97.52198264197634
 20
335.4954643546042
 30
0.0
 11
97.52198264197634
 21
329.930953585404
 31
0.0
  0
LINE
  5
1B9
102
{ACAD_REACTORS
330
269
330
26A
102
}
330
71
100
AcDbEntity
  8
0
  6
Continuous
 62
     2
100
AcDbLine
 10
91.62442593587565
 20
335.9197089699881
 30
0.0
 11
97.09773802659245
 21
335.9197089699881
 31
0.0
  0
LINE
  5
1BA
102
{ACAD_REACTORS
330
269
330
26A
102
}
330
71
100
AcDbEntity
  8
0
  6
Continuous
 62
     2
100
AcDbLine
 10
91.20018132049285
 20
335.4954643546042
 30
0.0
 11
91.20018132049285
 21
329.930953585404
 31
0.0
  0
LINE
  5
1BB
102
{ACAD_REACTORS
330
269
330
26A
102
}
330
71
100
AcDbEntity
  8
0
  6
Continuous
 62
     2
100
AcDbLine
 10
93.69415387363176
 20
330.2192645255776
 30
0.0
 11
92.21832061262214
 21
330.2192645255776
 31
0.0
  0
LINE
  5
1BC
102
{ACAD_REACTORS
330
263
330
264
102
}
330
71
100
AcDbEntity
  8
0
  6
Continuous
 62
     2
100
AcDbLine
 10
99.23960413309726
 20
332.865899446195
 30
0.0
 11
99.23960413309726
 21
333.8089776873388
 31
0.0
  0
LINE
  5
1BD
102
{ACAD_REACTORS
330
263
330
264
102
}
330
71
100
AcDbEntity
  8
0
  6
Continuous
 62
     2
100
AcDbLine
 10
97.99909972284314
 20
332.865899446195
 30
0.0
 11
99.23960413309726
 21
332.865899446195
 31
0.0
  0
LINE
  5
1BE
102
{ACAD_REACTORS
330
263
330
264
102
}
330
71
100
AcDbEntity
  8
0
  6
Continuous
 62
     2
100
AcDbLine
 10
99.23960413309726
 20
334.5508754752239
 30
0.0
 11
99.23960413309726
 21
335.2566031245661
 31
0.0
  0
LINE
  5
1BF
102
{ACAD_REACTORS
330
255
330
256
102
}
330
71
100
AcDbEntity
  8
0
  6
Continuous
 62
     2
100
AcDbLine
 10
101.1957841646509
 20
335.9197089700062
 30
0.0
 11
101.1957841646509
 21
332.865899446195
 31
0.0
  0
LINE
  5
1C0
102
{ACAD_REACTORS
330
255
330
256
102
}
330
71
100
AcDbEntity
  8
0
  6
Continuous
 62
     2
100
AcDbLine
 10
102.3885768668175
 20
334.0001715550388
 30
0.0
 11
102.3885768668175
 21
332.865899446195
 31
0.0
  0
LINE
  5
1C1
102
{ACAD_REACTORS
330
255
330
256
102
}
330
71
100
AcDbEntity
  8
0
  6
Continuous
 62
     2
100
AcDbLine
 10
103.4382344447249
 20
334.0001715550388
 30
0.0
 11
102.3885768668175
 21
334.0001715550388
 31
0.0
  0
LINE
  5
1C2
102
{ACAD_REACTORS
330
255
330
256
102
}
330
71
100
AcDbEntity
  8
0
  6
Continuous
 62
     2
100
AcDbLine
 10
103.4382344447249
 20
335.9197089700062
 30
0.0
 11
104.6310271468913
 21
335.9197089700062
 31
0.0
  0
LINE
  5
1C3
102
{ACAD_REACTORS
330
255
330
256
102
}
330
71
100
AcDbEntity
  8
0
  6
Continuous
 62
     2
100
AcDbLine
 10
103.4382344447249
 20
334.8508756366716
 30
0.0
 11
103.4382344447249
 21
335.9197089700062
 31
0.0
  0
LINE
  5
1C4
102
{ACAD_REACTORS
330
267
330
268
102
}
330
71
100
AcDbEntity
  8
0
  6
Continuous
 62
     2
100
AcDbLine
 10
109.4499096636459
 20
335.2216953645632
 30
0.0
 11
109.4499096636459
 21
335.9197089700062
 31
0.0
  0
LINE
  5
1C5
102
{ACAD_REACTORS
330
267
330
268
102
}
330
71
100
AcDbEntity
  8
0
  6
Continuous
 62
     2
100
AcDbLine
 10
106.2995899398649
 20
335.9197089700062
 30
0.0
 11
109.4499096636459
 21
335.9197089700062
 31
0.0
  0
LINE
  5
1C6
102
{ACAD_REACTORS
330
267
330
268
102
}
330
71
100
AcDbEntity
  8
0
  6
Continuous
 62
     2
100
AcDbLine
 10
106.2995899398649
 20
332.865899446195
 30
0.0
 11
109.4499096636459
 21
332.865899446195
 31
0.0
  0
LINE
  5
1C7
102
{ACAD_REACTORS
330
267
330
268
102
}
330
71
100
AcDbEntity
  8
0
  6
Continuous
 62
     2
100
AcDbLine
 10
109.4499096636459
 20
332.865899446195
 30
0.0
 11
109.4499096636459
 21
333.5639130516375
 31
0.0
  0
LINE
  5
1C8
102
{ACAD_REACTORS
330
267
330
268
102
}
330
71
100
AcDbEntity
  8
0
  6
Continuous
 62
     2
100
AcDbLine
 10
109.4499096636459
 20
333.5639130516375
 30
0.0
 11
108.1139818372183
 21
333.5639130516375
 31
0.0
  0
LINE
  5
1C9
102
{ACAD_REACTORS
330
267
330
268
102
}
330
71
100
AcDbEntity
  8
0
  6
Continuous
 62
     2
100
AcDbLine
 10
108.1139818372183
 20
333.5639130516375
 30
0.0
 11
108.1139818372183
 21
334.0437974053792
 31
0.0
  0
LINE
  5
1CA
102
{ACAD_REACTORS
330
267
330
268
102
}
330
71
100
AcDbEntity
  8
0
  6
Continuous
 62
     2
100
AcDbLine
 10
108.1139818372183
 20
335.2216953645632
 30
0.0
 11
109.4499096636459
 21
335.2216953645632
 31
0.0
  0
LINE
  5
1CB
102
{ACAD_REACTORS
330
257
330
258
102
}
330
71
100
AcDbEntity
  8
0
  6
Continuous
 62
     2
100
AcDbLine
 10
105.6328220858268
 20
329.5067089700207
 30
0.0
 11
105.6328220858268
 21
330.8154844802253
 31
0.0
  0
LINE
  5
1CC
102
{ACAD_REACTORS
330
257
330
258
102
}
330
71
100
AcDbEntity
  8
0
  6
Continuous
 62
     2
100
AcDbLine
 10
105.6328220858268
 20
330.8154844802253
 30
0.0
 11
106.8733264960796
 21
329.5067089700207
 31
0.0
  0
LINE
  5
1CD
102
{ACAD_REACTORS
330
257
330
258
102
}
330
71
100
AcDbEntity
  8
0
  6
Continuous
 62
     2
100
AcDbLine
 10
108.066119198246
 20
329.5067089700207
 30
0.0
 11
108.066119198246
 21
332.5605184938318
 31
0.0
  0
LINE
  5
1CE
102
{ACAD_REACTORS
330
257
330
258
102
}
330
71
100
AcDbEntity
  8
0
  6
Continuous
 62
     2
100
AcDbLine
 10
108.066119198246
 20
332.5605184938318
 30
0.0
 11
106.8733264960796
 21
332.5605184938318
 31
0.0
  0
LINE
  5
1CF
102
{ACAD_REACTORS
330
257
330
258
102
}
330
71
100
AcDbEntity
  8
0
  6
Continuous
 62
     2
100
AcDbLine
 10
106.8733264960796
 20
332.5605184938318
 30
0.0
 11
106.8733264960796
 21
331.2517429836267
 31
0.0
  0
LINE
  5
1D0
102
{ACAD_REACTORS
330
257
330
258
102
}
330
71
100
AcDbEntity
  8
0
  6
Continuous
 62
     2
100
AcDbLine
 10
106.8733264960796
 20
331.2517429836267
 30
0.0
 11
105.6328220858268
 21
332.5605184938318
 31
0.0
  0
LINE
  5
1D1
102
{ACAD_REACTORS
330
259
330
25A
102
}
330
71
100
AcDbEntity
  8
0
  6
Continuous
 62
     2
100
AcDbLine
 10
110.8812609062454
 20
334.1746749563997
 30
0.0
 11
112.1217653164994
 21
332.865899446195
 31
0.0
  0
LINE
  5
1D2
102
{ACAD_REACTORS
330
259
330
25A
102
}
330
71
100
AcDbEntity
  8
0
  6
Continuous
 62
     2
100
AcDbLine
 10
112.1217653164994
 20
332.865899446195
 30
0.0
 11
113.314558018666
 21
332.865899446195
 31
0.0
  0
LINE
  5
1D3
102
{ACAD_REACTORS
330
259
330
25A
102
}
330
71
100
AcDbEntity
  8
0
  6
Continuous
 62
     2
100
AcDbLine
 10
113.314558018666
 20
332.865899446195
 30
0.0
 11
113.314558018666
 21
335.9197089700062
 31
0.0
  0
LINE
  5
1D4
102
{ACAD_REACTORS
330
259
330
25A
102
}
330
71
100
AcDbEntity
  8
0
  6
Continuous
 62
     2
100
AcDbLine
 10
113.314558018666
 20
335.9197089700062
 30
0.0
 11
112.1217653164994
 21
335.9197089700062
 31
0.0
  0
LINE
  5
1D5
102
{ACAD_REACTORS
330
259
330
25A
102
}
330
71
100
AcDbEntity
  8
0
  6
Continuous
 62
     2
100
AcDbLine
 10
112.1217653164994
 20
334.610933459801
 30
0.0
 11
110.8812609062454
 21
335.9197089700062
 31
0.0
  0
LINE
  5
1D6
102
{ACAD_REACTORS
330
259
330
25A
102
}
330
71
100
AcDbEntity
  8
0
  6
Continuous
 62
     2
100
AcDbLine
 10
109.6884682040788
 20
332.865899446195
 30
0.0
 11
110.8812609062454
 21
332.865899446195
 31
0.0
  0
LINE
  5
1D7
102
{ACAD_REACTORS
330
25B
330
25C
102
}
330
71
100
AcDbEntity
  8
0
  6
Continuous
 62
     2
100
AcDbLine
 10
108.2092543225062
 20
332.5605184938318
 30
0.0
 11
108.2092543225062
 21
331.7752531877082
 31
0.0
  0
LINE
  5
1D8
102
{ACAD_REACTORS
330
25B
330
25C
102
}
330
71
100
AcDbEntity
  8
0
  6
Continuous
 62
     2
100
AcDbLine
 10
109.0203533599809
 20
331.7752531877082
 30
0.0
 11
109.0203533599809
 21
329.5067089700207
 31
0.0
  0
LINE
  5
1D9
102
{ACAD_REACTORS
330
25B
330
25C
102
}
330
71
100
AcDbEntity
  8
0
  6
Continuous
 62
     2
100
AcDbLine
 10
109.0203533599809
 20
329.5067089700207
 30
0.0
 11
110.2131460621474
 21
329.5067089700207
 31
0.0
  0
LINE
  5
1DA
102
{ACAD_REACTORS
330
25D
330
25E
102
}
330
71
100
AcDbEntity
  8
0
  6
Continuous
 62
     2
100
AcDbLine
 10
113.1626725555668
 20
329.5067089700207
 30
0.0
 11
112.9511925020911
 21
330.0476695142386
 31
0.0
  0
LINE
  5
1DB
102
{ACAD_REACTORS
330
25D
330
25E
102
}
330
71
100
AcDbEntity
  8
0
  6
Continuous
 62
     2
100
AcDbLine
 10
113.0052239188805
 20
332.5605184938318
 30
0.0
 11
114.4031769658208
 21
329.5067089700207
 31
0.0
  0
LINE
  5
1DC
102
{ACAD_REACTORS
330
25D
330
25E
102
}
330
71
100
AcDbEntity
  8
0
  6
Continuous
 62
     2
100
AcDbLine
 10
111.7647195086278
 20
332.5605184938318
 30
0.0
 11
113.0052239188805
 21
332.5605184938318
 31
0.0
  0
LINE
  5
1DD
102
{ACAD_REACTORS
330
25D
330
25E
102
}
330
71
100
AcDbEntity
  8
0
  6
Continuous
 62
     2
100
AcDbLine
 10
110.3667664616885
 20
329.5067089700207
 30
0.0
 11
111.6072708719414
 21
329.5067089700207
 31
0.0
  0
LINE
  5
1DE
102
{ACAD_REACTORS
330
25D
330
25E
102
}
330
71
100
AcDbEntity
  8
0
  6
Continuous
 62
     2
100
AcDbLine
 10
112.0848064765623
 20
330.7282327795452
 30
0.0
 11
112.6851369509448
 21
330.7282327795452
 31
0.0
  0
LINE
  5
1DF
102
{ACAD_REACTORS
330
25D
330
25E
102
}
330
71
100
AcDbEntity
  8
0
  6
Continuous
 62
     2
100
AcDbLine
 10
112.6851369509448
 20
330.7282327795452
 30
0.0
 11
112.3849717137547
 21
331.4960477455319
 31
0.0
  0
LINE
  5
1E0
102
{ACAD_REACTORS
330
25F
330
260
102
}
330
71
100
AcDbEntity
  8
0
  6
Continuous
 62
     2
100
AcDbLine
 10
114.7936209693528
 20
332.865899446195
 30
0.0
 11
113.5531165590999
 21
332.865899446195
 31
0.0
  0
LINE
  5
1E1
102
{ACAD_REACTORS
330
261
330
262
102
}
330
71
100
AcDbEntity
  8
0
  6
Continuous
 62
     2
100
AcDbLine
 10
116.3156244573179
 20
332.865899446195
 30
0.0
 11
114.9129002395696
 21
332.865899446195
 31
0.0
  0
LINE
  5
1E2
102
{ACAD_REACTORS
330
261
330
262
102
}
330
71
100
AcDbEntity
  8
0
  6
Continuous
 62
     2
100
AcDbLine
 10
116.3156244573179
 20
332.865899446195
 30
0.0
 11
117.0122153953836
 21
333.6536312314887
 31
0.0
  0
LINE
  5
1E3
102
{ACAD_REACTORS
330
261
330
262
102
}
330
71
100
AcDbEntity
  8
0
  6
Continuous
 62
     2
100
AcDbLine
 10
117.6133829172763
 20
335.9197089700062
 30
0.0
 11
119.0161071350236
 21
335.9197089700062
 31
0.0
  0
LINE
  5
1E4
102
{ACAD_REACTORS
330
261
330
262
102
}
330
71
100
AcDbEntity
  8
0
  6
Continuous
 62
     2
100
AcDbLine
 10
115.0083236557425
 20
335.9197089700062
 30
0.0
 11
116.3108532865099
 21
334.44675843997
 31
0.0
  0
LINE
  5
1E5
102
{ACAD_REACTORS
330
261
330
262
102
}
330
71
100
AcDbEntity
  8
0
  6
Continuous
 62
     2
100
AcDbLine
 10
114.9129002395696
 20
332.865899446195
 30
0.0
 11
116.3108532865099
 21
334.44675843997
 31
0.0
  0
LINE
  5
1E6
102
{ACAD_REACTORS
330
26B
330
26C
102
}
330
71
100
AcDbEntity
  8
0
  6
Continuous
 62
     2
100
AcDbLine
 10
116.7736568549496
 20
330.5537293781844
 30
0.0
 11
116.7736568549496
 21
329.681212371381
 31
0.0
  0
LINE
  5
1E7
102
{ACAD_REACTORS
330
26B
330
26C
102
}
330
71
100
AcDbEntity
  8
0
  6
Continuous
 62
     2
100
AcDbLine
 10
116.0039995119882
 20
331.7752531877082
 30
0.0
 11
117.1076388115563
 21
331.7752531877082
 31
0.0
  0
LINE
  5
1E8
102
{ACAD_REACTORS
330
26D
330
26E
102
}
330
71
100
AcDbEntity
  8
0
  6
Continuous
 62
     2
100
AcDbLine
 10
100.6709553756976
 20
330.5537293781848
 30
0.0
 11
100.6709553756976
 21
329.6812123713816
 31
0.0
  0
LINE
  5
1E9
102
{ACAD_REACTORS
330
26D
330
26E
102
}
330
71
100
AcDbEntity
  8
0
  6
Continuous
 62
     2
100
AcDbLine
 10
100.6709553756976
 20
331.5134980856677
 30
0.0
 11
100.6709553756976
 21
332.386015092471
 31
0.0
  0
LINE
  5
1EA
330
71
100
AcDbEntity
  8
1
  6
Continuous
 62
     7
100
AcDbLine
 10
216.5083309606816
 20
330.7132089700044
 30
0.0
 11
123.3635264339302
 21
330.7132089700044
 31
0.0
  0
LINE
  5
1EB
330
71
100
AcDbEntity
  8
1
  6
Continuous
 62
     6
100
AcDbLine
 10
17.96352643393027
 20
322.2132089700044
 30
0.0
 11
-26.99166903931973
 21
322.2132089700044
 31
0.0
  0
LINE
  5
1EC
330
71
100
AcDbEntity
  8
1
  6
Continuous
 62
     7
100
AcDbLine
 10
207.5899226790027
 20
347.7132089700044
 30
0.0
 11
207.5899226790027
 21
339.2132089700044
 31
0.0
  0
LINE
  5
1ED
330
71
100
AcDbEntity
  8
1
  6
Continuous
 62
     7
100
AcDbLine
 10
181.0899226790031
 20
347.7132089700044
 30
0.0
 11
181.0899226790031
 21
339.2132089700044
 31
0.0
  0
LINE
  5
1EE
330
71
100
AcDbEntity
  8
1
  6
Continuous
 62
     7
100
AcDbLine
 10
123.3635264339302
 20
339.2132089700044
 30
0.0
 11
123.3635264339302
 21
347.7132089700044
 31
0.0
  0
LINE
  5
1EF
330
71
100
AcDbEntity
  8
1
  6
Continuous
 62
     7
100
AcDbLine
 10
86.96352643393024
 20
339.2132089700044
 30
0.0
 11
86.96352643393024
 21
347.7132089700044
 31
0.0
  0
LINE
  5
1F0
330
71
100
AcDbEntity
  8
1
  6
Continuous
 62
     6
100
AcDbLine
 10
123.3635264339302
 20
339.2132089700044
 30
0.0
 11
216.508330960682
 21
339.2132089700044
 31
0.0
  0
LINE
  5
1F1
330
71
100
AcDbEntity
  8
1
  6
Continuous
 62
     7
100
AcDbLine
 10
151.2635264339303
 20
330.7132089700043
 30
0.0
 11
151.2635264339303
 21
339.2132089700044
 31
0.0
  0
LINE
  5
1F2
330
71
100
AcDbEntity
  8
1
  6
PHANTOM
 62
     2
100
AcDbLine
 10
102.4501813204929
 20
343.3382089700043
 30
0.0
 11
96.95018132049285
 21
343.3382089700043
 31
0.0
  0
LINE
  5
1F3
330
71
100
AcDbEntity
  8
1
  6
PHANTOM
 62
     2
100
AcDbLine
 10
99.70018132049285
 20
346.0882089700043
 30
0.0
 11
99.70018132049285
 21
340.5882089700043
 31
0.0
  0
LINE
  5
1F4
330
71
100
AcDbEntity
  8
1
  6
DOT_CENTER
 62
     2
100
AcDbLine
 10
90.95018132049285
 20
343.3382089700043
 30
0.0
 11
96.45018132049285
 21
343.3382089700043
 31
0.0
  0
ARC
  5
1F5
102
{ACAD_REACTORS
330
26D
330
26E
102
}
330
71
100
AcDbEntity
  8
0
  6
Continuous
 62
     2
100
AcDbCircle
 10
99.33502745857984
 20
327.7209327866701
 30
0.0
 40
4.852596863498029
100
AcDbArc
 50
74.02000874164779
 51
84.84185523037502
  0
ARC
  5
1F6
102
{ACAD_REACTORS
330
26D
330
26E
102
}
330
71
100
AcDbEntity
  8
0
  6
Continuous
 62
     2
100
AcDbCircle
 10
99.91106806733356
 20
330.8766931425544
 30
0.0
 40
0.9059297849853093
100
AcDbArc
 50
71.55192388185604
 51
113.372277888129
  0
ARC
  5
1F7
102
{ACAD_REACTORS
330
26D
330
26E
102
}
330
71
100
AcDbEntity
  8
0
  6
Continuous
 62
     2
100
AcDbCircle
 10
99.75462803463154
 20
330.8285423025875
 30
0.0
 40
0.5115800601948034
100
AcDbArc
 50
208.5214732576956
 51
246.6277221118274
  0
ARC
  5
1F8
102
{ACAD_REACTORS
330
26D
330
26E
102
}
330
71
100
AcDbEntity
  8
0
  6
Continuous
 62
     2
100
AcDbCircle
 10
99.91106806733356
 20
331.1905343212975
 30
0.0
 40
0.9059297849849192
100
AcDbArc
 50
246.627722111871
 51
288.4480761181565
  0
ARC
  5
1F9
102
{ACAD_REACTORS
330
26D
330
26E
102
}
330
71
100
AcDbEntity
  8
0
  6
Continuous
 62
     2
100
AcDbCircle
 10
99.49290033367276
 20
332.4440800973347
 30
0.0
 40
2.227384008972697
100
AcDbArc
 50
288.448076118132
 51
301.9309089499587
  0
ARC
  5
1FA
102
{ACAD_REACTORS
330
269
330
26A
102
}
330
71
100
AcDbEntity
  8
0
  6
Continuous
 62
     2
100
AcDbCircle
 10
94.26782660106596
 20
333.1765821262487
 30
0.0
 40
0.9118481501443819
100
AcDbArc
 50
295.3740086781787
 51
64.62599132180748
  0
ARC
  5
1FB
102
{ACAD_REACTORS
330
269
330
26A
102
}
330
71
100
AcDbEntity
  8
0
  6
Continuous
 62
     2
100
AcDbCircle
 10
94.79386929915384
 20
334.8912590147234
 30
0.0
 40
0.3157169230759573
100
AcDbArc
 50
90.188967042546
 51
180.0
  0
ARC
  5
1FC
102
{ACAD_REACTORS
330
26B
330
26C
102
}
330
71
100
AcDbEntity
  8
0
  6
Continuous
 62
     2
100
AcDbCircle
 10
116.0039995119882
 20
330.8207301808822
 30
0.0
 40
0.9545230068259798
100
AcDbArc
 50
90.0
 51
109.3371432194335
  0
ARC
  5
1FD
102
{ACAD_REACTORS
330
26B
330
26C
102
}
330
71
100
AcDbEntity
  8
0
  6
Continuous
 62
     2
100
AcDbCircle
 10
116.2346867719658
 20
331.033613731926
 30
0.0
 40
0.941059735334906
100
AcDbArc
 50
151.4785267423609
 51
208.5214732576695
  0
ARC
  5
1FE
102
{ACAD_REACTORS
330
26B
330
26C
102
}
330
71
100
AcDbEntity
  8
0
  6
Continuous
 62
     2
100
AcDbCircle
 10
116.0137695465876
 20
331.1905343212975
 30
0.0
 40
0.9059297849852744
100
AcDbArc
 50
246.6277221118191
 51
288.448076118084
  0
ARC
  5
1FF
102
{ACAD_REACTORS
330
26B
330
26C
102
}
330
71
100
AcDbEntity
  8
0
  6
Continuous
 62
     2
100
AcDbCircle
 10
115.5956018129257
 20
332.4440800973341
 30
0.0
 40
2.227384008972665
100
AcDbArc
 50
288.4480761181342
 51
301.9309089499409
  0
ARC
  5
200
102
{ACAD_REACTORS
330
26B
330
26C
102
}
330
71
100
AcDbEntity
  8
0
  6
Continuous
 62
     2
100
AcDbCircle
 10
115.4377289378328
 20
334.3462946771824
 30
0.0
 40
4.852596863498833
100
AcDbArc
 50
275.1581447696374
 51
285.9799912583396
  0
ARC
  5
201
102
{ACAD_REACTORS
330
26B
330
26C
102
}
330
71
100
AcDbEntity
  8
0
  6
Continuous
 62
     2
100
AcDbCircle
 10
115.7265850325687
 20
331.1464040939608
 30
0.0
 40
1.639695123940531
100
AcDbArc
 50
195.0618917771004
 51
275.1581447696762
  0
ARC
  5
202
102
{ACAD_REACTORS
330
263
330
264
102
}
330
71
100
AcDbEntity
  8
0
  6
Continuous
 62
     2
100
AcDbCircle
 10
99.99837172087754
 20
334.8643433286725
 30
0.0
 40
1.055365641333651
100
AcDbArc
 50
270.0
 51
90.0
  0
ARC
  5
203
102
{ACAD_REACTORS
330
269
330
26A
102
}
330
71
100
AcDbEntity
  8
0
  6
Continuous
 62
     2
100
AcDbCircle
 10
92.21832061262214
 20
330.5349814486543
 30
0.0
 40
0.3157169230756836
100
AcDbArc
 50
180.0
 51
270.0
  0
ARC
  5
204
102
{ACAD_REACTORS
330
269
330
26A
102
}
330
71
100
AcDbEntity
  8
0
  6
Continuous
 62
     2
100
AcDbCircle
 10
93.69415387363176
 20
334.8914364913715
 30
0.0
 40
0.315716923076593
100
AcDbArc
 50
0.0
 51
90.0
  0
ARC
  5
205
102
{ACAD_REACTORS
330
269
330
26A
102
}
330
71
100
AcDbEntity
  8
0
  6
Continuous
 62
     2
100
AcDbCircle
 10
93.69415387363176
 20
334.2874118723109
 30
0.0
 40
0.3157169230761203
100
AcDbArc
 50
295.1944106485397
 51
0.0
  0
ARC
  5
206
102
{ACAD_REACTORS
330
269
330
26A
102
}
330
71
100
AcDbEntity
  8
0
  6
Continuous
 62
     2
100
AcDbCircle
 10
93.69415387363176
 20
330.5349814486543
 30
0.0
 40
0.3157169230767067
100
AcDbArc
 50
270.0
 51
0.0
  0
ARC
  5
207
102
{ACAD_REACTORS
330
269
330
26A
102
}
330
71
100
AcDbEntity
  8
0
  6
Continuous
 62
     2
100
AcDbCircle
 10
91.62442593587565
 20
335.4954643546042
 30
0.0
 40
0.4242446153838841
100
AcDbArc
 50
90.0
 51
180.0
  0
ARC
  5
208
102
{ACAD_REACTORS
330
269
330
26A
102
}
330
71
100
AcDbEntity
  8
0
  6
Continuous
 62
     2
100
AcDbCircle
 10
97.09773802659245
 20
335.4954643546042
 30
0.0
 40
0.4242446153838841
100
AcDbArc
 50
0.0
 51
90.0
  0
ARC
  5
209
102
{ACAD_REACTORS
330
269
330
26A
102
}
330
71
100
AcDbEntity
  8
0
  6
Continuous
 62
     2
100
AcDbCircle
 10
97.09773802659245
 20
329.930953585404
 30
0.0
 40
0.4242446153832589
100
AcDbArc
 50
270.0
 51
0.0
  0
ARC
  5
20A
102
{ACAD_REACTORS
330
267
330
268
102
}
330
71
100
AcDbEntity
  8
0
  6
Continuous
 62
     2
100
AcDbCircle
 10
106.316121913684
 20
334.3928042081003
 30
0.0
 40
0.7717997786796486
100
AcDbArc
 50
321.8795802028444
 51
38.12041979715892
  0
ARC
  5
20B
102
{ACAD_REACTORS
330
267
330
268
102
}
330
71
100
AcDbEntity
  8
0
  6
Continuous
 62
     2
100
AcDbCircle
 10
106.5158619500301
 20
334.2360730299799
 30
0.0
 40
0.51790857301337
100
AcDbArc
 50
218.1204197971569
 51
321.8795802028635
  0
ARC
  5
20C
102
{ACAD_REACTORS
330
265
330
266
102
}
330
71
100
AcDbEntity
  8
0
  6
Continuous
 62
     2
100
AcDbCircle
 10
102.83585436107
 20
331.033613731926
 30
0.0
 40
1.458034083651977
100
AcDbArc
 50
297.5481481757016
 51
62.45185182429947
  0
ARC
  5
20D
102
{ACAD_REACTORS
330
265
330
266
102
}
330
71
100
AcDbEntity
  8
0
  6
Continuous
 62
     2
100
AcDbCircle
 10
102.2739745774034
 20
331.033613731926
 30
0.0
 40
1.458034083651515
100
AcDbArc
 50
117.5481481756619
 51
242.451851824337
  0
ARC
  5
20E
102
{ACAD_REACTORS
330
265
330
266
102
}
330
71
100
AcDbEntity
  8
0
  6
Continuous
 62
     2
100
AcDbCircle
 10
102.5549144692367
 20
330.4950387216233
 30
0.0
 40
2.065479772208492
100
AcDbArc
 50
62.45185182430527
 51
117.5481481756678
  0
ARC
  5
20F
102
{ACAD_REACTORS
330
265
330
266
102
}
330
71
100
AcDbEntity
  8
0
  6
Continuous
 62
     2
100
AcDbCircle
 10
102.5549144692367
 20
331.5721887422293
 30
0.0
 40
2.06547977220849
100
AcDbArc
 50
242.4518518243395
 51
297.5481481756875
  0
ARC
  5
210
102
{ACAD_REACTORS
330
267
330
268
102
}
330
71
100
AcDbEntity
  8
0
  6
Continuous
 62
     2
100
AcDbCircle
 10
106.7156019863764
 20
334.3928042081003
 30
0.0
 40
0.7717997786796054
100
AcDbArc
 50
141.8795802028365
 51
218.1204197971602
  0
ARC
  5
211
102
{ACAD_REACTORS
330
267
330
268
102
}
330
71
100
AcDbEntity
  8
0
  6
Continuous
 62
     2
100
AcDbCircle
 10
106.5158619500301
 20
334.5495353862208
 30
0.0
 40
0.5179085730136048
100
AcDbArc
 50
38.12041979713654
 51
141.8795802028431
  0
ARC
  5
212
102
{ACAD_REACTORS
330
269
330
26A
102
}
330
71
100
AcDbEntity
  8
0
  6
Continuous
 62
     2
100
AcDbCircle
 10
91.62442593587565
 20
329.930953585404
 30
0.0
 40
0.4242446153828041
100
AcDbArc
 50
180.0
 51
270.0
  0
ARC
  5
213
102
{ACAD_REACTORS
330
269
330
26A
102
}
330
71
100
AcDbEntity
  8
0
  6
Continuous
 62
     2
100
AcDbCircle
 10
93.69415387363176
 20
332.0657523801859
 30
0.0
 40
0.315716923076593
100
AcDbArc
 50
0.0
 51
64.80558935146027
  0
ARC
  5
214
102
{ACAD_REACTORS
330
269
330
26A
102
}
330
71
100
AcDbEntity
  8
0
  6
Continuous
 62
     2
100
AcDbCircle
 10
94.21673832120675
 20
333.1765821262487
 30
0.0
 40
0.9118975235575889
100
AcDbArc
 50
115.194410648529
 51
244.8055893514878
  0
ARC
  5
215
102
{ACAD_REACTORS
330
269
330
26A
102
}
330
71
100
AcDbEntity
  8
0
  6
Continuous
 62
     2
100
AcDbCircle
 10
92.21832061262214
 20
334.8914364913715
 30
0.0
 40
0.3157169230760815
100
AcDbArc
 50
90.0
 51
180.0
  0
ARC
  5
216
102
{ACAD_REACTORS
330
263
330
264
102
}
330
71
100
AcDbEntity
  8
0
  6
Continuous
 62
     2
100
AcDbCircle
 10
99.55689919463916
 20
334.9037392998951
 30
0.0
 40
0.3528638246712035
100
AcDbArc
 50
270.0
 51
90.0
  0
ARC
  5
217
102
{ACAD_REACTORS
330
267
330
268
102
}
330
71
100
AcDbEntity
  8
0
  6
Continuous
 62
     2
100
AcDbCircle
 10
106.2995899398649
 20
334.3928042081003
 30
0.0
 40
1.526904761905882
100
AcDbArc
 50
90.0
 51
270.0
  0
ARC
  5
218
102
{ACAD_REACTORS
330
26B
330
26C
102
}
330
71
100
AcDbEntity
  8
0
  6
Continuous
 62
     2
100
AcDbCircle
 10
115.7265850325687
 20
330.9208233698911
 30
0.0
 40
1.639695123940214
100
AcDbArc
 50
90.0
 51
164.9381082228957
  0
ARC
  5
219
102
{ACAD_REACTORS
330
26B
330
26C
102
}
330
71
100
AcDbEntity
  8
0
  6
Continuous
 62
     2
100
AcDbCircle
 10
115.3074571891071
 20
331.033613731926
 30
0.0
 40
1.205656168393085
100
AcDbArc
 50
164.9381082229038
 51
195.0618917770936
  0
ARC
  5
21A
102
{ACAD_REACTORS
330
26B
330
26C
102
}
330
71
100
AcDbEntity
  8
0
  6
Continuous
 62
     2
100
AcDbCircle
 10
115.8573295138845
 20
330.8285423025875
 30
0.0
 40
0.5115800601960965
100
AcDbArc
 50
208.521473257682
 51
246.6277221118464
  0
ARC
  5
21B
102
{ACAD_REACTORS
330
26B
330
26C
102
}
330
71
100
AcDbEntity
  8
0
  6
Continuous
 62
     2
100
AcDbCircle
 10
115.8573295138845
 20
331.238685161265
 30
0.0
 40
0.5115800601944096
100
AcDbArc
 50
109.3371432194838
 51
151.4785267424242
  0
ARC
  5
21C
102
{ACAD_REACTORS
330
269
330
26A
102
}
330
71
100
AcDbEntity
  8
0
  6
Continuous
 62
     2
100
AcDbCircle
 10
94.79386929915384
 20
331.4855891195853
 30
0.0
 40
0.315716923076792
100
AcDbArc
 50
180.0
 51
269.8110329574542
  0
ARC
  5
21D
102
{ACAD_REACTORS
330
269
330
26A
102
}
330
71
100
AcDbEntity
  8
0
  6
Continuous
 62
     2
100
AcDbCircle
 10
94.79948543446386
 20
333.1884240671542
 30
0.0
 40
2.018561131933266
100
AcDbArc
 50
269.8110329575858
 51
90.18896704241416
  0
ARC
  5
21E
102
{ACAD_REACTORS
330
269
330
26A
102
}
330
71
100
AcDbEntity
  8
0
  6
Continuous
 62
     2
100
AcDbCircle
 10
94.79386929915384
 20
334.2857237262165
 30
0.0
 40
0.315716923076792
100
AcDbArc
 50
180.0
 51
244.6259913216437
  0
ARC
  5
21F
102
{ACAD_REACTORS
330
269
330
26A
102
}
330
71
100
AcDbEntity
  8
0
  6
Continuous
 62
     2
100
AcDbCircle
 10
94.79386929915384
 20
332.0674405262803
 30
0.0
 40
0.3157169230766355
100
AcDbArc
 50
115.374008678343
 51
180.0
  0
ARC
  5
220
102
{ACAD_REACTORS
330
26D
330
26E
102
}
330
71
100
AcDbEntity
  8
0
  6
Continuous
 62
     2
100
AcDbCircle
 10
99.62388355331575
 20
330.9208233698911
 30
0.0
 40
1.639695123940507
100
AcDbArc
 50
84.84185523036236
 51
164.9381082228864
  0
ARC
  5
221
102
{ACAD_REACTORS
330
26D
330
26E
102
}
330
71
100
AcDbEntity
  8
0
  6
Continuous
 62
     2
100
AcDbCircle
 10
99.20475570985295
 20
331.033613731926
 30
0.0
 40
1.205656168390944
100
AcDbArc
 50
164.9381082228765
 51
195.0618917770948
  0
ARC
  5
222
102
{ACAD_REACTORS
330
26D
330
26E
102
}
330
71
100
AcDbEntity
  8
0
  6
Continuous
 62
     2
100
AcDbCircle
 10
99.62388355331575
 20
331.1464040939608
 30
0.0
 40
1.639695123939395
100
AcDbArc
 50
195.0618917770906
 51
275.1581447696395
  0
ARC
  5
223
102
{ACAD_REACTORS
330
26D
330
26E
102
}
330
71
100
AcDbEntity
  8
0
  6
Continuous
 62
     2
100
AcDbCircle
 10
99.33502745857984
 20
334.3462946771824
 30
0.0
 40
4.852596863498166
100
AcDbArc
 50
275.1581447696249
 51
285.9799912583524
  0
ARC
  5
224
102
{ACAD_REACTORS
330
26D
330
26E
102
}
330
71
100
AcDbEntity
  8
0
  6
Continuous
 62
     2
100
AcDbCircle
 10
100.1319852927119
 20
331.033613731926
 30
0.0
 40
0.9410597353333044
100
AcDbArc
 50
151.4785267422685
 51
208.5214732577041
  0
ARC
  5
225
102
{ACAD_REACTORS
330
26D
330
26E
102
}
330
71
100
AcDbEntity
  8
0
  6
Continuous
 62
     2
100
AcDbCircle
 10
99.75462803463154
 20
331.238685161265
 30
0.0
 40
0.511580060194904
100
AcDbArc
 50
113.3722778881979
 51
151.4785267423044
  0
ARC
  5
226
102
{ACAD_REACTORS
330
26D
330
26E
102
}
330
71
100
AcDbEntity
  8
0
  6
Continuous
 62
     2
100
AcDbCircle
 10
99.49290033367276
 20
329.6231473665179
 30
0.0
 40
2.227384008973383
100
AcDbArc
 50
58.06909105004049
 51
71.55192388186757
  0
ARC
  5
227
102
{ACAD_REACTORS
330
265
330
266
102
}
330
71
100
AcDbEntity
  8
0
  6
Continuous
 62
     2
100
AcDbCircle
 10
102.5549144692367
 20
331.1903449100465
 30
0.0
 40
0.5179085730132887
100
AcDbArc
 50
38.120419797148
 51
141.8795802028598
  0
ARC
  5
228
102
{ACAD_REACTORS
330
265
330
266
102
}
330
71
100
AcDbEntity
  8
0
  6
Continuous
 62
     2
100
AcDbCircle
 10
102.7546545055828
 20
331.033613731926
 30
0.0
 40
0.771799778679492
100
AcDbArc
 50
141.8795802028353
 51
218.120419797168
  0
ARC
  5
229
102
{ACAD_REACTORS
330
265
330
266
102
}
330
71
100
AcDbEntity
  8
0
  6
Continuous
 62
     2
100
AcDbCircle
 10
102.5549144692367
 20
330.876882553806
 30
0.0
 40
0.5179085730137641
100
AcDbArc
 50
218.1204197971947
 51
321.8795802027976
  0
ARC
  5
22A
102
{ACAD_REACTORS
330
265
330
266
102
}
330
71
100
AcDbEntity
  8
0
  6
Continuous
 62
     2
100
AcDbCircle
 10
102.3551744328902
 20
331.033613731926
 30
0.0
 40
0.7717997786797618
100
AcDbArc
 50
321.8795802028456
 51
38.12041979715104
  0
CIRCLE
  5
22B
330
71
100
AcDbEntity
  8
1
  6
Continuous
 62
     2
100
AcDbCircle
 10
99.70018132049285
 20
343.3382089700043
 30
0.0
 40
2.500000000000057
  0
CIRCLE
  5
22C
330
71
100
AcDbEntity
  8
1
  6
Continuous
 62
     2
100
AcDbCircle
 10
99.70018132049285
 20
343.3382089700043
 30
0.0
 40
1.249999999999957
  0
CIRCLE
  5
22D
102
{ACAD_REACTORS
330
269
330
26A
102
}
330
71
100
AcDbEntity
  8
0
  6
Continuous
 62
     2
100
AcDbCircle
 10
94.24401158639316
 20
333.1765821262487
 30
0.0
 40
0.4709789327785074
  0
MTEXT
  5
22E
330
71
100
AcDbEntity
  8
1
 62
     3
100
AcDbMText
 10
-70.48660125324795
 20
509.0045171253032
 30
0.0
 40
1.8
 41
0.0
 71
     7
 72
     1
  3
Weitergabe sowie Vervielf\U+00e4ltigung dieses Dokuments, Verwertung und \PMitteilung seines Inhalts sind verboten, soweit nicht ausdr\U+00fccklich gestattet. \PZuwiderhandlungen verpflichten zu Schadenersatz. Alle Rechte f\U+00fcr den Fall\Pder Pat
  1
ent-, Gebrauchsmuster- oder Designeintragung vorbehalten.
  7
CONVERTER_11
 73
     1
 44
0.99639855942377
  0
MTEXT
  5
22F
330
71
100
AcDbEntity
  8
1
 62
     3
100
AcDbMText
 10
112.3665085855402
 20
509.0045171253032
 30
0.0
 40
1.8
 41
0.0
 71
     7
 72
     1
  3
Transfer or duplication of this document as well as the utilisation or\Pcommunication of its content are not permitted unless express consent\Pis granted. Violations give rise to claims for damages. All rights reserved\Pin case of patent, utility mo
  1
del or design patent registrations.
  7
CONVERTER_11
 73
     1
 44
0.99639855942377
  0
TEXT
  5
230
330
71
100
AcDbEntity
  8
1
 62
     2
100
AcDbText
 10
106.1635264339301
 20
323.4541917550128
 30
0.0
 40
1.8
  1
of
 41
0.9
  7
CONVERTER_11
100
AcDbText
  0
TEXT
  5
231
330
71
100
AcDbEntity
  8
1
 62
     2
100
AcDbText
 10
87.96352643393024
 20
323.4541917550127
 30
0.0
 40
1.8
  1
page
 41
0.9
  7
CONVERTER_11
100
AcDbText
  0
TEXT
  5
232
330
71
100
AcDbEntity
  8
1
 62
     2
100
AcDbText
 10
96.60979140427224
 20
323.4139603162024
 30
0.0
 40
1.8
  1
1
 41
0.9
  7
CONVERTER_11
100
AcDbText
  0
TEXT
  5
233
330
71
100
AcDbEntity
  8
1
 62
     2
100
AcDbText
 10
111.3988352437438
 20
323.4632089700043
 30
0.0
 40
1.8
  1
1
 41
0.9
  7
CONVERTER_11
100
AcDbText
  0
MTEXT
  5
235
330
71
100
AcDbEntity
  8
1
 62
     7
100
AcDbMText
 10
169.9359286973057
 20
325.4632089700046
 30
0.0
 40
3.0
 41
0.0
 71
     5
 72
     1
  1
D-UHSK 2000
  7
CONVERTER_12
 73
     1
 44
1.20048019207683
  0
MTEXT
  5
236
330
71
100
AcDbEntity
  8
1
 62
     2
100
AcDbMText
 10
124.3635264339302
 20
329.7132089700044
 30
0.0
 40
1.8
 41
0.0
 71
     1
 72
     1
  1
description
  7
CONVERTER_11
 73
     1
 44
1.20048019207683
  0
MTEXT
  5
237
330
71
100
AcDbEntity
  8
1
 62
     3
100
AcDbMText
 10
113.1635264339301
 20
343.3382089700044
 30
0.0
 40
2.5
 41
0.0
 71
     5
 72
     1
  1
DIN A4
  7
CONVERTER_11
 73
     1
 44
1.20048019207683
  0
MTEXT
  5
238
330
71
100
AcDbEntity
  8
1
 62
     7
100
AcDbMText
 10
-72.99166903931882
 20
344.7132089700044
 30
0.0
 40
3.5
 41
0.0
 71
     5
 72
     1
  1
D
  7
CONVERTER_11
 73
     1
 44
1.20048019207683
  0
MTEXT
  5
239
330
71
100
AcDbEntity
  8
1
 62
     7
100
AcDbMText
 10
-72.99166903931882
 20
397.2132089700044
 30
0.0
 40
3.5
 41
0.0
 71
     5
 72
     1
  1
C
  7
CONVERTER_11
 73
     1
 44
1.20048019207683
  0
MTEXT
  5
23A
330
71
100
AcDbEntity
  8
1
 62
     7
100
AcDbMText
 10
-72.99166903931882
 20
447.2132089700044
 30
0.0
 40
3.5
 41
0.0
 71
     5
 72
     1
  1
B
  7
CONVERTER_11
 73
     1
 44
1.20048019207683
  0
MTEXT
  5
23B
330
71
100
AcDbEntity
  8
1
 62
     7
100
AcDbMText
 10
-72.99166903931882
 20
499.7132089700044
 30
0.0
 40
3.5
 41
0.0
 71
     5
 72
     1
  1
A
  7
CONVERTER_11
 73
     1
 44
1.20048019207683
  0
MTEXT
  5
23C
330
71
100
AcDbEntity
  8
1
 62
     7
100
AcDbMText
 10
197.2583309606794
 20
319.7132089700043
 30
0.0
 40
3.5
 41
0.0
 71
     5
 72
     1
  1
6
  7
CONVERTER_11
 73
     1
 44
1.20048019207683
  0
MTEXT
  5
23D
330
71
100
AcDbEntity
  8
1
 62
     7
100
AcDbMText
 10
148.0083309606802
 20
319.7132089700043
 30
0.0
 40
3.5
 41
0.0
 71
     5
 72
     1
  1
5
  7
CONVERTER_11
 73
     1
 44
1.20048019207683
  0
MTEXT
  5
23E
330
71
100
AcDbEntity
  8
1
 62
     7
100
AcDbMText
 10
98.00833096068015
 20
319.7132089700043
 30
0.0
 40
3.5
 41
0.0
 71
     5
 72
     1
  1
4
  7
CONVERTER_11
 73
     1
 44
1.20048019207683
  0
MTEXT
  5
23F
330
71
100
AcDbEntity
  8
1
 62
     7
100
AcDbMText
 10
48.00833096068027
 20
319.7132089700043
 30
0.0
 40
3.5
 41
0.0
 71
     5
 72
     1
  1
3
  7
CONVERTER_11
 73
     1
 44
1.20048019207683
  0
MTEXT
  5
240
330
71
100
AcDbEntity
  8
1
 62
     7
100
AcDbMText
 10
-1.99166903931973
 20
319.7132089700043
 30
0.0
 40
3.5
 41
0.0
 71
     5
 72
     1
  1
2
  7
CONVERTER_11
 73
     1
 44
1.20048019207683
  0
MTEXT
  5
241
330
71
100
AcDbEntity
  8
1
 62
     7
100
AcDbMText
 10
-51.24166903931933
 20
319.7132089700043
 30
0.0
 40
3.5
 41
0.0
 71
     5
 72
     1
  1
1
  7
CONVERTER_11
 73
     1
 44
1.20048019207683
  0
MTEXT
  5
242
330
71
100
AcDbEntity
  8
1
 62
     7
100
AcDbMText
 10
219.0083309606793
 20
344.7132089700044
 30
0.0
 40
3.5
 41
0.0
 71
     5
 72
     1
  1
D
  7
CONVERTER_11
 73
     1
 44
1.20048019207683
  0
MTEXT
  5
243
330
71
100
AcDbEntity
  8
1
 62
     7
100
AcDbMText
 10
219.0083309606793
 20
447.2132089700064
 30
0.0
 40
3.5
 41
0.0
 71
     5
 72
     1
  1
B
  7
CONVERTER_11
 73
     1
 44
1.20048019207683
  0
MTEXT
  5
244
330
71
100
AcDbEntity
  8
1
 62
     7
100
AcDbMText
 10
219.0083309606793
 20
499.7132089700044
 30
0.0
 40
3.5
 41
0.0
 71
     5
 72
     1
  1
A
  7
CONVERTER_11
 73
     1
 44
1.20048019207683
  0
MTEXT
  5
245
330
71
100
AcDbEntity
  8
1
 62
     7
100
AcDbMText
 10
219.0083309606793
 20
397.2132089700064
 30
0.0
 40
3.5
 41
0.0
 71
     5
 72
     1
  1
C
  7
CONVERTER_11
 73
     1
 44
1.20048019207683
  0
MTEXT
  5
246
330
71
100
AcDbEntity
  8
1
 62
     2
100
AcDbMText
 10
52.52551170888273
 20
334.9632089700043
 30
0.0
 40
2.0
 41
0.0
 71
     5
 72
     1
  1
General Information\P- Simplified representation\P- Document excluded from change process\P- Linear dimensions [mm]
  7
CONVERTER_11
 73
     1
 44
1.20048019207683
  0
TEXT
  5
247
330
71
100
AcDbEntity
  8
1
 62
     7
100
AcDbText
 10
124.86352643393
 20
332.0132089700043
 30
0.0
 40
2.5
  1
0704021
 41
0.81
  7
CONVERTER_12
100
AcDbText
  0
MTEXT
  5
248
330
71
100
AcDbEntity
  8
1
 62
     2
100
AcDbMText
 10
124.4635264339302
 20
338.2132089700044
 30
0.0
 40
1.8
 41
0.0
 71
     1
 72
     1
  1
ident.-No.
  7
CONVERTER_11
 73
     1
 44
1.20048019207683
  0
MTEXT
  5
249
330
71
100
AcDbEntity
  8
1
 62
     2
100
AcDbMText
 10
208.689922679003
 20
346.7132089700044
 30
0.0
 40
1.8
 41
0.0
 71
     1
 72
     1
  1
scale
  7
CONVERTER_11
 73
     1
 44
1.20048019207683
  0
MTEXT
  5
24B
330
71
100
AcDbEntity
  8
1
 62
     3
100
AcDbMText
 10
212.0491268198426
 20
340.5132089700045
 30
0.0
 40
2.5
 41
0.0
 71
     8
 72
     1
  1
1:1
  7
CONVERTER_13
 73
     1
 44
1.32052821128451
  0
TEXT
  5
24C
330
71
100
AcDbEntity
  8
1
 62
     7
100
AcDbText
 10
124.4635264339302
 20
340.5132089700043
 30
0.0
 40
2.5
  1
00327000
 41
0.81
  7
CONVERTER_12
100
AcDbText
  0
MTEXT
  5
24E
330
71
100
AcDbEntity
  8
1
 62
     2
100
AcDbMText
 10
124.4635264339302
 20
346.7132089700044
 30
0.0
 40
1.8
 41
0.0
 71
     1
 72
     1
  1
document-No. / RI
  7
CONVERTER_14
 73
     1
 44
1.32052821128451
  0
TEXT
  5
24F
330
71
100
AcDbEntity
  8
1
 62
     3
100
AcDbText
 10
152.2635264339303
 20
332.0132089700043
 30
0.0
 40
2.5
  1
TECDOC 2D_Productdrawing
 41
0.81
  7
CONVERTER_12
100
AcDbText
  0
MTEXT
  5
250
330
71
100
AcDbEntity
  8
1
 62
     2
100
AcDbMText
 10
152.2635264339303
 20
338.2132089700043
 30
0.0
 40
1.8
 41
0.0
 71
     1
 72
     1
  1
document-type
  7
CONVERTER_11
 73
     1
 44
1.20048019207683
  0
MTEXT
  5
251
330
71
100
AcDbEntity
  8
1
 62
     2
100
AcDbMText
 10
182.0899226790031
 20
346.7132089700043
 30
0.0
 40
1.8
 41
0.0
 71
     1
 72
     1
  1
date
  7
CONVERTER_11
 73
     1
 44
1.32052821128451
  0
TEXT
  5
252
330
71
100
AcDbEntity
  8
1
 62
     3
100
AcDbText
 10
182.0899226790031
 20
340.5132089700043
 30
0.0
 40
2.5
  1
16.12.2017
 41
0.81
  7
CONVERTER_12
100
AcDbText
  0
TEXT
  5
253
330
71
100
AcDbEntity
  8
1
 62
     7
100
AcDbText
 10
144.493438652986
 20
340.5132089700043
 30
0.0
 40
2.5
  1
02
 41
0.81
  7
CONVERTER_12
100
AcDbText
  0
TEXT
  5
254
330
71
100
AcDbEntity
  8
1
 62
     7
100
AcDbText
 10
142.337074155944
 20
340.5132089700043
 30
0.0
 40
2.5
  1
/
 41
0.9
  7
CONVERTER_11
100
AcDbText
  0
HATCH
  5
255
330
71
100
AcDbEntity
  8
1
  6
Continuous
 62
     2
100
AcDbHatch
 10
0.0
 20
0.0
 30
0.0
210
0.0
220
0.0
230
1.0
  2
_USER
 70
     0
 71
     1
 91
        1
 92
        1
 93
       12
 72
     1
 10
104.6310271468913
 20
332.865899446195
 11
103.4382344447249
 21
332.865899446195
 72
     1
 10
103.4382344447249
 20
332.865899446195
 11
103.4382344447249
 21
334.0001715550388
 72
     1
 10
103.4382344447249
 20
334.0001715550388
 11
102.3885768668175
 21
334.0001715550388
 72
     1
 10
102.3885768668175
 20
334.0001715550388
 11
102.3885768668175
 21
332.865899446195
 72
     1
 10
102.3885768668175
 20
332.865899446195
 11
101.1957841646509
 21
332.865899446195
 72
     1
 10
101.1957841646509
 20
332.865899446195
 11
101.1957841646509
 21
335.9197089700062
 72
     1
 10
101.1957841646509
 20
335.9197089700062
 11
102.3885768668175
 21
335.9197089700062
 72
     1
 10
102.3885768668175
 20
335.9197089700062
 11
102.3885768668175
 21
334.8508756366716
 72
     1
 10
102.3885768668175
 20
334.8508756366716
 11
103.4382344447249
 21
334.8508756366716
 72
     1
 10
103.4382344447249
 20
334.8508756366716
 11
103.4382344447249
 21
335.9197089700062
 72
     1
 10
103.4382344447249
 20
335.9197089700062
 11
104.6310271468913
 21
335.9197089700062
 72
     1
 10
104.6310271468913
 20
335.9197089700062
 11
104.6310271468913
 21
332.865899446195
 97
       12
330
1C2
330
1C3
330
1AD
330
1AC
330
1AB
330
1BF
330
1AA
330
1C0
330
1C1
330
1A9
330
1A8
330
1A7
 75
     1
 76
     0
 52
45.0
 41
0.1
 77
     0
 78
     1
 53
45.0
 43
0.0
 44
0.0
 45
-0.0707106781186548
 46
0.0707106781186548
 79
     0
 98
        1
 10
0.0
 20
0.0
  0
HATCH
  5
256
330
71
100
AcDbEntity
  8
1
  6
Continuous
 62
     2
100
AcDbHatch
 10
0.0
 20
0.0
 30
0.0
210
0.0
220
0.0
230
1.0
  2
_USER
 70
     0
 71
     1
 91
        1
 92
        1
 93
       12
 72
     1
 10
104.6310271468913
 20
332.865899446195
 11
103.4382344447249
 21
332.865899446195
 72
     1
 10
103.4382344447249
 20
332.865899446195
 11
103.4382344447249
 21
334.0001715550388
 72
     1
 10
103.4382344447249
 20
334.0001715550388
 11
102.3885768668175
 21
334.0001715550388
 72
     1
 10
102.3885768668175
 20
334.0001715550388
 11
102.3885768668175
 21
332.865899446195
 72
     1
 10
102.3885768668175
 20
332.865899446195
 11
101.1957841646509
 21
332.865899446195
 72
     1
 10
101.1957841646509
 20
332.865899446195
 11
101.1957841646509
 21
335.9197089700062
 72
     1
 10
101.1957841646509
 20
335.9197089700062
 11
102.3885768668175
 21
335.9197089700062
 72
     1
 10
102.3885768668175
 20
335.9197089700062
 11
102.3885768668175
 21
334.8508756366716
 72
     1
 10
102.3885768668175
 20
334.8508756366716
 11
103.4382344447249
 21
334.8508756366716
 72
     1
 10
103.4382344447249
 20
334.8508756366716
 11
103.4382344447249
 21
335.9197089700062
 72
     1
 10
103.4382344447249
 20
335.9197089700062
 11
104.6310271468913
 21
335.9197089700062
 72
     1
 10
104.6310271468913
 20
335.9197089700062
 11
104.6310271468913
 21
332.865899446195
 97
       12
330
1C2
330
1C3
330
1AD
330
1AC
330
1AB
330
1BF
330
1AA
330
1C0
330
1C1
330
1A9
330
1A8
330
1A7
 75
     1
 76
     0
 52
45.0
 41
0.1
 77
     0
 78
     1
 53
45.0
 43
0.0
 44
0.0
 45
-0.0707106781186548
 46
0.0707106781186548
 79
     0
 98
        1
 10
0.0
 20
0.0
  0
HATCH
  5
257
330
71
100
AcDbEntity
  8
1
  6
Continuous
 62
     2
100
AcDbHatch
 10
0.0
 20
0.0
 30
0.0
210
0.0
220
0.0
230
1.0
  2
_USER
 70
     0
 71
     1
 91
        1
 92
        1
 93
       10
 72
     1
 10
106.8733264960796
 20
331.2517429836267
 11
105.6328220858268
 21
332.5605184938318
 72
     1
 10
105.6328220858268
 20
332.5605184938318
 11
104.4400293836592
 21
332.5605184938318
 72
     1
 10
104.4400293836592
 20
332.5605184938318
 11
104.4400293836592
 21
329.5067089700207
 72
     1
 10
104.4400293836592
 20
329.5067089700207
 11
105.6328220858268
 21
329.5067089700207
 72
     1
 10
105.6328220858268
 20
329.5067089700207
 11
105.6328220858268
 21
330.8154844802253
 72
     1
 10
105.6328220858268
 20
330.8154844802253
 11
106.8733264960796
 21
329.5067089700207
 72
     1
 10
106.8733264960796
 20
329.5067089700207
 11
108.066119198246
 21
329.5067089700207
 72
     1
 10
108.066119198246
 20
329.5067089700207
 11
108.066119198246
 21
332.5605184938318
 72
     1
 10
108.066119198246
 20
332.5605184938318
 11
106.8733264960796
 21
332.5605184938318
 72
     1
 10
106.8733264960796
 20
332.5605184938318
 11
106.8733264960796
 21
331.2517429836267
 97
       10
330
1D0
330
1A0
330
19F
330
1A2
330
1CB
330
1CC
330
1A1
330
1CD
330
1CE
330
1CF
 75
     1
 76
     0
 52
45.0
 41
0.1
 77
     0
 78
     1
 53
45.0
 43
0.0
 44
0.0
 45
-0.0707106781186548
 46
0.0707106781186548
 79
     0
 98
        1
 10
0.0
 20
0.0
  0
HATCH
  5
258
330
71
100
AcDbEntity
  8
1
  6
Continuous
 62
     2
100
AcDbHatch
 10
0.0
 20
0.0
 30
0.0
210
0.0
220
0.0
230
1.0
  2
_USER
 70
     0
 71
     1
 91
        1
 92
        1
 93
       10
 72
     1
 10
106.8733264960796
 20
331.2517429836267
 11
105.6328220858268
 21
332.5605184938318
 72
     1
 10
105.6328220858268
 20
332.5605184938318
 11
104.4400293836592
 21
332.5605184938318
 72
     1
 10
104.4400293836592
 20
332.5605184938318
 11
104.4400293836592
 21
329.5067089700207
 72
     1
 10
104.4400293836592
 20
329.5067089700207
 11
105.6328220858268
 21
329.5067089700207
 72
     1
 10
105.6328220858268
 20
329.5067089700207
 11
105.6328220858268
 21
330.8154844802253
 72
     1
 10
105.6328220858268
 20
330.8154844802253
 11
106.8733264960796
 21
329.5067089700207
 72
     1
 10
106.8733264960796
 20
329.5067089700207
 11
108.066119198246
 21
329.5067089700207
 72
     1
 10
108.066119198246
 20
329.5067089700207
 11
108.066119198246
 21
332.5605184938318
 72
     1
 10
108.066119198246
 20
332.5605184938318
 11
106.8733264960796
 21
332.5605184938318
 72
     1
 10
106.8733264960796
 20
332.5605184938318
 11
106.8733264960796
 21
331.2517429836267
 97
       10
330
1D0
330
1A0
330
19F
330
1A2
330
1CB
330
1CC
330
1A1
330
1CD
330
1CE
330
1CF
 75
     1
 76
     0
 52
45.0
 41
0.1
 77
     0
 78
     1
 53
45.0
 43
0.0
 44
0.0
 45
-0.0707106781186548
 46
0.0707106781186548
 79
     0
 98
        1
 10
0.0
 20
0.0
  0
HATCH
  5
259
330
71
100
AcDbEntity
  8
1
  6
Continuous
 62
     2
100
AcDbHatch
 10
0.0
 20
0.0
 30
0.0
210
0.0
220
0.0
230
1.0
  2
_USER
 70
     0
 71
     1
 91
        1
 92
        1
 93
       10
 72
     1
 10
112.1217653164994
 20
334.610933459801
 11
110.8812609062454
 21
335.9197089700062
 72
     1
 10
110.8812609062454
 20
335.9197089700062
 11
109.6884682040788
 21
335.9197089700062
 72
     1
 10
109.6884682040788
 20
335.9197089700062
 11
109.6884682040788
 21
332.865899446195
 72
     1
 10
109.6884682040788
 20
332.865899446195
 11
110.8812609062454
 21
332.865899446195
 72
     1
 10
110.8812609062454
 20
332.865899446195
 11
110.8812609062454
 21
334.1746749563997
 72
     1
 10
110.8812609062454
 20
334.1746749563997
 11
112.1217653164994
 21
332.865899446195
 72
     1
 10
112.1217653164994
 20
332.865899446195
 11
113.314558018666
 21
332.865899446195
 72
     1
 10
113.314558018666
 20
332.865899446195
 11
113.314558018666
 21
335.9197089700062
 72
     1
 10
113.314558018666
 20
335.9197089700062
 11
112.1217653164994
 21
335.9197089700062
 72
     1
 10
112.1217653164994
 20
335.9197089700062
 11
112.1217653164994
 21
334.610933459801
 97
       10
330
1D5
330
19D
330
19C
330
1D6
330
19B
330
1D1
330
1D2
330
1D3
330
1D4
330
19E
 75
     1
 76
     0
 52
45.0
 41
0.1
 77
     0
 78
     1
 53
45.0
 43
0.0
 44
0.0
 45
-0.0707106781186548
 46
0.0707106781186548
 79
     0
 98
        1
 10
0.0
 20
0.0
  0
HATCH
  5
25A
330
71
100
AcDbEntity
  8
1
  6
Continuous
 62
     2
100
AcDbHatch
 10
0.0
 20
0.0
 30
0.0
210
0.0
220
0.0
230
1.0
  2
_USER
 70
     0
 71
     1
 91
        1
 92
        1
 93
       10
 72
     1
 10
112.1217653164994
 20
334.610933459801
 11
110.8812609062454
 21
335.9197089700062
 72
     1
 10
110.8812609062454
 20
335.9197089700062
 11
109.6884682040788
 21
335.9197089700062
 72
     1
 10
109.6884682040788
 20
335.9197089700062
 11
109.6884682040788
 21
332.865899446195
 72
     1
 10
109.6884682040788
 20
332.865899446195
 11
110.8812609062454
 21
332.865899446195
 72
     1
 10
110.8812609062454
 20
332.865899446195
 11
110.8812609062454
 21
334.1746749563997
 72
     1
 10
110.8812609062454
 20
334.1746749563997
 11
112.1217653164994
 21
332.865899446195
 72
     1
 10
112.1217653164994
 20
332.865899446195
 11
113.314558018666
 21
332.865899446195
 72
     1
 10
113.314558018666
 20
332.865899446195
 11
113.314558018666
 21
335.9197089700062
 72
     1
 10
113.314558018666
 20
335.9197089700062
 11
112.1217653164994
 21
335.9197089700062
 72
     1
 10
112.1217653164994
 20
335.9197089700062
 11
112.1217653164994
 21
334.610933459801
 97
       10
330
1D5
330
19D
330
19C
330
1D6
330
19B
330
1D1
330
1D2
330
1D3
330
1D4
330
19E
 75
     1
 76
     0
 52
45.0
 41
0.1
 77
     0
 78
     1
 53
45.0
 43
0.0
 44
0.0
 45
-0.0707106781186548
 46
0.0707106781186548
 79
     0
 98
        1
 10
0.0
 20
0.0
  0
HATCH
  5
25B
330
71
100
AcDbEntity
  8
1
  6
Continuous
 62
     2
100
AcDbHatch
 10
0.0
 20
0.0
 30
0.0
210
0.0
220
0.0
230
1.0
  2
_USER
 70
     0
 71
     1
 91
        1
 92
        1
 93
        8
 72
     1
 10
111.0242450996199
 20
332.5605184938318
 11
108.2092543225062
 21
332.5605184938318
 72
     1
 10
108.2092543225062
 20
332.5605184938318
 11
108.2092543225062
 21
331.7752531877082
 72
     1
 10
108.2092543225062
 20
331.7752531877082
 11
109.0203533599809
 21
331.7752531877082
 72
     1
 10
109.0203533599809
 20
331.7752531877082
 11
109.0203533599809
 21
329.5067089700207
 72
     1
 10
109.0203533599809
 20
329.5067089700207
 11
110.2131460621474
 21
329.5067089700207
 72
     1
 10
110.2131460621474
 20
329.5067089700207
 11
110.2131460621474
 21
331.7752531877082
 72
     1
 10
110.2131460621474
 20
331.7752531877082
 11
111.0242450996199
 21
331.7752531877082
 72
     1
 10
111.0242450996199
 20
331.7752531877082
 11
111.0242450996199
 21
332.5605184938318
 97
        8
330
197
330
1D7
330
196
330
1D8
330
1D9
330
19A
330
199
330
198
 75
     1
 76
     0
 52
45.0
 41
0.1
 77
     0
 78
     1
 53
45.0
 43
0.0
 44
0.0
 45
-0.0707106781186548
 46
0.0707106781186548
 79
     0
 98
        1
 10
0.0
 20
0.0
  0
HATCH
  5
25C
330
71
100
AcDbEntity
  8
1
  6
Continuous
 62
     2
100
AcDbHatch
 10
0.0
 20
0.0
 30
0.0
210
0.0
220
0.0
230
1.0
  2
_USER
 70
     0
 71
     1
 91
        1
 92
        1
 93
        8
 72
     1
 10
111.0242450996199
 20
332.5605184938318
 11
108.2092543225062
 21
332.5605184938318
 72
     1
 10
108.2092543225062
 20
332.5605184938318
 11
108.2092543225062
 21
331.7752531877082
 72
     1
 10
108.2092543225062
 20
331.7752531877082
 11
109.0203533599809
 21
331.7752531877082
 72
     1
 10
109.0203533599809
 20
331.7752531877082
 11
109.0203533599809
 21
329.5067089700207
 72
     1
 10
109.0203533599809
 20
329.5067089700207
 11
110.2131460621474
 21
329.5067089700207
 72
     1
 10
110.2131460621474
 20
329.5067089700207
 11
110.2131460621474
 21
331.7752531877082
 72
     1
 10
110.2131460621474
 20
331.7752531877082
 11
111.0242450996199
 21
331.7752531877082
 72
     1
 10
111.0242450996199
 20
331.7752531877082
 11
111.0242450996199
 21
332.5605184938318
 97
        8
330
197
330
1D7
330
196
330
1D8
330
1D9
330
19A
330
199
330
198
 75
     1
 76
     0
 52
45.0
 41
0.1
 77
     0
 78
     1
 53
45.0
 43
0.0
 44
0.0
 45
-0.0707106781186548
 46
0.0707106781186548
 79
     0
 98
        1
 10
0.0
 20
0.0
  0
HATCH
  5
25D
330
71
100
AcDbEntity
  8
1
  6
Continuous
 62
     2
100
AcDbHatch
 10
0.0
 20
0.0
 30
0.0
210
0.0
220
0.0
230
1.0
  2
_USER
 70
     0
 71
     1
 91
        2
 92
        1
 93
        8
 72
     1
 10
113.1626725555668
 20
329.5067089700207
 11
112.9511925020911
 21
330.0476695142386
 72
     1
 10
112.9511925020911
 20
330.0476695142386
 11
111.8187509254173
 21
330.0476695142386
 72
     1
 10
111.8187509254173
 20
330.0476695142386
 11
111.6072708719414
 21
329.5067089700207
 72
     1
 10
111.6072708719414
 20
329.5067089700207
 11
110.3667664616885
 21
329.5067089700207
 72
     1
 10
110.3667664616885
 20
329.5067089700207
 11
111.7647195086278
 21
332.5605184938318
 72
     1
 10
111.7647195086278
 20
332.5605184938318
 11
113.0052239188805
 21
332.5605184938318
 72
     1
 10
113.0052239188805
 20
332.5605184938318
 11
114.4031769658208
 21
329.5067089700207
 72
     1
 10
114.4031769658208
 20
329.5067089700207
 11
113.1626725555668
 21
329.5067089700207
 97
        8
330
1DB
330
1DC
330
193
330
1DD
330
192
330
195
330
1DA
330
194
 92
       16
 93
        3
 72
     1
 10
112.0848064765623
 20
330.7282327795452
 11
112.3849717137547
 21
331.4960477455319
 72
     1
 10
112.3849717137547
 20
331.4960477455319
 11
112.6851369509448
 21
330.7282327795452
 72
     1
 10
112.6851369509448
 20
330.7282327795452
 11
112.0848064765623
 21
330.7282327795452
 97
        3
330
191
330
1DF
330
1DE
 75
     1
 76
     0
 52
45.0
 41
0.1
 77
     0
 78
     1
 53
45.0
 43
0.0
 44
0.0
 45
-0.0707106781186548
 46
0.0707106781186548
 79
     0
 98
        1
 10
0.0
 20
0.0
  0
HATCH
  5
25E
330
71
100
AcDbEntity
  8
1
  6
Continuous
 62
     2
100
AcDbHatch
 10
0.0
 20
0.0
 30
0.0
210
0.0
220
0.0
230
1.0
  2
_USER
 70
     0
 71
     1
 91
        2
 92
        1
 93
        8
 72
     1
 10
113.1626725555668
 20
329.5067089700207
 11
112.9511925020911
 21
330.0476695142386
 72
     1
 10
112.9511925020911
 20
330.0476695142386
 11
111.8187509254173
 21
330.0476695142386
 72
     1
 10
111.8187509254173
 20
330.0476695142386
 11
111.6072708719414
 21
329.5067089700207
 72
     1
 10
111.6072708719414
 20
329.5067089700207
 11
110.3667664616885
 21
329.5067089700207
 72
     1
 10
110.3667664616885
 20
329.5067089700207
 11
111.7647195086278
 21
332.5605184938318
 72
     1
 10
111.7647195086278
 20
332.5605184938318
 11
113.0052239188805
 21
332.5605184938318
 72
     1
 10
113.0052239188805
 20
332.5605184938318
 11
114.4031769658208
 21
329.5067089700207
 72
     1
 10
114.4031769658208
 20
329.5067089700207
 11
113.1626725555668
 21
329.5067089700207
 97
        8
330
1DB
330
1DC
330
193
330
1DD
330
192
330
195
330
1DA
330
194
 92
       16
 93
        3
 72
     1
 10
112.0848064765623
 20
330.7282327795452
 11
112.3849717137547
 21
331.4960477455319
 72
     1
 10
112.3849717137547
 20
331.4960477455319
 11
112.6851369509448
 21
330.7282327795452
 72
     1
 10
112.6851369509448
 20
330.7282327795452
 11
112.0848064765623
 21
330.7282327795452
 97
        3
330
191
330
1DF
330
1DE
 75
     1
 76
     0
 52
45.0
 41
0.1
 77
     0
 78
     1
 53
45.0
 43
0.0
 44
0.0
 45
-0.0707106781186548
 46
0.0707106781186548
 79
     0
 98
        1
 10
0.0
 20
0.0
  0
HATCH
  5
25F
330
71
100
AcDbEntity
  8
1
  6
Continuous
 62
     2
100
AcDbHatch
 10
0.0
 20
0.0
 30
0.0
210
0.0
220
0.0
230
1.0
  2
_USER
 70
     0
 71
     1
 91
        1
 92
        1
 93
        4
 72
     1
 10
114.7936209693528
 20
332.865899446195
 11
113.5531165590999
 21
332.865899446195
 72
     1
 10
113.5531165590999
 20
332.865899446195
 11
113.5531165590999
 21
335.9197089700062
 72
     1
 10
113.5531165590999
 20
335.9197089700062
 11
114.7936209693528
 21
335.9197089700062
 72
     1
 10
114.7936209693528
 20
335.9197089700062
 11
114.7936209693528
 21
332.865899446195
 97
        4
330
18E
330
190
330
1E0
330
18F
 75
     1
 76
     0
 52
45.0
 41
0.1
 77
     0
 78
     1
 53
45.0
 43
0.0
 44
0.0
 45
-0.0707106781186548
 46
0.0707106781186548
 79
     0
 98
        1
 10
0.0
 20
0.0
  0
HATCH
  5
260
330
71
100
AcDbEntity
  8
1
  6
Continuous
 62
     2
100
AcDbHatch
 10
0.0
 20
0.0
 30
0.0
210
0.0
220
0.0
230
1.0
  2
_USER
 70
     0
 71
     1
 91
        1
 92
        1
 93
        4
 72
     1
 10
114.7936209693528
 20
332.865899446195
 11
113.5531165590999
 21
332.865899446195
 72
     1
 10
113.5531165590999
 20
332.865899446195
 11
113.5531165590999
 21
335.9197089700062
 72
     1
 10
113.5531165590999
 20
335.9197089700062
 11
114.7936209693528
 21
335.9197089700062
 72
     1
 10
114.7936209693528
 20
335.9197089700062
 11
114.7936209693528
 21
332.865899446195
 97
        4
330
18E
330
190
330
1E0
330
18F
 75
     1
 76
     0
 52
45.0
 41
0.1
 77
     0
 78
     1
 53
45.0
 43
0.0
 44
0.0
 45
-0.0707106781186548
 46
0.0707106781186548
 79
     0
 98
        1
 10
0.0
 20
0.0
  0
HATCH
  5
261
330
71
100
AcDbEntity
  8
1
  6
Continuous
 62
     2
100
AcDbHatch
 10
0.0
 20
0.0
 30
0.0
210
0.0
220
0.0
230
1.0
  2
_USER
 70
     0
 71
     1
 91
        1
 92
        1
 93
       12
 72
     1
 10
119.0161071350236
 20
335.9197089700062
 11
117.7135775042571
 21
334.44675843997
 72
     1
 10
117.7135775042571
 20
334.44675843997
 11
119.1115305511974
 21
332.865899446195
 72
     1
 10
119.1115305511974
 20
332.865899446195
 11
117.7088063334491
 21
332.865899446195
 72
     1
 10
117.7088063334491
 20
332.865899446195
 11
117.0122153953836
 21
333.6536312314887
 72
     1
 10
117.0122153953836
 20
333.6536312314887
 11
116.3156244573179
 21
332.865899446195
 72
     1
 10
116.3156244573179
 20
332.865899446195
 11
114.9129002395696
 21
332.865899446195
 72
     1
 10
114.9129002395696
 20
332.865899446195
 11
116.3108532865099
 21
334.44675843997
 72
     1
 10
116.3108532865099
 20
334.44675843997
 11
115.0083236557425
 21
335.9197089700062
 72
     1
 10
115.0083236557425
 20
335.9197089700062
 11
116.4110478734918
 21
335.9197089700062
 72
     1
 10
116.4110478734918
 20
335.9197089700062
 11
117.0122153953836
 21
335.2398856484507
 72
     1
 10
117.0122153953836
 20
335.2398856484507
 11
117.6133829172763
 21
335.9197089700062
 72
     1
 10
117.6133829172763
 20
335.9197089700062
 11
119.0161071350236
 21
335.9197089700062
 97
       12
330
189
330
188
330
187
330
1E4
330
1E5
330
1E1
330
1E2
330
18D
330
18C
330
18B
330
18A
330
1E3
 75
     1
 76
     0
 52
45.0
 41
0.1
 77
     0
 78
     1
 53
45.0
 43
0.0
 44
0.0
 45
-0.0707106781186548
 46
0.0707106781186548
 79
     0
 98
        1
 10
0.0
 20
0.0
  0
HATCH
  5
262
330
71
100
AcDbEntity
  8
1
  6
Continuous
 62
     2
100
AcDbHatch
 10
0.0
 20
0.0
 30
0.0
210
0.0
220
0.0
230
1.0
  2
_USER
 70
     0
 71
     1
 91
        1
 92
        1
 93
       12
 72
     1
 10
119.0161071350236
 20
335.9197089700062
 11
117.7135775042571
 21
334.44675843997
 72
     1
 10
117.7135775042571
 20
334.44675843997
 11
119.1115305511974
 21
332.865899446195
 72
     1
 10
119.1115305511974
 20
332.865899446195
 11
117.7088063334491
 21
332.865899446195
 72
     1
 10
117.7088063334491
 20
332.865899446195
 11
117.0122153953836
 21
333.6536312314887
 72
     1
 10
117.0122153953836
 20
333.6536312314887
 11
116.3156244573179
 21
332.865899446195
 72
     1
 10
116.3156244573179
 20
332.865899446195
 11
114.9129002395696
 21
332.865899446195
 72
     1
 10
114.9129002395696
 20
332.865899446195
 11
116.3108532865099
 21
334.44675843997
 72
     1
 10
116.3108532865099
 20
334.44675843997
 11
115.0083236557425
 21
335.9197089700062
 72
     1
 10
115.0083236557425
 20
335.9197089700062
 11
116.4110478734918
 21
335.9197089700062
 72
     1
 10
116.4110478734918
 20
335.9197089700062
 11
117.0122153953836
 21
335.2398856484507
 72
     1
 10
117.0122153953836
 20
335.2398856484507
 11
117.6133829172763
 21
335.9197089700062
 72
     1
 10
117.6133829172763
 20
335.9197089700062
 11
119.0161071350236
 21
335.9197089700062
 97
       12
330
189
330
188
330
187
330
1E4
330
1E5
330
1E1
330
1E2
330
18D
330
18C
330
18B
330
18A
330
1E3
 75
     1
 76
     0
 52
45.0
 41
0.1
 77
     0
 78
     1
 53
45.0
 43
0.0
 44
0.0
 45
-0.0707106781186548
 46
0.0707106781186548
 79
     0
 98
        1
 10
0.0
 20
0.0
  0
HATCH
  5
263
330
71
100
AcDbEntity
  8
1
  6
Continuous
 62
     2
100
AcDbHatch
 10
0.0
 20
0.0
 30
0.0
210
0.0
220
0.0
230
1.0
  2
_USER
 70
     0
 71
     1
 91
        2
 92
        1
 93
        6
 72
     1
 10
99.99837172087754
 20
333.8089776873388
 11
99.23960413309726
 21
333.8089776873388
 72
     1
 10
99.23960413309726
 20
333.8089776873388
 11
99.23960413309726
 21
332.865899446195
 72
     1
 10
99.23960413309726
 20
332.865899446195
 11
97.99909972284314
 21
332.865899446195
 72
     1
 10
97.99909972284314
 20
332.865899446195
 11
97.99909972284314
 21
335.9197089700062
 72
     1
 10
97.99909972284314
 20
335.9197089700062
 11
99.99837172087754
 21
335.9197089700062
 72
     2
 10
99.99837172087754
 20
334.8643433286725
 40
1.055365641333651
 50
270.0
 51
450.0
 73
     0
 97
        6
330
1B1
330
1B0
330
1BD
330
1BC
330
1B2
330
202
 92
       16
 93
        4
 72
     2
 10
99.55689919463916
 20
334.9037392998951
 40
0.3528638246712035
 50
270.0
 51
450.0
 73
     1
 72
     1
 10
99.55689919463916
 20
335.2566031245661
 11
99.23960413309726
 21
335.2566031245661
 72
     1
 10
99.23960413309726
 20
335.2566031245661
 11
99.23960413309726
 21
334.5508754752239
 72
     1
 10
99.23960413309726
 20
334.5508754752239
 11
99.55689919463916
 21
334.5508754752239
 97
        4
330
216
330
1AE
330
1BE
330
1AF
 75
     1
 76
     0
 52
45.0
 41
0.1
 77
     0
 78
     1
 53
45.0
 43
0.0
 44
0.0
 45
-0.0707106781186548
 46
0.0707106781186548
 79
     0
 98
        1
 10
0.0
 20
0.0
  0
HATCH
  5
264
330
71
100
AcDbEntity
  8
1
  6
Continuous
 62
     2
100
AcDbHatch
 10
0.0
 20
0.0
 30
0.0
210
0.0
220
0.0
230
1.0
  2
_USER
 70
     0
 71
     1
 91
        2
 92
        1
 93
        6
 72
     1
 10
99.99837172087754
 20
333.8089776873388
 11
99.23960413309726
 21
333.8089776873388
 72
     1
 10
99.23960413309726
 20
333.8089776873388
 11
99.23960413309726
 21
332.865899446195
 72
     1
 10
99.23960413309726
 20
332.865899446195
 11
97.99909972284314
 21
332.865899446195
 72
     1
 10
97.99909972284314
 20
332.865899446195
 11
97.99909972284314
 21
335.9197089700062
 72
     1
 10
97.99909972284314
 20
335.9197089700062
 11
99.99837172087754
 21
335.9197089700062
 72
     2
 10
99.99837172087754
 20
334.8643433286725
 40
1.055365641333651
 50
270.0
 51
450.0
 73
     0
 97
        6
330
1B1
330
1B0
330
1BD
330
1BC
330
1B2
330
202
 92
       16
 93
        4
 72
     2
 10
99.55689919463916
 20
334.9037392998951
 40
0.3528638246712035
 50
270.0
 51
450.0
 73
     1
 72
     1
 10
99.55689919463916
 20
335.2566031245661
 11
99.23960413309726
 21
335.2566031245661
 72
     1
 10
99.23960413309726
 20
335.2566031245661
 11
99.23960413309726
 21
334.5508754752239
 72
     1
 10
99.23960413309726
 20
334.5508754752239
 11
99.55689919463916
 21
334.5508754752239
 97
        4
330
216
330
1AE
330
1BE
330
1AF
 75
     1
 76
     0
 52
45.0
 41
0.1
 77
     0
 78
     1
 53
45.0
 43
0.0
 44
0.0
 45
-0.0707106781186548
 46
0.0707106781186548
 79
     0
 98
        1
 10
0.0
 20
0.0
  0
HATCH
  5
265
330
71
100
AcDbEntity
  8
1
  6
Continuous
 62
     2
100
AcDbHatch
 10
0.0
 20
0.0
 30
0.0
210
0.0
220
0.0
230
1.0
  2
_USER
 70
     0
 71
     1
 91
        2
 92
        1
 93
        4
 72
     2
 10
102.5549144692367
 20
330.4950387216233
 40
2.065479772208492
 50
62.45185182430527
 51
117.5481481756678
 73
     1
 72
     2
 10
102.2739745774034
 20
331.033613731926
 40
1.458034083651515
 50
117.5481481756619
 51
242.451851824337
 73
     1
 72
     2
 10
102.5549144692367
 20
331.5721887422293
 40
2.06547977220849
 50
242.4518518243395
 51
297.5481481756875
 73
     1
 72
     2
 10
102.83585436107
 20
331.033613731926
 40
1.458034083651977
 50
297.5481481757016
 51
422.4518518242994
 73
     1
 97
        4
330
20E
330
20D
330
20F
330
20C
 92
       16
 93
        4
 72
     2
 10
102.3551744328902
 20
331.033613731926
 40
0.7717997786797618
 50
321.8795802028456
 51
398.120419797151
 73
     1
 72
     2
 10
102.5549144692367
 20
331.1903449100465
 40
0.5179085730132887
 50
38.120419797148
 51
141.8795802028598
 73
     1
 72
     2
 10
102.7546545055828
 20
331.033613731926
 40
0.771799778679492
 50
141.8795802028353
 51
218.120419797168
 73
     1
 72
     2
 10
102.5549144692367
 20
330.876882553806
 40
0.5179085730137641
 50
218.1204197971947
 51
321.8795802027976
 73
     1
 97
        4
330
22A
330
227
330
228
330
229
 75
     1
 76
     0
 52
45.0
 41
0.1
 77
     0
 78
     1
 53
45.0
 43
0.0
 44
0.0
 45
-0.0707106781186548
 46
0.0707106781186548
 79
     0
 98
        1
 10
0.0
 20
0.0
  0
HATCH
  5
266
330
71
100
AcDbEntity
  8
1
  6
Continuous
 62
     2
100
AcDbHatch
 10
0.0
 20
0.0
 30
0.0
210
0.0
220
0.0
230
1.0
  2
_USER
 70
     0
 71
     1
 91
        2
 92
        1
 93
        4
 72
     2
 10
102.5549144692367
 20
330.4950387216233
 40
2.065479772208492
 50
62.45185182430527
 51
117.5481481756678
 73
     1
 72
     2
 10
102.2739745774034
 20
331.033613731926
 40
1.458034083651515
 50
117.5481481756619
 51
242.451851824337
 73
     1
 72
     2
 10
102.5549144692367
 20
331.5721887422293
 40
2.06547977220849
 50
242.4518518243395
 51
297.5481481756875
 73
     1
 72
     2
 10
102.83585436107
 20
331.033613731926
 40
1.458034083651977
 50
297.5481481757016
 51
422.4518518242994
 73
     1
 97
        4
330
20E
330
20D
330
20F
330
20C
 92
       16
 93
        4
 72
     2
 10
102.3551744328902
 20
331.033613731926
 40
0.7717997786797618
 50
321.8795802028456
 51
398.120419797151
 73
     1
 72
     2
 10
102.5549144692367
 20
331.1903449100465
 40
0.5179085730132887
 50
38.120419797148
 51
141.8795802028598
 73
     1
 72
     2
 10
102.7546545055828
 20
331.033613731926
 40
0.771799778679492
 50
141.8795802028353
 51
218.120419797168
 73
     1
 72
     2
 10
102.5549144692367
 20
330.876882553806
 40
0.5179085730137641
 50
218.1204197971947
 51
321.8795802027976
 73
     1
 97
        4
330
22A
330
227
330
228
330
229
 75
     1
 76
     0
 52
45.0
 41
0.1
 77
     0
 78
     1
 53
45.0
 43
0.0
 44
0.0
 45
-0.0707106781186548
 46
0.0707106781186548
 79
     0
 98
        1
 10
0.0
 20
0.0
  0
HATCH
  5
267
330
71
100
AcDbEntity
  8
1
  6
Continuous
 62
     2
100
AcDbHatch
 10
0.0
 20
0.0
 30
0.0
210
0.0
220
0.0
230
1.0
  2
_USER
 70
     0
 71
     1
 91
        2
 92
        1
 93
       12
 72
     1
 10
109.4499096636459
 20
335.2216953645632
 11
108.1139818372183
 21
335.2216953645632
 72
     1
 10
108.1139818372183
 20
335.2216953645632
 11
108.1139818372183
 21
334.7418110108215
 72
     1
 10
108.1139818372183
 20
334.7418110108215
 11
109.4499096636459
 21
334.7418110108215
 72
     1
 10
109.4499096636459
 20
334.7418110108215
 11
109.4499096636459
 21
334.0437974053792
 72
     1
 10
109.4499096636459
 20
334.0437974053792
 11
108.1139818372183
 21
334.0437974053792
 72
     1
 10
108.1139818372183
 20
334.0437974053792
 11
108.1139818372183
 21
333.5639130516375
 72
     1
 10
108.1139818372183
 20
333.5639130516375
 11
109.4499096636459
 21
333.5639130516375
 72
     1
 10
109.4499096636459
 20
333.5639130516375
 11
109.4499096636459
 21
332.865899446195
 72
     1
 10
109.4499096636459
 20
332.865899446195
 11
106.2995899398649
 21
332.865899446195
 72
     2
 10
106.2995899398649
 20
334.3928042081003
 40
1.526904761905882
 50
90.0
 51
270.0
 73
     0
 72
     1
 10
106.2995899398649
 20
335.9197089700062
 11
109.4499096636459
 21
335.9197089700062
 72
     1
 10
109.4499096636459
 20
335.9197089700062
 11
109.4499096636459
 21
335.2216953645632
 97
       12
330
1C5
330
217
330
1C6
330
1C7
330
1C8
330
1C9
330
1A6
330
1A5
330
1A4
330
1A3
330
1CA
330
1C4
 92
       16
 93
        4
 72
     2
 10
106.5158619500301
 20
334.5495353862208
 40
0.5179085730136048
 50
38.12041979713654
 51
141.8795802028431
 73
     1
 72
     2
 10
106.7156019863764
 20
334.3928042081003
 40
0.7717997786796054
 50
141.8795802028365
 51
218.1204197971602
 73
     1
 72
     2
 10
106.5158619500301
 20
334.2360730299799
 40
0.51790857301337
 50
218.1204197971569
 51
321.8795802028635
 73
     1
 72
     2
 10
106.316121913684
 20
334.3928042081003
 40
0.7717997786796486
 50
321.8795802028444
 51
398.1204197971589
 73
     1
 97
        4
330
211
330
210
330
20B
330
20A
 75
     1
 76
     0
 52
45.0
 41
0.1
 77
     0
 78
     1
 53
45.0
 43
0.0
 44
0.0
 45
-0.0707106781186548
 46
0.0707106781186548
 79
     0
 98
        1
 10
0.0
 20
0.0
  0
HATCH
  5
268
330
71
100
AcDbEntity
  8
1
  6
Continuous
 62
     2
100
AcDbHatch
 10
0.0
 20
0.0
 30
0.0
210
0.0
220
0.0
230
1.0
  2
_USER
 70
     0
 71
     1
 91
        2
 92
        1
 93
       12
 72
     1
 10
109.4499096636459
 20
335.2216953645632
 11
108.1139818372183
 21
335.2216953645632
 72
     1
 10
108.1139818372183
 20
335.2216953645632
 11
108.1139818372183
 21
334.7418110108215
 72
     1
 10
108.1139818372183
 20
334.7418110108215
 11
109.4499096636459
 21
334.7418110108215
 72
     1
 10
109.4499096636459
 20
334.7418110108215
 11
109.4499096636459
 21
334.0437974053792
 72
     1
 10
109.4499096636459
 20
334.0437974053792
 11
108.1139818372183
 21
334.0437974053792
 72
     1
 10
108.1139818372183
 20
334.0437974053792
 11
108.1139818372183
 21
333.5639130516375
 72
     1
 10
108.1139818372183
 20
333.5639130516375
 11
109.4499096636459
 21
333.5639130516375
 72
     1
 10
109.4499096636459
 20
333.5639130516375
 11
109.4499096636459
 21
332.865899446195
 72
     1
 10
109.4499096636459
 20
332.865899446195
 11
106.2995899398649
 21
332.865899446195
 72
     2
 10
106.2995899398649
 20
334.3928042081003
 40
1.526904761905882
 50
90.0
 51
270.0
 73
     0
 72
     1
 10
106.2995899398649
 20
335.9197089700062
 11
109.4499096636459
 21
335.9197089700062
 72
     1
 10
109.4499096636459
 20
335.9197089700062
 11
109.4499096636459
 21
335.2216953645632
 97
       12
330
1C5
330
217
330
1C6
330
1C7
330
1C8
330
1C9
330
1A6
330
1A5
330
1A4
330
1A3
330
1CA
330
1C4
 92
       16
 93
        4
 72
     2
 10
106.5158619500301
 20
334.5495353862208
 40
0.5179085730136048
 50
38.12041979713654
 51
141.8795802028431
 73
     1
 72
     2
 10
106.7156019863764
 20
334.3928042081003
 40
0.7717997786796054
 50
141.8795802028365
 51
218.1204197971602
 73
     1
 72
     2
 10
106.5158619500301
 20
334.2360730299799
 40
0.51790857301337
 50
218.1204197971569
 51
321.8795802028635
 73
     1
 72
     2
 10
106.316121913684
 20
334.3928042081003
 40
0.7717997786796486
 50
321.8795802028444
 51
398.1204197971589
 73
     1
 97
        4
330
211
330
210
330
20B
330
20A
 75
     1
 76
     0
 52
45.0
 41
0.1
 77
     0
 78
     1
 53
45.0
 43
0.0
 44
0.0
 45
-0.0707106781186548
 46
0.0707106781186548
 79
     0
 98
        1
 10
0.0
 20
0.0
  0
HATCH
  5
269
330
71
100
AcDbEntity
  8
1
  6
Continuous
 62
     2
100
AcDbHatch
 10
0.0
 20
0.0
 30
0.0
210
0.0
220
0.0
230
1.0
  2
_USER
 70
     0
 71
     1
 91
        4
 92
        1
 93
        8
 72
     1
 10
97.52198264197634
 20
335.4954643546042
 11
97.52198264197634
 21
329.930953585404
 72
     2
 10
97.09773802659245
 20
329.930953585404
 40
0.4242446153832589
 50
0.0
 51
90.0
 73
     0
 72
     1
 10
97.09773802659245
 20
329.5067089700207
 11
91.62442593587565
 21
329.5067089700207
 72
     2
 10
91.62442593587565
 20
329.930953585404
 40
0.4242446153828041
 50
90.0
 51
180.0
 73
     0
 72
     1
 10
91.20018132049285
 20
329.930953585404
 11
91.20018132049285
 21
335.4954643546042
 72
     2
 10
91.62442593587565
 20
335.4954643546042
 40
0.4242446153838841
 50
180.0
 51
270.0
 73
     0
 72
     1
 10
91.62442593587565
 20
335.9197089699881
 11
97.09773802659245
 21
335.9197089699881
 72
     2
 10
97.09773802659245
 20
335.4954643546042
 40
0.4242446153838841
 50
270.0
 51
360.0
 73
     0
 97
        8
330
1B9
330
207
330
1BA
330
212
330
1B7
330
209
330
1B8
330
208
 92
       16
 93
        1
 72
     2
 10
94.24401158639316
 20
333.1765821262487
 40
0.4709789327785074
 50
0.0
 51
360.0
 73
     1
 97
        1
330
22D
 92
       16
 93
        8
 72
     2
 10
94.79386929915384
 20
332.0674405262803
 40
0.3157169230766355
 50
115.374008678343
 51
180.0
 73
     1
 72
     1
 10
94.47815237607705
 20
332.0674405262803
 11
94.47815237607705
 21
331.4855891195853
 72
     2
 10
94.79386929915384
 20
331.4855891195853
 40
0.315716923076792
 50
180.0
 51
269.8110329574542
 73
     1
 72
     2
 10
94.79948543446386
 20
333.1884240671542
 40
2.018561131933266
 50
269.8110329575858
 51
450.1889670424142
 73
     1
 72
     2
 10
94.79386929915384
 20
334.8912590147234
 40
0.3157169230759573
 50
90.188967042546
 51
180.0
 73
     1
 72
     1
 10
94.47815237607705
 20
334.8912590147234
 11
94.47815237607705
 21
334.2857237262165
 72
     2
 10
94.79386929915384
 20
334.2857237262165
 40
0.315716923076792
 50
180.0
 51
244.6259913216437
 73
     1
 72
     2
 10
94.26782660106596
 20
333.1765821262487
 40
0.9118481501443819
 50
295.3740086781925
 51
424.6259913218212
 73
     0
 97
        8
330
21F
330
180
330
21C
330
21D
330
1FB
330
17F
330
21E
330
1FA
 92
       16
 93
       12
 72
     2
 10
92.21832061262214
 20
330.5349814486543
 40
0.3157169230756836
 50
180.0
 51
270.0
 73
     1
 72
     1
 10
92.21832061262214
 20
330.2192645255776
 11
93.69415387363176
 21
330.2192645255776
 72
     2
 10
93.69415387363176
 20
330.5349814486543
 40
0.3157169230767067
 50
270.0
 51
360.0
 73
     1
 72
     1
 10
94.00987079670836
 20
330.5349814486543
 11
94.00987079670836
 21
332.0657523801859
 72
     2
 10
93.69415387363176
 20
332.0657523801859
 40
0.315716923076593
 50
0.0
 51
64.80558935146027
 73
     1
 72
     2
 10
94.21673832120675
 20
333.1765821262487
 40
0.9118975235575889
 50
115.1944106485122
 51
244.805589351471
 73
     0
 72
     2
 10
93.69415387363176
 20
334.2874118723109
 40
0.3157169230761203
 50
295.1944106485397
 51
360.0
 73
     1
 72
     1
 10
94.00987079670836
 20
334.2874118723109
 11
94.00987079670836
 21
334.8914364913715
 72
     2
 10
93.69415387363176
 20
334.8914364913715
 40
0.315716923076593
 50
0.0
 51
90.0
 73
     1
 72
     1
 10
93.69415387363176
 20
335.2071534144476
 11
92.21832061262214
 21
335.2071534144476
 72
     2
 10
92.21832061262214
 20
334.8914364913715
 40
0.3157169230760815
 50
90.0
 51
180.0
 73
     1
 72
     1
 10
91.90260368954645
 20
334.8914364913715
 11
91.90260368954645
 21
330.5349814486543
 97
       12
330
203
330
1BB
330
206
330
1B6
330
213
330
214
330
205
330
1B5
330
204
330
1B4
330
215
330
1B3
 75
     1
 76
     0
 52
45.0
 41
0.1
 77
     0
 78
     1
 53
45.0
 43
0.0
 44
0.0
 45
-0.0707106781186548
 46
0.0707106781186548
 79
     0
 98
        1
 10
0.0
 20
0.0
  0
HATCH
  5
26A
330
71
100
AcDbEntity
  8
1
  6
Continuous
 62
     2
100
AcDbHatch
 10
0.0
 20
0.0
 30
0.0
210
0.0
220
0.0
230
1.0
  2
_USER
 70
     0
 71
     1
 91
        4
 92
        1
 93
        8
 72
     1
 10
97.52198264197634
 20
335.4954643546042
 11
97.52198264197634
 21
329.930953585404
 72
     2
 10
97.09773802659245
 20
329.930953585404
 40
0.4242446153832589
 50
0.0
 51
90.0
 73
     0
 72
     1
 10
97.09773802659245
 20
329.5067089700207
 11
91.62442593587565
 21
329.5067089700207
 72
     2
 10
91.62442593587565
 20
329.930953585404
 40
0.4242446153828041
 50
90.0
 51
180.0
 73
     0
 72
     1
 10
91.20018132049285
 20
329.930953585404
 11
91.20018132049285
 21
335.4954643546042
 72
     2
 10
91.62442593587565
 20
335.4954643546042
 40
0.4242446153838841
 50
180.0
 51
270.0
 73
     0
 72
     1
 10
91.62442593587565
 20
335.9197089699881
 11
97.09773802659245
 21
335.9197089699881
 72
     2
 10
97.09773802659245
 20
335.4954643546042
 40
0.4242446153838841
 50
270.0
 51
360.0
 73
     0
 97
        8
330
1B9
330
207
330
1BA
330
212
330
1B7
330
209
330
1B8
330
208
 92
       16
 93
        1
 72
     2
 10
94.24401158639316
 20
333.1765821262487
 40
0.4709789327785074
 50
0.0
 51
360.0
 73
     1
 97
        1
330
22D
 92
       16
 93
        8
 72
     2
 10
94.79386929915384
 20
332.0674405262803
 40
0.3157169230766355
 50
115.374008678343
 51
180.0
 73
     1
 72
     1
 10
94.47815237607705
 20
332.0674405262803
 11
94.47815237607705
 21
331.4855891195853
 72
     2
 10
94.79386929915384
 20
331.4855891195853
 40
0.315716923076792
 50
180.0
 51
269.8110329574542
 73
     1
 72
     2
 10
94.79948543446386
 20
333.1884240671542
 40
2.018561131933266
 50
269.8110329575858
 51
450.1889670424142
 73
     1
 72
     2
 10
94.79386929915384
 20
334.8912590147234
 40
0.3157169230759573
 50
90.188967042546
 51
180.0
 73
     1
 72
     1
 10
94.47815237607705
 20
334.8912590147234
 11
94.47815237607705
 21
334.2857237262165
 72
     2
 10
94.79386929915384
 20
334.2857237262165
 40
0.315716923076792
 50
180.0
 51
244.6259913216437
 73
     1
 72
     2
 10
94.26782660106596
 20
333.1765821262487
 40
0.9118481501443819
 50
295.3740086781925
 51
424.6259913218212
 73
     0
 97
        8
330
21F
330
180
330
21C
330
21D
330
1FB
330
17F
330
21E
330
1FA
 92
       16
 93
       12
 72
     2
 10
92.21832061262214
 20
330.5349814486543
 40
0.3157169230756836
 50
180.0
 51
270.0
 73
     1
 72
     1
 10
92.21832061262214
 20
330.2192645255776
 11
93.69415387363176
 21
330.2192645255776
 72
     2
 10
93.69415387363176
 20
330.5349814486543
 40
0.3157169230767067
 50
270.0
 51
360.0
 73
     1
 72
     1
 10
94.00987079670836
 20
330.5349814486543
 11
94.00987079670836
 21
332.0657523801859
 72
     2
 10
93.69415387363176
 20
332.0657523801859
 40
0.315716923076593
 50
0.0
 51
64.80558935146027
 73
     1
 72
     2
 10
94.21673832120675
 20
333.1765821262487
 40
0.9118975235575889
 50
115.1944106485122
 51
244.805589351471
 73
     0
 72
     2
 10
93.69415387363176
 20
334.2874118723109
 40
0.3157169230761203
 50
295.1944106485397
 51
360.0
 73
     1
 72
     1
 10
94.00987079670836
 20
334.2874118723109
 11
94.00987079670836
 21
334.8914364913715
 72
     2
 10
93.69415387363176
 20
334.8914364913715
 40
0.315716923076593
 50
0.0
 51
90.0
 73
     1
 72
     1
 10
93.69415387363176
 20
335.2071534144476
 11
92.21832061262214
 21
335.2071534144476
 72
     2
 10
92.21832061262214
 20
334.8914364913715
 40
0.3157169230760815
 50
90.0
 51
180.0
 73
     1
 72
     1
 10
91.90260368954645
 20
334.8914364913715
 11
91.90260368954645
 21
330.5349814486543
 97
       12
330
203
330
1BB
330
206
330
1B6
330
213
330
214
330
205
330
1B5
330
204
330
1B4
330
215
330
1B3
 75
     1
 76
     0
 52
45.0
 41
0.1
 77
     0
 78
     1
 53
45.0
 43
0.0
 44
0.0
 45
-0.0707106781186548
 46
0.0707106781186548
 79
     0
 98
        1
 10
0.0
 20
0.0
  0
HATCH
  5
26B
330
71
100
AcDbEntity
  8
1
  6
Continuous
 62
     2
100
AcDbHatch
 10
0.0
 20
0.0
 30
0.0
210
0.0
220
0.0
230
1.0
  2
_USER
 70
     0
 71
     1
 91
        1
 92
        1
 93
       18
 72
     1
 10
119.1115305511974
 20
331.7752531877082
 11
118.300431513724
 21
331.7752531877082
 72
     1
 10
118.300431513724
 20
331.7752531877082
 11
118.300431513724
 21
329.5067089700207
 72
     1
 10
118.300431513724
 20
329.5067089700207
 11
117.1076388115563
 21
329.5067089700207
 72
     1
 10
117.1076388115563
 20
329.5067089700207
 11
117.1076388115563
 21
331.7752531877082
 72
     1
 10
117.1076388115563
 20
331.7752531877082
 11
116.0039995119882
 21
331.7752531877082
 72
     2
 10
116.0039995119882
 20
330.8207301808822
 40
0.9545230068259798
 50
90.0
 51
109.3371432194335
 73
     1
 72
     2
 10
115.8573295138845
 20
331.238685161265
 40
0.5115800601944096
 50
109.3371432194838
 51
151.4785267424242
 73
     1
 72
     2
 10
116.2346867719658
 20
331.033613731926
 40
0.941059735334906
 50
151.4785267423609
 51
208.5214732576695
 73
     1
 72
     2
 10
115.8573295138845
 20
330.8285423025875
 40
0.5115800601960965
 50
208.521473257682
 51
246.6277221118464
 73
     1
 72
     2
 10
116.0137695465876
 20
331.1905343212975
 40
0.9059297849852744
 50
246.6277221118191
 51
288.448076118084
 73
     1
 72
     2
 10
115.5956018129257
 20
332.4440800973341
 40
2.227384008972665
 50
288.4480761181342
 51
301.9309089499409
 73
     1
 72
     1
 10
116.7736568549496
 20
330.5537293781844
 11
116.7736568549496
 21
329.681212371381
 72
     2
 10
115.4377289378328
 20
334.3462946771824
 40
4.852596863498833
 50
74.02000874166042
 51
84.84185523036264
 73
     0
 72
     2
 10
115.7265850325687
 20
331.1464040939608
 40
1.639695123940531
 50
84.8418552303238
 51
164.9381082228996
 73
     0
 72
     2
 10
115.3074571891071
 20
331.033613731926
 40
1.205656168393085
 50
164.9381082229064
 51
195.0618917770962
 73
     0
 72
     2
 10
115.7265850325687
 20
330.9208233698911
 40
1.639695123940214
 50
195.0618917771043
 51
270.0
 73
     0
 72
     1
 10
115.7265850325687
 20
332.5605184938313
 11
119.1115305511974
 21
332.5605184938318
 72
     1
 10
119.1115305511974
 20
332.5605184938318
 11
119.1115305511974
 21
331.7752531877082
 97
       18
330
182
330
218
330
219
330
201
330
200
330
1E6
330
1FF
330
1FE
330
21A
330
1FD
330
21B
330
1FC
330
1E7
330
181
330
186
330
185
330
184
330
183
 75
     1
 76
     0
 52
45.0
 41
0.1
 77
     0
 78
     1
 53
45.0
 43
0.0
 44
0.0
 45
-0.0707106781186548
 46
0.0707106781186548
 79
     0
 98
        1
 10
0.0
 20
0.0
  0
HATCH
  5
26C
330
71
100
AcDbEntity
  8
1
  6
Continuous
 62
     2
100
AcDbHatch
 10
0.0
 20
0.0
 30
0.0
210
0.0
220
0.0
230
1.0
  2
_USER
 70
     0
 71
     1
 91
        1
 92
        1
 93
       18
 72
     1
 10
119.1115305511974
 20
331.7752531877082
 11
118.300431513724
 21
331.7752531877082
 72
     1
 10
118.300431513724
 20
331.7752531877082
 11
118.300431513724
 21
329.5067089700207
 72
     1
 10
118.300431513724
 20
329.5067089700207
 11
117.1076388115563
 21
329.5067089700207
 72
     1
 10
117.1076388115563
 20
329.5067089700207
 11
117.1076388115563
 21
331.7752531877082
 72
     1
 10
117.1076388115563
 20
331.7752531877082
 11
116.0039995119882
 21
331.7752531877082
 72
     2
 10
116.0039995119882
 20
330.8207301808822
 40
0.9545230068259798
 50
90.0
 51
109.3371432194335
 73
     1
 72
     2
 10
115.8573295138845
 20
331.238685161265
 40
0.5115800601944096
 50
109.3371432194838
 51
151.4785267424242
 73
     1
 72
     2
 10
116.2346867719658
 20
331.033613731926
 40
0.941059735334906
 50
151.4785267423609
 51
208.5214732576695
 73
     1
 72
     2
 10
115.8573295138845
 20
330.8285423025875
 40
0.5115800601960965
 50
208.521473257682
 51
246.6277221118464
 73
     1
 72
     2
 10
116.0137695465876
 20
331.1905343212975
 40
0.9059297849852744
 50
246.6277221118191
 51
288.448076118084
 73
     1
 72
     2
 10
115.5956018129257
 20
332.4440800973341
 40
2.227384008972665
 50
288.4480761181342
 51
301.9309089499409
 73
     1
 72
     1
 10
116.7736568549496
 20
330.5537293781844
 11
116.7736568549496
 21
329.681212371381
 72
     2
 10
115.4377289378328
 20
334.3462946771824
 40
4.852596863498833
 50
74.02000874166042
 51
84.84185523036264
 73
     0
 72
     2
 10
115.7265850325687
 20
331.1464040939608
 40
1.639695123940531
 50
84.8418552303238
 51
164.9381082228996
 73
     0
 72
     2
 10
115.3074571891071
 20
331.033613731926
 40
1.205656168393085
 50
164.9381082229064
 51
195.0618917770962
 73
     0
 72
     2
 10
115.7265850325687
 20
330.9208233698911
 40
1.639695123940214
 50
195.0618917771043
 51
270.0
 73
     0
 72
     1
 10
115.7265850325687
 20
332.5605184938313
 11
119.1115305511974
 21
332.5605184938318
 72
     1
 10
119.1115305511974
 20
332.5605184938318
 11
119.1115305511974
 21
331.7752531877082
 97
       18
330
182
330
218
330
219
330
201
330
200
330
1E6
330
1FF
330
1FE
330
21A
330
1FD
330
21B
330
1FC
330
1E7
330
181
330
186
330
185
330
184
330
183
 75
     1
 76
     0
 52
45.0
 41
0.1
 77
     0
 78
     1
 53
45.0
 43
0.0
 44
0.0
 45
-0.0707106781186548
 46
0.0707106781186548
 79
     0
 98
        1
 10
0.0
 20
0.0
  0
HATCH
  5
26D
330
71
100
AcDbEntity
  8
1
  6
Continuous
 62
     2
100
AcDbHatch
 10
0.0
 20
0.0
 30
0.0
210
0.0
220
0.0
230
1.0
  2
_USER
 70
     0
 71
     1
 91
        1
 92
        1
 93
       14
 72
     2
 10
99.62388355331575
 20
330.9208233698911
 40
1.639695123940507
 50
84.84185523036236
 51
164.9381082228864
 73
     1
 72
     2
 10
99.20475570985295
 20
331.033613731926
 40
1.205656168390944
 50
164.9381082228765
 51
195.0618917770948
 73
     1
 72
     2
 10
99.62388355331575
 20
331.1464040939608
 40
1.639695123939395
 50
195.0618917770906
 51
275.1581447696395
 73
     1
 72
     2
 10
99.33502745857984
 20
334.3462946771824
 40
4.852596863498166
 50
275.1581447696249
 51
285.9799912583524
 73
     1
 72
     1
 10
100.6709553756976
 20
329.6812123713816
 11
100.6709553756976
 21
330.5537293781848
 72
     2
 10
99.49290033367276
 20
332.4440800973347
 40
2.227384008972697
 50
58.06909105004127
 51
71.55192388186803
 73
     0
 72
     2
 10
99.91106806733356
 20
331.1905343212975
 40
0.9059297849849192
 50
71.55192388184352
 51
113.372277888129
 73
     0
 72
     2
 10
99.75462803463154
 20
330.8285423025875
 40
0.5115800601948034
 50
113.3722778881726
 51
151.4785267423044
 73
     0
 72
     2
 10
100.1319852927119
 20
331.033613731926
 40
0.9410597353333044
 50
151.4785267422959
 51
208.5214732577315
 73
     0
 72
     2
 10
99.75462803463154
 20
331.238685161265
 40
0.511580060194904
 50
208.5214732576956
 51
246.6277221118021
 73
     0
 72
     2
 10
99.91106806733356
 20
330.8766931425544
 40
0.9059297849853093
 50
246.627722111871
 51
288.448076118144
 73
     0
 72
     2
 10
99.49290033367276
 20
329.6231473665179
 40
2.227384008973383
 50
288.4480761181324
 51
301.9309089499595
 73
     0
 72
     1
 10
100.6709553756976
 20
331.5134980856677
 11
100.6709553756976
 21
332.386015092471
 72
     2
 10
99.33502745857984
 20
327.7209327866701
 40
4.852596863498029
 50
74.02000874164779
 51
84.84185523037502
 73
     1
 97
       14
330
220
330
221
330
222
330
223
330
1E8
330
1F9
330
1F8
330
1F7
330
224
330
225
330
1F6
330
226
330
1E9
330
1F5
 75
     1
 76
     0
 52
45.0
 41
0.1
 77
     0
 78
     1
 53
45.0
 43
0.0
 44
0.0
 45
-0.0707106781186548
 46
0.0707106781186548
 79
     0
 98
        1
 10
0.0
 20
0.0
  0
HATCH
  5
26E
330
71
100
AcDbEntity
  8
1
  6
Continuous
 62
     2
100
AcDbHatch
 10
0.0
 20
0.0
 30
0.0
210
0.0
220
0.0
230
1.0
  2
_USER
 70
     0
 71
     1
 91
        1
 92
        1
 93
       14
 72
     2
 10
99.62388355331575
 20
330.9208233698911
 40
1.639695123940507
 50
84.84185523036236
 51
164.9381082228864
 73
     1
 72
     2
 10
99.20475570985295
 20
331.033613731926
 40
1.205656168390944
 50
164.9381082228765
 51
195.0618917770948
 73
     1
 72
     2
 10
99.62388355331575
 20
331.1464040939608
 40
1.639695123939395
 50
195.0618917770906
 51
275.1581447696395
 73
     1
 72
     2
 10
99.33502745857984
 20
334.3462946771824
 40
4.852596863498166
 50
275.1581447696249
 51
285.9799912583524
 73
     1
 72
     1
 10
100.6709553756976
 20
329.6812123713816
 11
100.6709553756976
 21
330.5537293781848
 72
     2
 10
99.49290033367276
 20
332.4440800973347
 40
2.227384008972697
 50
58.06909105004127
 51
71.55192388186803
 73
     0
 72
     2
 10
99.91106806733356
 20
331.1905343212975
 40
0.9059297849849192
 50
71.55192388184352
 51
113.372277888129
 73
     0
 72
     2
 10
99.75462803463154
 20
330.8285423025875
 40
0.5115800601948034
 50
113.3722778881726
 51
151.4785267423044
 73
     0
 72
     2
 10
100.1319852927119
 20
331.033613731926
 40
0.9410597353333044
 50
151.4785267422959
 51
208.5214732577315
 73
     0
 72
     2
 10
99.75462803463154
 20
331.238685161265
 40
0.511580060194904
 50
208.5214732576956
 51
246.6277221118021
 73
     0
 72
     2
 10
99.91106806733356
 20
330.8766931425544
 40
0.9059297849853093
 50
246.627722111871
 51
288.448076118144
 73
     0
 72
     2
 10
99.49290033367276
 20
329.6231473665179
 40
2.227384008973383
 50
288.4480761181324
 51
301.9309089499595
 73
     0
 72
     1
 10
100.6709553756976
 20
331.5134980856677
 11
100.6709553756976
 21
332.386015092471
 72
     2
 10
99.33502745857984
 20
327.7209327866701
 40
4.852596863498029
 50
74.02000874164779
 51
84.84185523037502
 73
     1
 97
       14
330
220
330
221
330
222
330
223
330
1E8
330
1F9
330
1F8
330
1F7
330
224
330
225
330
1F6
330
226
330
1E9
330
1F5
 75
     1
 76
     0
 52
45.0
 41
0.1
 77
     0
 78
     1
 53
45.0
 43
0.0
 44
0.0
 45
-0.0707106781186548
 46
0.0707106781186548
 79
     0
 98
        1
 10
0.0
 20
0.0
  0
ENDBLK
  5
73
330
71
100
AcDbEntity
  8
0
100
AcDbBlockEnd
  0
BLOCK
  5
75
330
74
100
AcDbEntity
  8
0
100
AcDbBlockBegin
  2
_punkt
 70
     0
 10
216.5083309606803
 20
322.2132089700044
 30
0.0
  3
_punkt
  1

  0
LINE
  5
26F
330
74
100
AcDbEntity
  8
1
  6
Continuous
 62
     2
100
AcDbLine
 10
216.5083309606803
 20
322.2132089700044
 30
0.0
 11
221.5083309606793
 21
322.2132089700044
 31
0.0
  0
LINE
  5
270
330
74
100
AcDbEntity
  8
1
  6
Continuous
 62
     2
100
AcDbLine
 10
216.5083309606803
 20
322.2132089700044
 30
0.0
 11
216.5083309606803
 21
317.2132089700043
 31
0.0
  0
ENDBLK
  5
76
330
74
100
AcDbEntity
  8
0
100
AcDbBlockEnd
  0
BLOCK
  5
7A
330
77
100
AcDbEntity
  8
0
100
AcDbBlockBegin
  2
A4I_CS
 70
     0
 10
216.5083309606803
 20
317.2132089700043
 30
0.0
  3
A4I_CS
  1

  0
INSERT
  5
78
330
77
100
AcDbEntity
  8
1
100
AcDbBlockReference
  2
_rahmen
 10
216.5083309606803
 20
317.2132089700043
 30
0.0
  0
INSERT
  5
79
330
77
100
AcDbEntity
  8
1
100
AcDbBlockReference
  2
_punkt
 10
216.5083309606803
 20
322.2132089700044
 30
0.0
  0
ENDBLK
  5
7B
330
77
100
AcDbEntity
  8
0
100
AcDbBlockEnd
  0
BLOCK
  5
84
330
7C
100
AcDbEntity
  8
0
100
AcDbBlockBegin
  2
1
 70
     0
 10
0.0
 20
0.0
 30
0.0
  3
1
  1

  0
INSERT
  5
7D
330
7C
100
AcDbEntity
  8
0
100
AcDbBlockReference
  2
AllgSicht1
 10
163.0000000000005
 20
391.9671730118
 30
0.0
  0
INSERT
  5
7E
330
7C
100
AcDbEntity
  8
0
100
AcDbBlockReference
  2
Drfsicht1
 10
30.0
 20
385.0000000000102
 30
0.0
  0
INSERT
  5
7F
330
7C
100
AcDbEntity
  8
0
100
AcDbBlockReference
  2
Rckans1
 10
159.9999985694886
 20
464.299999833107
 30
0.0
  0
INSERT
  5
80
330
7C
100
AcDbEntity
  8
0
100
AcDbBlockReference
  2
SA_Links1
 10
88.99999928474007
 20
464.299999833107
 30
0.0
  0
INSERT
  5
81
330
7C
100
AcDbEntity
  8
0
100
AcDbBlockReference
  2
SA_Rechts1
 10
-40.99999928473423
 20
464.299999833107
 30
0.0
  0
INSERT
  5
82
330
7C
100
AcDbEntity
  8
0
100
AcDbBlockReference
  2
Vordans1
 10
30.00000000000009
 20
464.299999833107
 30
0.0
  0
INSERT
  5
83
330
7C
100
AcDbEntity
  8
0
100
AcDbBlockReference
  2
A4I_CS
 10
216.5083309606803
 20
317.2132089700043
 30
0.0
  0
ENDBLK
  5
85
330
7C
100
AcDbEntity
  8
0
100
AcDbBlockEnd
  0
BLOCK
  5
C7
330
BE
100
AcDbEntity
  8
0
100
AcDbBlockBegin
  2
*D17
 70
     1
 10
0.0
 20
0.0
 30
0.0
  3
*D17
  1

  0
LINE
  5
BF
330
BE
100
AcDbEntity
  8
1
  6
Continuous
 62
     2
100
AcDbLine
 10
-6.8441575335636
 20
377.0000000000153
 30
0.0
 11
-6.8441575335636
 21
384.0000000000153
 31
0.0
  0
LINE
  5
C0
330
BE
100
AcDbEntity
  8
1
  6
Continuous
 62
     2
100
AcDbLine
 10
-6.8441575335636
 20
384.0000000000153
 30
0.0
 11
-6.8441575335636
 21
386.0000000000153
 31
0.0
  0
LINE
  5
C1
330
BE
100
AcDbEntity
  8
1
  6
Continuous
 62
     2
100
AcDbLine
 10
-6.8441575335636
 20
386.0000000000153
 30
0.0
 11
-6.8441575335636
 21
394.6676603145253
 31
0.0
  0
LINE
  5
C2
330
BE
100
AcDbEntity
  8
1
  6
Continuous
 62
     2
100
AcDbLine
 10
4.00000081717738
 20
384.0000000000153
 30
0.0
 11
-8.8441575335636
 21
384.0000000000153
 31
0.0
  0
LINE
  5
C3
330
BE
100
AcDbEntity
  8
1
  6
Continuous
 62
     2
100
AcDbLine
 10
4.00000081717738
 20
386.0000000000153
 30
0.0
 11
-8.8441575335636
 21
386.0000000000153
 31
0.0
  0
SOLID
  5
C4
330
BE
100
AcDbEntity
  8
1
 62
     2
100
AcDbTrace
 10
-6.38337379200772
 20
380.5000000000153
 30
0.0
 11
-7.30494127511948
 21
380.5000000000153
 31
0.0
 12
-6.8441575335636
 22
384.0000000000153
 32
0.0
 13
-6.8441575335636
 23
384.0000000000153
 33
0.0
  0
SOLID
  5
C5
330
BE
100
AcDbEntity
  8
1
 62
     2
100
AcDbTrace
 10
-7.30494127511948
 20
389.5000000000153
 30
0.0
 11
-6.38337379200771
 21
389.5000000000153
 31
0.0
 12
-6.8441575335636
 22
386.0000000000153
 32
0.0
 13
-6.8441575335636
 23
386.0000000000153
 33
0.0
  0
MTEXT
  5
C6
330
BE
100
AcDbEntity
  8
1
 62
     3
100
AcDbMText
 10
-8.8441575335636
 20
392.5676603145253
 30
0.0
 40
3.5
 41
0.0
 71
     7
 72
     1
  1
2
  7
CONVERTER_11
 11
0.0
 21
1.0
 31
0.0
 73
     1
 44
0.60024009603842
  0
ENDBLK
  5
C8
330
BE
100
AcDbEntity
  8
0
100
AcDbBlockEnd
  0
BLOCK
  5
129
330
122
100
AcDbEntity
  8
0
100
AcDbBlockBegin
  2
*D18
 70
     1
 10
0.0
 20
0.0
 30
0.0
  3
*D18
  1

  0
LINE
  5
123
330
122
100
AcDbEntity
  8
1
  6
Continuous
 62
     2
100
AcDbLine
 10
-5.60151684644433
 20
494.6000000532217
 30
0.0
 11
-5.60151684644433
 21
434.0000000532218
 31
0.0
  0
LINE
  5
124
330
122
100
AcDbEntity
  8
1
  6
Continuous
 62
     2
100
AcDbLine
 10
45.4000008171774
 20
494.6000000532217
 30
0.0
 11
-7.60151684644433
 21
494.6000000532217
 31
0.0
  0
LINE
  5
125
330
122
100
AcDbEntity
  8
1
  6
Continuous
 62
     2
100
AcDbLine
 10
7.08141653013542
 20
434.0000000532218
 30
0.0
 11
-7.60151684644433
 21
434.0000000532218
 31
0.0
  0
SOLID
  5
126
330
122
100
AcDbEntity
  8
1
 62
     2
100
AcDbTrace
 10
-5.14073310488844
 20
491.1000000532217
 30
0.0
 11
-6.06230058800021
 21
491.1000000532217
 31
0.0
 12
-5.60151684644433
 22
494.6000000532217
 32
0.0
 13
-5.60151684644433
 23
494.6000000532217
 33
0.0
  0
SOLID
  5
127
330
122
100
AcDbEntity
  8
1
 62
     2
100
AcDbTrace
 10
-6.06230058800021
 20
437.5000000532218
 30
0.0
 11
-5.14073310488844
 21
437.5000000532218
 31
0.0
 12
-5.60151684644433
 22
434.0000000532218
 32
0.0
 13
-5.60151684644433
 23
434.0000000532218
 33
0.0
  0
MTEXT
  5
128
330
122
100
AcDbEntity
  8
1
 62
     3
100
AcDbMText
 10
-7.95151684644433
 20
461.289322291211
 30
0.0
 40
3.5
 41
0.0
 71
     7
 72
     1
  1
60,6
  7
CONVERTER_11
 11
0.0
 21
1.0
 31
0.0
 73
     1
 44
0.60024009603842
  0
ENDBLK
  5
12A
330
122
100
AcDbEntity
  8
0
100
AcDbBlockEnd
  0
BLOCK
  5
134
330
12D
100
AcDbEntity
  8
0
100
AcDbBlockBegin
  2
*D19
 70
     1
 10
0.0
 20
0.0
 30
0.0
  3
*D19
  1

  0
LINE
  5
12E
330
12D
100
AcDbEntity
  8
1
  6
Continuous
 62
     2
100
AcDbLine
 10
4.00000081717746
 20
422.40580074845
 30
0.0
 11
56.00000081717746
 21
422.40580074845
 31
0.0
  0
LINE
  5
12F
330
12D
100
AcDbEntity
  8
1
  6
Continuous
 62
     2
100
AcDbLine
 10
4.00000081717746
 20
445.5000000532217
 30
0.0
 11
4.00000081717746
 21
420.40580074845
 31
0.0
  0
LINE
  5
130
330
12D
100
AcDbEntity
  8
1
  6
Continuous
 62
     2
100
AcDbLine
 10
56.00000081717746
 20
445.5000000532217
 30
0.0
 11
56.00000081717746
 21
420.40580074845
 31
0.0
  0
SOLID
  5
131
330
12D
100
AcDbEntity
  8
1
 62
     2
100
AcDbTrace
 10
7.50000081717746
 20
422.8665844900059
 30
0.0
 11
7.50000081717746
 21
421.9450170068941
 31
0.0
 12
4.00000081717746
 22
422.40580074845
 32
0.0
 13
4.00000081717746
 23
422.40580074845
 33
0.0
  0
SOLID
  5
132
330
12D
100
AcDbEntity
  8
1
 62
     2
100
AcDbTrace
 10
52.50000081717746
 20
421.9450170068941
 30
0.0
 11
52.50000081717746
 21
422.8665844900059
 31
0.0
 12
56.00000081717746
 22
422.40580074845
 32
0.0
 13
56.00000081717746
 23
422.40580074845
 33
0.0
  0
MTEXT
  5
133
330
12D
100
AcDbEntity
  8
1
 62
     3
100
AcDbMText
 10
27.22912188217234
 20
424.40580074845
 30
0.0
 40
3.5
 41
0.0
 71
     7
 72
     1
  1
52
  7
CONVERTER_11
 11
0.9999999999970619
 21
2.424068405545306E-6
 31
0.0
 73
     1
 44
0.60024009603842
  0
ENDBLK
  5
135
330
12D
100
AcDbEntity
  8
0
100
AcDbBlockEnd
  0
ENDSEC
  0
SECTION
  2
ENTITIES
  0
INSERT
  5
86
330
1F
100
AcDbEntity
  8
1
100
AcDbBlockReference
  2
1
 10
0.0
 20
0.0
 30
0.0
  0
ENDSEC
  0
SECTION
  2
OBJECTS
  0
DICTIONARY
  5
C
330
0
100
AcDbDictionary
281
     1
  3
ACAD_GROUP
350
D
  3
ACAD_LAYOUT
350
1A
  3
ACAD_MATERIAL
350
3B
  3
ACAD_MLEADERSTYLE
350
298
  3
ACAD_MLINESTYLE
350
17
  3
ACAD_PLOTSETTINGS
350
19
  3
ACAD_PLOTSTYLENAME
350
E
  3
ACAD_TABLESTYLE
350
297
  3
ACAD_VISUALSTYLE
350
2A
  0
DICTIONARY
  5
D
102
{ACAD_REACTORS
330
C
102
}
330
C
100
AcDbDictionary
281
     1
  0
DICTIONARY
  5
1A
102
{ACAD_REACTORS
330
C
102
}
330
C
100
AcDbDictionary
281
     1
  3
Layout1
350
1E
  3
Layout2
350
26
  3
Model
350
22
  0
DICTIONARY
  5
3B
102
{ACAD_REACTORS
330
C
102
}
330
C
100
AcDbDictionary
281
     1
  3
ByBlock
350
3D
  3
ByLayer
350
3C
  3
Global
350
3E
  0
DICTIONARY
  5
298
102
{ACAD_REACTORS
330
C
102
}
330
C
100
AcDbDictionary
281
     1
  0
DICTIONARY
  5
17
102
{ACAD_REACTORS
330
C
102
}
330
C
100
AcDbDictionary
281
     1
  3
Standard
350
18
  0
DICTIONARY
  5
19
102
{ACAD_REACTORS
330
C
102
}
330
C
100
AcDbDictionary
281
     1
  0
ACDBDICTIONARYWDFLT
  5
E
102
{ACAD_REACTORS
330
C
102
}
330
C
100
AcDbDictionary
281
     1
  3
Normal
350
F
100
AcDbDictionaryWithDefault
340
F
  0
DICTIONARY
  5
297
102
{ACAD_REACTORS
330
C
102
}
330
C
100
AcDbDictionary
281
     1
  0
DICTIONARY
  5
2A
102
{ACAD_REACTORS
330
C
102
}
330
C
100
AcDbDictionary
281
     1
  3
2dWireframe
350
2F
  3
3D Hidden
350
31
  3
3dWireframe
350
30
  3
Basic
350
32
  3
Brighten
350
36
  3
ColorChange
350
3A
  3
Conceptual
350
34
  3
Dim
350
35
  3
Facepattern
350
39
  3
Flat
350
2B
  3
FlatWithEdges
350
2C
  3
Gouraud
350
2D
  3
GouraudWithEdges
350
2E
  3
Linepattern
350
38
  3
Realistic
350
33
  3
Thicken
350
37
  0
LAYOUT
  5
1E
102
{ACAD_REACTORS
330
1A
102
}
330
1A
100
AcDbPlotSettings
  1

  2
none_device
  4

  6

 40
0.0
 41
0.0
 42
0.0
 43
0.0
 44
0.0
 45
0.0
 46
0.0
 47
0.0
 48
0.0
 49
0.0
140
0.0
141
0.0
142
1.0
143
1.0
 70
   688
 72
     0
 73
     0
 74
     5
  7

 75
    16
 76
     0
 77
     2
 78
   300
147
1.0
148
0.0
149
0.0
100
AcDbLayout
  1
Layout1
 70
     1
 71
     1
 10
0.0
 20
0.0
 11
12.0
 21
9.0
 12
0.0
 22
0.0
 32
0.0
 14
1.00000000000000E+20
 24
1.00000000000000E+20
 34
1.00000000000000E+20
 15
-1.00000000000000E+20
 25
-1.00000000000000E+20
 35
-1.00000000000000E+20
146
0.0
 13
0.0
 23
0.0
 33
0.0
 16
1.0
 26
0.0
 36
0.0
 17
0.0
 27
1.0
 37
0.0
 76
     0
330
1B
  0
LAYOUT
  5
26
102
{ACAD_REACTORS
330
1A
102
}
330
1A
100
AcDbPlotSettings
  1

  2
none_device
  4

  6

 40
0.0
 41
0.0
 42
0.0
 43
0.0
 44
0.0
 45
0.0
 46
0.0
 47
0.0
 48
0.0
 49
0.0
140
0.0
141
0.0
142
1.0
143
1.0
 70
   688
 72
     0
 73
     0
 74
     5
  7

 75
    16
 76
     0
 77
     2
 78
   300
147
1.0
148
0.0
149
0.0
100
AcDbLayout
  1
Layout2
 70
     1
 71
     2
 10
0.0
 20
0.0
 11
0.0
 21
0.0
 12
0.0
 22
0.0
 32
0.0
 14
0.0
 24
0.0
 34
0.0
 15
0.0
 25
0.0
 35
0.0
146
0.0
 13
0.0
 23
0.0
 33
0.0
 16
1.0
 26
0.0
 36
0.0
 17
0.0
 27
1.0
 37
0.0
 76
     0
330
23
  0
LAYOUT
  5
22
102
{ACAD_REACTORS
330
1A
102
}
330
1A
100
AcDbPlotSettings
  1

  2
none_device
  4

  6

 40
0.0
 41
0.0
 42
0.0
 43
0.0
 44
0.0
 45
0.0
 46
0.0
 47
0.0
 48
0.0
 49
0.0
140
0.0
141
0.0
142
1.0
143
1.0
 70
  1712
 72
     0
 73
     0
 74
     0
  7

 75
     0
 76
     0
 77
     2
 78
   300
147
1.0
148
0.0
149
0.0
100
AcDbLayout
  1
Model
 70
     1
 71
     0
 10
0.0
 20
0.0
 11
12.0
 21
9.0
 12
0.0
 22
0.0
 32
0.0
 14
-75.49166903931882
 24
317.2132089700043
 34
0.0
 15
221.5083309606793
 25
527.2132089700044
 35
0.0
146
0.0
 13
0.0
 23
0.0
 33
0.0
 16
1.0
 26
0.0
 36
0.0
 17
0.0
 27
1.0
 37
0.0
 76
     0
330
1F
331
29
  0
MATERIAL
  5
3D
102
{ACAD_REACTORS
330
3B
102
}
102
{ACAD_XDICTIONARY
360
293
102
}
330
3B
100
AcDbMaterial
  1
ByBlock
  0
MATERIAL
  5
3C
102
{ACAD_REACTORS
330
3B
102
}
102
{ACAD_XDICTIONARY
360
291
102
}
330
3B
100
AcDbMaterial
  1
ByLayer
  0
MATERIAL
  5
3E
102
{ACAD_REACTORS
330
3B
102
}
102
{ACAD_XDICTIONARY
360
295
102
}
330
3B
100
AcDbMaterial
  1
Global
  0
MLINESTYLE
  5
18
102
{ACAD_REACTORS
330
17
102
}
330
17
100
AcDbMlineStyle
  2
Standard
 70
     0
  3

 62
   256
 51
90.0
 52
90.0
 71
     2
 49
0.5
 62
   256
  6
BYLAYER
 49
-0.5
 62
   256
  6
BYLAYER
  0
ACDBPLACEHOLDER
  5
F
102
{ACAD_REACTORS
330
E
102
}
330
E
  0
VISUALSTYLE
  5
2F
102
{ACAD_REACTORS
330
2A
102
}
102
{ACAD_XDICTIONARY
360
279
102
}
330
2A
100
AcDbVisualStyle
  2
2dWireframe
 70
     4
 71
     0
 72
     2
 73
     0
 90
        0
 40
-0.6
 41
-30.0
 62
     5
 63
     7
421
 16777215
 74
     1
 91
        4
 64
     7
 65
   257
 75
     1
175
     1
 42
1.0
 92
        0
 66
   257
 43
1.0
 76
     1
 77
     6
 78
     2
 67
     7
 79
     5
170
     0
171
     0
290
     0
174
     0
 93
        1
 44
0.0
173
     0
291
     0
 45
0.0
1001
ACAD
1000
AcDbSavedByObjectVersion
1070
     0
  0
VISUALSTYLE
  5
31
102
{ACAD_REACTORS
330
2A
102
}
102
{ACAD_XDICTIONARY
360
27D
102
}
330
2A
100
AcDbVisualStyle
  2
3D Hidden
 70
     6
 71
     1
 72
     2
 73
     2
 90
        0
 40
-0.6
 41
-30.0
 62
     5
 63
     7
421
 16777215
 74
     2
 91
        2
 64
     7
 65
   257
 75
     2
175
     1
 42
40.0
 92
        0
 66
   257
 43
1.0
 76
     1
 77
     6
 78
     2
 67
     7
 79
     3
170
     0
171
     0
290
     0
174
     0
 93
        1
 44
0.0
173
     0
291
     0
 45
0.0
1001
ACAD
1000
AcDbSavedByObjectVersion
1070
     0
  0
VISUALSTYLE
  5
30
102
{ACAD_REACTORS
330
2A
102
}
102
{ACAD_XDICTIONARY
360
27B
102
}
330
2A
100
AcDbVisualStyle
  2
3dWireframe
 70
     5
 71
     0
 72
     2
 73
     0
 90
        0
 40
-0.6
 41
-30.0
 62
     5
 63
     7
421
 16777215
 74
     1
 91
        4
 64
     7
 65
   257
 75
     1
175
     1
 42
1.0
 92
        0
 66
   257
 43
1.0
 76
     1
 77
     6
 78
     2
 67
     7
 79
     5
170
     0
171
     0
290
     0
174
     0
 93
        1
 44
0.0
173
     0
291
     0
 45
0.0
1001
ACAD
1000
AcDbSavedByObjectVersion
1070
     0
  0
VISUALSTYLE
  5
32
102
{ACAD_REACTORS
330
2A
102
}
102
{ACAD_XDICTIONARY
360
27F
102
}
330
2A
100
AcDbVisualStyle
  2
Basic
 70
     7
 71
     1
 72
     0
 73
     1
 90
        0
 40
-0.6
 41
-30.0
 62
     5
 63
     7
421
 16777215
 74
     0
 91
        4
 64
     7
 65
   257
 75
     1
175
     1
 42
1.0
 92
        8
 66
     7
 43
1.0
 76
     1
 77
     6
 78
     2
 67
     7
 79
     5
170
     0
171
     0
290
     0
174
     0
 93
        1
 44
0.0
173
     0
291
     1
 45
0.0
1001
ACAD
1000
AcDbSavedByObjectVersion
1070
     0
  0
VISUALSTYLE
  5
36
102
{ACAD_REACTORS
330
2A
102
}
102
{ACAD_XDICTIONARY
360
287
102
}
330
2A
100
AcDbVisualStyle
  2
Brighten
 70
    12
 71
     2
 72
     2
 73
     0
 90
        0
 40
-0.6
 41
-30.0
 62
     5
 63
     7
421
 16777215
 74
     1
 91
        4
 64
     7
 65
   257
 75
     1
175
     1
 42
1.0
 92
        8
 66
     7
 43
1.0
 76
     1
 77
     6
 78
     2
 67
     7
 79
     5
170
     0
171
     0
290
     0
174
     0
 93
        1
 44
50.0
173
     0
291
     1
 45
0.0
1001
ACAD
1000
AcDbSavedByObjectVersion
1070
     0
  0
VISUALSTYLE
  5
3A
102
{ACAD_REACTORS
330
2A
102
}
102
{ACAD_XDICTIONARY
360
28F
102
}
330
2A
100
AcDbVisualStyle
  2
ColorChange
 70
    16
 71
     2
 72
     2
 73
     3
 90
        0
 40
-0.6
 41
-30.0
 62
     5
 63
     8
421
  8421504
 74
     1
 91
        4
 64
     7
 65
   257
 75
     1
175
     1
 42
1.0
 92
        8
 66
     8
424
  8421504
 43
1.0
 76
     1
 77
     6
 78
     2
 67
     7
 79
     5
170
     0
171
     0
290
     0
174
     0
 93
        1
 44
0.0
173
     0
291
     1
 45
0.0
1001
ACAD
1000
AcDbSavedByObjectVersion
1070
     0
  0
VISUALSTYLE
  5
34
102
{ACAD_REACTORS
330
2A
102
}
102
{ACAD_XDICTIONARY
360
283
102
}
330
2A
100
AcDbVisualStyle
  2
Conceptual
 70
     9
 71
     3
 72
     2
 73
     0
 90
        0
 40
-0.6
 41
-30.0
 62
     5
 63
     7
421
 16777215
 74
     2
 91
        2
 64
     7
 65
   257
 75
     1
175
     1
 42
40.0
 92
        8
 66
     7
 43
1.0
 76
     1
 77
     6
 78
     2
 67
     7
 79
     3
170
     0
171
     0
290
     0
174
     0
 93
        1
 44
0.0
173
     0
291
     0
 45
0.0
1001
ACAD
1000
AcDbSavedByObjectVersion
1070
     0
  0
VISUALSTYLE
  5
35
102
{ACAD_REACTORS
330
2A
102
}
102
{ACAD_XDICTIONARY
360
285
102
}
330
2A
100
AcDbVisualStyle
  2
Dim
 70
    11
 71
     2
 72
     2
 73
     0
 90
        0
 40
-0.6
 41
-30.0
 62
     5
 63
     7
421
 16777215
 74
     1
 91
        4
 64
     7
 65
   257
 75
     1
175
     1
 42
1.0
 92
        8
 66
     7
 43
1.0
 76
     1
 77
     6
 78
     2
 67
     7
 79
     5
170
     0
171
     0
290
     0
174
     0
 93
        1
 44
-50.0
173
     0
291
     1
 45
0.0
1001
ACAD
1000
AcDbSavedByObjectVersion
1070
     0
  0
VISUALSTYLE
  5
39
102
{ACAD_REACTORS
330
2A
102
}
102
{ACAD_XDICTIONARY
360
28D
102
}
330
2A
100
AcDbVisualStyle
  2
Facepattern
 70
    15
 71
     2
 72
     2
 73
     0
 90
        0
 40
-0.6
 41
-30.0
 62
     5
 63
     7
421
 16777215
 74
     1
 91
        4
 64
     7
 65
   257
 75
     1
175
     1
 42
1.0
 92
        8
 66
     7
 43
1.0
 76
     1
 77
     6
 78
     2
 67
     7
 79
     5
170
     0
171
     0
290
     0
174
     0
 93
        1
 44
0.0
173
     0
291
     1
 45
0.0
1001
ACAD
1000
AcDbSavedByObjectVersion
1070
     0
  0
VISUALSTYLE
  5
2B
102
{ACAD_REACTORS
330
2A
102
}
102
{ACAD_XDICTIONARY
360
271
102
}
330
2A
100
AcDbVisualStyle
  2
Flat
 70
     0
 71
     2
 72
     1
 73
     1
 90
        2
 40
-0.6
 41
30.0
 62
     5
 63
     7
421
 16777215
 74
     0
 91
        4
 64
     7
 65
   257
 75
     1
175
     1
 42
1.0
 92
        8
 66
     7
 43
1.0
 76
     1
 77
     6
 78
     2
 67
     7
 79
     5
170
     0
171
     0
290
     0
174
     0
 93
       13
 44
0.0
173
     0
291
     1
 45
0.0
1001
ACAD
1000
AcDbSavedByObjectVersion
1070
     0
  0
VISUALSTYLE
  5
2C
102
{ACAD_REACTORS
330
2A
102
}
102
{ACAD_XDICTIONARY
360
273
102
}
330
2A
100
AcDbVisualStyle
  2
FlatWithEdges
 70
     1
 71
     2
 72
     1
 73
     1
 90
        2
 40
-0.6
 41
30.0
 62
     5
 63
     7
421
 16777215
 74
     1
 91
        4
 64
     7
 65
   257
 75
     1
175
     1
 42
1.0
 92
        0
 66
   257
 43
1.0
 76
     1
 77
     6
 78
     2
 67
     7
 79
     5
170
     0
171
     0
290
     0
174
     0
 93
       13
 44
0.0
173
     0
291
     1
 45
0.0
1001
ACAD
1000
AcDbSavedByObjectVersion
1070
     0
  0
VISUALSTYLE
  5
2D
102
{ACAD_REACTORS
330
2A
102
}
102
{ACAD_XDICTIONARY
360
275
102
}
330
2A
100
AcDbVisualStyle
  2
Gouraud
 70
     2
 71
     2
 72
     2
 73
     1
 90
        2
 40
-0.6
 41
30.0
 62
     5
 63
     7
421
 16777215
 74
     0
 91
        4
 64
     7
 65
   257
 75
     1
175
     1
 42
1.0
 92
        0
 66
     7
 43
1.0
 76
     1
 77
     6
 78
     2
 67
     7
 79
     5
170
     0
171
     0
290
     0
174
     0
 93
       13
 44
0.0
173
     0
291
     1
 45
0.0
1001
ACAD
1000
AcDbSavedByObjectVersion
1070
     0
  0
VISUALSTYLE
  5
2E
102
{ACAD_REACTORS
330
2A
102
}
102
{ACAD_XDICTIONARY
360
277
102
}
330
2A
100
AcDbVisualStyle
  2
GouraudWithEdges
 70
     3
 71
     2
 72
     2
 73
     1
 90
        2
 40
-0.6
 41
30.0
 62
     5
 63
     7
421
 16777215
 74
     1
 91
        4
 64
     7
 65
   257
 75
     1
175
     1
 42
1.0
 92
        0
 66
   257
 43
1.0
 76
     1
 77
     6
 78
     2
 67
     7
 79
     5
170
     0
171
     0
290
     0
174
     0
 93
       13
 44
0.0
173
     0
291
     1
 45
0.0
1001
ACAD
1000
AcDbSavedByObjectVersion
1070
     0
  0
VISUALSTYLE
  5
38
102
{ACAD_REACTORS
330
2A
102
}
102
{ACAD_XDICTIONARY
360
28B
102
}
330
2A
100
AcDbVisualStyle
  2
Linepattern
 70
    14
 71
     2
 72
     2
 73
     0
 90
        0
 40
-0.6
 41
-30.0
 62
     5
 63
     7
421
 16777215
 74
     1
 91
        4
 64
     7
 65
   257
 75
     7
175
     7
 42
1.0
 92
        8
 66
     7
 43
1.0
 76
     1
 77
     6
 78
     2
 67
     7
 79
     5
170
     0
171
     0
290
     0
174
     0
 93
        1
 44
0.0
173
     0
291
     1
 45
0.0
1001
ACAD
1000
AcDbSavedByObjectVersion
1070
     0
  0
VISUALSTYLE
  5
33
102
{ACAD_REACTORS
330
2A
102
}
102
{ACAD_XDICTIONARY
360
281
102
}
330
2A
100
AcDbVisualStyle
  2
Realistic
 70
     8
 71
     2
 72
     2
 73
     0
 90
        0
 40
-0.6
 41
-30.0
 62
     5
 63
     7
421
 16777215
 74
     1
 91
        0
 64
     7
 65
   257
 75
     1
175
     1
 42
1.0
 92
        8
 66
     8
424
  7895160
 43
1.0
 76
     1
 77
     6
 78
     2
 67
     7
 79
     5
170
     0
171
     0
290
     0
174
     0
 93
       13
 44
0.0
173
     0
291
     0
 45
0.0
1001
ACAD
1000
AcDbSavedByObjectVersion
1070
     0
  0
VISUALSTYLE
  5
37
102
{ACAD_REACTORS
330
2A
102
}
102
{ACAD_XDICTIONARY
360
289
102
}
330
2A
100
AcDbVisualStyle
  2
Thicken
 70
    13
 71
     2
 72
     2
 73
     0
 90
        0
 40
-0.6
 41
-30.0
 62
     5
 63
     7
421
 16777215
 74
     1
 91
        4
 64
     7
 65
   257
 75
     1
175
     1
 42
1.0
 92
       12
 66
     7
 43
1.0
 76
     1
 77
     6
 78
     2
 67
     7
 79
     5
170
     0
171
     0
290
     0
174
     0
 93
        1
 44
0.0
173
     0
291
     1
 45
0.0
1001
ACAD
1000
AcDbSavedByObjectVersion
1070
     0
  0
DICTIONARY
  5
293
330
3D
100
AcDbDictionary
280
     1
281
     1
  3
ACAD_XREC_ROUNDTRIP
360
294
  0
DICTIONARY
  5
291
330
3C
100
AcDbDictionary
280
     1
281
     1
  3
ACAD_XREC_ROUNDTRIP
360
292
  0
DICTIONARY
  5
295
330
3E
100
AcDbDictionary
280
     1
281
     1
  3
ACAD_XREC_ROUNDTRIP
360
296
  0
DICTIONARY
  5
279
330
2F
100
AcDbDictionary
280
     1
281
     1
  3
ACAD_XREC_ROUNDTRIP
360
27A
  0
DICTIONARY
  5
27D
330
31
100
AcDbDictionary
280
     1
281
     1
  3
ACAD_XREC_ROUNDTRIP
360
27E
  0
DICTIONARY
  5
27B
330
30
100
AcDbDictionary
280
     1
281
     1
  3
ACAD_XREC_ROUNDTRIP
360
27C
  0
DICTIONARY
  5
27F
330
32
100
AcDbDictionary
280
     1
281
     1
  3
ACAD_XREC_ROUNDTRIP
360
280
  0
DICTIONARY
  5
287
330
36
100
AcDbDictionary
280
     1
281
     1
  3
ACAD_XREC_ROUNDTRIP
360
288
  0
DICTIONARY
  5
28F
330
3A
100
AcDbDictionary
280
     1
281
     1
  3
ACAD_XREC_ROUNDTRIP
360
290
  0
DICTIONARY
  5
283
330
34
100
AcDbDictionary
280
     1
281
     1
  3
ACAD_XREC_ROUNDTRIP
360
284
  0
DICTIONARY
  5
285
330
35
100
AcDbDictionary
280
     1
281
     1
  3
ACAD_XREC_ROUNDTRIP
360
286
  0
DICTIONARY
  5
28D
330
39
100
AcDbDictionary
280
     1
281
     1
  3
ACAD_XREC_ROUNDTRIP
360
28E
  0
DICTIONARY
  5
271
330
2B
100
AcDbDictionary
280
     1
281
     1
  3
ACAD_XREC_ROUNDTRIP
360
272
  0
DICTIONARY
  5
273
330
2C
100
AcDbDictionary
280
     1
281
     1
  3
ACAD_XREC_ROUNDTRIP
360
274
  0
DICTIONARY
  5
275
330
2D
100
AcDbDictionary
280
     1
281
     1
  3
ACAD_XREC_ROUNDTRIP
360
276
  0
DICTIONARY
  5
277
330
2E
100
AcDbDictionary
280
     1
281
     1
  3
ACAD_XREC_ROUNDTRIP
360
278
  0
DICTIONARY
  5
28B
330
38
100
AcDbDictionary
280
     1
281
     1
  3
ACAD_XREC_ROUNDTRIP
360
28C
  0
DICTIONARY
  5
281
330
33
100
AcDbDictionary
280
     1
281
     1
  3
ACAD_XREC_ROUNDTRIP
360
282
  0
DICTIONARY
  5
289
330
37
100
AcDbDictionary
280
     1
281
     1
  3
ACAD_XREC_ROUNDTRIP
360
28A
  0
XRECORD
  5
294
102
{ACAD_REACTORS
330
293
102
}
330
293
100
AcDbXrecord
280
     1
102
MATERIAL
148
0.0
149
0.0
149
0.0
 93
        0
 94
      127
282
     0
 72
     1
 77
     1
171
     1
175
     1
179
     1
273
     0
  0
XRECORD
  5
292
102
{ACAD_REACTORS
330
291
102
}
330
291
100
AcDbXrecord
280
     1
102
MATERIAL
148
0.0
149
0.0
149
0.0
 93
        0
 94
      127
282
     0
 72
     1
 77
     1
171
     1
175
     1
179
     1
273
     0
  0
XRECORD
  5
296
102
{ACAD_REACTORS
330
295
102
}
330
295
100
AcDbXrecord
280
     1
102
MATERIAL
148
0.0
149
0.0
149
0.0
 93
        0
 94
      127
282
     0
 72
     1
 77
     1
171
     1
175
     1
179
     1
273
     0
  0
XRECORD
  5
27A
102
{ACAD_REACTORS
330
279
102
}
330
279
100
AcDbXrecord
280
     1
102
RTVSPropertyOp0
 70
     1
102
RTVSPropertyOp1
 70
     1
102
RTVSPropertyOp2
 70
     1
102
RTVSPropertyOp3
 70
     1
102
RTVSPropertyOp4
 70
     1
102
RTVSPropertyOp5
 70
     1
102
RTVSPropertyOp6
 70
     1
102
RTVSPropertyOp7
 70
     1
102
RTVSPropertyOp8
 70
     1
102
RTVSPropertyOp9
 70
     1
102
RTVSPropertyOp10
 70
     1
102
RTVSPropertyOp11
 70
     1
102
RTVSPropertyOp12
 70
     1
102
RTVSPropertyOp13
 70
     1
102
RTVSPropertyOp14
 70
     1
102
RTVSPropertyOp15
 70
     1
102
RTVSPropertyOp16
 70
     1
102
RTVSPropertyOp17
 70
     1
102
RTVSPropertyOp18
 70
     1
102
RTVSPropertyOp19
 70
     1
102
RTVSPropertyOp20
 70
     1
102
RTVSPropertyOp21
 70
     1
102
RTVSPropertyOp22
 70
     1
102
RTVSPropertyOp23
 70
     1
102
RTVSPropertyOp24
 70
     1
102
RTVSPropertyOp25
 70
     1
102
RTVSPropertyOp26
 70
     1
102
RTVSPropertyOp27
 70
     1
102
RTVSPropertyOp28
 70
     1
102
RTVSPropertyOp29
 70
     1
102
RTVSPropertyOp30
 70
     1
102
RTVSPropertyOp31
 70
     1
102
RTVSPropertyOp32
 70
     1
  0
XRECORD
  5
27E
102
{ACAD_REACTORS
330
27D
102
}
330
27D
100
AcDbXrecord
280
     1
102
RTVSPropertyOp0
 70
     1
102
RTVSPropertyOp1
 70
     1
102
RTVSPropertyOp2
 70
     1
102
RTVSPropertyOp3
 70
     1
102
RTVSPropertyOp4
 70
     1
102
RTVSPropertyOp5
 70
     1
102
RTVSPropertyOp6
 70
     1
102
RTVSPropertyOp7
 70
     1
102
RTVSPropertyOp8
 70
     1
102
RTVSPropertyOp9
 70
     1
102
RTVSPropertyOp10
 70
     1
102
RTVSPropertyOp11
 70
     1
102
RTVSPropertyOp12
 70
     1
102
RTVSPropertyOp13
 70
     1
102
RTVSPropertyOp14
 70
     1
102
RTVSPropertyOp15
 70
     1
102
RTVSPropertyOp16
 70
     1
102
RTVSPropertyOp17
 70
     1
102
RTVSPropertyOp18
 70
     1
102
RTVSPropertyOp19
 70
     1
102
RTVSPropertyOp20
 70
     1
102
RTVSPropertyOp21
 70
     1
102
RTVSPropertyOp22
 70
     1
102
RTVSPropertyOp23
 70
     1
102
RTVSPropertyOp24
 70
     1
102
RTVSPropertyOp25
 70
     1
102
RTVSPropertyOp26
 70
     1
102
RTVSPropertyOp27
 70
     1
102
RTVSPropertyOp28
 70
     1
102
RTVSPropertyOp29
 70
     1
102
RTVSPropertyOp30
 70
     1
102
RTVSPropertyOp31
 70
     1
102
RTVSPropertyOp32
 70
     1
  0
XRECORD
  5
27C
102
{ACAD_REACTORS
330
27B
102
}
330
27B
100
AcDbXrecord
280
     1
102
RTVSPropertyOp0
 70
     1
102
RTVSPropertyOp1
 70
     1
102
RTVSPropertyOp2
 70
     1
102
RTVSPropertyOp3
 70
     1
102
RTVSPropertyOp4
 70
     1
102
RTVSPropertyOp5
 70
     1
102
RTVSPropertyOp6
 70
     1
102
RTVSPropertyOp7
 70
     1
102
RTVSPropertyOp8
 70
     1
102
RTVSPropertyOp9
 70
     1
102
RTVSPropertyOp10
 70
     1
102
RTVSPropertyOp11
 70
     1
102
RTVSPropertyOp12
 70
     1
102
RTVSPropertyOp13
 70
     1
102
RTVSPropertyOp14
 70
     1
102
RTVSPropertyOp15
 70
     1
102
RTVSPropertyOp16
 70
     1
102
RTVSPropertyOp17
 70
     1
102
RTVSPropertyOp18
 70
     1
102
RTVSPropertyOp19
 70
     1
102
RTVSPropertyOp20
 70
     1
102
RTVSPropertyOp21
 70
     1
102
RTVSPropertyOp22
 70
     1
102
RTVSPropertyOp23
 70
     1
102
RTVSPropertyOp24
 70
     1
102
RTVSPropertyOp25
 70
     1
102
RTVSPropertyOp26
 70
     1
102
RTVSPropertyOp27
 70
     1
102
RTVSPropertyOp28
 70
     1
102
RTVSPropertyOp29
 70
     1
102
RTVSPropertyOp30
 70
     1
102
RTVSPropertyOp31
 70
     1
102
RTVSPropertyOp32
 70
     1
  0
XRECORD
  5
280
102
{ACAD_REACTORS
330
27F
102
}
330
27F
100
AcDbXrecord
280
     1
102
RTVSPropertyOp0
 70
     1
102
RTVSPropertyOp1
 70
     1
102
RTVSPropertyOp2
 70
     1
102
RTVSPropertyOp3
 70
     1
102
RTVSPropertyOp4
 70
     1
102
RTVSPropertyOp5
 70
     1
102
RTVSPropertyOp6
 70
     1
102
RTVSPropertyOp7
 70
     1
102
RTVSPropertyOp8
 70
     1
102
RTVSPropertyOp9
 70
     1
102
RTVSPropertyOp10
 70
     1
102
RTVSPropertyOp11
 70
     1
102
RTVSPropertyOp12
 70
     1
102
RTVSPropertyOp13
 70
     1
102
RTVSPropertyOp14
 70
     1
102
RTVSPropertyOp15
 70
     1
102
RTVSPropertyOp16
 70
     1
102
RTVSPropertyOp17
 70
     1
102
RTVSPropertyOp18
 70
     1
102
RTVSPropertyOp19
 70
     1
102
RTVSPropertyOp20
 70
     1
102
RTVSPropertyOp21
 70
     1
102
RTVSPropertyOp22
 70
     1
102
RTVSPropertyOp23
 70
     1
102
RTVSPropertyOp24
 70
     1
102
RTVSPropertyOp25
 70
     1
102
RTVSPropertyOp26
 70
     1
102
RTVSPropertyOp27
 70
     1
102
RTVSPropertyOp28
 70
     1
102
RTVSPropertyOp29
 70
     1
102
RTVSPropertyOp30
 70
     1
102
RTVSPropertyOp31
 70
     1
102
RTVSPropertyOp32
 70
     1
  0
XRECORD
  5
288
102
{ACAD_REACTORS
330
287
102
}
330
287
100
AcDbXrecord
280
     1
102
RTVSPropertyOp0
 70
     1
102
RTVSPropertyOp1
 70
     1
102
RTVSPropertyOp2
 70
     1
102
RTVSPropertyOp3
 70
     1
102
RTVSPropertyOp4
 70
     1
102
RTVSPropertyOp5
 70
     1
102
RTVSPropertyOp6
 70
     1
102
RTVSPropertyOp7
 70
     1
102
RTVSPropertyOp8
 70
     1
102
RTVSPropertyOp9
 70
     1
102
RTVSPropertyOp10
 70
     1
102
RTVSPropertyOp11
 70
     1
102
RTVSPropertyOp12
 70
     1
102
RTVSPropertyOp13
 70
     1
102
RTVSPropertyOp14
 70
     1
102
RTVSPropertyOp15
 70
     1
102
RTVSPropertyOp16
 70
     1
102
RTVSPropertyOp17
 70
     1
102
RTVSPropertyOp18
 70
     1
102
RTVSPropertyOp19
 70
     1
102
RTVSPropertyOp20
 70
     1
102
RTVSPropertyOp21
 70
     1
102
RTVSPropertyOp22
 70
     1
102
RTVSPropertyOp23
 70
     1
102
RTVSPropertyOp24
 70
     1
102
RTVSPropertyOp25
 70
     1
102
RTVSPropertyOp26
 70
     1
102
RTVSPropertyOp27
 70
     1
102
RTVSPropertyOp28
 70
     1
102
RTVSPropertyOp29
 70
     1
102
RTVSPropertyOp30
 70
     1
102
RTVSPropertyOp31
 70
     1
102
RTVSPropertyOp32
 70
     1
  0
XRECORD
  5
290
102
{ACAD_REACTORS
330
28F
102
}
330
28F
100
AcDbXrecord
280
     1
102
RTVSPropertyOp0
 70
     1
102
RTVSPropertyOp1
 70
     1
102
RTVSPropertyOp2
 70
     1
102
RTVSPropertyOp3
 70
     1
102
RTVSPropertyOp4
 70
     1
102
RTVSPropertyOp5
 70
     1
102
RTVSPropertyOp6
 70
     1
102
RTVSPropertyOp7
 70
     1
102
RTVSPropertyOp8
 70
     1
102
RTVSPropertyOp9
 70
     1
102
RTVSPropertyOp10
 70
     1
102
RTVSPropertyOp11
 70
     1
102
RTVSPropertyOp12
 70
     1
102
RTVSPropertyOp13
 70
     1
102
RTVSPropertyOp14
 70
     1
102
RTVSPropertyOp15
 70
     1
102
RTVSPropertyOp16
 70
     1
102
RTVSPropertyOp17
 70
     1
102
RTVSPropertyOp18
 70
     1
102
RTVSPropertyOp19
 70
     1
102
RTVSPropertyOp20
 70
     1
102
RTVSPropertyOp21
 70
     1
102
RTVSPropertyOp22
 70
     1
102
RTVSPropertyOp23
 70
     1
102
RTVSPropertyOp24
 70
     1
102
RTVSPropertyOp25
 70
     1
102
RTVSPropertyOp26
 70
     1
102
RTVSPropertyOp27
 70
     1
102
RTVSPropertyOp28
 70
     1
102
RTVSPropertyOp29
 70
     1
102
RTVSPropertyOp30
 70
     1
102
RTVSPropertyOp31
 70
     1
102
RTVSPropertyOp32
 70
     1
  0
XRECORD
  5
284
102
{ACAD_REACTORS
330
283
102
}
330
283
100
AcDbXrecord
280
     1
102
RTVSPropertyOp0
 70
     1
102
RTVSPropertyOp1
 70
     1
102
RTVSPropertyOp2
 70
     1
102
RTVSPropertyOp3
 70
     1
102
RTVSPropertyOp4
 70
     1
102
RTVSPropertyOp5
 70
     1
102
RTVSPropertyOp6
 70
     1
102
RTVSPropertyOp7
 70
     1
102
RTVSPropertyOp8
 70
     1
102
RTVSPropertyOp9
 70
     1
102
RTVSPropertyOp10
 70
     1
102
RTVSPropertyOp11
 70
     1
102
RTVSPropertyOp12
 70
     1
102
RTVSPropertyOp13
 70
     1
102
RTVSPropertyOp14
 70
     1
102
RTVSPropertyOp15
 70
     1
102
RTVSPropertyOp16
 70
     1
102
RTVSPropertyOp17
 70
     1
102
RTVSPropertyOp18
 70
     1
102
RTVSPropertyOp19
 70
     1
102
RTVSPropertyOp20
 70
     1
102
RTVSPropertyOp21
 70
     1
102
RTVSPropertyOp22
 70
     1
102
RTVSPropertyOp23
 70
     1
102
RTVSPropertyOp24
 70
     1
102
RTVSPropertyOp25
 70
     1
102
RTVSPropertyOp26
 70
     1
102
RTVSPropertyOp27
 70
     1
102
RTVSPropertyOp28
 70
     1
102
RTVSPropertyOp29
 70
     1
102
RTVSPropertyOp30
 70
     1
102
RTVSPropertyOp31
 70
     1
102
RTVSPropertyOp32
 70
     1
  0
XRECORD
  5
286
102
{ACAD_REACTORS
330
285
102
}
330
285
100
AcDbXrecord
280
     1
102
RTVSPropertyOp0
 70
     1
102
RTVSPropertyOp1
 70
     1
102
RTVSPropertyOp2
 70
     1
102
RTVSPropertyOp3
 70
     1
102
RTVSPropertyOp4
 70
     1
102
RTVSPropertyOp5
 70
     1
102
RTVSPropertyOp6
 70
     1
102
RTVSPropertyOp7
 70
     1
102
RTVSPropertyOp8
 70
     1
102
RTVSPropertyOp9
 70
     1
102
RTVSPropertyOp10
 70
     1
102
RTVSPropertyOp11
 70
     1
102
RTVSPropertyOp12
 70
     1
102
RTVSPropertyOp13
 70
     1
102
RTVSPropertyOp14
 70
     1
102
RTVSPropertyOp15
 70
     1
102
RTVSPropertyOp16
 70
     1
102
RTVSPropertyOp17
 70
     1
102
RTVSPropertyOp18
 70
     1
102
RTVSPropertyOp19
 70
     1
102
RTVSPropertyOp20
 70
     1
102
RTVSPropertyOp21
 70
     1
102
RTVSPropertyOp22
 70
     1
102
RTVSPropertyOp23
 70
     1
102
RTVSPropertyOp24
 70
     1
102
RTVSPropertyOp25
 70
     1
102
RTVSPropertyOp26
 70
     1
102
RTVSPropertyOp27
 70
     1
102
RTVSPropertyOp28
 70
     1
102
RTVSPropertyOp29
 70
     1
102
RTVSPropertyOp30
 70
     1
102
RTVSPropertyOp31
 70
     1
102
RTVSPropertyOp32
 70
     1
  0
XRECORD
  5
28E
102
{ACAD_REACTORS
330
28D
102
}
330
28D
100
AcDbXrecord
280
     1
102
RTVSPropertyOp0
 70
     1
102
RTVSPropertyOp1
 70
     1
102
RTVSPropertyOp2
 70
     1
102
RTVSPropertyOp3
 70
     1
102
RTVSPropertyOp4
 70
     1
102
RTVSPropertyOp5
 70
     1
102
RTVSPropertyOp6
 70
     1
102
RTVSPropertyOp7
 70
     1
102
RTVSPropertyOp8
 70
     1
102
RTVSPropertyOp9
 70
     1
102
RTVSPropertyOp10
 70
     1
102
RTVSPropertyOp11
 70
     1
102
RTVSPropertyOp12
 70
     1
102
RTVSPropertyOp13
 70
     1
102
RTVSPropertyOp14
 70
     1
102
RTVSPropertyOp15
 70
     1
102
RTVSPropertyOp16
 70
     1
102
RTVSPropertyOp17
 70
     1
102
RTVSPropertyOp18
 70
     1
102
RTVSPropertyOp19
 70
     1
102
RTVSPropertyOp20
 70
     1
102
RTVSPropertyOp21
 70
     1
102
RTVSPropertyOp22
 70
     1
102
RTVSPropertyOp23
 70
     1
102
RTVSPropertyOp24
 70
     1
102
RTVSPropertyOp25
 70
     1
102
RTVSPropertyOp26
 70
     1
102
RTVSPropertyOp27
 70
     1
102
RTVSPropertyOp28
 70
     1
102
RTVSPropertyOp29
 70
     1
102
RTVSPropertyOp30
 70
     1
102
RTVSPropertyOp31
 70
     1
102
RTVSPropertyOp32
 70
     1
  0
XRECORD
  5
272
102
{ACAD_REACTORS
330
271
102
}
330
271
100
AcDbXrecord
280
     1
102
RTVSPropertyOp0
 70
     1
102
RTVSPropertyOp1
 70
     1
102
RTVSPropertyOp2
 70
     1
102
RTVSPropertyOp3
 70
     1
102
RTVSPropertyOp4
 70
     1
102
RTVSPropertyOp5
 70
     1
102
RTVSPropertyOp6
 70
     1
102
RTVSPropertyOp7
 70
     1
102
RTVSPropertyOp8
 70
     1
102
RTVSPropertyOp9
 70
     1
102
RTVSPropertyOp10
 70
     1
102
RTVSPropertyOp11
 70
     1
102
RTVSPropertyOp12
 70
     1
102
RTVSPropertyOp13
 70
     1
102
RTVSPropertyOp14
 70
     1
102
RTVSPropertyOp15
 70
     1
102
RTVSPropertyOp16
 70
     1
102
RTVSPropertyOp17
 70
     1
102
RTVSPropertyOp18
 70
     1
102
RTVSPropertyOp19
 70
     1
102
RTVSPropertyOp20
 70
     1
102
RTVSPropertyOp21
 70
     1
102
RTVSPropertyOp22
 70
     1
102
RTVSPropertyOp23
 70
     1
102
RTVSPropertyOp24
 70
     1
102
RTVSPropertyOp25
 70
     1
102
RTVSPropertyOp26
 70
     1
102
RTVSPropertyOp27
 70
     1
102
RTVSPropertyOp28
 70
     1
102
RTVSPropertyOp29
 70
     1
102
RTVSPropertyOp30
 70
     1
102
RTVSPropertyOp31
 70
     1
102
RTVSPropertyOp32
 70
     1
  0
XRECORD
  5
274
102
{ACAD_REACTORS
330
273
102
}
330
273
100
AcDbXrecord
280
     1
102
RTVSPropertyOp0
 70
     1
102
RTVSPropertyOp1
 70
     1
102
RTVSPropertyOp2
 70
     1
102
RTVSPropertyOp3
 70
     1
102
RTVSPropertyOp4
 70
     1
102
RTVSPropertyOp5
 70
     1
102
RTVSPropertyOp6
 70
     1
102
RTVSPropertyOp7
 70
     1
102
RTVSPropertyOp8
 70
     1
102
RTVSPropertyOp9
 70
     1
102
RTVSPropertyOp10
 70
     1
102
RTVSPropertyOp11
 70
     1
102
RTVSPropertyOp12
 70
     1
102
RTVSPropertyOp13
 70
     1
102
RTVSPropertyOp14
 70
     1
102
RTVSPropertyOp15
 70
     1
102
RTVSPropertyOp16
 70
     1
102
RTVSPropertyOp17
 70
     1
102
RTVSPropertyOp18
 70
     1
102
RTVSPropertyOp19
 70
     1
102
RTVSPropertyOp20
 70
     1
102
RTVSPropertyOp21
 70
     1
102
RTVSPropertyOp22
 70
     1
102
RTVSPropertyOp23
 70
     1
102
RTVSPropertyOp24
 70
     1
102
RTVSPropertyOp25
 70
     1
102
RTVSPropertyOp26
 70
     1
102
RTVSPropertyOp27
 70
     1
102
RTVSPropertyOp28
 70
     1
102
RTVSPropertyOp29
 70
     1
102
RTVSPropertyOp30
 70
     1
102
RTVSPropertyOp31
 70
     1
102
RTVSPropertyOp32
 70
     1
  0
XRECORD
  5
276
102
{ACAD_REACTORS
330
275
102
}
330
275
100
AcDbXrecord
280
     1
102
RTVSPropertyOp0
 70
     1
102
RTVSPropertyOp1
 70
     1
102
RTVSPropertyOp2
 70
     1
102
RTVSPropertyOp3
 70
     1
102
RTVSPropertyOp4
 70
     1
102
RTVSPropertyOp5
 70
     1
102
RTVSPropertyOp6
 70
     1
102
RTVSPropertyOp7
 70
     1
102
RTVSPropertyOp8
 70
     1
102
RTVSPropertyOp9
 70
     1
102
RTVSPropertyOp10
 70
     1
102
RTVSPropertyOp11
 70
     1
102
RTVSPropertyOp12
 70
     1
102
RTVSPropertyOp13
 70
     1
102
RTVSPropertyOp14
 70
     1
102
RTVSPropertyOp15
 70
     1
102
RTVSPropertyOp16
 70
     1
102
RTVSPropertyOp17
 70
     1
102
RTVSPropertyOp18
 70
     1
102
RTVSPropertyOp19
 70
     1
102
RTVSPropertyOp20
 70
     1
102
RTVSPropertyOp21
 70
     1
102
RTVSPropertyOp22
 70
     1
102
RTVSPropertyOp23
 70
     1
102
RTVSPropertyOp24
 70
     1
102
RTVSPropertyOp25
 70
     1
102
RTVSPropertyOp26
 70
     1
102
RTVSPropertyOp27
 70
     1
102
RTVSPropertyOp28
 70
     1
102
RTVSPropertyOp29
 70
     1
102
RTVSPropertyOp30
 70
     1
102
RTVSPropertyOp31
 70
     1
102
RTVSPropertyOp32
 70
     1
  0
XRECORD
  5
278
102
{ACAD_REACTORS
330
277
102
}
330
277
100
AcDbXrecord
280
     1
102
RTVSPropertyOp0
 70
     1
102
RTVSPropertyOp1
 70
     1
102
RTVSPropertyOp2
 70
     1
102
RTVSPropertyOp3
 70
     1
102
RTVSPropertyOp4
 70
     1
102
RTVSPropertyOp5
 70
     1
102
RTVSPropertyOp6
 70
     1
102
RTVSPropertyOp7
 70
     1
102
RTVSPropertyOp8
 70
     1
102
RTVSPropertyOp9
 70
     1
102
RTVSPropertyOp10
 70
     1
102
RTVSPropertyOp11
 70
     1
102
RTVSPropertyOp12
 70
     1
102
RTVSPropertyOp13
 70
     1
102
RTVSPropertyOp14
 70
     1
102
RTVSPropertyOp15
 70
     1
102
RTVSPropertyOp16
 70
     1
102
RTVSPropertyOp17
 70
     1
102
RTVSPropertyOp18
 70
     1
102
RTVSPropertyOp19
 70
     1
102
RTVSPropertyOp20
 70
     1
102
RTVSPropertyOp21
 70
     1
102
RTVSPropertyOp22
 70
     1
102
RTVSPropertyOp23
 70
     1
102
RTVSPropertyOp24
 70
     1
102
RTVSPropertyOp25
 70
     1
102
RTVSPropertyOp26
 70
     1
102
RTVSPropertyOp27
 70
     1
102
RTVSPropertyOp28
 70
     1
102
RTVSPropertyOp29
 70
     1
102
RTVSPropertyOp30
 70
     1
102
RTVSPropertyOp31
 70
     1
102
RTVSPropertyOp32
 70
     1
  0
XRECORD
  5
28C
102
{ACAD_REACTORS
330
28B
102
}
330
28B
100
AcDbXrecord
280
     1
102
RTVSPropertyOp0
 70
     1
102
RTVSPropertyOp1
 70
     1
102
RTVSPropertyOp2
 70
     1
102
RTVSPropertyOp3
 70
     1
102
RTVSPropertyOp4
 70
     1
102
RTVSPropertyOp5
 70
     1
102
RTVSPropertyOp6
 70
     1
102
RTVSPropertyOp7
 70
     1
102
RTVSPropertyOp8
 70
     1
102
RTVSPropertyOp9
 70
     1
102
RTVSPropertyOp10
 70
     1
102
RTVSPropertyOp11
 70
     1
102
RTVSPropertyOp12
 70
     1
102
RTVSPropertyOp13
 70
     1
102
RTVSPropertyOp14
 70
     1
102
RTVSPropertyOp15
 70
     1
102
RTVSPropertyOp16
 70
     1
102
RTVSPropertyOp17
 70
     1
102
RTVSPropertyOp18
 70
     1
102
RTVSPropertyOp19
 70
     1
102
RTVSPropertyOp20
 70
     1
102
RTVSPropertyOp21
 70
     1
102
RTVSPropertyOp22
 70
     1
102
RTVSPropertyOp23
 70
     1
102
RTVSPropertyOp24
 70
     1
102
RTVSPropertyOp25
 70
     1
102
RTVSPropertyOp26
 70
     1
102
RTVSPropertyOp27
 70
     1
102
RTVSPropertyOp28
 70
     1
102
RTVSPropertyOp29
 70
     1
102
RTVSPropertyOp30
 70
     1
102
RTVSPropertyOp31
 70
     1
102
RTVSPropertyOp32
 70
     1
  0
XRECORD
  5
282
102
{ACAD_REACTORS
330
281
102
}
330
281
100
AcDbXrecord
280
     1
102
RTVSPropertyOp0
 70
     1
102
RTVSPropertyOp1
 70
     1
102
RTVSPropertyOp2
 70
     1
102
RTVSPropertyOp3
 70
     1
102
RTVSPropertyOp4
 70
     1
102
RTVSPropertyOp5
 70
     1
102
RTVSPropertyOp6
 70
     1
102
RTVSPropertyOp7
 70
     1
102
RTVSPropertyOp8
 70
     1
102
RTVSPropertyOp9
 70
     1
102
RTVSPropertyOp10
 70
     1
102
RTVSPropertyOp11
 70
     1
102
RTVSPropertyOp12
 70
     1
102
RTVSPropertyOp13
 70
     1
102
RTVSPropertyOp14
 70
     1
102
RTVSPropertyOp15
 70
     1
102
RTVSPropertyOp16
 70
     1
102
RTVSPropertyOp17
 70
     1
102
RTVSPropertyOp18
 70
     1
102
RTVSPropertyOp19
 70
     1
102
RTVSPropertyOp20
 70
     1
102
RTVSPropertyOp21
 70
     1
102
RTVSPropertyOp22
 70
     1
102
RTVSPropertyOp23
 70
     1
102
RTVSPropertyOp24
 70
     1
102
RTVSPropertyOp25
 70
     1
102
RTVSPropertyOp26
 70
     1
102
RTVSPropertyOp27
 70
     1
102
RTVSPropertyOp28
 70
     1
102
RTVSPropertyOp29
 70
     1
102
RTVSPropertyOp30
 70
     1
102
RTVSPropertyOp31
 70
     1
102
RTVSPropertyOp32
 70
     1
  0
XRECORD
  5
28A
102
{ACAD_REACTORS
330
289
102
}
330
289
100
AcDbXrecord
280
     1
102
RTVSPropertyOp0
 70
     1
102
RTVSPropertyOp1
 70
     1
102
RTVSPropertyOp2
 70
     1
102
RTVSPropertyOp3
 70
     1
102
RTVSPropertyOp4
 70
     1
102
RTVSPropertyOp5
 70
     1
102
RTVSPropertyOp6
 70
     1
102
RTVSPropertyOp7
 70
     1
102
RTVSPropertyOp8
 70
     1
102
RTVSPropertyOp9
 70
     1
102
RTVSPropertyOp10
 70
     1
102
RTVSPropertyOp11
 70
     1
102
RTVSPropertyOp12
 70
     1
102
RTVSPropertyOp13
 70
     1
102
RTVSPropertyOp14
 70
     1
102
RTVSPropertyOp15
 70
     1
102
RTVSPropertyOp16
 70
     1
102
RTVSPropertyOp17
 70
     1
102
RTVSPropertyOp18
 70
     1
102
RTVSPropertyOp19
 70
     1
102
RTVSPropertyOp20
 70
     1
102
RTVSPropertyOp21
 70
     1
102
RTVSPropertyOp22
 70
     1
102
RTVSPropertyOp23
 70
     1
102
RTVSPropertyOp24
 70
     1
102
RTVSPropertyOp25
 70
     1
102
RTVSPropertyOp26
 70
     1
102
RTVSPropertyOp27
 70
     1
102
RTVSPropertyOp28
 70
     1
102
RTVSPropertyOp29
 70
     1
102
RTVSPropertyOp30
 70
     1
102
RTVSPropertyOp31
 70
     1
102
RTVSPropertyOp32
 70
     1
  0
ENDSEC
  0
EOF
