  0
SECTION
  2
HEADER
  9
$ACADVER
  1
AC1018
  9
$ACADMAINTVER
 70
     0
  9
$DWGCODEPAGE
  3
ANSI_1252
  9
$INSBASE
 10
0.0
 20
0.0
 30
0.0
  9
$EXTMIN
 10
-249.5000008125407
 20
-3.61469889302261
 30
0.0
  9
$EXTMAX
 10
47.49999918745735
 20
206.3853011069775
 30
0.0
  9
$LIMMIN
 10
0.0
 20
0.0
  9
$LIMMAX
 10
12.0
 20
9.0
  9
$ORTHOMODE
 70
     0
  9
$REGENMODE
 70
     1
  9
$FILLMODE
 70
     1
  9
$QTEXTMODE
 70
     0
  9
$MIRRTEXT
 70
     1
  9
$LTSCALE
 40
1.0
  9
$ATTMODE
 70
     1
  9
$TEXTSIZE
 40
0.2
  9
$TRACEWID
 40
0.05
  9
$TEXTSTYLE
  7
Standard
  9
$CLAYER
  8
0
  9
$CELTYPE
  6
ByLayer
  9
$CECOLOR
 62
   256
  9
$CELTSCALE
 40
1.0
  9
$DISPSILH
 70
     0
  9
$DIMSCALE
 40
1.0
  9
$DIMASZ
 40
0.18
  9
$DIMEXO
 40
0.0625
  9
$DIMDLI
 40
0.38
  9
$DIMRND
 40
0.0
  9
$DIMDLE
 40
0.0
  9
$DIMEXE
 40
0.18
  9
$DIMTP
 40
0.0
  9
$DIMTM
 40
0.0
  9
$DIMTXT
 40
0.18
  9
$DIMCEN
 40
0.09
  9
$DIMTSZ
 40
0.0
  9
$DIMTOL
 70
     0
  9
$DIMLIM
 70
     0
  9
$DIMTIH
 70
     1
  9
$DIMTOH
 70
     1
  9
$DIMSE1
 70
     0
  9
$DIMSE2
 70
     0
  9
$DIMTAD
 70
     0
  9
$DIMZIN
 70
     0
  9
$DIMBLK
  1

  9
$DIMASO
 70
     1
  9
$DIMSHO
 70
     1
  9
$DIMPOST
  1

  9
$DIMAPOST
  1

  9
$DIMALT
 70
     0
  9
$DIMALTD
 70
     2
  9
$DIMALTF
 40
25.4
  9
$DIMLFAC
 40
1.0
  9
$DIMTOFL
 70
     0
  9
$DIMTVP
 40
0.0
  9
$DIMTIX
 70
     0
  9
$DIMSOXD
 70
     0
  9
$DIMSAH
 70
     0
  9
$DIMBLK1
  1

  9
$DIMBLK2
  1

  9
$DIMSTYLE
  2
Standard
  9
$DIMCLRD
 70
     0
  9
$DIMCLRE
 70
     0
  9
$DIMCLRT
 70
     0
  9
$DIMTFAC
 40
1.0
  9
$DIMGAP
 40
0.09
  9
$DIMJUST
 70
     0
  9
$DIMSD1
 70
     0
  9
$DIMSD2
 70
     0
  9
$DIMTOLJ
 70
     1
  9
$DIMTZIN
 70
     0
  9
$DIMALTZ
 70
     0
  9
$DIMALTTZ
 70
     0
  9
$DIMUPT
 70
     0
  9
$DIMDEC
 70
     4
  9
$DIMTDEC
 70
     4
  9
$DIMALTU
 70
     2
  9
$DIMALTTD
 70
     2
  9
$DIMTXSTY
  7
Standard
  9
$DIMAUNIT
 70
     0
  9
$DIMADEC
 70
     0
  9
$DIMALTRND
 40
0.0
  9
$DIMAZIN
 70
     0
  9
$DIMDSEP
 70
    46
  9
$DIMATFIT
 70
     3
  9
$DIMFRAC
 70
     0
  9
$DIMLDRBLK
  1

  9
$DIMLUNIT
 70
     2
  9
$DIMLWD
 70
    -2
  9
$DIMLWE
 70
    -2
  9
$DIMTMOVE
 70
     0
  9
$LUNITS
 70
     2
  9
$LUPREC
 70
     4
  9
$SKETCHINC
 40
0.1
  9
$FILLETRAD
 40
0.5
  9
$AUNITS
 70
     0
  9
$AUPREC
 70
     0
  9
$MENU
  1
.
  9
$ELEVATION
 40
0.0
  9
$PELEVATION
 40
0.0
  9
$THICKNESS
 40
0.0
  9
$LIMCHECK
 70
     0
  9
$CHAMFERA
 40
0.5
  9
$CHAMFERB
 40
0.5
  9
$CHAMFERC
 40
1.0
  9
$CHAMFERD
 40
0.0
  9
$SKPOLY
 70
     0
  9
$TDCREATE
 40
2458222.505901169
  9
$TDUCREATE
 40
2458222.422567836
  9
$TDUPDATE
 40
2458222.505901713
  9
$TDUUPDATE
 40
2458222.422568379
  9
$TDINDWG
 40
0.0000000116
  9
$TDUSRTIMER
 40
0.0000000116
  9
$USRTIMER
 70
     1
  9
$ANGBASE
 50
0.0
  9
$ANGDIR
 70
     0
  9
$PDMODE
 70
     0
  9
$PDSIZE
 40
0.0
  9
$PLINEWID
 40
0.0
  9
$SPLFRAME
 70
     0
  9
$SPLINETYPE
 70
     6
  9
$SPLINESEGS
 70
     8
  9
$HANDSEED
  5
40A
  9
$SURFTAB1
 70
     6
  9
$SURFTAB2
 70
     6
  9
$SURFTYPE
 70
     6
  9
$SURFU
 70
     6
  9
$SURFV
 70
     6
  9
$UCSBASE
  2

  9
$UCSNAME
  2

  9
$UCSORG
 10
0.0
 20
0.0
 30
0.0
  9
$UCSXDIR
 10
1.0
 20
0.0
 30
0.0
  9
$UCSYDIR
 10
0.0
 20
1.0
 30
0.0
  9
$UCSORTHOREF
  2

  9
$UCSORTHOVIEW
 70
     0
  9
$UCSORGTOP
 10
0.0
 20
0.0
 30
0.0
  9
$UCSORGBOTTOM
 10
0.0
 20
0.0
 30
0.0
  9
$UCSORGLEFT
 10
0.0
 20
0.0
 30
0.0
  9
$UCSORGRIGHT
 10
0.0
 20
0.0
 30
0.0
  9
$UCSORGFRONT
 10
0.0
 20
0.0
 30
0.0
  9
$UCSORGBACK
 10
0.0
 20
0.0
 30
0.0
  9
$PUCSBASE
  2

  9
$PUCSNAME
  2

  9
$PUCSORG
 10
0.0
 20
0.0
 30
0.0
  9
$PUCSXDIR
 10
1.0
 20
0.0
 30
0.0
  9
$PUCSYDIR
 10
0.0
 20
1.0
 30
0.0
  9
$PUCSORTHOREF
  2

  9
$PUCSORTHOVIEW
 70
     0
  9
$PUCSORGTOP
 10
0.0
 20
0.0
 30
0.0
  9
$PUCSORGBOTTOM
 10
0.0
 20
0.0
 30
0.0
  9
$PUCSORGLEFT
 10
0.0
 20
0.0
 30
0.0
  9
$PUCSORGRIGHT
 10
0.0
 20
0.0
 30
0.0
  9
$PUCSORGFRONT
 10
0.0
 20
0.0
 30
0.0
  9
$PUCSORGBACK
 10
0.0
 20
0.0
 30
0.0
  9
$USERI1
 70
     0
  9
$USERI2
 70
     0
  9
$USERI3
 70
     0
  9
$USERI4
 70
     0
  9
$USERI5
 70
     0
  9
$USERR1
 40
18.1
  9
$USERR2
 40
0.0
  9
$USERR3
 40
0.0
  9
$USERR4
 40
0.0
  9
$USERR5
 40
0.0
  9
$WORLDVIEW
 70
     1
  9
$SHADEDGE
 70
     3
  9
$SHADEDIF
 70
    70
  9
$TILEMODE
 70
     1
  9
$MAXACTVP
 70
    64
  9
$PINSBASE
 10
0.0
 20
0.0
 30
0.0
  9
$PLIMCHECK
 70
     0
  9
$PEXTMIN
 10
1.00000000000000E+20
 20
1.00000000000000E+20
 30
1.00000000000000E+20
  9
$PEXTMAX
 10
-1.00000000000000E+20
 20
-1.00000000000000E+20
 30
-1.00000000000000E+20
  9
$PLIMMIN
 10
0.0
 20
0.0
  9
$PLIMMAX
 10
12.0
 20
9.0
  9
$UNITMODE
 70
     0
  9
$VISRETAIN
 70
     1
  9
$PLINEGEN
 70
     0
  9
$PSLTSCALE
 70
     1
  9
$TREEDEPTH
 70
  3020
  9
$CMLSTYLE
  2
Standard
  9
$CMLJUST
 70
     0
  9
$CMLSCALE
 40
1.0
  9
$PROXYGRAPHICS
 70
     1
  9
$MEASUREMENT
 70
     1
  9
$CELWEIGHT
370
    -1
  9
$ENDCAPS
280
     0
  9
$JOINSTYLE
280
     0
  9
$LWDISPLAY
290
     0
  9
$INSUNITS
 70
     4
  9
$HYPERLINKBASE
  1

  9
$STYLESHEET
  1

  9
$XEDIT
290
     1
  9
$CEPSNTYPE
380
     0
  9
$PSTYLEMODE
290
     1
  9
$FINGERPRINTGUID
  2
{CCB8612F-4C5F-42C5-8B9C-F2A241C1008F}
  9
$VERSIONGUID
  2
{FAEB1C32-E019-11D5-929B-00C0DF256EC4}
  9
$EXTNAMES
290
     1
  9
$PSVPSCALE
 40
0.0
  9
$OLESTARTUP
290
     0
  9
$SORTENTS
280
   127
  9
$INDEXCTL
280
     0
  9
$HIDETEXT
280
     1
  9
$XCLIPFRAME
290
     0
  9
$HALOGAP
280
     0
  9
$OBSCOLOR
 70
   257
  9
$OBSLTYPE
280
     0
  9
$INTERSECTIONDISPLAY
280
     0
  9
$INTERSECTIONCOLOR
 70
   257
  9
$DIMASSOC
280
     2
  9
$PROJECTNAME
  1

  0
ENDSEC
  0
SECTION
  2
CLASSES
  0
CLASS
  1
ACDBDICTIONARYWDFLT
  2
AcDbDictionaryWithDefault
  3
ObjectDBX Classes
 90
        0
 91
        4
280
     0
281
     0
  0
CLASS
  1
VISUALSTYLE
  2
AcDbVisualStyle
  3
ObjectDBX Classes
 90
     4095
 91
        4
280
     0
281
     0
  0
CLASS
  1
MATERIAL
  2
AcDbMaterial
  3
ObjectDBX Classes
 90
     1153
 91
        4
280
     0
281
     0
  0
ENDSEC
  0
SECTION
  2
TABLES
  0
TABLE
  2
VPORT
  5
8
330
0
100
AcDbSymbolTable
 70
     1
  0
VPORT
  5
29
330
8
100
AcDbSymbolTableRecord
100
AcDbViewportTableRecord
  2
*Active
 70
     0
 10
0.0
 20
0.0
 11
1.0
 21
1.0
 12
-101.0000008125417
 22
101.3853011069774
 13
0.0
 23
0.0
 14
0.5
 24
0.5
 15
0.5
 25
0.5
 16
0.0
 26
0.0
 36
1.0
 17
0.0
 27
0.0
 37
0.0
 40
231.0000000000001
 41
1.60267857142857
 42
50.0
 43
0.0
 44
0.0
 50
0.0
 51
0.0
 71
     0
 72
   100
 73
     1
 74
     3
 75
     0
 76
     0
 77
     0
 78
     0
281
     0
 65
     1
110
0.0
120
0.0
130
0.0
111
1.0
121
0.0
131
0.0
112
0.0
122
1.0
132
0.0
 79
     0
146
0.0
  0
ENDTAB
  0
TABLE
  2
LTYPE
  5
5
330
0
100
AcDbSymbolTable
 70
     8
  0
LTYPE
  5
14
330
5
100
AcDbSymbolTableRecord
100
AcDbLinetypeTableRecord
  2
ByBlock
 70
     0
  3

 72
    65
 73
     0
 40
0.0
  0
LTYPE
  5
15
330
5
100
AcDbSymbolTableRecord
100
AcDbLinetypeTableRecord
  2
ByLayer
 70
     0
  3

 72
    65
 73
     0
 40
0.0
  0
LTYPE
  5
16
330
5
100
AcDbSymbolTableRecord
100
AcDbLinetypeTableRecord
  2
Continuous
 70
     0
  3
Solid line
 72
    65
 73
     0
 40
0.0
  0
LTYPE
  5
3F
330
5
100
AcDbSymbolTableRecord
100
AcDbLinetypeTableRecord
  2
DASHED
 70
     0
  3
Dashed
 72
    65
 73
     2
 40
15.0
 49
7.0
 74
     0
 49
-8.0
 74
     0
  0
LTYPE
  5
40
330
5
100
AcDbSymbolTableRecord
100
AcDbLinetypeTableRecord
  2
DOTTED
 70
     0
  3
Dotted
 72
    65
 73
     2
 40
1.0
 49
0.0
 74
     0
 49
-1.0
 74
     0
  0
LTYPE
  5
41
330
5
100
AcDbSymbolTableRecord
100
AcDbLinetypeTableRecord
  2
DOT_CENTER
 70
     0
  3
Dot_Center
 72
    65
 73
     4
 40
14.0
 49
12.0
 74
     0
 49
-1.0
 74
     0
 49
0.0
 74
     0
 49
-1.0
 74
     0
  0
LTYPE
  5
42
330
5
100
AcDbSymbolTableRecord
100
AcDbLinetypeTableRecord
  2
LONG_DASHED
 70
     0
  3
Long_Dashed
 72
    65
 73
     2
 40
15.0
 49
10.0
 74
     0
 49
-5.0
 74
     0
  0
LTYPE
  5
43
330
5
100
AcDbSymbolTableRecord
100
AcDbLinetypeTableRecord
  2
DASH_CENTER
 70
     0
  3
Dash_Center
 72
    65
 73
     4
 40
14.0
 49
11.0
 74
     0
 49
-1.0
 74
     0
 49
1.0
 74
     0
 49
-1.0
 74
     0
  0
LTYPE
  5
44
330
5
100
AcDbSymbolTableRecord
100
AcDbLinetypeTableRecord
  2
PHANTOM
 70
     0
  3
Phantom
 72
    65
 73
     6
 40
13.0
 49
10.0
 74
     0
 49
-1.0
 74
     0
 49
0.0
 74
     0
 49
-1.0
 74
     0
 49
0.0
 74
     0
 49
-1.0
 74
     0
  0
LTYPE
  5
45
330
5
100
AcDbSymbolTableRecord
100
AcDbLinetypeTableRecord
  2
CENTER_DASH_DASH
 70
     0
  3
Center_Dash_Dash
 72
    65
 73
     6
 40
14.0
 49
9.0
 74
     0
 49
-1.0
 74
     0
 49
1.0
 74
     0
 49
-1.0
 74
     0
 49
1.0
 74
     0
 49
-1.0
 74
     0
  0
ENDTAB
  0
TABLE
  2
LAYER
  5
2
330
0
100
AcDbSymbolTable
 70
     2
  0
LAYER
  5
10
330
2
100
AcDbSymbolTableRecord
100
AcDbLayerTableRecord
  2
0
 70
     0
 62
     7
  6
Continuous
370
    -3
390
F
  0
LAYER
  5
46
330
2
100
AcDbSymbolTableRecord
100
AcDbLayerTableRecord
  2
1
 70
     0
 62
     7
  6
Continuous
370
    -3
390
F
  0
ENDTAB
  0
TABLE
  2
STYLE
  5
3
330
0
100
AcDbSymbolTable
 70
     5
  0
STYLE
  5
11
330
3
100
AcDbSymbolTableRecord
100
AcDbTextStyleTableRecord
  2
Standard
 70
     0
 40
0.0
 41
1.0
 50
0.0
 71
     0
 42
0.2
  3
txt
  4

  0
STYLE
  5
109
330
3
100
AcDbSymbolTableRecord
100
AcDbTextStyleTableRecord
  2
CONVERTER_11
 70
     0
 40
0.0
 41
0.9
 50
0.0
 71
     0
 42
0.2
  3
txt.shx
  4

  0
STYLE
  5
3A0
330
3
100
AcDbSymbolTableRecord
100
AcDbTextStyleTableRecord
  2
CONVERTER_12
 70
     0
 40
0.0
 41
0.81
 50
0.0
 71
     0
 42
0.2
  3
txt.shx
  4

  0
STYLE
  5
3A6
330
3
100
AcDbSymbolTableRecord
100
AcDbTextStyleTableRecord
  2
CONVERTER_13
 70
     0
 40
0.0
 41
0.855
 50
0.0
 71
     0
 42
0.2
  3
txt.shx
  4

  0
STYLE
  5
3A9
330
3
100
AcDbSymbolTableRecord
100
AcDbTextStyleTableRecord
  2
CONVERTER_14
 70
     0
 40
0.0
 41
0.72
 50
0.0
 71
     0
 42
0.2
  3
txt.shx
  4

  0
ENDTAB
  0
TABLE
  2
VIEW
  5
6
330
0
100
AcDbSymbolTable
 70
     0
  0
ENDTAB
  0
TABLE
  2
UCS
  5
7
330
0
100
AcDbSymbolTable
 70
     0
  0
ENDTAB
  0
TABLE
  2
APPID
  5
9
330
0
100
AcDbSymbolTable
 70
     1
  0
APPID
  5
12
330
9
100
AcDbSymbolTableRecord
100
AcDbRegAppTableRecord
  2
ACAD
 70
     0
  0
ENDTAB
  0
TABLE
  2
DIMSTYLE
  5
A
330
0
100
AcDbSymbolTable
 70
     5
100
AcDbDimStyleTable
  0
DIMSTYLE
105
27
330
A
100
AcDbSymbolTableRecord
100
AcDbDimStyleTableRecord
  2
Standard
 70
     0
178
     0
340
11
  0
DIMSTYLE
105
163
102
{ACAD_REACTORS
330
164
102
}
330
A
100
AcDbSymbolTableRecord
100
AcDbDimStyleTableRecord
  2
ME10_DIM_10
 70
     0
 41
1.75
 42
0.0
 44
1.0
 73
     0
 74
     0
 77
     1
 78
     8
140
1.75
147
1.0
172
     1
173
     1
174
     1
175
     1
176
     2
177
     2
178
     3
340
109
  0
DIMSTYLE
105
291
102
{ACAD_REACTORS
330
292
102
}
330
A
100
AcDbSymbolTableRecord
100
AcDbDimStyleTableRecord
  2
ME10_DIM_11
 70
     0
 41
1.75
 42
0.0
 44
1.0
 73
     0
 74
     0
 77
     1
 78
     8
140
1.75
147
1.0
172
     1
173
     1
174
     1
175
     1
176
     2
177
     2
178
     3
340
109
  0
DIMSTYLE
105
29C
102
{ACAD_REACTORS
330
29D
102
}
330
A
100
AcDbSymbolTableRecord
100
AcDbDimStyleTableRecord
  2
ME10_DIM_12
 70
     0
 41
1.75
 42
0.0
 44
1.0
 73
     0
 74
     0
 77
     1
 78
     8
140
1.75
147
1.0
172
     1
173
     1
174
     1
175
     1
176
     2
177
     2
178
     3
340
109
  0
DIMSTYLE
105
2A7
102
{ACAD_REACTORS
330
2A8
102
}
330
A
100
AcDbSymbolTableRecord
100
AcDbDimStyleTableRecord
  2
ME10_DIM_13
 70
     0
 41
1.75
 42
0.0
 44
1.0
 73
     0
 74
     0
 77
     1
 78
     8
140
1.75
147
1.0
172
     1
173
     1
174
     1
175
     1
176
     2
177
     2
271
     1
178
     3
271
     1
340
109
  0
ENDTAB
  0
TABLE
  2
BLOCK_RECORD
  5
1
330
0
100
AcDbSymbolTable
 70
    21
  0
BLOCK_RECORD
  5
1F
330
1
100
AcDbSymbolTableRecord
100
AcDbBlockTableRecord
  2
*Model_Space
340
22
  0
BLOCK_RECORD
  5
1B
330
1
100
AcDbSymbolTableRecord
100
AcDbBlockTableRecord
  2
*Paper_Space
340
1E
  0
BLOCK_RECORD
  5
23
330
1
100
AcDbSymbolTableRecord
100
AcDbBlockTableRecord
  2
*Paper_Space0
340
26
  0
BLOCK_RECORD
  5
47
330
1
100
AcDbSymbolTableRecord
100
AcDbBlockTableRecord
  2
azk35-select__1
340
0
102
{BLKREFS
331
4B
102
}
  0
BLOCK_RECORD
  5
4A
330
1
100
AcDbSymbolTableRecord
100
AcDbBlockTableRecord
  2
AllgSicht1
340
0
102
{BLKREFS
331
7D
102
}
  0
BLOCK_RECORD
  5
4E
330
1
100
AcDbSymbolTableRecord
100
AcDbBlockTableRecord
  2
azk35-select__2
340
0
102
{BLKREFS
331
52
102
}
  0
BLOCK_RECORD
  5
51
330
1
100
AcDbSymbolTableRecord
100
AcDbBlockTableRecord
  2
Drfsicht1
340
0
102
{BLKREFS
331
7E
102
}
  0
BLOCK_RECORD
  5
55
330
1
100
AcDbSymbolTableRecord
100
AcDbBlockTableRecord
  2
azk35-select__3
340
0
102
{BLKREFS
331
59
102
}
  0
BLOCK_RECORD
  5
58
330
1
100
AcDbSymbolTableRecord
100
AcDbBlockTableRecord
  2
Rckans1
340
0
102
{BLKREFS
331
7F
102
}
  0
BLOCK_RECORD
  5
5C
330
1
100
AcDbSymbolTableRecord
100
AcDbBlockTableRecord
  2
azk35-select__4
340
0
102
{BLKREFS
331
60
102
}
  0
BLOCK_RECORD
  5
5F
330
1
100
AcDbSymbolTableRecord
100
AcDbBlockTableRecord
  2
SA_Links1
340
0
102
{BLKREFS
331
80
102
}
  0
BLOCK_RECORD
  5
63
330
1
100
AcDbSymbolTableRecord
100
AcDbBlockTableRecord
  2
azk35-select__5
340
0
102
{BLKREFS
331
67
102
}
  0
BLOCK_RECORD
  5
66
330
1
100
AcDbSymbolTableRecord
100
AcDbBlockTableRecord
  2
SA_Rechts1
340
0
102
{BLKREFS
331
81
102
}
  0
BLOCK_RECORD
  5
6A
330
1
100
AcDbSymbolTableRecord
100
AcDbBlockTableRecord
  2
azk35-select__6
340
0
102
{BLKREFS
331
6E
102
}
  0
BLOCK_RECORD
  5
6D
330
1
100
AcDbSymbolTableRecord
100
AcDbBlockTableRecord
  2
Vordans1
340
0
102
{BLKREFS
331
82
102
}
  0
BLOCK_RECORD
  5
71
330
1
100
AcDbSymbolTableRecord
100
AcDbBlockTableRecord
  2
_rahmen
340
0
102
{BLKREFS
331
78
102
}
  0
BLOCK_RECORD
  5
74
330
1
100
AcDbSymbolTableRecord
100
AcDbBlockTableRecord
  2
_punkt
340
0
102
{BLKREFS
331
79
102
}
  0
BLOCK_RECORD
  5
77
330
1
100
AcDbSymbolTableRecord
100
AcDbBlockTableRecord
  2
A4I_CS
340
0
102
{BLKREFS
331
83
102
}
  0
BLOCK_RECORD
  5
7C
330
1
100
AcDbSymbolTableRecord
100
AcDbBlockTableRecord
  2
1
340
0
102
{BLKREFS
331
86
102
}
  0
BLOCK_RECORD
  5
15A
330
1
100
AcDbSymbolTableRecord
100
AcDbBlockTableRecord
  2
*D17
340
0
  0
BLOCK_RECORD
  5
288
330
1
100
AcDbSymbolTableRecord
100
AcDbBlockTableRecord
  2
*D18
340
0
  0
BLOCK_RECORD
  5
293
330
1
100
AcDbSymbolTableRecord
100
AcDbBlockTableRecord
  2
*D19
340
0
  0
BLOCK_RECORD
  5
29E
330
1
100
AcDbSymbolTableRecord
100
AcDbBlockTableRecord
  2
*D20
340
0
  0
ENDTAB
  0
ENDSEC
  0
SECTION
  2
BLOCKS
  0
BLOCK
  5
20
330
1F
100
AcDbEntity
  8
0
100
AcDbBlockBegin
  2
*Model_Space
 70
     0
 10
0.0
 20
0.0
 30
0.0
  3
*Model_Space
  1

  0
ENDBLK
  5
21
330
1F
100
AcDbEntity
  8
0
100
AcDbBlockEnd
  0
BLOCK
  5
1C
330
1B
100
AcDbEntity
 67
     1
  8
0
100
AcDbBlockBegin
  2
*Paper_Space
 70
     0
 10
0.0
 20
0.0
 30
0.0
  3
*Paper_Space
  1

  0
ENDBLK
  5
1D
330
1B
100
AcDbEntity
 67
     1
  8
0
100
AcDbBlockEnd
  0
BLOCK
  5
24
330
23
100
AcDbEntity
  8
0
100
AcDbBlockBegin
  2
*Paper_Space0
 70
     0
 10
0.0
 20
0.0
 30
0.0
  3
*Paper_Space0
  1

  0
ENDBLK
  5
25
330
23
100
AcDbEntity
  8
0
100
AcDbBlockEnd
  0
BLOCK
  5
48
330
47
100
AcDbEntity
  8
0
100
AcDbBlockBegin
  2
azk35-select__1
 70
     0
 10
-52.12050842753962
 20
41.22643477506519
 30
0.0
  3
azk35-select__1
  1

  0
LINE
  5
87
330
47
100
AcDbEntity
  8
0
  6
Continuous
 62
     7
100
AcDbLine
 10
-40.02664537692881
 20
83.73002429907078
 30
0.0
 11
-40.02664537692881
 21
84.3511900073168
 31
0.0
  0
LINE
  5
88
330
47
100
AcDbEntity
  8
0
  6
Continuous
 62
     7
100
AcDbLine
 10
-11.87949227616201
 20
66.42777402519235
 30
0.0
 11
-12.62949227616201
 21
65.77825497235402
 31
0.0
  0
LINE
  5
89
330
47
100
AcDbEntity
  8
0
  6
Continuous
 62
     7
100
AcDbLine
 10
-12.62949227616201
 20
65.77825497235402
 30
0.0
 11
-23.37083522725203
 21
68.87901359448895
 31
0.0
  0
LINE
  5
8A
330
47
100
AcDbEntity
  8
0
  6
Continuous
 62
     7
100
AcDbLine
 10
-11.87949227616201
 20
66.42777402519235
 30
0.0
 11
-23.37083522725203
 21
69.74503899827339
 31
0.0
  0
LINE
  5
8B
330
47
100
AcDbEntity
  8
0
  6
Continuous
 62
     7
100
AcDbLine
 10
-52.12050842753962
 20
51.22643477506519
 30
0.0
 11
-52.12050842753962
 21
71.57803176399949
 31
0.0
  0
LINE
  5
8C
330
47
100
AcDbEntity
  8
0
  6
Continuous
 62
     7
100
AcDbLine
 10
-17.47949227616201
 20
41.22643477506519
 30
0.0
 11
-52.12050842753962
 21
51.22643477506519
 31
0.0
  0
LINE
  5
8D
330
47
100
AcDbEntity
  8
0
  6
Continuous
 62
     7
100
AcDbLine
 10
-12.62949227616201
 20
56.25197553072519
 30
0.0
 11
-11.87949227616201
 21
56.90149458356352
 31
0.0
  0
LINE
  5
8E
330
47
100
AcDbEntity
  8
0
  6
Continuous
 62
     7
100
AcDbLine
 10
-46.69134330294072
 20
75.61106440205782
 30
0.0
 11
-47.27050842753963
 21
75.77825497235402
 31
0.0
  0
LINE
  5
8F
330
47
100
AcDbEntity
  8
0
  6
Continuous
 62
     7
100
AcDbLine
 10
-30.68417398758662
 20
71.85621804925044
 30
0.0
 11
-40.69134330294072
 21
74.74503899827337
 31
0.0
  0
LINE
  5
90
330
47
100
AcDbEntity
  8
0
  6
Continuous
 62
     7
100
AcDbLine
 10
-30.12083522725202
 20
75.34613591488534
 30
0.0
 11
-30.83225551385363
 21
74.99042577158454
 31
0.0
  0
LINE
  5
91
330
47
100
AcDbEntity
  8
0
  6
Continuous
 62
     7
100
AcDbLine
 10
-30.12083522725202
 20
75.86495197657271
 30
0.0
 11
-30.12083522725202
 21
74.39270879013917
 31
0.0
  0
LINE
  5
92
330
47
100
AcDbEntity
  8
0
  6
Continuous
 62
     7
100
AcDbLine
 10
-30.10168347076572
 20
75.67569594372945
 30
0.0
 11
-30.10168347076572
 21
74.29005529767434
 31
0.0
  0
LINE
  5
93
330
47
100
AcDbEntity
  8
0
  6
Continuous
 62
     7
100
AcDbLine
 10
-29.79110061664272
 20
75.096140447956
 30
0.0
 11
-29.79110061664272
 21
73.7104998019009
 31
0.0
  0
LINE
  5
94
330
47
100
AcDbEntity
  8
0
  6
Continuous
 62
     7
100
AcDbLine
 10
-30.83225551385363
 20
72.13254193909589
 30
0.0
 11
-30.83225551385363
 21
74.99042577158454
 31
0.0
  0
LINE
  5
95
330
47
100
AcDbEntity
  8
0
  6
Continuous
 62
     7
100
AcDbLine
 10
-30.83225551385363
 20
74.99042577158454
 30
0.0
 11
-29.63682155096292
 21
72.75971562828371
 31
0.0
  0
LINE
  5
96
330
47
100
AcDbEntity
  8
0
  6
Continuous
 62
     7
100
AcDbLine
 10
-30.13513588190992
 20
70.83169899641211
 30
0.0
 11
-40.69134330294072
 21
73.87901359448894
 31
0.0
  0
LINE
  5
97
330
47
100
AcDbEntity
  8
0
  6
Continuous
 62
     7
100
AcDbLine
 10
-29.79110061664272
 20
74.33166551014695
 30
0.0
 11
-30.10168347076572
 21
74.29005529767434
 31
0.0
  0
LINE
  5
98
330
47
100
AcDbEntity
  8
0
  6
Continuous
 62
     7
100
AcDbLine
 10
-25.17540126436123
 20
72.16199864683834
 30
0.0
 11
-21.90941494065032
 21
73.7949918086938
 31
0.0
  0
LINE
  5
99
330
47
100
AcDbEntity
  8
0
  6
Continuous
 62
     7
100
AcDbLine
 10
-29.63682155096292
 20
72.75971562828371
 30
0.0
 11
-25.17540126436123
 21
72.16199864683834
 31
0.0
  0
LINE
  5
9A
330
47
100
AcDbEntity
  8
0
  6
Continuous
 62
     7
100
AcDbLine
 10
-35.66471335964391
 20
62.72505629086308
 30
0.0
 11
-40.39746517054891
 21
64.09128405687993
 31
0.0
  0
LINE
  5
9B
330
47
100
AcDbEntity
  8
0
  6
Continuous
 62
     7
100
AcDbLine
 10
-40.19746517054892
 20
64.26448913763682
 30
0.0
 11
-35.46471335964392
 21
62.89826137161997
 31
0.0
  0
LINE
  5
9C
330
47
100
AcDbEntity
  8
0
  6
Continuous
 62
     7
100
AcDbLine
 10
-35.46471335964392
 20
60.30018516026665
 30
0.0
 11
-35.66471335964391
 21
60.12698007950976
 31
0.0
  0
LINE
  5
9D
330
47
100
AcDbEntity
  8
0
  6
Continuous
 62
     7
100
AcDbLine
 10
-35.66471335964391
 20
60.12698007950976
 30
0.0
 11
-35.66471335964391
 21
62.72505629086308
 31
0.0
  0
LINE
  5
9E
330
47
100
AcDbEntity
  8
0
  6
Continuous
 62
     7
100
AcDbLine
 10
-35.46471335964392
 20
62.89826137161997
 30
0.0
 11
-35.66471335964391
 21
62.72505629086308
 31
0.0
  0
LINE
  5
9F
330
47
100
AcDbEntity
  8
0
  6
Continuous
 62
     7
100
AcDbLine
 10
-35.46471335964392
 20
60.30018516026665
 30
0.0
 11
-35.46471335964392
 21
62.89826137161997
 31
0.0
  0
LINE
  5
A0
330
47
100
AcDbEntity
  8
0
  6
Continuous
 62
     7
100
AcDbLine
 10
-29.63682155096292
 20
69.90183179579506
 30
0.0
 11
-29.63682155096292
 21
72.75971562828371
 31
0.0
  0
LINE
  5
A1
330
47
100
AcDbEntity
  8
0
  6
Continuous
 62
     7
100
AcDbLine
 10
-35.66471335964391
 20
60.12698007950976
 30
0.0
 11
-40.39746517054891
 21
61.49320784552661
 31
0.0
  0
LINE
  5
A2
330
47
100
AcDbEntity
  8
0
  6
Continuous
 62
     7
100
AcDbLine
 10
-17.47949227616201
 20
52.05175232237066
 30
0.0
 11
-32.20192414049751
 21
56.30175232237068
 31
0.0
  0
LINE
  5
A3
330
47
100
AcDbEntity
  8
0
  6
Continuous
 62
     7
100
AcDbLine
 10
-40.25661137118162
 20
69.8818607862046
 30
0.0
 11
-36.16582119685552
 21
68.7009513820319
 31
0.0
  0
LINE
  5
A4
330
47
100
AcDbEntity
  8
0
  6
Continuous
 62
     7
100
AcDbLine
 10
-31.59635733333722
 20
67.38186078620461
 30
0.0
 11
-29.37083522725202
 21
66.73940789268673
 31
0.0
  0
LINE
  5
A5
330
47
100
AcDbEntity
  8
0
  6
Continuous
 62
     7
100
AcDbLine
 10
-27.00445932179952
 20
57.62698007950976
 30
0.0
 11
-31.73721113270452
 21
58.99320784552661
 31
0.0
  0
LINE
  5
A6
330
47
100
AcDbEntity
  8
0
  6
Continuous
 62
     7
100
AcDbLine
 10
-31.53721113270451
 20
61.76448913763682
 30
0.0
 11
-26.80445932179953
 21
60.39826137161997
 31
0.0
  0
LINE
  5
A7
330
47
100
AcDbEntity
  8
0
  6
Continuous
 62
     7
100
AcDbLine
 10
-27.00445932179952
 20
60.22505629086308
 30
0.0
 11
-31.73721113270452
 21
61.59128405687993
 31
0.0
  0
LINE
  5
A8
330
47
100
AcDbEntity
  8
0
  6
Continuous
 62
     7
100
AcDbLine
 10
-31.53108926509641
 20
66.50040381983662
 30
0.0
 11
-31.53108926509641
 21
67.04547686976615
 31
0.0
  0
LINE
  5
A9
330
47
100
AcDbEntity
  8
0
  6
Continuous
 62
     7
100
AcDbLine
 10
-31.73721113270452
 20
58.99320784552661
 30
0.0
 11
-31.73721113270452
 21
61.59128405687993
 31
0.0
  0
LINE
  5
AA
330
47
100
AcDbEntity
  8
0
  6
Continuous
 62
     7
100
AcDbLine
 10
-31.53721113270451
 20
61.76448913763682
 30
0.0
 11
-31.73721113270452
 21
61.59128405687993
 31
0.0
  0
LINE
  5
AB
330
47
100
AcDbEntity
  8
0
  6
Continuous
 62
     7
100
AcDbLine
 10
-31.45192414049751
 20
52.27473419477303
 30
0.0
 11
-31.45192414049751
 21
56.08524597142456
 31
0.0
  0
LINE
  5
AC
330
47
100
AcDbEntity
  8
0
  6
Continuous
 62
     7
100
AcDbLine
 10
-32.20192414049751
 20
56.30175232237068
 30
0.0
 11
-32.20192414049751
 21
51.62521514193469
 31
0.0
  0
LINE
  5
AD
330
47
100
AcDbEntity
  8
0
  6
Continuous
 62
     7
100
AcDbLine
 10
-29.63682155096292
 20
69.90183179579506
 30
0.0
 11
-30.83225551385363
 21
72.13254193909589
 31
0.0
  0
LINE
  5
AE
330
47
100
AcDbEntity
  8
0
  6
Continuous
 62
     7
100
AcDbLine
 10
-31.45192414049751
 20
52.27473419477303
 30
0.0
 11
-32.20192414049751
 21
51.62521514193469
 31
0.0
  0
LINE
  5
AF
330
47
100
AcDbEntity
  8
0
  6
Continuous
 62
     7
100
AcDbLine
 10
-32.20192414049751
 20
51.62521514193469
 30
0.0
 11
-17.47949227616201
 21
47.3752151419347
 31
0.0
  0
LINE
  5
B0
330
47
100
AcDbEntity
  8
0
  6
Continuous
 62
     7
100
AcDbLine
 10
-27.00445932179952
 20
57.62698007950976
 30
0.0
 11
-27.00445932179952
 21
60.22505629086308
 31
0.0
  0
LINE
  5
B1
330
47
100
AcDbEntity
  8
0
  6
Continuous
 62
     7
100
AcDbLine
 10
-26.80445932179953
 20
57.80018516026665
 30
0.0
 11
-27.00445932179952
 21
57.62698007950976
 31
0.0
  0
LINE
  5
B2
330
47
100
AcDbEntity
  8
0
  6
Continuous
 62
     7
100
AcDbLine
 10
-26.80445932179953
 20
60.39826137161997
 30
0.0
 11
-27.00445932179952
 21
60.22505629086308
 31
0.0
  0
LINE
  5
B3
330
47
100
AcDbEntity
  8
0
  6
Continuous
 62
     7
100
AcDbLine
 10
-26.80445932179953
 20
57.80018516026665
 30
0.0
 11
-26.80445932179953
 21
60.39826137161997
 31
0.0
  0
LINE
  5
B4
330
47
100
AcDbEntity
  8
0
  6
Continuous
 62
     7
100
AcDbLine
 10
-22.93610329549281
 20
64.88186078620461
 30
0.0
 11
-20.25051582946512
 21
64.10659846298292
 31
0.0
  0
LINE
  5
B5
330
47
100
AcDbEntity
  8
0
  6
Continuous
 62
     7
100
AcDbLine
 10
-22.87083522725203
 20
64.00040381983662
 30
0.0
 11
-22.87083522725203
 21
64.54547686976615
 31
0.0
  0
LINE
  5
B6
330
47
100
AcDbEntity
  8
0
  6
Continuous
 62
     7
100
AcDbLine
 10
-23.37083522725203
 20
70.20639783290433
 30
0.0
 11
-23.37083522725203
 21
64.54547686976615
 31
0.0
  0
LINE
  5
B7
330
47
100
AcDbEntity
  8
0
  6
Continuous
 62
     7
100
AcDbLine
 10
-21.90941494065032
 20
70.93710797620514
 30
0.0
 11
-25.17540126436123
 21
69.30411481434969
 31
0.0
  0
LINE
  5
B8
330
47
100
AcDbEntity
  8
0
  6
Continuous
 62
     7
100
AcDbLine
 10
-25.17540126436123
 20
69.30411481434969
 30
0.0
 11
-29.63682155096292
 21
69.90183179579506
 31
0.0
  0
LINE
  5
B9
330
47
100
AcDbEntity
  8
0
  6
Continuous
 62
     7
100
AcDbLine
 10
-16.72949227616201
 20
48.02473419477303
 30
0.0
 11
-31.45192414049751
 21
52.27473419477303
 31
0.0
  0
LINE
  5
BA
330
47
100
AcDbEntity
  8
0
  6
Continuous
 62
     7
100
AcDbLine
 10
-52.12050842753962
 20
71.57803176399949
 30
0.0
 11
-51.37050842753962
 21
72.22755081683782
 31
0.0
  0
LINE
  5
BB
330
47
100
AcDbEntity
  8
0
  6
Continuous
 62
     7
100
AcDbLine
 10
-29.37083522725202
 20
69.86619638547704
 30
0.0
 11
-29.37083522725202
 21
65.8767921947029
 31
0.0
  0
LINE
  5
BC
330
47
100
AcDbEntity
  8
0
  6
Continuous
 62
     7
100
AcDbLine
 10
-25.17540126436123
 20
69.30411481434969
 30
0.0
 11
-25.17540126436123
 21
72.16199864683834
 31
0.0
  0
LINE
  5
BD
330
47
100
AcDbEntity
  8
0
  6
Continuous
 62
     7
100
AcDbLine
 10
-51.37050842753962
 20
72.22755081683782
 30
0.0
 11
-16.72949227616201
 21
62.22755081683782
 31
0.0
  0
LINE
  5
BE
330
47
100
AcDbEntity
  8
0
  6
Continuous
 62
     7
100
AcDbLine
 10
-39.69134330294072
 20
80.51854181505887
 30
0.0
 11
-39.69134330294072
 21
83.54963072830434
 31
0.0
  0
LINE
  5
BF
330
47
100
AcDbEntity
  8
0
  6
Continuous
 62
     7
100
AcDbLine
 10
-22.95056983786122
 20
76.63376350518942
 30
0.0
 11
-22.95056983786122
 21
76.01259779694337
 31
0.0
  0
LINE
  5
C0
330
47
100
AcDbEntity
  8
0
  6
Continuous
 62
     7
100
AcDbLine
 10
-22.63998698373823
 20
76.05420800941597
 30
0.0
 11
-29.79110061664272
 21
75.096140447956
 31
0.0
  0
LINE
  5
C1
330
47
100
AcDbEntity
  8
0
  6
Continuous
 62
     7
100
AcDbLine
 10
-22.62083522725203
 20
75.86495197657271
 30
0.0
 11
-22.62083522725203
 21
74.39270879013915
 31
0.0
  0
LINE
  5
C2
330
47
100
AcDbEntity
  8
0
  6
Continuous
 62
     7
100
AcDbLine
 10
-21.90941494065032
 20
73.7949918086938
 30
0.0
 11
-22.62083522725203
 21
75.12252013626006
 31
0.0
  0
LINE
  5
C3
330
47
100
AcDbEntity
  8
0
  6
Continuous
 62
     7
100
AcDbLine
 10
-30.10168347076572
 20
75.67569594372945
 30
0.0
 11
-22.95056983786122
 21
76.63376350518942
 31
0.0
  0
LINE
  5
C4
330
47
100
AcDbEntity
  8
0
  6
Continuous
 62
     7
100
AcDbLine
 10
-44.12496739748832
 20
65.39826137161998
 30
0.0
 11
-44.32496739748832
 21
65.22505629086308
 31
0.0
  0
LINE
  5
C5
330
47
100
AcDbEntity
  8
0
  6
Continuous
 62
     7
100
AcDbLine
 10
-44.32496739748832
 20
65.22505629086308
 30
0.0
 11
-49.05771920839322
 21
66.59128405687993
 31
0.0
  0
LINE
  5
C6
330
47
100
AcDbEntity
  8
0
  6
Continuous
 62
     7
100
AcDbLine
 10
-48.85771920839322
 20
66.76448913763682
 30
0.0
 11
-44.12496739748832
 21
65.39826137161998
 31
0.0
  0
LINE
  5
C7
330
47
100
AcDbEntity
  8
0
  6
Continuous
 62
     7
100
AcDbLine
 10
-44.12496739748832
 20
62.80018516026667
 30
0.0
 11
-44.32496739748832
 21
62.62698007950976
 31
0.0
  0
LINE
  5
C8
330
47
100
AcDbEntity
  8
0
  6
Continuous
 62
     7
100
AcDbLine
 10
-44.32496739748832
 20
62.62698007950976
 30
0.0
 11
-49.05771920839322
 21
63.9932078455266
 31
0.0
  0
LINE
  5
C9
330
47
100
AcDbEntity
  8
0
  6
Continuous
 62
     7
100
AcDbLine
 10
-40.19746517054892
 20
64.26448913763682
 30
0.0
 11
-40.39746517054891
 21
64.09128405687993
 31
0.0
  0
LINE
  5
CA
330
47
100
AcDbEntity
  8
0
  6
Continuous
 62
     7
100
AcDbLine
 10
-44.32496739748832
 20
62.62698007950976
 30
0.0
 11
-44.32496739748832
 21
65.22505629086308
 31
0.0
  0
LINE
  5
CB
330
47
100
AcDbEntity
  8
0
  6
Continuous
 62
     7
100
AcDbLine
 10
-40.19134330294082
 20
69.0004038198366
 30
0.0
 11
-40.19134330294082
 21
69.54547686976615
 31
0.0
  0
LINE
  5
CC
330
47
100
AcDbEntity
  8
0
  6
Continuous
 62
     7
100
AcDbLine
 10
-48.85771920839322
 20
66.76448913763682
 30
0.0
 11
-49.05771920839322
 21
66.59128405687993
 31
0.0
  0
LINE
  5
CD
330
47
100
AcDbEntity
  8
0
  6
Continuous
 62
     7
100
AcDbLine
 10
-44.12496739748832
 20
62.80018516026667
 30
0.0
 11
-44.12496739748832
 21
65.39826137161998
 31
0.0
  0
LINE
  5
CE
330
47
100
AcDbEntity
  8
0
  6
Continuous
 62
     7
100
AcDbLine
 10
-46.69134330294072
 20
76.27982668324262
 30
0.0
 11
-47.27050842753963
 21
75.77825497235402
 31
0.0
  0
LINE
  5
CF
330
47
100
AcDbEntity
  8
0
  6
Continuous
 62
     7
100
AcDbLine
 10
-47.18570080640431
 20
74.79773547094464
 30
0.0
 11
-50.45774791456152
 21
71.96405955290105
 31
0.0
  0
LINE
  5
D0
330
47
100
AcDbEntity
  8
0
  6
Continuous
 62
     7
100
AcDbLine
 10
-40.39746517054891
 20
61.49320784552661
 30
0.0
 11
-40.39746517054891
 21
64.09128405687993
 31
0.0
  0
LINE
  5
D1
330
47
100
AcDbEntity
  8
0
  6
Continuous
 62
     7
100
AcDbLine
 10
-40.69134330294072
 20
69.54547686976613
 30
0.0
 11
-40.69134330294072
 21
79.19566615952655
 31
0.0
  0
LINE
  5
D2
330
47
100
AcDbEntity
  8
0
  6
Continuous
 62
     7
100
AcDbLine
 10
-47.69134330294072
 20
80.51854181505887
 30
0.0
 11
-47.69134330294072
 21
83.54963072830434
 31
0.0
  0
LINE
  5
D3
330
47
100
AcDbEntity
  8
0
  6
Continuous
 62
     7
100
AcDbLine
 10
-47.35604122895272
 20
82.07019905186124
 30
0.0
 11
-47.66662408307572
 21
82.02858883938863
 31
0.0
  0
LINE
  5
D4
330
47
100
AcDbEntity
  8
0
  6
Continuous
 62
     7
100
AcDbLine
 10
-47.66662408307572
 20
82.02858883938863
 30
0.0
 11
-47.66662408307572
 21
83.32762694506529
 31
0.0
  0
LINE
  5
D5
330
47
100
AcDbEntity
  8
0
  6
Continuous
 62
     7
100
AcDbLine
 10
-47.35604122895272
 20
82.74807144929187
 30
0.0
 11
-39.71606252280581
 21
83.77163451154337
 31
0.0
  0
LINE
  5
D6
330
47
100
AcDbEntity
  8
0
  6
Continuous
 62
     7
100
AcDbLine
 10
-40.02664537692881
 20
84.3511900073168
 30
0.0
 11
-47.66662408307572
 21
83.32762694506529
 31
0.0
  0
LINE
  5
D7
330
47
100
AcDbEntity
  8
0
  6
Continuous
 62
     7
100
AcDbLine
 10
-47.35604122895272
 20
81.44903334361521
 30
0.0
 11
-47.35604122895272
 21
82.74807144929187
 31
0.0
  0
LINE
  5
D8
330
47
100
AcDbEntity
  8
0
  6
Continuous
 62
     7
100
AcDbLine
 10
-46.69134330294072
 20
74.65502675209434
 30
0.0
 11
-47.18570080640431
 21
74.79773547094464
 31
0.0
  0
LINE
  5
D9
330
47
100
AcDbEntity
  8
0
  6
Continuous
 62
     7
100
AcDbLine
 10
-49.41851743002022
 20
71.66405955290105
 30
0.0
 11
-46.69134330294072
 21
74.02586162749552
 31
0.0
  0
LINE
  5
DA
330
47
100
AcDbEntity
  8
0
  6
Continuous
 62
     7
100
AcDbLine
 10
-47.27050842753963
 20
75.77825497235402
 30
0.0
 11
-47.27050842753963
 21
74.72428991660692
 31
0.0
  0
LINE
  5
DB
330
47
100
AcDbEntity
  8
0
  6
Continuous
 62
     7
100
AcDbLine
 10
-46.69134330294072
 20
70.87679219470289
 30
0.0
 11
-46.69134330294072
 21
79.19566615952655
 31
0.0
  0
LINE
  5
DC
330
47
100
AcDbEntity
  8
0
  6
Continuous
 62
     7
100
AcDbLine
 10
-49.05771920839322
 20
63.9932078455266
 30
0.0
 11
-49.05771920839322
 21
66.59128405687993
 31
0.0
  0
LINE
  5
DD
330
47
100
AcDbEntity
  8
0
  6
Continuous
 62
     7
100
AcDbLine
 10
-16.72949227616201
 20
57.43554358256392
 30
0.0
 11
-12.62949227616201
 21
56.25197553072519
 31
0.0
  0
LINE
  5
DE
330
47
100
AcDbEntity
  8
0
  6
Continuous
 62
     7
100
AcDbLine
 10
-16.72949227616201
 20
53.6250318059124
 30
0.0
 11
-11.87949227616201
 21
52.22495740312756
 31
0.0
  0
LINE
  5
DF
330
47
100
AcDbEntity
  8
0
  6
Continuous
 62
     7
100
AcDbLine
 10
-11.87949227616201
 20
52.22495740312756
 30
0.0
 11
-12.62949227616201
 21
51.57543835028922
 31
0.0
  0
LINE
  5
E0
330
47
100
AcDbEntity
  8
0
  6
Continuous
 62
     7
100
AcDbLine
 10
-16.72949227616201
 20
52.75900640212795
 30
0.0
 11
-12.62949227616201
 21
51.57543835028922
 31
0.0
  0
LINE
  5
E1
330
47
100
AcDbEntity
  8
0
  6
Continuous
 62
     7
100
AcDbLine
 10
-12.62949227616201
 20
56.25197553072519
 30
0.0
 11
-12.62949227616201
 21
65.77825497235402
 31
0.0
  0
LINE
  5
E2
330
47
100
AcDbEntity
  8
0
  6
Continuous
 62
     7
100
AcDbLine
 10
-12.62949227616201
 20
51.57543835028922
 30
0.0
 11
-12.62949227616201
 21
46.72569608909637
 31
0.0
  0
LINE
  5
E3
330
47
100
AcDbEntity
  8
0
  6
Continuous
 62
     7
100
AcDbLine
 10
-11.87949227616201
 20
56.90149458356352
 30
0.0
 11
-11.87949227616201
 21
66.42777402519235
 31
0.0
  0
LINE
  5
E4
330
47
100
AcDbEntity
  8
0
  6
Continuous
 62
     7
100
AcDbLine
 10
-11.87949227616201
 20
46.07617703625805
 30
0.0
 11
-11.87949227616201
 21
52.22495740312756
 31
0.0
  0
LINE
  5
E5
330
47
100
AcDbEntity
  8
0
  6
Continuous
 62
     7
100
AcDbLine
 10
-17.47949227616201
 20
47.3752151419347
 30
0.0
 11
-17.47949227616201
 21
41.22643477506519
 31
0.0
  0
LINE
  5
E6
330
47
100
AcDbEntity
  8
0
  6
Continuous
 62
     7
100
AcDbLine
 10
-17.47949227616201
 20
61.57803176399949
 30
0.0
 11
-16.72949227616201
 21
62.22755081683782
 31
0.0
  0
LINE
  5
E7
330
47
100
AcDbEntity
  8
0
  6
Continuous
 62
     7
100
AcDbLine
 10
-20.25051582946512
 20
63.24398276499909
 30
0.0
 11
-20.25051582946512
 21
64.10659846298292
 31
0.0
  0
LINE
  5
E8
330
47
100
AcDbEntity
  8
0
  6
Continuous
 62
     7
100
AcDbLine
 10
-20.25051582946512
 20
64.10659846298292
 30
0.0
 11
-20.99756293762241
 21
63.45963668949504
 31
0.0
  0
LINE
  5
E9
330
47
100
AcDbEntity
  8
0
  6
Continuous
 62
     7
100
AcDbLine
 10
-17.47949227616201
 20
47.3752151419347
 30
0.0
 11
-16.72949227616201
 21
48.02473419477303
 31
0.0
  0
LINE
  5
EA
330
47
100
AcDbEntity
  8
0
  6
Continuous
 62
     7
100
AcDbLine
 10
-12.62949227616201
 20
46.72569608909637
 30
0.0
 11
-16.72949227616201
 21
47.90926414093509
 31
0.0
  0
LINE
  5
EB
330
47
100
AcDbEntity
  8
0
  6
Continuous
 62
     7
100
AcDbLine
 10
-16.72949227616201
 20
48.02473419477303
 30
0.0
 11
-16.72949227616201
 21
43.17499193358017
 31
0.0
  0
LINE
  5
EC
330
47
100
AcDbEntity
  8
0
  6
Continuous
 62
     7
100
AcDbLine
 10
-17.47949227616201
 20
52.05175232237066
 30
0.0
 11
-16.72949227616201
 21
52.70127137520899
 31
0.0
  0
LINE
  5
ED
330
47
100
AcDbEntity
  8
0
  6
Continuous
 62
     7
100
AcDbLine
 10
-17.47949227616201
 20
61.57803176399949
 30
0.0
 11
-17.47949227616201
 21
52.05175232237066
 31
0.0
  0
LINE
  5
EE
330
47
100
AcDbEntity
  8
0
  6
Continuous
 62
     7
100
AcDbLine
 10
-16.72949227616201
 20
62.22755081683782
 30
0.0
 11
-16.72949227616201
 21
52.70127137520899
 31
0.0
  0
LINE
  5
EF
330
47
100
AcDbEntity
  8
0
  6
Continuous
 62
     7
100
AcDbLine
 10
-21.90941494065032
 20
70.93710797620514
 30
0.0
 11
-21.90941494065032
 21
73.7949918086938
 31
0.0
  0
LINE
  5
F0
330
47
100
AcDbEntity
  8
0
  6
Continuous
 62
     7
100
AcDbLine
 10
-12.62949227616201
 20
46.72569608909637
 30
0.0
 11
-16.72949227616201
 21
43.17499193358017
 31
0.0
  0
LINE
  5
F1
330
47
100
AcDbEntity
  8
0
  6
Continuous
 62
     7
100
AcDbLine
 10
-11.87949227616201
 20
46.07617703625805
 30
0.0
 11
-17.47949227616201
 21
41.22643477506519
 31
0.0
  0
LINE
  5
F2
330
47
100
AcDbEntity
  8
0
  6
Continuous
 62
     7
100
AcDbLine
 10
-52.12050842753962
 20
71.57803176399949
 30
0.0
 11
-17.47949227616201
 21
61.57803176399949
 31
0.0
  0
SPLINE
  5
F3
330
47
100
AcDbEntity
  8
0
  6
Continuous
 62
     7
100
AcDbSpline
210
0.0
220
0.0
230
1.0
 70
     8
 71
     3
 72
     9
 73
     5
 74
     3
 42
0.000000001
 43
0.0000000001
 44
0.00000001
 40
0.0
 40
0.0
 40
0.0
 40
0.0
 40
0.1123691308528446
 40
0.2237148039428171
 40
0.2237148039428171
 40
0.2237148039428171
 40
0.2237148039428171
 10
-47.66662408307572
 20
83.32762694506529
 30
0.0
 10
-47.67383141424774
 20
83.36445595282615
 30
0.0
 10
-47.68818041247974
 20
83.43777853257994
 30
0.0
 10
-47.69029223312508
 20
83.51246054842044
 30
0.0
 10
-47.69134330294072
 20
83.54963072830434
 30
0.0
 11
-47.66662408307572
 21
83.32762694506529
 31
0.0
 11
-47.68515871673853
 21
83.43845694572981
 31
0.0
 11
-47.69134330294072
 21
83.54963072830434
 31
0.0
  0
SPLINE
  5
F4
330
47
100
AcDbEntity
  8
0
  6
Continuous
 62
     7
100
AcDbSpline
210
0.0
220
0.0
230
1.0
 70
     8
 71
     3
 72
    19
 73
    15
 74
    13
 42
0.000000001
 43
0.0000000001
 44
0.00000001
 40
0.0
 40
0.0
 40
0.0
 40
0.0
 40
0.4625745670992862
 40
0.9871709931580763
 40
1.607818622311917
 40
2.330043812218569
 40
3.140402187184699
 40
4.013870592761879
 40
4.918745811443478
 40
5.820343178169714
 40
6.684280158400981
 40
7.479798808697727
 40
8.183612651404896
 40
8.785163186317112
 40
8.785163186317112
 40
8.785163186317112
 40
8.785163186317112
 10
-47.69134330294072
 20
83.54963072830434
 30
0.0
 10
-47.66902629742498
 20
83.70457007018344
 30
0.0
 10
-47.6214000190114
 20
84.03522297006822
 30
0.0
 10
-47.27636521363124
 20
84.47096341748465
 30
0.0
 10
-46.7795304283389
 20
84.84799736456229
 30
0.0
 10
-46.12612598350405
 20
85.15744661723858
 30
0.0
 10
-45.35550721373855
 20
85.38686987380336
 30
0.0
 10
-44.5015243695571
 20
85.52538303139667
 30
0.0
 10
-43.60721354816292
 20
85.56612580039234
 30
0.0
 10
-42.71740115161713
 20
85.50658598998106
 30
0.0
 10
-41.87495677148632
 20
85.35134691152895
 30
0.0
 10
-41.12671945205293
 20
85.10295011617524
 30
0.0
 10
-40.49101994574168
 20
84.7896035307708
 30
0.0
 10
-40.17313579600228
 20
84.4894908276045
 30
0.0
 10
-40.02664537692881
 20
84.3511900073168
 30
0.0
 11
-47.69134330294072
 21
83.54963072830434
 31
0.0
 11
-47.58833429606668
 21
84.00059013139914
 31
0.0
 11
-47.28461444325612
 21
84.42832329572718
 31
0.0
 11
-46.79582494464906
 21
84.81079983569632
 31
0.0
 11
-46.14714204685248
 21
85.1283210501694
 31
0.0
 11
-45.37197445420944
 21
85.364532603534
 31
0.0
 11
-44.51024753908571
 21
85.50726934740797
 31
0.0
 11
-43.6063433679169
 21
85.54917888629585
 31
0.0
 11
-42.70681703823992
 21
85.48810358303524
 31
0.0
 11
-41.85799824494705
 21
85.32718819796554
 31
0.0
 11
-41.10360415987977
 21
85.07472139179535
 31
0.0
 11
-40.48249029440034
 21
84.74370554830563
 31
0.0
 11
-40.02664537692881
 21
84.3511900073168
 31
0.0
  0
SPLINE
  5
F5
330
47
100
AcDbEntity
  8
0
  6
Continuous
 62
     7
100
AcDbSpline
210
0.0
220
0.0
230
1.0
 70
     8
 71
     3
 72
     9
 73
     5
 74
     3
 42
0.000000001
 43
0.0000000001
 44
0.00000001
 40
0.0
 40
0.0
 40
0.0
 40
0.0
 40
0.0955918285142286
 40
0.1904619472838253
 40
0.1904619472838253
 40
0.1904619472838253
 40
0.1904619472838253
 10
-30.10168347076572
 20
75.67569594372945
 30
0.0
 10
-30.10726784255714
 20
75.7071177202137
 30
0.0
 10
-30.11839440483398
 20
75.7697240440828
 30
0.0
 10
-30.12002368430837
 20
75.83328962073217
 30
0.0
 10
-30.12083522725202
 20
75.86495197657271
 30
0.0
 11
-30.10168347076572
 21
75.67569594372945
 31
0.0
 11
-30.11604422758841
 21
75.77020290875315
 31
0.0
 11
-30.12083522725202
 21
75.86495197657271
 31
0.0
  0
SPLINE
  5
F6
330
47
100
AcDbEntity
  8
0
  6
Continuous
 62
     7
100
AcDbSpline
210
0.0
220
0.0
230
1.0
 70
     8
 71
     3
 72
     9
 73
     5
 74
     3
 42
0.000000001
 43
0.0000000001
 44
0.00000001
 40
0.0
 40
0.0
 40
0.0
 40
0.0
 40
0.3480995312053075
 40
0.6634299443515957
 40
0.6634299443515957
 40
0.6634299443515957
 40
0.6634299443515957
 10
-29.79110061664272
 20
73.7104998019009
 30
0.0
 10
-29.86559390415244
 20
73.80122471446013
 30
0.0
 10
-30.00756787219245
 20
73.97413395982875
 30
0.0
 10
-30.07136194757894
 20
74.18827388845182
 30
0.0
 10
-30.10168347076572
 20
74.29005529767434
 30
0.0
 11
-29.79110061664272
 21
73.7104998019009
 31
0.0
 11
-29.99305702422721
 21
73.99402562786466
 31
0.0
 11
-30.10168347076572
 21
74.29005529767434
 31
0.0
  0
SPLINE
  5
F7
330
47
100
AcDbEntity
  8
0
  6
Continuous
 62
     7
100
AcDbSpline
210
0.0
220
0.0
230
1.0
 70
     8
 71
     3
 72
    13
 73
     9
 74
     7
 42
0.000000001
 43
0.0000000001
 44
0.00000001
 40
0.0
 40
0.0
 40
0.0
 40
0.0
 40
0.4154452966887609
 40
0.8827041589061347
 40
1.431551442714244
 40
2.06854950399065
 40
2.784331536393753
 40
3.559569019867271
 40
3.559569019867271
 40
3.559569019867271
 40
3.559569019867271
 10
-22.62083522725203
 20
74.39270879013915
 30
0.0
 10
-22.63993221984435
 20
74.25356037712174
 30
0.0
 10
-22.68050796075703
 20
73.95790922346303
 30
0.0
 10
-22.97766425495083
 20
73.5635103339717
 30
0.0
 10
-23.40892028678792
 20
73.21817629198715
 30
0.0
 10
-23.97864734566316
 20
72.93089665454323
 30
0.0
 10
-24.65407162478018
 20
72.70573832047923
 30
0.0
 10
-25.14500760746335
 20
72.62406362737383
 30
0.0
 10
-25.40026380811753
 20
72.58159786584716
 30
0.0
 11
-22.62083522725203
 21
74.39270879013915
 31
0.0
 11
-22.70972552734325
 21
73.98688455022914
 31
0.0
 11
-22.97218102586451
 21
73.60029954937535
 31
0.0
 11
-23.39576046671532
 21
73.25128121263175
 31
0.0
 11
-23.96038169092746
 21
72.95637545929108
 31
0.0
 11
-24.63927808217955
 21
72.7295636263825
 31
0.0
 11
-25.40026380811753
 21
72.58159786584716
 31
0.0
  0
SPLINE
  5
F8
330
47
100
AcDbEntity
  8
0
  6
Continuous
 62
     7
100
AcDbSpline
210
0.0
220
0.0
230
1.0
 70
     8
 71
     3
 72
    15
 73
    11
 74
     9
 42
0.000000001
 43
0.0000000001
 44
0.00000001
 40
0.0
 40
0.0
 40
0.0
 40
0.0
 40
0.8502037017374824
 40
1.705206589632361
 40
2.531733015397665
 40
3.299242858875473
 40
3.98350013537635
 40
4.571281096246664
 40
5.067483251946881
 40
5.504375505440682
 40
5.504375505440682
 40
5.504375505440682
 40
5.504375505440682
 10
-25.40026380811753
 20
72.58159786584716
 30
0.0
 10
-25.68261155663331
 20
72.55379599423716
 30
0.0
 10
-26.24890083594671
 20
72.49803532074613
 30
0.0
 10
-27.0946416480872
 20
72.53780462638926
 30
0.0
 10
-27.90300994608712
 20
72.66350390030988
 30
0.0
 10
-28.6337363516911
 20
72.87775810376276
 30
0.0
 10
-29.2539718848079
 20
73.16799855879488
 30
0.0
 10
-29.72595087208242
 20
73.52288628006542
 30
0.0
 10
-30.05418393057521
 20
73.93382964927895
 30
0.0
 10
-30.09957996229596
 20
74.24637105603307
 30
0.0
 10
-30.12083522725202
 20
74.39270879013917
 30
0.0
 11
-25.40026380811753
 21
72.58159786584716
 31
0.0
 11
-26.24813868134791
 21
72.51871291279781
 31
0.0
 11
-27.10242393481246
 21
72.5537363893831
 31
0.0
 11
-27.91848640388066
 21
72.6848393227159
 31
0.0
 11
-28.65369058603471
 21
72.9051712770931
 31
0.0
 11
-29.26962408059453
 21
73.20322152462478
 31
0.0
 11
-29.73410800799957
 21
73.56341749597854
 31
0.0
 11
-30.0228734626668
 21
73.96694084788221
 31
0.0
 11
-30.12083522725202
 21
74.39270879013917
 31
0.0
  0
SPLINE
  5
F9
330
47
100
AcDbEntity
  8
0
  6
Continuous
 62
     7
100
AcDbSpline
210
0.0
220
0.0
230
1.0
 70
     8
 71
     3
 72
     9
 73
     5
 74
     3
 42
0.000000001
 43
0.0000000001
 44
0.00000001
 40
0.0
 40
0.0
 40
0.0
 40
0.0
 40
0.2719688958466355
 40
0.5286054494916852
 40
0.5286054494916852
 40
0.5286054494916852
 40
0.5286054494916852
 10
-31.67849454739292
 20
66.54295605954356
 30
0.0
 10
-31.63561198604709
 20
66.62405153193104
 30
0.0
 10
-31.55226440135924
 20
66.78167069758872
 30
0.0
 10
-31.5380098182835
 20
66.95925847131579
 30
0.0
 10
-31.53108926509641
 20
67.04547686976615
 30
0.0
 11
-31.67849454739292
 21
66.54295605954356
 31
0.0
 11
-31.56813668576823
 21
66.79152843014361
 31
0.0
 11
-31.53108926509641
 21
67.04547686976615
 31
0.0
  0
SPLINE
  5
FA
330
47
100
AcDbEntity
  8
0
  6
Continuous
 62
     7
100
AcDbSpline
210
0.0
220
0.0
230
1.0
 70
     8
 71
     3
 72
    17
 73
    13
 74
    11
 42
0.000000001
 43
0.0000000001
 44
0.00000001
 40
0.0
 40
0.0
 40
0.0
 40
0.0
 40
0.4252545566779669
 40
0.9124062896170761
 40
1.493486204038526
 40
2.171305328653951
 40
2.929903417628749
 40
3.742203127325433
 40
4.575075525061375
 40
5.393273104399761
 40
6.163048983268227
 40
6.855996279514115
 40
6.855996279514115
 40
6.855996279514115
 40
6.855996279514115
 10
-31.53108926509641
 20
67.04547686976615
 30
0.0
 10
-31.55278527571474
 20
67.18791380452798
 30
0.0
 10
-31.59933523159409
 20
67.49351982628058
 30
0.0
 10
-31.93202171500991
 20
67.88998976914185
 30
0.0
 10
-32.40650298510685
 20
68.22836235763985
 30
0.0
 10
-33.02729332037689
 20
68.4998182729882
 30
0.0
 10
-33.75373534478497
 20
68.69220425711873
 30
0.0
 10
-34.55046108016084
 20
68.79512161962643
 30
0.0
 10
-35.37372304157315
 20
68.80390845294978
 30
0.0
 10
-36.17671962561253
 20
68.71412485394765
 30
0.0
 10
-36.92247949536051
 20
68.5445459634117
 30
0.0
 10
-37.3671302968844
 20
68.34192281531573
 30
0.0
 10
-37.57777819911432
 20
68.2459325617172
 30
0.0
 11
-31.53108926509641
 21
67.04547686976615
 31
0.0
 11
-31.63021653318306
 21
67.4590167475251
 31
0.0
 11
-31.92198133983856
 21
67.84913225441477
 31
0.0
 11
-32.38985893210401
 21
68.19372538258253
 31
0.0
 11
-33.00734521315292
 21
68.47327762724454
 31
0.0
 11
-33.73946476230231
 21
68.67195330707175
 31
0.0
 11
-34.54474652144522
 21
68.77849957126907
 31
0.0
 11
-35.37757675346351
 21
68.78688023207656
 31
0.0
 11
-36.19078070065272
 21
68.69662160708457
 31
0.0
 11
-36.93829490851039
 21
68.51283528664909
 31
0.0
 11
-37.57777819911432
 21
68.2459325617172
 31
0.0
  0
SPLINE
  5
FB
330
47
100
AcDbEntity
  8
0
  6
Continuous
 62
     7
100
AcDbSpline
210
0.0
220
0.0
230
1.0
 70
     8
 71
     3
 72
     9
 73
     5
 74
     3
 42
0.000000001
 43
0.0000000001
 44
0.00000001
 40
0.0
 40
0.0
 40
0.0
 40
0.0
 40
0.2719688958466586
 40
0.5286054494917097
 40
0.5286054494917097
 40
0.5286054494917097
 40
0.5286054494917097
 10
-23.01824050954861
 20
64.04295605954356
 30
0.0
 10
-22.97535794820276
 20
64.12405153193103
 30
0.0
 10
-22.89201036351486
 20
64.28167069758871
 30
0.0
 10
-22.87775578043912
 20
64.45925847131579
 30
0.0
 10
-22.87083522725203
 20
64.54547686976615
 30
0.0
 11
-23.01824050954861
 21
64.04295605954356
 31
0.0
 11
-22.90788264792386
 21
64.29152843014361
 31
0.0
 11
-22.87083522725203
 21
64.54547686976615
 31
0.0
  0
SPLINE
  5
FC
330
47
100
AcDbEntity
  8
0
  6
Continuous
 62
     7
100
AcDbSpline
210
0.0
220
0.0
230
1.0
 70
     8
 71
     3
 72
    11
 73
     7
 74
     5
 42
0.000000001
 43
0.0000000001
 44
0.00000001
 40
0.0
 40
0.0
 40
0.0
 40
0.0
 40
0.2381658594868813
 40
0.4887123701108028
 40
0.7615392976393232
 40
1.062965126966683
 40
1.062965126966683
 40
1.062965126966683
 40
1.062965126966683
 10
-22.87083522725203
 20
64.54547686976615
 30
0.0
 10
-22.87724880598884
 20
64.62510216740749
 30
0.0
 10
-22.89040937721546
 20
64.78849194754169
 30
0.0
 10
-22.994469438587
 20
65.02428933881421
 30
0.0
 10
-23.15342594832214
 20
65.25074663074022
 30
0.0
 10
-23.29599866467888
 20
65.37935699103454
 30
0.0
 10
-23.37083522725203
 20
65.44686468863213
 30
0.0
 11
-22.87083522725203
 21
64.54547686976615
 31
0.0
 11
-22.90281020399416
 21
64.78148656968675
 31
0.0
 11
-22.99815083644397
 21
65.01318404311289
 31
0.0
 11
-23.15511518601082
 21
65.23633584454478
 31
0.0
 11
-23.37083522725203
 21
65.44686468863213
 31
0.0
  0
SPLINE
  5
FD
330
47
100
AcDbEntity
  8
0
  6
Continuous
 62
     7
100
AcDbSpline
210
0.0
220
0.0
230
1.0
 70
     8
 71
     3
 72
     9
 73
     5
 74
     3
 42
0.000000001
 43
0.0000000001
 44
0.00000001
 40
0.0
 40
0.0
 40
0.0
 40
0.0
 40
0.1897073516166176
 40
0.3880060953071005
 40
0.3880060953071005
 40
0.3880060953071005
 40
0.3880060953071005
 10
-23.37083522725203
 20
64.54547686976615
 30
0.0
 10
-23.37515500976974
 20
64.4818405188484
 30
0.0
 10
-23.38399022685696
 20
64.3516858825163
 30
0.0
 10
-23.43780373712782
 20
64.23278145702567
 30
0.0
 10
-23.46530628244571
 20
64.17201283170736
 30
0.0
 11
-23.37083522725203
 21
64.54547686976615
 31
0.0
 11
-23.39454670644742
 21
64.35725719633871
 31
0.0
 11
-23.46530628244571
 21
64.17201283170736
 31
0.0
  0
SPLINE
  5
FE
330
47
100
AcDbEntity
  8
0
  6
Continuous
 62
     7
100
AcDbSpline
210
0.0
220
0.0
230
1.0
 70
     8
 71
     3
 72
    13
 73
     9
 74
     7
 42
0.000000001
 43
0.0000000001
 44
0.00000001
 40
0.0
 40
0.0
 40
0.0
 40
0.0
 40
0.4431416501710985
 40
0.9415511037214941
 40
1.526988206520059
 40
2.20645280522091
 40
2.969953639769848
 40
3.796873621521927
 40
3.796873621521927
 40
3.796873621521927
 40
3.796873621521927
 10
-39.69134330294072
 20
80.51854181505887
 30
0.0
 10
-39.71171342838955
 20
80.37011684104976
 30
0.0
 10
-39.75499421778439
 20
80.05475560992181
 30
0.0
 10
-40.07196093287097
 20
79.63406346138433
 30
0.0
 10
-40.53196736694899
 20
79.26570715001077
 30
0.0
 10
-41.139676229873
 20
78.95927553686698
 30
0.0
 10
-41.86012879396753
 20
78.71910664697856
 30
0.0
 10
-42.38379384203687
 20
78.63198697474192
 30
0.0
 10
-42.65606712253062
 20
78.58669016248072
 30
0.0
 11
-39.69134330294072
 21
80.51854181505887
 31
0.0
 11
-39.78615962303807
 21
80.0856626258215
 31
0.0
 11
-40.06611215479411
 21
79.67330529157746
 31
0.0
 11
-40.51793022503496
 21
79.30101906571761
 31
0.0
 11
-41.12019286419462
 21
78.98645292882091
 31
0.0
 11
-41.84434901486352
 21
78.74452030705176
 31
0.0
 11
-42.65606712253062
 21
78.58669016248072
 31
0.0
  0
SPLINE
  5
FF
330
47
100
AcDbEntity
  8
0
  6
Continuous
 62
     7
100
AcDbSpline
210
0.0
220
0.0
230
1.0
 70
     8
 71
     3
 72
     9
 73
     5
 74
     3
 42
0.000000001
 43
0.0000000001
 44
0.00000001
 40
0.0
 40
0.0
 40
0.0
 40
0.0
 40
0.0955918285142357
 40
0.1904619472838155
 40
0.1904619472838155
 40
0.1904619472838155
 40
0.1904619472838155
 10
-22.63998698373823
 20
76.05420800941597
 30
0.0
 10
-22.63440261194682
 20
76.0227862329317
 30
0.0
 10
-22.62327604967003
 20
75.96017990906262
 30
0.0
 10
-22.62164677019565
 20
75.89661433241322
 30
0.0
 10
-22.62083522725203
 20
75.86495197657271
 30
0.0
 11
-22.63998698373823
 21
76.05420800941597
 31
0.0
 11
-22.62562622691559
 21
75.95970104439226
 31
0.0
 11
-22.62083522725203
 21
75.86495197657271
 31
0.0
  0
SPLINE
  5
100
330
47
100
AcDbEntity
  8
0
  6
Continuous
 62
     7
100
AcDbSpline
210
0.0
220
0.0
230
1.0
 70
     8
 71
     3
 72
    19
 73
    15
 74
    13
 42
0.000000001
 43
0.0000000001
 44
0.00000001
 40
0.0
 40
0.0
 40
0.0
 40
0.0
 40
0.4320029101430381
 40
0.921557309257947
 40
1.500375888219358
 40
2.173780785287369
 40
2.9294811873491
 40
3.744412187914028
 40
4.589268796810867
 40
5.431922437578586
 40
6.240446028226392
 40
6.986164759864577
 40
7.647170440322202
 40
8.213091492813856
 40
8.213091492813856
 40
8.213091492813856
 40
8.213091492813856
 10
-22.62083522725203
 20
75.86495197657271
 30
0.0
 10
-22.64158723685689
 20
75.7202529655406
 30
0.0
 10
-22.68585585158755
 20
75.4115781249206
 30
0.0
 10
-23.00688726123308
 20
75.00433288782736
 30
0.0
 10
-23.46949274502475
 20
74.65159339290526
 30
0.0
 10
-24.0781169045775
 20
74.36160763587162
 30
0.0
 10
-24.79633714129592
 20
74.14593276015128
 30
0.0
 10
-25.59285028994345
 20
74.01471572261195
 30
0.0
 10
-26.42780997922467
 20
73.97440673871733
 30
0.0
 10
-27.25967980470917
 20
74.02744809261446
 30
0.0
 10
-28.04862018703571
 20
74.16972147368084
 30
0.0
 10
-28.75118181643413
 20
74.39899963232578
 30
0.0
 10
-29.34978159367309
 20
74.68915241806256
 30
0.0
 10
-29.65179614089778
 20
74.96767270925207
 30
0.0
 10
-29.79110061664272
 20
75.096140447956
 30
0.0
 11
-22.62083522725203
 21
75.86495197657271
 31
0.0
 11
-22.7166942145694
 21
75.4437185769129
 31
0.0
 11
-22.99936880965967
 21
75.04402046374001
 31
0.0
 11
-23.45440892825125
 21
74.68629230442156
 31
0.0
 11
-24.05854946461047
 21
74.38882236235474
 31
0.0
 11
-24.78090513248711
 21
74.16681924160424
 31
0.0
 11
-25.58454495331216
 21
74.03163206415238
 31
0.0
 11
-26.42838370181584
 21
73.99017298815832
 31
0.0
 11
-27.26928032159081
 21
74.0445607814955
 31
0.0
 11
-28.06424412168388
 21
74.19201569828952
 31
0.0
 11
-28.77263348178592
 21
74.42499840574848
 31
0.0
 11
-29.35823140273044
 21
74.73159844178517
 31
0.0
 11
-29.79110061664272
 21
75.096140447956
 31
0.0
  0
SPLINE
  5
101
330
47
100
AcDbEntity
  8
0
  6
Continuous
 62
     7
100
AcDbSpline
210
0.0
220
0.0
230
1.0
 70
     8
 71
     3
 72
    19
 73
    15
 74
    13
 42
0.000000001
 43
0.0000000001
 44
0.00000001
 40
0.0
 40
0.0
 40
0.0
 40
0.0
 40
0.4320029101430397
 40
0.921557309257991
 40
1.500375888219396
 40
2.173780785287369
 40
2.92948118734914
 40
3.744412187914082
 40
4.589268796810881
 40
5.431922437578625
 40
6.240446028226466
 40
6.986164759864609
 40
7.647170440322237
 40
8.213091492813941
 40
8.213091492813941
 40
8.213091492813941
 40
8.213091492813941
 10
-30.12083522725202
 20
75.86495197657271
 30
0.0
 10
-30.10008321764716
 20
76.00965098760479
 30
0.0
 10
-30.05581460291649
 20
76.3183258282249
 30
0.0
 10
-29.73478319327092
 20
76.72557106531806
 30
0.0
 10
-29.27217770947924
 20
77.07831056024017
 30
0.0
 10
-28.66355354992652
 20
77.36829631727386
 30
0.0
 10
-27.94533331320808
 20
77.58397119299413
 30
0.0
 10
-27.14882016456054
 20
77.71518823053347
 30
0.0
 10
-26.31386047527931
 20
77.75549721442809
 30
0.0
 10
-25.48199064979483
 20
77.70245586053097
 30
0.0
 10
-24.69305026746825
 20
77.56018247946457
 30
0.0
 10
-23.99048863806984
 20
77.33090432081967
 30
0.0
 10
-23.3918888608309
 20
77.04075153508288
 30
0.0
 10
-23.08987431360618
 20
76.76223124389335
 30
0.0
 10
-22.95056983786122
 20
76.63376350518942
 30
0.0
 11
-30.12083522725202
 21
75.86495197657271
 31
0.0
 11
-30.02497623993465
 21
76.28618537623252
 31
0.0
 11
-29.74230164484432
 21
76.68588348940543
 31
0.0
 11
-29.28726152625273
 21
77.04361164872387
 31
0.0
 11
-28.68312098989357
 21
77.3410815907907
 31
0.0
 11
-27.96076532201688
 21
77.56308471154118
 31
0.0
 11
-27.15712550119181
 21
77.69827188899305
 31
0.0
 11
-26.31328675268817
 21
77.7397309649871
 31
0.0
 11
-25.47239013291318
 21
77.68534317164992
 31
0.0
 11
-24.67742633282007
 21
77.5378882548559
 31
0.0
 11
-23.96903697271807
 21
77.30490554739697
 31
0.0
 11
-23.38343905177355
 21
76.99830551136027
 31
0.0
 11
-22.95056983786122
 21
76.63376350518942
 31
0.0
  0
SPLINE
  5
102
330
47
100
AcDbEntity
  8
0
  6
Continuous
 62
     7
100
AcDbSpline
210
0.0
220
0.0
230
1.0
 70
     8
 71
     3
 72
    11
 73
     7
 74
     5
 42
0.000000001
 43
0.0000000001
 44
0.00000001
 40
0.0
 40
0.0
 40
0.0
 40
0.0
 40
0.2381658594868813
 40
0.4887123701108055
 40
0.7615392976393061
 40
1.062965126966609
 40
1.062965126966609
 40
1.062965126966609
 40
1.062965126966609
 10
-40.19134330294082
 20
69.54547686976615
 30
0.0
 10
-40.19775688167762
 20
69.62510216740749
 30
0.0
 10
-40.21091745290425
 20
69.78849194754167
 30
0.0
 10
-40.3149775142758
 20
70.02428933881424
 30
0.0
 10
-40.47393402401092
 20
70.25074663074012
 30
0.0
 10
-40.6165067403676
 20
70.37935699103456
 30
0.0
 10
-40.69134330294072
 20
70.44686468863213
 30
0.0
 11
-40.19134330294082
 21
69.54547686976615
 31
0.0
 11
-40.22331827968296
 21
69.78148656968675
 31
0.0
 11
-40.31865891213277
 21
70.01318404311289
 31
0.0
 11
-40.47562326169961
 21
70.23633584454477
 31
0.0
 11
-40.69134330294072
 21
70.44686468863213
 31
0.0
  0
SPLINE
  5
103
330
47
100
AcDbEntity
  8
0
  6
Continuous
 62
     7
100
AcDbSpline
210
0.0
220
0.0
230
1.0
 70
     8
 71
     3
 72
     9
 73
     5
 74
     3
 42
0.000000001
 43
0.0000000001
 44
0.00000001
 40
0.0
 40
0.0
 40
0.0
 40
0.0
 40
0.2719688958466255
 40
0.5286054494916756
 40
0.5286054494916756
 40
0.5286054494916756
 40
0.5286054494916756
 10
-40.33874858523731
 20
69.04295605954356
 30
0.0
 10
-40.29586602389148
 20
69.12405153193102
 30
0.0
 10
-40.21251843920366
 20
69.28167069758871
 30
0.0
 10
-40.19826385612792
 20
69.45925847131582
 30
0.0
 10
-40.19134330294082
 20
69.54547686976615
 30
0.0
 11
-40.33874858523731
 21
69.04295605954356
 31
0.0
 11
-40.22839072361265
 21
69.29152843014361
 31
0.0
 11
-40.19134330294082
 21
69.54547686976615
 31
0.0
  0
SPLINE
  5
104
330
47
100
AcDbEntity
  8
0
  6
Continuous
 62
     7
100
AcDbSpline
210
0.0
220
0.0
230
1.0
 70
     8
 71
     3
 72
     9
 73
     5
 74
     3
 42
0.000000001
 43
0.0000000001
 44
0.00000001
 40
0.0
 40
0.0
 40
0.0
 40
0.0
 40
0.1982987436904715
 40
0.3880060953070807
 40
0.3880060953070807
 40
0.3880060953070807
 40
0.3880060953070807
 10
-40.78581435813442
 20
69.17201283170736
 30
0.0
 10
-40.75831181281654
 20
69.23278145702565
 30
0.0
 10
-40.7044983025457
 20
69.3516858825163
 30
0.0
 10
-40.69566308545845
 20
69.48184051884836
 30
0.0
 10
-40.69134330294072
 20
69.54547686976613
 30
0.0
 11
-40.78581435813442
 21
69.17201283170736
 31
0.0
 11
-40.71505478213616
 21
69.35725719633871
 31
0.0
 11
-40.69134330294072
 21
69.54547686976613
 31
0.0
  0
SPLINE
  5
105
330
47
100
AcDbEntity
  8
0
  6
Continuous
 62
     7
100
AcDbSpline
210
0.0
220
0.0
230
1.0
 70
     8
 71
     3
 72
     9
 73
     5
 74
     3
 42
0.000000001
 43
0.0000000001
 44
0.00000001
 40
0.0
 40
0.0
 40
0.0
 40
0.0
 40
0.1123691308528376
 40
0.2237148039428121
 40
0.2237148039428121
 40
0.2237148039428121
 40
0.2237148039428121
 10
-39.71606252280581
 20
83.77163451154337
 30
0.0
 10
-39.70885519163378
 20
83.73480550378257
 30
0.0
 10
-39.69450619340174
 20
83.66148292402873
 30
0.0
 10
-39.69239437275638
 20
83.58680090818824
 30
0.0
 10
-39.69134330294072
 20
83.54963072830434
 30
0.0
 11
-39.71606252280581
 21
83.77163451154337
 31
0.0
 11
-39.69752788914295
 21
83.66080451087886
 31
0.0
 11
-39.69134330294072
 21
83.54963072830434
 31
0.0
  0
SPLINE
  5
106
330
47
100
AcDbEntity
  8
0
  6
Continuous
 62
     7
100
AcDbSpline
210
0.0
220
0.0
230
1.0
 70
     8
 71
     3
 72
    19
 73
    15
 74
    13
 42
0.000000001
 43
0.0000000001
 44
0.00000001
 40
0.0
 40
0.0
 40
0.0
 40
0.0
 40
0.4625745670992739
 40
0.9871709931580963
 40
1.607818622311976
 40
2.330043812218634
 40
3.140402187184714
 40
4.013870592761884
 40
4.918745811443521
 40
5.820343178169716
 40
6.684280158400995
 40
7.479798808697785
 40
8.183612651404909
 40
8.785163186317167
 40
8.785163186317167
 40
8.785163186317167
 40
8.785163186317167
 10
-39.69134330294072
 20
83.54963072830434
 30
0.0
 10
-39.71366030845646
 20
83.39469138642524
 30
0.0
 10
-39.76128658687005
 20
83.06403848654044
 30
0.0
 10
-40.10632139225026
 20
82.62829803912405
 30
0.0
 10
-40.60315617754264
 20
82.2512640920464
 30
0.0
 10
-41.25656062237748
 20
81.94181483937012
 30
0.0
 10
-42.02717939214295
 20
81.7123915828053
 30
0.0
 10
-42.88116223632441
 20
81.57387842521202
 30
0.0
 10
-43.77547305771856
 20
81.53313565621625
 30
0.0
 10
-44.66528545426434
 20
81.59267546662761
 30
0.0
 10
-45.50772983439519
 20
81.74791454507972
 30
0.0
 10
-46.25596715382858
 20
81.99631134043341
 30
0.0
 10
-46.8916666601398
 20
82.30965792583788
 30
0.0
 10
-47.20955080987923
 20
82.60977062900417
 30
0.0
 10
-47.35604122895272
 20
82.74807144929187
 30
0.0
 11
-39.69134330294072
 21
83.54963072830434
 31
0.0
 11
-39.79435230981477
 21
83.09867132520955
 31
0.0
 11
-40.09807216262537
 21
82.67093816088149
 31
0.0
 11
-40.58686166123248
 21
82.28846162091236
 31
0.0
 11
-41.23554455902907
 21
81.97094040643927
 31
0.0
 11
-42.01071215167205
 21
81.73472885307466
 31
0.0
 11
-42.87243906679577
 21
81.5919921092007
 31
0.0
 11
-43.77634323796462
 21
81.5500825703128
 31
0.0
 11
-44.67586956764156
 21
81.61115787357343
 31
0.0
 11
-45.52468836093444
 21
81.77207325864312
 31
0.0
 11
-46.27908244600177
 21
82.02454006481332
 31
0.0
 11
-46.90019631148115
 21
82.35555590830303
 31
0.0
 11
-47.35604122895272
 21
82.74807144929187
 31
0.0
  0
SPLINE
  5
107
330
47
100
AcDbEntity
  8
0
  6
Continuous
 62
     7
100
AcDbSpline
210
0.0
220
0.0
230
1.0
 70
     8
 71
     3
 72
     9
 73
     5
 74
     3
 42
0.000000001
 43
0.0000000001
 44
0.00000001
 40
0.0
 40
0.0
 40
0.0
 40
0.0
 40
0.315989210181465
 40
0.6627086493859211
 40
0.6627086493859211
 40
0.6627086493859211
 40
0.6627086493859211
 10
-47.66662408307572
 20
82.02858883938863
 30
0.0
 10
-47.6349777052817
 20
81.9271134549681
 30
0.0
 10
-47.56860729349747
 20
81.71429412363176
 30
0.0
 10
-47.42905365390023
 20
81.54014539645962
 30
0.0
 10
-47.35604122895272
 20
81.44903334361521
 30
0.0
 11
-47.66662408307572
 21
82.02858883938863
 31
0.0
 11
-47.55504657084146
 21
81.73295453741395
 31
0.0
 11
-47.35604122895272
 21
81.44903334361521
 31
0.0
  0
SPLINE
  5
108
330
47
100
AcDbEntity
  8
0
  6
Continuous
 62
     7
100
AcDbSpline
210
0.0
220
0.0
230
1.0
 70
     8
 71
     3
 72
    15
 73
    11
 74
     9
 42
0.000000001
 43
0.0000000001
 44
0.00000001
 40
0.0
 40
0.0
 40
0.0
 40
0.0
 40
0.9068839478741905
 40
1.818887028291132
 40
2.70051521577657
 40
3.51919238214165
 40
4.249066810376664
 40
4.876033168560946
 40
5.405315468244484
 40
5.871333872490895
 40
5.871333872490895
 40
5.871333872490895
 40
5.871333872490895
 10
-42.65606712253062
 20
78.58669016248072
 30
0.0
 10
-42.95723805406632
 20
78.55703483278447
 30
0.0
 10
-43.5612799517699
 20
78.49755678079507
 30
0.0
 10
-44.46340348449866
 20
78.5399773738154
 30
0.0
 10
-45.32566300236933
 20
78.67405659926362
 30
0.0
 10
-46.10510450163093
 20
78.90259441628275
 30
0.0
 10
-46.76668907041732
 20
79.2121842348268
 30
0.0
 10
-47.27013332321932
 20
79.59073113763559
 30
0.0
 10
-47.6202485872918
 20
80.02907073072453
 30
0.0
 10
-47.66867102029565
 20
80.36244823183829
 30
0.0
 10
-47.69134330294072
 20
80.51854181505887
 30
0.0
 11
-42.65606712253062
 21
78.58669016248072
 31
0.0
 11
-43.56046698730974
 21
78.51961287922809
 31
0.0
 11
-44.47170459100526
 21
78.5569712542524
 31
0.0
 11
-45.34217122467796
 21
78.69681438314072
 31
0.0
 11
-46.12638901897562
 21
78.93183513447639
 31
0.0
 11
-46.78338474650614
 21
79.24975539851019
 31
0.0
 11
-47.27883426907152
 21
79.63396443462085
 31
0.0
 11
-47.58685075404985
 21
80.06438934331811
 31
0.0
 11
-47.69134330294072
 21
80.51854181505887
 31
0.0
  0
ENDBLK
  5
49
330
47
100
AcDbEntity
  8
0
100
AcDbBlockEnd
  0
BLOCK
  5
4C
330
4A
100
AcDbEntity
  8
0
100
AcDbBlockBegin
  2
AllgSicht1
 70
     0
 10
-32.00000029200702
 20
64.42569759189269
 30
0.0
  3
AllgSicht1
  1

  0
INSERT
  5
4B
330
4A
100
AcDbEntity
  8
0
100
AcDbBlockReference
  2
azk35-select__1
 10
-52.12050842753962
 20
41.22643477506519
 30
0.0
  0
MTEXT
  5
10A
330
4A
100
AcDbEntity
  8
1
 62
     6
100
AcDbMText
 10
-32.00000035185082
 20
36.22643477506519
 30
0.0
 40
5.0
 41
0.0
 71
     2
 72
     1
  1
 \P1:1
  7
CONVERTER_11
 73
     1
 44
1.32052821128451
  0
ENDBLK
  5
4D
330
4A
100
AcDbEntity
  8
0
100
AcDbBlockEnd
  0
BLOCK
  5
4F
330
4E
100
AcDbEntity
  8
0
100
AcDbBlockBegin
  2
azk35-select__2
 70
     0
 10
-90.50000040627089
 20
25.99999999998005
 30
0.0
  3
azk35-select__2
  1

  0
LINE
  5
10B
330
4E
100
AcDbEntity
  8
0
  6
Continuous
 62
     7
100
AcDbLine
 10
-66.73245593830457
 20
37.59999999998006
 30
0.0
 11
-71.26754487423722
 21
37.59999999998006
 31
0.0
  0
LINE
  5
10C
330
4E
100
AcDbEntity
  8
0
  6
Continuous
 62
     7
100
AcDbLine
 10
-57.5000004062709
 20
35.74999999998006
 30
0.0
 11
-57.5000004062709
 21
28.24999999998006
 31
0.0
  0
LINE
  5
10D
330
4E
100
AcDbEntity
  8
0
  6
Continuous
 62
     7
100
AcDbLine
 10
-86.73245593830458
 20
37.59999999998006
 30
0.0
 11
-90.50000040627089
 21
37.59999999998006
 31
0.0
  0
LINE
  5
10E
330
4E
100
AcDbEntity
  8
0
  6
Continuous
 62
     7
100
AcDbLine
 10
-90.50000040627089
 20
37.59999999998006
 30
0.0
 11
-90.50000040627089
 21
36.09999999998006
 31
0.0
  0
LINE
  5
10F
330
4E
100
AcDbEntity
  8
0
  6
Continuous
 62
     7
100
AcDbLine
 10
-76.73245593830458
 20
37.59999999998006
 30
0.0
 11
-81.26754487423722
 21
37.59999999998006
 31
0.0
  0
LINE
  5
110
330
4E
100
AcDbEntity
  8
0
  6
Continuous
 62
     7
100
AcDbLine
 10
-81.26754487423722
 20
26.39999999998005
 30
0.0
 11
-76.73245593830458
 21
26.39999999998005
 31
0.0
  0
LINE
  5
111
330
4E
100
AcDbEntity
  8
0
  6
Continuous
 62
     7
100
AcDbLine
 10
-71.26754487423722
 20
37.59999999998006
 30
0.0
 11
-71.26754487423722
 21
37.99999999998005
 31
0.0
  0
LINE
  5
112
330
4E
100
AcDbEntity
  8
0
  6
Continuous
 62
     7
100
AcDbLine
 10
-88.7000004062709
 20
36.09999999998006
 30
0.0
 11
-90.50000040627089
 21
36.09999999998006
 31
0.0
  0
LINE
  5
113
330
4E
100
AcDbEntity
  8
0
  6
Continuous
 62
     7
100
AcDbLine
 10
-71.26754487423722
 20
37.59999999998006
 30
0.0
 11
-76.73245593830458
 21
37.59999999998006
 31
0.0
  0
LINE
  5
114
330
4E
100
AcDbEntity
  8
0
  6
Continuous
 62
     7
100
AcDbLine
 10
-71.26754487423722
 20
37.99999999998005
 30
0.0
 11
-76.73245593830458
 21
37.99999999998005
 31
0.0
  0
LINE
  5
115
330
4E
100
AcDbEntity
  8
0
  6
Continuous
 62
     7
100
AcDbLine
 10
-81.26754487423722
 20
26.39999999998005
 30
0.0
 11
-81.26754487423722
 21
25.99999999998005
 31
0.0
  0
LINE
  5
116
330
4E
100
AcDbEntity
  8
0
  6
Continuous
 62
     7
100
AcDbLine
 10
-86.73245593830458
 20
26.39999999998005
 30
0.0
 11
-86.73245593830458
 21
25.99999999998005
 31
0.0
  0
LINE
  5
117
330
4E
100
AcDbEntity
  8
0
  6
Continuous
 62
     7
100
AcDbLine
 10
-86.37216262838086
 20
28.77930964044622
 30
0.0
 11
-80.77931004673704
 21
34.37216222209005
 31
0.0
  0
LINE
  5
118
330
4E
100
AcDbEntity
  8
0
  6
Continuous
 62
     7
100
AcDbLine
 10
-81.26754487423722
 20
25.99999999998005
 30
0.0
 11
-86.73245593830458
 21
25.99999999998005
 31
0.0
  0
LINE
  5
119
330
4E
100
AcDbEntity
  8
0
  6
Continuous
 62
     7
100
AcDbLine
 10
-86.73245593830458
 20
26.39999999998005
 30
0.0
 11
-81.26754487423722
 21
26.39999999998005
 31
0.0
  0
LINE
  5
11A
330
4E
100
AcDbEntity
  8
0
  6
Continuous
 62
     7
100
AcDbLine
 10
-64.15340531586358
 20
36.09999999998006
 30
0.0
 11
-88.7000004062709
 21
36.09999999998006
 31
0.0
  0
LINE
  5
11B
330
4E
100
AcDbEntity
  8
0
  6
Continuous
 62
     7
100
AcDbLine
 10
-76.73245593830458
 20
37.59999999998006
 30
0.0
 11
-76.73245593830458
 21
37.99999999998005
 31
0.0
  0
LINE
  5
11C
330
4E
100
AcDbEntity
  8
0
  6
Continuous
 62
     7
100
AcDbLine
 10
-90.50000040627089
 20
27.89999999998005
 30
0.0
 11
-88.7000004062709
 21
27.89999999998005
 31
0.0
  0
LINE
  5
11D
330
4E
100
AcDbEntity
  8
0
  6
Continuous
 62
     7
100
AcDbLine
 10
-90.50000040627089
 20
26.39999999998005
 30
0.0
 11
-90.50000040627089
 21
27.89999999998005
 31
0.0
  0
LINE
  5
11E
330
4E
100
AcDbEntity
  8
0
  6
Continuous
 62
     7
100
AcDbLine
 10
-90.50000040627089
 20
26.39999999998005
 30
0.0
 11
-86.73245593830458
 21
26.39999999998005
 31
0.0
  0
LINE
  5
11F
330
4E
100
AcDbEntity
  8
0
  6
Continuous
 62
     7
100
AcDbLine
 10
-59.3000004062709
 20
28.24999999998006
 30
0.0
 11
-59.3000004062709
 21
27.89999999998005
 31
0.0
  0
LINE
  5
120
330
4E
100
AcDbEntity
  8
0
  6
Continuous
 62
     7
100
AcDbLine
 10
-59.3000004062709
 20
35.74999999998006
 30
0.0
 11
-59.3000004062709
 21
28.24999999998006
 31
0.0
  0
LINE
  5
121
330
4E
100
AcDbEntity
  8
0
  6
Continuous
 62
     7
100
AcDbLine
 10
-57.5000004062709
 20
28.24999999998006
 30
0.0
 11
-59.3000004062709
 21
28.24999999998006
 31
0.0
  0
LINE
  5
122
330
4E
100
AcDbEntity
  8
0
  6
Continuous
 62
     7
100
AcDbLine
 10
-61.26754487423722
 20
26.39999999998005
 30
0.0
 11
-61.26754487423722
 21
25.99999999998005
 31
0.0
  0
LINE
  5
123
330
4E
100
AcDbEntity
  8
0
  6
Continuous
 62
     7
100
AcDbLine
 10
-65.19543436916163
 20
27.53857971337841
 30
0.0
 11
-60.73401408255998
 21
28.73401367626916
 31
0.0
  0
LINE
  5
124
330
4E
100
AcDbEntity
  8
0
  6
Continuous
 62
     7
100
AcDbLine
 10
-60.73401408255998
 20
28.73401367626916
 30
0.0
 11
-59.53858011966925
 21
33.19543396287079
 31
0.0
  0
LINE
  5
125
330
4E
100
AcDbEntity
  8
0
  6
Continuous
 62
     7
100
AcDbLine
 10
-60.95824708256669
 20
34.19322518626041
 30
0.0
 11
-66.19322559255123
 21
28.95824667627585
 31
0.0
  0
LINE
  5
126
330
4E
100
AcDbEntity
  8
0
  6
Continuous
 62
     7
100
AcDbLine
 10
-59.3000004062709
 20
27.89999999998005
 30
0.0
 11
-63.84659549667821
 21
27.89999999998005
 31
0.0
  0
LINE
  5
127
330
4E
100
AcDbEntity
  8
0
  6
Continuous
 62
     7
100
AcDbLine
 10
-50.50000040627089
 20
27.89999999998005
 30
0.0
 11
-59.3000004062709
 21
27.89999999998005
 31
0.0
  0
LINE
  5
128
330
4E
100
AcDbEntity
  8
0
  6
Continuous
 62
     7
100
AcDbLine
 10
-59.53858011966925
 20
33.19543396287079
 30
0.0
 11
-62.80456644338015
 21
36.4614202865817
 31
0.0
  0
LINE
  5
129
330
4E
100
AcDbEntity
  8
0
  6
Continuous
 62
     7
100
AcDbLine
 10
-50.50000040627089
 20
26.39999999998005
 30
0.0
 11
-50.50000040627089
 21
27.89999999998005
 31
0.0
  0
LINE
  5
12A
330
4E
100
AcDbEntity
  8
0
  6
Continuous
 62
     7
100
AcDbLine
 10
-66.73245593830458
 20
26.39999999998005
 30
0.0
 11
-66.73245593830458
 21
25.99999999998005
 31
0.0
  0
LINE
  5
12B
330
4E
100
AcDbEntity
  8
0
  6
Continuous
 62
     7
100
AcDbLine
 10
-61.26754487423722
 20
25.99999999998005
 30
0.0
 11
-66.73245593830458
 21
25.99999999998005
 31
0.0
  0
LINE
  5
12C
330
4E
100
AcDbEntity
  8
0
  6
Continuous
 62
     7
100
AcDbLine
 10
-66.73245593830458
 20
26.39999999998005
 30
0.0
 11
-61.26754487423722
 21
26.39999999998005
 31
0.0
  0
LINE
  5
12D
330
4E
100
AcDbEntity
  8
0
  6
Continuous
 62
     7
100
AcDbLine
 10
-61.26754487423722
 20
26.39999999998005
 30
0.0
 11
-50.50000040627089
 21
26.39999999998005
 31
0.0
  0
LINE
  5
12E
330
4E
100
AcDbEntity
  8
0
  6
Continuous
 62
     7
100
AcDbLine
 10
-71.26754487423722
 20
26.39999999998005
 30
0.0
 11
-71.26754487423722
 21
25.99999999998005
 31
0.0
  0
LINE
  5
12F
330
4E
100
AcDbEntity
  8
0
  6
Continuous
 62
     7
100
AcDbLine
 10
-65.55685465576327
 20
27.89999999998005
 30
0.0
 11
-88.7000004062709
 21
27.89999999998005
 31
0.0
  0
LINE
  5
130
330
4E
100
AcDbEntity
  8
0
  6
Continuous
 62
     7
100
AcDbLine
 10
-89.00000040627089
 20
35.74999999998005
 30
0.0
 11
-88.7000004062709
 21
35.74999999998005
 31
0.0
  0
LINE
  5
131
330
4E
100
AcDbEntity
  8
0
  6
Continuous
 62
     7
100
AcDbLine
 10
-88.7000004062709
 20
28.24999999998006
 30
0.0
 11
-89.00000040627089
 21
28.24999999998006
 31
0.0
  0
LINE
  5
132
330
4E
100
AcDbEntity
  8
0
  6
Continuous
 62
     7
100
AcDbLine
 10
-89.00000040627089
 20
35.74999999998005
 30
0.0
 11
-90.2000004062709
 21
35.74999999998005
 31
0.0
  0
LINE
  5
133
330
4E
100
AcDbEntity
  8
0
  6
Continuous
 62
     7
100
AcDbLine
 10
-81.26754487423722
 20
37.59999999998006
 30
0.0
 11
-81.26754487423722
 21
37.99999999998005
 31
0.0
  0
LINE
  5
134
330
4E
100
AcDbEntity
  8
0
  6
Continuous
 62
     7
100
AcDbLine
 10
-86.73245593830458
 20
37.59999999998006
 30
0.0
 11
-86.73245593830458
 21
37.99999999998005
 31
0.0
  0
LINE
  5
135
330
4E
100
AcDbEntity
  8
0
  6
Continuous
 62
     7
100
AcDbLine
 10
-81.62783818416088
 20
35.2206903595139
 30
0.0
 11
-87.2206907658047
 21
29.62783777787006
 31
0.0
  0
LINE
  5
136
330
4E
100
AcDbEntity
  8
0
  6
Continuous
 62
     7
100
AcDbLine
 10
-81.26754487423722
 20
37.59999999998006
 30
0.0
 11
-86.73245593830458
 21
37.59999999998006
 31
0.0
  0
LINE
  5
137
330
4E
100
AcDbEntity
  8
0
  6
Continuous
 62
     7
100
AcDbLine
 10
-86.73245593830458
 20
37.99999999998005
 30
0.0
 11
-81.26754487423722
 21
37.99999999998005
 31
0.0
  0
LINE
  5
138
330
4E
100
AcDbEntity
  8
0
  6
Continuous
 62
     7
100
AcDbLine
 10
-89.00000040627089
 20
28.24999999998006
 30
0.0
 11
-90.2000004062709
 21
28.24999999998006
 31
0.0
  0
LINE
  5
139
330
4E
100
AcDbEntity
  8
0
  6
Continuous
 62
     7
100
AcDbLine
 10
-90.2000004062709
 20
35.74999999998005
 30
0.0
 11
-90.2000004062709
 21
28.24999999998006
 31
0.0
  0
LINE
  5
13A
330
4E
100
AcDbEntity
  8
0
  6
Continuous
 62
     7
100
AcDbLine
 10
-90.50000040627089
 20
36.09999999998006
 30
0.0
 11
-90.50000040627089
 21
27.89999999998005
 31
0.0
  0
LINE
  5
13B
330
4E
100
AcDbEntity
  8
0
  6
Continuous
 62
     7
100
AcDbLine
 10
-89.00000040627089
 20
28.24999999998006
 30
0.0
 11
-89.00000040627089
 21
35.74999999998005
 31
0.0
  0
LINE
  5
13C
330
4E
100
AcDbEntity
  8
0
  6
Continuous
 62
     7
100
AcDbLine
 10
-88.7000004062709
 20
27.89999999998005
 30
0.0
 11
-88.7000004062709
 21
36.09999999998006
 31
0.0
  0
LINE
  5
13D
330
4E
100
AcDbEntity
  8
0
  6
Continuous
 62
     7
100
AcDbLine
 10
-62.44314615677851
 20
36.09999999998006
 30
0.0
 11
-59.3000004062709
 21
36.09999999998006
 31
0.0
  0
LINE
  5
13E
330
4E
100
AcDbEntity
  8
0
  6
Continuous
 62
     7
100
AcDbLine
 10
-50.50000040627089
 20
37.59999999998006
 30
0.0
 11
-50.50000040627087
 21
36.09999999998006
 31
0.0
  0
LINE
  5
13F
330
4E
100
AcDbEntity
  8
0
  6
Continuous
 62
     7
100
AcDbLine
 10
-59.3000004062709
 20
36.09999999998006
 30
0.0
 11
-59.3000004062709
 21
35.74999999998006
 31
0.0
  0
LINE
  5
140
330
4E
100
AcDbEntity
  8
0
  6
Continuous
 62
     7
100
AcDbLine
 10
-57.5000004062709
 20
35.74999999998006
 30
0.0
 11
-59.3000004062709
 21
35.74999999998006
 31
0.0
  0
LINE
  5
141
330
4E
100
AcDbEntity
  8
0
  6
Continuous
 62
     7
100
AcDbLine
 10
-50.50000040627087
 20
36.09999999998006
 30
0.0
 11
-50.50000040627089
 21
27.89999999998005
 31
0.0
  0
LINE
  5
142
330
4E
100
AcDbEntity
  8
0
  6
Continuous
 62
     7
100
AcDbLine
 10
-59.3000004062709
 20
36.09999999998006
 30
0.0
 11
-50.50000040627087
 21
36.09999999998006
 31
0.0
  0
LINE
  5
143
330
4E
100
AcDbEntity
  8
0
  6
Continuous
 62
     7
100
AcDbLine
 10
-61.26754487423722
 20
37.59999999998006
 30
0.0
 11
-50.50000040627089
 21
37.59999999998006
 31
0.0
  0
LINE
  5
144
330
4E
100
AcDbEntity
  8
0
  6
Continuous
 62
     7
100
AcDbLine
 10
-61.26754487423722
 20
37.59999999998006
 30
0.0
 11
-61.26754487423722
 21
37.99999999998005
 31
0.0
  0
LINE
  5
145
330
4E
100
AcDbEntity
  8
0
  6
Continuous
 62
     7
100
AcDbLine
 10
-66.73245593830457
 20
37.59999999998006
 30
0.0
 11
-66.73245593830457
 21
37.99999999998005
 31
0.0
  0
LINE
  5
146
330
4E
100
AcDbEntity
  8
0
  6
Continuous
 62
     7
100
AcDbLine
 10
-62.80456644338015
 20
36.4614202865817
 30
0.0
 11
-67.26598672998179
 21
35.26598632369095
 31
0.0
  0
LINE
  5
147
330
4E
100
AcDbEntity
  8
0
  6
Continuous
 62
     7
100
AcDbLine
 10
-67.04175372997508
 20
29.8067748136997
 30
0.0
 11
-61.80677521999054
 21
35.04175332368426
 31
0.0
  0
LINE
  5
148
330
4E
100
AcDbEntity
  8
0
  6
Continuous
 62
     7
100
AcDbLine
 10
-67.26598672998179
 20
35.26598632369095
 30
0.0
 11
-68.46142069287254
 21
30.80456603708932
 31
0.0
  0
LINE
  5
149
330
4E
100
AcDbEntity
  8
0
  6
Continuous
 62
     7
100
AcDbLine
 10
-61.26754487423722
 20
37.99999999998005
 30
0.0
 11
-66.73245593830457
 21
37.99999999998005
 31
0.0
  0
LINE
  5
14A
330
4E
100
AcDbEntity
  8
0
  6
Continuous
 62
     7
100
AcDbLine
 10
-66.73245593830457
 20
37.59999999998006
 30
0.0
 11
-61.26754487423722
 21
37.59999999998006
 31
0.0
  0
LINE
  5
14B
330
4E
100
AcDbEntity
  8
0
  6
Continuous
 62
     7
100
AcDbLine
 10
-76.73245593830458
 20
26.39999999998005
 30
0.0
 11
-76.73245593830458
 21
25.99999999998005
 31
0.0
  0
LINE
  5
14C
330
4E
100
AcDbEntity
  8
0
  6
Continuous
 62
     7
100
AcDbLine
 10
-71.26754487423722
 20
26.39999999998005
 30
0.0
 11
-66.73245593830458
 21
26.39999999998005
 31
0.0
  0
LINE
  5
14D
330
4E
100
AcDbEntity
  8
0
  6
Continuous
 62
     7
100
AcDbLine
 10
-68.46142069287254
 20
30.80456603708932
 30
0.0
 11
-65.19543436916163
 21
27.53857971337841
 31
0.0
  0
LINE
  5
14E
330
4E
100
AcDbEntity
  8
0
  6
Continuous
 62
     7
100
AcDbLine
 10
-71.26754487423722
 20
25.99999999998005
 30
0.0
 11
-76.73245593830458
 21
25.99999999998005
 31
0.0
  0
LINE
  5
14F
330
4E
100
AcDbEntity
  8
0
  6
Continuous
 62
     7
100
AcDbLine
 10
-76.73245593830458
 20
26.39999999998005
 30
0.0
 11
-71.26754487423722
 21
26.39999999998005
 31
0.0
  0
ARC
  5
150
330
4E
100
AcDbEntity
  8
0
  6
Continuous
 62
     7
100
AcDbCircle
 10
-84.00000040627089
 20
31.99999999998005
 30
0.0
 40
3.99999999999999
100
AcDbArc
 50
233.6269265586786
 51
36.37307344132144
  0
ARC
  5
151
330
4E
100
AcDbEntity
  8
0
  6
Continuous
 62
     7
100
AcDbCircle
 10
-84.00000040627089
 20
31.99999999998005
 30
0.0
 40
4.000000000000012
100
AcDbArc
 50
36.37307344132144
 51
53.62692655867847
  0
ARC
  5
152
330
4E
100
AcDbEntity
  8
0
  6
Continuous
 62
     7
100
AcDbCircle
 10
-84.00000040627089
 20
31.99999999998005
 30
0.0
 40
3.999999999999987
100
AcDbArc
 50
216.3730734413217
 51
233.6269265586786
  0
ARC
  5
153
330
4E
100
AcDbEntity
  8
0
  6
Continuous
 62
     7
100
AcDbCircle
 10
-64.00000040627089
 20
31.99999999998005
 30
0.0
 40
3.750000000000002
100
AcDbArc
 50
234.2068962213459
 51
35.7931037786544
  0
ARC
  5
154
330
4E
100
AcDbEntity
  8
0
  6
Continuous
 62
     7
100
AcDbCircle
 10
-64.00000040627089
 20
31.99999999998005
 30
0.0
 40
3.750000000000003
100
AcDbArc
 50
215.7931037786542
 51
234.2068962213459
  0
ARC
  5
155
330
4E
100
AcDbEntity
  8
0
  6
Continuous
 62
     7
100
AcDbCircle
 10
-84.00000040627089
 20
31.99999999998005
 30
0.0
 40
4.000000000000021
100
AcDbArc
 50
53.62692655867847
 51
216.3730734413217
  0
ARC
  5
156
330
4E
100
AcDbEntity
  8
0
  6
Continuous
 62
     7
100
AcDbCircle
 10
-64.00000040627089
 20
31.99999999998005
 30
0.0
 40
3.750000000000004
100
AcDbArc
 50
35.7931037786544
 51
54.20689622134599
  0
ARC
  5
157
330
4E
100
AcDbEntity
  8
0
  6
Continuous
 62
     7
100
AcDbCircle
 10
-64.00000040627089
 20
31.99999999998005
 30
0.0
 40
3.750000000000008
100
AcDbArc
 50
54.20689622134599
 51
215.7931037786542
  0
CIRCLE
  5
158
330
4E
100
AcDbEntity
  8
0
  6
Continuous
 62
     7
100
AcDbCircle
 10
-74.0000004062709
 20
31.99999999998005
 30
0.0
 40
3.499999999999986
  0
ENDBLK
  5
50
330
4E
100
AcDbEntity
  8
0
100
AcDbBlockEnd
  0
BLOCK
  5
53
330
51
100
AcDbEntity
  8
0
100
AcDbBlockBegin
  2
Drfsicht1
 70
     0
 10
-70.500000337175
 20
31.99999999999005
 30
0.0
  3
Drfsicht1
  1

  0
INSERT
  5
52
330
51
100
AcDbEntity
  8
0
100
AcDbBlockReference
  2
azk35-select__2
 10
-90.50000040627089
 20
25.99999999998005
 30
0.0
  0
MTEXT
  5
159
330
51
100
AcDbEntity
  8
1
 62
     6
100
AcDbMText
 10
-77.69122817228771
 20
23.49999999998005
 30
0.0
 40
2.5
 41
0.0
 71
     2
 72
     1
  1
 
  7
CONVERTER_11
 73
     1
 44
1.32052821128451
  0
DIMENSION
  5
164
330
51
100
AcDbEntity
  8
1
100
AcDbDimension
  2
*D17
 10
-102.1324559383046
 20
25.99999999998005
 30
0.0
 11
-104.0074559383046
 21
32.05927529278429
 31
0.0
 70
    32
  1
<>
 71
     5
 42
-1.0
 53
90.0
  3
ME10_DIM_10
100
AcDbAlignedDimension
 13
-86.73245593830458
 23
37.99999999998005
 33
0.0
 14
-86.73245593830458
 24
25.99999999998005
 34
0.0
 50
90.0
100
AcDbRotatedDimension
  0
ENDBLK
  5
54
330
51
100
AcDbEntity
  8
0
100
AcDbBlockEnd
  0
BLOCK
  5
56
330
55
100
AcDbEntity
  8
0
100
AcDbBlockBegin
  2
azk35-select__3
 70
     0
 10
-21.80000026727621
 20
50.69265055348882
 30
0.0
  3
azk35-select__3
  1

  0
LINE
  5
165
330
55
100
AcDbEntity
  8
0
  6
Continuous
 62
     7
100
AcDbLine
 10
8.47930937318995
 20
87.0926506976984
 30
0.0
 11
7.69999973272378
 21
87.0926506976984
 31
0.0
  0
LINE
  5
166
330
55
100
AcDbEntity
  8
0
  6
Continuous
 62
     7
100
AcDbLine
 10
-4.5500002672762
 20
83.99265069769855
 30
0.0
 11
-4.5500002672762
 21
82.29265069769853
 31
0.0
  0
LINE
  5
167
330
55
100
AcDbEntity
  8
0
  6
Continuous
 62
     7
100
AcDbLine
 10
-4.5500002672762
 20
83.99265069769855
 30
0.0
 11
-10.49322545355655
 21
83.99265069769855
 31
0.0
  0
LINE
  5
168
330
55
100
AcDbEntity
  8
0
  6
Continuous
 62
     7
100
AcDbLine
 10
-5.0340139435653
 20
82.29265069769853
 30
0.0
 11
-4.5500002672762
 21
82.29265069769853
 31
0.0
  0
LINE
  5
169
330
55
100
AcDbEntity
  8
0
  6
Continuous
 62
     7
100
AcDbLine
 10
-4.5500002672762
 20
82.29265069769853
 30
0.0
 11
-3.83857998067456
 21
82.29265069769853
 31
0.0
  0
LINE
  5
16A
330
55
100
AcDbEntity
  8
0
  6
Continuous
 62
     7
100
AcDbLine
 10
-9.49543423016694
 20
82.29265069769853
 30
0.0
 11
-5.0340139435653
 21
82.29265069769853
 31
0.0
  0
LINE
  5
16B
330
55
100
AcDbEntity
  8
0
  6
Continuous
 62
     7
100
AcDbLine
 10
7.69999973272378
 20
83.59265069769846
 30
0.0
 11
7.69999973272378
 21
87.0926506976984
 31
0.0
  0
LINE
  5
16C
330
55
100
AcDbEntity
  8
0
  6
Continuous
 62
     7
100
AcDbLine
 10
15.69999973272379
 20
87.0926506976984
 30
0.0
 11
9.32783751061378
 21
87.0926506976984
 31
0.0
  0
LINE
  5
16D
330
55
100
AcDbEntity
  8
0
  6
Continuous
 62
     7
100
AcDbLine
 10
-12.76142055387784
 20
78.99265069769855
 30
0.0
 11
-12.76142055387784
 21
82.29265069769853
 31
0.0
  0
LINE
  5
16E
330
55
100
AcDbEntity
  8
0
  6
Continuous
 62
     7
100
AcDbLine
 10
-9.49543423016694
 20
78.99265069769855
 30
0.0
 11
-11.3000002672762
 21
78.99265069769855
 31
0.0
  0
LINE
  5
16F
330
55
100
AcDbEntity
  8
0
  6
Continuous
 62
     7
100
AcDbLine
 10
-9.49543423016694
 20
78.99265069769855
 30
0.0
 11
-9.49543423016694
 21
82.29265069769853
 31
0.0
  0
LINE
  5
170
330
55
100
AcDbEntity
  8
0
  6
Continuous
 62
     7
100
AcDbLine
 10
-3.83857998067456
 20
78.99265069769855
 30
0.0
 11
-5.0340139435653
 21
78.99265069769855
 31
0.0
  0
LINE
  5
171
330
55
100
AcDbEntity
  8
0
  6
Continuous
 62
     7
100
AcDbLine
 10
-3.83857998067456
 20
78.99265069769855
 30
0.0
 11
-3.83857998067456
 21
82.29265069769853
 31
0.0
  0
LINE
  5
172
330
55
100
AcDbEntity
  8
0
  6
Continuous
 62
     7
100
AcDbLine
 10
-21.80000026727621
 20
50.69265055348882
 30
0.0
 11
-21.80000026727621
 21
57.79265055348881
 31
0.0
  0
LINE
  5
173
330
55
100
AcDbEntity
  8
0
  6
Continuous
 62
     7
100
AcDbLine
 10
-21.80000026727621
 20
57.79265055348881
 30
0.0
 11
-4.80000026727621
 21
57.79265055348881
 31
0.0
  0
LINE
  5
174
330
55
100
AcDbEntity
  8
0
  6
Continuous
 62
     7
100
AcDbLine
 10
-21.80000026727621
 20
63.1926505534888
 30
0.0
 11
-4.80000026727621
 21
63.1926505534888
 31
0.0
  0
LINE
  5
175
330
55
100
AcDbEntity
  8
0
  6
Continuous
 62
     7
100
AcDbLine
 10
-21.80000026727621
 20
50.69265055348882
 30
0.0
 11
18.19999973272379
 21
50.69265055348882
 31
0.0
  0
LINE
  5
176
330
55
100
AcDbEntity
  8
0
  6
Continuous
 62
     7
100
AcDbLine
 10
-11.03245579930988
 20
69.72204669769847
 30
0.0
 11
-5.56754473524252
 21
69.72204669769847
 31
0.0
  0
LINE
  5
177
330
55
100
AcDbEntity
  8
0
  6
Continuous
 62
     7
100
AcDbLine
 10
-11.03245579930988
 20
66.72204669769847
 30
0.0
 11
-11.03245579930988
 21
69.72204669769847
 31
0.0
  0
LINE
  5
178
330
55
100
AcDbEntity
  8
0
  6
Continuous
 62
     7
100
AcDbLine
 10
-5.30000026727621
 20
78.99265069769855
 30
0.0
 11
-9.49543423016694
 21
78.99265069769855
 31
0.0
  0
LINE
  5
179
330
55
100
AcDbEntity
  8
0
  6
Continuous
 62
     7
100
AcDbLine
 10
-21.80000026727621
 20
74.1926505534888
 30
0.0
 11
-21.80000026727621
 21
63.1926505534888
 31
0.0
  0
LINE
  5
17A
330
55
100
AcDbEntity
  8
0
  6
Continuous
 62
     7
100
AcDbLine
 10
-5.3000002672762
 20
74.1926505534888
 30
0.0
 11
-21.80000026727621
 21
74.1926505534888
 31
0.0
  0
LINE
  5
17B
330
55
100
AcDbEntity
  8
0
  6
Continuous
 62
     7
100
AcDbLine
 10
-11.3000002672762
 20
78.99265069769855
 30
0.0
 11
-12.76142055387784
 21
78.99265069769855
 31
0.0
  0
LINE
  5
17C
330
55
100
AcDbEntity
  8
0
  6
Continuous
 62
     7
100
AcDbLine
 10
-11.3000002672762
 20
78.99265069769855
 30
0.0
 11
-11.3000002672762
 21
74.1926505534888
 31
0.0
  0
LINE
  5
17D
330
55
100
AcDbEntity
  8
0
  6
Continuous
 62
     7
100
AcDbLine
 10
-5.56754473524252
 20
66.72204669769847
 30
0.0
 11
-11.03245579930988
 21
66.72204669769847
 31
0.0
  0
LINE
  5
17E
330
55
100
AcDbEntity
  8
0
  6
Continuous
 62
     7
100
AcDbLine
 10
-5.56754473524252
 20
66.72204669769847
 30
0.0
 11
-5.56754473524252
 21
69.72204669769847
 31
0.0
  0
LINE
  5
17F
330
55
100
AcDbEntity
  8
0
  6
Continuous
 62
     7
100
AcDbLine
 10
-5.0340139435653
 20
78.99265069769855
 30
0.0
 11
-5.0340139435653
 21
82.29265069769853
 31
0.0
  0
LINE
  5
180
330
55
100
AcDbEntity
  8
0
  6
Continuous
 62
     7
100
AcDbLine
 10
-5.0340139435653
 20
78.99265069769855
 30
0.0
 11
-5.30000026727621
 21
78.99265069769855
 31
0.0
  0
LINE
  5
181
330
55
100
AcDbEntity
  8
0
  6
Continuous
 62
     7
100
AcDbLine
 10
-5.30000026727621
 20
78.99265069769855
 30
0.0
 11
-5.3000002672762
 21
74.1926505534888
 31
0.0
  0
LINE
  5
182
330
55
100
AcDbEntity
  8
0
  6
Continuous
 62
     7
100
AcDbLine
 10
-4.80000026727621
 20
57.79265055348881
 30
0.0
 11
-4.80000026727621
 21
63.1926505534888
 31
0.0
  0
LINE
  5
183
330
55
100
AcDbEntity
  8
0
  6
Continuous
 62
     7
100
AcDbLine
 10
4.43245526475748
 20
66.72204669769847
 30
0.0
 11
4.43245526475748
 21
69.72204669769847
 31
0.0
  0
LINE
  5
184
330
55
100
AcDbEntity
  8
0
  6
Continuous
 62
     7
100
AcDbLine
 10
4.43245526475748
 20
66.72204669769847
 30
0.0
 11
-1.03245579930988
 21
66.72204669769847
 31
0.0
  0
LINE
  5
185
330
55
100
AcDbEntity
  8
0
  6
Continuous
 62
     7
100
AcDbLine
 10
-1.03245579930988
 20
69.72204669769847
 30
0.0
 11
4.43245526475748
 21
69.72204669769847
 31
0.0
  0
LINE
  5
186
330
55
100
AcDbEntity
  8
0
  6
Continuous
 62
     7
100
AcDbLine
 10
-1.03245579930988
 20
66.72204669769847
 30
0.0
 11
-1.03245579930988
 21
69.72204669769847
 31
0.0
  0
LINE
  5
187
330
55
100
AcDbEntity
  8
0
  6
Continuous
 62
     7
100
AcDbLine
 10
8.96754420069013
 20
69.72204669769847
 30
0.0
 11
8.96754420069013
 21
66.72204669769847
 31
0.0
  0
LINE
  5
188
330
55
100
AcDbEntity
  8
0
  6
Continuous
 62
     7
100
AcDbLine
 10
14.43245526475749
 20
66.72204669769847
 30
0.0
 11
8.96754420069013
 21
66.72204669769847
 31
0.0
  0
LINE
  5
189
330
55
100
AcDbEntity
  8
0
  6
Continuous
 62
     7
100
AcDbLine
 10
18.19999973272379
 20
74.1926505534888
 30
0.0
 11
-5.3000002672762
 21
74.1926505534888
 31
0.0
  0
LINE
  5
18A
330
55
100
AcDbEntity
  8
0
  6
Continuous
 62
     7
100
AcDbLine
 10
18.19999973272379
 20
74.1926505534888
 30
0.0
 11
18.19999973272379
 21
50.69265055348882
 31
0.0
  0
LINE
  5
18B
330
55
100
AcDbEntity
  8
0
  6
Continuous
 62
     7
100
AcDbLine
 10
15.69999973272379
 20
83.59265069769846
 30
0.0
 11
15.69999973272379
 21
87.0926506976984
 31
0.0
  0
LINE
  5
18C
330
55
100
AcDbEntity
  8
0
  6
Continuous
 62
     7
100
AcDbLine
 10
14.43245526475749
 20
66.72204669769847
 30
0.0
 11
14.43245526475748
 21
69.72204669769847
 31
0.0
  0
LINE
  5
18D
330
55
100
AcDbEntity
  8
0
  6
Continuous
 62
     7
100
AcDbLine
 10
15.69999973272379
 20
83.59265069769846
 30
0.0
 11
14.69999973272379
 21
83.5926506976984
 31
0.0
  0
LINE
  5
18E
330
55
100
AcDbEntity
  8
0
  6
Continuous
 62
     7
100
AcDbLine
 10
8.69999973272378
 20
83.5926506976984
 30
0.0
 11
7.69999973272378
 21
83.59265069769846
 31
0.0
  0
LINE
  5
18F
330
55
100
AcDbEntity
  8
0
  6
Continuous
 62
     7
100
AcDbLine
 10
-11.34175359098041
 20
83.99265069769855
 30
0.0
 11
-12.05000026727621
 21
83.99265069769855
 31
0.0
  0
LINE
  5
190
330
55
100
AcDbEntity
  8
0
  6
Continuous
 62
     7
100
AcDbLine
 10
-10.49322545355655
 20
82.39265069769856
 30
0.0
 11
-11.34175359098041
 21
82.39265069769856
 31
0.0
  0
LINE
  5
191
330
55
100
AcDbEntity
  8
0
  6
Continuous
 62
     7
100
AcDbLine
 10
-10.49322545355655
 20
83.99265069769855
 30
0.0
 11
-10.49322545355655
 21
82.39265069769856
 31
0.0
  0
LINE
  5
192
330
55
100
AcDbEntity
  8
0
  6
Continuous
 62
     7
100
AcDbLine
 10
-11.34175359098041
 20
83.99265069769855
 30
0.0
 11
-10.49322545355655
 21
83.99265069769855
 31
0.0
  0
LINE
  5
193
330
55
100
AcDbEntity
  8
0
  6
Continuous
 62
     7
100
AcDbLine
 10
-12.76142055387784
 20
82.29265069769853
 30
0.0
 11
-12.05000026727621
 21
82.29265069769853
 31
0.0
  0
LINE
  5
194
330
55
100
AcDbEntity
  8
0
  6
Continuous
 62
     7
100
AcDbLine
 10
-12.05000026727621
 20
83.99265069769855
 30
0.0
 11
-12.05000026727621
 21
82.29265069769853
 31
0.0
  0
LINE
  5
195
330
55
100
AcDbEntity
  8
0
  6
Continuous
 62
     7
100
AcDbLine
 10
-11.34175359098041
 20
83.99265069769855
 30
0.0
 11
-11.34175359098041
 21
82.39265069769856
 31
0.0
  0
LINE
  5
196
330
55
100
AcDbEntity
  8
0
  6
Continuous
 62
     7
100
AcDbLine
 10
-12.05000026727621
 20
82.29265069769853
 30
0.0
 11
-9.49543423016694
 21
82.29265069769853
 31
0.0
  0
LINE
  5
197
330
55
100
AcDbEntity
  8
0
  6
Continuous
 62
     7
100
AcDbLine
 10
14.69999973272379
 20
83.5926506976984
 30
0.0
 11
8.69999973272378
 21
83.5926506976984
 31
0.0
  0
LINE
  5
198
330
55
100
AcDbEntity
  8
0
  6
Continuous
 62
     7
100
AcDbLine
 10
14.69999973272379
 20
74.1926505534888
 30
0.0
 11
14.69999973272379
 21
83.5926506976984
 31
0.0
  0
LINE
  5
199
330
55
100
AcDbEntity
  8
0
  6
Continuous
 62
     7
100
AcDbLine
 10
14.43245526475748
 20
69.72204669769847
 30
0.0
 11
8.96754420069013
 21
69.72204669769847
 31
0.0
  0
LINE
  5
19A
330
55
100
AcDbEntity
  8
0
  6
Continuous
 62
     7
100
AcDbLine
 10
8.47930937318995
 20
85.5926506976984
 30
0.0
 11
9.32783751061378
 21
85.5926506976984
 31
0.0
  0
LINE
  5
19B
330
55
100
AcDbEntity
  8
0
  6
Continuous
 62
     7
100
AcDbLine
 10
9.32783751061378
 20
85.5926506976984
 30
0.0
 11
9.32783751061378
 21
87.0926506976984
 31
0.0
  0
LINE
  5
19C
330
55
100
AcDbEntity
  8
0
  6
Continuous
 62
     7
100
AcDbLine
 10
8.47930937318995
 20
85.5926506976984
 30
0.0
 11
8.47930937318995
 21
87.0926506976984
 31
0.0
  0
LINE
  5
19D
330
55
100
AcDbEntity
  8
0
  6
Continuous
 62
     7
100
AcDbLine
 10
9.32783751061378
 20
87.0926506976984
 30
0.0
 11
8.47930937318995
 21
87.0926506976984
 31
0.0
  0
LINE
  5
19E
330
55
100
AcDbEntity
  8
0
  6
Continuous
 62
     7
100
AcDbLine
 10
8.69999973272378
 20
74.1926505534888
 30
0.0
 11
8.69999973272378
 21
83.5926506976984
 31
0.0
  0
LINE
  5
19F
330
55
100
AcDbEntity
  8
1
  6
Continuous
 62
     2
100
AcDbLine
 10
-10.68500026727621
 20
74.1926505534888
 30
0.0
 11
-10.6850002672762
 21
78.99265069769855
 31
0.0
  0
LINE
  5
1A0
330
55
100
AcDbEntity
  8
1
  6
Continuous
 62
     2
100
AcDbLine
 10
-5.9150002672762
 20
74.1926505534888
 30
0.0
 11
-5.91500026727621
 21
78.99265069769855
 31
0.0
  0
LINE
  5
1A1
330
55
100
AcDbEntity
  8
1
  6
Continuous
 62
     2
100
AcDbLine
 10
14.08499973272379
 20
83.5926506976984
 30
0.0
 11
14.08499973272379
 21
74.1926505534888
 31
0.0
  0
LINE
  5
1A2
330
55
100
AcDbEntity
  8
1
  6
Continuous
 62
     2
100
AcDbLine
 10
9.31499973272378
 20
83.5926506976984
 30
0.0
 11
9.31499973272378
 21
74.1926505534888
 31
0.0
  0
LINE
  5
1A3
330
55
100
AcDbEntity
  8
1
  6
DOT_CENTER
 62
     2
100
AcDbLine
 10
-8.3000002672762
 20
83.99265069769855
 30
0.0
 11
-8.3000002672762
 21
82.29265069769853
 31
0.0
  0
ENDBLK
  5
57
330
55
100
AcDbEntity
  8
0
100
AcDbBlockEnd
  0
BLOCK
  5
5A
330
58
100
AcDbEntity
  8
0
100
AcDbBlockBegin
  2
Rckans1
 70
     0
 10
-1.80000033637209
 20
68.9073491461263
 30
0.0
  3
Rckans1
  1

  0
INSERT
  5
59
330
58
100
AcDbEntity
  8
0
100
AcDbBlockReference
  2
azk35-select__3
 10
-21.80000026727621
 20
50.69265055348882
 30
0.0
  0
MTEXT
  5
1A4
330
58
100
AcDbEntity
  8
1
 62
     6
100
AcDbMText
 10
-1.80000026727621
 20
48.19265055348882
 30
0.0
 40
2.5
 41
0.0
 71
     2
 72
     1
  1
 
  7
CONVERTER_11
 73
     1
 44
1.32052821128451
  0
ENDBLK
  5
5B
330
58
100
AcDbEntity
  8
0
100
AcDbBlockEnd
  0
BLOCK
  5
5D
330
5C
100
AcDbEntity
  8
0
100
AcDbBlockBegin
  2
azk35-select__4
 70
     0
 10
-41.90000033675124
 20
50.69265055348872
 30
0.0
  3
azk35-select__4
  1

  0
LINE
  5
1A5
330
5C
100
AcDbEntity
  8
0
  6
Continuous
 62
     7
100
AcDbLine
 10
-30.30000033675123
 20
66.72204669769839
 30
0.0
 11
-29.90000033675126
 21
66.72204669769839
 31
0.0
  0
LINE
  5
1A6
330
5C
100
AcDbEntity
  8
0
  6
Continuous
 62
     7
100
AcDbLine
 10
-39.65000033675124
 20
66.72204669769839
 30
0.0
 11
-39.65000033675124
 21
61.82204669769841
 31
0.0
  0
LINE
  5
1A7
330
5C
100
AcDbEntity
  8
0
  6
Continuous
 62
     7
100
AcDbLine
 10
-41.50000033675125
 20
66.72204669769839
 30
0.0
 11
-41.90000033675124
 21
66.72204669769839
 31
0.0
  0
LINE
  5
1A8
330
5C
100
AcDbEntity
  8
0
  6
Continuous
 62
     7
100
AcDbLine
 10
-31.80000033675125
 20
52.19265055348872
 30
0.0
 11
-31.80000033675125
 21
66.72204669769839
 31
0.0
  0
LINE
  5
1A9
330
5C
100
AcDbEntity
  8
0
  6
Continuous
 62
     7
100
AcDbLine
 10
-31.80000033675125
 20
69.72204669769839
 30
0.0
 11
-31.80000033675125
 21
74.19265055348872
 31
0.0
  0
LINE
  5
1AA
330
5C
100
AcDbEntity
  8
0
  6
Continuous
 62
     7
100
AcDbLine
 10
-30.30000033675123
 20
74.19265055348872
 30
0.0
 11
-31.80000033675125
 21
74.19265055348872
 31
0.0
  0
LINE
  5
1AB
330
5C
100
AcDbEntity
  8
0
  6
Continuous
 62
     7
100
AcDbLine
 10
-30.30000033675123
 20
66.72204669769839
 30
0.0
 11
-30.30000033675123
 21
69.72204669769839
 31
0.0
  0
LINE
  5
1AC
330
5C
100
AcDbEntity
  8
0
  6
Continuous
 62
     7
100
AcDbLine
 10
-30.30000033675123
 20
69.72204669769839
 30
0.0
 11
-29.90000033675126
 21
69.72204669769839
 31
0.0
  0
LINE
  5
1AD
330
5C
100
AcDbEntity
  8
0
  6
Continuous
 62
     7
100
AcDbLine
 10
-31.80000033675125
 20
66.72204669769839
 30
0.0
 11
-32.15000033675124
 21
66.72204669769839
 31
0.0
  0
LINE
  5
1AE
330
5C
100
AcDbEntity
  8
0
  6
Continuous
 62
     7
100
AcDbLine
 10
-31.80000033675125
 20
69.72204669769839
 30
0.0
 11
-32.15000033675124
 21
69.72204669769839
 31
0.0
  0
LINE
  5
1AF
330
5C
100
AcDbEntity
  8
0
  6
Continuous
 62
     7
100
AcDbLine
 10
-32.15000033675124
 20
66.72204669769839
 30
0.0
 11
-32.15000033675124
 21
61.82204669769841
 31
0.0
  0
LINE
  5
1B0
330
5C
100
AcDbEntity
  8
0
  6
Continuous
 62
     7
100
AcDbLine
 10
-32.15000033675124
 20
73.32204669769841
 30
0.0
 11
-32.15000033675124
 21
66.72204669769839
 31
0.0
  0
LINE
  5
1B1
330
5C
100
AcDbEntity
  8
0
  6
Continuous
 62
     7
100
AcDbLine
 10
-31.80000033675125
 20
66.72204669769839
 30
0.0
 11
-31.80000033675125
 21
69.72204669769839
 31
0.0
  0
LINE
  5
1B2
330
5C
100
AcDbEntity
  8
0
  6
Continuous
 62
     7
100
AcDbLine
 10
-29.90000033675126
 20
66.72204669769839
 30
0.0
 11
-29.90000033675126
 21
69.72204669769839
 31
0.0
  0
LINE
  5
1B3
330
5C
100
AcDbEntity
  8
0
  6
Continuous
 62
     7
100
AcDbLine
 10
-30.30000033675123
 20
69.72204669769839
 30
0.0
 11
-30.30000033675123
 21
74.19265055348872
 31
0.0
  0
LINE
  5
1B4
330
5C
100
AcDbEntity
  8
0
  6
Continuous
 62
     7
100
AcDbLine
 10
-30.30000033675123
 20
50.69265055348872
 30
0.0
 11
-30.30000033675123
 21
66.72204669769839
 31
0.0
  0
LINE
  5
1B5
330
5C
100
AcDbEntity
  8
0
  6
Continuous
 62
     7
100
AcDbLine
 10
-39.65000033675124
 20
73.32204669769841
 30
0.0
 11
-32.15000033675124
 21
73.32204669769841
 31
0.0
  0
LINE
  5
1B6
330
5C
100
AcDbEntity
  8
0
  6
Continuous
 62
     7
100
AcDbLine
 10
-32.90000033675124
 20
82.29265069769845
 30
0.0
 11
-32.15000033675124
 21
82.29265069769845
 31
0.0
  0
LINE
  5
1B7
330
5C
100
AcDbEntity
  8
0
  6
Continuous
 62
     7
100
AcDbLine
 10
-33.52783811464125
 20
85.59265069769829
 30
0.0
 11
-32.67930997721744
 21
85.59265069769829
 31
0.0
  0
LINE
  5
1B8
330
5C
100
AcDbEntity
  8
0
  6
Continuous
 62
     7
100
AcDbLine
 10
-32.85824701304704
 20
82.39265069769844
 30
0.0
 11
-32.90000033675124
 21
82.39265069769844
 31
0.0
  0
LINE
  5
1B9
330
5C
100
AcDbEntity
  8
0
  6
Continuous
 62
     7
100
AcDbLine
 10
-31.43858005014963
 20
78.99265069769844
 30
0.0
 11
-31.43858005014963
 21
82.29265069769845
 31
0.0
  0
LINE
  5
1BA
330
5C
100
AcDbEntity
  8
0
  6
Continuous
 62
     7
100
AcDbLine
 10
-31.90000033675124
 20
87.09265069769829
 30
0.0
 11
-32.67930997721744
 21
87.09265069769829
 31
0.0
  0
LINE
  5
1BB
330
5C
100
AcDbEntity
  8
0
  6
Continuous
 62
     7
100
AcDbLine
 10
-32.15000033675124
 20
83.59265069769835
 30
0.0
 11
-32.15000033675124
 21
82.29265069769845
 31
0.0
  0
LINE
  5
1BC
330
5C
100
AcDbEntity
  8
0
  6
Continuous
 62
     7
100
AcDbLine
 10
-32.15000033675124
 20
82.29265069769845
 30
0.0
 11
-31.43858005014963
 21
82.29265069769845
 31
0.0
  0
LINE
  5
1BD
330
5C
100
AcDbEntity
  8
0
  6
Continuous
 62
     7
100
AcDbLine
 10
-31.43858005014963
 20
78.99265069769844
 30
0.0
 11
-32.90000033675124
 21
78.99265069769844
 31
0.0
  0
LINE
  5
1BE
330
5C
100
AcDbEntity
  8
0
  6
Continuous
 62
     7
100
AcDbLine
 10
-32.85824701304704
 20
83.59265069769835
 30
0.0
 11
-32.85824701304704
 21
82.39265069769844
 31
0.0
  0
LINE
  5
1BF
330
5C
100
AcDbEntity
  8
0
  6
Continuous
 62
     7
100
AcDbLine
 10
-32.67930997721744
 20
85.59265069769829
 30
0.0
 11
-32.67930997721744
 21
87.09265069769829
 31
0.0
  0
LINE
  5
1C0
330
5C
100
AcDbEntity
  8
0
  6
Continuous
 62
     7
100
AcDbLine
 10
-31.90000033675124
 20
83.59265069769835
 30
0.0
 11
-31.90000033675124
 21
87.09265069769829
 31
0.0
  0
LINE
  5
1C1
330
5C
100
AcDbEntity
  8
0
  6
Continuous
 62
     7
100
AcDbLine
 10
-32.90000033675124
 20
78.99265069769844
 30
0.0
 11
-32.90000033675124
 21
83.59265069769835
 31
0.0
  0
LINE
  5
1C2
330
5C
100
AcDbEntity
  8
0
  6
Continuous
 62
     7
100
AcDbLine
 10
-40.00000033675125
 20
52.19265055348872
 30
0.0
 11
-31.80000033675125
 21
52.19265055348872
 31
0.0
  0
LINE
  5
1C3
330
5C
100
AcDbEntity
  8
0
  6
Continuous
 62
     7
100
AcDbLine
 10
-32.15000033675124
 20
61.82204669769841
 30
0.0
 11
-39.65000033675124
 21
61.82204669769841
 31
0.0
  0
LINE
  5
1C4
330
5C
100
AcDbEntity
  8
0
  6
Continuous
 62
     7
100
AcDbLine
 10
-41.50000033675125
 20
50.69265055348872
 30
0.0
 11
-30.30000033675123
 21
50.69265055348872
 31
0.0
  0
LINE
  5
1C5
330
5C
100
AcDbEntity
  8
0
  6
Continuous
 62
     7
100
AcDbLine
 10
-41.50000033675125
 20
69.72204669769839
 30
0.0
 11
-41.50000033675125
 21
66.72204669769839
 31
0.0
  0
LINE
  5
1C6
330
5C
100
AcDbEntity
  8
0
  6
Continuous
 62
     7
100
AcDbLine
 10
-39.65000033675124
 20
66.72204669769839
 30
0.0
 11
-40.00000033675125
 21
66.72204669769839
 31
0.0
  0
LINE
  5
1C7
330
5C
100
AcDbEntity
  8
0
  6
Continuous
 62
     7
100
AcDbLine
 10
-39.65000033675124
 20
69.72204669769839
 30
0.0
 11
-40.00000033675125
 21
69.72204669769839
 31
0.0
  0
LINE
  5
1C8
330
5C
100
AcDbEntity
  8
0
  6
Continuous
 62
     7
100
AcDbLine
 10
-39.65000033675124
 20
73.32204669769841
 30
0.0
 11
-39.65000033675124
 21
66.72204669769839
 31
0.0
  0
LINE
  5
1C9
330
5C
100
AcDbEntity
  8
0
  6
Continuous
 62
     7
100
AcDbLine
 10
-40.00000033675125
 20
69.72204669769839
 30
0.0
 11
-40.00000033675125
 21
66.72204669769839
 31
0.0
  0
LINE
  5
1CA
330
5C
100
AcDbEntity
  8
0
  6
Continuous
 62
     7
100
AcDbLine
 10
-41.90000033675124
 20
66.72204669769839
 30
0.0
 11
-41.90000033675124
 21
69.72204669769839
 31
0.0
  0
LINE
  5
1CB
330
5C
100
AcDbEntity
  8
0
  6
Continuous
 62
     7
100
AcDbLine
 10
-40.00000033675125
 20
66.72204669769839
 30
0.0
 11
-40.00000033675125
 21
52.19265055348872
 31
0.0
  0
LINE
  5
1CC
330
5C
100
AcDbEntity
  8
0
  6
Continuous
 62
     7
100
AcDbLine
 10
-41.50000033675125
 20
66.72204669769839
 30
0.0
 11
-41.50000033675125
 21
50.69265055348872
 31
0.0
  0
LINE
  5
1CD
330
5C
100
AcDbEntity
  8
0
  6
Continuous
 62
     7
100
AcDbLine
 10
-39.16598666046215
 20
82.29265069769845
 30
0.0
 11
-38.90000033675124
 21
82.29265069769845
 31
0.0
  0
LINE
  5
1CE
330
5C
100
AcDbEntity
  8
0
  6
Continuous
 62
     7
100
AcDbLine
 10
-39.65000033675134
 20
83.59265069769835
 30
0.0
 11
-39.65000033675134
 21
82.29265069769845
 31
0.0
  0
LINE
  5
1CF
330
5C
100
AcDbEntity
  8
0
  6
Continuous
 62
     7
100
AcDbLine
 10
-38.90000033675124
 20
78.99265069769844
 30
0.0
 11
-39.16598666046215
 21
78.99265069769844
 31
0.0
  0
LINE
  5
1D0
330
5C
100
AcDbEntity
  8
0
  6
Continuous
 62
     7
100
AcDbLine
 10
-39.65000033675134
 20
82.29265069769845
 30
0.0
 11
-39.16598666046215
 21
82.29265069769845
 31
0.0
  0
LINE
  5
1D1
330
5C
100
AcDbEntity
  8
0
  6
Continuous
 62
     7
100
AcDbLine
 10
-40.36142062335295
 20
82.29265069769845
 30
0.0
 11
-39.65000033675134
 21
82.29265069769845
 31
0.0
  0
LINE
  5
1D2
330
5C
100
AcDbEntity
  8
0
  6
Continuous
 62
     7
100
AcDbLine
 10
-39.16598666046215
 20
78.99265069769844
 30
0.0
 11
-39.16598666046215
 21
82.29265069769845
 31
0.0
  0
LINE
  5
1D3
330
5C
100
AcDbEntity
  8
0
  6
Continuous
 62
     7
100
AcDbLine
 10
-39.16598666046215
 20
78.99265069769844
 30
0.0
 11
-40.36142062335295
 21
78.99265069769844
 31
0.0
  0
LINE
  5
1D4
330
5C
100
AcDbEntity
  8
0
  6
Continuous
 62
     7
100
AcDbLine
 10
-40.36142062335295
 20
78.99265069769844
 30
0.0
 11
-40.36142062335295
 21
82.29265069769845
 31
0.0
  0
LINE
  5
1D5
330
5C
100
AcDbEntity
  8
0
  6
Continuous
 62
     7
100
AcDbLine
 10
-38.90000033675124
 20
78.99265069769844
 30
0.0
 11
-38.90000033675124
 21
83.59265069769829
 31
0.0
  0
LINE
  5
1D6
330
5C
100
AcDbEntity
  8
0
  6
Continuous
 62
     7
100
AcDbLine
 10
-32.90000033675124
 20
78.99265069769844
 30
0.0
 11
-32.90000033675124
 21
73.32204669769841
 31
0.0
  0
LINE
  5
1D7
330
5C
100
AcDbEntity
  8
0
  6
Continuous
 62
     7
100
AcDbLine
 10
-31.90000033675124
 20
83.59265069769835
 30
0.0
 11
-32.90000033675124
 21
83.59265069769835
 31
0.0
  0
LINE
  5
1D8
330
5C
100
AcDbEntity
  8
0
  6
Continuous
 62
     7
100
AcDbLine
 10
-38.90000033675124
 20
83.59265069769829
 30
0.0
 11
-39.90000033675134
 21
83.59265069769835
 31
0.0
  0
LINE
  5
1D9
330
5C
100
AcDbEntity
  8
0
  6
Continuous
 62
     7
100
AcDbLine
 10
-33.52783811464125
 20
87.09265069769829
 30
0.0
 11
-39.90000033675134
 21
87.09265069769829
 31
0.0
  0
LINE
  5
1DA
330
5C
100
AcDbEntity
  8
0
  6
Continuous
 62
     7
100
AcDbLine
 10
-32.67930997721744
 20
87.09265069769829
 30
0.0
 11
-33.52783811464125
 21
87.09265069769829
 31
0.0
  0
LINE
  5
1DB
330
5C
100
AcDbEntity
  8
0
  6
Continuous
 62
     7
100
AcDbLine
 10
-33.52783811464125
 20
85.59265069769829
 30
0.0
 11
-33.52783811464125
 21
87.09265069769829
 31
0.0
  0
LINE
  5
1DC
330
5C
100
AcDbEntity
  8
0
  6
Continuous
 62
     7
100
AcDbLine
 10
-39.90000033675134
 20
83.59265069769835
 30
0.0
 11
-39.90000033675134
 21
87.09265069769829
 31
0.0
  0
LINE
  5
1DD
330
5C
100
AcDbEntity
  8
0
  6
Continuous
 62
     7
100
AcDbLine
 10
-32.90000033675124
 20
83.59265069769835
 30
0.0
 11
-38.90000033675124
 21
83.59265069769829
 31
0.0
  0
LINE
  5
1DE
330
5C
100
AcDbEntity
  8
0
  6
Continuous
 62
     7
100
AcDbLine
 10
-40.00000033675125
 20
74.19265055348872
 30
0.0
 11
-40.00000033675125
 21
69.72204669769839
 31
0.0
  0
LINE
  5
1DF
330
5C
100
AcDbEntity
  8
0
  6
Continuous
 62
     7
100
AcDbLine
 10
-41.50000033675125
 20
74.19265055348872
 30
0.0
 11
-40.00000033675125
 21
74.19265055348872
 31
0.0
  0
LINE
  5
1E0
330
5C
100
AcDbEntity
  8
0
  6
Continuous
 62
     7
100
AcDbLine
 10
-41.50000033675125
 20
69.72204669769839
 30
0.0
 11
-41.90000033675124
 21
69.72204669769839
 31
0.0
  0
LINE
  5
1E1
330
5C
100
AcDbEntity
  8
0
  6
Continuous
 62
     7
100
AcDbLine
 10
-41.50000033675125
 20
74.19265055348872
 30
0.0
 11
-41.50000033675125
 21
69.72204669769839
 31
0.0
  0
LINE
  5
1E2
330
5C
100
AcDbEntity
  8
0
  6
Continuous
 62
     7
100
AcDbLine
 10
-38.90000033675124
 20
78.99265069769844
 30
0.0
 11
-38.90000033675124
 21
73.32204669769841
 31
0.0
  0
LINE
  5
1E3
330
5C
100
AcDbEntity
  8
1
  6
Continuous
 62
     2
100
AcDbLine
 10
-33.51500033675124
 20
73.32204669769841
 30
0.0
 11
-33.51500033675124
 21
78.99265069769844
 31
0.0
  0
LINE
  5
1E4
330
5C
100
AcDbEntity
  8
1
  6
Continuous
 62
     2
100
AcDbLine
 10
-38.28500033675125
 20
73.32204669769841
 30
0.0
 11
-38.28500033675125
 21
78.99265069769844
 31
0.0
  0
LINE
  5
1E5
330
5C
100
AcDbEntity
  8
1
  6
Continuous
 62
     2
100
AcDbLine
 10
-33.51500033675124
 20
83.59265069769829
 30
0.0
 11
-33.51500033675124
 21
73.32204669769841
 31
0.0
  0
LINE
  5
1E6
330
5C
100
AcDbEntity
  8
1
  6
Continuous
 62
     2
100
AcDbLine
 10
-38.28500033675125
 20
83.59265069769829
 30
0.0
 11
-38.28500033675125
 21
73.32204669769841
 31
0.0
  0
ENDBLK
  5
5E
330
5C
100
AcDbEntity
  8
0
100
AcDbBlockEnd
  0
BLOCK
  5
61
330
5F
100
AcDbEntity
  8
0
100
AcDbBlockBegin
  2
SA_Links1
 70
     0
 10
-35.90000033676125
 20
68.90734914612618
 30
0.0
  3
SA_Links1
  1

  0
INSERT
  5
60
330
5F
100
AcDbEntity
  8
0
100
AcDbBlockReference
  2
azk35-select__4
 10
-41.90000033675124
 20
50.69265055348872
 30
0.0
  0
MTEXT
  5
1E7
330
5F
100
AcDbEntity
  8
1
 62
     6
100
AcDbMText
 10
-35.90000033675126
 20
48.19265055348872
 30
0.0
 40
2.5
 41
0.0
 71
     2
 72
     1
  1
 
  7
CONVERTER_11
 73
     1
 44
1.32052821128451
  0
ENDBLK
  5
62
330
5F
100
AcDbEntity
  8
0
100
AcDbBlockEnd
  0
BLOCK
  5
64
330
63
100
AcDbEntity
  8
0
100
AcDbBlockBegin
  2
azk35-select__5
 70
     0
 10
-115.5999996632494
 20
50.69265055348882
 30
0.0
  3
azk35-select__5
  1

  0
LINE
  5
1E8
330
63
100
AcDbEntity
  8
0
  6
Continuous
 62
     7
100
AcDbLine
 10
-113.3499996632494
 20
83.59265069769846
 30
0.0
 11
-113.5999996632494
 21
83.59265069769846
 31
0.0
  0
LINE
  5
1E9
330
63
100
AcDbEntity
  8
0
  6
Continuous
 62
     7
100
AcDbLine
 10
-107.406774476969
 20
83.99265069769855
 30
0.0
 11
-113.3499996632494
 21
83.99265069769855
 31
0.0
  0
LINE
  5
1EA
330
63
100
AcDbEntity
  8
0
  6
Continuous
 62
     7
100
AcDbLine
 10
-113.3499996632494
 20
82.29265069769853
 30
0.0
 11
-112.8659859869602
 21
82.29265069769853
 31
0.0
  0
LINE
  5
1EB
330
63
100
AcDbEntity
  8
0
  6
Continuous
 62
     7
100
AcDbLine
 10
-112.8659859869602
 20
82.29265069769853
 30
0.0
 11
-108.4045657003586
 21
82.29265069769853
 31
0.0
  0
LINE
  5
1EC
330
63
100
AcDbEntity
  8
0
  6
Continuous
 62
     7
100
AcDbLine
 10
-114.061419949851
 20
82.29265069769853
 30
0.0
 11
-113.3499996632494
 21
82.29265069769853
 31
0.0
  0
LINE
  5
1ED
330
63
100
AcDbEntity
  8
0
  6
Continuous
 62
     7
100
AcDbLine
 10
-113.3499996632494
 20
83.99265069769855
 30
0.0
 11
-113.3499996632494
 21
82.29265069769853
 31
0.0
  0
LINE
  5
1EE
330
63
100
AcDbEntity
  8
0
  6
Continuous
 62
     7
100
AcDbLine
 10
-107.2278374411393
 20
87.0926506976984
 30
0.0
 11
-113.5999996632494
 21
87.0926506976984
 31
0.0
  0
LINE
  5
1EF
330
63
100
AcDbEntity
  8
0
  6
Continuous
 62
     7
100
AcDbLine
 10
-113.5999996632494
 20
83.59265069769846
 30
0.0
 11
-113.5999996632494
 21
87.0926506976984
 31
0.0
  0
LINE
  5
1F0
330
63
100
AcDbEntity
  8
0
  6
Continuous
 62
     7
100
AcDbLine
 10
-106.3793093037155
 20
87.0926506976984
 30
0.0
 11
-107.2278374411393
 21
87.0926506976984
 31
0.0
  0
LINE
  5
1F1
330
63
100
AcDbEntity
  8
0
  6
Continuous
 62
     7
100
AcDbLine
 10
-105.5999996632494
 20
87.0926506976984
 30
0.0
 11
-106.3793093037155
 21
87.0926506976984
 31
0.0
  0
LINE
  5
1F2
330
63
100
AcDbEntity
  8
0
  6
Continuous
 62
     7
100
AcDbLine
 10
-105.5999996632494
 20
83.59265069769846
 30
0.0
 11
-105.5999996632494
 21
87.0926506976984
 31
0.0
  0
LINE
  5
1F3
330
63
100
AcDbEntity
  8
0
  6
Continuous
 62
     7
100
AcDbLine
 10
-105.5999996632494
 20
83.59265069769846
 30
0.0
 11
-105.8499996632494
 21
83.59265069769846
 31
0.0
  0
LINE
  5
1F4
330
63
100
AcDbEntity
  8
0
  6
Continuous
 62
     7
100
AcDbLine
 10
-107.406774476969
 20
83.99265069769855
 30
0.0
 11
-106.5582463395452
 21
83.99265069769855
 31
0.0
  0
LINE
  5
1F5
330
63
100
AcDbEntity
  8
0
  6
Continuous
 62
     7
100
AcDbLine
 10
-105.8499996632494
 20
83.99265069769855
 30
0.0
 11
-106.5582463395452
 21
83.99265069769855
 31
0.0
  0
LINE
  5
1F6
330
63
100
AcDbEntity
  8
0
  6
Continuous
 62
     7
100
AcDbLine
 10
-105.8499996632494
 20
83.99265069769855
 30
0.0
 11
-105.8499996632494
 21
82.29265069769853
 31
0.0
  0
LINE
  5
1F7
330
63
100
AcDbEntity
  8
0
  6
Continuous
 62
     7
100
AcDbLine
 10
-106.5582463395452
 20
83.99265069769855
 30
0.0
 11
-106.5582463395452
 21
82.39265069769856
 31
0.0
  0
LINE
  5
1F8
330
63
100
AcDbEntity
  8
0
  6
Continuous
 62
     7
100
AcDbLine
 10
-105.8499996632494
 20
82.29265069769853
 30
0.0
 11
-105.1385793766477
 21
82.29265069769853
 31
0.0
  0
LINE
  5
1F9
330
63
100
AcDbEntity
  8
0
  6
Continuous
 62
     7
100
AcDbLine
 10
-108.4045657003586
 20
82.29265069769853
 30
0.0
 11
-105.8499996632494
 21
82.29265069769853
 31
0.0
  0
LINE
  5
1FA
330
63
100
AcDbEntity
  8
0
  6
Continuous
 62
     7
100
AcDbLine
 10
-107.2278374411393
 20
85.5926506976984
 30
0.0
 11
-107.2278374411393
 21
87.0926506976984
 31
0.0
  0
LINE
  5
1FB
330
63
100
AcDbEntity
  8
0
  6
Continuous
 62
     7
100
AcDbLine
 10
-107.2278374411393
 20
85.5926506976984
 30
0.0
 11
-106.3793093037155
 21
85.5926506976984
 31
0.0
  0
LINE
  5
1FC
330
63
100
AcDbEntity
  8
0
  6
Continuous
 62
     7
100
AcDbLine
 10
-106.3793093037155
 20
85.5926506976984
 30
0.0
 11
-106.3793093037155
 21
87.0926506976984
 31
0.0
  0
LINE
  5
1FD
330
63
100
AcDbEntity
  8
0
  6
Continuous
 62
     7
100
AcDbLine
 10
-106.5582463395452
 20
82.39265069769856
 30
0.0
 11
-107.406774476969
 21
82.39265069769856
 31
0.0
  0
LINE
  5
1FE
330
63
100
AcDbEntity
  8
0
  6
Continuous
 62
     7
100
AcDbLine
 10
-108.4045657003586
 20
78.99265069769855
 30
0.0
 11
-108.4045657003586
 21
82.29265069769853
 31
0.0
  0
LINE
  5
1FF
330
63
100
AcDbEntity
  8
0
  6
Continuous
 62
     7
100
AcDbLine
 10
-107.406774476969
 20
83.99265069769855
 30
0.0
 11
-107.406774476969
 21
82.39265069769856
 31
0.0
  0
LINE
  5
200
330
63
100
AcDbEntity
  8
0
  6
Continuous
 62
     7
100
AcDbLine
 10
-113.0999996632494
 20
70.92204669769846
 30
0.0
 11
-112.5999996632494
 21
70.92204669769846
 31
0.0
  0
LINE
  5
201
330
63
100
AcDbEntity
  8
0
  6
Continuous
 62
     7
100
AcDbLine
 10
-113.3499996632494
 20
73.3220466976985
 30
0.0
 11
-112.5999996632494
 21
73.3220466976985
 31
0.0
  0
LINE
  5
202
330
63
100
AcDbEntity
  8
0
  6
Continuous
 62
     7
100
AcDbLine
 10
-112.8659859869602
 20
78.99265069769855
 30
0.0
 11
-114.061419949851
 21
78.99265069769855
 31
0.0
  0
LINE
  5
203
330
63
100
AcDbEntity
  8
0
  6
Continuous
 62
     7
100
AcDbLine
 10
-115.1999996632493
 20
74.1926505534888
 30
0.0
 11
-113.6999996632493
 21
74.1926505534888
 31
0.0
  0
LINE
  5
204
330
63
100
AcDbEntity
  8
0
  6
Continuous
 62
     7
100
AcDbLine
 10
-112.5999996632494
 20
70.92204669769846
 30
0.0
 11
-112.5999996632494
 21
78.99265069769855
 31
0.0
  0
LINE
  5
205
330
63
100
AcDbEntity
  8
0
  6
Continuous
 62
     7
100
AcDbLine
 10
-112.5999996632494
 20
70.92204669769846
 30
0.0
 11
-106.5999996632494
 21
70.92204669769846
 31
0.0
  0
LINE
  5
206
330
63
100
AcDbEntity
  8
0
  6
Continuous
 62
     7
100
AcDbLine
 10
-115.1999996632493
 20
69.72204669769847
 30
0.0
 11
-115.1999996632493
 21
66.72204669769847
 31
0.0
  0
LINE
  5
207
330
63
100
AcDbEntity
  8
0
  6
Continuous
 62
     7
100
AcDbLine
 10
-115.1999996632493
 20
66.72204669769847
 30
0.0
 11
-115.1999996632493
 21
63.1926505534888
 31
0.0
  0
LINE
  5
208
330
63
100
AcDbEntity
  8
0
  6
Continuous
 62
     7
100
AcDbLine
 10
-114.061419949851
 20
78.99265069769855
 30
0.0
 11
-114.061419949851
 21
82.29265069769853
 31
0.0
  0
LINE
  5
209
330
63
100
AcDbEntity
  8
0
  6
Continuous
 62
     7
100
AcDbLine
 10
-115.1999996632493
 20
74.1926505534888
 30
0.0
 11
-115.1999996632493
 21
69.72204669769847
 31
0.0
  0
LINE
  5
20A
330
63
100
AcDbEntity
  8
0
  6
Continuous
 62
     7
100
AcDbLine
 10
-115.1999996632493
 20
57.79265055348881
 30
0.0
 11
-115.1999996632493
 21
50.69265055348882
 31
0.0
  0
LINE
  5
20B
330
63
100
AcDbEntity
  8
0
  6
Continuous
 62
     7
100
AcDbLine
 10
-112.5999996632494
 20
78.99265069769855
 30
0.0
 11
-112.8659859869602
 21
78.99265069769855
 31
0.0
  0
LINE
  5
20C
330
63
100
AcDbEntity
  8
0
  6
Continuous
 62
     7
100
AcDbLine
 10
-108.4045657003586
 20
78.99265069769855
 30
0.0
 11
-112.5999996632494
 21
78.99265069769855
 31
0.0
  0
LINE
  5
20D
330
63
100
AcDbEntity
  8
0
  6
Continuous
 62
     7
100
AcDbLine
 10
-103.9999996632493
 20
74.1926505534888
 30
0.0
 11
-105.4999996632493
 21
74.1926505534888
 31
0.0
  0
LINE
  5
20E
330
63
100
AcDbEntity
  8
0
  6
Continuous
 62
     7
100
AcDbLine
 10
-105.4999996632493
 20
63.1926505534888
 30
0.0
 11
-103.9999996632493
 21
63.1926505534888
 31
0.0
  0
LINE
  5
20F
330
63
100
AcDbEntity
  8
0
  6
Continuous
 62
     7
100
AcDbLine
 10
-105.4999996632493
 20
66.72204669769847
 30
0.0
 11
-105.4999996632493
 21
69.72204669769847
 31
0.0
  0
LINE
  5
210
330
63
100
AcDbEntity
  8
0
  6
Continuous
 62
     7
100
AcDbLine
 10
-105.4999996632493
 20
69.72204669769847
 30
0.0
 11
-105.4999996632493
 21
74.1926505534888
 31
0.0
  0
LINE
  5
211
330
63
100
AcDbEntity
  8
0
  6
Continuous
 62
     7
100
AcDbLine
 10
-105.4999996632493
 20
57.79265055348881
 30
0.0
 11
-105.4999996632493
 21
52.19265055348882
 31
0.0
  0
LINE
  5
212
330
63
100
AcDbEntity
  8
0
  6
Continuous
 62
     7
100
AcDbLine
 10
-103.9999996632493
 20
57.79265055348881
 30
0.0
 11
-105.4999996632493
 21
57.79265055348881
 31
0.0
  0
LINE
  5
213
330
63
100
AcDbEntity
  8
0
  6
Continuous
 62
     7
100
AcDbLine
 10
-103.9999996632493
 20
57.79265055348881
 30
0.0
 11
-103.9999996632493
 21
63.1926505534888
 31
0.0
  0
LINE
  5
214
330
63
100
AcDbEntity
  8
0
  6
Continuous
 62
     7
100
AcDbLine
 10
-103.9999996632493
 20
63.1926505534888
 30
0.0
 11
-103.9999996632493
 21
66.72204669769847
 31
0.0
  0
LINE
  5
215
330
63
100
AcDbEntity
  8
0
  6
Continuous
 62
     7
100
AcDbLine
 10
-103.5999996632494
 20
66.72204669769847
 30
0.0
 11
-103.5999996632494
 21
69.72204669769847
 31
0.0
  0
LINE
  5
216
330
63
100
AcDbEntity
  8
0
  6
Continuous
 62
     7
100
AcDbLine
 10
-103.9999996632493
 20
66.72204669769847
 30
0.0
 11
-103.9999996632493
 21
69.72204669769847
 31
0.0
  0
LINE
  5
217
330
63
100
AcDbEntity
  8
0
  6
Continuous
 62
     7
100
AcDbLine
 10
-103.9999996632493
 20
66.72204669769847
 30
0.0
 11
-103.5999996632494
 21
66.72204669769847
 31
0.0
  0
LINE
  5
218
330
63
100
AcDbEntity
  8
0
  6
Continuous
 62
     7
100
AcDbLine
 10
-103.9999996632493
 20
69.72204669769847
 30
0.0
 11
-103.5999996632494
 21
69.72204669769847
 31
0.0
  0
LINE
  5
219
330
63
100
AcDbEntity
  8
0
  6
Continuous
 62
     7
100
AcDbLine
 10
-105.1385793766477
 20
78.99265069769855
 30
0.0
 11
-105.1385793766477
 21
82.29265069769853
 31
0.0
  0
LINE
  5
21A
330
63
100
AcDbEntity
  8
0
  6
Continuous
 62
     7
100
AcDbLine
 10
-103.9999996632493
 20
69.72204669769847
 30
0.0
 11
-103.9999996632493
 21
74.1926505534888
 31
0.0
  0
LINE
  5
21B
330
63
100
AcDbEntity
  8
0
  6
Continuous
 62
     7
100
AcDbLine
 10
-103.9999996632493
 20
50.69265055348882
 30
0.0
 11
-103.9999996632493
 21
57.79265055348881
 31
0.0
  0
LINE
  5
21C
330
63
100
AcDbEntity
  8
0
  6
Continuous
 62
     7
100
AcDbLine
 10
-105.4999996632493
 20
63.1926505534888
 30
0.0
 11
-105.4999996632493
 21
57.79265055348881
 31
0.0
  0
LINE
  5
21D
330
63
100
AcDbEntity
  8
0
  6
Continuous
 62
     7
100
AcDbLine
 10
-105.4999996632493
 20
63.1926505534888
 30
0.0
 11
-105.4999996632493
 21
66.72204669769847
 31
0.0
  0
LINE
  5
21E
330
63
100
AcDbEntity
  8
0
  6
Continuous
 62
     7
100
AcDbLine
 10
-106.5999996632494
 20
70.92204669769846
 30
0.0
 11
-106.0999996632494
 21
70.92204669769846
 31
0.0
  0
LINE
  5
21F
330
63
100
AcDbEntity
  8
0
  6
Continuous
 62
     7
100
AcDbLine
 10
-106.0999996632494
 20
69.72204669769847
 30
0.0
 11
-106.0999996632494
 21
70.92204669769846
 31
0.0
  0
LINE
  5
220
330
63
100
AcDbEntity
  8
0
  6
Continuous
 62
     7
100
AcDbLine
 10
-106.5999996632494
 20
73.3220466976985
 30
0.0
 11
-105.8499996632494
 21
73.3220466976985
 31
0.0
  0
LINE
  5
221
330
63
100
AcDbEntity
  8
0
  6
Continuous
 62
     7
100
AcDbLine
 10
-105.8499996632494
 20
69.72204669769847
 30
0.0
 11
-105.8499996632494
 21
73.3220466976985
 31
0.0
  0
LINE
  5
222
330
63
100
AcDbEntity
  8
0
  6
Continuous
 62
     7
100
AcDbLine
 10
-105.4999996632493
 20
66.72204669769847
 30
0.0
 11
-105.8499996632494
 21
66.72204669769847
 31
0.0
  0
LINE
  5
223
330
63
100
AcDbEntity
  8
0
  6
Continuous
 62
     7
100
AcDbLine
 10
-105.1385793766477
 20
78.99265069769855
 30
0.0
 11
-106.5999996632494
 21
78.99265069769855
 31
0.0
  0
LINE
  5
224
330
63
100
AcDbEntity
  8
0
  6
Continuous
 62
     7
100
AcDbLine
 10
-106.5999996632494
 20
78.99265069769855
 30
0.0
 11
-108.4045657003586
 21
78.99265069769855
 31
0.0
  0
LINE
  5
225
330
63
100
AcDbEntity
  8
0
  6
Continuous
 62
     7
100
AcDbLine
 10
-106.5999996632494
 20
70.92204669769846
 30
0.0
 11
-106.5999996632494
 21
78.99265069769855
 31
0.0
  0
LINE
  5
226
330
63
100
AcDbEntity
  8
0
  6
Continuous
 62
     7
100
AcDbLine
 10
-103.9999996632493
 20
50.69265055348882
 30
0.0
 11
-115.1999996632493
 21
50.69265055348882
 31
0.0
  0
LINE
  5
227
330
63
100
AcDbEntity
  8
0
  6
Continuous
 62
     7
100
AcDbLine
 10
-105.8499996632494
 20
66.72204669769847
 30
0.0
 11
-113.3499996632494
 21
66.72204669769847
 31
0.0
  0
LINE
  5
228
330
63
100
AcDbEntity
  8
0
  6
Continuous
 62
     7
100
AcDbLine
 10
-105.8499996632494
 20
61.8220466976985
 30
0.0
 11
-105.8499996632494
 21
64.22204669769842
 31
0.0
  0
LINE
  5
229
330
63
100
AcDbEntity
  8
0
  6
Continuous
 62
     7
100
AcDbLine
 10
-106.5999996632494
 20
65.22204669769842
 30
0.0
 11
-105.8499996632494
 21
64.22204669769842
 31
0.0
  0
LINE
  5
22A
330
63
100
AcDbEntity
  8
0
  6
Continuous
 62
     7
100
AcDbLine
 10
-105.8499996632494
 20
64.22204669769842
 30
0.0
 11
-105.8499996632494
 21
66.72204669769847
 31
0.0
  0
LINE
  5
22B
330
63
100
AcDbEntity
  8
0
  6
Continuous
 62
     7
100
AcDbLine
 10
-112.5999996632494
 20
65.22204669769842
 30
0.0
 11
-106.5999996632494
 21
65.22204669769842
 31
0.0
  0
LINE
  5
22C
330
63
100
AcDbEntity
  8
0
  6
Continuous
 62
     7
100
AcDbLine
 10
-113.3499996632494
 20
61.8220466976985
 30
0.0
 11
-105.8499996632494
 21
61.8220466976985
 31
0.0
  0
LINE
  5
22D
330
63
100
AcDbEntity
  8
0
  6
Continuous
 62
     7
100
AcDbLine
 10
-105.4999996632493
 20
52.19265055348882
 30
0.0
 11
-113.6999996632493
 21
52.19265055348882
 31
0.0
  0
LINE
  5
22E
330
63
100
AcDbEntity
  8
0
  6
Continuous
 62
     7
100
AcDbLine
 10
-105.4999996632493
 20
69.72204669769847
 30
0.0
 11
-106.0999996632494
 21
69.72204669769847
 31
0.0
  0
LINE
  5
22F
330
63
100
AcDbEntity
  8
0
  6
Continuous
 62
     7
100
AcDbLine
 10
-113.0999996632494
 20
69.72204669769847
 30
0.0
 11
-113.6999996632493
 21
69.72204669769847
 31
0.0
  0
LINE
  5
230
330
63
100
AcDbEntity
  8
0
  6
Continuous
 62
     7
100
AcDbLine
 10
-106.0999996632494
 20
69.72204669769847
 30
0.0
 11
-113.0999996632494
 21
69.72204669769847
 31
0.0
  0
LINE
  5
231
330
63
100
AcDbEntity
  8
0
  6
Continuous
 62
     7
100
AcDbLine
 10
-115.1999996632493
 20
57.79265055348881
 30
0.0
 11
-113.6999996632493
 21
57.79265055348881
 31
0.0
  0
LINE
  5
232
330
63
100
AcDbEntity
  8
0
  6
Continuous
 62
     7
100
AcDbLine
 10
-115.1999996632493
 20
69.72204669769847
 30
0.0
 11
-115.5999996632494
 21
69.72204669769847
 31
0.0
  0
LINE
  5
233
330
63
100
AcDbEntity
  8
0
  6
Continuous
 62
     7
100
AcDbLine
 10
-115.1999996632493
 20
63.1926505534888
 30
0.0
 11
-113.6999996632493
 21
63.1926505534888
 31
0.0
  0
LINE
  5
234
330
63
100
AcDbEntity
  8
0
  6
Continuous
 62
     7
100
AcDbLine
 10
-113.6999996632493
 20
57.79265055348881
 30
0.0
 11
-113.6999996632493
 21
63.1926505534888
 31
0.0
  0
LINE
  5
235
330
63
100
AcDbEntity
  8
0
  6
Continuous
 62
     7
100
AcDbLine
 10
-115.1999996632493
 20
63.1926505534888
 30
0.0
 11
-115.1999996632493
 21
57.79265055348881
 31
0.0
  0
LINE
  5
236
330
63
100
AcDbEntity
  8
0
  6
Continuous
 62
     7
100
AcDbLine
 10
-115.1999996632493
 20
66.72204669769847
 30
0.0
 11
-115.5999996632494
 21
66.72204669769847
 31
0.0
  0
LINE
  5
237
330
63
100
AcDbEntity
  8
0
  6
Continuous
 62
     7
100
AcDbLine
 10
-115.5999996632494
 20
66.72204669769847
 30
0.0
 11
-115.5999996632494
 21
69.72204669769847
 31
0.0
  0
LINE
  5
238
330
63
100
AcDbEntity
  8
0
  6
Continuous
 62
     7
100
AcDbLine
 10
-113.3499996632494
 20
64.22204669769842
 30
0.0
 11
-112.5999996632494
 21
65.22204669769842
 31
0.0
  0
LINE
  5
239
330
63
100
AcDbEntity
  8
0
  6
Continuous
 62
     7
100
AcDbLine
 10
-113.0999996632494
 20
69.72204669769847
 30
0.0
 11
-113.0999996632494
 21
70.92204669769846
 31
0.0
  0
LINE
  5
23A
330
63
100
AcDbEntity
  8
0
  6
Continuous
 62
     7
100
AcDbLine
 10
-113.3499996632494
 20
64.22204669769842
 30
0.0
 11
-113.3499996632494
 21
61.8220466976985
 31
0.0
  0
LINE
  5
23B
330
63
100
AcDbEntity
  8
0
  6
Continuous
 62
     7
100
AcDbLine
 10
-113.6999996632493
 20
66.72204669769847
 30
0.0
 11
-113.6999996632493
 21
63.1926505534888
 31
0.0
  0
LINE
  5
23C
330
63
100
AcDbEntity
  8
0
  6
Continuous
 62
     7
100
AcDbLine
 10
-113.3499996632494
 20
66.72204669769847
 30
0.0
 11
-113.3499996632494
 21
64.22204669769842
 31
0.0
  0
LINE
  5
23D
330
63
100
AcDbEntity
  8
0
  6
Continuous
 62
     7
100
AcDbLine
 10
-113.6999996632493
 20
69.72204669769847
 30
0.0
 11
-113.6999996632493
 21
66.72204669769847
 31
0.0
  0
LINE
  5
23E
330
63
100
AcDbEntity
  8
0
  6
Continuous
 62
     7
100
AcDbLine
 10
-113.3499996632494
 20
66.72204669769847
 30
0.0
 11
-113.6999996632493
 21
66.72204669769847
 31
0.0
  0
LINE
  5
23F
330
63
100
AcDbEntity
  8
0
  6
Continuous
 62
     7
100
AcDbLine
 10
-113.6999996632493
 20
74.1926505534888
 30
0.0
 11
-113.6999996632493
 21
69.72204669769847
 31
0.0
  0
LINE
  5
240
330
63
100
AcDbEntity
  8
0
  6
Continuous
 62
     7
100
AcDbLine
 10
-113.6999996632493
 20
57.79265055348881
 30
0.0
 11
-113.6999996632493
 21
52.19265055348882
 31
0.0
  0
LINE
  5
241
330
63
100
AcDbEntity
  8
0
  6
Continuous
 62
     7
100
AcDbLine
 10
-112.8659859869602
 20
78.99265069769855
 30
0.0
 11
-112.8659859869602
 21
82.29265069769853
 31
0.0
  0
LINE
  5
242
330
63
100
AcDbEntity
  8
0
  6
Continuous
 62
     7
100
AcDbLine
 10
-113.3499996632494
 20
69.72204669769847
 30
0.0
 11
-113.3499996632494
 21
73.3220466976985
 31
0.0
  0
LINE
  5
243
330
63
100
AcDbEntity
  8
1
  6
Continuous
 62
     2
100
AcDbLine
 10
-111.9849996632493
 20
70.92204669769846
 30
0.0
 11
-111.9849996632493
 21
78.99265069769855
 31
0.0
  0
LINE
  5
244
330
63
100
AcDbEntity
  8
1
  6
Continuous
 62
     2
100
AcDbLine
 10
-107.2149996632493
 20
70.92204669769846
 30
0.0
 11
-107.2149996632493
 21
78.99265069769855
 31
0.0
  0
LINE
  5
245
330
63
100
AcDbEntity
  8
1
  6
Continuous
 62
     2
100
AcDbLine
 10
-111.9849996632493
 20
78.99265069769855
 30
0.0
 11
-111.9849996632493
 21
70.92204669769846
 31
0.0
  0
LINE
  5
246
330
63
100
AcDbEntity
  8
1
  6
Continuous
 62
     2
100
AcDbLine
 10
-107.2149996632493
 20
78.99265069769855
 30
0.0
 11
-107.2149996632493
 21
70.92204669769846
 31
0.0
  0
ENDBLK
  5
65
330
63
100
AcDbEntity
  8
0
100
AcDbBlockEnd
  0
BLOCK
  5
68
330
66
100
AcDbEntity
  8
0
100
AcDbBlockBegin
  2
SA_Rechts1
 70
     0
 10
-109.5999996632393
 20
68.9073491461263
 30
0.0
  3
SA_Rechts1
  1

  0
INSERT
  5
67
330
66
100
AcDbEntity
  8
0
100
AcDbBlockReference
  2
azk35-select__5
 10
-115.5999996632494
 20
50.69265055348882
 30
0.0
  0
MTEXT
  5
247
330
66
100
AcDbEntity
  8
1
 62
     6
100
AcDbMText
 10
-109.5999996632494
 20
48.19265055348882
 30
0.0
 40
2.5
 41
0.0
 71
     2
 72
     1
  1
 
  7
CONVERTER_11
 73
     1
 44
1.32052821128451
  0
ENDBLK
  5
69
330
66
100
AcDbEntity
  8
0
100
AcDbBlockEnd
  0
BLOCK
  5
6B
330
6A
100
AcDbEntity
  8
0
100
AcDbBlockBegin
  2
azk35-select__6
 70
     0
 10
-90.50000040627086
 20
50.69265055348872
 30
0.0
  3
azk35-select__6
  1

  0
LINE
  5
248
330
6A
100
AcDbEntity
  8
0
  6
Continuous
 62
     7
100
AcDbLine
 10
-66.19322559255119
 20
83.99265069769844
 30
0.0
 11
-66.19322559255119
 21
82.39265069769844
 31
0.0
  0
LINE
  5
249
330
6A
100
AcDbEntity
  8
0
  6
Continuous
 62
     7
100
AcDbLine
 10
-60.25000040627084
 20
83.99265069769844
 30
0.0
 11
-66.19322559255119
 21
83.99265069769844
 31
0.0
  0
LINE
  5
24A
330
6A
100
AcDbEntity
  8
0
  6
Continuous
 62
     7
100
AcDbLine
 10
-80.00000040627083
 20
83.59265069769835
 30
0.0
 11
-80.00000040627083
 21
87.09265069769829
 31
0.0
  0
LINE
  5
24B
330
6A
100
AcDbEntity
  8
0
  6
Continuous
 62
     7
100
AcDbLine
 10
-67.50000040627084
 20
57.79265055348871
 30
0.0
 11
-50.50000040627084
 21
57.79265055348871
 31
0.0
  0
LINE
  5
24C
330
6A
100
AcDbEntity
  8
0
  6
Continuous
 62
     7
100
AcDbLine
 10
-67.50000040627084
 20
63.19265055348872
 30
0.0
 11
-67.50000040627084
 21
57.79265055348871
 31
0.0
  0
LINE
  5
24D
330
6A
100
AcDbEntity
  8
0
  6
Continuous
 62
     7
100
AcDbLine
 10
-67.00000040627086
 20
78.99265069769844
 30
0.0
 11
-68.4614206928725
 21
78.99265069769844
 31
0.0
  0
LINE
  5
24E
330
6A
100
AcDbEntity
  8
0
  6
Continuous
 62
     7
100
AcDbLine
 10
-61.26754487423719
 20
69.72204669769839
 30
0.0
 11
-66.73245593830454
 21
69.72204669769839
 31
0.0
  0
LINE
  5
24F
330
6A
100
AcDbEntity
  8
0
  6
Continuous
 62
     7
100
AcDbLine
 10
-50.50000040627084
 20
63.19265055348872
 30
0.0
 11
-67.50000040627084
 21
63.19265055348872
 31
0.0
  0
LINE
  5
250
330
6A
100
AcDbEntity
  8
0
  6
Continuous
 62
     7
100
AcDbLine
 10
-59.53858011966921
 20
78.99265069769844
 30
0.0
 11
-60.73401408255995
 21
78.99265069769844
 31
0.0
  0
LINE
  5
251
330
6A
100
AcDbEntity
  8
0
  6
Continuous
 62
     7
100
AcDbLine
 10
-61.00000040627086
 20
78.99265069769844
 30
0.0
 11
-65.19543436916159
 21
78.99265069769844
 31
0.0
  0
LINE
  5
252
330
6A
100
AcDbEntity
  8
0
  6
Continuous
 62
     7
100
AcDbLine
 10
-90.50000040627086
 20
74.19265055348872
 30
0.0
 11
-50.50000040627084
 21
74.19265055348872
 31
0.0
  0
LINE
  5
253
330
6A
100
AcDbEntity
  8
0
  6
Continuous
 62
     7
100
AcDbLine
 10
-50.50000040627084
 20
50.69265055348872
 30
0.0
 11
-90.50000040627086
 21
50.69265055348872
 31
0.0
  0
LINE
  5
254
330
6A
100
AcDbEntity
  8
0
  6
Continuous
 62
     7
100
AcDbLine
 10
-90.50000040627086
 20
50.69265055348872
 30
0.0
 11
-90.50000040627086
 21
74.19265055348872
 31
0.0
  0
LINE
  5
255
330
6A
100
AcDbEntity
  8
0
  6
Continuous
 62
     7
100
AcDbLine
 10
-81.26754487423719
 20
66.72204669769839
 30
0.0
 11
-86.73245593830453
 21
66.72204669769839
 31
0.0
  0
LINE
  5
256
330
6A
100
AcDbEntity
  8
0
  6
Continuous
 62
     7
100
AcDbLine
 10
-86.73245593830453
 20
66.72204669769839
 30
0.0
 11
-86.73245593830453
 21
69.72204669769839
 31
0.0
  0
LINE
  5
257
330
6A
100
AcDbEntity
  8
0
  6
Continuous
 62
     7
100
AcDbLine
 10
-81.26754487423719
 20
69.72204669769839
 30
0.0
 11
-86.73245593830453
 21
69.72204669769839
 31
0.0
  0
LINE
  5
258
330
6A
100
AcDbEntity
  8
0
  6
Continuous
 62
     7
100
AcDbLine
 10
-81.26754487423719
 20
66.72204669769839
 30
0.0
 11
-81.26754487423719
 21
69.72204669769839
 31
0.0
  0
LINE
  5
259
330
6A
100
AcDbEntity
  8
0
  6
Continuous
 62
     7
100
AcDbLine
 10
-68.4614206928725
 20
78.99265069769844
 30
0.0
 11
-68.4614206928725
 21
82.29265069769845
 31
0.0
  0
LINE
  5
25A
330
6A
100
AcDbEntity
  8
0
  6
Continuous
 62
     7
100
AcDbLine
 10
-71.26754487423719
 20
66.72204669769839
 30
0.0
 11
-71.26754487423719
 21
69.72204669769839
 31
0.0
  0
LINE
  5
25B
330
6A
100
AcDbEntity
  8
0
  6
Continuous
 62
     7
100
AcDbLine
 10
-71.26754487423719
 20
69.72204669769839
 30
0.0
 11
-76.73245593830455
 21
69.72204669769839
 31
0.0
  0
LINE
  5
25C
330
6A
100
AcDbEntity
  8
0
  6
Continuous
 62
     7
100
AcDbLine
 10
-76.73245593830455
 20
66.72204669769839
 30
0.0
 11
-76.73245593830455
 21
69.72204669769839
 31
0.0
  0
LINE
  5
25D
330
6A
100
AcDbEntity
  8
0
  6
Continuous
 62
     7
100
AcDbLine
 10
-87.22069076580468
 20
85.59265069769829
 30
0.0
 11
-86.37216262838083
 21
85.59265069769829
 31
0.0
  0
LINE
  5
25E
330
6A
100
AcDbEntity
  8
0
  6
Continuous
 62
     7
100
AcDbLine
 10
-66.19322559255119
 20
82.39265069769844
 30
0.0
 11
-67.04175372997506
 21
82.39265069769844
 31
0.0
  0
LINE
  5
25F
330
6A
100
AcDbEntity
  8
0
  6
Continuous
 62
     7
100
AcDbLine
 10
-67.04175372997506
 20
83.99265069769844
 30
0.0
 11
-67.04175372997506
 21
82.39265069769844
 31
0.0
  0
LINE
  5
260
330
6A
100
AcDbEntity
  8
0
  6
Continuous
 62
     7
100
AcDbLine
 10
-67.04175372997506
 20
83.99265069769844
 30
0.0
 11
-67.75000040627086
 21
83.99265069769844
 31
0.0
  0
LINE
  5
261
330
6A
100
AcDbEntity
  8
0
  6
Continuous
 62
     7
100
AcDbLine
 10
-67.75000040627086
 20
83.99265069769844
 30
0.0
 11
-67.75000040627086
 21
82.29265069769845
 31
0.0
  0
LINE
  5
262
330
6A
100
AcDbEntity
  8
0
  6
Continuous
 62
     7
100
AcDbLine
 10
-67.04175372997506
 20
83.99265069769844
 30
0.0
 11
-66.19322559255119
 21
83.99265069769844
 31
0.0
  0
LINE
  5
263
330
6A
100
AcDbEntity
  8
0
  6
Continuous
 62
     7
100
AcDbLine
 10
-80.00000040627083
 20
83.59265069769835
 30
0.0
 11
-81.00000040627083
 21
83.59265069769829
 31
0.0
  0
LINE
  5
264
330
6A
100
AcDbEntity
  8
0
  6
Continuous
 62
     7
100
AcDbLine
 10
-50.50000040627084
 20
57.79265055348871
 30
0.0
 11
-50.50000040627084
 21
50.69265055348872
 31
0.0
  0
LINE
  5
265
330
6A
100
AcDbEntity
  8
0
  6
Continuous
 62
     7
100
AcDbLine
 10
-59.53858011966921
 20
78.99265069769844
 30
0.0
 11
-59.53858011966921
 21
82.29265069769845
 31
0.0
  0
LINE
  5
266
330
6A
100
AcDbEntity
  8
0
  6
Continuous
 62
     7
100
AcDbLine
 10
-50.50000040627084
 20
74.19265055348872
 30
0.0
 11
-50.50000040627084
 21
63.19265055348872
 31
0.0
  0
LINE
  5
267
330
6A
100
AcDbEntity
  8
0
  6
Continuous
 62
     7
100
AcDbLine
 10
-61.26754487423719
 20
66.72204669769839
 30
0.0
 11
-61.26754487423719
 21
69.72204669769839
 31
0.0
  0
LINE
  5
268
330
6A
100
AcDbEntity
  8
0
  6
Continuous
 62
     7
100
AcDbLine
 10
-60.73401408255995
 20
78.99265069769844
 30
0.0
 11
-61.00000040627086
 21
78.99265069769844
 31
0.0
  0
LINE
  5
269
330
6A
100
AcDbEntity
  8
0
  6
Continuous
 62
     7
100
AcDbLine
 10
-60.73401408255995
 20
78.99265069769844
 30
0.0
 11
-60.73401408255995
 21
82.29265069769845
 31
0.0
  0
LINE
  5
26A
330
6A
100
AcDbEntity
  8
0
  6
Continuous
 62
     7
100
AcDbLine
 10
-60.25000040627084
 20
83.99265069769844
 30
0.0
 11
-60.25000040627084
 21
82.29265069769845
 31
0.0
  0
LINE
  5
26B
330
6A
100
AcDbEntity
  8
0
  6
Continuous
 62
     7
100
AcDbLine
 10
-61.00000040627086
 20
78.99265069769844
 30
0.0
 11
-61.00000040627086
 21
74.19265055348872
 31
0.0
  0
LINE
  5
26C
330
6A
100
AcDbEntity
  8
0
  6
Continuous
 62
     7
100
AcDbLine
 10
-60.73401408255995
 20
82.29265069769845
 30
0.0
 11
-60.25000040627084
 21
82.29265069769845
 31
0.0
  0
LINE
  5
26D
330
6A
100
AcDbEntity
  8
0
  6
Continuous
 62
     7
100
AcDbLine
 10
-60.25000040627084
 20
82.29265069769845
 30
0.0
 11
-59.53858011966921
 21
82.29265069769845
 31
0.0
  0
LINE
  5
26E
330
6A
100
AcDbEntity
  8
0
  6
Continuous
 62
     7
100
AcDbLine
 10
-65.19543436916159
 20
82.29265069769845
 30
0.0
 11
-60.73401408255995
 21
82.29265069769845
 31
0.0
  0
LINE
  5
26F
330
6A
100
AcDbEntity
  8
0
  6
Continuous
 62
     7
100
AcDbLine
 10
-87.00000040627083
 20
83.59265069769829
 30
0.0
 11
-88.00000040627083
 21
83.59265069769835
 31
0.0
  0
LINE
  5
270
330
6A
100
AcDbEntity
  8
0
  6
Continuous
 62
     7
100
AcDbLine
 10
-65.19543436916159
 20
78.99265069769844
 30
0.0
 11
-65.19543436916159
 21
82.29265069769845
 31
0.0
  0
LINE
  5
271
330
6A
100
AcDbEntity
  8
0
  6
Continuous
 62
     7
100
AcDbLine
 10
-66.73245593830454
 20
66.72204669769839
 30
0.0
 11
-66.73245593830454
 21
69.72204669769839
 31
0.0
  0
LINE
  5
272
330
6A
100
AcDbEntity
  8
0
  6
Continuous
 62
     7
100
AcDbLine
 10
-61.26754487423719
 20
66.72204669769839
 30
0.0
 11
-66.73245593830454
 21
66.72204669769839
 31
0.0
  0
LINE
  5
273
330
6A
100
AcDbEntity
  8
0
  6
Continuous
 62
     7
100
AcDbLine
 10
-65.19543436916159
 20
78.99265069769844
 30
0.0
 11
-67.00000040627086
 21
78.99265069769844
 31
0.0
  0
LINE
  5
274
330
6A
100
AcDbEntity
  8
0
  6
Continuous
 62
     7
100
AcDbLine
 10
-67.00000040627086
 20
78.99265069769844
 30
0.0
 11
-67.00000040627084
 21
74.19265055348872
 31
0.0
  0
LINE
  5
275
330
6A
100
AcDbEntity
  8
0
  6
Continuous
 62
     7
100
AcDbLine
 10
-68.4614206928725
 20
82.29265069769845
 30
0.0
 11
-67.75000040627086
 21
82.29265069769845
 31
0.0
  0
LINE
  5
276
330
6A
100
AcDbEntity
  8
0
  6
Continuous
 62
     7
100
AcDbLine
 10
-67.75000040627086
 20
82.29265069769845
 30
0.0
 11
-65.19543436916159
 21
82.29265069769845
 31
0.0
  0
LINE
  5
277
330
6A
100
AcDbEntity
  8
0
  6
Continuous
 62
     7
100
AcDbLine
 10
-71.26754487423719
 20
66.72204669769839
 30
0.0
 11
-76.73245593830455
 21
66.72204669769839
 31
0.0
  0
LINE
  5
278
330
6A
100
AcDbEntity
  8
0
  6
Continuous
 62
     7
100
AcDbLine
 10
-88.00000040627083
 20
83.59265069769835
 30
0.0
 11
-88.00000040627083
 21
87.09265069769829
 31
0.0
  0
LINE
  5
279
330
6A
100
AcDbEntity
  8
0
  6
Continuous
 62
     7
100
AcDbLine
 10
-87.22069076580468
 20
87.09265069769829
 30
0.0
 11
-88.00000040627083
 21
87.09265069769829
 31
0.0
  0
LINE
  5
27A
330
6A
100
AcDbEntity
  8
0
  6
Continuous
 62
     7
100
AcDbLine
 10
-86.37216262838083
 20
87.09265069769829
 30
0.0
 11
-87.22069076580468
 21
87.09265069769829
 31
0.0
  0
LINE
  5
27B
330
6A
100
AcDbEntity
  8
0
  6
Continuous
 62
     7
100
AcDbLine
 10
-87.22069076580468
 20
85.59265069769829
 30
0.0
 11
-87.22069076580468
 21
87.09265069769829
 31
0.0
  0
LINE
  5
27C
330
6A
100
AcDbEntity
  8
0
  6
Continuous
 62
     7
100
AcDbLine
 10
-86.37216262838083
 20
85.59265069769829
 30
0.0
 11
-86.37216262838083
 21
87.09265069769829
 31
0.0
  0
LINE
  5
27D
330
6A
100
AcDbEntity
  8
0
  6
Continuous
 62
     7
100
AcDbLine
 10
-81.00000040627083
 20
83.59265069769829
 30
0.0
 11
-81.17157328152464
 21
83.59265069769835
 31
0.0
  0
LINE
  5
27E
330
6A
100
AcDbEntity
  8
0
  6
Continuous
 62
     7
100
AcDbLine
 10
-81.00000040627083
 20
74.19265055348872
 30
0.0
 11
-81.00000040627083
 21
83.59265069769829
 31
0.0
  0
LINE
  5
27F
330
6A
100
AcDbEntity
  8
0
  6
Continuous
 62
     7
100
AcDbLine
 10
-87.00000040627083
 20
74.19265055348872
 30
0.0
 11
-87.00000040627083
 21
83.59265069769829
 31
0.0
  0
LINE
  5
280
330
6A
100
AcDbEntity
  8
0
  6
Continuous
 62
     7
100
AcDbLine
 10
-80.00000040627083
 20
87.09265069769829
 30
0.0
 11
-86.37216262838083
 21
87.09265069769829
 31
0.0
  0
LINE
  5
281
330
6A
100
AcDbEntity
  8
0
  6
Continuous
 62
     7
100
AcDbLine
 10
-81.17157328152464
 20
83.59265069769835
 30
0.0
 11
-87.00000040627083
 21
83.59265069769829
 31
0.0
  0
LINE
  5
282
330
6A
100
AcDbEntity
  8
1
  6
Continuous
 62
     2
100
AcDbLine
 10
-61.61500040627085
 20
74.19265055348872
 30
0.0
 11
-61.61500040627085
 21
78.99265069769844
 31
0.0
  0
LINE
  5
283
330
6A
100
AcDbEntity
  8
1
  6
Continuous
 62
     2
100
AcDbLine
 10
-66.38500040627085
 20
74.19265055348872
 30
0.0
 11
-66.38500040627086
 21
78.99265069769844
 31
0.0
  0
LINE
  5
284
330
6A
100
AcDbEntity
  8
1
  6
Continuous
 62
     2
100
AcDbLine
 10
-81.61500040627084
 20
83.59265069769829
 30
0.0
 11
-81.61500040627084
 21
74.19265055348872
 31
0.0
  0
LINE
  5
285
330
6A
100
AcDbEntity
  8
1
  6
Continuous
 62
     2
100
AcDbLine
 10
-86.38500040627082
 20
83.59265069769829
 30
0.0
 11
-86.38500040627082
 21
74.19265055348872
 31
0.0
  0
LINE
  5
286
330
6A
100
AcDbEntity
  8
1
  6
DOT_CENTER
 62
     2
100
AcDbLine
 10
-64.00000040627086
 20
83.99265069769844
 30
0.0
 11
-64.00000040627086
 21
82.29265069769845
 31
0.0
  0
ENDBLK
  5
6C
330
6A
100
AcDbEntity
  8
0
100
AcDbBlockEnd
  0
BLOCK
  5
6F
330
6D
100
AcDbEntity
  8
0
100
AcDbBlockBegin
  2
Vordans1
 70
     0
 10
-70.50000033717497
 20
68.90734914612618
 30
0.0
  3
Vordans1
  1

  0
INSERT
  5
6E
330
6D
100
AcDbEntity
  8
0
100
AcDbBlockReference
  2
azk35-select__6
 10
-90.50000040627086
 20
50.69265055348872
 30
0.0
  0
MTEXT
  5
287
330
6D
100
AcDbEntity
  8
1
 62
     6
100
AcDbMText
 10
-81.46250040627086
 20
36.07933849186591
 30
0.0
 40
2.5
 41
0.0
 71
     2
 72
     1
  1
 
  7
CONVERTER_11
 73
     1
 44
1.32052821128451
  0
DIMENSION
  5
292
330
6D
100
AcDbEntity
  8
1
100
AcDbDimension
  2
*D18
 10
-90.50000040627083
 20
45.07933849186591
 30
0.0
 11
-70.63920820859994
 21
46.95433849186591
 31
0.0
 70
    33
  1
<>
 71
     5
 42
-1.0
 53
0.00013888888889
  3
ME10_DIM_11
100
AcDbAlignedDimension
 13
-50.50000040627084
 23
50.69265055348872
 33
0.0
 14
-90.50000040627086
 24
50.69265055348872
 34
0.0
  0
DIMENSION
  5
29D
330
6D
100
AcDbEntity
  8
1
100
AcDbDimension
  2
*D19
 10
-95.50000040627086
 20
50.69265055348871
 30
0.0
 11
-97.46250040627086
 21
62.64096790088495
 31
0.0
 70
    32
  1
<>
 71
     5
 42
-1.0
 53
90.0
  3
ME10_DIM_12
100
AcDbAlignedDimension
 13
-90.50000040627086
 23
74.19265055348872
 33
0.0
 14
-90.50000040627086
 24
50.69265055348872
 34
0.0
 50
90.0
100
AcDbRotatedDimension
  0
DIMENSION
  5
2A8
330
6D
100
AcDbEntity
  8
1
100
AcDbDimension
  2
*D20
 10
-99.5000004062709
 20
50.6926505534887
 30
0.0
 11
-101.4625004062709
 21
68.5618596604488
 31
0.0
 70
    32
  1
<>
 71
     5
 42
-1.0
 53
90.0
  3
ME10_DIM_13
100
AcDbAlignedDimension
 13
-88.00000040627083
 23
87.09265069769829
 33
0.0
 14
-90.50000040627086
 24
50.69265055348872
 34
0.0
 50
90.0
100
AcDbRotatedDimension
  0
ENDBLK
  5
70
330
6D
100
AcDbEntity
  8
0
100
AcDbBlockEnd
  0
BLOCK
  5
72
330
71
100
AcDbEntity
  8
0
100
AcDbBlockBegin
  2
_rahmen
 70
     0
 10
42.49999918745836
 20
-3.61469889302261
 30
0.0
  3
_rahmen
  1

  0
LINE
  5
2A9
330
71
100
AcDbEntity
  8
1
  6
DOT_CENTER
 62
     2
100
AcDbLine
 10
-83.05815045272905
 20
22.51030110697743
 30
0.0
 11
-77.55815045272905
 21
22.51030110697743
 31
0.0
  0
LINE
  5
2AA
330
71
100
AcDbEntity
  8
1
  6
PHANTOM
 62
     2
100
AcDbLine
 10
-74.30815045272905
 20
25.26030110697743
 30
0.0
 11
-74.30815045272905
 21
19.76030110697743
 31
0.0
  0
LINE
  5
2AB
330
71
100
AcDbEntity
  8
1
  6
PHANTOM
 62
     2
100
AcDbLine
 10
-71.55815045272905
 20
22.51030110697743
 30
0.0
 11
-77.05815045272905
 21
22.51030110697743
 31
0.0
  0
LINE
  5
2AC
330
71
100
AcDbEntity
  8
1
  6
Continuous
 62
     7
100
AcDbLine
 10
-22.74480533929164
 20
9.88530110697742
 30
0.0
 11
-22.74480533929164
 21
18.38530110697751
 31
0.0
  0
LINE
  5
2AD
330
71
100
AcDbEntity
  8
1
  6
Continuous
 62
     6
100
AcDbLine
 10
-50.64480533929174
 20
18.38530110697751
 30
0.0
 11
42.49999918746005
 21
18.38530110697751
 31
0.0
  0
LINE
  5
2AE
330
71
100
AcDbEntity
  8
1
  6
Continuous
 62
     7
100
AcDbLine
 10
-87.04480533929166
 20
18.38530110697751
 30
0.0
 11
-87.04480533929166
 21
26.88530110697751
 31
0.0
  0
LINE
  5
2AF
330
71
100
AcDbEntity
  8
1
  6
Continuous
 62
     7
100
AcDbLine
 10
-50.64480533929174
 20
18.38530110697751
 30
0.0
 11
-50.64480533929174
 21
26.88530110697751
 31
0.0
  0
LINE
  5
2B0
330
71
100
AcDbEntity
  8
1
  6
Continuous
 62
     7
100
AcDbLine
 10
7.08159090578124
 20
26.88530110697751
 30
0.0
 11
7.08159090578124
 21
18.38530110697751
 31
0.0
  0
LINE
  5
2B1
330
71
100
AcDbEntity
  8
1
  6
Continuous
 62
     7
100
AcDbLine
 10
33.58159090578084
 20
26.88530110697751
 30
0.0
 11
33.58159090578084
 21
18.38530110697751
 31
0.0
  0
LINE
  5
2B2
330
71
100
AcDbEntity
  8
1
  6
Continuous
 62
     6
100
AcDbLine
 10
-156.0448053392916
 20
1.38530110697751
 30
0.0
 11
-201.0000008125416
 21
1.38530110697751
 31
0.0
  0
LINE
  5
2B3
330
71
100
AcDbEntity
  8
1
  6
Continuous
 62
     7
100
AcDbLine
 10
42.49999918745965
 20
9.88530110697751
 30
0.0
 11
-50.64480533929174
 21
9.88530110697751
 31
0.0
  0
LINE
  5
2B4
102
{ACAD_REACTORS
330
3C6
330
3C7
102
}
330
71
100
AcDbEntity
  8
0
  6
Continuous
 62
     2
100
AcDbLine
 10
-73.33737639752425
 20
10.68559022264081
 30
0.0
 11
-73.33737639752425
 21
11.5581072294441
 31
0.0
  0
LINE
  5
2B5
102
{ACAD_REACTORS
330
3C6
330
3C7
102
}
330
71
100
AcDbEntity
  8
0
  6
Continuous
 62
     2
100
AcDbLine
 10
-73.33737639752425
 20
9.7258215151579
 30
0.0
 11
-73.33737639752425
 21
8.8533045083547
 31
0.0
  0
LINE
  5
2B6
102
{ACAD_REACTORS
330
3C8
330
3C9
102
}
330
71
100
AcDbEntity
  8
0
  6
Continuous
 62
     2
100
AcDbLine
 10
-58.00433226123374
 20
10.94734532468131
 30
0.0
 11
-56.90069296166564
 21
10.94734532468131
 31
0.0
  0
LINE
  5
2B7
102
{ACAD_REACTORS
330
3C8
330
3C9
102
}
330
71
100
AcDbEntity
  8
0
  6
Continuous
 62
     2
100
AcDbLine
 10
-57.23467491827233
 20
9.72582151515742
 30
0.0
 11
-57.23467491827233
 21
8.8533045083541
 31
0.0
  0
LINE
  5
2B8
102
{ACAD_REACTORS
330
3D2
330
3D3
102
}
330
71
100
AcDbEntity
  8
0
  6
Continuous
 62
     2
100
AcDbLine
 10
-59.09543153365226
 20
12.03799158316811
 30
0.0
 11
-57.69747848671196
 21
13.61885057694311
 31
0.0
  0
LINE
  5
2B9
102
{ACAD_REACTORS
330
3D2
330
3D3
102
}
330
71
100
AcDbEntity
  8
0
  6
Continuous
 62
     2
100
AcDbLine
 10
-59.00000811747944
 20
15.09180110697931
 30
0.0
 11
-57.69747848671196
 21
13.61885057694311
 31
0.0
  0
LINE
  5
2BA
102
{ACAD_REACTORS
330
3D2
330
3D3
102
}
330
71
100
AcDbEntity
  8
0
  6
Continuous
 62
     2
100
AcDbLine
 10
-56.39494885594556
 20
15.09180110697931
 30
0.0
 11
-54.99222463819834
 21
15.09180110697931
 31
0.0
  0
LINE
  5
2BB
102
{ACAD_REACTORS
330
3D2
330
3D3
102
}
330
71
100
AcDbEntity
  8
0
  6
Continuous
 62
     2
100
AcDbLine
 10
-57.69270731590404
 20
12.03799158316811
 30
0.0
 11
-56.99611637783835
 21
12.82572336846183
 31
0.0
  0
LINE
  5
2BC
102
{ACAD_REACTORS
330
3D2
330
3D3
102
}
330
71
100
AcDbEntity
  8
0
  6
Continuous
 62
     2
100
AcDbLine
 10
-57.69270731590404
 20
12.03799158316811
 30
0.0
 11
-59.09543153365226
 21
12.03799158316811
 31
0.0
  0
LINE
  5
2BD
102
{ACAD_REACTORS
330
3D4
330
3D5
102
}
330
71
100
AcDbEntity
  8
0
  6
Continuous
 62
     2
100
AcDbLine
 10
-59.21471080386914
 20
12.03799158316811
 30
0.0
 11
-60.45521521412203
 21
12.03799158316811
 31
0.0
  0
LINE
  5
2BE
102
{ACAD_REACTORS
330
3D6
330
3D7
102
}
330
71
100
AcDbEntity
  8
0
  6
Continuous
 62
     2
100
AcDbLine
 10
-61.32319482227715
 20
9.9003249165183
 30
0.0
 11
-61.62336005946725
 21
10.668139882505
 31
0.0
  0
LINE
  5
2BF
102
{ACAD_REACTORS
330
3D6
330
3D7
102
}
330
71
100
AcDbEntity
  8
0
  6
Continuous
 62
     2
100
AcDbLine
 10
-61.92352529665965
 20
9.9003249165183
 30
0.0
 11
-61.32319482227715
 21
9.9003249165183
 31
0.0
  0
LINE
  5
2C0
102
{ACAD_REACTORS
330
3D6
330
3D7
102
}
330
71
100
AcDbEntity
  8
0
  6
Continuous
 62
     2
100
AcDbLine
 10
-63.64156531153344
 20
8.67880110699382
 30
0.0
 11
-62.40106090128046
 21
8.67880110699382
 31
0.0
  0
LINE
  5
2C1
102
{ACAD_REACTORS
330
3D6
330
3D7
102
}
330
71
100
AcDbEntity
  8
0
  6
Continuous
 62
     2
100
AcDbLine
 10
-62.24361226459413
 20
11.7326106308049
 30
0.0
 11
-61.00310785434144
 21
11.7326106308049
 31
0.0
  0
LINE
  5
2C2
102
{ACAD_REACTORS
330
3D6
330
3D7
102
}
330
71
100
AcDbEntity
  8
0
  6
Continuous
 62
     2
100
AcDbLine
 10
-61.00310785434144
 20
11.7326106308049
 30
0.0
 11
-59.60515480740114
 21
8.67880110699382
 31
0.0
  0
LINE
  5
2C3
102
{ACAD_REACTORS
330
3D6
330
3D7
102
}
330
71
100
AcDbEntity
  8
0
  6
Continuous
 62
     2
100
AcDbLine
 10
-60.84565921765505
 20
8.67880110699382
 30
0.0
 11
-61.05713927113084
 21
9.2197616512117
 31
0.0
  0
LINE
  5
2C4
102
{ACAD_REACTORS
330
3D8
330
3D9
102
}
330
71
100
AcDbEntity
  8
0
  6
Continuous
 62
     2
100
AcDbLine
 10
-64.98797841324105
 20
8.67880110699382
 30
0.0
 11
-63.79518571107454
 21
8.67880110699382
 31
0.0
  0
LINE
  5
2C5
102
{ACAD_REACTORS
330
3D8
330
3D9
102
}
330
71
100
AcDbEntity
  8
0
  6
Continuous
 62
     2
100
AcDbLine
 10
-64.98797841324105
 20
10.94734532468131
 30
0.0
 11
-64.98797841324105
 21
8.67880110699382
 31
0.0
  0
LINE
  5
2C6
102
{ACAD_REACTORS
330
3D8
330
3D9
102
}
330
71
100
AcDbEntity
  8
0
  6
Continuous
 62
     2
100
AcDbLine
 10
-65.79907745071566
 20
11.7326106308049
 30
0.0
 11
-65.79907745071566
 21
10.94734532468131
 31
0.0
  0
LINE
  5
2C7
102
{ACAD_REACTORS
330
3DA
330
3DB
102
}
330
71
100
AcDbEntity
  8
0
  6
Continuous
 62
     2
100
AcDbLine
 10
-64.31986356914305
 20
12.03799158316811
 30
0.0
 11
-63.12707086697654
 21
12.03799158316811
 31
0.0
  0
LINE
  5
2C8
102
{ACAD_REACTORS
330
3DA
330
3DB
102
}
330
71
100
AcDbEntity
  8
0
  6
Continuous
 62
     2
100
AcDbLine
 10
-61.88656645672253
 20
13.78302559677413
 30
0.0
 11
-63.12707086697654
 21
15.09180110697931
 31
0.0
  0
LINE
  5
2C9
102
{ACAD_REACTORS
330
3DA
330
3DB
102
}
330
71
100
AcDbEntity
  8
0
  6
Continuous
 62
     2
100
AcDbLine
 10
-60.69377375455593
 20
15.09180110697931
 30
0.0
 11
-61.88656645672253
 21
15.09180110697931
 31
0.0
  0
LINE
  5
2CA
102
{ACAD_REACTORS
330
3DA
330
3DB
102
}
330
71
100
AcDbEntity
  8
0
  6
Continuous
 62
     2
100
AcDbLine
 10
-60.69377375455593
 20
12.03799158316811
 30
0.0
 11
-60.69377375455593
 21
15.09180110697931
 31
0.0
  0
LINE
  5
2CB
102
{ACAD_REACTORS
330
3DA
330
3DB
102
}
330
71
100
AcDbEntity
  8
0
  6
Continuous
 62
     2
100
AcDbLine
 10
-61.88656645672253
 20
12.03799158316811
 30
0.0
 11
-60.69377375455593
 21
12.03799158316811
 31
0.0
  0
LINE
  5
2CC
102
{ACAD_REACTORS
330
3DA
330
3DB
102
}
330
71
100
AcDbEntity
  8
0
  6
Continuous
 62
     2
100
AcDbLine
 10
-63.12707086697654
 20
13.34676709337281
 30
0.0
 11
-61.88656645672253
 21
12.03799158316811
 31
0.0
  0
LINE
  5
2CD
102
{ACAD_REACTORS
330
3DC
330
3DD
102
}
330
71
100
AcDbEntity
  8
0
  6
Continuous
 62
     2
100
AcDbLine
 10
-67.13500527714226
 20
10.4238351205998
 30
0.0
 11
-68.37550968739515
 21
11.7326106308049
 31
0.0
  0
LINE
  5
2CE
102
{ACAD_REACTORS
330
3DC
330
3DD
102
}
330
71
100
AcDbEntity
  8
0
  6
Continuous
 62
     2
100
AcDbLine
 10
-67.13500527714226
 20
11.7326106308049
 30
0.0
 11
-67.13500527714226
 21
10.4238351205998
 31
0.0
  0
LINE
  5
2CF
102
{ACAD_REACTORS
330
3DC
330
3DD
102
}
330
71
100
AcDbEntity
  8
0
  6
Continuous
 62
     2
100
AcDbLine
 10
-65.94221257497585
 20
11.7326106308049
 30
0.0
 11
-67.13500527714226
 21
11.7326106308049
 31
0.0
  0
LINE
  5
2D0
102
{ACAD_REACTORS
330
3DC
330
3DD
102
}
330
71
100
AcDbEntity
  8
0
  6
Continuous
 62
     2
100
AcDbLine
 10
-65.94221257497585
 20
8.67880110699382
 30
0.0
 11
-65.94221257497585
 21
11.7326106308049
 31
0.0
  0
LINE
  5
2D1
102
{ACAD_REACTORS
330
3DC
330
3DD
102
}
330
71
100
AcDbEntity
  8
0
  6
Continuous
 62
     2
100
AcDbLine
 10
-68.37550968739515
 20
9.9875766171984
 30
0.0
 11
-67.13500527714226
 21
8.67880110699382
 31
0.0
  0
LINE
  5
2D2
102
{ACAD_REACTORS
330
3DC
330
3DD
102
}
330
71
100
AcDbEntity
  8
0
  6
Continuous
 62
     2
100
AcDbLine
 10
-68.37550968739515
 20
8.67880110699382
 30
0.0
 11
-68.37550968739515
 21
9.9875766171984
 31
0.0
  0
LINE
  5
2D3
102
{ACAD_REACTORS
330
3CC
330
3CD
102
}
330
71
100
AcDbEntity
  8
0
  6
Continuous
 62
     2
100
AcDbLine
 10
-65.89434993600364
 20
14.39378750153633
 30
0.0
 11
-64.55842210957596
 21
14.39378750153633
 31
0.0
  0
LINE
  5
2D4
102
{ACAD_REACTORS
330
3CC
330
3CD
102
}
330
71
100
AcDbEntity
  8
0
  6
Continuous
 62
     2
100
AcDbLine
 10
-65.89434993600364
 20
12.73600518861061
 30
0.0
 11
-65.89434993600364
 21
13.21588954235232
 31
0.0
  0
LINE
  5
2D5
102
{ACAD_REACTORS
330
3CC
330
3CD
102
}
330
71
100
AcDbEntity
  8
0
  6
Continuous
 62
     2
100
AcDbLine
 10
-64.55842210957596
 20
12.73600518861061
 30
0.0
 11
-65.89434993600364
 21
12.73600518861061
 31
0.0
  0
LINE
  5
2D6
102
{ACAD_REACTORS
330
3CC
330
3CD
102
}
330
71
100
AcDbEntity
  8
0
  6
Continuous
 62
     2
100
AcDbLine
 10
-64.55842210957596
 20
12.03799158316811
 30
0.0
 11
-64.55842210957596
 21
12.73600518861061
 31
0.0
  0
LINE
  5
2D7
102
{ACAD_REACTORS
330
3CC
330
3CD
102
}
330
71
100
AcDbEntity
  8
0
  6
Continuous
 62
     2
100
AcDbLine
 10
-67.70874183335695
 20
12.03799158316811
 30
0.0
 11
-64.55842210957596
 21
12.03799158316811
 31
0.0
  0
LINE
  5
2D8
102
{ACAD_REACTORS
330
3CC
330
3CD
102
}
330
71
100
AcDbEntity
  8
0
  6
Continuous
 62
     2
100
AcDbLine
 10
-67.70874183335695
 20
15.09180110697931
 30
0.0
 11
-64.55842210957596
 21
15.09180110697931
 31
0.0
  0
LINE
  5
2D9
102
{ACAD_REACTORS
330
3CC
330
3CD
102
}
330
71
100
AcDbEntity
  8
0
  6
Continuous
 62
     2
100
AcDbLine
 10
-64.55842210957596
 20
14.39378750153633
 30
0.0
 11
-64.55842210957596
 21
15.09180110697931
 31
0.0
  0
LINE
  5
2DA
102
{ACAD_REACTORS
330
3DE
330
3DF
102
}
330
71
100
AcDbEntity
  8
0
  6
Continuous
 62
     2
100
AcDbLine
 10
-70.57009732849696
 20
14.02296777364471
 30
0.0
 11
-70.57009732849696
 21
15.09180110697931
 31
0.0
  0
LINE
  5
2DB
102
{ACAD_REACTORS
330
3DE
330
3DF
102
}
330
71
100
AcDbEntity
  8
0
  6
Continuous
 62
     2
100
AcDbLine
 10
-70.57009732849696
 20
15.09180110697931
 30
0.0
 11
-69.37730462633056
 21
15.09180110697931
 31
0.0
  0
LINE
  5
2DC
102
{ACAD_REACTORS
330
3DE
330
3DF
102
}
330
71
100
AcDbEntity
  8
0
  6
Continuous
 62
     2
100
AcDbLine
 10
-70.57009732849696
 20
13.17226369201193
 30
0.0
 11
-71.61975490640444
 21
13.17226369201193
 31
0.0
  0
LINE
  5
2DD
102
{ACAD_REACTORS
330
3DE
330
3DF
102
}
330
71
100
AcDbEntity
  8
0
  6
Continuous
 62
     2
100
AcDbLine
 10
-71.61975490640444
 20
13.17226369201193
 30
0.0
 11
-71.61975490640444
 21
12.03799158316811
 31
0.0
  0
LINE
  5
2DE
102
{ACAD_REACTORS
330
3DE
330
3DF
102
}
330
71
100
AcDbEntity
  8
0
  6
Continuous
 62
     2
100
AcDbLine
 10
-72.81254760857104
 20
15.09180110697931
 30
0.0
 11
-72.81254760857104
 21
12.03799158316811
 31
0.0
  0
LINE
  5
2DF
102
{ACAD_REACTORS
330
3D0
330
3D1
102
}
330
71
100
AcDbEntity
  8
0
  6
Continuous
 62
     2
100
AcDbLine
 10
-74.76872764012464
 20
13.722967612197
 30
0.0
 11
-74.76872764012464
 21
14.42869526153921
 31
0.0
  0
LINE
  5
2E0
102
{ACAD_REACTORS
330
3D0
330
3D1
102
}
330
71
100
AcDbEntity
  8
0
  6
Continuous
 62
     2
100
AcDbLine
 10
-76.00923205037876
 20
12.03799158316811
 30
0.0
 11
-74.76872764012464
 21
12.03799158316811
 31
0.0
  0
LINE
  5
2E1
102
{ACAD_REACTORS
330
3D0
330
3D1
102
}
330
71
100
AcDbEntity
  8
0
  6
Continuous
 62
     2
100
AcDbLine
 10
-74.76872764012464
 20
12.03799158316811
 30
0.0
 11
-74.76872764012464
 21
12.98106982431192
 31
0.0
  0
LINE
  5
2E2
102
{ACAD_REACTORS
330
3CA
330
3CB
102
}
330
71
100
AcDbEntity
  8
0
  6
Continuous
 62
     2
100
AcDbLine
 10
-80.31417789959013
 20
9.39135666255071
 30
0.0
 11
-81.79001116059976
 21
9.39135666255071
 31
0.0
  0
LINE
  5
2E3
102
{ACAD_REACTORS
330
3CA
330
3CB
102
}
330
71
100
AcDbEntity
  8
0
  6
Continuous
 62
     2
100
AcDbLine
 10
-82.80815045272905
 20
14.66755649157732
 30
0.0
 11
-82.80815045272905
 21
9.1030457223771
 31
0.0
  0
LINE
  5
2E4
102
{ACAD_REACTORS
330
3CA
330
3CB
102
}
330
71
100
AcDbEntity
  8
0
  6
Continuous
 62
     2
100
AcDbLine
 10
-82.38390583734625
 20
15.09180110696112
 30
0.0
 11
-76.91059374662944
 21
15.09180110696112
 31
0.0
  0
LINE
  5
2E5
102
{ACAD_REACTORS
330
3CA
330
3CB
102
}
330
71
100
AcDbEntity
  8
0
  6
Continuous
 62
     2
100
AcDbLine
 10
-76.48634913124556
 20
14.66755649157732
 30
0.0
 11
-76.48634913124556
 21
9.1030457223771
 31
0.0
  0
LINE
  5
2E6
102
{ACAD_REACTORS
330
3CA
330
3CB
102
}
330
71
100
AcDbEntity
  8
0
  6
Continuous
 62
     2
100
AcDbLine
 10
-76.91059374662944
 20
8.67880110699382
 30
0.0
 11
-82.38390583734625
 21
8.67880110699382
 31
0.0
  0
LINE
  5
2E7
102
{ACAD_REACTORS
330
3CA
330
3CB
102
}
330
71
100
AcDbEntity
  8
0
  6
Continuous
 62
     2
100
AcDbLine
 10
-79.99846097651354
 20
9.70707358562741
 30
0.0
 11
-79.99846097651354
 21
11.23784451715902
 31
0.0
  0
LINE
  5
2E8
102
{ACAD_REACTORS
330
3CA
330
3CB
102
}
330
71
100
AcDbEntity
  8
0
  6
Continuous
 62
     2
100
AcDbLine
 10
-79.99846097651354
 20
13.45950400928401
 30
0.0
 11
-79.99846097651354
 21
14.06352862834452
 31
0.0
  0
LINE
  5
2E9
102
{ACAD_REACTORS
330
3CA
330
3CB
102
}
330
71
100
AcDbEntity
  8
0
  6
Continuous
 62
     2
100
AcDbLine
 10
-81.79001116059976
 20
14.37924555142071
 30
0.0
 11
-80.31417789959013
 21
14.37924555142071
 31
0.0
  0
LINE
  5
2EA
102
{ACAD_REACTORS
330
3CA
330
3CB
102
}
330
71
100
AcDbEntity
  8
0
  6
Continuous
 62
     2
100
AcDbLine
 10
-82.10572808367544
 20
14.06352862834452
 30
0.0
 11
-82.10572808367544
 21
9.70707358562741
 31
0.0
  0
LINE
  5
2EB
102
{ACAD_REACTORS
330
3D0
330
3D1
102
}
330
71
100
AcDbEntity
  8
0
  6
Continuous
 62
     2
100
AcDbLine
 10
-74.76872764012464
 20
12.98106982431192
 30
0.0
 11
-74.00996005234435
 21
12.98106982431192
 31
0.0
  0
LINE
  5
2EC
102
{ACAD_REACTORS
330
3D0
330
3D1
102
}
330
71
100
AcDbEntity
  8
0
  6
Continuous
 62
     2
100
AcDbLine
 10
-76.00923205037876
 20
15.09180110697931
 30
0.0
 11
-74.00996005234435
 21
15.09180110697931
 31
0.0
  0
LINE
  5
2ED
102
{ACAD_REACTORS
330
3D0
330
3D1
102
}
330
71
100
AcDbEntity
  8
0
  6
Continuous
 62
     2
100
AcDbLine
 10
-76.00923205037876
 20
15.09180110697931
 30
0.0
 11
-76.00923205037876
 21
12.03799158316811
 31
0.0
  0
LINE
  5
2EE
102
{ACAD_REACTORS
330
3D0
330
3D1
102
}
330
71
100
AcDbEntity
  8
0
  6
Continuous
 62
     2
100
AcDbLine
 10
-74.76872764012464
 20
13.722967612197
 30
0.0
 11
-74.45143257858274
 21
13.722967612197
 31
0.0
  0
LINE
  5
2EF
102
{ACAD_REACTORS
330
3D0
330
3D1
102
}
330
71
100
AcDbEntity
  8
0
  6
Continuous
 62
     2
100
AcDbLine
 10
-74.76872764012464
 20
14.42869526153921
 30
0.0
 11
-74.45143257858274
 21
14.42869526153921
 31
0.0
  0
LINE
  5
2F0
102
{ACAD_REACTORS
330
3DE
330
3DF
102
}
330
71
100
AcDbEntity
  8
0
  6
Continuous
 62
     2
100
AcDbLine
 10
-71.61975490640444
 20
14.02296777364471
 30
0.0
 11
-70.57009732849696
 21
14.02296777364471
 31
0.0
  0
LINE
  5
2F1
102
{ACAD_REACTORS
330
3DE
330
3DF
102
}
330
71
100
AcDbEntity
  8
0
  6
Continuous
 62
     2
100
AcDbLine
 10
-71.61975490640444
 20
15.09180110697931
 30
0.0
 11
-71.61975490640444
 21
14.02296777364471
 31
0.0
  0
LINE
  5
2F2
102
{ACAD_REACTORS
330
3DE
330
3DF
102
}
330
71
100
AcDbEntity
  8
0
  6
Continuous
 62
     2
100
AcDbLine
 10
-72.81254760857104
 20
15.09180110697931
 30
0.0
 11
-71.61975490640444
 21
15.09180110697931
 31
0.0
  0
LINE
  5
2F3
102
{ACAD_REACTORS
330
3DE
330
3DF
102
}
330
71
100
AcDbEntity
  8
0
  6
Continuous
 62
     2
100
AcDbLine
 10
-71.61975490640444
 20
12.03799158316811
 30
0.0
 11
-72.81254760857104
 21
12.03799158316811
 31
0.0
  0
LINE
  5
2F4
102
{ACAD_REACTORS
330
3DE
330
3DF
102
}
330
71
100
AcDbEntity
  8
0
  6
Continuous
 62
     2
100
AcDbLine
 10
-70.57009732849696
 20
12.03799158316811
 30
0.0
 11
-70.57009732849696
 21
13.17226369201193
 31
0.0
  0
LINE
  5
2F5
102
{ACAD_REACTORS
330
3DE
330
3DF
102
}
330
71
100
AcDbEntity
  8
0
  6
Continuous
 62
     2
100
AcDbLine
 10
-69.37730462633056
 20
12.03799158316811
 30
0.0
 11
-70.57009732849696
 21
12.03799158316811
 31
0.0
  0
LINE
  5
2F6
102
{ACAD_REACTORS
330
3DE
330
3DF
102
}
330
71
100
AcDbEntity
  8
0
  6
Continuous
 62
     2
100
AcDbLine
 10
-69.37730462633056
 20
15.09180110697931
 30
0.0
 11
-69.37730462633056
 21
12.03799158316811
 31
0.0
  0
LINE
  5
2F7
102
{ACAD_REACTORS
330
3CC
330
3CD
102
}
330
71
100
AcDbEntity
  8
0
  6
Continuous
 62
     2
100
AcDbLine
 10
-65.89434993600364
 20
13.21588954235232
 30
0.0
 11
-64.55842210957596
 21
13.21588954235232
 31
0.0
  0
LINE
  5
2F8
102
{ACAD_REACTORS
330
3CC
330
3CD
102
}
330
71
100
AcDbEntity
  8
0
  6
Continuous
 62
     2
100
AcDbLine
 10
-64.55842210957596
 20
13.21588954235232
 30
0.0
 11
-64.55842210957596
 21
13.91390314779462
 31
0.0
  0
LINE
  5
2F9
102
{ACAD_REACTORS
330
3CC
330
3CD
102
}
330
71
100
AcDbEntity
  8
0
  6
Continuous
 62
     2
100
AcDbLine
 10
-64.55842210957596
 20
13.91390314779462
 30
0.0
 11
-65.89434993600364
 21
13.91390314779462
 31
0.0
  0
LINE
  5
2FA
102
{ACAD_REACTORS
330
3CC
330
3CD
102
}
330
71
100
AcDbEntity
  8
0
  6
Continuous
 62
     2
100
AcDbLine
 10
-65.89434993600364
 20
13.91390314779462
 30
0.0
 11
-65.89434993600364
 21
14.39378750153633
 31
0.0
  0
LINE
  5
2FB
102
{ACAD_REACTORS
330
3DC
330
3DD
102
}
330
71
100
AcDbEntity
  8
0
  6
Continuous
 62
     2
100
AcDbLine
 10
-69.56830238956275
 20
8.67880110699382
 30
0.0
 11
-68.37550968739515
 21
8.67880110699382
 31
0.0
  0
LINE
  5
2FC
102
{ACAD_REACTORS
330
3DC
330
3DD
102
}
330
71
100
AcDbEntity
  8
0
  6
Continuous
 62
     2
100
AcDbLine
 10
-67.13500527714226
 20
8.67880110699382
 30
0.0
 11
-65.94221257497585
 21
8.67880110699382
 31
0.0
  0
LINE
  5
2FD
102
{ACAD_REACTORS
330
3DC
330
3DD
102
}
330
71
100
AcDbEntity
  8
0
  6
Continuous
 62
     2
100
AcDbLine
 10
-68.37550968739515
 20
11.7326106308049
 30
0.0
 11
-69.56830238956275
 21
11.7326106308049
 31
0.0
  0
LINE
  5
2FE
102
{ACAD_REACTORS
330
3DC
330
3DD
102
}
330
71
100
AcDbEntity
  8
0
  6
Continuous
 62
     2
100
AcDbLine
 10
-69.56830238956275
 20
11.7326106308049
 30
0.0
 11
-69.56830238956275
 21
8.67880110699382
 31
0.0
  0
LINE
  5
2FF
102
{ACAD_REACTORS
330
3DA
330
3DB
102
}
330
71
100
AcDbEntity
  8
0
  6
Continuous
 62
     2
100
AcDbLine
 10
-61.88656645672253
 20
15.09180110697931
 30
0.0
 11
-61.88656645672253
 21
13.78302559677413
 31
0.0
  0
LINE
  5
300
102
{ACAD_REACTORS
330
3DA
330
3DB
102
}
330
71
100
AcDbEntity
  8
0
  6
Continuous
 62
     2
100
AcDbLine
 10
-63.12707086697654
 20
15.09180110697931
 30
0.0
 11
-64.31986356914305
 21
15.09180110697931
 31
0.0
  0
LINE
  5
301
102
{ACAD_REACTORS
330
3DA
330
3DB
102
}
330
71
100
AcDbEntity
  8
0
  6
Continuous
 62
     2
100
AcDbLine
 10
-64.31986356914305
 20
15.09180110697931
 30
0.0
 11
-64.31986356914305
 21
12.03799158316811
 31
0.0
  0
LINE
  5
302
102
{ACAD_REACTORS
330
3DA
330
3DB
102
}
330
71
100
AcDbEntity
  8
0
  6
Continuous
 62
     2
100
AcDbLine
 10
-63.12707086697654
 20
12.03799158316811
 30
0.0
 11
-63.12707086697654
 21
13.34676709337281
 31
0.0
  0
LINE
  5
303
102
{ACAD_REACTORS
330
3D8
330
3D9
102
}
330
71
100
AcDbEntity
  8
0
  6
Continuous
 62
     2
100
AcDbLine
 10
-63.79518571107454
 20
8.67880110699382
 30
0.0
 11
-63.79518571107454
 21
10.94734532468131
 31
0.0
  0
LINE
  5
304
102
{ACAD_REACTORS
330
3D8
330
3D9
102
}
330
71
100
AcDbEntity
  8
0
  6
Continuous
 62
     2
100
AcDbLine
 10
-63.79518571107454
 20
10.94734532468131
 30
0.0
 11
-62.98408667360204
 21
10.94734532468131
 31
0.0
  0
LINE
  5
305
102
{ACAD_REACTORS
330
3D8
330
3D9
102
}
330
71
100
AcDbEntity
  8
0
  6
Continuous
 62
     2
100
AcDbLine
 10
-62.98408667360204
 20
10.94734532468131
 30
0.0
 11
-62.98408667360204
 21
11.7326106308049
 31
0.0
  0
LINE
  5
306
102
{ACAD_REACTORS
330
3D8
330
3D9
102
}
330
71
100
AcDbEntity
  8
0
  6
Continuous
 62
     2
100
AcDbLine
 10
-62.98408667360204
 20
11.7326106308049
 30
0.0
 11
-65.79907745071566
 21
11.7326106308049
 31
0.0
  0
LINE
  5
307
102
{ACAD_REACTORS
330
3D8
330
3D9
102
}
330
71
100
AcDbEntity
  8
0
  6
Continuous
 62
     2
100
AcDbLine
 10
-65.79907745071566
 20
10.94734532468131
 30
0.0
 11
-64.98797841324105
 21
10.94734532468131
 31
0.0
  0
LINE
  5
308
102
{ACAD_REACTORS
330
3D6
330
3D7
102
}
330
71
100
AcDbEntity
  8
0
  6
Continuous
 62
     2
100
AcDbLine
 10
-62.18958084780465
 20
9.2197616512117
 30
0.0
 11
-61.05713927113084
 21
9.2197616512117
 31
0.0
  0
LINE
  5
309
102
{ACAD_REACTORS
330
3D6
330
3D7
102
}
330
71
100
AcDbEntity
  8
0
  6
Continuous
 62
     2
100
AcDbLine
 10
-59.60515480740114
 20
8.67880110699382
 30
0.0
 11
-60.84565921765505
 21
8.67880110699382
 31
0.0
  0
LINE
  5
30A
102
{ACAD_REACTORS
330
3D6
330
3D7
102
}
330
71
100
AcDbEntity
  8
0
  6
Continuous
 62
     2
100
AcDbLine
 10
-62.24361226459413
 20
11.7326106308049
 30
0.0
 11
-63.64156531153344
 21
8.67880110699382
 31
0.0
  0
LINE
  5
30B
102
{ACAD_REACTORS
330
3D6
330
3D7
102
}
330
71
100
AcDbEntity
  8
0
  6
Continuous
 62
     2
100
AcDbLine
 10
-62.40106090128046
 20
8.67880110699382
 30
0.0
 11
-62.18958084780465
 21
9.2197616512117
 31
0.0
  0
LINE
  5
30C
102
{ACAD_REACTORS
330
3D6
330
3D7
102
}
330
71
100
AcDbEntity
  8
0
  6
Continuous
 62
     2
100
AcDbLine
 10
-61.92352529665965
 20
9.9003249165183
 30
0.0
 11
-61.62336005946725
 21
10.668139882505
 31
0.0
  0
LINE
  5
30D
102
{ACAD_REACTORS
330
3D4
330
3D5
102
}
330
71
100
AcDbEntity
  8
0
  6
Continuous
 62
     2
100
AcDbLine
 10
-60.45521521412203
 20
12.03799158316811
 30
0.0
 11
-60.45521521412203
 21
15.09180110697931
 31
0.0
  0
LINE
  5
30E
102
{ACAD_REACTORS
330
3D4
330
3D5
102
}
330
71
100
AcDbEntity
  8
0
  6
Continuous
 62
     2
100
AcDbLine
 10
-59.21471080386914
 20
15.09180110697931
 30
0.0
 11
-59.21471080386914
 21
12.03799158316811
 31
0.0
  0
LINE
  5
30F
102
{ACAD_REACTORS
330
3D4
330
3D5
102
}
330
71
100
AcDbEntity
  8
0
  6
Continuous
 62
     2
100
AcDbLine
 10
-60.45521521412203
 20
15.09180110697931
 30
0.0
 11
-59.21471080386914
 21
15.09180110697931
 31
0.0
  0
LINE
  5
310
102
{ACAD_REACTORS
330
3D2
330
3D3
102
}
330
71
100
AcDbEntity
  8
0
  6
Continuous
 62
     2
100
AcDbLine
 10
-56.99611637783835
 20
12.82572336846183
 30
0.0
 11
-56.29952543977285
 21
12.03799158316811
 31
0.0
  0
LINE
  5
311
102
{ACAD_REACTORS
330
3D2
330
3D3
102
}
330
71
100
AcDbEntity
  8
0
  6
Continuous
 62
     2
100
AcDbLine
 10
-56.29952543977285
 20
12.03799158316811
 30
0.0
 11
-54.89680122202455
 21
12.03799158316811
 31
0.0
  0
LINE
  5
312
102
{ACAD_REACTORS
330
3D2
330
3D3
102
}
330
71
100
AcDbEntity
  8
0
  6
Continuous
 62
     2
100
AcDbLine
 10
-56.29475426896485
 20
13.61885057694311
 30
0.0
 11
-54.89680122202455
 21
12.03799158316811
 31
0.0
  0
LINE
  5
313
102
{ACAD_REACTORS
330
3D2
330
3D3
102
}
330
71
100
AcDbEntity
  8
0
  6
Continuous
 62
     2
100
AcDbLine
 10
-56.29475426896485
 20
13.61885057694311
 30
0.0
 11
-54.99222463819834
 21
15.09180110697931
 31
0.0
  0
LINE
  5
314
102
{ACAD_REACTORS
330
3D2
330
3D3
102
}
330
71
100
AcDbEntity
  8
0
  6
Continuous
 62
     2
100
AcDbLine
 10
-56.99611637783835
 20
14.41197778542382
 30
0.0
 11
-56.39494885594556
 21
15.09180110697931
 31
0.0
  0
LINE
  5
315
102
{ACAD_REACTORS
330
3D2
330
3D3
102
}
330
71
100
AcDbEntity
  8
0
  6
Continuous
 62
     2
100
AcDbLine
 10
-57.59728389973014
 20
15.09180110697931
 30
0.0
 11
-56.99611637783835
 21
14.41197778542382
 31
0.0
  0
LINE
  5
316
102
{ACAD_REACTORS
330
3D2
330
3D3
102
}
330
71
100
AcDbEntity
  8
0
  6
Continuous
 62
     2
100
AcDbLine
 10
-57.59728389973014
 20
15.09180110697931
 30
0.0
 11
-59.00000811747944
 21
15.09180110697931
 31
0.0
  0
LINE
  5
317
102
{ACAD_REACTORS
330
3C8
330
3C9
102
}
330
71
100
AcDbEntity
  8
0
  6
Continuous
 62
     2
100
AcDbLine
 10
-56.90069296166564
 20
8.67880110699382
 30
0.0
 11
-55.70790025949793
 21
8.67880110699382
 31
0.0
  0
LINE
  5
318
102
{ACAD_REACTORS
330
3C8
330
3C9
102
}
330
71
100
AcDbEntity
  8
0
  6
Continuous
 62
     2
100
AcDbLine
 10
-55.70790025949793
 20
8.67880110699382
 30
0.0
 11
-55.70790025949793
 21
10.94734532468131
 31
0.0
  0
LINE
  5
319
102
{ACAD_REACTORS
330
3C8
330
3C9
102
}
330
71
100
AcDbEntity
  8
0
  6
Continuous
 62
     2
100
AcDbLine
 10
-55.70790025949793
 20
10.94734532468131
 30
0.0
 11
-54.89680122202455
 21
10.94734532468131
 31
0.0
  0
LINE
  5
31A
102
{ACAD_REACTORS
330
3C8
330
3C9
102
}
330
71
100
AcDbEntity
  8
0
  6
Continuous
 62
     2
100
AcDbLine
 10
-54.89680122202455
 20
10.94734532468131
 30
0.0
 11
-54.89680122202455
 21
11.7326106308049
 31
0.0
  0
LINE
  5
31B
102
{ACAD_REACTORS
330
3C8
330
3C9
102
}
330
71
100
AcDbEntity
  8
0
  6
Continuous
 62
     2
100
AcDbLine
 10
-58.28174674065323
 20
11.73261063080442
 30
0.0
 11
-54.89680122202455
 21
11.7326106308049
 31
0.0
  0
LINE
  5
31C
102
{ACAD_REACTORS
330
3C8
330
3C9
102
}
330
71
100
AcDbEntity
  8
0
  6
Continuous
 62
     2
100
AcDbLine
 10
-56.90069296166564
 20
10.94734532468131
 30
0.0
 11
-56.90069296166564
 21
8.67880110699382
 31
0.0
  0
LINE
  5
31D
102
{ACAD_REACTORS
330
3CA
330
3CB
102
}
330
71
100
AcDbEntity
  8
0
  6
Continuous
 62
     2
100
AcDbLine
 10
-79.53017939714485
 20
10.65768125655832
 30
0.0
 11
-79.53017939714485
 21
11.2395326632534
 31
0.0
  0
LINE
  5
31E
102
{ACAD_REACTORS
330
3CA
330
3CB
102
}
330
71
100
AcDbEntity
  8
0
  6
Continuous
 62
     2
100
AcDbLine
 10
-79.53017939714485
 20
13.45781586318963
 30
0.0
 11
-79.53017939714485
 21
14.06335115169641
 31
0.0
  0
LINE
  5
31F
330
71
100
AcDbEntity
  8
1
  6
Continuous
 62
     6
100
AcDbLine
 10
-101.0000008125416
 20
1.38530110697751
 30
0.0
 11
-87.04480533929166
 21
1.38530110697739
 31
0.0
  0
LINE
  5
320
330
71
100
AcDbEntity
  8
1
  6
Continuous
 62
     6
100
AcDbLine
 10
-151.0000008125418
 20
1.38530110697751
 30
0.0
 11
-156.0448053392916
 21
1.38530110697751
 31
0.0
  0
LINE
  5
321
330
71
100
AcDbEntity
  8
1
  6
Continuous
 62
     6
100
AcDbLine
 10
-1.00000081254166
 20
1.38530110697751
 30
0.0
 11
42.49999918745836
 21
1.38530110697751
 31
0.0
  0
LINE
  5
322
330
71
100
AcDbEntity
  8
1
  6
Continuous
 62
     6
100
AcDbLine
 10
-51.00000081254166
 20
1.38530110697751
 30
0.0
 11
-68.84480533929164
 21
1.38530110697751
 31
0.0
  0
LINE
  5
323
330
71
100
AcDbEntity
  8
1
  6
Continuous
 62
     2
100
AcDbLine
 10
42.49999918745836
 20
1.38530110697751
 30
0.0
 11
47.49999918745735
 21
1.38530110697751
 31
0.0
  0
LINE
  5
324
330
71
100
AcDbEntity
  8
1
  6
Continuous
 62
     2
100
AcDbLine
 10
42.49999918745836
 20
1.38530110697751
 30
0.0
 11
42.49999918745836
 21
-3.61469889302261
 31
0.0
  0
LINE
  5
325
330
71
100
AcDbEntity
  8
1
  6
Continuous
 62
     6
100
AcDbLine
 10
-87.04480533929166
 20
18.38530110697751
 30
0.0
 11
-50.64480533929174
 21
18.38530110697751
 31
0.0
  0
LINE
  5
326
330
71
100
AcDbEntity
  8
1
  6
Continuous
 62
     2
100
AcDbLine
 10
47.49999918745735
 20
-3.61469889302261
 30
0.0
 11
47.49999918745735
 21
1.38530110697751
 31
0.0
  0
LINE
  5
327
330
71
100
AcDbEntity
  8
1
  6
Continuous
 62
     2
100
AcDbLine
 10
47.49999918745735
 20
-3.61469889302261
 30
0.0
 11
42.49999918745836
 21
-3.61469889302261
 31
0.0
  0
LINE
  5
328
330
71
100
AcDbEntity
  8
1
  6
Continuous
 62
     2
100
AcDbLine
 10
42.49999918745836
 20
-3.61469889302261
 30
0.0
 11
-1.00000081254166
 21
-3.61469889302261
 31
0.0
  0
LINE
  5
329
330
71
100
AcDbEntity
  8
1
  6
Continuous
 62
     6
100
AcDbLine
 10
42.49999918746005
 20
18.38530110697751
 30
0.0
 11
42.49999918745925
 21
51.38530110697761
 31
0.0
  0
LINE
  5
32A
330
71
100
AcDbEntity
  8
1
  6
Continuous
 62
     2
100
AcDbLine
 10
47.49999918745735
 20
206.3853011069775
 30
0.0
 11
-101.0000008125416
 21
206.3853011069775
 31
0.0
  0
LINE
  5
32B
330
71
100
AcDbEntity
  8
1
  6
Continuous
 62
     6
100
AcDbLine
 10
42.49999918745735
 20
186.3853011069775
 30
0.0
 11
-244.5000008125407
 21
186.3853011069775
 31
0.0
  0
LINE
  5
32C
330
71
100
AcDbEntity
  8
1
  6
Continuous
 62
     2
100
AcDbLine
 10
42.49999918745925
 20
51.38530110697761
 30
0.0
 11
47.49999918745735
 21
51.38530110697761
 31
0.0
  0
LINE
  5
32D
330
71
100
AcDbEntity
  8
1
  6
Continuous
 62
     6
100
AcDbLine
 10
42.49999918745925
 20
51.38530110697761
 30
0.0
 11
42.49999918745876
 21
101.3853011069774
 31
0.0
  0
LINE
  5
32E
330
71
100
AcDbEntity
  8
1
  6
Continuous
 62
     2
100
AcDbLine
 10
47.49999918745735
 20
51.38530110697761
 30
0.0
 11
47.49999918745735
 21
101.3853011069774
 31
0.0
  0
LINE
  5
32F
330
71
100
AcDbEntity
  8
1
  6
Continuous
 62
     2
100
AcDbLine
 10
42.49999918745876
 20
101.3853011069774
 30
0.0
 11
47.49999918745735
 21
101.3853011069774
 31
0.0
  0
LINE
  5
330
330
71
100
AcDbEntity
  8
1
  6
Continuous
 62
     6
100
AcDbLine
 10
42.49999918745876
 20
101.3853011069774
 30
0.0
 11
42.49999918745755
 21
151.3853011069775
 31
0.0
  0
LINE
  5
331
330
71
100
AcDbEntity
  8
1
  6
Continuous
 62
     2
100
AcDbLine
 10
47.49999918745735
 20
101.3853011069774
 30
0.0
 11
47.49999918745735
 21
151.3853011069775
 31
0.0
  0
LINE
  5
332
330
71
100
AcDbEntity
  8
1
  6
Continuous
 62
     2
100
AcDbLine
 10
42.49999918745755
 20
151.3853011069775
 30
0.0
 11
47.49999918745735
 21
151.3853011069775
 31
0.0
  0
LINE
  5
333
330
71
100
AcDbEntity
  8
1
  6
Continuous
 62
     6
100
AcDbLine
 10
42.49999918745755
 20
151.3853011069775
 30
0.0
 11
42.49999918745735
 21
186.3853011069775
 31
0.0
  0
LINE
  5
334
330
71
100
AcDbEntity
  8
1
  6
Continuous
 62
     2
100
AcDbLine
 10
47.49999918745735
 20
151.3853011069775
 30
0.0
 11
47.49999918745735
 21
206.3853011069775
 31
0.0
  0
LINE
  5
335
330
71
100
AcDbEntity
  8
1
  6
Continuous
 62
     2
100
AcDbLine
 10
47.49999918745735
 20
1.38530110697751
 30
0.0
 11
47.49999918745735
 21
51.38530110697761
 31
0.0
  0
LINE
  5
336
330
71
100
AcDbEntity
  8
1
  6
Continuous
 62
     2
100
AcDbLine
 10
-101.0000008125416
 20
206.3853011069775
 30
0.0
 11
-249.5000008125407
 21
206.3853011069775
 31
0.0
  0
LINE
  5
337
330
71
100
AcDbEntity
  8
1
  6
Continuous
 62
     2
100
AcDbLine
 10
-101.0000008125416
 20
206.3853011069775
 30
0.0
 11
-101.0000008125416
 21
197.1766092622762
 31
0.0
  0
LINE
  5
338
330
71
100
AcDbEntity
  8
1
  6
Continuous
 62
     2
100
AcDbLine
 10
-249.5000008125407
 20
-3.61469889302261
 30
0.0
 11
-244.5000008125397
 21
-3.61469889302261
 31
0.0
  0
LINE
  5
339
330
71
100
AcDbEntity
  8
1
  6
Continuous
 62
     2
100
AcDbLine
 10
-249.5000008125407
 20
206.3853011069775
 30
0.0
 11
-249.5000008125407
 21
151.3853011069775
 31
0.0
  0
LINE
  5
33A
330
71
100
AcDbEntity
  8
1
  6
Continuous
 62
     6
100
AcDbLine
 10
-244.5000008125407
 20
186.3853011069775
 30
0.0
 11
-244.5000008125406
 21
151.3853011069775
 31
0.0
  0
LINE
  5
33B
330
71
100
AcDbEntity
  8
1
  6
Continuous
 62
     2
100
AcDbLine
 10
-249.5000008125407
 20
151.3853011069775
 30
0.0
 11
-244.5000008125406
 21
151.3853011069775
 31
0.0
  0
LINE
  5
33C
330
71
100
AcDbEntity
  8
1
  6
Continuous
 62
     2
100
AcDbLine
 10
-249.5000008125407
 20
151.3853011069775
 30
0.0
 11
-249.5000008125407
 21
101.3853011069774
 31
0.0
  0
LINE
  5
33D
330
71
100
AcDbEntity
  8
1
  6
Continuous
 62
     6
100
AcDbLine
 10
-244.5000008125406
 20
151.3853011069775
 30
0.0
 11
-244.5000008125401
 21
101.3853011069774
 31
0.0
  0
LINE
  5
33E
330
71
100
AcDbEntity
  8
1
  6
Continuous
 62
     2
100
AcDbLine
 10
-249.5000008125407
 20
101.3853011069774
 30
0.0
 11
-244.5000008125401
 21
101.3853011069774
 31
0.0
  0
LINE
  5
33F
330
71
100
AcDbEntity
  8
1
  6
Continuous
 62
     2
100
AcDbLine
 10
-249.5000008125407
 20
101.3853011069774
 30
0.0
 11
-249.5000008125407
 21
51.38530110697761
 31
0.0
  0
LINE
  5
340
330
71
100
AcDbEntity
  8
1
  6
Continuous
 62
     6
100
AcDbLine
 10
-244.5000008125401
 20
101.3853011069774
 30
0.0
 11
-244.5000008125399
 21
51.38530110697761
 31
0.0
  0
LINE
  5
341
330
71
100
AcDbEntity
  8
1
  6
Continuous
 62
     2
100
AcDbLine
 10
-249.5000008125407
 20
51.38530110697761
 30
0.0
 11
-244.5000008125399
 21
51.38530110697761
 31
0.0
  0
LINE
  5
342
330
71
100
AcDbEntity
  8
1
  6
Continuous
 62
     2
100
AcDbLine
 10
-249.5000008125407
 20
51.38530110697761
 30
0.0
 11
-249.5000008125407
 21
1.38530110697751
 31
0.0
  0
LINE
  5
343
330
71
100
AcDbEntity
  8
1
  6
Continuous
 62
     6
100
AcDbLine
 10
-244.5000008125399
 20
51.38530110697761
 30
0.0
 11
-244.5000008125397
 21
1.38530110697751
 31
0.0
  0
LINE
  5
344
330
71
100
AcDbEntity
  8
1
  6
Continuous
 62
     2
100
AcDbLine
 10
-201.0000008125416
 20
-3.61469889302261
 30
0.0
 11
-201.0000008125416
 21
1.38530110697751
 31
0.0
  0
LINE
  5
345
330
71
100
AcDbEntity
  8
1
  6
Continuous
 62
     2
100
AcDbLine
 10
-201.0000008125416
 20
-3.61469889302261
 30
0.0
 11
-151.0000008125418
 21
-3.61469889302261
 31
0.0
  0
LINE
  5
346
330
71
100
AcDbEntity
  8
1
  6
Continuous
 62
     2
100
AcDbLine
 10
-151.0000008125418
 20
-3.61469889302261
 30
0.0
 11
-151.0000008125418
 21
1.38530110697751
 31
0.0
  0
LINE
  5
347
330
71
100
AcDbEntity
  8
1
  6
Continuous
 62
     2
100
AcDbLine
 10
-151.0000008125418
 20
-3.61469889302261
 30
0.0
 11
-101.0000008125416
 21
-3.61469889302261
 31
0.0
  0
LINE
  5
348
330
71
100
AcDbEntity
  8
1
  6
Continuous
 62
     2
100
AcDbLine
 10
-101.0000008125416
 20
-3.61469889302261
 30
0.0
 11
-101.0000008125416
 21
1.38530110697751
 31
0.0
  0
LINE
  5
349
330
71
100
AcDbEntity
  8
1
  6
Continuous
 62
     2
100
AcDbLine
 10
-101.0000008125416
 20
-3.61469889302261
 30
0.0
 11
-51.00000081254166
 21
-3.61469889302261
 31
0.0
  0
LINE
  5
34A
330
71
100
AcDbEntity
  8
1
  6
Continuous
 62
     2
100
AcDbLine
 10
-51.00000081254166
 20
-3.61469889302261
 30
0.0
 11
-51.00000081254166
 21
1.38530110697751
 31
0.0
  0
LINE
  5
34B
330
71
100
AcDbEntity
  8
1
  6
Continuous
 62
     2
100
AcDbLine
 10
-1.00000081254166
 20
-3.61469889302261
 30
0.0
 11
-1.00000081254166
 21
1.38530110697751
 31
0.0
  0
LINE
  5
34C
330
71
100
AcDbEntity
  8
1
  6
Continuous
 62
     2
100
AcDbLine
 10
-1.00000081254166
 20
-3.61469889302261
 30
0.0
 11
-51.00000081254166
 21
-3.61469889302261
 31
0.0
  0
LINE
  5
34D
330
71
100
AcDbEntity
  8
1
  6
Continuous
 62
     2
100
AcDbLine
 10
-244.5000008125397
 20
1.38530110697751
 30
0.0
 11
-244.5000008125397
 21
-3.61469889302261
 31
0.0
  0
LINE
  5
34E
330
71
100
AcDbEntity
  8
1
  6
Continuous
 62
     2
100
AcDbLine
 10
-244.5000008125397
 20
-3.61469889302261
 30
0.0
 11
-201.0000008125416
 21
-3.61469889302261
 31
0.0
  0
LINE
  5
34F
330
71
100
AcDbEntity
  8
1
  6
Continuous
 62
     2
100
AcDbLine
 10
-244.5000008125397
 20
1.38530110697751
 30
0.0
 11
-249.5000008125407
 21
1.38530110697751
 31
0.0
  0
LINE
  5
350
330
71
100
AcDbEntity
  8
1
  6
Continuous
 62
     2
100
AcDbLine
 10
-249.5000008125407
 20
1.38530110697751
 30
0.0
 11
-249.5000008125407
 21
-3.61469889302261
 31
0.0
  0
LINE
  5
351
330
71
100
AcDbEntity
  8
1
  6
Continuous
 62
     6
100
AcDbLine
 10
42.49999918745836
 20
1.38530110697751
 30
0.0
 11
42.49999918745965
 21
9.88530110697751
 31
0.0
  0
LINE
  5
352
330
71
100
AcDbEntity
  8
1
  6
Continuous
 62
     6
100
AcDbLine
 10
-50.64480533929174
 20
1.38530110697739
 30
0.0
 11
-1.00000081254166
 21
1.38530110697751
 31
0.0
  0
LINE
  5
353
330
71
100
AcDbEntity
  8
1
  6
Continuous
 62
     6
100
AcDbLine
 10
-203.3000008125419
 20
1.38530110697739
 30
0.0
 11
-201.0000008125416
 21
1.38530110697751
 31
0.0
  0
LINE
  5
354
330
71
100
AcDbEntity
  8
1
  6
Continuous
 62
     6
100
AcDbLine
 10
-101.0000008125416
 20
1.38530110697751
 30
0.0
 11
-151.0000008125418
 21
1.38530110697751
 31
0.0
  0
LINE
  5
355
330
71
100
AcDbEntity
  8
1
  6
Continuous
 62
     7
100
AcDbLine
 10
-87.04480533929166
 20
18.38530110697751
 30
0.0
 11
-87.04480533929166
 21
5.63530110697739
 31
0.0
  0
LINE
  5
356
330
71
100
AcDbEntity
  8
1
  6
Continuous
 62
     7
100
AcDbLine
 10
-50.64480533929174
 20
18.38530110697751
 30
0.0
 11
-50.64480533929174
 21
5.63530110697751
 31
0.0
  0
LINE
  5
357
330
71
100
AcDbEntity
  8
1
  6
Continuous
 62
     6
100
AcDbLine
 10
-203.3000008125419
 20
1.38530110697739
 30
0.0
 11
-209.5000008125399
 21
1.38530110697751
 31
0.0
  0
LINE
  5
358
330
71
100
AcDbEntity
  8
1
  6
Continuous
 62
     6
100
AcDbLine
 10
-50.64480533929174
 20
1.38530110697739
 30
0.0
 11
-51.00000081254166
 21
1.38530110697751
 31
0.0
  0
LINE
  5
359
330
71
100
AcDbEntity
  8
1
  6
Continuous
 62
     6
100
AcDbLine
 10
42.49999918746005
 20
18.38530110697751
 30
0.0
 11
42.49999918745965
 21
9.88530110697751
 31
0.0
  0
LINE
  5
35A
330
71
100
AcDbEntity
  8
1
  6
Continuous
 62
     6
100
AcDbLine
 10
-209.5000008125399
 20
1.38530110697751
 30
0.0
 11
-244.5000008125397
 21
1.38530110697751
 31
0.0
  0
LINE
  5
35B
330
71
100
AcDbEntity
  8
1
  6
Continuous
 62
     2
100
AcDbLine
 10
-82.80815045272905
 20
23.76030110697743
 30
0.0
 11
-77.80815045272905
 21
25.01030110697743
 31
0.0
  0
LINE
  5
35C
330
71
100
AcDbEntity
  8
1
  6
Continuous
 62
     2
100
AcDbLine
 10
-82.80815045272905
 20
21.26030110697743
 30
0.0
 11
-82.80815045272905
 21
23.76030110697743
 31
0.0
  0
LINE
  5
35D
330
71
100
AcDbEntity
  8
1
  6
Continuous
 62
     2
100
AcDbLine
 10
-77.80815045272905
 20
20.01030110697743
 30
0.0
 11
-82.80815045272905
 21
21.26030110697743
 31
0.0
  0
LINE
  5
35E
330
71
100
AcDbEntity
  8
1
  6
Continuous
 62
     2
100
AcDbLine
 10
-77.80815045272905
 20
25.01030110697743
 30
0.0
 11
-77.80815045272905
 21
20.01030110697743
 31
0.0
  0
LINE
  5
35F
330
71
100
AcDbEntity
  8
1
  6
Continuous
 62
     7
100
AcDbLine
 10
-87.04480533929166
 20
5.63530110697739
 30
0.0
 11
-68.84480533929164
 21
5.63530110697751
 31
0.0
  0
LINE
  5
360
330
71
100
AcDbEntity
  8
1
  6
Continuous
 62
     7
100
AcDbLine
 10
-87.04480533929166
 20
5.63530110697739
 30
0.0
 11
-87.04480533929166
 21
1.38530110697739
 31
0.0
  0
LINE
  5
361
330
71
100
AcDbEntity
  8
1
  6
Continuous
 62
     7
100
AcDbLine
 10
-50.64480533929174
 20
5.63530110697751
 30
0.0
 11
-50.64480533929174
 21
1.38530110697739
 31
0.0
  0
LINE
  5
362
330
71
100
AcDbEntity
  8
1
  6
Continuous
 62
     7
100
AcDbLine
 10
-68.84480533929164
 20
5.63530110697751
 30
0.0
 11
-68.84480533929164
 21
1.38530110697751
 31
0.0
  0
LINE
  5
363
330
71
100
AcDbEntity
  8
1
  6
Continuous
 62
     6
100
AcDbLine
 10
-68.84480533929164
 20
1.38530110697751
 30
0.0
 11
-87.04480533929166
 21
1.38530110697739
 31
0.0
  0
LINE
  5
364
330
71
100
AcDbEntity
  8
1
  6
Continuous
 62
     7
100
AcDbLine
 10
-68.84480533929164
 20
5.63530110697751
 30
0.0
 11
-50.64480533929174
 21
5.63530110697751
 31
0.0
  0
LINE
  5
365
330
71
100
AcDbEntity
  8
1
  6
Continuous
 62
     6
100
AcDbLine
 10
-87.04480533929166
 20
26.88530110697751
 30
0.0
 11
42.49999918746005
 21
26.88530110697751
 31
0.0
  0
ARC
  5
366
102
{ACAD_REACTORS
330
3CE
330
3CF
102
}
330
71
100
AcDbEntity
  8
0
  6
Continuous
 62
     2
100
AcDbCircle
 10
-71.65315734033166
 20
10.2057058688991
 30
0.0
 40
0.7717997786796936
100
AcDbArc
 50
321.8795802028419
 51
38.12041979715359
  0
ARC
  5
367
102
{ACAD_REACTORS
330
3CE
330
3CF
102
}
330
71
100
AcDbEntity
  8
0
  6
Continuous
 62
     2
100
AcDbCircle
 10
-71.45341730398525
 20
10.0489746907791
 30
0.0
 40
0.5179085730137332
100
AcDbArc
 50
218.1204197971929
 51
321.8795802028013
  0
ARC
  5
368
102
{ACAD_REACTORS
330
3CE
330
3CF
102
}
330
71
100
AcDbEntity
  8
0
  6
Continuous
 62
     2
100
AcDbCircle
 10
-71.25367726763915
 20
10.2057058688991
 30
0.0
 40
0.7717997786794665
100
AcDbArc
 50
141.879580202836
 51
218.1204197971686
  0
ARC
  5
369
102
{ACAD_REACTORS
330
3CE
330
3CF
102
}
330
71
100
AcDbEntity
  8
0
  6
Continuous
 62
     2
100
AcDbCircle
 10
-71.45341730398525
 20
10.36243704701961
 30
0.0
 40
0.5179085730133032
100
AcDbArc
 50
38.1204197971475
 51
141.8795802028583
  0
ARC
  5
36A
102
{ACAD_REACTORS
330
3C6
330
3C7
102
}
330
71
100
AcDbEntity
  8
0
  6
Continuous
 62
     2
100
AcDbCircle
 10
-74.51543143954913
 20
8.79523950349092
 30
0.0
 40
2.227384008973476
100
AcDbArc
 50
58.0690910500407
 51
71.55192388186722
  0
ARC
  5
36B
102
{ACAD_REACTORS
330
3C6
330
3C7
102
}
330
71
100
AcDbEntity
  8
0
  6
Continuous
 62
     2
100
AcDbCircle
 10
-74.25370373859036
 20
10.4107772982381
 30
0.0
 40
0.5115800601948796
100
AcDbArc
 50
113.3722778881991
 51
151.4785267423044
  0
ARC
  5
36C
102
{ACAD_REACTORS
330
3C6
330
3C7
102
}
330
71
100
AcDbEntity
  8
0
  6
Continuous
 62
     2
100
AcDbCircle
 10
-73.87634648051005
 20
10.2057058688991
 30
0.0
 40
0.9410597353332545
100
AcDbArc
 50
151.4785267422669
 51
208.5214732577057
  0
ARC
  5
36D
102
{ACAD_REACTORS
330
3C6
330
3C7
102
}
330
71
100
AcDbEntity
  8
0
  6
Continuous
 62
     2
100
AcDbCircle
 10
-74.67330431464205
 20
13.51838681415551
 30
0.0
 40
4.852596863498143
100
AcDbArc
 50
275.1581447696249
 51
285.9799912583529
  0
ARC
  5
36E
102
{ACAD_REACTORS
330
3C6
330
3C7
102
}
330
71
100
AcDbEntity
  8
0
  6
Continuous
 62
     2
100
AcDbCircle
 10
-74.38444821990615
 20
10.31849623093392
 30
0.0
 40
1.639695123939388
100
AcDbArc
 50
195.0618917770897
 51
275.1581447696395
  0
ARC
  5
36F
102
{ACAD_REACTORS
330
3C6
330
3C7
102
}
330
71
100
AcDbEntity
  8
0
  6
Continuous
 62
     2
100
AcDbCircle
 10
-74.80357606336895
 20
10.2057058688991
 30
0.0
 40
1.205656168390943
100
AcDbArc
 50
164.9381082228765
 51
195.0618917770948
  0
ARC
  5
370
102
{ACAD_REACTORS
330
3C6
330
3C7
102
}
330
71
100
AcDbEntity
  8
0
  6
Continuous
 62
     2
100
AcDbCircle
 10
-74.38444821990615
 20
10.0929155068642
 30
0.0
 40
1.639695123940505
100
AcDbArc
 50
84.84185523036236
 51
164.9381082228865
  0
ARC
  5
371
102
{ACAD_REACTORS
330
3CA
330
3CB
102
}
330
71
100
AcDbEntity
  8
0
  6
Continuous
 62
     2
100
AcDbCircle
 10
-79.21446247406806
 20
11.2395326632534
 30
0.0
 40
0.3157169230765344
100
AcDbArc
 50
115.3740086783517
 51
180.0
  0
ARC
  5
372
102
{ACAD_REACTORS
330
3CA
330
3CB
102
}
330
71
100
AcDbEntity
  8
0
  6
Continuous
 62
     2
100
AcDbCircle
 10
-79.21446247406806
 20
13.45781586318963
 30
0.0
 40
0.315716923076792
100
AcDbArc
 50
180.0
 51
244.6259913216483
  0
ARC
  5
373
102
{ACAD_REACTORS
330
3CA
330
3CB
102
}
330
71
100
AcDbEntity
  8
0
  6
Continuous
 62
     2
100
AcDbCircle
 10
-79.20884633875804
 20
12.36051620412731
 30
0.0
 40
2.018561131933266
100
AcDbArc
 50
269.8110329575858
 51
90.18896704241416
  0
ARC
  5
374
102
{ACAD_REACTORS
330
3CA
330
3CB
102
}
330
71
100
AcDbEntity
  8
0
  6
Continuous
 62
     2
100
AcDbCircle
 10
-79.21446247406806
 20
10.65768125655832
 30
0.0
 40
0.315716923076792
100
AcDbArc
 50
180.0
 51
269.8110329574542
  0
ARC
  5
375
102
{ACAD_REACTORS
330
3C8
330
3C9
102
}
330
71
100
AcDbEntity
  8
0
  6
Continuous
 62
     2
100
AcDbCircle
 10
-58.15100225933745
 20
10.4107772982381
 30
0.0
 40
0.5115800601944169
100
AcDbArc
 50
109.3371432194843
 51
151.4785267424214
  0
ARC
  5
376
102
{ACAD_REACTORS
330
3C8
330
3C9
102
}
330
71
100
AcDbEntity
  8
0
  6
Continuous
 62
     2
100
AcDbCircle
 10
-58.15100225933745
 20
10.00063443956061
 30
0.0
 40
0.5115800601960137
100
AcDbArc
 50
208.5214732576866
 51
246.6277221118455
  0
ARC
  5
377
102
{ACAD_REACTORS
330
3C8
330
3C9
102
}
330
71
100
AcDbEntity
  8
0
  6
Continuous
 62
     2
100
AcDbCircle
 10
-58.70087458411484
 20
10.2057058688991
 30
0.0
 40
1.205656168393002
100
AcDbArc
 50
164.9381082229029
 51
195.0618917770958
  0
ARC
  5
378
102
{ACAD_REACTORS
330
3C8
330
3C9
102
}
330
71
100
AcDbEntity
  8
0
  6
Continuous
 62
     2
100
AcDbCircle
 10
-58.28174674065323
 20
10.0929155068642
 30
0.0
 40
1.63969512394022
100
AcDbArc
 50
90.0
 51
164.938108222895
  0
ARC
  5
379
102
{ACAD_REACTORS
330
3CC
330
3CD
102
}
330
71
100
AcDbEntity
  8
0
  6
Continuous
 62
     2
100
AcDbCircle
 10
-67.70874183335695
 20
13.56489634507342
 30
0.0
 40
1.52690476190589
100
AcDbArc
 50
90.0
 51
270.0
  0
ARC
  5
37A
102
{ACAD_REACTORS
330
3D0
330
3D1
102
}
330
71
100
AcDbEntity
  8
0
  6
Continuous
 62
     2
100
AcDbCircle
 10
-74.45143257858274
 20
14.07583143686812
 30
0.0
 40
0.35286382467112
100
AcDbArc
 50
270.0
 51
90.0
  0
ARC
  5
37B
102
{ACAD_REACTORS
330
3CA
330
3CB
102
}
330
71
100
AcDbEntity
  8
0
  6
Continuous
 62
     2
100
AcDbCircle
 10
-81.79001116059976
 20
14.06352862834452
 30
0.0
 40
0.3157169230761898
100
AcDbArc
 50
90.0
 51
180.0
  0
ARC
  5
37C
102
{ACAD_REACTORS
330
3CA
330
3CB
102
}
330
71
100
AcDbEntity
  8
0
  6
Continuous
 62
     2
100
AcDbCircle
 10
-79.79159345201515
 20
12.34867426322181
 30
0.0
 40
0.911897523557621
100
AcDbArc
 50
115.194410648528
 51
244.8055893514877
  0
ARC
  5
37D
102
{ACAD_REACTORS
330
3CA
330
3CB
102
}
330
71
100
AcDbEntity
  8
0
  6
Continuous
 62
     2
100
AcDbCircle
 10
-80.31417789959013
 20
11.23784451715902
 30
0.0
 40
0.315716923076593
100
AcDbArc
 50
0.0
 51
64.80558935146027
  0
ARC
  5
37E
102
{ACAD_REACTORS
330
3CA
330
3CB
102
}
330
71
100
AcDbEntity
  8
0
  6
Continuous
 62
     2
100
AcDbCircle
 10
-82.38390583734625
 20
9.1030457223771
 30
0.0
 40
0.4242446153828041
100
AcDbArc
 50
180.0
 51
270.0
  0
ARC
  5
37F
102
{ACAD_REACTORS
330
3CC
330
3CD
102
}
330
71
100
AcDbEntity
  8
0
  6
Continuous
 62
     2
100
AcDbCircle
 10
-67.49246982319175
 20
13.7216275231939
 30
0.0
 40
0.5179085730135266
100
AcDbArc
 50
38.12041979714334
 51
141.8795802028489
  0
ARC
  5
380
102
{ACAD_REACTORS
330
3CC
330
3CD
102
}
330
71
100
AcDbEntity
  8
0
  6
Continuous
 62
     2
100
AcDbCircle
 10
-67.29272978684546
 20
13.56489634507342
 30
0.0
 40
0.7717997786796724
100
AcDbArc
 50
141.8795802028404
 51
218.120419797156
  0
ARC
  5
381
102
{ACAD_REACTORS
330
3CE
330
3CF
102
}
330
71
100
AcDbEntity
  8
0
  6
Continuous
 62
     2
100
AcDbCircle
 10
-71.45341730398525
 20
10.74428087920241
 30
0.0
 40
2.065479772208512
100
AcDbArc
 50
242.4518518243403
 51
297.548148175687
  0
ARC
  5
382
102
{ACAD_REACTORS
330
3CE
330
3CF
102
}
330
71
100
AcDbEntity
  8
0
  6
Continuous
 62
     2
100
AcDbCircle
 10
-71.45341730398525
 20
9.66713085859631
 30
0.0
 40
2.065479772208566
100
AcDbArc
 50
62.45185182430634
 51
117.5481481756664
  0
ARC
  5
383
102
{ACAD_REACTORS
330
3CE
330
3CF
102
}
330
71
100
AcDbEntity
  8
0
  6
Continuous
 62
     2
100
AcDbCircle
 10
-71.73435719581855
 20
10.2057058688991
 30
0.0
 40
1.45803408365149
100
AcDbArc
 50
117.5481481756624
 51
242.4518518243375
  0
ARC
  5
384
102
{ACAD_REACTORS
330
3CE
330
3CF
102
}
330
71
100
AcDbEntity
  8
0
  6
Continuous
 62
     2
100
AcDbCircle
 10
-71.17247741215195
 20
10.2057058688991
 30
0.0
 40
1.458034083652001
100
AcDbArc
 50
297.5481481757011
 51
62.45185182429896
  0
ARC
  5
385
102
{ACAD_REACTORS
330
3CC
330
3CD
102
}
330
71
100
AcDbEntity
  8
0
  6
Continuous
 62
     2
100
AcDbCircle
 10
-67.49246982319175
 20
13.408165166953
 30
0.0
 40
0.5179085730134372
100
AcDbArc
 50
218.1204197971511
 51
321.8795802028566
  0
ARC
  5
386
102
{ACAD_REACTORS
330
3CC
330
3CD
102
}
330
71
100
AcDbEntity
  8
0
  6
Continuous
 62
     2
100
AcDbCircle
 10
-67.69220985953794
 20
13.56489634507342
 30
0.0
 40
0.7717997786796351
100
AcDbArc
 50
321.879580202844
 51
38.12041979715956
  0
ARC
  5
387
102
{ACAD_REACTORS
330
3CA
330
3CB
102
}
330
71
100
AcDbEntity
  8
0
  6
Continuous
 62
     2
100
AcDbCircle
 10
-76.91059374662944
 20
9.1030457223771
 30
0.0
 40
0.4242446153832873
100
AcDbArc
 50
270.0
 51
0.0
  0
ARC
  5
388
102
{ACAD_REACTORS
330
3CA
330
3CB
102
}
330
71
100
AcDbEntity
  8
0
  6
Continuous
 62
     2
100
AcDbCircle
 10
-76.91059374662944
 20
14.66755649157732
 30
0.0
 40
0.4242446153838841
100
AcDbArc
 50
0.0
 51
90.0
  0
ARC
  5
389
102
{ACAD_REACTORS
330
3CA
330
3CB
102
}
330
71
100
AcDbEntity
  8
0
  6
Continuous
 62
     2
100
AcDbCircle
 10
-82.38390583734625
 20
14.66755649157732
 30
0.0
 40
0.4242446153837989
100
AcDbArc
 50
90.0
 51
180.0
  0
ARC
  5
38A
102
{ACAD_REACTORS
330
3CA
330
3CB
102
}
330
71
100
AcDbEntity
  8
0
  6
Continuous
 62
     2
100
AcDbCircle
 10
-80.31417789959013
 20
9.70707358562741
 30
0.0
 40
0.3157169230767067
100
AcDbArc
 50
270.0
 51
0.0
  0
ARC
  5
38B
102
{ACAD_REACTORS
330
3CA
330
3CB
102
}
330
71
100
AcDbEntity
  8
0
  6
Continuous
 62
     2
100
AcDbCircle
 10
-80.31417789959013
 20
13.45950400928401
 30
0.0
 40
0.3157169230761203
100
AcDbArc
 50
295.1944106485397
 51
0.0
  0
ARC
  5
38C
102
{ACAD_REACTORS
330
3CA
330
3CB
102
}
330
71
100
AcDbEntity
  8
0
  6
Continuous
 62
     2
100
AcDbCircle
 10
-80.31417789959013
 20
14.06352862834452
 30
0.0
 40
0.315716923076593
100
AcDbArc
 50
0.0
 51
90.0
  0
ARC
  5
38D
102
{ACAD_REACTORS
330
3CA
330
3CB
102
}
330
71
100
AcDbEntity
  8
0
  6
Continuous
 62
     2
100
AcDbCircle
 10
-81.79001116059976
 20
9.70707358562741
 30
0.0
 40
0.3157169230756836
100
AcDbArc
 50
180.0
 51
270.0
  0
ARC
  5
38E
102
{ACAD_REACTORS
330
3D0
330
3D1
102
}
330
71
100
AcDbEntity
  8
0
  6
Continuous
 62
     2
100
AcDbCircle
 10
-74.00996005234435
 20
14.03643546564563
 30
0.0
 40
1.05536564133371
100
AcDbArc
 50
270.0
 51
90.0
  0
ARC
  5
38F
102
{ACAD_REACTORS
330
3C8
330
3C9
102
}
330
71
100
AcDbEntity
  8
0
  6
Continuous
 62
     2
100
AcDbCircle
 10
-58.28174674065323
 20
10.31849623093392
 30
0.0
 40
1.639695123940449
100
AcDbArc
 50
195.0618917771013
 51
275.1581447696762
  0
ARC
  5
390
102
{ACAD_REACTORS
330
3C8
330
3C9
102
}
330
71
100
AcDbEntity
  8
0
  6
Continuous
 62
     2
100
AcDbCircle
 10
-58.57060283538905
 20
13.51838681415551
 30
0.0
 40
4.85259686349883
100
AcDbArc
 50
275.1581447696364
 51
285.9799912583387
  0
ARC
  5
391
102
{ACAD_REACTORS
330
3C8
330
3C9
102
}
330
71
100
AcDbEntity
  8
0
  6
Continuous
 62
     2
100
AcDbCircle
 10
-58.41272996029625
 20
11.6161722343072
 30
0.0
 40
2.227384008972744
100
AcDbArc
 50
288.4480761181333
 51
301.9309089499397
  0
ARC
  5
392
102
{ACAD_REACTORS
330
3C8
330
3C9
102
}
330
71
100
AcDbEntity
  8
0
  6
Continuous
 62
     2
100
AcDbCircle
 10
-57.99456222663434
 20
10.36262645827061
 30
0.0
 40
0.9059297849852784
100
AcDbArc
 50
246.6277221118182
 51
288.4480761180813
  0
ARC
  5
393
102
{ACAD_REACTORS
330
3C8
330
3C9
102
}
330
71
100
AcDbEntity
  8
0
  6
Continuous
 62
     2
100
AcDbCircle
 10
-57.77364500125606
 20
10.2057058688991
 30
0.0
 40
0.9410597353348958
100
AcDbArc
 50
151.478526742362
 51
208.5214732576694
  0
ARC
  5
394
102
{ACAD_REACTORS
330
3C8
330
3C9
102
}
330
71
100
AcDbEntity
  8
0
  6
Continuous
 62
     2
100
AcDbCircle
 10
-58.00433226123374
 20
9.99282231785521
 30
0.0
 40
0.9545230068260953
100
AcDbArc
 50
90.0
 51
109.3371432194319
  0
ARC
  5
395
102
{ACAD_REACTORS
330
3CA
330
3CB
102
}
330
71
100
AcDbEntity
  8
0
  6
Continuous
 62
     2
100
AcDbCircle
 10
-79.21446247406806
 20
14.06335115169641
 30
0.0
 40
0.3157169230760746
100
AcDbArc
 50
90.18896704254594
 51
180.0
  0
ARC
  5
396
102
{ACAD_REACTORS
330
3CA
330
3CB
102
}
330
71
100
AcDbEntity
  8
0
  6
Continuous
 62
     2
100
AcDbCircle
 10
-79.74050517215593
 20
12.34867426322181
 30
0.0
 40
0.9118481501444573
100
AcDbArc
 50
295.3740086781765
 51
64.62599132180762
  0
ARC
  5
397
102
{ACAD_REACTORS
330
3C6
330
3C7
102
}
330
71
100
AcDbEntity
  8
0
  6
Continuous
 62
     2
100
AcDbCircle
 10
-74.51543143954913
 20
11.6161722343078
 30
0.0
 40
2.22738400897274
100
AcDbArc
 50
288.4480761181328
 51
301.9309089499592
  0
ARC
  5
398
102
{ACAD_REACTORS
330
3C6
330
3C7
102
}
330
71
100
AcDbEntity
  8
0
  6
Continuous
 62
     2
100
AcDbCircle
 10
-74.09726370588834
 20
10.36262645827061
 30
0.0
 40
0.9059297849849176
100
AcDbArc
 50
246.627722111871
 51
288.4480761181586
  0
ARC
  5
399
102
{ACAD_REACTORS
330
3C6
330
3C7
102
}
330
71
100
AcDbEntity
  8
0
  6
Continuous
 62
     2
100
AcDbCircle
 10
-74.25370373859036
 20
10.00063443956061
 30
0.0
 40
0.5115800601948017
100
AcDbArc
 50
208.5214732576952
 51
246.6277221118272
  0
ARC
  5
39A
102
{ACAD_REACTORS
330
3C6
330
3C7
102
}
330
71
100
AcDbEntity
  8
0
  6
Continuous
 62
     2
100
AcDbCircle
 10
-74.09726370588834
 20
10.04878527952751
 30
0.0
 40
0.9059297849853228
100
AcDbArc
 50
71.55192388185348
 51
113.372277888129
  0
ARC
  5
39B
102
{ACAD_REACTORS
330
3C6
330
3C7
102
}
330
71
100
AcDbEntity
  8
0
  6
Continuous
 62
     2
100
AcDbCircle
 10
-74.67330431464205
 20
6.89302492364321
 30
0.0
 40
4.852596863498063
100
AcDbArc
 50
74.02000874164737
 51
84.84185523037506
  0
CIRCLE
  5
39C
102
{ACAD_REACTORS
330
3CA
330
3CB
102
}
330
71
100
AcDbEntity
  8
0
  6
Continuous
 62
     2
100
AcDbCircle
 10
-79.76432018682874
 20
12.34867426322181
 30
0.0
 40
0.4709789327785074
  0
CIRCLE
  5
39D
330
71
100
AcDbEntity
  8
1
  6
Continuous
 62
     2
100
AcDbCircle
 10
-74.30815045272905
 20
22.51030110697743
 30
0.0
 40
1.249999999999915
  0
CIRCLE
  5
39E
330
71
100
AcDbEntity
  8
1
  6
Continuous
 62
     2
100
AcDbCircle
 10
-74.30815045272905
 20
22.51030110697743
 30
0.0
 40
2.5
  0
TEXT
  5
39F
330
71
100
AcDbEntity
  8
1
 62
     7
100
AcDbText
 10
-31.67125761727786
 20
19.68530110697741
 30
0.0
 40
2.5
  1
/
 41
0.9
  7
CONVERTER_11
100
AcDbText
  0
TEXT
  5
3A1
330
71
100
AcDbEntity
  8
1
 62
     7
100
AcDbText
 10
-29.51489312023585
 20
19.68530110697741
 30
0.0
 40
2.5
  1
02
 41
0.81
  7
CONVERTER_12
100
AcDbText
  0
TEXT
  5
3A2
330
71
100
AcDbEntity
  8
1
 62
     3
100
AcDbText
 10
8.08159090578124
 20
19.68530110697741
 30
0.0
 40
2.5
  1
13.04.2018
 41
0.81
  7
CONVERTER_12
100
AcDbText
  0
MTEXT
  5
3A3
330
71
100
AcDbEntity
  8
1
 62
     2
100
AcDbMText
 10
8.08159090578124
 20
25.88530110697743
 30
0.0
 40
1.8
 41
0.0
 71
     1
 72
     1
  1
date
  7
CONVERTER_11
 73
     1
 44
1.32052821128451
  0
MTEXT
  5
3A4
330
71
100
AcDbEntity
  8
1
 62
     2
100
AcDbMText
 10
-21.74480533929164
 20
17.38530110697743
 30
0.0
 40
1.8
 41
0.0
 71
     1
 72
     1
  1
document-type
  7
CONVERTER_11
 73
     1
 44
1.20048019207683
  0
TEXT
  5
3A5
330
71
100
AcDbEntity
  8
1
 62
     3
100
AcDbText
 10
-21.74480533929164
 20
11.18530110697741
 30
0.0
 40
2.5
  1
TECDOC 2D_Productdrawing
 41
0.81
  7
CONVERTER_12
100
AcDbText
  0
MTEXT
  5
3A7
330
71
100
AcDbEntity
  8
1
 62
     2
100
AcDbMText
 10
-49.54480533929166
 20
25.88530110697751
 30
0.0
 40
1.8
 41
0.0
 71
     1
 72
     1
  1
document-No. / RI
  7
CONVERTER_13
 73
     1
 44
1.32052821128451
  0
TEXT
  5
3A8
330
71
100
AcDbEntity
  8
1
 62
     7
100
AcDbText
 10
-49.54480533929166
 20
19.68530110697741
 30
0.0
 40
2.5
  1
00352974
 41
0.81
  7
CONVERTER_12
100
AcDbText
  0
MTEXT
  5
3AA
330
71
100
AcDbEntity
  8
1
 62
     3
100
AcDbMText
 10
38.04079504662066
 20
19.68530110697761
 30
0.0
 40
2.5
 41
0.0
 71
     8
 72
     1
  1
2:1
  7
CONVERTER_14
 73
     1
 44
1.32052821128451
  0
MTEXT
  5
3AB
330
71
100
AcDbEntity
  8
1
 62
     2
100
AcDbMText
 10
34.68159090578107
 20
25.88530110697751
 30
0.0
 40
1.8
 41
0.0
 71
     1
 72
     1
  1
scale
  7
CONVERTER_11
 73
     1
 44
1.20048019207683
  0
MTEXT
  5
3AC
330
71
100
AcDbEntity
  8
1
 62
     2
100
AcDbMText
 10
-49.54480533929166
 20
17.38530110697751
 30
0.0
 40
1.8
 41
0.0
 71
     1
 72
     1
  1
ident.-No.
  7
CONVERTER_11
 73
     1
 44
1.20048019207683
  0
TEXT
  5
3AD
330
71
100
AcDbEntity
  8
1
 62
     7
100
AcDbText
 10
-49.14480533929193
 20
11.18530110697741
 30
0.0
 40
2.5
  1
0702997
 41
0.81
  7
CONVERTER_12
100
AcDbText
  0
MTEXT
  5
3AE
330
71
100
AcDbEntity
  8
1
 62
     2
100
AcDbMText
 10
-121.4828200643391
 20
14.13530110697743
 30
0.0
 40
2.0
 41
0.0
 71
     5
 72
     1
  1
General Information\P- Simplified representation\P- Document excluded from change process\P- Linear dimensions [mm]
  7
CONVERTER_11
 73
     1
 44
1.20048019207683
  0
MTEXT
  5
3AF
330
71
100
AcDbEntity
  8
1
 62
     7
100
AcDbMText
 10
44.99999918745735
 20
76.38530110697941
 30
0.0
 40
3.5
 41
0.0
 71
     5
 72
     1
  1
C
  7
CONVERTER_11
 73
     1
 44
1.20048019207683
  0
MTEXT
  5
3B0
330
71
100
AcDbEntity
  8
1
 62
     7
100
AcDbMText
 10
44.99999918745735
 20
178.8853011069775
 30
0.0
 40
3.5
 41
0.0
 71
     5
 72
     1
  1
A
  7
CONVERTER_11
 73
     1
 44
1.20048019207683
  0
MTEXT
  5
3B1
330
71
100
AcDbEntity
  8
1
 62
     7
100
AcDbMText
 10
44.99999918745735
 20
126.3853011069794
 30
0.0
 40
3.5
 41
0.0
 71
     5
 72
     1
  1
B
  7
CONVERTER_11
 73
     1
 44
1.20048019207683
  0
MTEXT
  5
3B2
330
71
100
AcDbEntity
  8
1
 62
     7
100
AcDbMText
 10
44.99999918745735
 20
23.88530110697751
 30
0.0
 40
3.5
 41
0.0
 71
     5
 72
     1
  1
D
  7
CONVERTER_11
 73
     1
 44
1.20048019207683
  0
MTEXT
  5
3B3
330
71
100
AcDbEntity
  8
1
 62
     7
100
AcDbMText
 10
-225.2500008125412
 20
-1.11469889302261
 30
0.0
 40
3.5
 41
0.0
 71
     5
 72
     1
  1
1
  7
CONVERTER_11
 73
     1
 44
1.20048019207683
  0
MTEXT
  5
3B4
330
71
100
AcDbEntity
  8
1
 62
     7
100
AcDbMText
 10
-176.0000008125416
 20
-1.11469889302261
 30
0.0
 40
3.5
 41
0.0
 71
     5
 72
     1
  1
2
  7
CONVERTER_11
 73
     1
 44
1.20048019207683
  0
MTEXT
  5
3B5
330
71
100
AcDbEntity
  8
1
 62
     7
100
AcDbMText
 10
-126.0000008125416
 20
-1.11469889302261
 30
0.0
 40
3.5
 41
0.0
 71
     5
 72
     1
  1
3
  7
CONVERTER_11
 73
     1
 44
1.20048019207683
  0
MTEXT
  5
3B6
330
71
100
AcDbEntity
  8
1
 62
     7
100
AcDbMText
 10
-76.00000081254174
 20
-1.11469889302261
 30
0.0
 40
3.5
 41
0.0
 71
     5
 72
     1
  1
4
  7
CONVERTER_11
 73
     1
 44
1.20048019207683
  0
MTEXT
  5
3B7
330
71
100
AcDbEntity
  8
1
 62
     7
100
AcDbMText
 10
-26.00000081254166
 20
-1.11469889302261
 30
0.0
 40
3.5
 41
0.0
 71
     5
 72
     1
  1
5
  7
CONVERTER_11
 73
     1
 44
1.20048019207683
  0
MTEXT
  5
3B8
330
71
100
AcDbEntity
  8
1
 62
     7
100
AcDbMText
 10
23.24999918745755
 20
-1.11469889302261
 30
0.0
 40
3.5
 41
0.0
 71
     5
 72
     1
  1
6
  7
CONVERTER_11
 73
     1
 44
1.20048019207683
  0
MTEXT
  5
3B9
330
71
100
AcDbEntity
  8
1
 62
     7
100
AcDbMText
 10
-247.0000008125407
 20
178.8853011069775
 30
0.0
 40
3.5
 41
0.0
 71
     5
 72
     1
  1
A
  7
CONVERTER_11
 73
     1
 44
1.20048019207683
  0
MTEXT
  5
3BA
330
71
100
AcDbEntity
  8
1
 62
     7
100
AcDbMText
 10
-247.0000008125407
 20
126.3853011069775
 30
0.0
 40
3.5
 41
0.0
 71
     5
 72
     1
  1
B
  7
CONVERTER_11
 73
     1
 44
1.20048019207683
  0
MTEXT
  5
3BB
330
71
100
AcDbEntity
  8
1
 62
     7
100
AcDbMText
 10
-247.0000008125407
 20
76.38530110697751
 30
0.0
 40
3.5
 41
0.0
 71
     5
 72
     1
  1
C
  7
CONVERTER_11
 73
     1
 44
1.20048019207683
  0
MTEXT
  5
3BC
330
71
100
AcDbEntity
  8
1
 62
     7
100
AcDbMText
 10
-247.0000008125407
 20
23.88530110697751
 30
0.0
 40
3.5
 41
0.0
 71
     5
 72
     1
  1
D
  7
CONVERTER_11
 73
     1
 44
1.20048019207683
  0
MTEXT
  5
3BD
330
71
100
AcDbEntity
  8
1
 62
     3
100
AcDbMText
 10
-60.84480533929175
 20
22.51030110697751
 30
0.0
 40
2.5
 41
0.0
 71
     5
 72
     1
  1
DIN A4
  7
CONVERTER_11
 73
     1
 44
1.20048019207683
  0
MTEXT
  5
3BE
330
71
100
AcDbEntity
  8
1
 62
     2
100
AcDbMText
 10
-49.64480533929174
 20
8.88530110697751
 30
0.0
 40
1.8
 41
0.0
 71
     1
 72
     1
  1
description
  7
CONVERTER_11
 73
     1
 44
1.20048019207683
  0
MTEXT
  5
3BF
330
71
100
AcDbEntity
  8
1
 62
     7
100
AcDbMText
 10
-4.07240307591616
 20
4.63530110697774
 30
0.0
 40
3.0
 41
0.0
 71
     5
 72
     1
  1
AZK 35
  7
CONVERTER_12
 73
     1
 44
1.20048019207683
  0
TEXT
  5
3C0
330
71
100
AcDbEntity
  8
1
 62
     2
100
AcDbText
 10
-62.60949652947815
 20
2.63530110697739
 30
0.0
 40
1.8
  1
1
 41
0.9
  7
CONVERTER_11
100
AcDbText
  0
TEXT
  5
3C1
330
71
100
AcDbEntity
  8
1
 62
     2
100
AcDbText
 10
-77.39854036894965
 20
2.5860524531755
 30
0.0
 40
1.8
  1
1
 41
0.9
  7
CONVERTER_11
100
AcDbText
  0
TEXT
  5
3C2
330
71
100
AcDbEntity
  8
1
 62
     2
100
AcDbText
 10
-86.04480533929166
 20
2.62628389198583
 30
0.0
 40
1.8
  1
page
 41
0.9
  7
CONVERTER_11
100
AcDbText
  0
TEXT
  5
3C3
330
71
100
AcDbEntity
  8
1
 62
     2
100
AcDbText
 10
-67.84480533929184
 20
2.62628389198589
 30
0.0
 40
1.8
  1
of
 41
0.9
  7
CONVERTER_11
100
AcDbText
  0
MTEXT
  5
3C4
330
71
100
AcDbEntity
  8
1
 62
     3
100
AcDbMText
 10
-61.64182318768175
 20
188.1766092622763
 30
0.0
 40
1.8
 41
0.0
 71
     7
 72
     1
  3
Transfer or duplication of this document as well as the utilisation or\Pcommunication of its content are not permitted unless express consent\Pis granted. Violations give rise to claims for damages. All rights reserved\Pin case of patent, utility mo
  1
del or design patent registrations.
  7
CONVERTER_11
 73
     1
 44
0.99639855942377
  0
MTEXT
  5
3C5
330
71
100
AcDbEntity
  8
1
 62
     3
100
AcDbMText
 10
-244.4949330264698
 20
188.1766092622763
 30
0.0
 40
1.8
 41
0.0
 71
     7
 72
     1
  3
Weitergabe sowie Vervielf\U+00e4ltigung dieses Dokuments, Verwertung und \PMitteilung seines Inhalts sind verboten, soweit nicht ausdr\U+00fccklich gestattet. \PZuwiderhandlungen verpflichten zu Schadenersatz. Alle Rechte f\U+00fcr den Fall\Pder Pat
  1
ent-, Gebrauchsmuster- oder Designeintragung vorbehalten.
  7
CONVERTER_11
 73
     1
 44
0.99639855942377
  0
HATCH
  5
3C6
330
71
100
AcDbEntity
  8
1
  6
Continuous
 62
     2
100
AcDbHatch
 10
0.0
 20
0.0
 30
0.0
210
0.0
220
0.0
230
1.0
  2
_USER
 70
     0
 71
     1
 91
        1
 92
        1
 93
       14
 72
     2
 10
-74.80357606336895
 20
10.2057058688991
 40
1.205656168390943
 50
164.9381082228765
 51
195.0618917770948
 73
     1
 72
     2
 10
-74.38444821990615
 20
10.31849623093392
 40
1.639695123939388
 50
195.0618917770897
 51
275.1581447696395
 73
     1
 72
     2
 10
-74.67330431464205
 20
13.51838681415551
 40
4.852596863498143
 50
275.1581447696249
 51
285.9799912583529
 73
     1
 72
     1
 10
-73.33737639752425
 20
8.853304508354697
 11
-73.33737639752425
 21
9.725821515157904
 72
     2
 10
-74.51543143954913
 20
11.6161722343078
 40
2.22738400897274
 50
58.06909105004075
 51
71.55192388186722
 73
     0
 72
     2
 10
-74.09726370588834
 20
10.36262645827061
 40
0.9059297849849176
 50
71.55192388184147
 51
113.372277888129
 73
     0
 72
     2
 10
-74.25370373859036
 20
10.00063443956061
 40
0.5115800601948017
 50
113.3722778881728
 51
151.4785267423048
 73
     0
 72
     2
 10
-73.87634648051005
 20
10.2057058688991
 40
0.9410597353332545
 50
151.4785267422943
 51
208.5214732577331
 73
     0
 72
     2
 10
-74.25370373859036
 20
10.4107772982381
 40
0.5115800601948796
 50
208.5214732576956
 51
246.6277221118009
 73
     0
 72
     2
 10
-74.09726370588834
 20
10.04878527952751
 40
0.9059297849853228
 50
246.627722111871
 51
288.4480761181466
 73
     0
 72
     2
 10
-74.51543143954913
 20
8.795239503490919
 40
2.227384008973476
 50
288.4480761181328
 51
301.9309089499593
 73
     0
 72
     1
 10
-73.33737639752425
 20
10.68559022264081
 11
-73.33737639752425
 21
11.5581072294441
 72
     2
 10
-74.67330431464205
 20
6.893024923643211
 40
4.852596863498063
 50
74.02000874164737
 51
84.84185523037506
 73
     1
 72
     2
 10
-74.38444821990615
 20
10.0929155068642
 40
1.639695123940505
 50
84.84185523036236
 51
164.9381082228865
 73
     1
 97
       14
330
39B
330
2B4
330
36A
330
39A
330
36B
330
36C
330
399
330
398
330
397
330
2B5
330
36D
330
36E
330
36F
330
370
 75
     1
 76
     0
 52
45.0
 41
0.1
 77
     0
 78
     1
 53
45.0
 43
0.0
 44
0.0
 45
-0.0707106781186548
 46
0.0707106781186548
 79
     0
 98
        1
 10
0.0
 20
0.0
  0
HATCH
  5
3C7
330
71
100
AcDbEntity
  8
1
  6
Continuous
 62
     2
100
AcDbHatch
 10
0.0
 20
0.0
 30
0.0
210
0.0
220
0.0
230
1.0
  2
_USER
 70
     0
 71
     1
 91
        1
 92
        1
 93
       14
 72
     2
 10
-74.80357606336895
 20
10.2057058688991
 40
1.205656168390943
 50
164.9381082228765
 51
195.0618917770948
 73
     1
 72
     2
 10
-74.38444821990615
 20
10.31849623093392
 40
1.639695123939388
 50
195.0618917770897
 51
275.1581447696395
 73
     1
 72
     2
 10
-74.67330431464205
 20
13.51838681415551
 40
4.852596863498143
 50
275.1581447696249
 51
285.9799912583529
 73
     1
 72
     1
 10
-73.33737639752425
 20
8.853304508354697
 11
-73.33737639752425
 21
9.725821515157904
 72
     2
 10
-74.51543143954913
 20
11.6161722343078
 40
2.22738400897274
 50
58.06909105004075
 51
71.55192388186722
 73
     0
 72
     2
 10
-74.09726370588834
 20
10.36262645827061
 40
0.9059297849849176
 50
71.55192388184147
 51
113.372277888129
 73
     0
 72
     2
 10
-74.25370373859036
 20
10.00063443956061
 40
0.5115800601948017
 50
113.3722778881728
 51
151.4785267423048
 73
     0
 72
     2
 10
-73.87634648051005
 20
10.2057058688991
 40
0.9410597353332545
 50
151.4785267422943
 51
208.5214732577331
 73
     0
 72
     2
 10
-74.25370373859036
 20
10.4107772982381
 40
0.5115800601948796
 50
208.5214732576956
 51
246.6277221118009
 73
     0
 72
     2
 10
-74.09726370588834
 20
10.04878527952751
 40
0.9059297849853228
 50
246.627722111871
 51
288.4480761181466
 73
     0
 72
     2
 10
-74.51543143954913
 20
8.795239503490919
 40
2.227384008973476
 50
288.4480761181328
 51
301.9309089499593
 73
     0
 72
     1
 10
-73.33737639752425
 20
10.68559022264081
 11
-73.33737639752425
 21
11.5581072294441
 72
     2
 10
-74.67330431464205
 20
6.893024923643211
 40
4.852596863498063
 50
74.02000874164737
 51
84.84185523037506
 73
     1
 72
     2
 10
-74.38444821990615
 20
10.0929155068642
 40
1.639695123940505
 50
84.84185523036236
 51
164.9381082228865
 73
     1
 97
       14
330
39B
330
2B4
330
36A
330
39A
330
36B
330
36C
330
399
330
398
330
397
330
2B5
330
36D
330
36E
330
36F
330
370
 75
     1
 76
     0
 52
45.0
 41
0.1
 77
     0
 78
     1
 53
45.0
 43
0.0
 44
0.0
 45
-0.0707106781186548
 46
0.0707106781186548
 79
     0
 98
        1
 10
0.0
 20
0.0
  0
HATCH
  5
3C8
330
71
100
AcDbEntity
  8
1
  6
Continuous
 62
     2
100
AcDbHatch
 10
0.0
 20
0.0
 30
0.0
210
0.0
220
0.0
230
1.0
  2
_USER
 70
     0
 71
     1
 91
        1
 92
        1
 93
       18
 72
     2
 10
-58.28174674065323
 20
10.0929155068642
 40
1.63969512394022
 50
90.0
 51
164.938108222895
 73
     1
 72
     2
 10
-58.70087458411484
 20
10.2057058688991
 40
1.205656168393002
 50
164.9381082229029
 51
195.0618917770958
 73
     1
 72
     2
 10
-58.28174674065323
 20
10.31849623093392
 40
1.639695123940449
 50
195.0618917771013
 51
275.1581447696762
 73
     1
 72
     2
 10
-58.57060283538905
 20
13.51838681415551
 40
4.85259686349883
 50
275.1581447696364
 51
285.9799912583387
 73
     1
 72
     1
 10
-57.23467491827233
 20
8.8533045083541
 11
-57.23467491827233
 21
9.72582151515742
 72
     2
 10
-58.41272996029625
 20
11.6161722343072
 40
2.227384008972744
 50
58.06909105006029
 51
71.55192388186671
 73
     0
 72
     2
 10
-57.99456222663434
 20
10.36262645827061
 40
0.9059297849852784
 50
71.55192388191868
 51
113.3722778881818
 73
     0
 72
     2
 10
-58.15100225933745
 20
10.00063443956061
 40
0.5115800601960137
 50
113.3722778881545
 51
151.4785267423134
 73
     0
 72
     2
 10
-57.77364500125606
 20
10.2057058688991
 40
0.9410597353348958
 50
151.4785267423306
 51
208.521473257638
 73
     0
 72
     2
 10
-58.15100225933745
 20
10.4107772982381
 40
0.5115800601944169
 50
208.5214732575786
 51
250.6628567805157
 73
     0
 72
     2
 10
-58.00433226123374
 20
9.992822317855214
 40
0.9545230068260953
 50
250.662856780568
 51
270.0
 73
     0
 72
     1
 10
-58.00433226123374
 20
10.94734532468131
 11
-56.90069296166564
 21
10.94734532468131
 72
     1
 10
-56.90069296166564
 20
10.94734532468131
 11
-56.90069296166564
 21
8.678801106993816
 72
     1
 10
-56.90069296166564
 20
8.678801106993816
 11
-55.70790025949793
 21
8.678801106993816
 72
     1
 10
-55.70790025949793
 20
8.678801106993816
 11
-55.70790025949793
 21
10.94734532468131
 72
     1
 10
-55.70790025949793
 20
10.94734532468131
 11
-54.89680122202455
 21
10.94734532468131
 72
     1
 10
-54.89680122202455
 20
10.94734532468131
 11
-54.89680122202455
 21
11.7326106308049
 72
     1
 10
-54.89680122202455
 20
11.7326106308049
 11
-58.28174674065323
 21
11.73261063080442
 97
       18
330
31A
330
319
330
318
330
317
330
31C
330
2B6
330
394
330
375
330
393
330
376
330
392
330
391
330
2B7
330
390
330
38F
330
377
330
378
330
31B
 75
     1
 76
     0
 52
45.0
 41
0.1
 77
     0
 78
     1
 53
45.0
 43
0.0
 44
0.0
 45
-0.0707106781186548
 46
0.0707106781186548
 79
     0
 98
        1
 10
0.0
 20
0.0
  0
HATCH
  5
3C9
330
71
100
AcDbEntity
  8
1
  6
Continuous
 62
     2
100
AcDbHatch
 10
0.0
 20
0.0
 30
0.0
210
0.0
220
0.0
230
1.0
  2
_USER
 70
     0
 71
     1
 91
        1
 92
        1
 93
       18
 72
     2
 10
-58.28174674065323
 20
10.0929155068642
 40
1.63969512394022
 50
90.0
 51
164.938108222895
 73
     1
 72
     2
 10
-58.70087458411484
 20
10.2057058688991
 40
1.205656168393002
 50
164.9381082229029
 51
195.0618917770958
 73
     1
 72
     2
 10
-58.28174674065323
 20
10.31849623093392
 40
1.639695123940449
 50
195.0618917771013
 51
275.1581447696762
 73
     1
 72
     2
 10
-58.57060283538905
 20
13.51838681415551
 40
4.85259686349883
 50
275.1581447696364
 51
285.9799912583387
 73
     1
 72
     1
 10
-57.23467491827233
 20
8.8533045083541
 11
-57.23467491827233
 21
9.72582151515742
 72
     2
 10
-58.41272996029625
 20
11.6161722343072
 40
2.227384008972744
 50
58.06909105006029
 51
71.55192388186671
 73
     0
 72
     2
 10
-57.99456222663434
 20
10.36262645827061
 40
0.9059297849852784
 50
71.55192388191868
 51
113.3722778881818
 73
     0
 72
     2
 10
-58.15100225933745
 20
10.00063443956061
 40
0.5115800601960137
 50
113.3722778881545
 51
151.4785267423134
 73
     0
 72
     2
 10
-57.77364500125606
 20
10.2057058688991
 40
0.9410597353348958
 50
151.4785267423306
 51
208.521473257638
 73
     0
 72
     2
 10
-58.15100225933745
 20
10.4107772982381
 40
0.5115800601944169
 50
208.5214732575786
 51
250.6628567805157
 73
     0
 72
     2
 10
-58.00433226123374
 20
9.992822317855214
 40
0.9545230068260953
 50
250.662856780568
 51
270.0
 73
     0
 72
     1
 10
-58.00433226123374
 20
10.94734532468131
 11
-56.90069296166564
 21
10.94734532468131
 72
     1
 10
-56.90069296166564
 20
10.94734532468131
 11
-56.90069296166564
 21
8.678801106993816
 72
     1
 10
-56.90069296166564
 20
8.678801106993816
 11
-55.70790025949793
 21
8.678801106993816
 72
     1
 10
-55.70790025949793
 20
8.678801106993816
 11
-55.70790025949793
 21
10.94734532468131
 72
     1
 10
-55.70790025949793
 20
10.94734532468131
 11
-54.89680122202455
 21
10.94734532468131
 72
     1
 10
-54.89680122202455
 20
10.94734532468131
 11
-54.89680122202455
 21
11.7326106308049
 72
     1
 10
-54.89680122202455
 20
11.7326106308049
 11
-58.28174674065323
 21
11.73261063080442
 97
       18
330
31A
330
319
330
318
330
317
330
31C
330
2B6
330
394
330
375
330
393
330
376
330
392
330
391
330
2B7
330
390
330
38F
330
377
330
378
330
31B
 75
     1
 76
     0
 52
45.0
 41
0.1
 77
     0
 78
     1
 53
45.0
 43
0.0
 44
0.0
 45
-0.0707106781186548
 46
0.0707106781186548
 79
     0
 98
        1
 10
0.0
 20
0.0
  0
HATCH
  5
3CA
330
71
100
AcDbEntity
  8
1
  6
Continuous
 62
     2
100
AcDbHatch
 10
0.0
 20
0.0
 30
0.0
210
0.0
220
0.0
230
1.0
  2
_USER
 70
     0
 71
     1
 91
        4
 92
        1
 93
        8
 72
     2
 10
-82.38390583734625
 20
14.66755649157732
 40
0.4242446153837989
 50
90.0
 51
180.0
 73
     1
 72
     1
 10
-82.80815045272905
 20
14.66755649157732
 11
-82.80815045272905
 21
9.103045722377104
 72
     2
 10
-82.38390583734625
 20
9.103045722377104
 40
0.4242446153828041
 50
180.0
 51
270.0
 73
     1
 72
     1
 10
-82.38390583734625
 20
8.678801106993816
 11
-76.91059374662944
 21
8.678801106993816
 72
     2
 10
-76.91059374662944
 20
9.103045722377104
 40
0.4242446153832873
 50
270.0
 51
360.0
 73
     1
 72
     1
 10
-76.48634913124556
 20
9.103045722377104
 11
-76.48634913124556
 21
14.66755649157732
 72
     2
 10
-76.91059374662944
 20
14.66755649157732
 40
0.4242446153838841
 50
0.0
 51
90.0
 73
     1
 72
     1
 10
-76.91059374662944
 20
15.09180110696112
 11
-82.38390583734625
 21
15.09180110696112
 97
        8
330
388
330
2E5
330
387
330
2E6
330
37E
330
2E3
330
389
330
2E4
 92
       16
 93
        1
 72
     2
 10
-79.76432018682874
 20
12.34867426322181
 40
0.4709789327785074
 50
0.0
 51
360.0
 73
     1
 97
        1
330
39C
 92
       16
 93
        8
 72
     2
 10
-79.74050517215593
 20
12.34867426322181
 40
0.9118481501444573
 50
295.3740086781765
 51
424.6259913218076
 73
     1
 72
     2
 10
-79.21446247406806
 20
13.45781586318963
 40
0.315716923076792
 50
115.3740086783517
 51
180.0
 73
     0
 72
     1
 10
-79.53017939714485
 20
13.45781586318963
 11
-79.53017939714485
 21
14.06335115169641
 72
     2
 10
-79.21446247406806
 20
14.06335115169641
 40
0.3157169230760746
 50
180.0
 51
269.8110329574541
 73
     0
 72
     2
 10
-79.20884633875804
 20
12.36051620412731
 40
2.018561131933266
 50
269.8110329575858
 51
450.1889670424142
 73
     0
 72
     2
 10
-79.21446247406806
 20
10.65768125655832
 40
0.315716923076792
 50
90.18896704254585
 51
180.0
 73
     0
 72
     1
 10
-79.53017939714485
 20
10.65768125655832
 11
-79.53017939714485
 21
11.2395326632534
 72
     2
 10
-79.21446247406806
 20
11.2395326632534
 40
0.3157169230765344
 50
180.0
 51
244.6259913216483
 73
     0
 97
        8
330
396
330
372
330
31E
330
395
330
373
330
374
330
31D
330
371
 92
       16
 93
       12
 72
     1
 10
-81.79001116059976
 20
9.391356662550706
 11
-80.31417789959013
 21
9.391356662550706
 72
     2
 10
-80.31417789959013
 20
9.707073585627413
 40
0.3157169230767067
 50
270.0
 51
360.0
 73
     1
 72
     1
 10
-79.99846097651354
 20
9.707073585627413
 11
-79.99846097651354
 21
11.23784451715902
 72
     2
 10
-80.31417789959013
 20
11.23784451715902
 40
0.315716923076593
 50
0.0
 51
64.80558935146027
 73
     1
 72
     2
 10
-79.79159345201515
 20
12.34867426322181
 40
0.911897523557621
 50
115.1944106485123
 51
244.805589351472
 73
     0
 72
     2
 10
-80.31417789959013
 20
13.45950400928401
 40
0.3157169230761203
 50
295.1944106485397
 51
360.0
 73
     1
 72
     1
 10
-79.99846097651354
 20
13.45950400928401
 11
-79.99846097651354
 21
14.06352862834452
 72
     2
 10
-80.31417789959013
 20
14.06352862834452
 40
0.315716923076593
 50
0.0
 51
90.0
 73
     1
 72
     1
 10
-80.31417789959013
 20
14.37924555142071
 11
-81.79001116059976
 21
14.37924555142071
 72
     2
 10
-81.79001116059976
 20
14.06352862834452
 40
0.3157169230761898
 50
90.0
 51
180.0
 73
     1
 72
     1
 10
-82.10572808367544
 20
14.06352862834452
 11
-82.10572808367544
 21
9.707073585627413
 72
     2
 10
-81.79001116059976
 20
9.707073585627413
 40
0.3157169230756836
 50
180.0
 51
270.0
 73
     1
 97
       12
330
2EA
330
37B
330
2E9
330
38C
330
2E8
330
38B
330
37C
330
37D
330
2E7
330
38A
330
2E2
330
38D
 75
     1
 76
     0
 52
45.0
 41
0.1
 77
     0
 78
     1
 53
45.0
 43
0.0
 44
0.0
 45
-0.0707106781186548
 46
0.0707106781186548
 79
     0
 98
        1
 10
0.0
 20
0.0
  0
HATCH
  5
3CB
330
71
100
AcDbEntity
  8
1
  6
Continuous
 62
     2
100
AcDbHatch
 10
0.0
 20
0.0
 30
0.0
210
0.0
220
0.0
230
1.0
  2
_USER
 70
     0
 71
     1
 91
        4
 92
        1
 93
        8
 72
     2
 10
-82.38390583734625
 20
14.66755649157732
 40
0.4242446153837989
 50
90.0
 51
180.0
 73
     1
 72
     1
 10
-82.80815045272905
 20
14.66755649157732
 11
-82.80815045272905
 21
9.103045722377104
 72
     2
 10
-82.38390583734625
 20
9.103045722377104
 40
0.4242446153828041
 50
180.0
 51
270.0
 73
     1
 72
     1
 10
-82.38390583734625
 20
8.678801106993816
 11
-76.91059374662944
 21
8.678801106993816
 72
     2
 10
-76.91059374662944
 20
9.103045722377104
 40
0.4242446153832873
 50
270.0
 51
360.0
 73
     1
 72
     1
 10
-76.48634913124556
 20
9.103045722377104
 11
-76.48634913124556
 21
14.66755649157732
 72
     2
 10
-76.91059374662944
 20
14.66755649157732
 40
0.4242446153838841
 50
0.0
 51
90.0
 73
     1
 72
     1
 10
-76.91059374662944
 20
15.09180110696112
 11
-82.38390583734625
 21
15.09180110696112
 97
        8
330
388
330
2E5
330
387
330
2E6
330
37E
330
2E3
330
389
330
2E4
 92
       16
 93
        1
 72
     2
 10
-79.76432018682874
 20
12.34867426322181
 40
0.4709789327785074
 50
0.0
 51
360.0
 73
     1
 97
        1
330
39C
 92
       16
 93
        8
 72
     2
 10
-79.74050517215593
 20
12.34867426322181
 40
0.9118481501444573
 50
295.3740086781765
 51
424.6259913218076
 73
     1
 72
     2
 10
-79.21446247406806
 20
13.45781586318963
 40
0.315716923076792
 50
115.3740086783517
 51
180.0
 73
     0
 72
     1
 10
-79.53017939714485
 20
13.45781586318963
 11
-79.53017939714485
 21
14.06335115169641
 72
     2
 10
-79.21446247406806
 20
14.06335115169641
 40
0.3157169230760746
 50
180.0
 51
269.8110329574541
 73
     0
 72
     2
 10
-79.20884633875804
 20
12.36051620412731
 40
2.018561131933266
 50
269.8110329575858
 51
450.1889670424142
 73
     0
 72
     2
 10
-79.21446247406806
 20
10.65768125655832
 40
0.315716923076792
 50
90.18896704254585
 51
180.0
 73
     0
 72
     1
 10
-79.53017939714485
 20
10.65768125655832
 11
-79.53017939714485
 21
11.2395326632534
 72
     2
 10
-79.21446247406806
 20
11.2395326632534
 40
0.3157169230765344
 50
180.0
 51
244.6259913216483
 73
     0
 97
        8
330
396
330
372
330
31E
330
395
330
373
330
374
330
31D
330
371
 92
       16
 93
       12
 72
     1
 10
-81.79001116059976
 20
9.391356662550706
 11
-80.31417789959013
 21
9.391356662550706
 72
     2
 10
-80.31417789959013
 20
9.707073585627413
 40
0.3157169230767067
 50
270.0
 51
360.0
 73
     1
 72
     1
 10
-79.99846097651354
 20
9.707073585627413
 11
-79.99846097651354
 21
11.23784451715902
 72
     2
 10
-80.31417789959013
 20
11.23784451715902
 40
0.315716923076593
 50
0.0
 51
64.80558935146027
 73
     1
 72
     2
 10
-79.79159345201515
 20
12.34867426322181
 40
0.911897523557621
 50
115.1944106485123
 51
244.805589351472
 73
     0
 72
     2
 10
-80.31417789959013
 20
13.45950400928401
 40
0.3157169230761203
 50
295.1944106485397
 51
360.0
 73
     1
 72
     1
 10
-79.99846097651354
 20
13.45950400928401
 11
-79.99846097651354
 21
14.06352862834452
 72
     2
 10
-80.31417789959013
 20
14.06352862834452
 40
0.315716923076593
 50
0.0
 51
90.0
 73
     1
 72
     1
 10
-80.31417789959013
 20
14.37924555142071
 11
-81.79001116059976
 21
14.37924555142071
 72
     2
 10
-81.79001116059976
 20
14.06352862834452
 40
0.3157169230761898
 50
90.0
 51
180.0
 73
     1
 72
     1
 10
-82.10572808367544
 20
14.06352862834452
 11
-82.10572808367544
 21
9.707073585627413
 72
     2
 10
-81.79001116059976
 20
9.707073585627413
 40
0.3157169230756836
 50
180.0
 51
270.0
 73
     1
 97
       12
330
2EA
330
37B
330
2E9
330
38C
330
2E8
330
38B
330
37C
330
37D
330
2E7
330
38A
330
2E2
330
38D
 75
     1
 76
     0
 52
45.0
 41
0.1
 77
     0
 78
     1
 53
45.0
 43
0.0
 44
0.0
 45
-0.0707106781186548
 46
0.0707106781186548
 79
     0
 98
        1
 10
0.0
 20
0.0
  0
HATCH
  5
3CC
330
71
100
AcDbEntity
  8
1
  6
Continuous
 62
     2
100
AcDbHatch
 10
0.0
 20
0.0
 30
0.0
210
0.0
220
0.0
230
1.0
  2
_USER
 70
     0
 71
     1
 91
        2
 92
        1
 93
       12
 72
     2
 10
-67.70874183335695
 20
13.56489634507342
 40
1.52690476190589
 50
90.0
 51
270.0
 73
     1
 72
     1
 10
-67.70874183335695
 20
12.03799158316811
 11
-64.55842210957596
 21
12.03799158316811
 72
     1
 10
-64.55842210957596
 20
12.03799158316811
 11
-64.55842210957596
 21
12.73600518861061
 72
     1
 10
-64.55842210957596
 20
12.73600518861061
 11
-65.89434993600364
 21
12.73600518861061
 72
     1
 10
-65.89434993600364
 20
12.73600518861061
 11
-65.89434993600364
 21
13.21588954235232
 72
     1
 10
-65.89434993600364
 20
13.21588954235232
 11
-64.55842210957596
 21
13.21588954235232
 72
     1
 10
-64.55842210957596
 20
13.21588954235232
 11
-64.55842210957596
 21
13.91390314779462
 72
     1
 10
-64.55842210957596
 20
13.91390314779462
 11
-65.89434993600364
 21
13.91390314779462
 72
     1
 10
-65.89434993600364
 20
13.91390314779462
 11
-65.89434993600364
 21
14.39378750153633
 72
     1
 10
-65.89434993600364
 20
14.39378750153633
 11
-64.55842210957596
 21
14.39378750153633
 72
     1
 10
-64.55842210957596
 20
14.39378750153633
 11
-64.55842210957596
 21
15.09180110697931
 72
     1
 10
-64.55842210957596
 20
15.09180110697931
 11
-67.70874183335695
 21
15.09180110697931
 97
       12
330
2D9
330
2D3
330
2FA
330
2F9
330
2F8
330
2F7
330
2D4
330
2D5
330
2D6
330
2D7
330
379
330
2D8
 92
       16
 93
        4
 72
     2
 10
-67.29272978684546
 20
13.56489634507342
 40
0.7717997786796724
 50
141.8795802028404
 51
218.120419797156
 73
     1
 72
     2
 10
-67.49246982319175
 20
13.408165166953
 40
0.5179085730134372
 50
218.1204197971511
 51
321.8795802028566
 73
     1
 72
     2
 10
-67.69220985953794
 20
13.56489634507342
 40
0.7717997786796351
 50
321.879580202844
 51
398.1204197971596
 73
     1
 72
     2
 10
-67.49246982319175
 20
13.7216275231939
 40
0.5179085730135266
 50
38.12041979714334
 51
141.8795802028489
 73
     1
 97
        4
330
386
330
385
330
380
330
37F
 75
     1
 76
     0
 52
45.0
 41
0.1
 77
     0
 78
     1
 53
45.0
 43
0.0
 44
0.0
 45
-0.0707106781186548
 46
0.0707106781186548
 79
     0
 98
        1
 10
0.0
 20
0.0
  0
HATCH
  5
3CD
330
71
100
AcDbEntity
  8
1
  6
Continuous
 62
     2
100
AcDbHatch
 10
0.0
 20
0.0
 30
0.0
210
0.0
220
0.0
230
1.0
  2
_USER
 70
     0
 71
     1
 91
        2
 92
        1
 93
       12
 72
     2
 10
-67.70874183335695
 20
13.56489634507342
 40
1.52690476190589
 50
90.0
 51
270.0
 73
     1
 72
     1
 10
-67.70874183335695
 20
12.03799158316811
 11
-64.55842210957596
 21
12.03799158316811
 72
     1
 10
-64.55842210957596
 20
12.03799158316811
 11
-64.55842210957596
 21
12.73600518861061
 72
     1
 10
-64.55842210957596
 20
12.73600518861061
 11
-65.89434993600364
 21
12.73600518861061
 72
     1
 10
-65.89434993600364
 20
12.73600518861061
 11
-65.89434993600364
 21
13.21588954235232
 72
     1
 10
-65.89434993600364
 20
13.21588954235232
 11
-64.55842210957596
 21
13.21588954235232
 72
     1
 10
-64.55842210957596
 20
13.21588954235232
 11
-64.55842210957596
 21
13.91390314779462
 72
     1
 10
-64.55842210957596
 20
13.91390314779462
 11
-65.89434993600364
 21
13.91390314779462
 72
     1
 10
-65.89434993600364
 20
13.91390314779462
 11
-65.89434993600364
 21
14.39378750153633
 72
     1
 10
-65.89434993600364
 20
14.39378750153633
 11
-64.55842210957596
 21
14.39378750153633
 72
     1
 10
-64.55842210957596
 20
14.39378750153633
 11
-64.55842210957596
 21
15.09180110697931
 72
     1
 10
-64.55842210957596
 20
15.09180110697931
 11
-67.70874183335695
 21
15.09180110697931
 97
       12
330
2D9
330
2D3
330
2FA
330
2F9
330
2F8
330
2F7
330
2D4
330
2D5
330
2D6
330
2D7
330
379
330
2D8
 92
       16
 93
        4
 72
     2
 10
-67.29272978684546
 20
13.56489634507342
 40
0.7717997786796724
 50
141.8795802028404
 51
218.120419797156
 73
     1
 72
     2
 10
-67.49246982319175
 20
13.408165166953
 40
0.5179085730134372
 50
218.1204197971511
 51
321.8795802028566
 73
     1
 72
     2
 10
-67.69220985953794
 20
13.56489634507342
 40
0.7717997786796351
 50
321.879580202844
 51
398.1204197971596
 73
     1
 72
     2
 10
-67.49246982319175
 20
13.7216275231939
 40
0.5179085730135266
 50
38.12041979714334
 51
141.8795802028489
 73
     1
 97
        4
330
386
330
385
330
380
330
37F
 75
     1
 76
     0
 52
45.0
 41
0.1
 77
     0
 78
     1
 53
45.0
 43
0.0
 44
0.0
 45
-0.0707106781186548
 46
0.0707106781186548
 79
     0
 98
        1
 10
0.0
 20
0.0
  0
HATCH
  5
3CE
330
71
100
AcDbEntity
  8
1
  6
Continuous
 62
     2
100
AcDbHatch
 10
0.0
 20
0.0
 30
0.0
210
0.0
220
0.0
230
1.0
  2
_USER
 70
     0
 71
     1
 91
        2
 92
        1
 93
        4
 72
     2
 10
-71.73435719581855
 20
10.2057058688991
 40
1.45803408365149
 50
117.5481481756624
 51
242.4518518243375
 73
     1
 72
     2
 10
-71.45341730398525
 20
10.74428087920241
 40
2.065479772208512
 50
242.4518518243403
 51
297.548148175687
 73
     1
 72
     2
 10
-71.17247741215195
 20
10.2057058688991
 40
1.458034083652001
 50
297.5481481757011
 51
422.451851824299
 73
     1
 72
     2
 10
-71.45341730398525
 20
9.667130858596309
 40
2.065479772208566
 50
62.45185182430634
 51
117.5481481756664
 73
     1
 97
        4
330
384
330
381
330
383
330
382
 92
       16
 93
        4
 72
     2
 10
-71.45341730398525
 20
10.36243704701961
 40
0.5179085730133032
 50
38.1204197971475
 51
141.8795802028583
 73
     1
 72
     2
 10
-71.25367726763915
 20
10.2057058688991
 40
0.7717997786794665
 50
141.879580202836
 51
218.1204197971686
 73
     1
 72
     2
 10
-71.45341730398525
 20
10.0489746907791
 40
0.5179085730137332
 50
218.1204197971929
 51
321.8795802028013
 73
     1
 72
     2
 10
-71.65315734033166
 20
10.2057058688991
 40
0.7717997786796936
 50
321.8795802028419
 51
398.1204197971536
 73
     1
 97
        4
330
367
330
368
330
369
330
366
 75
     1
 76
     0
 52
45.0
 41
0.1
 77
     0
 78
     1
 53
45.0
 43
0.0
 44
0.0
 45
-0.0707106781186548
 46
0.0707106781186548
 79
     0
 98
        1
 10
0.0
 20
0.0
  0
HATCH
  5
3CF
330
71
100
AcDbEntity
  8
1
  6
Continuous
 62
     2
100
AcDbHatch
 10
0.0
 20
0.0
 30
0.0
210
0.0
220
0.0
230
1.0
  2
_USER
 70
     0
 71
     1
 91
        2
 92
        1
 93
        4
 72
     2
 10
-71.73435719581855
 20
10.2057058688991
 40
1.45803408365149
 50
117.5481481756624
 51
242.4518518243375
 73
     1
 72
     2
 10
-71.45341730398525
 20
10.74428087920241
 40
2.065479772208512
 50
242.4518518243403
 51
297.548148175687
 73
     1
 72
     2
 10
-71.17247741215195
 20
10.2057058688991
 40
1.458034083652001
 50
297.5481481757011
 51
422.451851824299
 73
     1
 72
     2
 10
-71.45341730398525
 20
9.667130858596309
 40
2.065479772208566
 50
62.45185182430634
 51
117.5481481756664
 73
     1
 97
        4
330
384
330
381
330
383
330
382
 92
       16
 93
        4
 72
     2
 10
-71.45341730398525
 20
10.36243704701961
 40
0.5179085730133032
 50
38.1204197971475
 51
141.8795802028583
 73
     1
 72
     2
 10
-71.25367726763915
 20
10.2057058688991
 40
0.7717997786794665
 50
141.879580202836
 51
218.1204197971686
 73
     1
 72
     2
 10
-71.45341730398525
 20
10.0489746907791
 40
0.5179085730137332
 50
218.1204197971929
 51
321.8795802028013
 73
     1
 72
     2
 10
-71.65315734033166
 20
10.2057058688991
 40
0.7717997786796936
 50
321.8795802028419
 51
398.1204197971536
 73
     1
 97
        4
330
367
330
368
330
369
330
366
 75
     1
 76
     0
 52
45.0
 41
0.1
 77
     0
 78
     1
 53
45.0
 43
0.0
 44
0.0
 45
-0.0707106781186548
 46
0.0707106781186548
 79
     0
 98
        1
 10
0.0
 20
0.0
  0
HATCH
  5
3D0
330
71
100
AcDbEntity
  8
1
  6
Continuous
 62
     2
100
AcDbHatch
 10
0.0
 20
0.0
 30
0.0
210
0.0
220
0.0
230
1.0
  2
_USER
 70
     0
 71
     1
 91
        2
 92
        1
 93
        6
 72
     1
 10
-76.00923205037876
 20
15.09180110697931
 11
-76.00923205037876
 21
12.03799158316811
 72
     1
 10
-76.00923205037876
 20
12.03799158316811
 11
-74.76872764012464
 21
12.03799158316811
 72
     1
 10
-74.76872764012464
 20
12.03799158316811
 11
-74.76872764012464
 21
12.98106982431192
 72
     1
 10
-74.76872764012464
 20
12.98106982431192
 11
-74.00996005234435
 21
12.98106982431192
 72
     2
 10
-74.00996005234435
 20
14.03643546564563
 40
1.05536564133371
 50
270.0
 51
450.0
 73
     1
 72
     1
 10
-74.00996005234435
 20
15.09180110697931
 11
-76.00923205037876
 21
15.09180110697931
 97
        6
330
38E
330
2EB
330
2E1
330
2E0
330
2ED
330
2EC
 92
       16
 93
        4
 72
     1
 10
-74.45143257858274
 20
14.42869526153921
 11
-74.76872764012464
 21
14.42869526153921
 72
     1
 10
-74.76872764012464
 20
14.42869526153921
 11
-74.76872764012464
 21
13.722967612197
 72
     1
 10
-74.76872764012464
 20
13.722967612197
 11
-74.45143257858274
 21
13.722967612197
 72
     2
 10
-74.45143257858274
 20
14.07583143686812
 40
0.35286382467112
 50
270.0
 51
450.0
 73
     1
 97
        4
330
2EE
330
2DF
330
2EF
330
37A
 75
     1
 76
     0
 52
45.0
 41
0.1
 77
     0
 78
     1
 53
45.0
 43
0.0
 44
0.0
 45
-0.0707106781186548
 46
0.0707106781186548
 79
     0
 98
        1
 10
0.0
 20
0.0
  0
HATCH
  5
3D1
330
71
100
AcDbEntity
  8
1
  6
Continuous
 62
     2
100
AcDbHatch
 10
0.0
 20
0.0
 30
0.0
210
0.0
220
0.0
230
1.0
  2
_USER
 70
     0
 71
     1
 91
        2
 92
        1
 93
        6
 72
     1
 10
-76.00923205037876
 20
15.09180110697931
 11
-76.00923205037876
 21
12.03799158316811
 72
     1
 10
-76.00923205037876
 20
12.03799158316811
 11
-74.76872764012464
 21
12.03799158316811
 72
     1
 10
-74.76872764012464
 20
12.03799158316811
 11
-74.76872764012464
 21
12.98106982431192
 72
     1
 10
-74.76872764012464
 20
12.98106982431192
 11
-74.00996005234435
 21
12.98106982431192
 72
     2
 10
-74.00996005234435
 20
14.03643546564563
 40
1.05536564133371
 50
270.0
 51
450.0
 73
     1
 72
     1
 10
-74.00996005234435
 20
15.09180110697931
 11
-76.00923205037876
 21
15.09180110697931
 97
        6
330
38E
330
2EB
330
2E1
330
2E0
330
2ED
330
2EC
 92
       16
 93
        4
 72
     1
 10
-74.45143257858274
 20
14.42869526153921
 11
-74.76872764012464
 21
14.42869526153921
 72
     1
 10
-74.76872764012464
 20
14.42869526153921
 11
-74.76872764012464
 21
13.722967612197
 72
     1
 10
-74.76872764012464
 20
13.722967612197
 11
-74.45143257858274
 21
13.722967612197
 72
     2
 10
-74.45143257858274
 20
14.07583143686812
 40
0.35286382467112
 50
270.0
 51
450.0
 73
     1
 97
        4
330
2EE
330
2DF
330
2EF
330
37A
 75
     1
 76
     0
 52
45.0
 41
0.1
 77
     0
 78
     1
 53
45.0
 43
0.0
 44
0.0
 45
-0.0707106781186548
 46
0.0707106781186548
 79
     0
 98
        1
 10
0.0
 20
0.0
  0
HATCH
  5
3D2
330
71
100
AcDbEntity
  8
1
  6
Continuous
 62
     2
100
AcDbHatch
 10
0.0
 20
0.0
 30
0.0
210
0.0
220
0.0
230
1.0
  2
_USER
 70
     0
 71
     1
 91
        1
 92
        1
 93
       12
 72
     1
 10
-56.39494885594556
 20
15.09180110697931
 11
-54.99222463819834
 21
15.09180110697931
 72
     1
 10
-54.99222463819834
 20
15.09180110697931
 11
-56.29475426896485
 21
13.61885057694311
 72
     1
 10
-56.29475426896485
 20
13.61885057694311
 11
-54.89680122202455
 21
12.03799158316811
 72
     1
 10
-54.89680122202455
 20
12.03799158316811
 11
-56.29952543977285
 21
12.03799158316811
 72
     1
 10
-56.29952543977285
 20
12.03799158316811
 11
-56.99611637783835
 21
12.82572336846183
 72
     1
 10
-56.99611637783835
 20
12.82572336846183
 11
-57.69270731590404
 21
12.03799158316811
 72
     1
 10
-57.69270731590404
 20
12.03799158316811
 11
-59.09543153365226
 21
12.03799158316811
 72
     1
 10
-59.09543153365226
 20
12.03799158316811
 11
-57.69747848671196
 21
13.61885057694311
 72
     1
 10
-57.69747848671196
 20
13.61885057694311
 11
-59.00000811747944
 21
15.09180110697931
 72
     1
 10
-59.00000811747944
 20
15.09180110697931
 11
-57.59728389973014
 21
15.09180110697931
 72
     1
 10
-57.59728389973014
 20
15.09180110697931
 11
-56.99611637783835
 21
14.41197778542382
 72
     1
 10
-56.99611637783835
 20
14.41197778542382
 11
-56.39494885594556
 21
15.09180110697931
 97
       12
330
2BA
330
313
330
312
330
311
330
310
330
2BB
330
2BC
330
2B8
330
2B9
330
316
330
315
330
314
 75
     1
 76
     0
 52
45.0
 41
0.1
 77
     0
 78
     1
 53
45.0
 43
0.0
 44
0.0
 45
-0.0707106781186548
 46
0.0707106781186548
 79
     0
 98
        1
 10
0.0
 20
0.0
  0
HATCH
  5
3D3
330
71
100
AcDbEntity
  8
1
  6
Continuous
 62
     2
100
AcDbHatch
 10
0.0
 20
0.0
 30
0.0
210
0.0
220
0.0
230
1.0
  2
_USER
 70
     0
 71
     1
 91
        1
 92
        1
 93
       12
 72
     1
 10
-56.39494885594556
 20
15.09180110697931
 11
-54.99222463819834
 21
15.09180110697931
 72
     1
 10
-54.99222463819834
 20
15.09180110697931
 11
-56.29475426896485
 21
13.61885057694311
 72
     1
 10
-56.29475426896485
 20
13.61885057694311
 11
-54.89680122202455
 21
12.03799158316811
 72
     1
 10
-54.89680122202455
 20
12.03799158316811
 11
-56.29952543977285
 21
12.03799158316811
 72
     1
 10
-56.29952543977285
 20
12.03799158316811
 11
-56.99611637783835
 21
12.82572336846183
 72
     1
 10
-56.99611637783835
 20
12.82572336846183
 11
-57.69270731590404
 21
12.03799158316811
 72
     1
 10
-57.69270731590404
 20
12.03799158316811
 11
-59.09543153365226
 21
12.03799158316811
 72
     1
 10
-59.09543153365226
 20
12.03799158316811
 11
-57.69747848671196
 21
13.61885057694311
 72
     1
 10
-57.69747848671196
 20
13.61885057694311
 11
-59.00000811747944
 21
15.09180110697931
 72
     1
 10
-59.00000811747944
 20
15.09180110697931
 11
-57.59728389973014
 21
15.09180110697931
 72
     1
 10
-57.59728389973014
 20
15.09180110697931
 11
-56.99611637783835
 21
14.41197778542382
 72
     1
 10
-56.99611637783835
 20
14.41197778542382
 11
-56.39494885594556
 21
15.09180110697931
 97
       12
330
2BA
330
313
330
312
330
311
330
310
330
2BB
330
2BC
330
2B8
330
2B9
330
316
330
315
330
314
 75
     1
 76
     0
 52
45.0
 41
0.1
 77
     0
 78
     1
 53
45.0
 43
0.0
 44
0.0
 45
-0.0707106781186548
 46
0.0707106781186548
 79
     0
 98
        1
 10
0.0
 20
0.0
  0
HATCH
  5
3D4
330
71
100
AcDbEntity
  8
1
  6
Continuous
 62
     2
100
AcDbHatch
 10
0.0
 20
0.0
 30
0.0
210
0.0
220
0.0
230
1.0
  2
_USER
 70
     0
 71
     1
 91
        1
 92
        1
 93
        4
 72
     1
 10
-59.21471080386914
 20
15.09180110697931
 11
-59.21471080386914
 21
12.03799158316811
 72
     1
 10
-59.21471080386914
 20
12.03799158316811
 11
-60.45521521412203
 21
12.03799158316811
 72
     1
 10
-60.45521521412203
 20
12.03799158316811
 11
-60.45521521412203
 21
15.09180110697931
 72
     1
 10
-60.45521521412203
 20
15.09180110697931
 11
-59.21471080386914
 21
15.09180110697931
 97
        4
330
30E
330
2BD
330
30D
330
30F
 75
     1
 76
     0
 52
45.0
 41
0.1
 77
     0
 78
     1
 53
45.0
 43
0.0
 44
0.0
 45
-0.0707106781186548
 46
0.0707106781186548
 79
     0
 98
        1
 10
0.0
 20
0.0
  0
HATCH
  5
3D5
330
71
100
AcDbEntity
  8
1
  6
Continuous
 62
     2
100
AcDbHatch
 10
0.0
 20
0.0
 30
0.0
210
0.0
220
0.0
230
1.0
  2
_USER
 70
     0
 71
     1
 91
        1
 92
        1
 93
        4
 72
     1
 10
-59.21471080386914
 20
15.09180110697931
 11
-59.21471080386914
 21
12.03799158316811
 72
     1
 10
-59.21471080386914
 20
12.03799158316811
 11
-60.45521521412203
 21
12.03799158316811
 72
     1
 10
-60.45521521412203
 20
12.03799158316811
 11
-60.45521521412203
 21
15.09180110697931
 72
     1
 10
-60.45521521412203
 20
15.09180110697931
 11
-59.21471080386914
 21
15.09180110697931
 97
        4
330
30E
330
2BD
330
30D
330
30F
 75
     1
 76
     0
 52
45.0
 41
0.1
 77
     0
 78
     1
 53
45.0
 43
0.0
 44
0.0
 45
-0.0707106781186548
 46
0.0707106781186548
 79
     0
 98
        1
 10
0.0
 20
0.0
  0
HATCH
  5
3D6
330
71
100
AcDbEntity
  8
1
  6
Continuous
 62
     2
100
AcDbHatch
 10
0.0
 20
0.0
 30
0.0
210
0.0
220
0.0
230
1.0
  2
_USER
 70
     0
 71
     1
 91
        2
 92
        1
 93
        8
 72
     1
 10
-59.60515480740114
 20
8.678801106993816
 11
-60.84565921765505
 21
8.678801106993816
 72
     1
 10
-60.84565921765505
 20
8.678801106993816
 11
-61.05713927113084
 21
9.219761651211698
 72
     1
 10
-61.05713927113084
 20
9.219761651211698
 11
-62.18958084780465
 21
9.219761651211698
 72
     1
 10
-62.18958084780465
 20
9.219761651211698
 11
-62.40106090128046
 21
8.678801106993816
 72
     1
 10
-62.40106090128046
 20
8.678801106993816
 11
-63.64156531153344
 21
8.678801106993816
 72
     1
 10
-63.64156531153344
 20
8.678801106993816
 11
-62.24361226459413
 21
11.7326106308049
 72
     1
 10
-62.24361226459413
 20
11.7326106308049
 11
-61.00310785434144
 21
11.7326106308049
 72
     1
 10
-61.00310785434144
 20
11.7326106308049
 11
-59.60515480740114
 21
8.678801106993816
 97
        8
330
309
330
2C3
330
308
330
30B
330
2C0
330
30A
330
2C1
330
2C2
 92
       16
 93
        3
 72
     1
 10
-61.92352529665965
 20
9.9003249165183
 11
-61.32319482227715
 21
9.9003249165183
 72
     1
 10
-61.32319482227715
 20
9.9003249165183
 11
-61.62336005946725
 21
10.668139882505
 72
     1
 10
-61.62336005946725
 20
10.668139882505
 11
-61.92352529665965
 21
9.9003249165183
 97
        3
330
2BF
330
2BE
330
30C
 75
     1
 76
     0
 52
45.0
 41
0.1
 77
     0
 78
     1
 53
45.0
 43
0.0
 44
0.0
 45
-0.0707106781186548
 46
0.0707106781186548
 79
     0
 98
        1
 10
0.0
 20
0.0
  0
HATCH
  5
3D7
330
71
100
AcDbEntity
  8
1
  6
Continuous
 62
     2
100
AcDbHatch
 10
0.0
 20
0.0
 30
0.0
210
0.0
220
0.0
230
1.0
  2
_USER
 70
     0
 71
     1
 91
        2
 92
        1
 93
        8
 72
     1
 10
-59.60515480740114
 20
8.678801106993816
 11
-60.84565921765505
 21
8.678801106993816
 72
     1
 10
-60.84565921765505
 20
8.678801106993816
 11
-61.05713927113084
 21
9.219761651211698
 72
     1
 10
-61.05713927113084
 20
9.219761651211698
 11
-62.18958084780465
 21
9.219761651211698
 72
     1
 10
-62.18958084780465
 20
9.219761651211698
 11
-62.40106090128046
 21
8.678801106993816
 72
     1
 10
-62.40106090128046
 20
8.678801106993816
 11
-63.64156531153344
 21
8.678801106993816
 72
     1
 10
-63.64156531153344
 20
8.678801106993816
 11
-62.24361226459413
 21
11.7326106308049
 72
     1
 10
-62.24361226459413
 20
11.7326106308049
 11
-61.00310785434144
 21
11.7326106308049
 72
     1
 10
-61.00310785434144
 20
11.7326106308049
 11
-59.60515480740114
 21
8.678801106993816
 97
        8
330
309
330
2C3
330
308
330
30B
330
2C0
330
30A
330
2C1
330
2C2
 92
       16
 93
        3
 72
     1
 10
-61.92352529665965
 20
9.9003249165183
 11
-61.32319482227715
 21
9.9003249165183
 72
     1
 10
-61.32319482227715
 20
9.9003249165183
 11
-61.62336005946725
 21
10.668139882505
 72
     1
 10
-61.62336005946725
 20
10.668139882505
 11
-61.92352529665965
 21
9.9003249165183
 97
        3
330
2BF
330
2BE
330
30C
 75
     1
 76
     0
 52
45.0
 41
0.1
 77
     0
 78
     1
 53
45.0
 43
0.0
 44
0.0
 45
-0.0707106781186548
 46
0.0707106781186548
 79
     0
 98
        1
 10
0.0
 20
0.0
  0
HATCH
  5
3D8
330
71
100
AcDbEntity
  8
1
  6
Continuous
 62
     2
100
AcDbHatch
 10
0.0
 20
0.0
 30
0.0
210
0.0
220
0.0
230
1.0
  2
_USER
 70
     0
 71
     1
 91
        1
 92
        1
 93
        8
 72
     1
 10
-65.79907745071566
 20
11.7326106308049
 11
-65.79907745071566
 21
10.94734532468131
 72
     1
 10
-65.79907745071566
 20
10.94734532468131
 11
-64.98797841324105
 21
10.94734532468131
 72
     1
 10
-64.98797841324105
 20
10.94734532468131
 11
-64.98797841324105
 21
8.678801106993816
 72
     1
 10
-64.98797841324105
 20
8.678801106993816
 11
-63.79518571107454
 21
8.678801106993816
 72
     1
 10
-63.79518571107454
 20
8.678801106993816
 11
-63.79518571107454
 21
10.94734532468131
 72
     1
 10
-63.79518571107454
 20
10.94734532468131
 11
-62.98408667360204
 21
10.94734532468131
 72
     1
 10
-62.98408667360204
 20
10.94734532468131
 11
-62.98408667360204
 21
11.7326106308049
 72
     1
 10
-62.98408667360204
 20
11.7326106308049
 11
-65.79907745071566
 21
11.7326106308049
 97
        8
330
305
330
304
330
303
330
2C4
330
2C5
330
307
330
2C6
330
306
 75
     1
 76
     0
 52
45.0
 41
0.1
 77
     0
 78
     1
 53
45.0
 43
0.0
 44
0.0
 45
-0.0707106781186548
 46
0.0707106781186548
 79
     0
 98
        1
 10
0.0
 20
0.0
  0
HATCH
  5
3D9
330
71
100
AcDbEntity
  8
1
  6
Continuous
 62
     2
100
AcDbHatch
 10
0.0
 20
0.0
 30
0.0
210
0.0
220
0.0
230
1.0
  2
_USER
 70
     0
 71
     1
 91
        1
 92
        1
 93
        8
 72
     1
 10
-65.79907745071566
 20
11.7326106308049
 11
-65.79907745071566
 21
10.94734532468131
 72
     1
 10
-65.79907745071566
 20
10.94734532468131
 11
-64.98797841324105
 21
10.94734532468131
 72
     1
 10
-64.98797841324105
 20
10.94734532468131
 11
-64.98797841324105
 21
8.678801106993816
 72
     1
 10
-64.98797841324105
 20
8.678801106993816
 11
-63.79518571107454
 21
8.678801106993816
 72
     1
 10
-63.79518571107454
 20
8.678801106993816
 11
-63.79518571107454
 21
10.94734532468131
 72
     1
 10
-63.79518571107454
 20
10.94734532468131
 11
-62.98408667360204
 21
10.94734532468131
 72
     1
 10
-62.98408667360204
 20
10.94734532468131
 11
-62.98408667360204
 21
11.7326106308049
 72
     1
 10
-62.98408667360204
 20
11.7326106308049
 11
-65.79907745071566
 21
11.7326106308049
 97
        8
330
305
330
304
330
303
330
2C4
330
2C5
330
307
330
2C6
330
306
 75
     1
 76
     0
 52
45.0
 41
0.1
 77
     0
 78
     1
 53
45.0
 43
0.0
 44
0.0
 45
-0.0707106781186548
 46
0.0707106781186548
 79
     0
 98
        1
 10
0.0
 20
0.0
  0
HATCH
  5
3DA
330
71
100
AcDbEntity
  8
1
  6
Continuous
 62
     2
100
AcDbHatch
 10
0.0
 20
0.0
 30
0.0
210
0.0
220
0.0
230
1.0
  2
_USER
 70
     0
 71
     1
 91
        1
 92
        1
 93
       10
 72
     1
 10
-63.12707086697654
 20
15.09180110697931
 11
-64.31986356914305
 21
15.09180110697931
 72
     1
 10
-64.31986356914305
 20
15.09180110697931
 11
-64.31986356914305
 21
12.03799158316811
 72
     1
 10
-64.31986356914305
 20
12.03799158316811
 11
-63.12707086697654
 21
12.03799158316811
 72
     1
 10
-63.12707086697654
 20
12.03799158316811
 11
-63.12707086697654
 21
13.34676709337281
 72
     1
 10
-63.12707086697654
 20
13.34676709337281
 11
-61.88656645672253
 21
12.03799158316811
 72
     1
 10
-61.88656645672253
 20
12.03799158316811
 11
-60.69377375455593
 21
12.03799158316811
 72
     1
 10
-60.69377375455593
 20
12.03799158316811
 11
-60.69377375455593
 21
15.09180110697931
 72
     1
 10
-60.69377375455593
 20
15.09180110697931
 11
-61.88656645672253
 21
15.09180110697931
 72
     1
 10
-61.88656645672253
 20
15.09180110697931
 11
-61.88656645672253
 21
13.78302559677413
 72
     1
 10
-61.88656645672253
 20
13.78302559677413
 11
-63.12707086697654
 21
15.09180110697931
 97
       10
330
2FF
330
2C9
330
2CA
330
2CB
330
2CC
330
302
330
2C7
330
301
330
300
330
2C8
 75
     1
 76
     0
 52
45.0
 41
0.1
 77
     0
 78
     1
 53
45.0
 43
0.0
 44
0.0
 45
-0.0707106781186548
 46
0.0707106781186548
 79
     0
 98
        1
 10
0.0
 20
0.0
  0
HATCH
  5
3DB
330
71
100
AcDbEntity
  8
1
  6
Continuous
 62
     2
100
AcDbHatch
 10
0.0
 20
0.0
 30
0.0
210
0.0
220
0.0
230
1.0
  2
_USER
 70
     0
 71
     1
 91
        1
 92
        1
 93
       10
 72
     1
 10
-63.12707086697654
 20
15.09180110697931
 11
-64.31986356914305
 21
15.09180110697931
 72
     1
 10
-64.31986356914305
 20
15.09180110697931
 11
-64.31986356914305
 21
12.03799158316811
 72
     1
 10
-64.31986356914305
 20
12.03799158316811
 11
-63.12707086697654
 21
12.03799158316811
 72
     1
 10
-63.12707086697654
 20
12.03799158316811
 11
-63.12707086697654
 21
13.34676709337281
 72
     1
 10
-63.12707086697654
 20
13.34676709337281
 11
-61.88656645672253
 21
12.03799158316811
 72
     1
 10
-61.88656645672253
 20
12.03799158316811
 11
-60.69377375455593
 21
12.03799158316811
 72
     1
 10
-60.69377375455593
 20
12.03799158316811
 11
-60.69377375455593
 21
15.09180110697931
 72
     1
 10
-60.69377375455593
 20
15.09180110697931
 11
-61.88656645672253
 21
15.09180110697931
 72
     1
 10
-61.88656645672253
 20
15.09180110697931
 11
-61.88656645672253
 21
13.78302559677413
 72
     1
 10
-61.88656645672253
 20
13.78302559677413
 11
-63.12707086697654
 21
15.09180110697931
 97
       10
330
2FF
330
2C9
330
2CA
330
2CB
330
2CC
330
302
330
2C7
330
301
330
300
330
2C8
 75
     1
 76
     0
 52
45.0
 41
0.1
 77
     0
 78
     1
 53
45.0
 43
0.0
 44
0.0
 45
-0.0707106781186548
 46
0.0707106781186548
 79
     0
 98
        1
 10
0.0
 20
0.0
  0
HATCH
  5
3DC
330
71
100
AcDbEntity
  8
1
  6
Continuous
 62
     2
100
AcDbHatch
 10
0.0
 20
0.0
 30
0.0
210
0.0
220
0.0
230
1.0
  2
_USER
 70
     0
 71
     1
 91
        1
 92
        1
 93
       10
 72
     1
 10
-68.37550968739515
 20
11.7326106308049
 11
-69.56830238956275
 21
11.7326106308049
 72
     1
 10
-69.56830238956275
 20
11.7326106308049
 11
-69.56830238956275
 21
8.678801106993816
 72
     1
 10
-69.56830238956275
 20
8.678801106993816
 11
-68.37550968739515
 21
8.678801106993816
 72
     1
 10
-68.37550968739515
 20
8.678801106993816
 11
-68.37550968739515
 21
9.9875766171984
 72
     1
 10
-68.37550968739515
 20
9.9875766171984
 11
-67.13500527714226
 21
8.678801106993816
 72
     1
 10
-67.13500527714226
 20
8.678801106993816
 11
-65.94221257497585
 21
8.678801106993816
 72
     1
 10
-65.94221257497585
 20
8.678801106993816
 11
-65.94221257497585
 21
11.7326106308049
 72
     1
 10
-65.94221257497585
 20
11.7326106308049
 11
-67.13500527714226
 21
11.7326106308049
 72
     1
 10
-67.13500527714226
 20
11.7326106308049
 11
-67.13500527714226
 21
10.4238351205998
 72
     1
 10
-67.13500527714226
 20
10.4238351205998
 11
-68.37550968739515
 21
11.7326106308049
 97
       10
330
2CE
330
2CF
330
2D0
330
2FC
330
2D1
330
2D2
330
2FB
330
2FE
330
2FD
330
2CD
 75
     1
 76
     0
 52
45.0
 41
0.1
 77
     0
 78
     1
 53
45.0
 43
0.0
 44
0.0
 45
-0.0707106781186548
 46
0.0707106781186548
 79
     0
 98
        1
 10
0.0
 20
0.0
  0
HATCH
  5
3DD
330
71
100
AcDbEntity
  8
1
  6
Continuous
 62
     2
100
AcDbHatch
 10
0.0
 20
0.0
 30
0.0
210
0.0
220
0.0
230
1.0
  2
_USER
 70
     0
 71
     1
 91
        1
 92
        1
 93
       10
 72
     1
 10
-68.37550968739515
 20
11.7326106308049
 11
-69.56830238956275
 21
11.7326106308049
 72
     1
 10
-69.56830238956275
 20
11.7326106308049
 11
-69.56830238956275
 21
8.678801106993816
 72
     1
 10
-69.56830238956275
 20
8.678801106993816
 11
-68.37550968739515
 21
8.678801106993816
 72
     1
 10
-68.37550968739515
 20
8.678801106993816
 11
-68.37550968739515
 21
9.9875766171984
 72
     1
 10
-68.37550968739515
 20
9.9875766171984
 11
-67.13500527714226
 21
8.678801106993816
 72
     1
 10
-67.13500527714226
 20
8.678801106993816
 11
-65.94221257497585
 21
8.678801106993816
 72
     1
 10
-65.94221257497585
 20
8.678801106993816
 11
-65.94221257497585
 21
11.7326106308049
 72
     1
 10
-65.94221257497585
 20
11.7326106308049
 11
-67.13500527714226
 21
11.7326106308049
 72
     1
 10
-67.13500527714226
 20
11.7326106308049
 11
-67.13500527714226
 21
10.4238351205998
 72
     1
 10
-67.13500527714226
 20
10.4238351205998
 11
-68.37550968739515
 21
11.7326106308049
 97
       10
330
2CE
330
2CF
330
2D0
330
2FC
330
2D1
330
2D2
330
2FB
330
2FE
330
2FD
330
2CD
 75
     1
 76
     0
 52
45.0
 41
0.1
 77
     0
 78
     1
 53
45.0
 43
0.0
 44
0.0
 45
-0.0707106781186548
 46
0.0707106781186548
 79
     0
 98
        1
 10
0.0
 20
0.0
  0
HATCH
  5
3DE
330
71
100
AcDbEntity
  8
1
  6
Continuous
 62
     2
100
AcDbHatch
 10
0.0
 20
0.0
 30
0.0
210
0.0
220
0.0
230
1.0
  2
_USER
 70
     0
 71
     1
 91
        1
 92
        1
 93
       12
 72
     1
 10
-69.37730462633056
 20
15.09180110697931
 11
-69.37730462633056
 21
12.03799158316811
 72
     1
 10
-69.37730462633056
 20
12.03799158316811
 11
-70.57009732849696
 21
12.03799158316811
 72
     1
 10
-70.57009732849696
 20
12.03799158316811
 11
-70.57009732849696
 21
13.17226369201193
 72
     1
 10
-70.57009732849696
 20
13.17226369201193
 11
-71.61975490640444
 21
13.17226369201193
 72
     1
 10
-71.61975490640444
 20
13.17226369201193
 11
-71.61975490640444
 21
12.03799158316811
 72
     1
 10
-71.61975490640444
 20
12.03799158316811
 11
-72.81254760857104
 21
12.03799158316811
 72
     1
 10
-72.81254760857104
 20
12.03799158316811
 11
-72.81254760857104
 21
15.09180110697931
 72
     1
 10
-72.81254760857104
 20
15.09180110697931
 11
-71.61975490640444
 21
15.09180110697931
 72
     1
 10
-71.61975490640444
 20
15.09180110697931
 11
-71.61975490640444
 21
14.02296777364471
 72
     1
 10
-71.61975490640444
 20
14.02296777364471
 11
-70.57009732849696
 21
14.02296777364471
 72
     1
 10
-70.57009732849696
 20
14.02296777364471
 11
-70.57009732849696
 21
15.09180110697931
 72
     1
 10
-70.57009732849696
 20
15.09180110697931
 11
-69.37730462633056
 21
15.09180110697931
 97
       12
330
2F6
330
2F5
330
2F4
330
2DC
330
2DD
330
2F3
330
2DE
330
2F2
330
2F1
330
2F0
330
2DA
330
2DB
 75
     1
 76
     0
 52
45.0
 41
0.1
 77
     0
 78
     1
 53
45.0
 43
0.0
 44
0.0
 45
-0.0707106781186548
 46
0.0707106781186548
 79
     0
 98
        1
 10
0.0
 20
0.0
  0
HATCH
  5
3DF
330
71
100
AcDbEntity
  8
1
  6
Continuous
 62
     2
100
AcDbHatch
 10
0.0
 20
0.0
 30
0.0
210
0.0
220
0.0
230
1.0
  2
_USER
 70
     0
 71
     1
 91
        1
 92
        1
 93
       12
 72
     1
 10
-69.37730462633056
 20
15.09180110697931
 11
-69.37730462633056
 21
12.03799158316811
 72
     1
 10
-69.37730462633056
 20
12.03799158316811
 11
-70.57009732849696
 21
12.03799158316811
 72
     1
 10
-70.57009732849696
 20
12.03799158316811
 11
-70.57009732849696
 21
13.17226369201193
 72
     1
 10
-70.57009732849696
 20
13.17226369201193
 11
-71.61975490640444
 21
13.17226369201193
 72
     1
 10
-71.61975490640444
 20
13.17226369201193
 11
-71.61975490640444
 21
12.03799158316811
 72
     1
 10
-71.61975490640444
 20
12.03799158316811
 11
-72.81254760857104
 21
12.03799158316811
 72
     1
 10
-72.81254760857104
 20
12.03799158316811
 11
-72.81254760857104
 21
15.09180110697931
 72
     1
 10
-72.81254760857104
 20
15.09180110697931
 11
-71.61975490640444
 21
15.09180110697931
 72
     1
 10
-71.61975490640444
 20
15.09180110697931
 11
-71.61975490640444
 21
14.02296777364471
 72
     1
 10
-71.61975490640444
 20
14.02296777364471
 11
-70.57009732849696
 21
14.02296777364471
 72
     1
 10
-70.57009732849696
 20
14.02296777364471
 11
-70.57009732849696
 21
15.09180110697931
 72
     1
 10
-70.57009732849696
 20
15.09180110697931
 11
-69.37730462633056
 21
15.09180110697931
 97
       12
330
2F6
330
2F5
330
2F4
330
2DC
330
2DD
330
2F3
330
2DE
330
2F2
330
2F1
330
2F0
330
2DA
330
2DB
 75
     1
 76
     0
 52
45.0
 41
0.1
 77
     0
 78
     1
 53
45.0
 43
0.0
 44
0.0
 45
-0.0707106781186548
 46
0.0707106781186548
 79
     0
 98
        1
 10
0.0
 20
0.0
  0
ENDBLK
  5
73
330
71
100
AcDbEntity
  8
0
100
AcDbBlockEnd
  0
BLOCK
  5
75
330
74
100
AcDbEntity
  8
0
100
AcDbBlockBegin
  2
_punkt
 70
     0
 10
42.49999918745836
 20
1.38530110697751
 30
0.0
  3
_punkt
  1

  0
LINE
  5
3E0
330
74
100
AcDbEntity
  8
1
  6
Continuous
 62
     2
100
AcDbLine
 10
42.49999918745836
 20
1.38530110697751
 30
0.0
 11
42.49999918745836
 21
-3.61469889302261
 31
0.0
  0
LINE
  5
3E1
330
74
100
AcDbEntity
  8
1
  6
Continuous
 62
     2
100
AcDbLine
 10
42.49999918745836
 20
1.38530110697751
 30
0.0
 11
47.49999918745735
 21
1.38530110697751
 31
0.0
  0
ENDBLK
  5
76
330
74
100
AcDbEntity
  8
0
100
AcDbBlockEnd
  0
BLOCK
  5
7A
330
77
100
AcDbEntity
  8
0
100
AcDbBlockBegin
  2
A4I_CS
 70
     0
 10
42.49999918745836
 20
-3.61469889302261
 30
0.0
  3
A4I_CS
  1

  0
INSERT
  5
78
330
77
100
AcDbEntity
  8
1
100
AcDbBlockReference
  2
_rahmen
 10
42.49999918745836
 20
-3.61469889302261
 30
0.0
  0
INSERT
  5
79
330
77
100
AcDbEntity
  8
1
100
AcDbBlockReference
  2
_punkt
 10
42.49999918745836
 20
1.38530110697751
 30
0.0
  0
ENDBLK
  5
7B
330
77
100
AcDbEntity
  8
0
100
AcDbBlockEnd
  0
BLOCK
  5
84
330
7C
100
AcDbEntity
  8
0
100
AcDbBlockBegin
  2
1
 70
     0
 10
0.0
 20
0.0
 30
0.0
  3
1
  1

  0
INSERT
  5
7D
330
7C
100
AcDbEntity
  8
0
100
AcDbBlockReference
  2
AllgSicht1
 10
-32.00000029200702
 20
64.42569759189269
 30
0.0
  0
INSERT
  5
7E
330
7C
100
AcDbEntity
  8
0
100
AcDbBlockReference
  2
Drfsicht1
 10
-141.00000067435
 20
63.9999999999801
 30
0.0
 41
2.0
 42
2.0
 43
2.0
  0
INSERT
  5
7F
330
7C
100
AcDbEntity
  8
0
100
AcDbBlockReference
  2
Rckans1
 10
-3.60000067274418
 20
137.8146982922526
 30
0.0
 41
2.0
 42
2.0
 43
2.0
  0
INSERT
  5
80
330
7C
100
AcDbEntity
  8
0
100
AcDbBlockReference
  2
SA_Links1
 10
-71.8000006735225
 20
137.8146982922524
 30
0.0
 41
2.0
 42
2.0
 43
2.0
  0
INSERT
  5
81
330
7C
100
AcDbEntity
  8
0
100
AcDbBlockReference
  2
SA_Rechts1
 10
-219.1999993264786
 20
137.8146982922526
 30
0.0
 41
2.0
 42
2.0
 43
2.0
  0
INSERT
  5
82
330
7C
100
AcDbEntity
  8
0
100
AcDbBlockReference
  2
Vordans1
 10
-141.0000006743499
 20
137.8146982922524
 30
0.0
 41
2.0
 42
2.0
 43
2.0
  0
INSERT
  5
83
330
7C
100
AcDbEntity
  8
0
100
AcDbBlockReference
  2
A4I_CS
 10
42.49999918745836
 20
-3.61469889302261
 30
0.0
  0
ENDBLK
  5
85
330
7C
100
AcDbEntity
  8
0
100
AcDbBlockEnd
  0
BLOCK
  5
161
330
15A
100
AcDbEntity
  8
0
100
AcDbBlockBegin
  2
*D17
 70
     1
 10
0.0
 20
0.0
 30
0.0
  3
*D17
  1

  0
LINE
  5
15B
330
15A
100
AcDbEntity
  8
1
  6
Continuous
 62
     2
100
AcDbLine
 10
-102.1324559383046
 20
25.99999999998005
 30
0.0
 11
-102.1324559383046
 21
37.99999999998005
 31
0.0
  0
LINE
  5
15C
330
15A
100
AcDbEntity
  8
1
  6
Continuous
 62
     2
100
AcDbLine
 10
-86.73245593830465
 20
25.99999999998005
 30
0.0
 11
-103.1324559383046
 21
25.99999999998005
 31
0.0
  0
LINE
  5
15D
330
15A
100
AcDbEntity
  8
1
  6
Continuous
 62
     2
100
AcDbLine
 10
-86.73245593830465
 20
37.99999999998005
 30
0.0
 11
-103.1324559383046
 21
37.99999999998005
 31
0.0
  0
SOLID
  5
15E
330
15A
100
AcDbEntity
  8
1
 62
     2
100
AcDbTrace
 10
-102.3628478090825
 20
27.74999999998005
 30
0.0
 11
-101.9020640675267
 21
27.74999999998005
 31
0.0
 12
-102.1324559383046
 22
25.99999999998005
 32
0.0
 13
-102.1324559383046
 23
25.99999999998005
 33
0.0
  0
SOLID
  5
15F
330
15A
100
AcDbEntity
  8
1
 62
     2
100
AcDbTrace
 10
-101.9020640675267
 20
36.24999999998005
 30
0.0
 11
-102.3628478090825
 21
36.24999999998005
 31
0.0
 12
-102.1324559383046
 22
37.99999999998005
 32
0.0
 13
-102.1324559383046
 23
37.99999999998005
 33
0.0
  0
MTEXT
  5
160
330
15A
100
AcDbEntity
  8
1
 62
     3
100
AcDbMText
 10
-103.1324559383046
 20
31.00927529278429
 30
0.0
 40
1.75
 41
0.0
 71
     7
 72
     1
  1
12
  7
CONVERTER_11
 11
0.0
 21
1.0
 31
0.0
 73
     1
 44
0.60024009603842
  0
ENDBLK
  5
162
330
15A
100
AcDbEntity
  8
0
100
AcDbBlockEnd
  0
BLOCK
  5
28F
330
288
100
AcDbEntity
  8
0
100
AcDbBlockBegin
  2
*D18
 70
     1
 10
0.0
 20
0.0
 30
0.0
  3
*D18
  1

  0
LINE
  5
289
330
288
100
AcDbEntity
  8
1
  6
Continuous
 62
     2
100
AcDbLine
 10
-90.50000040627083
 20
45.07933849186591
 30
0.0
 11
-50.50000040627084
 21
45.07933849186591
 31
0.0
  0
LINE
  5
28A
330
288
100
AcDbEntity
  8
1
  6
Continuous
 62
     2
100
AcDbLine
 10
-90.50000040627083
 20
50.69265055348868
 30
0.0
 11
-90.50000040627083
 21
44.07933849186591
 31
0.0
  0
LINE
  5
28B
330
288
100
AcDbEntity
  8
1
  6
Continuous
 62
     2
100
AcDbLine
 10
-50.50000040627084
 20
50.69265055348868
 30
0.0
 11
-50.50000040627084
 21
44.07933849186591
 31
0.0
  0
SOLID
  5
28C
330
288
100
AcDbEntity
  8
1
 62
     2
100
AcDbTrace
 10
-88.75000040627083
 20
45.30973036264385
 30
0.0
 11
-88.75000040627083
 21
44.84894662108797
 31
0.0
 12
-90.50000040627083
 22
45.07933849186591
 32
0.0
 13
-90.50000040627083
 23
45.07933849186591
 33
0.0
  0
SOLID
  5
28D
330
288
100
AcDbEntity
  8
1
 62
     2
100
AcDbTrace
 10
-52.25000040627084
 20
44.84894662108797
 30
0.0
 11
-52.25000040627084
 21
45.30973036264385
 31
0.0
 12
-50.50000040627084
 22
45.07933849186591
 32
0.0
 13
-50.50000040627084
 23
45.07933849186591
 33
0.0
  0
MTEXT
  5
28E
330
288
100
AcDbEntity
  8
1
 62
     3
100
AcDbMText
 10
-71.95170820859994
 20
46.07933849186591
 30
0.0
 40
1.75
 41
0.0
 71
     7
 72
     1
  1
40
  7
CONVERTER_11
 11
0.9999999999970619
 21
2.424068405545306E-6
 31
0.0
 73
     1
 44
0.60024009603842
  0
ENDBLK
  5
290
330
288
100
AcDbEntity
  8
0
100
AcDbBlockEnd
  0
BLOCK
  5
29A
330
293
100
AcDbEntity
  8
0
100
AcDbBlockBegin
  2
*D19
 70
     1
 10
0.0
 20
0.0
 30
0.0
  3
*D19
  1

  0
LINE
  5
294
330
293
100
AcDbEntity
  8
1
  6
Continuous
 62
     2
100
AcDbLine
 10
-95.50000040627086
 20
50.69265055348871
 30
0.0
 11
-95.50000040627086
 21
74.19265055348872
 31
0.0
  0
LINE
  5
295
330
293
100
AcDbEntity
  8
1
  6
Continuous
 62
     2
100
AcDbLine
 10
-90.50000040627086
 20
50.69265055348871
 30
0.0
 11
-96.50000040627086
 21
50.69265055348871
 31
0.0
  0
LINE
  5
296
330
293
100
AcDbEntity
  8
1
  6
Continuous
 62
     2
100
AcDbLine
 10
-90.50000040627086
 20
74.19265055348872
 30
0.0
 11
-96.50000040627086
 21
74.19265055348872
 31
0.0
  0
SOLID
  5
297
330
293
100
AcDbEntity
  8
1
 62
     2
100
AcDbTrace
 10
-95.7303922770488
 20
52.44265055348871
 30
0.0
 11
-95.26960853549292
 21
52.44265055348871
 31
0.0
 12
-95.50000040627086
 22
50.69265055348871
 32
0.0
 13
-95.50000040627086
 23
50.69265055348871
 33
0.0
  0
SOLID
  5
298
330
293
100
AcDbEntity
  8
1
 62
     2
100
AcDbTrace
 10
-95.26960853549292
 20
72.44265055348872
 30
0.0
 11
-95.7303922770488
 21
72.44265055348872
 31
0.0
 12
-95.50000040627086
 22
74.19265055348872
 32
0.0
 13
-95.50000040627086
 23
74.19265055348872
 33
0.0
  0
MTEXT
  5
299
330
293
100
AcDbEntity
  8
1
 62
     3
100
AcDbMText
 10
-96.67500040627087
 20
60.23471790088495
 30
0.0
 40
1.75
 41
0.0
 71
     7
 72
     1
  1
23,5
  7
CONVERTER_11
 11
0.0
 21
1.0
 31
0.0
 73
     1
 44
0.60024009603842
  0
ENDBLK
  5
29B
330
293
100
AcDbEntity
  8
0
100
AcDbBlockEnd
  0
BLOCK
  5
2A5
330
29E
100
AcDbEntity
  8
0
100
AcDbBlockBegin
  2
*D20
 70
     1
 10
0.0
 20
0.0
 30
0.0
  3
*D20
  1

  0
LINE
  5
29F
330
29E
100
AcDbEntity
  8
1
  6
Continuous
 62
     2
100
AcDbLine
 10
-99.5000004062709
 20
50.6926505534887
 30
0.0
 11
-99.5000004062709
 21
87.09265069769826
 31
0.0
  0
LINE
  5
2A0
330
29E
100
AcDbEntity
  8
1
  6
Continuous
 62
     2
100
AcDbLine
 10
-90.5000004062709
 20
50.6926505534887
 30
0.0
 11
-100.5000004062709
 21
50.6926505534887
 31
0.0
  0
LINE
  5
2A1
330
29E
100
AcDbEntity
  8
1
  6
Continuous
 62
     2
100
AcDbLine
 10
-88.00000040627087
 20
87.09265069769826
 30
0.0
 11
-100.5000004062709
 21
87.09265069769826
 31
0.0
  0
SOLID
  5
2A2
330
29E
100
AcDbEntity
  8
1
 62
     2
100
AcDbTrace
 10
-99.73039227704884
 20
52.4426505534887
 30
0.0
 11
-99.26960853549296
 21
52.4426505534887
 31
0.0
 12
-99.5000004062709
 22
50.6926505534887
 32
0.0
 13
-99.5000004062709
 23
50.6926505534887
 33
0.0
  0
SOLID
  5
2A3
330
29E
100
AcDbEntity
  8
1
 62
     2
100
AcDbTrace
 10
-99.26960853549296
 20
85.34265069769826
 30
0.0
 11
-99.73039227704884
 21
85.34265069769826
 31
0.0
 12
-99.5000004062709
 22
87.09265069769826
 32
0.0
 13
-99.5000004062709
 23
87.09265069769826
 33
0.0
  0
MTEXT
  5
2A4
330
29E
100
AcDbEntity
  8
1
 62
     3
100
AcDbMText
 10
-100.6750004062709
 20
66.1556096604488
 30
0.0
 40
1.75
 41
0.0
 71
     7
 72
     1
  1
36,4
  7
CONVERTER_11
 11
0.0
 21
1.0
 31
0.0
 73
     1
 44
0.60024009603842
  0
ENDBLK
  5
2A6
330
29E
100
AcDbEntity
  8
0
100
AcDbBlockEnd
  0
ENDSEC
  0
SECTION
  2
ENTITIES
  0
INSERT
  5
86
330
1F
100
AcDbEntity
  8
1
100
AcDbBlockReference
  2
1
 10
0.0
 20
0.0
 30
0.0
  0
ENDSEC
  0
SECTION
  2
OBJECTS
  0
DICTIONARY
  5
C
330
0
100
AcDbDictionary
281
     1
  3
ACAD_GROUP
350
D
  3
ACAD_LAYOUT
350
1A
  3
ACAD_MATERIAL
350
3B
  3
ACAD_MLEADERSTYLE
350
409
  3
ACAD_MLINESTYLE
350
17
  3
ACAD_PLOTSETTINGS
350
19
  3
ACAD_PLOTSTYLENAME
350
E
  3
ACAD_TABLESTYLE
350
408
  3
ACAD_VISUALSTYLE
350
2A
  0
DICTIONARY
  5
D
102
{ACAD_REACTORS
330
C
102
}
330
C
100
AcDbDictionary
281
     1
  0
DICTIONARY
  5
1A
102
{ACAD_REACTORS
330
C
102
}
330
C
100
AcDbDictionary
281
     1
  3
Layout1
350
1E
  3
Layout2
350
26
  3
Model
350
22
  0
DICTIONARY
  5
3B
102
{ACAD_REACTORS
330
C
102
}
330
C
100
AcDbDictionary
281
     1
  3
ByBlock
350
3D
  3
ByLayer
350
3C
  3
Global
350
3E
  0
DICTIONARY
  5
409
102
{ACAD_REACTORS
330
C
102
}
330
C
100
AcDbDictionary
281
     1
  0
DICTIONARY
  5
17
102
{ACAD_REACTORS
330
C
102
}
330
C
100
AcDbDictionary
281
     1
  3
Standard
350
18
  0
DICTIONARY
  5
19
102
{ACAD_REACTORS
330
C
102
}
330
C
100
AcDbDictionary
281
     1
  0
ACDBDICTIONARYWDFLT
  5
E
102
{ACAD_REACTORS
330
C
102
}
330
C
100
AcDbDictionary
281
     1
  3
Normal
350
F
100
AcDbDictionaryWithDefault
340
F
  0
DICTIONARY
  5
408
102
{ACAD_REACTORS
330
C
102
}
330
C
100
AcDbDictionary
281
     1
  0
DICTIONARY
  5
2A
102
{ACAD_REACTORS
330
C
102
}
330
C
100
AcDbDictionary
281
     1
  3
2dWireframe
350
2F
  3
3D Hidden
350
31
  3
3dWireframe
350
30
  3
Basic
350
32
  3
Brighten
350
36
  3
ColorChange
350
3A
  3
Conceptual
350
34
  3
Dim
350
35
  3
Facepattern
350
39
  3
Flat
350
2B
  3
FlatWithEdges
350
2C
  3
Gouraud
350
2D
  3
GouraudWithEdges
350
2E
  3
Linepattern
350
38
  3
Realistic
350
33
  3
Thicken
350
37
  0
LAYOUT
  5
1E
102
{ACAD_REACTORS
330
1A
102
}
330
1A
100
AcDbPlotSettings
  1

  2
none_device
  4

  6

 40
0.0
 41
0.0
 42
0.0
 43
0.0
 44
0.0
 45
0.0
 46
0.0
 47
0.0
 48
0.0
 49
0.0
140
0.0
141
0.0
142
1.0
143
1.0
 70
   688
 72
     0
 73
     0
 74
     5
  7

 75
    16
 76
     0
 77
     2
 78
   300
147
1.0
148
0.0
149
0.0
100
AcDbLayout
  1
Layout1
 70
     1
 71
     1
 10
0.0
 20
0.0
 11
12.0
 21
9.0
 12
0.0
 22
0.0
 32
0.0
 14
1.00000000000000E+20
 24
1.00000000000000E+20
 34
1.00000000000000E+20
 15
-1.00000000000000E+20
 25
-1.00000000000000E+20
 35
-1.00000000000000E+20
146
0.0
 13
0.0
 23
0.0
 33
0.0
 16
1.0
 26
0.0
 36
0.0
 17
0.0
 27
1.0
 37
0.0
 76
     0
330
1B
  0
LAYOUT
  5
26
102
{ACAD_REACTORS
330
1A
102
}
330
1A
100
AcDbPlotSettings
  1

  2
none_device
  4

  6

 40
0.0
 41
0.0
 42
0.0
 43
0.0
 44
0.0
 45
0.0
 46
0.0
 47
0.0
 48
0.0
 49
0.0
140
0.0
141
0.0
142
1.0
143
1.0
 70
   688
 72
     0
 73
     0
 74
     5
  7

 75
    16
 76
     0
 77
     2
 78
   300
147
1.0
148
0.0
149
0.0
100
AcDbLayout
  1
Layout2
 70
     1
 71
     2
 10
0.0
 20
0.0
 11
0.0
 21
0.0
 12
0.0
 22
0.0
 32
0.0
 14
0.0
 24
0.0
 34
0.0
 15
0.0
 25
0.0
 35
0.0
146
0.0
 13
0.0
 23
0.0
 33
0.0
 16
1.0
 26
0.0
 36
0.0
 17
0.0
 27
1.0
 37
0.0
 76
     0
330
23
  0
LAYOUT
  5
22
102
{ACAD_REACTORS
330
1A
102
}
330
1A
100
AcDbPlotSettings
  1

  2
none_device
  4

  6

 40
0.0
 41
0.0
 42
0.0
 43
0.0
 44
0.0
 45
0.0
 46
0.0
 47
0.0
 48
0.0
 49
0.0
140
0.0
141
0.0
142
1.0
143
1.0
 70
  1712
 72
     0
 73
     0
 74
     0
  7

 75
     0
 76
     0
 77
     2
 78
   300
147
1.0
148
0.0
149
0.0
100
AcDbLayout
  1
Model
 70
     1
 71
     0
 10
0.0
 20
0.0
 11
12.0
 21
9.0
 12
0.0
 22
0.0
 32
0.0
 14
-249.5000008125407
 24
-3.61469889302261
 34
0.0
 15
47.49999918745735
 25
206.3853011069775
 35
0.0
146
0.0
 13
0.0
 23
0.0
 33
0.0
 16
1.0
 26
0.0
 36
0.0
 17
0.0
 27
1.0
 37
0.0
 76
     0
330
1F
331
29
  0
MATERIAL
  5
3D
102
{ACAD_REACTORS
330
3B
102
}
102
{ACAD_XDICTIONARY
360
404
102
}
330
3B
100
AcDbMaterial
  1
ByBlock
  0
MATERIAL
  5
3C
102
{ACAD_REACTORS
330
3B
102
}
102
{ACAD_XDICTIONARY
360
402
102
}
330
3B
100
AcDbMaterial
  1
ByLayer
  0
MATERIAL
  5
3E
102
{ACAD_REACTORS
330
3B
102
}
102
{ACAD_XDICTIONARY
360
406
102
}
330
3B
100
AcDbMaterial
  1
Global
  0
MLINESTYLE
  5
18
102
{ACAD_REACTORS
330
17
102
}
330
17
100
AcDbMlineStyle
  2
Standard
 70
     0
  3

 62
   256
 51
90.0
 52
90.0
 71
     2
 49
0.5
 62
   256
  6
BYLAYER
 49
-0.5
 62
   256
  6
BYLAYER
  0
ACDBPLACEHOLDER
  5
F
102
{ACAD_REACTORS
330
E
102
}
330
E
  0
VISUALSTYLE
  5
2F
102
{ACAD_REACTORS
330
2A
102
}
102
{ACAD_XDICTIONARY
360
3EA
102
}
330
2A
100
AcDbVisualStyle
  2
2dWireframe
 70
     4
 71
     0
 72
     2
 73
     0
 90
        0
 40
-0.6
 41
-30.0
 62
     5
 63
     7
421
 16777215
 74
     1
 91
        4
 64
     7
 65
   257
 75
     1
175
     1
 42
1.0
 92
        0
 66
   257
 43
1.0
 76
     1
 77
     6
 78
     2
 67
     7
 79
     5
170
     0
171
     0
290
     0
174
     0
 93
        1
 44
0.0
173
     0
291
     0
 45
0.0
1001
ACAD
1000
AcDbSavedByObjectVersion
1070
     0
  0
VISUALSTYLE
  5
31
102
{ACAD_REACTORS
330
2A
102
}
102
{ACAD_XDICTIONARY
360
3EE
102
}
330
2A
100
AcDbVisualStyle
  2
3D Hidden
 70
     6
 71
     1
 72
     2
 73
     2
 90
        0
 40
-0.6
 41
-30.0
 62
     5
 63
     7
421
 16777215
 74
     2
 91
        2
 64
     7
 65
   257
 75
     2
175
     1
 42
40.0
 92
        0
 66
   257
 43
1.0
 76
     1
 77
     6
 78
     2
 67
     7
 79
     3
170
     0
171
     0
290
     0
174
     0
 93
        1
 44
0.0
173
     0
291
     0
 45
0.0
1001
ACAD
1000
AcDbSavedByObjectVersion
1070
     0
  0
VISUALSTYLE
  5
30
102
{ACAD_REACTORS
330
2A
102
}
102
{ACAD_XDICTIONARY
360
3EC
102
}
330
2A
100
AcDbVisualStyle
  2
3dWireframe
 70
     5
 71
     0
 72
     2
 73
     0
 90
        0
 40
-0.6
 41
-30.0
 62
     5
 63
     7
421
 16777215
 74
     1
 91
        4
 64
     7
 65
   257
 75
     1
175
     1
 42
1.0
 92
        0
 66
   257
 43
1.0
 76
     1
 77
     6
 78
     2
 67
     7
 79
     5
170
     0
171
     0
290
     0
174
     0
 93
        1
 44
0.0
173
     0
291
     0
 45
0.0
1001
ACAD
1000
AcDbSavedByObjectVersion
1070
     0
  0
VISUALSTYLE
  5
32
102
{ACAD_REACTORS
330
2A
102
}
102
{ACAD_XDICTIONARY
360
3F0
102
}
330
2A
100
AcDbVisualStyle
  2
Basic
 70
     7
 71
     1
 72
     0
 73
     1
 90
        0
 40
-0.6
 41
-30.0
 62
     5
 63
     7
421
 16777215
 74
     0
 91
        4
 64
     7
 65
   257
 75
     1
175
     1
 42
1.0
 92
        8
 66
     7
 43
1.0
 76
     1
 77
     6
 78
     2
 67
     7
 79
     5
170
     0
171
     0
290
     0
174
     0
 93
        1
 44
0.0
173
     0
291
     1
 45
0.0
1001
ACAD
1000
AcDbSavedByObjectVersion
1070
     0
  0
VISUALSTYLE
  5
36
102
{ACAD_REACTORS
330
2A
102
}
102
{ACAD_XDICTIONARY
360
3F8
102
}
330
2A
100
AcDbVisualStyle
  2
Brighten
 70
    12
 71
     2
 72
     2
 73
     0
 90
        0
 40
-0.6
 41
-30.0
 62
     5
 63
     7
421
 16777215
 74
     1
 91
        4
 64
     7
 65
   257
 75
     1
175
     1
 42
1.0
 92
        8
 66
     7
 43
1.0
 76
     1
 77
     6
 78
     2
 67
     7
 79
     5
170
     0
171
     0
290
     0
174
     0
 93
        1
 44
50.0
173
     0
291
     1
 45
0.0
1001
ACAD
1000
AcDbSavedByObjectVersion
1070
     0
  0
VISUALSTYLE
  5
3A
102
{ACAD_REACTORS
330
2A
102
}
102
{ACAD_XDICTIONARY
360
400
102
}
330
2A
100
AcDbVisualStyle
  2
ColorChange
 70
    16
 71
     2
 72
     2
 73
     3
 90
        0
 40
-0.6
 41
-30.0
 62
     5
 63
     8
421
  8421504
 74
     1
 91
        4
 64
     7
 65
   257
 75
     1
175
     1
 42
1.0
 92
        8
 66
     8
424
  8421504
 43
1.0
 76
     1
 77
     6
 78
     2
 67
     7
 79
     5
170
     0
171
     0
290
     0
174
     0
 93
        1
 44
0.0
173
     0
291
     1
 45
0.0
1001
ACAD
1000
AcDbSavedByObjectVersion
1070
     0
  0
VISUALSTYLE
  5
34
102
{ACAD_REACTORS
330
2A
102
}
102
{ACAD_XDICTIONARY
360
3F4
102
}
330
2A
100
AcDbVisualStyle
  2
Conceptual
 70
     9
 71
     3
 72
     2
 73
     0
 90
        0
 40
-0.6
 41
-30.0
 62
     5
 63
     7
421
 16777215
 74
     2
 91
        2
 64
     7
 65
   257
 75
     1
175
     1
 42
40.0
 92
        8
 66
     7
 43
1.0
 76
     1
 77
     6
 78
     2
 67
     7
 79
     3
170
     0
171
     0
290
     0
174
     0
 93
        1
 44
0.0
173
     0
291
     0
 45
0.0
1001
ACAD
1000
AcDbSavedByObjectVersion
1070
     0
  0
VISUALSTYLE
  5
35
102
{ACAD_REACTORS
330
2A
102
}
102
{ACAD_XDICTIONARY
360
3F6
102
}
330
2A
100
AcDbVisualStyle
  2
Dim
 70
    11
 71
     2
 72
     2
 73
     0
 90
        0
 40
-0.6
 41
-30.0
 62
     5
 63
     7
421
 16777215
 74
     1
 91
        4
 64
     7
 65
   257
 75
     1
175
     1
 42
1.0
 92
        8
 66
     7
 43
1.0
 76
     1
 77
     6
 78
     2
 67
     7
 79
     5
170
     0
171
     0
290
     0
174
     0
 93
        1
 44
-50.0
173
     0
291
     1
 45
0.0
1001
ACAD
1000
AcDbSavedByObjectVersion
1070
     0
  0
VISUALSTYLE
  5
39
102
{ACAD_REACTORS
330
2A
102
}
102
{ACAD_XDICTIONARY
360
3FE
102
}
330
2A
100
AcDbVisualStyle
  2
Facepattern
 70
    15
 71
     2
 72
     2
 73
     0
 90
        0
 40
-0.6
 41
-30.0
 62
     5
 63
     7
421
 16777215
 74
     1
 91
        4
 64
     7
 65
   257
 75
     1
175
     1
 42
1.0
 92
        8
 66
     7
 43
1.0
 76
     1
 77
     6
 78
     2
 67
     7
 79
     5
170
     0
171
     0
290
     0
174
     0
 93
        1
 44
0.0
173
     0
291
     1
 45
0.0
1001
ACAD
1000
AcDbSavedByObjectVersion
1070
     0
  0
VISUALSTYLE
  5
2B
102
{ACAD_REACTORS
330
2A
102
}
102
{ACAD_XDICTIONARY
360
3E2
102
}
330
2A
100
AcDbVisualStyle
  2
Flat
 70
     0
 71
     2
 72
     1
 73
     1
 90
        2
 40
-0.6
 41
30.0
 62
     5
 63
     7
421
 16777215
 74
     0
 91
        4
 64
     7
 65
   257
 75
     1
175
     1
 42
1.0
 92
        8
 66
     7
 43
1.0
 76
     1
 77
     6
 78
     2
 67
     7
 79
     5
170
     0
171
     0
290
     0
174
     0
 93
       13
 44
0.0
173
     0
291
     1
 45
0.0
1001
ACAD
1000
AcDbSavedByObjectVersion
1070
     0
  0
VISUALSTYLE
  5
2C
102
{ACAD_REACTORS
330
2A
102
}
102
{ACAD_XDICTIONARY
360
3E4
102
}
330
2A
100
AcDbVisualStyle
  2
FlatWithEdges
 70
     1
 71
     2
 72
     1
 73
     1
 90
        2
 40
-0.6
 41
30.0
 62
     5
 63
     7
421
 16777215
 74
     1
 91
        4
 64
     7
 65
   257
 75
     1
175
     1
 42
1.0
 92
        0
 66
   257
 43
1.0
 76
     1
 77
     6
 78
     2
 67
     7
 79
     5
170
     0
171
     0
290
     0
174
     0
 93
       13
 44
0.0
173
     0
291
     1
 45
0.0
1001
ACAD
1000
AcDbSavedByObjectVersion
1070
     0
  0
VISUALSTYLE
  5
2D
102
{ACAD_REACTORS
330
2A
102
}
102
{ACAD_XDICTIONARY
360
3E6
102
}
330
2A
100
AcDbVisualStyle
  2
Gouraud
 70
     2
 71
     2
 72
     2
 73
     1
 90
        2
 40
-0.6
 41
30.0
 62
     5
 63
     7
421
 16777215
 74
     0
 91
        4
 64
     7
 65
   257
 75
     1
175
     1
 42
1.0
 92
        0
 66
     7
 43
1.0
 76
     1
 77
     6
 78
     2
 67
     7
 79
     5
170
     0
171
     0
290
     0
174
     0
 93
       13
 44
0.0
173
     0
291
     1
 45
0.0
1001
ACAD
1000
AcDbSavedByObjectVersion
1070
     0
  0
VISUALSTYLE
  5
2E
102
{ACAD_REACTORS
330
2A
102
}
102
{ACAD_XDICTIONARY
360
3E8
102
}
330
2A
100
AcDbVisualStyle
  2
GouraudWithEdges
 70
     3
 71
     2
 72
     2
 73
     1
 90
        2
 40
-0.6
 41
30.0
 62
     5
 63
     7
421
 16777215
 74
     1
 91
        4
 64
     7
 65
   257
 75
     1
175
     1
 42
1.0
 92
        0
 66
   257
 43
1.0
 76
     1
 77
     6
 78
     2
 67
     7
 79
     5
170
     0
171
     0
290
     0
174
     0
 93
       13
 44
0.0
173
     0
291
     1
 45
0.0
1001
ACAD
1000
AcDbSavedByObjectVersion
1070
     0
  0
VISUALSTYLE
  5
38
102
{ACAD_REACTORS
330
2A
102
}
102
{ACAD_XDICTIONARY
360
3FC
102
}
330
2A
100
AcDbVisualStyle
  2
Linepattern
 70
    14
 71
     2
 72
     2
 73
     0
 90
        0
 40
-0.6
 41
-30.0
 62
     5
 63
     7
421
 16777215
 74
     1
 91
        4
 64
     7
 65
   257
 75
     7
175
     7
 42
1.0
 92
        8
 66
     7
 43
1.0
 76
     1
 77
     6
 78
     2
 67
     7
 79
     5
170
     0
171
     0
290
     0
174
     0
 93
        1
 44
0.0
173
     0
291
     1
 45
0.0
1001
ACAD
1000
AcDbSavedByObjectVersion
1070
     0
  0
VISUALSTYLE
  5
33
102
{ACAD_REACTORS
330
2A
102
}
102
{ACAD_XDICTIONARY
360
3F2
102
}
330
2A
100
AcDbVisualStyle
  2
Realistic
 70
     8
 71
     2
 72
     2
 73
     0
 90
        0
 40
-0.6
 41
-30.0
 62
     5
 63
     7
421
 16777215
 74
     1
 91
        0
 64
     7
 65
   257
 75
     1
175
     1
 42
1.0
 92
        8
 66
     8
424
  7895160
 43
1.0
 76
     1
 77
     6
 78
     2
 67
     7
 79
     5
170
     0
171
     0
290
     0
174
     0
 93
       13
 44
0.0
173
     0
291
     0
 45
0.0
1001
ACAD
1000
AcDbSavedByObjectVersion
1070
     0
  0
VISUALSTYLE
  5
37
102
{ACAD_REACTORS
330
2A
102
}
102
{ACAD_XDICTIONARY
360
3FA
102
}
330
2A
100
AcDbVisualStyle
  2
Thicken
 70
    13
 71
     2
 72
     2
 73
     0
 90
        0
 40
-0.6
 41
-30.0
 62
     5
 63
     7
421
 16777215
 74
     1
 91
        4
 64
     7
 65
   257
 75
     1
175
     1
 42
1.0
 92
       12
 66
     7
 43
1.0
 76
     1
 77
     6
 78
     2
 67
     7
 79
     5
170
     0
171
     0
290
     0
174
     0
 93
        1
 44
0.0
173
     0
291
     1
 45
0.0
1001
ACAD
1000
AcDbSavedByObjectVersion
1070
     0
  0
DICTIONARY
  5
404
330
3D
100
AcDbDictionary
280
     1
281
     1
  3
ACAD_XREC_ROUNDTRIP
360
405
  0
DICTIONARY
  5
402
330
3C
100
AcDbDictionary
280
     1
281
     1
  3
ACAD_XREC_ROUNDTRIP
360
403
  0
DICTIONARY
  5
406
330
3E
100
AcDbDictionary
280
     1
281
     1
  3
ACAD_XREC_ROUNDTRIP
360
407
  0
DICTIONARY
  5
3EA
330
2F
100
AcDbDictionary
280
     1
281
     1
  3
ACAD_XREC_ROUNDTRIP
360
3EB
  0
DICTIONARY
  5
3EE
330
31
100
AcDbDictionary
280
     1
281
     1
  3
ACAD_XREC_ROUNDTRIP
360
3EF
  0
DICTIONARY
  5
3EC
330
30
100
AcDbDictionary
280
     1
281
     1
  3
ACAD_XREC_ROUNDTRIP
360
3ED
  0
DICTIONARY
  5
3F0
330
32
100
AcDbDictionary
280
     1
281
     1
  3
ACAD_XREC_ROUNDTRIP
360
3F1
  0
DICTIONARY
  5
3F8
330
36
100
AcDbDictionary
280
     1
281
     1
  3
ACAD_XREC_ROUNDTRIP
360
3F9
  0
DICTIONARY
  5
400
330
3A
100
AcDbDictionary
280
     1
281
     1
  3
ACAD_XREC_ROUNDTRIP
360
401
  0
DICTIONARY
  5
3F4
330
34
100
AcDbDictionary
280
     1
281
     1
  3
ACAD_XREC_ROUNDTRIP
360
3F5
  0
DICTIONARY
  5
3F6
330
35
100
AcDbDictionary
280
     1
281
     1
  3
ACAD_XREC_ROUNDTRIP
360
3F7
  0
DICTIONARY
  5
3FE
330
39
100
AcDbDictionary
280
     1
281
     1
  3
ACAD_XREC_ROUNDTRIP
360
3FF
  0
DICTIONARY
  5
3E2
330
2B
100
AcDbDictionary
280
     1
281
     1
  3
ACAD_XREC_ROUNDTRIP
360
3E3
  0
DICTIONARY
  5
3E4
330
2C
100
AcDbDictionary
280
     1
281
     1
  3
ACAD_XREC_ROUNDTRIP
360
3E5
  0
DICTIONARY
  5
3E6
330
2D
100
AcDbDictionary
280
     1
281
     1
  3
ACAD_XREC_ROUNDTRIP
360
3E7
  0
DICTIONARY
  5
3E8
330
2E
100
AcDbDictionary
280
     1
281
     1
  3
ACAD_XREC_ROUNDTRIP
360
3E9
  0
DICTIONARY
  5
3FC
330
38
100
AcDbDictionary
280
     1
281
     1
  3
ACAD_XREC_ROUNDTRIP
360
3FD
  0
DICTIONARY
  5
3F2
330
33
100
AcDbDictionary
280
     1
281
     1
  3
ACAD_XREC_ROUNDTRIP
360
3F3
  0
DICTIONARY
  5
3FA
330
37
100
AcDbDictionary
280
     1
281
     1
  3
ACAD_XREC_ROUNDTRIP
360
3FB
  0
XRECORD
  5
405
102
{ACAD_REACTORS
330
404
102
}
330
404
100
AcDbXrecord
280
     1
102
MATERIAL
148
0.0
149
0.0
149
0.0
 93
        0
 94
      127
282
     0
 72
     1
 77
     1
171
     1
175
     1
179
     1
273
     0
  0
XRECORD
  5
403
102
{ACAD_REACTORS
330
402
102
}
330
402
100
AcDbXrecord
280
     1
102
MATERIAL
148
0.0
149
0.0
149
0.0
 93
        0
 94
      127
282
     0
 72
     1
 77
     1
171
     1
175
     1
179
     1
273
     0
  0
XRECORD
  5
407
102
{ACAD_REACTORS
330
406
102
}
330
406
100
AcDbXrecord
280
     1
102
MATERIAL
148
0.0
149
0.0
149
0.0
 93
        0
 94
      127
282
     0
 72
     1
 77
     1
171
     1
175
     1
179
     1
273
     0
  0
XRECORD
  5
3EB
102
{ACAD_REACTORS
330
3EA
102
}
330
3EA
100
AcDbXrecord
280
     1
102
RTVSPropertyOp0
 70
     1
102
RTVSPropertyOp1
 70
     1
102
RTVSPropertyOp2
 70
     1
102
RTVSPropertyOp3
 70
     1
102
RTVSPropertyOp4
 70
     1
102
RTVSPropertyOp5
 70
     1
102
RTVSPropertyOp6
 70
     1
102
RTVSPropertyOp7
 70
     1
102
RTVSPropertyOp8
 70
     1
102
RTVSPropertyOp9
 70
     1
102
RTVSPropertyOp10
 70
     1
102
RTVSPropertyOp11
 70
     1
102
RTVSPropertyOp12
 70
     1
102
RTVSPropertyOp13
 70
     1
102
RTVSPropertyOp14
 70
     1
102
RTVSPropertyOp15
 70
     1
102
RTVSPropertyOp16
 70
     1
102
RTVSPropertyOp17
 70
     1
102
RTVSPropertyOp18
 70
     1
102
RTVSPropertyOp19
 70
     1
102
RTVSPropertyOp20
 70
     1
102
RTVSPropertyOp21
 70
     1
102
RTVSPropertyOp22
 70
     1
102
RTVSPropertyOp23
 70
     1
102
RTVSPropertyOp24
 70
     1
102
RTVSPropertyOp25
 70
     1
102
RTVSPropertyOp26
 70
     1
102
RTVSPropertyOp27
 70
     1
102
RTVSPropertyOp28
 70
     1
102
RTVSPropertyOp29
 70
     1
102
RTVSPropertyOp30
 70
     1
102
RTVSPropertyOp31
 70
     1
102
RTVSPropertyOp32
 70
     1
  0
XRECORD
  5
3EF
102
{ACAD_REACTORS
330
3EE
102
}
330
3EE
100
AcDbXrecord
280
     1
102
RTVSPropertyOp0
 70
     1
102
RTVSPropertyOp1
 70
     1
102
RTVSPropertyOp2
 70
     1
102
RTVSPropertyOp3
 70
     1
102
RTVSPropertyOp4
 70
     1
102
RTVSPropertyOp5
 70
     1
102
RTVSPropertyOp6
 70
     1
102
RTVSPropertyOp7
 70
     1
102
RTVSPropertyOp8
 70
     1
102
RTVSPropertyOp9
 70
     1
102
RTVSPropertyOp10
 70
     1
102
RTVSPropertyOp11
 70
     1
102
RTVSPropertyOp12
 70
     1
102
RTVSPropertyOp13
 70
     1
102
RTVSPropertyOp14
 70
     1
102
RTVSPropertyOp15
 70
     1
102
RTVSPropertyOp16
 70
     1
102
RTVSPropertyOp17
 70
     1
102
RTVSPropertyOp18
 70
     1
102
RTVSPropertyOp19
 70
     1
102
RTVSPropertyOp20
 70
     1
102
RTVSPropertyOp21
 70
     1
102
RTVSPropertyOp22
 70
     1
102
RTVSPropertyOp23
 70
     1
102
RTVSPropertyOp24
 70
     1
102
RTVSPropertyOp25
 70
     1
102
RTVSPropertyOp26
 70
     1
102
RTVSPropertyOp27
 70
     1
102
RTVSPropertyOp28
 70
     1
102
RTVSPropertyOp29
 70
     1
102
RTVSPropertyOp30
 70
     1
102
RTVSPropertyOp31
 70
     1
102
RTVSPropertyOp32
 70
     1
  0
XRECORD
  5
3ED
102
{ACAD_REACTORS
330
3EC
102
}
330
3EC
100
AcDbXrecord
280
     1
102
RTVSPropertyOp0
 70
     1
102
RTVSPropertyOp1
 70
     1
102
RTVSPropertyOp2
 70
     1
102
RTVSPropertyOp3
 70
     1
102
RTVSPropertyOp4
 70
     1
102
RTVSPropertyOp5
 70
     1
102
RTVSPropertyOp6
 70
     1
102
RTVSPropertyOp7
 70
     1
102
RTVSPropertyOp8
 70
     1
102
RTVSPropertyOp9
 70
     1
102
RTVSPropertyOp10
 70
     1
102
RTVSPropertyOp11
 70
     1
102
RTVSPropertyOp12
 70
     1
102
RTVSPropertyOp13
 70
     1
102
RTVSPropertyOp14
 70
     1
102
RTVSPropertyOp15
 70
     1
102
RTVSPropertyOp16
 70
     1
102
RTVSPropertyOp17
 70
     1
102
RTVSPropertyOp18
 70
     1
102
RTVSPropertyOp19
 70
     1
102
RTVSPropertyOp20
 70
     1
102
RTVSPropertyOp21
 70
     1
102
RTVSPropertyOp22
 70
     1
102
RTVSPropertyOp23
 70
     1
102
RTVSPropertyOp24
 70
     1
102
RTVSPropertyOp25
 70
     1
102
RTVSPropertyOp26
 70
     1
102
RTVSPropertyOp27
 70
     1
102
RTVSPropertyOp28
 70
     1
102
RTVSPropertyOp29
 70
     1
102
RTVSPropertyOp30
 70
     1
102
RTVSPropertyOp31
 70
     1
102
RTVSPropertyOp32
 70
     1
  0
XRECORD
  5
3F1
102
{ACAD_REACTORS
330
3F0
102
}
330
3F0
100
AcDbXrecord
280
     1
102
RTVSPropertyOp0
 70
     1
102
RTVSPropertyOp1
 70
     1
102
RTVSPropertyOp2
 70
     1
102
RTVSPropertyOp3
 70
     1
102
RTVSPropertyOp4
 70
     1
102
RTVSPropertyOp5
 70
     1
102
RTVSPropertyOp6
 70
     1
102
RTVSPropertyOp7
 70
     1
102
RTVSPropertyOp8
 70
     1
102
RTVSPropertyOp9
 70
     1
102
RTVSPropertyOp10
 70
     1
102
RTVSPropertyOp11
 70
     1
102
RTVSPropertyOp12
 70
     1
102
RTVSPropertyOp13
 70
     1
102
RTVSPropertyOp14
 70
     1
102
RTVSPropertyOp15
 70
     1
102
RTVSPropertyOp16
 70
     1
102
RTVSPropertyOp17
 70
     1
102
RTVSPropertyOp18
 70
     1
102
RTVSPropertyOp19
 70
     1
102
RTVSPropertyOp20
 70
     1
102
RTVSPropertyOp21
 70
     1
102
RTVSPropertyOp22
 70
     1
102
RTVSPropertyOp23
 70
     1
102
RTVSPropertyOp24
 70
     1
102
RTVSPropertyOp25
 70
     1
102
RTVSPropertyOp26
 70
     1
102
RTVSPropertyOp27
 70
     1
102
RTVSPropertyOp28
 70
     1
102
RTVSPropertyOp29
 70
     1
102
RTVSPropertyOp30
 70
     1
102
RTVSPropertyOp31
 70
     1
102
RTVSPropertyOp32
 70
     1
  0
XRECORD
  5
3F9
102
{ACAD_REACTORS
330
3F8
102
}
330
3F8
100
AcDbXrecord
280
     1
102
RTVSPropertyOp0
 70
     1
102
RTVSPropertyOp1
 70
     1
102
RTVSPropertyOp2
 70
     1
102
RTVSPropertyOp3
 70
     1
102
RTVSPropertyOp4
 70
     1
102
RTVSPropertyOp5
 70
     1
102
RTVSPropertyOp6
 70
     1
102
RTVSPropertyOp7
 70
     1
102
RTVSPropertyOp8
 70
     1
102
RTVSPropertyOp9
 70
     1
102
RTVSPropertyOp10
 70
     1
102
RTVSPropertyOp11
 70
     1
102
RTVSPropertyOp12
 70
     1
102
RTVSPropertyOp13
 70
     1
102
RTVSPropertyOp14
 70
     1
102
RTVSPropertyOp15
 70
     1
102
RTVSPropertyOp16
 70
     1
102
RTVSPropertyOp17
 70
     1
102
RTVSPropertyOp18
 70
     1
102
RTVSPropertyOp19
 70
     1
102
RTVSPropertyOp20
 70
     1
102
RTVSPropertyOp21
 70
     1
102
RTVSPropertyOp22
 70
     1
102
RTVSPropertyOp23
 70
     1
102
RTVSPropertyOp24
 70
     1
102
RTVSPropertyOp25
 70
     1
102
RTVSPropertyOp26
 70
     1
102
RTVSPropertyOp27
 70
     1
102
RTVSPropertyOp28
 70
     1
102
RTVSPropertyOp29
 70
     1
102
RTVSPropertyOp30
 70
     1
102
RTVSPropertyOp31
 70
     1
102
RTVSPropertyOp32
 70
     1
  0
XRECORD
  5
401
102
{ACAD_REACTORS
330
400
102
}
330
400
100
AcDbXrecord
280
     1
102
RTVSPropertyOp0
 70
     1
102
RTVSPropertyOp1
 70
     1
102
RTVSPropertyOp2
 70
     1
102
RTVSPropertyOp3
 70
     1
102
RTVSPropertyOp4
 70
     1
102
RTVSPropertyOp5
 70
     1
102
RTVSPropertyOp6
 70
     1
102
RTVSPropertyOp7
 70
     1
102
RTVSPropertyOp8
 70
     1
102
RTVSPropertyOp9
 70
     1
102
RTVSPropertyOp10
 70
     1
102
RTVSPropertyOp11
 70
     1
102
RTVSPropertyOp12
 70
     1
102
RTVSPropertyOp13
 70
     1
102
RTVSPropertyOp14
 70
     1
102
RTVSPropertyOp15
 70
     1
102
RTVSPropertyOp16
 70
     1
102
RTVSPropertyOp17
 70
     1
102
RTVSPropertyOp18
 70
     1
102
RTVSPropertyOp19
 70
     1
102
RTVSPropertyOp20
 70
     1
102
RTVSPropertyOp21
 70
     1
102
RTVSPropertyOp22
 70
     1
102
RTVSPropertyOp23
 70
     1
102
RTVSPropertyOp24
 70
     1
102
RTVSPropertyOp25
 70
     1
102
RTVSPropertyOp26
 70
     1
102
RTVSPropertyOp27
 70
     1
102
RTVSPropertyOp28
 70
     1
102
RTVSPropertyOp29
 70
     1
102
RTVSPropertyOp30
 70
     1
102
RTVSPropertyOp31
 70
     1
102
RTVSPropertyOp32
 70
     1
  0
XRECORD
  5
3F5
102
{ACAD_REACTORS
330
3F4
102
}
330
3F4
100
AcDbXrecord
280
     1
102
RTVSPropertyOp0
 70
     1
102
RTVSPropertyOp1
 70
     1
102
RTVSPropertyOp2
 70
     1
102
RTVSPropertyOp3
 70
     1
102
RTVSPropertyOp4
 70
     1
102
RTVSPropertyOp5
 70
     1
102
RTVSPropertyOp6
 70
     1
102
RTVSPropertyOp7
 70
     1
102
RTVSPropertyOp8
 70
     1
102
RTVSPropertyOp9
 70
     1
102
RTVSPropertyOp10
 70
     1
102
RTVSPropertyOp11
 70
     1
102
RTVSPropertyOp12
 70
     1
102
RTVSPropertyOp13
 70
     1
102
RTVSPropertyOp14
 70
     1
102
RTVSPropertyOp15
 70
     1
102
RTVSPropertyOp16
 70
     1
102
RTVSPropertyOp17
 70
     1
102
RTVSPropertyOp18
 70
     1
102
RTVSPropertyOp19
 70
     1
102
RTVSPropertyOp20
 70
     1
102
RTVSPropertyOp21
 70
     1
102
RTVSPropertyOp22
 70
     1
102
RTVSPropertyOp23
 70
     1
102
RTVSPropertyOp24
 70
     1
102
RTVSPropertyOp25
 70
     1
102
RTVSPropertyOp26
 70
     1
102
RTVSPropertyOp27
 70
     1
102
RTVSPropertyOp28
 70
     1
102
RTVSPropertyOp29
 70
     1
102
RTVSPropertyOp30
 70
     1
102
RTVSPropertyOp31
 70
     1
102
RTVSPropertyOp32
 70
     1
  0
XRECORD
  5
3F7
102
{ACAD_REACTORS
330
3F6
102
}
330
3F6
100
AcDbXrecord
280
     1
102
RTVSPropertyOp0
 70
     1
102
RTVSPropertyOp1
 70
     1
102
RTVSPropertyOp2
 70
     1
102
RTVSPropertyOp3
 70
     1
102
RTVSPropertyOp4
 70
     1
102
RTVSPropertyOp5
 70
     1
102
RTVSPropertyOp6
 70
     1
102
RTVSPropertyOp7
 70
     1
102
RTVSPropertyOp8
 70
     1
102
RTVSPropertyOp9
 70
     1
102
RTVSPropertyOp10
 70
     1
102
RTVSPropertyOp11
 70
     1
102
RTVSPropertyOp12
 70
     1
102
RTVSPropertyOp13
 70
     1
102
RTVSPropertyOp14
 70
     1
102
RTVSPropertyOp15
 70
     1
102
RTVSPropertyOp16
 70
     1
102
RTVSPropertyOp17
 70
     1
102
RTVSPropertyOp18
 70
     1
102
RTVSPropertyOp19
 70
     1
102
RTVSPropertyOp20
 70
     1
102
RTVSPropertyOp21
 70
     1
102
RTVSPropertyOp22
 70
     1
102
RTVSPropertyOp23
 70
     1
102
RTVSPropertyOp24
 70
     1
102
RTVSPropertyOp25
 70
     1
102
RTVSPropertyOp26
 70
     1
102
RTVSPropertyOp27
 70
     1
102
RTVSPropertyOp28
 70
     1
102
RTVSPropertyOp29
 70
     1
102
RTVSPropertyOp30
 70
     1
102
RTVSPropertyOp31
 70
     1
102
RTVSPropertyOp32
 70
     1
  0
XRECORD
  5
3FF
102
{ACAD_REACTORS
330
3FE
102
}
330
3FE
100
AcDbXrecord
280
     1
102
RTVSPropertyOp0
 70
     1
102
RTVSPropertyOp1
 70
     1
102
RTVSPropertyOp2
 70
     1
102
RTVSPropertyOp3
 70
     1
102
RTVSPropertyOp4
 70
     1
102
RTVSPropertyOp5
 70
     1
102
RTVSPropertyOp6
 70
     1
102
RTVSPropertyOp7
 70
     1
102
RTVSPropertyOp8
 70
     1
102
RTVSPropertyOp9
 70
     1
102
RTVSPropertyOp10
 70
     1
102
RTVSPropertyOp11
 70
     1
102
RTVSPropertyOp12
 70
     1
102
RTVSPropertyOp13
 70
     1
102
RTVSPropertyOp14
 70
     1
102
RTVSPropertyOp15
 70
     1
102
RTVSPropertyOp16
 70
     1
102
RTVSPropertyOp17
 70
     1
102
RTVSPropertyOp18
 70
     1
102
RTVSPropertyOp19
 70
     1
102
RTVSPropertyOp20
 70
     1
102
RTVSPropertyOp21
 70
     1
102
RTVSPropertyOp22
 70
     1
102
RTVSPropertyOp23
 70
     1
102
RTVSPropertyOp24
 70
     1
102
RTVSPropertyOp25
 70
     1
102
RTVSPropertyOp26
 70
     1
102
RTVSPropertyOp27
 70
     1
102
RTVSPropertyOp28
 70
     1
102
RTVSPropertyOp29
 70
     1
102
RTVSPropertyOp30
 70
     1
102
RTVSPropertyOp31
 70
     1
102
RTVSPropertyOp32
 70
     1
  0
XRECORD
  5
3E3
102
{ACAD_REACTORS
330
3E2
102
}
330
3E2
100
AcDbXrecord
280
     1
102
RTVSPropertyOp0
 70
     1
102
RTVSPropertyOp1
 70
     1
102
RTVSPropertyOp2
 70
     1
102
RTVSPropertyOp3
 70
     1
102
RTVSPropertyOp4
 70
     1
102
RTVSPropertyOp5
 70
     1
102
RTVSPropertyOp6
 70
     1
102
RTVSPropertyOp7
 70
     1
102
RTVSPropertyOp8
 70
     1
102
RTVSPropertyOp9
 70
     1
102
RTVSPropertyOp10
 70
     1
102
RTVSPropertyOp11
 70
     1
102
RTVSPropertyOp12
 70
     1
102
RTVSPropertyOp13
 70
     1
102
RTVSPropertyOp14
 70
     1
102
RTVSPropertyOp15
 70
     1
102
RTVSPropertyOp16
 70
     1
102
RTVSPropertyOp17
 70
     1
102
RTVSPropertyOp18
 70
     1
102
RTVSPropertyOp19
 70
     1
102
RTVSPropertyOp20
 70
     1
102
RTVSPropertyOp21
 70
     1
102
RTVSPropertyOp22
 70
     1
102
RTVSPropertyOp23
 70
     1
102
RTVSPropertyOp24
 70
     1
102
RTVSPropertyOp25
 70
     1
102
RTVSPropertyOp26
 70
     1
102
RTVSPropertyOp27
 70
     1
102
RTVSPropertyOp28
 70
     1
102
RTVSPropertyOp29
 70
     1
102
RTVSPropertyOp30
 70
     1
102
RTVSPropertyOp31
 70
     1
102
RTVSPropertyOp32
 70
     1
  0
XRECORD
  5
3E5
102
{ACAD_REACTORS
330
3E4
102
}
330
3E4
100
AcDbXrecord
280
     1
102
RTVSPropertyOp0
 70
     1
102
RTVSPropertyOp1
 70
     1
102
RTVSPropertyOp2
 70
     1
102
RTVSPropertyOp3
 70
     1
102
RTVSPropertyOp4
 70
     1
102
RTVSPropertyOp5
 70
     1
102
RTVSPropertyOp6
 70
     1
102
RTVSPropertyOp7
 70
     1
102
RTVSPropertyOp8
 70
     1
102
RTVSPropertyOp9
 70
     1
102
RTVSPropertyOp10
 70
     1
102
RTVSPropertyOp11
 70
     1
102
RTVSPropertyOp12
 70
     1
102
RTVSPropertyOp13
 70
     1
102
RTVSPropertyOp14
 70
     1
102
RTVSPropertyOp15
 70
     1
102
RTVSPropertyOp16
 70
     1
102
RTVSPropertyOp17
 70
     1
102
RTVSPropertyOp18
 70
     1
102
RTVSPropertyOp19
 70
     1
102
RTVSPropertyOp20
 70
     1
102
RTVSPropertyOp21
 70
     1
102
RTVSPropertyOp22
 70
     1
102
RTVSPropertyOp23
 70
     1
102
RTVSPropertyOp24
 70
     1
102
RTVSPropertyOp25
 70
     1
102
RTVSPropertyOp26
 70
     1
102
RTVSPropertyOp27
 70
     1
102
RTVSPropertyOp28
 70
     1
102
RTVSPropertyOp29
 70
     1
102
RTVSPropertyOp30
 70
     1
102
RTVSPropertyOp31
 70
     1
102
RTVSPropertyOp32
 70
     1
  0
XRECORD
  5
3E7
102
{ACAD_REACTORS
330
3E6
102
}
330
3E6
100
AcDbXrecord
280
     1
102
RTVSPropertyOp0
 70
     1
102
RTVSPropertyOp1
 70
     1
102
RTVSPropertyOp2
 70
     1
102
RTVSPropertyOp3
 70
     1
102
RTVSPropertyOp4
 70
     1
102
RTVSPropertyOp5
 70
     1
102
RTVSPropertyOp6
 70
     1
102
RTVSPropertyOp7
 70
     1
102
RTVSPropertyOp8
 70
     1
102
RTVSPropertyOp9
 70
     1
102
RTVSPropertyOp10
 70
     1
102
RTVSPropertyOp11
 70
     1
102
RTVSPropertyOp12
 70
     1
102
RTVSPropertyOp13
 70
     1
102
RTVSPropertyOp14
 70
     1
102
RTVSPropertyOp15
 70
     1
102
RTVSPropertyOp16
 70
     1
102
RTVSPropertyOp17
 70
     1
102
RTVSPropertyOp18
 70
     1
102
RTVSPropertyOp19
 70
     1
102
RTVSPropertyOp20
 70
     1
102
RTVSPropertyOp21
 70
     1
102
RTVSPropertyOp22
 70
     1
102
RTVSPropertyOp23
 70
     1
102
RTVSPropertyOp24
 70
     1
102
RTVSPropertyOp25
 70
     1
102
RTVSPropertyOp26
 70
     1
102
RTVSPropertyOp27
 70
     1
102
RTVSPropertyOp28
 70
     1
102
RTVSPropertyOp29
 70
     1
102
RTVSPropertyOp30
 70
     1
102
RTVSPropertyOp31
 70
     1
102
RTVSPropertyOp32
 70
     1
  0
XRECORD
  5
3E9
102
{ACAD_REACTORS
330
3E8
102
}
330
3E8
100
AcDbXrecord
280
     1
102
RTVSPropertyOp0
 70
     1
102
RTVSPropertyOp1
 70
     1
102
RTVSPropertyOp2
 70
     1
102
RTVSPropertyOp3
 70
     1
102
RTVSPropertyOp4
 70
     1
102
RTVSPropertyOp5
 70
     1
102
RTVSPropertyOp6
 70
     1
102
RTVSPropertyOp7
 70
     1
102
RTVSPropertyOp8
 70
     1
102
RTVSPropertyOp9
 70
     1
102
RTVSPropertyOp10
 70
     1
102
RTVSPropertyOp11
 70
     1
102
RTVSPropertyOp12
 70
     1
102
RTVSPropertyOp13
 70
     1
102
RTVSPropertyOp14
 70
     1
102
RTVSPropertyOp15
 70
     1
102
RTVSPropertyOp16
 70
     1
102
RTVSPropertyOp17
 70
     1
102
RTVSPropertyOp18
 70
     1
102
RTVSPropertyOp19
 70
     1
102
RTVSPropertyOp20
 70
     1
102
RTVSPropertyOp21
 70
     1
102
RTVSPropertyOp22
 70
     1
102
RTVSPropertyOp23
 70
     1
102
RTVSPropertyOp24
 70
     1
102
RTVSPropertyOp25
 70
     1
102
RTVSPropertyOp26
 70
     1
102
RTVSPropertyOp27
 70
     1
102
RTVSPropertyOp28
 70
     1
102
RTVSPropertyOp29
 70
     1
102
RTVSPropertyOp30
 70
     1
102
RTVSPropertyOp31
 70
     1
102
RTVSPropertyOp32
 70
     1
  0
XRECORD
  5
3FD
102
{ACAD_REACTORS
330
3FC
102
}
330
3FC
100
AcDbXrecord
280
     1
102
RTVSPropertyOp0
 70
     1
102
RTVSPropertyOp1
 70
     1
102
RTVSPropertyOp2
 70
     1
102
RTVSPropertyOp3
 70
     1
102
RTVSPropertyOp4
 70
     1
102
RTVSPropertyOp5
 70
     1
102
RTVSPropertyOp6
 70
     1
102
RTVSPropertyOp7
 70
     1
102
RTVSPropertyOp8
 70
     1
102
RTVSPropertyOp9
 70
     1
102
RTVSPropertyOp10
 70
     1
102
RTVSPropertyOp11
 70
     1
102
RTVSPropertyOp12
 70
     1
102
RTVSPropertyOp13
 70
     1
102
RTVSPropertyOp14
 70
     1
102
RTVSPropertyOp15
 70
     1
102
RTVSPropertyOp16
 70
     1
102
RTVSPropertyOp17
 70
     1
102
RTVSPropertyOp18
 70
     1
102
RTVSPropertyOp19
 70
     1
102
RTVSPropertyOp20
 70
     1
102
RTVSPropertyOp21
 70
     1
102
RTVSPropertyOp22
 70
     1
102
RTVSPropertyOp23
 70
     1
102
RTVSPropertyOp24
 70
     1
102
RTVSPropertyOp25
 70
     1
102
RTVSPropertyOp26
 70
     1
102
RTVSPropertyOp27
 70
     1
102
RTVSPropertyOp28
 70
     1
102
RTVSPropertyOp29
 70
     1
102
RTVSPropertyOp30
 70
     1
102
RTVSPropertyOp31
 70
     1
102
RTVSPropertyOp32
 70
     1
  0
XRECORD
  5
3F3
102
{ACAD_REACTORS
330
3F2
102
}
330
3F2
100
AcDbXrecord
280
     1
102
RTVSPropertyOp0
 70
     1
102
RTVSPropertyOp1
 70
     1
102
RTVSPropertyOp2
 70
     1
102
RTVSPropertyOp3
 70
     1
102
RTVSPropertyOp4
 70
     1
102
RTVSPropertyOp5
 70
     1
102
RTVSPropertyOp6
 70
     1
102
RTVSPropertyOp7
 70
     1
102
RTVSPropertyOp8
 70
     1
102
RTVSPropertyOp9
 70
     1
102
RTVSPropertyOp10
 70
     1
102
RTVSPropertyOp11
 70
     1
102
RTVSPropertyOp12
 70
     1
102
RTVSPropertyOp13
 70
     1
102
RTVSPropertyOp14
 70
     1
102
RTVSPropertyOp15
 70
     1
102
RTVSPropertyOp16
 70
     1
102
RTVSPropertyOp17
 70
     1
102
RTVSPropertyOp18
 70
     1
102
RTVSPropertyOp19
 70
     1
102
RTVSPropertyOp20
 70
     1
102
RTVSPropertyOp21
 70
     1
102
RTVSPropertyOp22
 70
     1
102
RTVSPropertyOp23
 70
     1
102
RTVSPropertyOp24
 70
     1
102
RTVSPropertyOp25
 70
     1
102
RTVSPropertyOp26
 70
     1
102
RTVSPropertyOp27
 70
     1
102
RTVSPropertyOp28
 70
     1
102
RTVSPropertyOp29
 70
     1
102
RTVSPropertyOp30
 70
     1
102
RTVSPropertyOp31
 70
     1
102
RTVSPropertyOp32
 70
     1
  0
XRECORD
  5
3FB
102
{ACAD_REACTORS
330
3FA
102
}
330
3FA
100
AcDbXrecord
280
     1
102
RTVSPropertyOp0
 70
     1
102
RTVSPropertyOp1
 70
     1
102
RTVSPropertyOp2
 70
     1
102
RTVSPropertyOp3
 70
     1
102
RTVSPropertyOp4
 70
     1
102
RTVSPropertyOp5
 70
     1
102
RTVSPropertyOp6
 70
     1
102
RTVSPropertyOp7
 70
     1
102
RTVSPropertyOp8
 70
     1
102
RTVSPropertyOp9
 70
     1
102
RTVSPropertyOp10
 70
     1
102
RTVSPropertyOp11
 70
     1
102
RTVSPropertyOp12
 70
     1
102
RTVSPropertyOp13
 70
     1
102
RTVSPropertyOp14
 70
     1
102
RTVSPropertyOp15
 70
     1
102
RTVSPropertyOp16
 70
     1
102
RTVSPropertyOp17
 70
     1
102
RTVSPropertyOp18
 70
     1
102
RTVSPropertyOp19
 70
     1
102
RTVSPropertyOp20
 70
     1
102
RTVSPropertyOp21
 70
     1
102
RTVSPropertyOp22
 70
     1
102
RTVSPropertyOp23
 70
     1
102
RTVSPropertyOp24
 70
     1
102
RTVSPropertyOp25
 70
     1
102
RTVSPropertyOp26
 70
     1
102
RTVSPropertyOp27
 70
     1
102
RTVSPropertyOp28
 70
     1
102
RTVSPropertyOp29
 70
     1
102
RTVSPropertyOp30
 70
     1
102
RTVSPropertyOp31
 70
     1
102
RTVSPropertyOp32
 70
     1
  0
ENDSEC
  0
EOF
