  0
SECTION
  2
HEADER
  9
$ACADVER
  1
AC1018
  9
$ACADMAINTVER
 70
     0
  9
$DWGCODEPAGE
  3
ANSI_1252
  9
$INSBASE
 10
0.0
 20
0.0
 30
0.0
  9
$EXTMIN
 10
-218.1250091083022
 20
5.68848192285668
 30
0.0
  9
$EXTMAX
 10
78.87499089169586
 20
215.6884819228568
 30
0.0
  9
$LIMMIN
 10
0.0
 20
0.0
  9
$LIMMAX
 10
12.0
 20
9.0
  9
$ORTHOMODE
 70
     0
  9
$REGENMODE
 70
     1
  9
$FILLMODE
 70
     1
  9
$QTEXTMODE
 70
     0
  9
$MIRRTEXT
 70
     1
  9
$LTSCALE
 40
1.0
  9
$ATTMODE
 70
     1
  9
$TEXTSIZE
 40
0.2
  9
$TRACEWID
 40
0.05
  9
$TEXTSTYLE
  7
Standard
  9
$CLAYER
  8
0
  9
$CELTYPE
  6
ByLayer
  9
$CECOLOR
 62
   256
  9
$CELTSCALE
 40
1.0
  9
$DISPSILH
 70
     0
  9
$DIMSCALE
 40
1.0
  9
$DIMASZ
 40
0.18
  9
$DIMEXO
 40
0.0625
  9
$DIMDLI
 40
0.38
  9
$DIMRND
 40
0.0
  9
$DIMDLE
 40
0.0
  9
$DIMEXE
 40
0.18
  9
$DIMTP
 40
0.0
  9
$DIMTM
 40
0.0
  9
$DIMTXT
 40
0.18
  9
$DIMCEN
 40
0.09
  9
$DIMTSZ
 40
0.0
  9
$DIMTOL
 70
     0
  9
$DIMLIM
 70
     0
  9
$DIMTIH
 70
     1
  9
$DIMTOH
 70
     1
  9
$DIMSE1
 70
     0
  9
$DIMSE2
 70
     0
  9
$DIMTAD
 70
     0
  9
$DIMZIN
 70
     0
  9
$DIMBLK
  1

  9
$DIMASO
 70
     1
  9
$DIMSHO
 70
     1
  9
$DIMPOST
  1

  9
$DIMAPOST
  1

  9
$DIMALT
 70
     0
  9
$DIMALTD
 70
     2
  9
$DIMALTF
 40
25.4
  9
$DIMLFAC
 40
1.0
  9
$DIMTOFL
 70
     0
  9
$DIMTVP
 40
0.0
  9
$DIMTIX
 70
     0
  9
$DIMSOXD
 70
     0
  9
$DIMSAH
 70
     0
  9
$DIMBLK1
  1

  9
$DIMBLK2
  1

  9
$DIMSTYLE
  2
Standard
  9
$DIMCLRD
 70
     0
  9
$DIMCLRE
 70
     0
  9
$DIMCLRT
 70
     0
  9
$DIMTFAC
 40
1.0
  9
$DIMGAP
 40
0.09
  9
$DIMJUST
 70
     0
  9
$DIMSD1
 70
     0
  9
$DIMSD2
 70
     0
  9
$DIMTOLJ
 70
     1
  9
$DIMTZIN
 70
     0
  9
$DIMALTZ
 70
     0
  9
$DIMALTTZ
 70
     0
  9
$DIMUPT
 70
     0
  9
$DIMDEC
 70
     4
  9
$DIMTDEC
 70
     4
  9
$DIMALTU
 70
     2
  9
$DIMALTTD
 70
     2
  9
$DIMTXSTY
  7
Standard
  9
$DIMAUNIT
 70
     0
  9
$DIMADEC
 70
     0
  9
$DIMALTRND
 40
0.0
  9
$DIMAZIN
 70
     0
  9
$DIMDSEP
 70
    46
  9
$DIMATFIT
 70
     3
  9
$DIMFRAC
 70
     0
  9
$DIMLDRBLK
  1

  9
$DIMLUNIT
 70
     2
  9
$DIMLWD
 70
    -2
  9
$DIMLWE
 70
    -2
  9
$DIMTMOVE
 70
     0
  9
$LUNITS
 70
     2
  9
$LUPREC
 70
     4
  9
$SKETCHINC
 40
0.1
  9
$FILLETRAD
 40
0.5
  9
$AUNITS
 70
     0
  9
$AUPREC
 70
     0
  9
$MENU
  1
.
  9
$ELEVATION
 40
0.0
  9
$PELEVATION
 40
0.0
  9
$THICKNESS
 40
0.0
  9
$LIMCHECK
 70
     0
  9
$CHAMFERA
 40
0.5
  9
$CHAMFERB
 40
0.5
  9
$CHAMFERC
 40
1.0
  9
$CHAMFERD
 40
0.0
  9
$SKPOLY
 70
     0
  9
$TDCREATE
 40
2458163.450168901
  9
$TDUCREATE
 40
2458163.408502234
  9
$TDUPDATE
 40
2458163.450169445
  9
$TDUUPDATE
 40
2458163.408502778
  9
$TDINDWG
 40
0.0000000116
  9
$TDUSRTIMER
 40
0.0000000116
  9
$USRTIMER
 70
     1
  9
$ANGBASE
 50
0.0
  9
$ANGDIR
 70
     0
  9
$PDMODE
 70
     0
  9
$PDSIZE
 40
0.0
  9
$PLINEWID
 40
0.0
  9
$SPLFRAME
 70
     0
  9
$SPLINETYPE
 70
     6
  9
$SPLINESEGS
 70
     8
  9
$HANDSEED
  5
259
  9
$SURFTAB1
 70
     6
  9
$SURFTAB2
 70
     6
  9
$SURFTYPE
 70
     6
  9
$SURFU
 70
     6
  9
$SURFV
 70
     6
  9
$UCSBASE
  2

  9
$UCSNAME
  2

  9
$UCSORG
 10
0.0
 20
0.0
 30
0.0
  9
$UCSXDIR
 10
1.0
 20
0.0
 30
0.0
  9
$UCSYDIR
 10
0.0
 20
1.0
 30
0.0
  9
$UCSORTHOREF
  2

  9
$UCSORTHOVIEW
 70
     0
  9
$UCSORGTOP
 10
0.0
 20
0.0
 30
0.0
  9
$UCSORGBOTTOM
 10
0.0
 20
0.0
 30
0.0
  9
$UCSORGLEFT
 10
0.0
 20
0.0
 30
0.0
  9
$UCSORGRIGHT
 10
0.0
 20
0.0
 30
0.0
  9
$UCSORGFRONT
 10
0.0
 20
0.0
 30
0.0
  9
$UCSORGBACK
 10
0.0
 20
0.0
 30
0.0
  9
$PUCSBASE
  2

  9
$PUCSNAME
  2

  9
$PUCSORG
 10
0.0
 20
0.0
 30
0.0
  9
$PUCSXDIR
 10
1.0
 20
0.0
 30
0.0
  9
$PUCSYDIR
 10
0.0
 20
1.0
 30
0.0
  9
$PUCSORTHOREF
  2

  9
$PUCSORTHOVIEW
 70
     0
  9
$PUCSORGTOP
 10
0.0
 20
0.0
 30
0.0
  9
$PUCSORGBOTTOM
 10
0.0
 20
0.0
 30
0.0
  9
$PUCSORGLEFT
 10
0.0
 20
0.0
 30
0.0
  9
$PUCSORGRIGHT
 10
0.0
 20
0.0
 30
0.0
  9
$PUCSORGFRONT
 10
0.0
 20
0.0
 30
0.0
  9
$PUCSORGBACK
 10
0.0
 20
0.0
 30
0.0
  9
$USERI1
 70
     0
  9
$USERI2
 70
     0
  9
$USERI3
 70
     0
  9
$USERI4
 70
     0
  9
$USERI5
 70
     0
  9
$USERR1
 40
18.1
  9
$USERR2
 40
0.0
  9
$USERR3
 40
0.0
  9
$USERR4
 40
0.0
  9
$USERR5
 40
0.0
  9
$WORLDVIEW
 70
     1
  9
$SHADEDGE
 70
     3
  9
$SHADEDIF
 70
    70
  9
$TILEMODE
 70
     1
  9
$MAXACTVP
 70
    64
  9
$PINSBASE
 10
0.0
 20
0.0
 30
0.0
  9
$PLIMCHECK
 70
     0
  9
$PEXTMIN
 10
1.00000000000000E+20
 20
1.00000000000000E+20
 30
1.00000000000000E+20
  9
$PEXTMAX
 10
-1.00000000000000E+20
 20
-1.00000000000000E+20
 30
-1.00000000000000E+20
  9
$PLIMMIN
 10
0.0
 20
0.0
  9
$PLIMMAX
 10
12.0
 20
9.0
  9
$UNITMODE
 70
     0
  9
$VISRETAIN
 70
     1
  9
$PLINEGEN
 70
     0
  9
$PSLTSCALE
 70
     1
  9
$TREEDEPTH
 70
  3020
  9
$CMLSTYLE
  2
Standard
  9
$CMLJUST
 70
     0
  9
$CMLSCALE
 40
1.0
  9
$PROXYGRAPHICS
 70
     1
  9
$MEASUREMENT
 70
     1
  9
$CELWEIGHT
370
    -1
  9
$ENDCAPS
280
     0
  9
$JOINSTYLE
280
     0
  9
$LWDISPLAY
290
     0
  9
$INSUNITS
 70
     4
  9
$HYPERLINKBASE
  1

  9
$STYLESHEET
  1

  9
$XEDIT
290
     1
  9
$CEPSNTYPE
380
     0
  9
$PSTYLEMODE
290
     1
  9
$FINGERPRINTGUID
  2
{310B7F5A-02A1-4F06-BA8B-DBD9FD787B70}
  9
$VERSIONGUID
  2
{FAEB1C32-E019-11D5-929B-00C0DF256EC4}
  9
$EXTNAMES
290
     1
  9
$PSVPSCALE
 40
0.0
  9
$OLESTARTUP
290
     0
  9
$SORTENTS
280
   127
  9
$INDEXCTL
280
     0
  9
$HIDETEXT
280
     1
  9
$XCLIPFRAME
290
     0
  9
$HALOGAP
280
     0
  9
$OBSCOLOR
 70
   257
  9
$OBSLTYPE
280
     0
  9
$INTERSECTIONDISPLAY
280
     0
  9
$INTERSECTIONCOLOR
 70
   257
  9
$DIMASSOC
280
     2
  9
$PROJECTNAME
  1

  0
ENDSEC
  0
SECTION
  2
CLASSES
  0
CLASS
  1
ACDBDICTIONARYWDFLT
  2
AcDbDictionaryWithDefault
  3
ObjectDBX Classes
 90
        0
 91
        4
280
     0
281
     0
  0
CLASS
  1
VISUALSTYLE
  2
AcDbVisualStyle
  3
ObjectDBX Classes
 90
     4095
 91
        4
280
     0
281
     0
  0
CLASS
  1
MATERIAL
  2
AcDbMaterial
  3
ObjectDBX Classes
 90
     1153
 91
        4
280
     0
281
     0
  0
ENDSEC
  0
SECTION
  2
TABLES
  0
TABLE
  2
VPORT
  5
8
330
0
100
AcDbSymbolTable
 70
     1
  0
VPORT
  5
29
330
8
100
AcDbSymbolTableRecord
100
AcDbViewportTableRecord
  2
*Active
 70
     0
 10
0.0
 20
0.0
 11
1.0
 21
1.0
 12
-69.62500910830317
 22
110.6884819228567
 13
0.0
 23
0.0
 14
0.5
 24
0.5
 15
0.5
 25
0.5
 16
0.0
 26
0.0
 36
1.0
 17
0.0
 27
0.0
 37
0.0
 40
231.0000000000001
 41
1.60267857142857
 42
50.0
 43
0.0
 44
0.0
 50
0.0
 51
0.0
 71
     0
 72
   100
 73
     1
 74
     3
 75
     0
 76
     0
 77
     0
 78
     0
281
     0
 65
     1
110
0.0
120
0.0
130
0.0
111
1.0
121
0.0
131
0.0
112
0.0
122
1.0
132
0.0
 79
     0
146
0.0
  0
ENDTAB
  0
TABLE
  2
LTYPE
  5
5
330
0
100
AcDbSymbolTable
 70
     8
  0
LTYPE
  5
14
330
5
100
AcDbSymbolTableRecord
100
AcDbLinetypeTableRecord
  2
ByBlock
 70
     0
  3

 72
    65
 73
     0
 40
0.0
  0
LTYPE
  5
15
330
5
100
AcDbSymbolTableRecord
100
AcDbLinetypeTableRecord
  2
ByLayer
 70
     0
  3

 72
    65
 73
     0
 40
0.0
  0
LTYPE
  5
16
330
5
100
AcDbSymbolTableRecord
100
AcDbLinetypeTableRecord
  2
Continuous
 70
     0
  3
Solid line
 72
    65
 73
     0
 40
0.0
  0
LTYPE
  5
3F
330
5
100
AcDbSymbolTableRecord
100
AcDbLinetypeTableRecord
  2
DASHED
 70
     0
  3
Dashed
 72
    65
 73
     2
 40
15.0
 49
7.0
 74
     0
 49
-8.0
 74
     0
  0
LTYPE
  5
40
330
5
100
AcDbSymbolTableRecord
100
AcDbLinetypeTableRecord
  2
DOTTED
 70
     0
  3
Dotted
 72
    65
 73
     2
 40
1.0
 49
0.0
 74
     0
 49
-1.0
 74
     0
  0
LTYPE
  5
41
330
5
100
AcDbSymbolTableRecord
100
AcDbLinetypeTableRecord
  2
DOT_CENTER
 70
     0
  3
Dot_Center
 72
    65
 73
     4
 40
14.0
 49
12.0
 74
     0
 49
-1.0
 74
     0
 49
0.0
 74
     0
 49
-1.0
 74
     0
  0
LTYPE
  5
42
330
5
100
AcDbSymbolTableRecord
100
AcDbLinetypeTableRecord
  2
LONG_DASHED
 70
     0
  3
Long_Dashed
 72
    65
 73
     2
 40
15.0
 49
10.0
 74
     0
 49
-5.0
 74
     0
  0
LTYPE
  5
43
330
5
100
AcDbSymbolTableRecord
100
AcDbLinetypeTableRecord
  2
DASH_CENTER
 70
     0
  3
Dash_Center
 72
    65
 73
     4
 40
14.0
 49
11.0
 74
     0
 49
-1.0
 74
     0
 49
1.0
 74
     0
 49
-1.0
 74
     0
  0
LTYPE
  5
44
330
5
100
AcDbSymbolTableRecord
100
AcDbLinetypeTableRecord
  2
PHANTOM
 70
     0
  3
Phantom
 72
    65
 73
     6
 40
13.0
 49
10.0
 74
     0
 49
-1.0
 74
     0
 49
0.0
 74
     0
 49
-1.0
 74
     0
 49
0.0
 74
     0
 49
-1.0
 74
     0
  0
LTYPE
  5
45
330
5
100
AcDbSymbolTableRecord
100
AcDbLinetypeTableRecord
  2
CENTER_DASH_DASH
 70
     0
  3
Center_Dash_Dash
 72
    65
 73
     6
 40
14.0
 49
9.0
 74
     0
 49
-1.0
 74
     0
 49
1.0
 74
     0
 49
-1.0
 74
     0
 49
1.0
 74
     0
 49
-1.0
 74
     0
  0
ENDTAB
  0
TABLE
  2
LAYER
  5
2
330
0
100
AcDbSymbolTable
 70
     2
  0
LAYER
  5
10
330
2
100
AcDbSymbolTableRecord
100
AcDbLayerTableRecord
  2
0
 70
     0
 62
     7
  6
Continuous
370
    -3
390
F
  0
LAYER
  5
46
330
2
100
AcDbSymbolTableRecord
100
AcDbLayerTableRecord
  2
1
 70
     0
 62
     7
  6
Continuous
370
    -3
390
F
  0
ENDTAB
  0
TABLE
  2
STYLE
  5
3
330
0
100
AcDbSymbolTable
 70
     5
  0
STYLE
  5
11
330
3
100
AcDbSymbolTableRecord
100
AcDbTextStyleTableRecord
  2
Standard
 70
     0
 40
0.0
 41
1.0
 50
0.0
 71
     0
 42
0.2
  3
txt
  4

  0
STYLE
  5
17D
330
3
100
AcDbSymbolTableRecord
100
AcDbTextStyleTableRecord
  2
CONVERTER_11
 70
     0
 40
0.0
 41
0.9
 50
0.0
 71
     0
 42
0.2
  3
txt.shx
  4

  0
STYLE
  5
184
330
3
100
AcDbSymbolTableRecord
100
AcDbTextStyleTableRecord
  2
CONVERTER_12
 70
     0
 40
0.0
 41
0.81
 50
0.0
 71
     0
 42
0.2
  3
txt.shx
  4

  0
STYLE
  5
19A
330
3
100
AcDbSymbolTableRecord
100
AcDbTextStyleTableRecord
  2
CONVERTER_13
 70
     0
 40
0.0
 41
0.72
 50
0.0
 71
     0
 42
0.2
  3
txt.shx
  4

  0
STYLE
  5
19D
330
3
100
AcDbSymbolTableRecord
100
AcDbTextStyleTableRecord
  2
CONVERTER_14
 70
     0
 40
0.0
 41
0.855
 50
0.0
 71
     0
 42
0.2
  3
txt.shx
  4

  0
ENDTAB
  0
TABLE
  2
VIEW
  5
6
330
0
100
AcDbSymbolTable
 70
     0
  0
ENDTAB
  0
TABLE
  2
UCS
  5
7
330
0
100
AcDbSymbolTable
 70
     0
  0
ENDTAB
  0
TABLE
  2
APPID
  5
9
330
0
100
AcDbSymbolTable
 70
     1
  0
APPID
  5
12
330
9
100
AcDbSymbolTableRecord
100
AcDbRegAppTableRecord
  2
ACAD
 70
     0
  0
ENDTAB
  0
TABLE
  2
DIMSTYLE
  5
A
330
0
100
AcDbSymbolTable
 70
     4
100
AcDbDimStyleTable
  0
DIMSTYLE
105
27
330
A
100
AcDbSymbolTableRecord
100
AcDbDimStyleTableRecord
  2
Standard
 70
     0
178
     0
340
11
  0
DIMSTYLE
105
1EB
102
{ACAD_REACTORS
330
1EC
102
}
330
A
100
AcDbSymbolTableRecord
100
AcDbDimStyleTableRecord
  2
ME10_DIM_10
 70
     0
 41
3.5
 42
0.0
 44
1.5
 73
     0
 74
     0
 77
     1
 78
     8
140
3.5
147
1.5
172
     1
173
     1
174
     1
175
     1
176
     2
177
     2
271
     2
178
     3
271
     2
340
17D
  0
DIMSTYLE
105
224
102
{ACAD_REACTORS
330
225
102
}
330
A
100
AcDbSymbolTableRecord
100
AcDbDimStyleTableRecord
  2
ME10_DIM_11
 70
     0
 41
3.5
 42
0.0
 44
1.5
 73
     0
 74
     0
 77
     1
 78
     8
140
3.5
147
1.5
172
     1
173
     1
174
     1
175
     1
176
     2
177
     2
271
     2
178
     3
271
     2
340
17D
  0
DIMSTYLE
105
22F
102
{ACAD_REACTORS
330
230
102
}
330
A
100
AcDbSymbolTableRecord
100
AcDbDimStyleTableRecord
  2
ME10_DIM_12
 70
     0
 41
3.5
 42
0.0
 44
1.5
 73
     0
 74
     0
 77
     1
 78
     8
140
3.5
147
1.5
172
     1
173
     1
174
     1
175
     1
176
     2
177
     2
271
     2
178
     3
271
     2
340
17D
  0
ENDTAB
  0
TABLE
  2
BLOCK_RECORD
  5
1
330
0
100
AcDbSymbolTable
 70
    20
  0
BLOCK_RECORD
  5
1F
330
1
100
AcDbSymbolTableRecord
100
AcDbBlockTableRecord
  2
*Model_Space
340
22
  0
BLOCK_RECORD
  5
1B
330
1
100
AcDbSymbolTableRecord
100
AcDbBlockTableRecord
  2
*Paper_Space
340
1E
  0
BLOCK_RECORD
  5
23
330
1
100
AcDbSymbolTableRecord
100
AcDbBlockTableRecord
  2
*Paper_Space0
340
26
  0
BLOCK_RECORD
  5
47
330
1
100
AcDbSymbolTableRecord
100
AcDbBlockTableRecord
  2
_rahmen
340
0
102
{BLKREFS
331
4E
102
}
  0
BLOCK_RECORD
  5
4A
330
1
100
AcDbSymbolTableRecord
100
AcDbBlockTableRecord
  2
_punkt
340
0
102
{BLKREFS
331
4F
102
}
  0
BLOCK_RECORD
  5
4D
330
1
100
AcDbSymbolTableRecord
100
AcDbBlockTableRecord
  2
A4I_CS
340
0
102
{BLKREFS
331
7D
102
}
  0
BLOCK_RECORD
  5
52
330
1
100
AcDbSymbolTableRecord
100
AcDbBlockTableRecord
  2
D_URK_ND-select__1
340
0
102
{BLKREFS
331
56
102
}
  0
BLOCK_RECORD
  5
55
330
1
100
AcDbSymbolTableRecord
100
AcDbBlockTableRecord
  2
AllgSicht1
340
0
102
{BLKREFS
331
7E
102
}
  0
BLOCK_RECORD
  5
59
330
1
100
AcDbSymbolTableRecord
100
AcDbBlockTableRecord
  2
D_URK_ND-select__2
340
0
102
{BLKREFS
331
5D
102
}
  0
BLOCK_RECORD
  5
5C
330
1
100
AcDbSymbolTableRecord
100
AcDbBlockTableRecord
  2
Drfsicht1
340
0
102
{BLKREFS
331
7F
102
}
  0
BLOCK_RECORD
  5
60
330
1
100
AcDbSymbolTableRecord
100
AcDbBlockTableRecord
  2
D_URK_ND-select__3
340
0
102
{BLKREFS
331
64
102
}
  0
BLOCK_RECORD
  5
63
330
1
100
AcDbSymbolTableRecord
100
AcDbBlockTableRecord
  2
Rckans1
340
0
102
{BLKREFS
331
80
102
}
  0
BLOCK_RECORD
  5
67
330
1
100
AcDbSymbolTableRecord
100
AcDbBlockTableRecord
  2
D_URK_ND-select__4
340
0
102
{BLKREFS
331
6B
102
}
  0
BLOCK_RECORD
  5
6A
330
1
100
AcDbSymbolTableRecord
100
AcDbBlockTableRecord
  2
SA_Rechts1
340
0
102
{BLKREFS
331
81
102
}
  0
BLOCK_RECORD
  5
6E
330
1
100
AcDbSymbolTableRecord
100
AcDbBlockTableRecord
  2
D_URK_ND-select__5
340
0
102
{BLKREFS
331
72
102
}
  0
BLOCK_RECORD
  5
71
330
1
100
AcDbSymbolTableRecord
100
AcDbBlockTableRecord
  2
SA_links1
340
0
102
{BLKREFS
331
82
102
}
  0
BLOCK_RECORD
  5
75
330
1
100
AcDbSymbolTableRecord
100
AcDbBlockTableRecord
  2
D_URK_ND-select__6
340
0
102
{BLKREFS
331
79
102
}
  0
BLOCK_RECORD
  5
78
330
1
100
AcDbSymbolTableRecord
100
AcDbBlockTableRecord
  2
Vordans1
340
0
102
{BLKREFS
331
83
102
}
  0
BLOCK_RECORD
  5
7C
330
1
100
AcDbSymbolTableRecord
100
AcDbBlockTableRecord
  2
1
340
0
102
{BLKREFS
331
86
102
}
  0
BLOCK_RECORD
  5
1E0
330
1
100
AcDbSymbolTableRecord
100
AcDbBlockTableRecord
  2
*D17
340
0
  0
BLOCK_RECORD
  5
21B
330
1
100
AcDbSymbolTableRecord
100
AcDbBlockTableRecord
  2
*D18
340
0
  0
BLOCK_RECORD
  5
226
330
1
100
AcDbSymbolTableRecord
100
AcDbBlockTableRecord
  2
*D19
340
0
  0
ENDTAB
  0
ENDSEC
  0
SECTION
  2
BLOCKS
  0
BLOCK
  5
20
330
1F
100
AcDbEntity
  8
0
100
AcDbBlockBegin
  2
*Model_Space
 70
     0
 10
0.0
 20
0.0
 30
0.0
  3
*Model_Space
  1

  0
ENDBLK
  5
21
330
1F
100
AcDbEntity
  8
0
100
AcDbBlockEnd
  0
BLOCK
  5
1C
330
1B
100
AcDbEntity
 67
     1
  8
0
100
AcDbBlockBegin
  2
*Paper_Space
 70
     0
 10
0.0
 20
0.0
 30
0.0
  3
*Paper_Space
  1

  0
ENDBLK
  5
1D
330
1B
100
AcDbEntity
 67
     1
  8
0
100
AcDbBlockEnd
  0
BLOCK
  5
24
330
23
100
AcDbEntity
  8
0
100
AcDbBlockBegin
  2
*Paper_Space0
 70
     0
 10
0.0
 20
0.0
 30
0.0
  3
*Paper_Space0
  1

  0
ENDBLK
  5
25
330
23
100
AcDbEntity
  8
0
100
AcDbBlockEnd
  0
BLOCK
  5
48
330
47
100
AcDbEntity
  8
0
100
AcDbBlockBegin
  2
_rahmen
 70
     0
 10
73.87499089169687
 20
5.68848192285668
 30
0.0
  3
_rahmen
  1

  0
LINE
  5
87
330
47
100
AcDbEntity
  8
1
  6
Continuous
 62
     6
100
AcDbLine
 10
-55.66981363505315
 20
36.1884819228568
 30
0.0
 11
73.87499089169856
 21
36.1884819228568
 31
0.0
  0
LINE
  5
88
330
47
100
AcDbEntity
  8
1
  6
Continuous
 62
     7
100
AcDbLine
 10
-37.46981363505313
 20
14.9384819228568
 30
0.0
 11
-19.26981363505323
 21
14.9384819228568
 31
0.0
  0
LINE
  5
89
330
47
100
AcDbEntity
  8
1
  6
Continuous
 62
     6
100
AcDbLine
 10
-37.46981363505313
 20
10.6884819228568
 30
0.0
 11
-55.66981363505315
 21
10.68848192285668
 31
0.0
  0
LINE
  5
8A
330
47
100
AcDbEntity
  8
1
  6
Continuous
 62
     7
100
AcDbLine
 10
-37.46981363505313
 20
14.9384819228568
 30
0.0
 11
-37.46981363505313
 21
10.6884819228568
 31
0.0
  0
LINE
  5
8B
330
47
100
AcDbEntity
  8
1
  6
Continuous
 62
     7
100
AcDbLine
 10
-19.26981363505323
 20
14.9384819228568
 30
0.0
 11
-19.26981363505323
 21
10.68848192285668
 31
0.0
  0
LINE
  5
8C
330
47
100
AcDbEntity
  8
1
  6
Continuous
 62
     7
100
AcDbLine
 10
-55.66981363505315
 20
14.93848192285668
 30
0.0
 11
-55.66981363505315
 21
10.68848192285668
 31
0.0
  0
LINE
  5
8D
330
47
100
AcDbEntity
  8
1
  6
Continuous
 62
     7
100
AcDbLine
 10
-55.66981363505315
 20
14.93848192285668
 30
0.0
 11
-37.46981363505313
 21
14.9384819228568
 31
0.0
  0
LINE
  5
8E
330
47
100
AcDbEntity
  8
1
  6
Continuous
 62
     2
100
AcDbLine
 10
-46.43315874849054
 20
34.31348192285671
 30
0.0
 11
-46.43315874849054
 21
29.31348192285671
 31
0.0
  0
LINE
  5
8F
330
47
100
AcDbEntity
  8
1
  6
Continuous
 62
     2
100
AcDbLine
 10
-46.43315874849054
 20
29.31348192285671
 30
0.0
 11
-51.43315874849054
 21
30.56348192285671
 31
0.0
  0
LINE
  5
90
330
47
100
AcDbEntity
  8
1
  6
Continuous
 62
     2
100
AcDbLine
 10
-51.43315874849054
 20
30.56348192285671
 30
0.0
 11
-51.43315874849054
 21
33.06348192285671
 31
0.0
  0
LINE
  5
91
330
47
100
AcDbEntity
  8
1
  6
Continuous
 62
     2
100
AcDbLine
 10
-51.43315874849054
 20
33.06348192285671
 30
0.0
 11
-46.43315874849054
 21
34.31348192285671
 31
0.0
  0
LINE
  5
92
330
47
100
AcDbEntity
  8
1
  6
Continuous
 62
     6
100
AcDbLine
 10
-178.1250091083014
 20
10.6884819228568
 30
0.0
 11
-213.1250091083012
 21
10.6884819228568
 31
0.0
  0
LINE
  5
93
330
47
100
AcDbEntity
  8
1
  6
Continuous
 62
     6
100
AcDbLine
 10
73.87499089169856
 20
27.6884819228568
 30
0.0
 11
73.87499089169816
 21
19.1884819228568
 31
0.0
  0
LINE
  5
94
330
47
100
AcDbEntity
  8
1
  6
Continuous
 62
     6
100
AcDbLine
 10
-19.26981363505323
 20
10.68848192285668
 30
0.0
 11
-19.62500910830315
 21
10.6884819228568
 31
0.0
  0
LINE
  5
95
330
47
100
AcDbEntity
  8
1
  6
Continuous
 62
     6
100
AcDbLine
 10
-171.9250091083034
 20
10.68848192285668
 30
0.0
 11
-178.1250091083014
 21
10.6884819228568
 31
0.0
  0
LINE
  5
96
330
47
100
AcDbEntity
  8
1
  6
Continuous
 62
     7
100
AcDbLine
 10
-19.26981363505323
 20
27.6884819228568
 30
0.0
 11
-19.26981363505323
 21
14.9384819228568
 31
0.0
  0
LINE
  5
97
330
47
100
AcDbEntity
  8
1
  6
Continuous
 62
     7
100
AcDbLine
 10
-55.66981363505315
 20
27.6884819228568
 30
0.0
 11
-55.66981363505315
 21
14.93848192285668
 31
0.0
  0
LINE
  5
98
330
47
100
AcDbEntity
  8
1
  6
Continuous
 62
     6
100
AcDbLine
 10
-69.62500910830312
 20
10.6884819228568
 30
0.0
 11
-119.6250091083034
 21
10.6884819228568
 31
0.0
  0
LINE
  5
99
330
47
100
AcDbEntity
  8
1
  6
Continuous
 62
     6
100
AcDbLine
 10
-171.9250091083034
 20
10.68848192285668
 30
0.0
 11
-169.6250091083031
 21
10.6884819228568
 31
0.0
  0
LINE
  5
9A
330
47
100
AcDbEntity
  8
1
  6
Continuous
 62
     6
100
AcDbLine
 10
-19.26981363505323
 20
10.68848192285668
 30
0.0
 11
30.37499089169685
 21
10.6884819228568
 31
0.0
  0
LINE
  5
9B
330
47
100
AcDbEntity
  8
1
  6
Continuous
 62
     6
100
AcDbLine
 10
73.87499089169687
 20
10.6884819228568
 30
0.0
 11
73.87499089169816
 21
19.1884819228568
 31
0.0
  0
LINE
  5
9C
330
47
100
AcDbEntity
  8
1
  6
Continuous
 62
     2
100
AcDbLine
 10
-218.1250091083022
 20
10.6884819228568
 30
0.0
 11
-218.1250091083022
 21
5.68848192285668
 31
0.0
  0
LINE
  5
9D
330
47
100
AcDbEntity
  8
1
  6
Continuous
 62
     2
100
AcDbLine
 10
-213.1250091083012
 20
10.6884819228568
 30
0.0
 11
-218.1250091083022
 21
10.6884819228568
 31
0.0
  0
LINE
  5
9E
330
47
100
AcDbEntity
  8
1
  6
Continuous
 62
     2
100
AcDbLine
 10
-213.1250091083012
 20
5.68848192285668
 30
0.0
 11
-169.6250091083031
 21
5.68848192285668
 31
0.0
  0
LINE
  5
9F
330
47
100
AcDbEntity
  8
1
  6
Continuous
 62
     2
100
AcDbLine
 10
-213.1250091083012
 20
10.6884819228568
 30
0.0
 11
-213.1250091083012
 21
5.68848192285668
 31
0.0
  0
LINE
  5
A0
330
47
100
AcDbEntity
  8
1
  6
Continuous
 62
     2
100
AcDbLine
 10
30.37499089169685
 20
5.68848192285668
 30
0.0
 11
-19.62500910830315
 21
5.68848192285668
 31
0.0
  0
LINE
  5
A1
330
47
100
AcDbEntity
  8
1
  6
Continuous
 62
     2
100
AcDbLine
 10
30.37499089169685
 20
5.68848192285668
 30
0.0
 11
30.37499089169685
 21
10.6884819228568
 31
0.0
  0
LINE
  5
A2
330
47
100
AcDbEntity
  8
1
  6
Continuous
 62
     2
100
AcDbLine
 10
-19.62500910830315
 20
5.68848192285668
 30
0.0
 11
-19.62500910830315
 21
10.6884819228568
 31
0.0
  0
LINE
  5
A3
330
47
100
AcDbEntity
  8
1
  6
Continuous
 62
     2
100
AcDbLine
 10
-69.62500910830312
 20
5.68848192285668
 30
0.0
 11
-19.62500910830315
 21
5.68848192285668
 31
0.0
  0
LINE
  5
A4
330
47
100
AcDbEntity
  8
1
  6
Continuous
 62
     2
100
AcDbLine
 10
-69.62500910830312
 20
5.68848192285668
 30
0.0
 11
-69.62500910830312
 21
10.6884819228568
 31
0.0
  0
LINE
  5
A5
330
47
100
AcDbEntity
  8
1
  6
Continuous
 62
     2
100
AcDbLine
 10
-119.6250091083034
 20
5.68848192285668
 30
0.0
 11
-69.62500910830312
 21
5.68848192285668
 31
0.0
  0
LINE
  5
A6
330
47
100
AcDbEntity
  8
1
  6
Continuous
 62
     2
100
AcDbLine
 10
-119.6250091083034
 20
5.68848192285668
 30
0.0
 11
-119.6250091083034
 21
10.6884819228568
 31
0.0
  0
LINE
  5
A7
330
47
100
AcDbEntity
  8
1
  6
Continuous
 62
     2
100
AcDbLine
 10
-169.6250091083031
 20
5.68848192285668
 30
0.0
 11
-119.6250091083034
 21
5.68848192285668
 31
0.0
  0
LINE
  5
A8
330
47
100
AcDbEntity
  8
1
  6
Continuous
 62
     2
100
AcDbLine
 10
-169.6250091083031
 20
5.68848192285668
 30
0.0
 11
-169.6250091083031
 21
10.6884819228568
 31
0.0
  0
LINE
  5
A9
330
47
100
AcDbEntity
  8
1
  6
Continuous
 62
     6
100
AcDbLine
 10
-213.1250091083014
 20
60.68848192285691
 30
0.0
 11
-213.1250091083012
 21
10.6884819228568
 31
0.0
  0
LINE
  5
AA
330
47
100
AcDbEntity
  8
1
  6
Continuous
 62
     2
100
AcDbLine
 10
-218.1250091083022
 20
60.68848192285691
 30
0.0
 11
-218.1250091083022
 21
10.6884819228568
 31
0.0
  0
LINE
  5
AB
330
47
100
AcDbEntity
  8
1
  6
Continuous
 62
     2
100
AcDbLine
 10
-218.1250091083022
 20
60.68848192285691
 30
0.0
 11
-213.1250091083014
 21
60.68848192285691
 31
0.0
  0
LINE
  5
AC
330
47
100
AcDbEntity
  8
1
  6
Continuous
 62
     6
100
AcDbLine
 10
-213.1250091083016
 20
110.6884819228567
 30
0.0
 11
-213.1250091083014
 21
60.68848192285691
 31
0.0
  0
LINE
  5
AD
330
47
100
AcDbEntity
  8
1
  6
Continuous
 62
     2
100
AcDbLine
 10
-218.1250091083022
 20
110.6884819228567
 30
0.0
 11
-218.1250091083022
 21
60.68848192285691
 31
0.0
  0
LINE
  5
AE
330
47
100
AcDbEntity
  8
1
  6
Continuous
 62
     2
100
AcDbLine
 10
-218.1250091083022
 20
110.6884819228567
 30
0.0
 11
-213.1250091083016
 21
110.6884819228567
 31
0.0
  0
LINE
  5
AF
330
47
100
AcDbEntity
  8
1
  6
Continuous
 62
     6
100
AcDbLine
 10
-213.1250091083022
 20
160.6884819228568
 30
0.0
 11
-213.1250091083016
 21
110.6884819228567
 31
0.0
  0
LINE
  5
B0
330
47
100
AcDbEntity
  8
1
  6
Continuous
 62
     2
100
AcDbLine
 10
-218.1250091083022
 20
160.6884819228568
 30
0.0
 11
-218.1250091083022
 21
110.6884819228567
 31
0.0
  0
LINE
  5
B1
330
47
100
AcDbEntity
  8
1
  6
Continuous
 62
     2
100
AcDbLine
 10
-218.1250091083022
 20
160.6884819228568
 30
0.0
 11
-213.1250091083022
 21
160.6884819228568
 31
0.0
  0
LINE
  5
B2
330
47
100
AcDbEntity
  8
1
  6
Continuous
 62
     6
100
AcDbLine
 10
-213.1250091083022
 20
195.6884819228568
 30
0.0
 11
-213.1250091083022
 21
160.6884819228568
 31
0.0
  0
LINE
  5
B3
330
47
100
AcDbEntity
  8
1
  6
Continuous
 62
     2
100
AcDbLine
 10
-218.1250091083022
 20
215.6884819228568
 30
0.0
 11
-218.1250091083022
 21
160.6884819228568
 31
0.0
  0
LINE
  5
B4
330
47
100
AcDbEntity
  8
1
  6
Continuous
 62
     2
100
AcDbLine
 10
-218.1250091083022
 20
5.68848192285668
 30
0.0
 11
-213.1250091083012
 21
5.68848192285668
 31
0.0
  0
LINE
  5
B5
330
47
100
AcDbEntity
  8
1
  6
Continuous
 62
     2
100
AcDbLine
 10
-69.62500910830312
 20
215.6884819228568
 30
0.0
 11
-69.62500910830312
 21
206.4797900781555
 31
0.0
  0
LINE
  5
B6
330
47
100
AcDbEntity
  8
1
  6
Continuous
 62
     2
100
AcDbLine
 10
-69.62500910830312
 20
215.6884819228568
 30
0.0
 11
-218.1250091083022
 21
215.6884819228568
 31
0.0
  0
LINE
  5
B7
330
47
100
AcDbEntity
  8
1
  6
Continuous
 62
     2
100
AcDbLine
 10
78.87499089169586
 20
10.6884819228568
 30
0.0
 11
78.87499089169586
 21
60.68848192285691
 31
0.0
  0
LINE
  5
B8
330
47
100
AcDbEntity
  8
1
  6
Continuous
 62
     2
100
AcDbLine
 10
78.87499089169586
 20
160.6884819228568
 30
0.0
 11
78.87499089169586
 21
215.6884819228568
 31
0.0
  0
LINE
  5
B9
330
47
100
AcDbEntity
  8
1
  6
Continuous
 62
     6
100
AcDbLine
 10
73.87499089169606
 20
160.6884819228568
 30
0.0
 11
73.87499089169586
 21
195.6884819228568
 31
0.0
  0
LINE
  5
BA
330
47
100
AcDbEntity
  8
1
  6
Continuous
 62
     2
100
AcDbLine
 10
73.87499089169606
 20
160.6884819228568
 30
0.0
 11
78.87499089169586
 21
160.6884819228568
 31
0.0
  0
LINE
  5
BB
330
47
100
AcDbEntity
  8
1
  6
Continuous
 62
     2
100
AcDbLine
 10
78.87499089169586
 20
110.6884819228567
 30
0.0
 11
78.87499089169586
 21
160.6884819228568
 31
0.0
  0
LINE
  5
BC
330
47
100
AcDbEntity
  8
1
  6
Continuous
 62
     6
100
AcDbLine
 10
73.87499089169727
 20
110.6884819228567
 30
0.0
 11
73.87499089169606
 21
160.6884819228568
 31
0.0
  0
LINE
  5
BD
330
47
100
AcDbEntity
  8
1
  6
Continuous
 62
     2
100
AcDbLine
 10
73.87499089169727
 20
110.6884819228567
 30
0.0
 11
78.87499089169586
 21
110.6884819228567
 31
0.0
  0
LINE
  5
BE
330
47
100
AcDbEntity
  8
1
  6
Continuous
 62
     2
100
AcDbLine
 10
78.87499089169586
 20
60.68848192285691
 30
0.0
 11
78.87499089169586
 21
110.6884819228567
 31
0.0
  0
LINE
  5
BF
330
47
100
AcDbEntity
  8
1
  6
Continuous
 62
     6
100
AcDbLine
 10
73.87499089169776
 20
60.68848192285691
 30
0.0
 11
73.87499089169727
 21
110.6884819228567
 31
0.0
  0
LINE
  5
C0
330
47
100
AcDbEntity
  8
1
  6
Continuous
 62
     2
100
AcDbLine
 10
73.87499089169776
 20
60.68848192285691
 30
0.0
 11
78.87499089169586
 21
60.68848192285691
 31
0.0
  0
LINE
  5
C1
330
47
100
AcDbEntity
  8
1
  6
Continuous
 62
     6
100
AcDbLine
 10
73.87499089169586
 20
195.6884819228568
 30
0.0
 11
-213.1250091083022
 21
195.6884819228568
 31
0.0
  0
LINE
  5
C2
330
47
100
AcDbEntity
  8
1
  6
Continuous
 62
     2
100
AcDbLine
 10
78.87499089169586
 20
215.6884819228568
 30
0.0
 11
-69.62500910830312
 21
215.6884819228568
 31
0.0
  0
LINE
  5
C3
330
47
100
AcDbEntity
  8
1
  6
Continuous
 62
     6
100
AcDbLine
 10
73.87499089169856
 20
27.6884819228568
 30
0.0
 11
73.87499089169776
 21
60.68848192285691
 31
0.0
  0
LINE
  5
C4
330
47
100
AcDbEntity
  8
1
  6
Continuous
 62
     2
100
AcDbLine
 10
73.87499089169687
 20
5.68848192285668
 30
0.0
 11
30.37499089169685
 21
5.68848192285668
 31
0.0
  0
LINE
  5
C5
330
47
100
AcDbEntity
  8
1
  6
Continuous
 62
     2
100
AcDbLine
 10
78.87499089169586
 20
5.68848192285668
 30
0.0
 11
73.87499089169687
 21
5.68848192285668
 31
0.0
  0
LINE
  5
C6
330
47
100
AcDbEntity
  8
1
  6
Continuous
 62
     2
100
AcDbLine
 10
78.87499089169586
 20
5.68848192285668
 30
0.0
 11
78.87499089169586
 21
10.6884819228568
 31
0.0
  0
LINE
  5
C7
330
47
100
AcDbEntity
  8
1
  6
Continuous
 62
     6
100
AcDbLine
 10
-55.66981363505315
 20
27.6884819228568
 30
0.0
 11
-19.26981363505323
 21
27.6884819228568
 31
0.0
  0
LINE
  5
C8
330
47
100
AcDbEntity
  8
1
  6
Continuous
 62
     2
100
AcDbLine
 10
73.87499089169687
 20
10.6884819228568
 30
0.0
 11
73.87499089169687
 21
5.68848192285668
 31
0.0
  0
LINE
  5
C9
330
47
100
AcDbEntity
  8
1
  6
Continuous
 62
     2
100
AcDbLine
 10
73.87499089169687
 20
10.6884819228568
 30
0.0
 11
78.87499089169586
 21
10.6884819228568
 31
0.0
  0
LINE
  5
CA
330
47
100
AcDbEntity
  8
1
  6
Continuous
 62
     6
100
AcDbLine
 10
-19.62500910830315
 20
10.6884819228568
 30
0.0
 11
-37.46981363505313
 21
10.6884819228568
 31
0.0
  0
LINE
  5
CB
330
47
100
AcDbEntity
  8
1
  6
Continuous
 62
     6
100
AcDbLine
 10
30.37499089169685
 20
10.6884819228568
 30
0.0
 11
73.87499089169687
 21
10.6884819228568
 31
0.0
  0
LINE
  5
CC
330
47
100
AcDbEntity
  8
1
  6
Continuous
 62
     6
100
AcDbLine
 10
-119.6250091083034
 20
10.6884819228568
 30
0.0
 11
-124.6698136350531
 21
10.6884819228568
 31
0.0
  0
LINE
  5
CD
330
47
100
AcDbEntity
  8
1
  6
Continuous
 62
     6
100
AcDbLine
 10
-69.62500910830312
 20
10.6884819228568
 30
0.0
 11
-55.66981363505315
 21
10.68848192285668
 31
0.0
  0
LINE
  5
CE
102
{ACAD_REACTORS
330
1B9
330
1BA
102
}
330
47
100
AcDbEntity
  8
0
  6
Continuous
 62
     2
100
AcDbLine
 10
-48.15518769290634
 20
22.76099667906891
 30
0.0
 11
-48.15518769290634
 21
23.3665319675757
 31
0.0
  0
LINE
  5
CF
102
{ACAD_REACTORS
330
1B9
330
1BA
102
}
330
47
100
AcDbEntity
  8
0
  6
Continuous
 62
     2
100
AcDbLine
 10
-48.15518769290634
 20
19.96086207243761
 30
0.0
 11
-48.15518769290634
 21
20.54271347913269
 31
0.0
  0
LINE
  5
D0
102
{ACAD_REACTORS
330
1BB
330
1BC
102
}
330
47
100
AcDbEntity
  8
0
  6
Continuous
 62
     2
100
AcDbLine
 10
-25.52570125742713
 20
20.2505261405606
 30
0.0
 11
-25.52570125742713
 21
17.9819819228731
 31
0.0
  0
LINE
  5
D1
102
{ACAD_REACTORS
330
1BB
330
1BC
102
}
330
47
100
AcDbEntity
  8
0
  6
Continuous
 62
     2
100
AcDbLine
 10
-26.90675503641472
 20
21.0357914466837
 30
0.0
 11
-23.52180951778604
 21
21.03579144668419
 31
0.0
  0
LINE
  5
D2
102
{ACAD_REACTORS
330
1BB
330
1BC
102
}
330
47
100
AcDbEntity
  8
0
  6
Continuous
 62
     2
100
AcDbLine
 10
-23.52180951778604
 20
20.2505261405606
 30
0.0
 11
-23.52180951778604
 21
21.03579144668419
 31
0.0
  0
LINE
  5
D3
102
{ACAD_REACTORS
330
1BB
330
1BC
102
}
330
47
100
AcDbEntity
  8
0
  6
Continuous
 62
     2
100
AcDbLine
 10
-24.33290855525942
 20
20.2505261405606
 30
0.0
 11
-23.52180951778604
 21
20.2505261405606
 31
0.0
  0
LINE
  5
D4
102
{ACAD_REACTORS
330
1BB
330
1BC
102
}
330
47
100
AcDbEntity
  8
0
  6
Continuous
 62
     2
100
AcDbLine
 10
-24.33290855525942
 20
17.9819819228731
 30
0.0
 11
-24.33290855525942
 21
20.2505261405606
 31
0.0
  0
LINE
  5
D5
102
{ACAD_REACTORS
330
1BB
330
1BC
102
}
330
47
100
AcDbEntity
  8
0
  6
Continuous
 62
     2
100
AcDbLine
 10
-25.52570125742713
 20
17.9819819228731
 30
0.0
 11
-24.33290855525942
 21
17.9819819228731
 31
0.0
  0
LINE
  5
D6
102
{ACAD_REACTORS
330
1B1
330
1B2
102
}
330
47
100
AcDbEntity
  8
0
  6
Continuous
 62
     2
100
AcDbLine
 10
-26.22229219549163
 20
24.39498192285859
 30
0.0
 11
-27.62501641324093
 21
24.39498192285859
 31
0.0
  0
LINE
  5
D7
102
{ACAD_REACTORS
330
1B1
330
1B2
102
}
330
47
100
AcDbEntity
  8
0
  6
Continuous
 62
     2
100
AcDbLine
 10
-26.22229219549163
 20
24.39498192285859
 30
0.0
 11
-25.62112467359984
 21
23.7151586013031
 31
0.0
  0
LINE
  5
D8
102
{ACAD_REACTORS
330
1B1
330
1B2
102
}
330
47
100
AcDbEntity
  8
0
  6
Continuous
 62
     2
100
AcDbLine
 10
-25.62112467359984
 20
23.7151586013031
 30
0.0
 11
-25.01995715170705
 21
24.39498192285859
 31
0.0
  0
LINE
  5
D9
102
{ACAD_REACTORS
330
1B1
330
1B2
102
}
330
47
100
AcDbEntity
  8
0
  6
Continuous
 62
     2
100
AcDbLine
 10
-24.91976256472634
 20
22.92203139282239
 30
0.0
 11
-23.61723293395983
 21
24.39498192285859
 31
0.0
  0
LINE
  5
DA
102
{ACAD_REACTORS
330
1B1
330
1B2
102
}
330
47
100
AcDbEntity
  8
0
  6
Continuous
 62
     2
100
AcDbLine
 10
-24.91976256472634
 20
22.92203139282239
 30
0.0
 11
-23.52180951778604
 21
21.34117239904739
 31
0.0
  0
LINE
  5
DB
102
{ACAD_REACTORS
330
1B1
330
1B2
102
}
330
47
100
AcDbEntity
  8
0
  6
Continuous
 62
     2
100
AcDbLine
 10
-24.92453373553434
 20
21.34117239904739
 30
0.0
 11
-23.52180951778604
 21
21.34117239904739
 31
0.0
  0
LINE
  5
DC
102
{ACAD_REACTORS
330
1B1
330
1B2
102
}
330
47
100
AcDbEntity
  8
0
  6
Continuous
 62
     2
100
AcDbLine
 10
-25.62112467359984
 20
22.12890418434111
 30
0.0
 11
-24.92453373553434
 21
21.34117239904739
 31
0.0
  0
LINE
  5
DD
102
{ACAD_REACTORS
330
1AF
330
1B0
102
}
330
47
100
AcDbEntity
  8
0
  6
Continuous
 62
     2
100
AcDbLine
 10
-29.08022350988352
 20
24.39498192285859
 30
0.0
 11
-27.83971909963063
 21
24.39498192285859
 31
0.0
  0
LINE
  5
DE
102
{ACAD_REACTORS
330
1AF
330
1B0
102
}
330
47
100
AcDbEntity
  8
0
  6
Continuous
 62
     2
100
AcDbLine
 10
-27.83971909963063
 20
24.39498192285859
 30
0.0
 11
-27.83971909963063
 21
21.34117239904739
 31
0.0
  0
LINE
  5
DF
102
{ACAD_REACTORS
330
1AF
330
1B0
102
}
330
47
100
AcDbEntity
  8
0
  6
Continuous
 62
     2
100
AcDbLine
 10
-29.08022350988352
 20
21.34117239904739
 30
0.0
 11
-29.08022350988352
 21
24.39498192285859
 31
0.0
  0
LINE
  5
E0
102
{ACAD_REACTORS
330
1AD
330
1AE
102
}
330
47
100
AcDbEntity
  8
0
  6
Continuous
 62
     2
100
AcDbLine
 10
-30.54853359242114
 20
19.20350573239759
 30
0.0
 11
-30.24836835522874
 21
19.97132069838429
 31
0.0
  0
LINE
  5
E1
102
{ACAD_REACTORS
330
1AD
330
1AE
102
}
330
47
100
AcDbEntity
  8
0
  6
Continuous
 62
     2
100
AcDbLine
 10
-31.02606919704195
 20
17.9819819228731
 30
0.0
 11
-30.81458914356614
 21
18.52294246709099
 31
0.0
  0
LINE
  5
E2
102
{ACAD_REACTORS
330
1AD
330
1AE
102
}
330
47
100
AcDbEntity
  8
0
  6
Continuous
 62
     2
100
AcDbLine
 10
-30.86862056035562
 20
21.03579144668419
 30
0.0
 11
-32.26657360729493
 21
17.9819819228731
 31
0.0
  0
LINE
  5
E3
102
{ACAD_REACTORS
330
1AD
330
1AE
102
}
330
47
100
AcDbEntity
  8
0
  6
Continuous
 62
     2
100
AcDbLine
 10
-28.23016310316262
 20
17.9819819228731
 30
0.0
 11
-29.47066751341654
 21
17.9819819228731
 31
0.0
  0
LINE
  5
E4
102
{ACAD_REACTORS
330
1AD
330
1AE
102
}
330
47
100
AcDbEntity
  8
0
  6
Continuous
 62
     2
100
AcDbLine
 10
-30.81458914356614
 20
18.52294246709099
 30
0.0
 11
-29.68214756689233
 21
18.52294246709099
 31
0.0
  0
LINE
  5
E5
102
{ACAD_REACTORS
330
1AB
330
1AC
102
}
330
47
100
AcDbEntity
  8
0
  6
Continuous
 62
     2
100
AcDbLine
 10
-34.42408574647715
 20
20.2505261405606
 30
0.0
 11
-33.61298670900254
 21
20.2505261405606
 31
0.0
  0
LINE
  5
E6
102
{ACAD_REACTORS
330
1AB
330
1AC
102
}
330
47
100
AcDbEntity
  8
0
  6
Continuous
 62
     2
100
AcDbLine
 10
-31.60909496936353
 20
21.03579144668419
 30
0.0
 11
-34.42408574647715
 21
21.03579144668419
 31
0.0
  0
LINE
  5
E7
102
{ACAD_REACTORS
330
1AB
330
1AC
102
}
330
47
100
AcDbEntity
  8
0
  6
Continuous
 62
     2
100
AcDbLine
 10
-31.60909496936353
 20
20.2505261405606
 30
0.0
 11
-31.60909496936353
 21
21.03579144668419
 31
0.0
  0
LINE
  5
E8
102
{ACAD_REACTORS
330
1AB
330
1AC
102
}
330
47
100
AcDbEntity
  8
0
  6
Continuous
 62
     2
100
AcDbLine
 10
-32.42019400683603
 20
20.2505261405606
 30
0.0
 11
-31.60909496936353
 21
20.2505261405606
 31
0.0
  0
LINE
  5
E9
102
{ACAD_REACTORS
330
1AB
330
1AC
102
}
330
47
100
AcDbEntity
  8
0
  6
Continuous
 62
     2
100
AcDbLine
 10
-32.42019400683603
 20
17.9819819228731
 30
0.0
 11
-32.42019400683603
 21
20.2505261405606
 31
0.0
  0
LINE
  5
EA
102
{ACAD_REACTORS
330
1A9
330
1AA
102
}
330
47
100
AcDbEntity
  8
0
  6
Continuous
 62
     2
100
AcDbLine
 10
-31.75207916273803
 20
21.34117239904739
 30
0.0
 11
-31.75207916273803
 21
22.64994790925209
 31
0.0
  0
LINE
  5
EB
102
{ACAD_REACTORS
330
1A9
330
1AA
102
}
330
47
100
AcDbEntity
  8
0
  6
Continuous
 62
     2
100
AcDbLine
 10
-32.94487186490454
 20
24.39498192285859
 30
0.0
 11
-32.94487186490454
 21
21.34117239904739
 31
0.0
  0
LINE
  5
EC
102
{ACAD_REACTORS
330
1A9
330
1AA
102
}
330
47
100
AcDbEntity
  8
0
  6
Continuous
 62
     2
100
AcDbLine
 10
-31.75207916273803
 20
24.39498192285859
 30
0.0
 11
-32.94487186490454
 21
24.39498192285859
 31
0.0
  0
LINE
  5
ED
102
{ACAD_REACTORS
330
1A9
330
1AA
102
}
330
47
100
AcDbEntity
  8
0
  6
Continuous
 62
     2
100
AcDbLine
 10
-30.51157475248402
 20
24.39498192285859
 30
0.0
 11
-30.51157475248402
 21
23.08620641265341
 31
0.0
  0
LINE
  5
EE
102
{ACAD_REACTORS
330
1A7
330
1A8
102
}
330
47
100
AcDbEntity
  8
0
  6
Continuous
 62
     2
100
AcDbLine
 10
-38.19331068532424
 20
21.03579144668419
 30
0.0
 11
-38.19331068532424
 21
17.9819819228731
 31
0.0
  0
LINE
  5
EF
102
{ACAD_REACTORS
330
1A7
330
1A8
102
}
330
47
100
AcDbEntity
  8
0
  6
Continuous
 62
     2
100
AcDbLine
 10
-37.00051798315664
 20
21.03579144668419
 30
0.0
 11
-38.19331068532424
 21
21.03579144668419
 31
0.0
  0
LINE
  5
F0
102
{ACAD_REACTORS
330
1A7
330
1A8
102
}
330
47
100
AcDbEntity
  8
0
  6
Continuous
 62
     2
100
AcDbLine
 10
-35.76001357290375
 20
17.9819819228731
 30
0.0
 11
-34.56722087073734
 21
17.9819819228731
 31
0.0
  0
LINE
  5
F1
102
{ACAD_REACTORS
330
1A7
330
1A8
102
}
330
47
100
AcDbEntity
  8
0
  6
Continuous
 62
     2
100
AcDbLine
 10
-38.19331068532424
 20
17.9819819228731
 30
0.0
 11
-37.00051798315664
 21
17.9819819228731
 31
0.0
  0
LINE
  5
F2
102
{ACAD_REACTORS
330
1B7
330
1B8
102
}
330
47
100
AcDbEntity
  8
0
  6
Continuous
 62
     2
100
AcDbLine
 10
-34.51935823176513
 20
23.2170839636739
 30
0.0
 11
-34.51935823176513
 21
23.69696831741561
 31
0.0
  0
LINE
  5
F3
102
{ACAD_REACTORS
330
1B7
330
1B8
102
}
330
47
100
AcDbEntity
  8
0
  6
Continuous
 62
     2
100
AcDbLine
 10
-33.18343040533745
 20
23.2170839636739
 30
0.0
 11
-34.51935823176513
 21
23.2170839636739
 31
0.0
  0
LINE
  5
F4
102
{ACAD_REACTORS
330
1B7
330
1B8
102
}
330
47
100
AcDbEntity
  8
0
  6
Continuous
 62
     2
100
AcDbLine
 10
-33.18343040533745
 20
22.5190703582316
 30
0.0
 11
-33.18343040533745
 21
23.2170839636739
 31
0.0
  0
LINE
  5
F5
102
{ACAD_REACTORS
330
1B7
330
1B8
102
}
330
47
100
AcDbEntity
  8
0
  6
Continuous
 62
     2
100
AcDbLine
 10
-34.51935823176513
 20
22.5190703582316
 30
0.0
 11
-33.18343040533745
 21
22.5190703582316
 31
0.0
  0
LINE
  5
F6
102
{ACAD_REACTORS
330
1A5
330
1A6
102
}
330
47
100
AcDbEntity
  8
0
  6
Continuous
 62
     2
100
AcDbLine
 10
-38.00231292209205
 20
24.39498192285859
 30
0.0
 11
-38.00231292209205
 21
21.34117239904739
 31
0.0
  0
LINE
  5
F7
102
{ACAD_REACTORS
330
1A5
330
1A6
102
}
330
47
100
AcDbEntity
  8
0
  6
Continuous
 62
     2
100
AcDbLine
 10
-38.00231292209205
 20
21.34117239904739
 30
0.0
 11
-39.19510562425845
 21
21.34117239904739
 31
0.0
  0
LINE
  5
F8
102
{ACAD_REACTORS
330
1A5
330
1A6
102
}
330
47
100
AcDbEntity
  8
0
  6
Continuous
 62
     2
100
AcDbLine
 10
-39.19510562425845
 20
21.34117239904739
 30
0.0
 11
-39.19510562425845
 21
22.47544450789121
 31
0.0
  0
LINE
  5
F9
102
{ACAD_REACTORS
330
1A5
330
1A6
102
}
330
47
100
AcDbEntity
  8
0
  6
Continuous
 62
     2
100
AcDbLine
 10
-40.24476320216593
 20
21.34117239904739
 30
0.0
 11
-41.43755590433253
 21
21.34117239904739
 31
0.0
  0
LINE
  5
FA
102
{ACAD_REACTORS
330
1A5
330
1A6
102
}
330
47
100
AcDbEntity
  8
0
  6
Continuous
 62
     2
100
AcDbLine
 10
-41.43755590433253
 20
24.39498192285859
 30
0.0
 11
-40.24476320216593
 21
24.39498192285859
 31
0.0
  0
LINE
  5
FB
102
{ACAD_REACTORS
330
1A5
330
1A6
102
}
330
47
100
AcDbEntity
  8
0
  6
Continuous
 62
     2
100
AcDbLine
 10
-40.24476320216593
 20
24.39498192285859
 30
0.0
 11
-40.24476320216593
 21
23.326148589524
 31
0.0
  0
LINE
  5
FC
102
{ACAD_REACTORS
330
1A5
330
1A6
102
}
330
47
100
AcDbEntity
  8
0
  6
Continuous
 62
     2
100
AcDbLine
 10
-40.24476320216593
 20
23.326148589524
 30
0.0
 11
-39.19510562425845
 21
23.326148589524
 31
0.0
  0
LINE
  5
FD
102
{ACAD_REACTORS
330
1B3
330
1B4
102
}
330
47
100
AcDbEntity
  8
0
  6
Continuous
 62
     2
100
AcDbLine
 10
-43.39373593588613
 20
23.73187607741849
 30
0.0
 11
-43.07644087434423
 21
23.73187607741849
 31
0.0
  0
LINE
  5
FE
102
{ACAD_REACTORS
330
1B3
330
1B4
102
}
330
47
100
AcDbEntity
  8
0
  6
Continuous
 62
     2
100
AcDbLine
 10
-43.39373593588613
 20
23.02614842807628
 30
0.0
 11
-43.07644087434423
 21
23.02614842807628
 31
0.0
  0
LINE
  5
FF
102
{ACAD_REACTORS
330
1B3
330
1B4
102
}
330
47
100
AcDbEntity
  8
0
  6
Continuous
 62
     2
100
AcDbLine
 10
-44.63424034614025
 20
24.39498192285859
 30
0.0
 11
-44.63424034614025
 21
21.34117239904739
 31
0.0
  0
LINE
  5
100
102
{ACAD_REACTORS
330
1B3
330
1B4
102
}
330
47
100
AcDbEntity
  8
0
  6
Continuous
 62
     2
100
AcDbLine
 10
-44.63424034614025
 20
24.39498192285859
 30
0.0
 11
-42.63496834810584
 21
24.39498192285859
 31
0.0
  0
LINE
  5
101
102
{ACAD_REACTORS
330
1B3
330
1B4
102
}
330
47
100
AcDbEntity
  8
0
  6
Continuous
 62
     2
100
AcDbLine
 10
-43.39373593588613
 20
22.2842506401912
 30
0.0
 11
-42.63496834810584
 21
22.2842506401912
 31
0.0
  0
LINE
  5
102
102
{ACAD_REACTORS
330
1B9
330
1BA
102
}
330
47
100
AcDbEntity
  8
0
  6
Continuous
 62
     2
100
AcDbLine
 10
-50.73073637943693
 20
23.3667094442238
 30
0.0
 11
-50.73073637943693
 21
19.0102544015067
 31
0.0
  0
LINE
  5
103
102
{ACAD_REACTORS
330
1B9
330
1BA
102
}
330
47
100
AcDbEntity
  8
0
  6
Continuous
 62
     2
100
AcDbLine
 10
-50.41501945636125
 20
23.6824263673
 30
0.0
 11
-48.93918619535162
 21
23.6824263673
 31
0.0
  0
LINE
  5
104
102
{ACAD_REACTORS
330
1B9
330
1BA
102
}
330
47
100
AcDbEntity
  8
0
  6
Continuous
 62
     2
100
AcDbLine
 10
-48.62346927227503
 20
22.76268482516329
 30
0.0
 11
-48.62346927227503
 21
23.3667094442238
 31
0.0
  0
LINE
  5
105
102
{ACAD_REACTORS
330
1B9
330
1BA
102
}
330
47
100
AcDbEntity
  8
0
  6
Continuous
 62
     2
100
AcDbLine
 10
-48.62346927227503
 20
19.0102544015067
 30
0.0
 11
-48.62346927227503
 21
20.54102533303831
 31
0.0
  0
LINE
  5
106
102
{ACAD_REACTORS
330
1B9
330
1BA
102
}
330
47
100
AcDbEntity
  8
0
  6
Continuous
 62
     2
100
AcDbLine
 10
-45.53560204239093
 20
17.9819819228731
 30
0.0
 11
-51.00891413310774
 21
17.9819819228731
 31
0.0
  0
LINE
  5
107
102
{ACAD_REACTORS
330
1B9
330
1BA
102
}
330
47
100
AcDbEntity
  8
0
  6
Continuous
 62
     2
100
AcDbLine
 10
-45.11135742700705
 20
23.9707373074566
 30
0.0
 11
-45.11135742700705
 21
18.40622653825639
 31
0.0
  0
LINE
  5
108
102
{ACAD_REACTORS
330
1B9
330
1BA
102
}
330
47
100
AcDbEntity
  8
0
  6
Continuous
 62
     2
100
AcDbLine
 10
-51.00891413310774
 20
24.3949819228404
 30
0.0
 11
-45.53560204239093
 21
24.3949819228404
 31
0.0
  0
LINE
  5
109
102
{ACAD_REACTORS
330
1B9
330
1BA
102
}
330
47
100
AcDbEntity
  8
0
  6
Continuous
 62
     2
100
AcDbLine
 10
-51.43315874849054
 20
23.9707373074566
 30
0.0
 11
-51.43315874849054
 21
18.40622653825639
 31
0.0
  0
LINE
  5
10A
102
{ACAD_REACTORS
330
1B9
330
1BA
102
}
330
47
100
AcDbEntity
  8
0
  6
Continuous
 62
     2
100
AcDbLine
 10
-48.93918619535162
 20
18.69453747842999
 30
0.0
 11
-50.41501945636125
 21
18.69453747842999
 31
0.0
  0
LINE
  5
10B
102
{ACAD_REACTORS
330
1B3
330
1B4
102
}
330
47
100
AcDbEntity
  8
0
  6
Continuous
 62
     2
100
AcDbLine
 10
-43.39373593588613
 20
21.34117239904739
 30
0.0
 11
-43.39373593588613
 21
22.2842506401912
 31
0.0
  0
LINE
  5
10C
102
{ACAD_REACTORS
330
1B3
330
1B4
102
}
330
47
100
AcDbEntity
  8
0
  6
Continuous
 62
     2
100
AcDbLine
 10
-44.63424034614025
 20
21.34117239904739
 30
0.0
 11
-43.39373593588613
 21
21.34117239904739
 31
0.0
  0
LINE
  5
10D
102
{ACAD_REACTORS
330
1B3
330
1B4
102
}
330
47
100
AcDbEntity
  8
0
  6
Continuous
 62
     2
100
AcDbLine
 10
-43.39373593588613
 20
23.02614842807628
 30
0.0
 11
-43.39373593588613
 21
23.73187607741849
 31
0.0
  0
LINE
  5
10E
102
{ACAD_REACTORS
330
1A5
330
1A6
102
}
330
47
100
AcDbEntity
  8
0
  6
Continuous
 62
     2
100
AcDbLine
 10
-41.43755590433253
 20
24.39498192285859
 30
0.0
 11
-41.43755590433253
 21
21.34117239904739
 31
0.0
  0
LINE
  5
10F
102
{ACAD_REACTORS
330
1A5
330
1A6
102
}
330
47
100
AcDbEntity
  8
0
  6
Continuous
 62
     2
100
AcDbLine
 10
-40.24476320216593
 20
22.47544450789121
 30
0.0
 11
-40.24476320216593
 21
21.34117239904739
 31
0.0
  0
LINE
  5
110
102
{ACAD_REACTORS
330
1A5
330
1A6
102
}
330
47
100
AcDbEntity
  8
0
  6
Continuous
 62
     2
100
AcDbLine
 10
-39.19510562425845
 20
22.47544450789121
 30
0.0
 11
-40.24476320216593
 21
22.47544450789121
 31
0.0
  0
LINE
  5
111
102
{ACAD_REACTORS
330
1A5
330
1A6
102
}
330
47
100
AcDbEntity
  8
0
  6
Continuous
 62
     2
100
AcDbLine
 10
-39.19510562425845
 20
24.39498192285859
 30
0.0
 11
-38.00231292209205
 21
24.39498192285859
 31
0.0
  0
LINE
  5
112
102
{ACAD_REACTORS
330
1A5
330
1A6
102
}
330
47
100
AcDbEntity
  8
0
  6
Continuous
 62
     2
100
AcDbLine
 10
-39.19510562425845
 20
23.326148589524
 30
0.0
 11
-39.19510562425845
 21
24.39498192285859
 31
0.0
  0
LINE
  5
113
102
{ACAD_REACTORS
330
1B7
330
1B8
102
}
330
47
100
AcDbEntity
  8
0
  6
Continuous
 62
     2
100
AcDbLine
 10
-33.18343040533745
 20
23.69696831741561
 30
0.0
 11
-33.18343040533745
 21
24.39498192285859
 31
0.0
  0
LINE
  5
114
102
{ACAD_REACTORS
330
1B7
330
1B8
102
}
330
47
100
AcDbEntity
  8
0
  6
Continuous
 62
     2
100
AcDbLine
 10
-36.33375012911844
 20
24.39498192285859
 30
0.0
 11
-33.18343040533745
 21
24.39498192285859
 31
0.0
  0
LINE
  5
115
102
{ACAD_REACTORS
330
1B7
330
1B8
102
}
330
47
100
AcDbEntity
  8
0
  6
Continuous
 62
     2
100
AcDbLine
 10
-36.33375012911844
 20
21.34117239904739
 30
0.0
 11
-33.18343040533745
 21
21.34117239904739
 31
0.0
  0
LINE
  5
116
102
{ACAD_REACTORS
330
1B7
330
1B8
102
}
330
47
100
AcDbEntity
  8
0
  6
Continuous
 62
     2
100
AcDbLine
 10
-33.18343040533745
 20
21.34117239904739
 30
0.0
 11
-33.18343040533745
 21
22.03918600448989
 31
0.0
  0
LINE
  5
117
102
{ACAD_REACTORS
330
1B7
330
1B8
102
}
330
47
100
AcDbEntity
  8
0
  6
Continuous
 62
     2
100
AcDbLine
 10
-33.18343040533745
 20
22.03918600448989
 30
0.0
 11
-34.51935823176513
 21
22.03918600448989
 31
0.0
  0
LINE
  5
118
102
{ACAD_REACTORS
330
1B7
330
1B8
102
}
330
47
100
AcDbEntity
  8
0
  6
Continuous
 62
     2
100
AcDbLine
 10
-34.51935823176513
 20
22.03918600448989
 30
0.0
 11
-34.51935823176513
 21
22.5190703582316
 31
0.0
  0
LINE
  5
119
102
{ACAD_REACTORS
330
1B7
330
1B8
102
}
330
47
100
AcDbEntity
  8
0
  6
Continuous
 62
     2
100
AcDbLine
 10
-34.51935823176513
 20
23.69696831741561
 30
0.0
 11
-33.18343040533745
 21
23.69696831741561
 31
0.0
  0
LINE
  5
11A
102
{ACAD_REACTORS
330
1A7
330
1A8
102
}
330
47
100
AcDbEntity
  8
0
  6
Continuous
 62
     2
100
AcDbLine
 10
-37.00051798315664
 20
17.9819819228731
 30
0.0
 11
-37.00051798315664
 21
19.29075743307769
 31
0.0
  0
LINE
  5
11B
102
{ACAD_REACTORS
330
1A7
330
1A8
102
}
330
47
100
AcDbEntity
  8
0
  6
Continuous
 62
     2
100
AcDbLine
 10
-37.00051798315664
 20
19.29075743307769
 30
0.0
 11
-35.76001357290375
 21
17.9819819228731
 31
0.0
  0
LINE
  5
11C
102
{ACAD_REACTORS
330
1A7
330
1A8
102
}
330
47
100
AcDbEntity
  8
0
  6
Continuous
 62
     2
100
AcDbLine
 10
-34.56722087073734
 20
17.9819819228731
 30
0.0
 11
-34.56722087073734
 21
21.03579144668419
 31
0.0
  0
LINE
  5
11D
102
{ACAD_REACTORS
330
1A7
330
1A8
102
}
330
47
100
AcDbEntity
  8
0
  6
Continuous
 62
     2
100
AcDbLine
 10
-34.56722087073734
 20
21.03579144668419
 30
0.0
 11
-35.76001357290375
 21
21.03579144668419
 31
0.0
  0
LINE
  5
11E
102
{ACAD_REACTORS
330
1A7
330
1A8
102
}
330
47
100
AcDbEntity
  8
0
  6
Continuous
 62
     2
100
AcDbLine
 10
-35.76001357290375
 20
21.03579144668419
 30
0.0
 11
-35.76001357290375
 21
19.72701593647909
 31
0.0
  0
LINE
  5
11F
102
{ACAD_REACTORS
330
1A7
330
1A8
102
}
330
47
100
AcDbEntity
  8
0
  6
Continuous
 62
     2
100
AcDbLine
 10
-35.76001357290375
 20
19.72701593647909
 30
0.0
 11
-37.00051798315664
 21
21.03579144668419
 31
0.0
  0
LINE
  5
120
102
{ACAD_REACTORS
330
1A9
330
1AA
102
}
330
47
100
AcDbEntity
  8
0
  6
Continuous
 62
     2
100
AcDbLine
 10
-31.75207916273803
 20
22.64994790925209
 30
0.0
 11
-30.51157475248402
 21
21.34117239904739
 31
0.0
  0
LINE
  5
121
102
{ACAD_REACTORS
330
1A9
330
1AA
102
}
330
47
100
AcDbEntity
  8
0
  6
Continuous
 62
     2
100
AcDbLine
 10
-30.51157475248402
 20
21.34117239904739
 30
0.0
 11
-29.31878205031742
 21
21.34117239904739
 31
0.0
  0
LINE
  5
122
102
{ACAD_REACTORS
330
1A9
330
1AA
102
}
330
47
100
AcDbEntity
  8
0
  6
Continuous
 62
     2
100
AcDbLine
 10
-29.31878205031742
 20
21.34117239904739
 30
0.0
 11
-29.31878205031742
 21
24.39498192285859
 31
0.0
  0
LINE
  5
123
102
{ACAD_REACTORS
330
1A9
330
1AA
102
}
330
47
100
AcDbEntity
  8
0
  6
Continuous
 62
     2
100
AcDbLine
 10
-29.31878205031742
 20
24.39498192285859
 30
0.0
 11
-30.51157475248402
 21
24.39498192285859
 31
0.0
  0
LINE
  5
124
102
{ACAD_REACTORS
330
1A9
330
1AA
102
}
330
47
100
AcDbEntity
  8
0
  6
Continuous
 62
     2
100
AcDbLine
 10
-30.51157475248402
 20
23.08620641265341
 30
0.0
 11
-31.75207916273803
 21
24.39498192285859
 31
0.0
  0
LINE
  5
125
102
{ACAD_REACTORS
330
1A9
330
1AA
102
}
330
47
100
AcDbEntity
  8
0
  6
Continuous
 62
     2
100
AcDbLine
 10
-32.94487186490454
 20
21.34117239904739
 30
0.0
 11
-31.75207916273803
 21
21.34117239904739
 31
0.0
  0
LINE
  5
126
102
{ACAD_REACTORS
330
1AB
330
1AC
102
}
330
47
100
AcDbEntity
  8
0
  6
Continuous
 62
     2
100
AcDbLine
 10
-34.42408574647715
 20
21.03579144668419
 30
0.0
 11
-34.42408574647715
 21
20.2505261405606
 31
0.0
  0
LINE
  5
127
102
{ACAD_REACTORS
330
1AB
330
1AC
102
}
330
47
100
AcDbEntity
  8
0
  6
Continuous
 62
     2
100
AcDbLine
 10
-33.61298670900254
 20
20.2505261405606
 30
0.0
 11
-33.61298670900254
 21
17.9819819228731
 31
0.0
  0
LINE
  5
128
102
{ACAD_REACTORS
330
1AB
330
1AC
102
}
330
47
100
AcDbEntity
  8
0
  6
Continuous
 62
     2
100
AcDbLine
 10
-33.61298670900254
 20
17.9819819228731
 30
0.0
 11
-32.42019400683603
 21
17.9819819228731
 31
0.0
  0
LINE
  5
129
102
{ACAD_REACTORS
330
1AD
330
1AE
102
}
330
47
100
AcDbEntity
  8
0
  6
Continuous
 62
     2
100
AcDbLine
 10
-29.47066751341654
 20
17.9819819228731
 30
0.0
 11
-29.68214756689233
 21
18.52294246709099
 31
0.0
  0
LINE
  5
12A
102
{ACAD_REACTORS
330
1AD
330
1AE
102
}
330
47
100
AcDbEntity
  8
0
  6
Continuous
 62
     2
100
AcDbLine
 10
-29.62811615010293
 20
21.03579144668419
 30
0.0
 11
-28.23016310316262
 21
17.9819819228731
 31
0.0
  0
LINE
  5
12B
102
{ACAD_REACTORS
330
1AD
330
1AE
102
}
330
47
100
AcDbEntity
  8
0
  6
Continuous
 62
     2
100
AcDbLine
 10
-30.86862056035562
 20
21.03579144668419
 30
0.0
 11
-29.62811615010293
 21
21.03579144668419
 31
0.0
  0
LINE
  5
12C
102
{ACAD_REACTORS
330
1AD
330
1AE
102
}
330
47
100
AcDbEntity
  8
0
  6
Continuous
 62
     2
100
AcDbLine
 10
-32.26657360729493
 20
17.9819819228731
 30
0.0
 11
-31.02606919704195
 21
17.9819819228731
 31
0.0
  0
LINE
  5
12D
102
{ACAD_REACTORS
330
1AD
330
1AE
102
}
330
47
100
AcDbEntity
  8
0
  6
Continuous
 62
     2
100
AcDbLine
 10
-30.54853359242114
 20
19.20350573239759
 30
0.0
 11
-29.94820311803863
 21
19.20350573239759
 31
0.0
  0
LINE
  5
12E
102
{ACAD_REACTORS
330
1AD
330
1AE
102
}
330
47
100
AcDbEntity
  8
0
  6
Continuous
 62
     2
100
AcDbLine
 10
-29.94820311803863
 20
19.20350573239759
 30
0.0
 11
-30.24836835522874
 21
19.97132069838429
 31
0.0
  0
LINE
  5
12F
102
{ACAD_REACTORS
330
1AF
330
1B0
102
}
330
47
100
AcDbEntity
  8
0
  6
Continuous
 62
     2
100
AcDbLine
 10
-27.83971909963063
 20
21.34117239904739
 30
0.0
 11
-29.08022350988352
 21
21.34117239904739
 31
0.0
  0
LINE
  5
130
102
{ACAD_REACTORS
330
1B1
330
1B2
102
}
330
47
100
AcDbEntity
  8
0
  6
Continuous
 62
     2
100
AcDbLine
 10
-26.31771561166553
 20
21.34117239904739
 30
0.0
 11
-27.72043982941375
 21
21.34117239904739
 31
0.0
  0
LINE
  5
131
102
{ACAD_REACTORS
330
1B1
330
1B2
102
}
330
47
100
AcDbEntity
  8
0
  6
Continuous
 62
     2
100
AcDbLine
 10
-26.31771561166553
 20
21.34117239904739
 30
0.0
 11
-25.62112467359984
 21
22.12890418434111
 31
0.0
  0
LINE
  5
132
102
{ACAD_REACTORS
330
1B1
330
1B2
102
}
330
47
100
AcDbEntity
  8
0
  6
Continuous
 62
     2
100
AcDbLine
 10
-25.01995715170705
 20
24.39498192285859
 30
0.0
 11
-23.61723293395983
 21
24.39498192285859
 31
0.0
  0
LINE
  5
133
102
{ACAD_REACTORS
330
1B1
330
1B2
102
}
330
47
100
AcDbEntity
  8
0
  6
Continuous
 62
     2
100
AcDbLine
 10
-27.62501641324093
 20
24.39498192285859
 30
0.0
 11
-26.32248678247345
 21
22.92203139282239
 31
0.0
  0
LINE
  5
134
102
{ACAD_REACTORS
330
1B1
330
1B2
102
}
330
47
100
AcDbEntity
  8
0
  6
Continuous
 62
     2
100
AcDbLine
 10
-27.72043982941375
 20
21.34117239904739
 30
0.0
 11
-26.32248678247345
 21
22.92203139282239
 31
0.0
  0
LINE
  5
135
102
{ACAD_REACTORS
330
1BB
330
1BC
102
}
330
47
100
AcDbEntity
  8
0
  6
Continuous
 62
     2
100
AcDbLine
 10
-25.85968321403382
 20
19.02900233103671
 30
0.0
 11
-25.85968321403382
 21
18.15648532423339
 31
0.0
  0
LINE
  5
136
102
{ACAD_REACTORS
330
1BB
330
1BC
102
}
330
47
100
AcDbEntity
  8
0
  6
Continuous
 62
     2
100
AcDbLine
 10
-26.62934055699523
 20
20.2505261405606
 30
0.0
 11
-25.52570125742713
 21
20.2505261405606
 31
0.0
  0
LINE
  5
137
102
{ACAD_REACTORS
330
1BD
330
1BE
102
}
330
47
100
AcDbEntity
  8
0
  6
Continuous
 62
     2
100
AcDbLine
 10
-41.96238469328574
 20
19.02900233103719
 30
0.0
 11
-41.96238469328574
 21
18.15648532423398
 31
0.0
  0
LINE
  5
138
102
{ACAD_REACTORS
330
1BD
330
1BE
102
}
330
47
100
AcDbEntity
  8
0
  6
Continuous
 62
     2
100
AcDbLine
 10
-41.96238469328574
 20
19.9887710385201
 30
0.0
 11
-41.96238469328574
 21
20.86128804532339
 31
0.0
  0
LINE
  5
139
330
47
100
AcDbEntity
  8
1
  6
Continuous
 62
     7
100
AcDbLine
 10
73.87499089169816
 20
19.1884819228568
 30
0.0
 11
-19.26981363505323
 21
19.1884819228568
 31
0.0
  0
LINE
  5
13A
330
47
100
AcDbEntity
  8
1
  6
Continuous
 62
     6
100
AcDbLine
 10
-124.6698136350531
 20
10.6884819228568
 30
0.0
 11
-169.6250091083031
 21
10.6884819228568
 31
0.0
  0
LINE
  5
13B
330
47
100
AcDbEntity
  8
1
  6
Continuous
 62
     7
100
AcDbLine
 10
64.95658261001935
 20
36.1884819228568
 30
0.0
 11
64.95658261001935
 21
27.6884819228568
 31
0.0
  0
LINE
  5
13C
330
47
100
AcDbEntity
  8
1
  6
Continuous
 62
     7
100
AcDbLine
 10
38.45658261001975
 20
36.1884819228568
 30
0.0
 11
38.45658261001975
 21
27.6884819228568
 31
0.0
  0
LINE
  5
13D
330
47
100
AcDbEntity
  8
1
  6
Continuous
 62
     7
100
AcDbLine
 10
-19.26981363505323
 20
27.6884819228568
 30
0.0
 11
-19.26981363505323
 21
36.1884819228568
 31
0.0
  0
LINE
  5
13E
330
47
100
AcDbEntity
  8
1
  6
Continuous
 62
     7
100
AcDbLine
 10
-55.66981363505315
 20
27.6884819228568
 30
0.0
 11
-55.66981363505315
 21
36.1884819228568
 31
0.0
  0
LINE
  5
13F
330
47
100
AcDbEntity
  8
1
  6
Continuous
 62
     6
100
AcDbLine
 10
-19.26981363505323
 20
27.6884819228568
 30
0.0
 11
73.87499089169856
 21
27.6884819228568
 31
0.0
  0
LINE
  5
140
330
47
100
AcDbEntity
  8
1
  6
Continuous
 62
     7
100
AcDbLine
 10
8.63018636494687
 20
19.18848192285671
 30
0.0
 11
8.63018636494687
 21
27.6884819228568
 31
0.0
  0
LINE
  5
141
330
47
100
AcDbEntity
  8
1
  6
PHANTOM
 62
     2
100
AcDbLine
 10
-40.18315874849054
 20
31.81348192285671
 30
0.0
 11
-45.68315874849054
 21
31.81348192285671
 31
0.0
  0
LINE
  5
142
330
47
100
AcDbEntity
  8
1
  6
PHANTOM
 62
     2
100
AcDbLine
 10
-42.93315874849054
 20
34.56348192285671
 30
0.0
 11
-42.93315874849054
 21
29.06348192285671
 31
0.0
  0
LINE
  5
143
330
47
100
AcDbEntity
  8
1
  6
DOT_CENTER
 62
     2
100
AcDbLine
 10
-51.68315874849054
 20
31.81348192285671
 30
0.0
 11
-46.18315874849054
 21
31.81348192285671
 31
0.0
  0
ARC
  5
144
102
{ACAD_REACTORS
330
1BD
330
1BE
102
}
330
47
100
AcDbEntity
  8
0
  6
Continuous
 62
     2
100
AcDbCircle
 10
-43.29831261040354
 20
16.1962057395225
 30
0.0
 40
4.852596863498064
100
AcDbArc
 50
74.02000874164737
 51
84.84185523037506
  0
ARC
  5
145
102
{ACAD_REACTORS
330
1BD
330
1BE
102
}
330
47
100
AcDbEntity
  8
0
  6
Continuous
 62
     2
100
AcDbCircle
 10
-42.72227200164983
 20
19.35196609540679
 30
0.0
 40
0.9059297849853296
100
AcDbArc
 50
71.55192388185363
 51
113.3722778881288
  0
ARC
  5
146
102
{ACAD_REACTORS
330
1BD
330
1BE
102
}
330
47
100
AcDbEntity
  8
0
  6
Continuous
 62
     2
100
AcDbCircle
 10
-42.87871203435185
 20
19.3038152554399
 30
0.0
 40
0.5115800601948034
100
AcDbArc
 50
208.5214732576956
 51
246.6277221118272
  0
ARC
  5
147
102
{ACAD_REACTORS
330
1BD
330
1BE
102
}
330
47
100
AcDbEntity
  8
0
  6
Continuous
 62
     2
100
AcDbCircle
 10
-42.72227200164983
 20
19.6658072741499
 30
0.0
 40
0.905929784984916
100
AcDbArc
 50
246.6277221118709
 51
288.4480761181584
  0
ARC
  5
148
102
{ACAD_REACTORS
330
1BD
330
1BE
102
}
330
47
100
AcDbEntity
  8
0
  6
Continuous
 62
     2
100
AcDbCircle
 10
-43.14043973531062
 20
20.91935305018708
 30
0.0
 40
2.227384008972737
100
AcDbArc
 50
288.4480761181328
 51
301.9309089499593
  0
ARC
  5
149
102
{ACAD_REACTORS
330
1B9
330
1BA
102
}
330
47
100
AcDbEntity
  8
0
  6
Continuous
 62
     2
100
AcDbCircle
 10
-48.36551346791742
 20
21.6518550791011
 30
0.0
 40
0.911848150144456
100
AcDbArc
 50
295.374008678176
 51
64.62599132180777
  0
ARC
  5
14A
102
{ACAD_REACTORS
330
1B9
330
1BA
102
}
330
47
100
AcDbEntity
  8
0
  6
Continuous
 62
     2
100
AcDbCircle
 10
-47.83947076982955
 20
23.3665319675757
 30
0.0
 40
0.3157169230760639
100
AcDbArc
 50
90.18896704254335
 51
180.0
  0
ARC
  5
14B
102
{ACAD_REACTORS
330
1BB
330
1BC
102
}
330
47
100
AcDbEntity
  8
0
  6
Continuous
 62
     2
100
AcDbCircle
 10
-26.62934055699523
 20
19.2960031337345
 30
0.0
 40
0.954523006826097
100
AcDbArc
 50
90.0
 51
109.3371432194321
  0
ARC
  5
14C
102
{ACAD_REACTORS
330
1BB
330
1BC
102
}
330
47
100
AcDbEntity
  8
0
  6
Continuous
 62
     2
100
AcDbCircle
 10
-26.39865329701755
 20
19.50888668477839
 30
0.0
 40
0.9410597353348844
100
AcDbArc
 50
151.4785267423624
 51
208.5214732576697
  0
ARC
  5
14D
102
{ACAD_REACTORS
330
1BB
330
1BC
102
}
330
47
100
AcDbEntity
  8
0
  6
Continuous
 62
     2
100
AcDbCircle
 10
-26.61957052239583
 20
19.6658072741499
 30
0.0
 40
0.9059297849852782
100
AcDbArc
 50
246.6277221118179
 51
288.4480761180818
  0
ARC
  5
14E
102
{ACAD_REACTORS
330
1BB
330
1BC
102
}
330
47
100
AcDbEntity
  8
0
  6
Continuous
 62
     2
100
AcDbCircle
 10
-27.03773825605774
 20
20.91935305018649
 30
0.0
 40
2.227384008972748
100
AcDbArc
 50
288.4480761181337
 51
301.9309089499399
  0
ARC
  5
14F
102
{ACAD_REACTORS
330
1BB
330
1BC
102
}
330
47
100
AcDbEntity
  8
0
  6
Continuous
 62
     2
100
AcDbCircle
 10
-27.19561113115054
 20
22.82156763003479
 30
0.0
 40
4.852596863498824
100
AcDbArc
 50
275.1581447696362
 51
285.9799912583387
  0
ARC
  5
150
102
{ACAD_REACTORS
330
1BB
330
1BC
102
}
330
47
100
AcDbEntity
  8
0
  6
Continuous
 62
     2
100
AcDbCircle
 10
-26.90675503641472
 20
19.6216770468132
 30
0.0
 40
1.639695123940453
100
AcDbArc
 50
195.0618917771009
 51
275.158144769676
  0
ARC
  5
151
102
{ACAD_REACTORS
330
1B3
330
1B4
102
}
330
47
100
AcDbEntity
  8
0
  6
Continuous
 62
     2
100
AcDbCircle
 10
-42.63496834810584
 20
23.33961628152491
 30
0.0
 40
1.055365641333712
100
AcDbArc
 50
270.0
 51
90.0
  0
ARC
  5
152
102
{ACAD_REACTORS
330
1B9
330
1BA
102
}
330
47
100
AcDbEntity
  8
0
  6
Continuous
 62
     2
100
AcDbCircle
 10
-50.41501945636125
 20
19.0102544015067
 30
0.0
 40
0.3157169230756764
100
AcDbArc
 50
180.0
 51
270.0
  0
ARC
  5
153
102
{ACAD_REACTORS
330
1B9
330
1BA
102
}
330
47
100
AcDbEntity
  8
0
  6
Continuous
 62
     2
100
AcDbCircle
 10
-48.93918619535162
 20
23.3667094442238
 30
0.0
 40
0.3157169230765859
100
AcDbArc
 50
0.0
 51
90.0
  0
ARC
  5
154
102
{ACAD_REACTORS
330
1B9
330
1BA
102
}
330
47
100
AcDbEntity
  8
0
  6
Continuous
 62
     2
100
AcDbCircle
 10
-48.93918619535162
 20
22.76268482516329
 30
0.0
 40
0.3157169230761172
100
AcDbArc
 50
295.1944106485386
 51
0.0
  0
ARC
  5
155
102
{ACAD_REACTORS
330
1B9
330
1BA
102
}
330
47
100
AcDbEntity
  8
0
  6
Continuous
 62
     2
100
AcDbCircle
 10
-48.93918619535162
 20
19.0102544015067
 30
0.0
 40
0.3157169230767103
100
AcDbArc
 50
270.0
 51
0.0
  0
ARC
  5
156
102
{ACAD_REACTORS
330
1B9
330
1BA
102
}
330
47
100
AcDbEntity
  8
0
  6
Continuous
 62
     2
100
AcDbCircle
 10
-51.00891413310774
 20
23.9707373074566
 30
0.0
 40
0.4242446153838024
100
AcDbArc
 50
90.0
 51
180.0
  0
ARC
  5
157
102
{ACAD_REACTORS
330
1B9
330
1BA
102
}
330
47
100
AcDbEntity
  8
0
  6
Continuous
 62
     2
100
AcDbCircle
 10
-45.53560204239093
 20
23.9707373074566
 30
0.0
 40
0.424244615383877
100
AcDbArc
 50
0.0
 51
90.0
  0
ARC
  5
158
102
{ACAD_REACTORS
330
1B9
330
1BA
102
}
330
47
100
AcDbEntity
  8
0
  6
Continuous
 62
     2
100
AcDbCircle
 10
-45.53560204239093
 20
18.40622653825639
 30
0.0
 40
0.4242446153832908
100
AcDbArc
 50
270.0
 51
0.0
  0
ARC
  5
159
102
{ACAD_REACTORS
330
1B7
330
1B8
102
}
330
47
100
AcDbEntity
  8
0
  6
Continuous
 62
     2
100
AcDbCircle
 10
-36.31721815529943
 20
22.86807716095271
 30
0.0
 40
0.7717997786796351
100
AcDbArc
 50
321.879580202844
 51
38.12041979715978
  0
ARC
  5
15A
102
{ACAD_REACTORS
330
1B7
330
1B8
102
}
330
47
100
AcDbEntity
  8
0
  6
Continuous
 62
     2
100
AcDbCircle
 10
-36.11747811895324
 20
22.71134598283229
 30
0.0
 40
0.5179085730134505
100
AcDbArc
 50
218.1204197971504
 51
321.8795802028558
  0
ARC
  5
15B
102
{ACAD_REACTORS
330
1B5
330
1B6
102
}
330
47
100
AcDbEntity
  8
0
  6
Continuous
 62
     2
100
AcDbCircle
 10
-39.79748570791344
 20
19.50888668477839
 30
0.0
 40
1.458034083652003
100
AcDbArc
 50
297.548148175701
 51
62.45185182429901
  0
ARC
  5
15C
102
{ACAD_REACTORS
330
1B5
330
1B6
102
}
330
47
100
AcDbEntity
  8
0
  6
Continuous
 62
     2
100
AcDbCircle
 10
-40.35936549158004
 20
19.50888668477839
 30
0.0
 40
1.458034083651487
100
AcDbArc
 50
117.5481481756619
 51
242.451851824338
  0
ARC
  5
15D
102
{ACAD_REACTORS
330
1B5
330
1B6
102
}
330
47
100
AcDbEntity
  8
0
  6
Continuous
 62
     2
100
AcDbCircle
 10
-40.07842559974674
 20
18.9703116744756
 30
0.0
 40
2.065479772208568
100
AcDbArc
 50
62.45185182430637
 51
117.5481481756662
  0
ARC
  5
15E
102
{ACAD_REACTORS
330
1B5
330
1B6
102
}
330
47
100
AcDbEntity
  8
0
  6
Continuous
 62
     2
100
AcDbCircle
 10
-40.07842559974674
 20
20.04746169508169
 30
0.0
 40
2.065479772208502
100
AcDbArc
 50
242.4518518243403
 51
297.5481481756871
  0
ARC
  5
15F
102
{ACAD_REACTORS
330
1B7
330
1B8
102
}
330
47
100
AcDbEntity
  8
0
  6
Continuous
 62
     2
100
AcDbCircle
 10
-35.91773808260695
 20
22.86807716095271
 30
0.0
 40
0.7717997786796745
100
AcDbArc
 50
141.8795802028402
 51
218.120419797156
  0
ARC
  5
160
102
{ACAD_REACTORS
330
1B7
330
1B8
102
}
330
47
100
AcDbEntity
  8
0
  6
Continuous
 62
     2
100
AcDbCircle
 10
-36.11747811895324
 20
23.02480833907319
 30
0.0
 40
0.5179085730135231
100
AcDbArc
 50
38.12041979714413
 51
141.8795802028496
  0
ARC
  5
161
102
{ACAD_REACTORS
330
1B9
330
1BA
102
}
330
47
100
AcDbEntity
  8
0
  6
Continuous
 62
     2
100
AcDbCircle
 10
-51.00891413310774
 20
18.40622653825639
 30
0.0
 40
0.4242446153828041
100
AcDbArc
 50
180.0
 51
270.0
  0
ARC
  5
162
102
{ACAD_REACTORS
330
1B9
330
1BA
102
}
330
47
100
AcDbEntity
  8
0
  6
Continuous
 62
     2
100
AcDbCircle
 10
-48.93918619535162
 20
20.54102533303831
 30
0.0
 40
0.3157169230765859
100
AcDbArc
 50
0.0
 51
64.80558935146145
  0
ARC
  5
163
102
{ACAD_REACTORS
330
1B9
330
1BA
102
}
330
47
100
AcDbEntity
  8
0
  6
Continuous
 62
     2
100
AcDbCircle
 10
-48.41660174777664
 20
21.6518550791011
 30
0.0
 40
0.9118975235576114
100
AcDbArc
 50
115.1944106485283
 51
244.8055893514878
  0
ARC
  5
164
102
{ACAD_REACTORS
330
1B9
330
1BA
102
}
330
47
100
AcDbEntity
  8
0
  6
Continuous
 62
     2
100
AcDbCircle
 10
-50.41501945636125
 20
23.3667094442238
 30
0.0
 40
0.3157169230761987
100
AcDbArc
 50
90.0
 51
180.0
  0
ARC
  5
165
102
{ACAD_REACTORS
330
1B3
330
1B4
102
}
330
47
100
AcDbEntity
  8
0
  6
Continuous
 62
     2
100
AcDbCircle
 10
-43.07644087434423
 20
23.3790122527474
 30
0.0
 40
0.3528638246711218
100
AcDbArc
 50
270.0
 51
90.0
  0
ARC
  5
166
102
{ACAD_REACTORS
330
1B7
330
1B8
102
}
330
47
100
AcDbEntity
  8
0
  6
Continuous
 62
     2
100
AcDbCircle
 10
-36.33375012911844
 20
22.86807716095271
 30
0.0
 40
1.526904761905882
100
AcDbArc
 50
90.0
 51
270.0
  0
ARC
  5
167
102
{ACAD_REACTORS
330
1BB
330
1BC
102
}
330
47
100
AcDbEntity
  8
0
  6
Continuous
 62
     2
100
AcDbCircle
 10
-26.90675503641472
 20
19.39609632274349
 30
0.0
 40
1.639695123940211
100
AcDbArc
 50
90.0
 51
164.938108222895
  0
ARC
  5
168
102
{ACAD_REACTORS
330
1BB
330
1BC
102
}
330
47
100
AcDbEntity
  8
0
  6
Continuous
 62
     2
100
AcDbCircle
 10
-27.32588287987633
 20
19.50888668477839
 30
0.0
 40
1.205656168393009
100
AcDbArc
 50
164.9381082229029
 51
195.0618917770957
  0
ARC
  5
169
102
{ACAD_REACTORS
330
1BB
330
1BC
102
}
330
47
100
AcDbEntity
  8
0
  6
Continuous
 62
     2
100
AcDbCircle
 10
-26.77601055509894
 20
19.3038152554399
 30
0.0
 40
0.5115800601960153
100
AcDbArc
 50
208.521473257687
 51
246.6277221118451
  0
ARC
  5
16A
102
{ACAD_REACTORS
330
1BB
330
1BC
102
}
330
47
100
AcDbEntity
  8
0
  6
Continuous
 62
     2
100
AcDbCircle
 10
-26.77601055509894
 20
19.71395811411739
 30
0.0
 40
0.5115800601944098
100
AcDbArc
 50
109.337143219485
 51
151.4785267424224
  0
ARC
  5
16B
102
{ACAD_REACTORS
330
1B9
330
1BA
102
}
330
47
100
AcDbEntity
  8
0
  6
Continuous
 62
     2
100
AcDbCircle
 10
-47.83947076982955
 20
19.96086207243761
 30
0.0
 40
0.3157169230767849
100
AcDbArc
 50
180.0
 51
269.8110329574567
  0
ARC
  5
16C
102
{ACAD_REACTORS
330
1B9
330
1BA
102
}
330
47
100
AcDbEntity
  8
0
  6
Continuous
 62
     2
100
AcDbCircle
 10
-47.83385463451953
 20
21.6636970200066
 30
0.0
 40
2.018561131933269
100
AcDbArc
 50
269.8110329575862
 51
90.18896704241376
  0
ARC
  5
16D
102
{ACAD_REACTORS
330
1B9
330
1BA
102
}
330
47
100
AcDbEntity
  8
0
  6
Continuous
 62
     2
100
AcDbCircle
 10
-47.83947076982955
 20
22.76099667906891
 30
0.0
 40
0.3157169230767849
100
AcDbArc
 50
180.0
 51
244.6259913216493
  0
ARC
  5
16E
102
{ACAD_REACTORS
330
1B9
330
1BA
102
}
330
47
100
AcDbEntity
  8
0
  6
Continuous
 62
     2
100
AcDbCircle
 10
-47.83947076982955
 20
20.54271347913269
 30
0.0
 40
0.3157169230765298
100
AcDbArc
 50
115.3740086783507
 51
180.0
  0
ARC
  5
16F
102
{ACAD_REACTORS
330
1BD
330
1BE
102
}
330
47
100
AcDbEntity
  8
0
  6
Continuous
 62
     2
100
AcDbCircle
 10
-43.00945651566764
 20
19.39609632274349
 30
0.0
 40
1.639695123940507
100
AcDbArc
 50
84.84185523036236
 51
164.9381082228864
  0
ARC
  5
170
102
{ACAD_REACTORS
330
1BD
330
1BE
102
}
330
47
100
AcDbEntity
  8
0
  6
Continuous
 62
     2
100
AcDbCircle
 10
-43.42858435913044
 20
19.50888668477839
 30
0.0
 40
1.205656168390944
100
AcDbArc
 50
164.9381082228765
 51
195.061891777095
  0
ARC
  5
171
102
{ACAD_REACTORS
330
1BD
330
1BE
102
}
330
47
100
AcDbEntity
  8
0
  6
Continuous
 62
     2
100
AcDbCircle
 10
-43.00945651566764
 20
19.6216770468132
 30
0.0
 40
1.639695123939387
100
AcDbArc
 50
195.0618917770896
 51
275.1581447696395
  0
ARC
  5
172
102
{ACAD_REACTORS
330
1BD
330
1BE
102
}
330
47
100
AcDbEntity
  8
0
  6
Continuous
 62
     2
100
AcDbCircle
 10
-43.29831261040354
 20
22.82156763003479
 30
0.0
 40
4.852596863498134
100
AcDbArc
 50
275.1581447696249
 51
285.9799912583529
  0
ARC
  5
173
102
{ACAD_REACTORS
330
1BD
330
1BE
102
}
330
47
100
AcDbEntity
  8
0
  6
Continuous
 62
     2
100
AcDbCircle
 10
-42.50135477627154
 20
19.50888668477839
 30
0.0
 40
0.9410597353332545
100
AcDbArc
 50
151.4785267422669
 51
208.5214732577057
  0
ARC
  5
174
102
{ACAD_REACTORS
330
1BD
330
1BE
102
}
330
47
100
AcDbEntity
  8
0
  6
Continuous
 62
     2
100
AcDbCircle
 10
-42.87871203435185
 20
19.71395811411739
 30
0.0
 40
0.5115800601948811
100
AcDbArc
 50
113.372277888199
 51
151.4785267423044
  0
ARC
  5
175
102
{ACAD_REACTORS
330
1BD
330
1BE
102
}
330
47
100
AcDbEntity
  8
0
  6
Continuous
 62
     2
100
AcDbCircle
 10
-43.14043973531062
 20
18.09842031937021
 30
0.0
 40
2.227384008973474
100
AcDbArc
 50
58.06909105004068
 51
71.55192388186722
  0
ARC
  5
176
102
{ACAD_REACTORS
330
1B5
330
1B6
102
}
330
47
100
AcDbEntity
  8
0
  6
Continuous
 62
     2
100
AcDbCircle
 10
-40.07842559974674
 20
19.6656178628989
 30
0.0
 40
0.5179085730132976
100
AcDbArc
 50
38.12041979714672
 51
141.8795802028591
  0
ARC
  5
177
102
{ACAD_REACTORS
330
1B5
330
1B6
102
}
330
47
100
AcDbEntity
  8
0
  6
Continuous
 62
     2
100
AcDbCircle
 10
-39.87868556340064
 20
19.50888668477839
 30
0.0
 40
0.771799778679461
100
AcDbArc
 50
141.8795802028365
 51
218.1204197971687
  0
ARC
  5
178
102
{ACAD_REACTORS
330
1B5
330
1B6
102
}
330
47
100
AcDbEntity
  8
0
  6
Continuous
 62
     2
100
AcDbCircle
 10
-40.07842559974674
 20
19.35215550665839
 30
0.0
 40
0.5179085730137354
100
AcDbArc
 50
218.1204197971931
 51
321.879580202801
  0
ARC
  5
179
102
{ACAD_REACTORS
330
1B5
330
1B6
102
}
330
47
100
AcDbEntity
  8
0
  6
Continuous
 62
     2
100
AcDbCircle
 10
-40.27816563609315
 20
19.50888668477839
 30
0.0
 40
0.7717997786796947
100
AcDbArc
 50
321.8795802028417
 51
38.12041979715308
  0
CIRCLE
  5
17A
330
47
100
AcDbEntity
  8
1
  6
Continuous
 62
     2
100
AcDbCircle
 10
-42.93315874849054
 20
31.81348192285671
 30
0.0
 40
2.5
  0
CIRCLE
  5
17B
330
47
100
AcDbEntity
  8
1
  6
Continuous
 62
     2
100
AcDbCircle
 10
-42.93315874849054
 20
31.81348192285671
 30
0.0
 40
1.249999999999915
  0
CIRCLE
  5
17C
102
{ACAD_REACTORS
330
1B9
330
1BA
102
}
330
47
100
AcDbEntity
  8
0
  6
Continuous
 62
     2
100
AcDbCircle
 10
-48.38932848259023
 20
21.6518550791011
 30
0.0
 40
0.4709789327785074
  0
MTEXT
  5
17E
330
47
100
AcDbEntity
  8
1
 62
     3
100
AcDbMText
 10
-213.1199413222313
 20
197.4797900781556
 30
0.0
 40
1.8
 41
0.0
 71
     7
 72
     1
  3
Weitergabe sowie Vervielf\U+00e4ltigung dieses Dokuments, Verwertung und \PMitteilung seines Inhalts sind verboten, soweit nicht ausdr\U+00fccklich gestattet. \PZuwiderhandlungen verpflichten zu Schadenersatz. Alle Rechte f\U+00fcr den Fall\Pder Pat
  1
ent-, Gebrauchsmuster- oder Designeintragung vorbehalten.
  7
CONVERTER_11
 73
     1
 44
0.99639855942377
  0
MTEXT
  5
17F
330
47
100
AcDbEntity
  8
1
 62
     3
100
AcDbMText
 10
-30.26683148344324
 20
197.4797900781556
 30
0.0
 40
1.8
 41
0.0
 71
     7
 72
     1
  3
Transfer or duplication of this document as well as the utilisation or\Pcommunication of its content are not permitted unless express consent\Pis granted. Violations give rise to claims for damages. All rights reserved\Pin case of patent, utility mo
  1
del or design patent registrations.
  7
CONVERTER_11
 73
     1
 44
0.99639855942377
  0
TEXT
  5
180
330
47
100
AcDbEntity
  8
1
 62
     2
100
AcDbText
 10
-36.46981363505333
 20
11.92946470786518
 30
0.0
 40
1.8
  1
of
 41
0.9
  7
CONVERTER_11
100
AcDbText
  0
TEXT
  5
181
330
47
100
AcDbEntity
  8
1
 62
     2
100
AcDbText
 10
-54.66981363505315
 20
11.92946470786512
 30
0.0
 40
1.8
  1
page
 41
0.9
  7
CONVERTER_11
100
AcDbText
  0
TEXT
  5
182
330
47
100
AcDbEntity
  8
1
 62
     2
100
AcDbText
 10
-46.02354866471114
 20
11.88923326905479
 30
0.0
 40
1.8
  1
1
 41
0.9
  7
CONVERTER_11
100
AcDbText
  0
TEXT
  5
183
330
47
100
AcDbEntity
  8
1
 62
     2
100
AcDbText
 10
-31.23450482523964
 20
11.93848192285668
 30
0.0
 40
1.8
  1
1
 41
0.9
  7
CONVERTER_11
100
AcDbText
  0
MTEXT
  5
185
330
47
100
AcDbEntity
  8
1
 62
     7
100
AcDbMText
 10
27.30258862832235
 20
13.93848192285702
 30
0.0
 40
3.0
 41
0.0
 71
     5
 72
     1
  1
D-URK-ND
  7
CONVERTER_12
 73
     1
 44
1.20048019207683
  0
MTEXT
  5
186
330
47
100
AcDbEntity
  8
1
 62
     2
100
AcDbMText
 10
-18.26981363505323
 20
18.1884819228568
 30
0.0
 40
1.8
 41
0.0
 71
     1
 72
     1
  1
description
  7
CONVERTER_11
 73
     1
 44
1.20048019207683
  0
MTEXT
  5
187
330
47
100
AcDbEntity
  8
1
 62
     3
100
AcDbMText
 10
-29.46981363505324
 20
31.8134819228568
 30
0.0
 40
2.5
 41
0.0
 71
     5
 72
     1
  1
DIN A4
  7
CONVERTER_11
 73
     1
 44
1.20048019207683
  0
MTEXT
  5
188
330
47
100
AcDbEntity
  8
1
 62
     7
100
AcDbMText
 10
-215.6250091083022
 20
33.1884819228568
 30
0.0
 40
3.5
 41
0.0
 71
     5
 72
     1
  1
D
  7
CONVERTER_11
 73
     1
 44
1.20048019207683
  0
MTEXT
  5
189
330
47
100
AcDbEntity
  8
1
 62
     7
100
AcDbMText
 10
-215.6250091083022
 20
85.6884819228568
 30
0.0
 40
3.5
 41
0.0
 71
     5
 72
     1
  1
C
  7
CONVERTER_11
 73
     1
 44
1.20048019207683
  0
MTEXT
  5
18A
330
47
100
AcDbEntity
  8
1
 62
     7
100
AcDbMText
 10
-215.6250091083022
 20
135.6884819228568
 30
0.0
 40
3.5
 41
0.0
 71
     5
 72
     1
  1
B
  7
CONVERTER_11
 73
     1
 44
1.20048019207683
  0
MTEXT
  5
18B
330
47
100
AcDbEntity
  8
1
 62
     7
100
AcDbMText
 10
-215.6250091083022
 20
188.1884819228568
 30
0.0
 40
3.5
 41
0.0
 71
     5
 72
     1
  1
A
  7
CONVERTER_11
 73
     1
 44
1.20048019207683
  0
MTEXT
  5
18C
330
47
100
AcDbEntity
  8
1
 62
     7
100
AcDbMText
 10
54.62499089169606
 20
8.18848192285668
 30
0.0
 40
3.5
 41
0.0
 71
     5
 72
     1
  1
6
  7
CONVERTER_11
 73
     1
 44
1.20048019207683
  0
MTEXT
  5
18D
330
47
100
AcDbEntity
  8
1
 62
     7
100
AcDbMText
 10
5.37499089169685
 20
8.18848192285668
 30
0.0
 40
3.5
 41
0.0
 71
     5
 72
     1
  1
5
  7
CONVERTER_11
 73
     1
 44
1.20048019207683
  0
MTEXT
  5
18E
330
47
100
AcDbEntity
  8
1
 62
     7
100
AcDbMText
 10
-44.62500910830323
 20
8.18848192285668
 30
0.0
 40
3.5
 41
0.0
 71
     5
 72
     1
  1
4
  7
CONVERTER_11
 73
     1
 44
1.20048019207683
  0
MTEXT
  5
18F
330
47
100
AcDbEntity
  8
1
 62
     7
100
AcDbMText
 10
-94.62500910830312
 20
8.18848192285668
 30
0.0
 40
3.5
 41
0.0
 71
     5
 72
     1
  1
3
  7
CONVERTER_11
 73
     1
 44
1.20048019207683
  0
MTEXT
  5
190
330
47
100
AcDbEntity
  8
1
 62
     7
100
AcDbMText
 10
-144.6250091083031
 20
8.18848192285668
 30
0.0
 40
3.5
 41
0.0
 71
     5
 72
     1
  1
2
  7
CONVERTER_11
 73
     1
 44
1.20048019207683
  0
MTEXT
  5
191
330
47
100
AcDbEntity
  8
1
 62
     7
100
AcDbMText
 10
-193.8750091083027
 20
8.18848192285668
 30
0.0
 40
3.5
 41
0.0
 71
     5
 72
     1
  1
1
  7
CONVERTER_11
 73
     1
 44
1.20048019207683
  0
MTEXT
  5
192
330
47
100
AcDbEntity
  8
1
 62
     7
100
AcDbMText
 10
76.37499089169586
 20
33.1884819228568
 30
0.0
 40
3.5
 41
0.0
 71
     5
 72
     1
  1
D
  7
CONVERTER_11
 73
     1
 44
1.20048019207683
  0
MTEXT
  5
193
330
47
100
AcDbEntity
  8
1
 62
     7
100
AcDbMText
 10
76.37499089169586
 20
135.6884819228587
 30
0.0
 40
3.5
 41
0.0
 71
     5
 72
     1
  1
B
  7
CONVERTER_11
 73
     1
 44
1.20048019207683
  0
MTEXT
  5
194
330
47
100
AcDbEntity
  8
1
 62
     7
100
AcDbMText
 10
76.37499089169586
 20
188.1884819228568
 30
0.0
 40
3.5
 41
0.0
 71
     5
 72
     1
  1
A
  7
CONVERTER_11
 73
     1
 44
1.20048019207683
  0
MTEXT
  5
195
330
47
100
AcDbEntity
  8
1
 62
     7
100
AcDbMText
 10
76.37499089169586
 20
85.6884819228587
 30
0.0
 40
3.5
 41
0.0
 71
     5
 72
     1
  1
C
  7
CONVERTER_11
 73
     1
 44
1.20048019207683
  0
MTEXT
  5
196
330
47
100
AcDbEntity
  8
1
 62
     2
100
AcDbMText
 10
-90.10782836010065
 20
23.43848192285671
 30
0.0
 40
2.0
 41
0.0
 71
     5
 72
     1
  1
General Information\P- Simplified representation\P- Document excluded from change process\P- Linear dimensions [mm]
  7
CONVERTER_11
 73
     1
 44
1.20048019207683
  0
TEXT
  5
197
330
47
100
AcDbEntity
  8
1
 62
     7
100
AcDbText
 10
-17.76981363505342
 20
20.48848192285669
 30
0.0
 40
2.5
  1
0701121
 41
0.81
  7
CONVERTER_12
100
AcDbText
  0
MTEXT
  5
198
330
47
100
AcDbEntity
  8
1
 62
     2
100
AcDbMText
 10
-18.16981363505315
 20
26.6884819228568
 30
0.0
 40
1.8
 41
0.0
 71
     1
 72
     1
  1
ident.-No.
  7
CONVERTER_11
 73
     1
 44
1.20048019207683
  0
MTEXT
  5
199
330
47
100
AcDbEntity
  8
1
 62
     2
100
AcDbMText
 10
66.05658261001957
 20
35.1884819228568
 30
0.0
 40
1.8
 41
0.0
 71
     1
 72
     1
  1
scale
  7
CONVERTER_11
 73
     1
 44
1.20048019207683
  0
MTEXT
  5
19B
330
47
100
AcDbEntity
  8
1
 62
     3
100
AcDbMText
 10
69.41578675085917
 20
28.98848192285689
 30
0.0
 40
2.5
 41
0.0
 71
     8
 72
     1
  1
1:1
  7
CONVERTER_13
 73
     1
 44
1.32052821128451
  0
TEXT
  5
19C
330
47
100
AcDbEntity
  8
1
 62
     7
100
AcDbText
 10
-18.16981363505315
 20
28.98848192285669
 30
0.0
 40
2.5
  1
00447697
 41
0.81
  7
CONVERTER_12
100
AcDbText
  0
MTEXT
  5
19E
330
47
100
AcDbEntity
  8
1
 62
     2
100
AcDbMText
 10
-18.16981363505315
 20
35.1884819228568
 30
0.0
 40
1.8
 41
0.0
 71
     1
 72
     1
  1
document-No. / RI
  7
CONVERTER_14
 73
     1
 44
1.32052821128451
  0
TEXT
  5
19F
330
47
100
AcDbEntity
  8
1
 62
     3
100
AcDbText
 10
9.63018636494687
 20
20.48848192285669
 30
0.0
 40
2.5
  1
TECDOC 2D_Productdrawing
 41
0.81
  7
CONVERTER_12
100
AcDbText
  0
MTEXT
  5
1A0
330
47
100
AcDbEntity
  8
1
 62
     2
100
AcDbMText
 10
9.63018636494687
 20
26.68848192285671
 30
0.0
 40
1.8
 41
0.0
 71
     1
 72
     1
  1
document-type
  7
CONVERTER_11
 73
     1
 44
1.20048019207683
  0
MTEXT
  5
1A1
330
47
100
AcDbEntity
  8
1
 62
     2
100
AcDbMText
 10
39.45658261001975
 20
35.18848192285671
 30
0.0
 40
1.8
 41
0.0
 71
     1
 72
     1
  1
date
  7
CONVERTER_11
 73
     1
 44
1.32052821128451
  0
TEXT
  5
1A2
330
47
100
AcDbEntity
  8
1
 62
     3
100
AcDbText
 10
39.45658261001975
 20
28.98848192285669
 30
0.0
 40
2.5
  1
13.02.2018
 41
0.81
  7
CONVERTER_12
100
AcDbText
  0
TEXT
  5
1A3
330
47
100
AcDbEntity
  8
1
 62
     7
100
AcDbText
 10
1.86009858400266
 20
28.98848192285669
 30
0.0
 40
2.5
  1
00
 41
0.81
  7
CONVERTER_12
100
AcDbText
  0
TEXT
  5
1A4
330
47
100
AcDbEntity
  8
1
 62
     7
100
AcDbText
 10
-0.29626591303935
 20
28.98848192285669
 30
0.0
 40
2.5
  1
/
 41
0.9
  7
CONVERTER_11
100
AcDbText
  0
HATCH
  5
1A5
330
47
100
AcDbEntity
  8
1
  6
Continuous
 62
     2
100
AcDbHatch
 10
0.0
 20
0.0
 30
0.0
210
0.0
220
0.0
230
1.0
  2
_USER
 70
     0
 71
     1
 91
        1
 92
        1
 93
       12
 72
     1
 10
-38.00231292209205
 20
21.34117239904739
 11
-39.19510562425845
 21
21.34117239904739
 72
     1
 10
-39.19510562425845
 20
21.34117239904739
 11
-39.19510562425845
 21
22.47544450789121
 72
     1
 10
-39.19510562425845
 20
22.47544450789121
 11
-40.24476320216593
 21
22.47544450789121
 72
     1
 10
-40.24476320216593
 20
22.47544450789121
 11
-40.24476320216593
 21
21.34117239904739
 72
     1
 10
-40.24476320216593
 20
21.34117239904739
 11
-41.43755590433253
 21
21.34117239904739
 72
     1
 10
-41.43755590433253
 20
21.34117239904739
 11
-41.43755590433253
 21
24.39498192285859
 72
     1
 10
-41.43755590433253
 20
24.39498192285859
 11
-40.24476320216593
 21
24.39498192285859
 72
     1
 10
-40.24476320216593
 20
24.39498192285859
 11
-40.24476320216593
 21
23.326148589524
 72
     1
 10
-40.24476320216593
 20
23.326148589524
 11
-39.19510562425845
 21
23.326148589524
 72
     1
 10
-39.19510562425845
 20
23.326148589524
 11
-39.19510562425845
 21
24.39498192285859
 72
     1
 10
-39.19510562425845
 20
24.39498192285859
 11
-38.00231292209205
 21
24.39498192285859
 72
     1
 10
-38.00231292209205
 20
24.39498192285859
 11
-38.00231292209205
 21
21.34117239904739
 97
       12
330
111
330
112
330
FC
330
FB
330
FA
330
10E
330
F9
330
10F
330
110
330
F8
330
F7
330
F6
 75
     1
 76
     0
 52
45.0
 41
0.1
 77
     0
 78
     1
 53
45.0
 43
0.0
 44
0.0
 45
-0.0707106781186548
 46
0.0707106781186548
 79
     0
 98
        1
 10
0.0
 20
0.0
  0
HATCH
  5
1A6
330
47
100
AcDbEntity
  8
1
  6
Continuous
 62
     2
100
AcDbHatch
 10
0.0
 20
0.0
 30
0.0
210
0.0
220
0.0
230
1.0
  2
_USER
 70
     0
 71
     1
 91
        1
 92
        1
 93
       12
 72
     1
 10
-38.00231292209205
 20
21.34117239904739
 11
-39.19510562425845
 21
21.34117239904739
 72
     1
 10
-39.19510562425845
 20
21.34117239904739
 11
-39.19510562425845
 21
22.47544450789121
 72
     1
 10
-39.19510562425845
 20
22.47544450789121
 11
-40.24476320216593
 21
22.47544450789121
 72
     1
 10
-40.24476320216593
 20
22.47544450789121
 11
-40.24476320216593
 21
21.34117239904739
 72
     1
 10
-40.24476320216593
 20
21.34117239904739
 11
-41.43755590433253
 21
21.34117239904739
 72
     1
 10
-41.43755590433253
 20
21.34117239904739
 11
-41.43755590433253
 21
24.39498192285859
 72
     1
 10
-41.43755590433253
 20
24.39498192285859
 11
-40.24476320216593
 21
24.39498192285859
 72
     1
 10
-40.24476320216593
 20
24.39498192285859
 11
-40.24476320216593
 21
23.326148589524
 72
     1
 10
-40.24476320216593
 20
23.326148589524
 11
-39.19510562425845
 21
23.326148589524
 72
     1
 10
-39.19510562425845
 20
23.326148589524
 11
-39.19510562425845
 21
24.39498192285859
 72
     1
 10
-39.19510562425845
 20
24.39498192285859
 11
-38.00231292209205
 21
24.39498192285859
 72
     1
 10
-38.00231292209205
 20
24.39498192285859
 11
-38.00231292209205
 21
21.34117239904739
 97
       12
330
111
330
112
330
FC
330
FB
330
FA
330
10E
330
F9
330
10F
330
110
330
F8
330
F7
330
F6
 75
     1
 76
     0
 52
45.0
 41
0.1
 77
     0
 78
     1
 53
45.0
 43
0.0
 44
0.0
 45
-0.0707106781186548
 46
0.0707106781186548
 79
     0
 98
        1
 10
0.0
 20
0.0
  0
HATCH
  5
1A7
330
47
100
AcDbEntity
  8
1
  6
Continuous
 62
     2
100
AcDbHatch
 10
0.0
 20
0.0
 30
0.0
210
0.0
220
0.0
230
1.0
  2
_USER
 70
     0
 71
     1
 91
        1
 92
        1
 93
       10
 72
     1
 10
-35.76001357290375
 20
19.72701593647909
 11
-37.00051798315664
 21
21.03579144668419
 72
     1
 10
-37.00051798315664
 20
21.03579144668419
 11
-38.19331068532424
 21
21.03579144668419
 72
     1
 10
-38.19331068532424
 20
21.03579144668419
 11
-38.19331068532424
 21
17.9819819228731
 72
     1
 10
-38.19331068532424
 20
17.9819819228731
 11
-37.00051798315664
 21
17.9819819228731
 72
     1
 10
-37.00051798315664
 20
17.9819819228731
 11
-37.00051798315664
 21
19.29075743307769
 72
     1
 10
-37.00051798315664
 20
19.29075743307769
 11
-35.76001357290375
 21
17.9819819228731
 72
     1
 10
-35.76001357290375
 20
17.9819819228731
 11
-34.56722087073734
 21
17.9819819228731
 72
     1
 10
-34.56722087073734
 20
17.9819819228731
 11
-34.56722087073734
 21
21.03579144668419
 72
     1
 10
-34.56722087073734
 20
21.03579144668419
 11
-35.76001357290375
 21
21.03579144668419
 72
     1
 10
-35.76001357290375
 20
21.03579144668419
 11
-35.76001357290375
 21
19.72701593647909
 97
       10
330
11F
330
EF
330
EE
330
F1
330
11A
330
11B
330
F0
330
11C
330
11D
330
11E
 75
     1
 76
     0
 52
45.0
 41
0.1
 77
     0
 78
     1
 53
45.0
 43
0.0
 44
0.0
 45
-0.0707106781186548
 46
0.0707106781186548
 79
     0
 98
        1
 10
0.0
 20
0.0
  0
HATCH
  5
1A8
330
47
100
AcDbEntity
  8
1
  6
Continuous
 62
     2
100
AcDbHatch
 10
0.0
 20
0.0
 30
0.0
210
0.0
220
0.0
230
1.0
  2
_USER
 70
     0
 71
     1
 91
        1
 92
        1
 93
       10
 72
     1
 10
-35.76001357290375
 20
19.72701593647909
 11
-37.00051798315664
 21
21.03579144668419
 72
     1
 10
-37.00051798315664
 20
21.03579144668419
 11
-38.19331068532424
 21
21.03579144668419
 72
     1
 10
-38.19331068532424
 20
21.03579144668419
 11
-38.19331068532424
 21
17.9819819228731
 72
     1
 10
-38.19331068532424
 20
17.9819819228731
 11
-37.00051798315664
 21
17.9819819228731
 72
     1
 10
-37.00051798315664
 20
17.9819819228731
 11
-37.00051798315664
 21
19.29075743307769
 72
     1
 10
-37.00051798315664
 20
19.29075743307769
 11
-35.76001357290375
 21
17.9819819228731
 72
     1
 10
-35.76001357290375
 20
17.9819819228731
 11
-34.56722087073734
 21
17.9819819228731
 72
     1
 10
-34.56722087073734
 20
17.9819819228731
 11
-34.56722087073734
 21
21.03579144668419
 72
     1
 10
-34.56722087073734
 20
21.03579144668419
 11
-35.76001357290375
 21
21.03579144668419
 72
     1
 10
-35.76001357290375
 20
21.03579144668419
 11
-35.76001357290375
 21
19.72701593647909
 97
       10
330
11F
330
EF
330
EE
330
F1
330
11A
330
11B
330
F0
330
11C
330
11D
330
11E
 75
     1
 76
     0
 52
45.0
 41
0.1
 77
     0
 78
     1
 53
45.0
 43
0.0
 44
0.0
 45
-0.0707106781186548
 46
0.0707106781186548
 79
     0
 98
        1
 10
0.0
 20
0.0
  0
HATCH
  5
1A9
330
47
100
AcDbEntity
  8
1
  6
Continuous
 62
     2
100
AcDbHatch
 10
0.0
 20
0.0
 30
0.0
210
0.0
220
0.0
230
1.0
  2
_USER
 70
     0
 71
     1
 91
        1
 92
        1
 93
       10
 72
     1
 10
-30.51157475248402
 20
23.08620641265341
 11
-31.75207916273803
 21
24.39498192285859
 72
     1
 10
-31.75207916273803
 20
24.39498192285859
 11
-32.94487186490454
 21
24.39498192285859
 72
     1
 10
-32.94487186490454
 20
24.39498192285859
 11
-32.94487186490454
 21
21.34117239904739
 72
     1
 10
-32.94487186490454
 20
21.34117239904739
 11
-31.75207916273803
 21
21.34117239904739
 72
     1
 10
-31.75207916273803
 20
21.34117239904739
 11
-31.75207916273803
 21
22.64994790925209
 72
     1
 10
-31.75207916273803
 20
22.64994790925209
 11
-30.51157475248402
 21
21.34117239904739
 72
     1
 10
-30.51157475248402
 20
21.34117239904739
 11
-29.31878205031742
 21
21.34117239904739
 72
     1
 10
-29.31878205031742
 20
21.34117239904739
 11
-29.31878205031742
 21
24.39498192285859
 72
     1
 10
-29.31878205031742
 20
24.39498192285859
 11
-30.51157475248402
 21
24.39498192285859
 72
     1
 10
-30.51157475248402
 20
24.39498192285859
 11
-30.51157475248402
 21
23.08620641265341
 97
       10
330
124
330
EC
330
EB
330
125
330
EA
330
120
330
121
330
122
330
123
330
ED
 75
     1
 76
     0
 52
45.0
 41
0.1
 77
     0
 78
     1
 53
45.0
 43
0.0
 44
0.0
 45
-0.0707106781186548
 46
0.0707106781186548
 79
     0
 98
        1
 10
0.0
 20
0.0
  0
HATCH
  5
1AA
330
47
100
AcDbEntity
  8
1
  6
Continuous
 62
     2
100
AcDbHatch
 10
0.0
 20
0.0
 30
0.0
210
0.0
220
0.0
230
1.0
  2
_USER
 70
     0
 71
     1
 91
        1
 92
        1
 93
       10
 72
     1
 10
-30.51157475248402
 20
23.08620641265341
 11
-31.75207916273803
 21
24.39498192285859
 72
     1
 10
-31.75207916273803
 20
24.39498192285859
 11
-32.94487186490454
 21
24.39498192285859
 72
     1
 10
-32.94487186490454
 20
24.39498192285859
 11
-32.94487186490454
 21
21.34117239904739
 72
     1
 10
-32.94487186490454
 20
21.34117239904739
 11
-31.75207916273803
 21
21.34117239904739
 72
     1
 10
-31.75207916273803
 20
21.34117239904739
 11
-31.75207916273803
 21
22.64994790925209
 72
     1
 10
-31.75207916273803
 20
22.64994790925209
 11
-30.51157475248402
 21
21.34117239904739
 72
     1
 10
-30.51157475248402
 20
21.34117239904739
 11
-29.31878205031742
 21
21.34117239904739
 72
     1
 10
-29.31878205031742
 20
21.34117239904739
 11
-29.31878205031742
 21
24.39498192285859
 72
     1
 10
-29.31878205031742
 20
24.39498192285859
 11
-30.51157475248402
 21
24.39498192285859
 72
     1
 10
-30.51157475248402
 20
24.39498192285859
 11
-30.51157475248402
 21
23.08620641265341
 97
       10
330
124
330
EC
330
EB
330
125
330
EA
330
120
330
121
330
122
330
123
330
ED
 75
     1
 76
     0
 52
45.0
 41
0.1
 77
     0
 78
     1
 53
45.0
 43
0.0
 44
0.0
 45
-0.0707106781186548
 46
0.0707106781186548
 79
     0
 98
        1
 10
0.0
 20
0.0
  0
HATCH
  5
1AB
330
47
100
AcDbEntity
  8
1
  6
Continuous
 62
     2
100
AcDbHatch
 10
0.0
 20
0.0
 30
0.0
210
0.0
220
0.0
230
1.0
  2
_USER
 70
     0
 71
     1
 91
        1
 92
        1
 93
        8
 72
     1
 10
-31.60909496936353
 20
21.03579144668419
 11
-34.42408574647715
 21
21.03579144668419
 72
     1
 10
-34.42408574647715
 20
21.03579144668419
 11
-34.42408574647715
 21
20.2505261405606
 72
     1
 10
-34.42408574647715
 20
20.2505261405606
 11
-33.61298670900254
 21
20.2505261405606
 72
     1
 10
-33.61298670900254
 20
20.2505261405606
 11
-33.61298670900254
 21
17.9819819228731
 72
     1
 10
-33.61298670900254
 20
17.9819819228731
 11
-32.42019400683603
 21
17.9819819228731
 72
     1
 10
-32.42019400683603
 20
17.9819819228731
 11
-32.42019400683603
 21
20.2505261405606
 72
     1
 10
-32.42019400683603
 20
20.2505261405606
 11
-31.60909496936353
 21
20.2505261405606
 72
     1
 10
-31.60909496936353
 20
20.2505261405606
 11
-31.60909496936353
 21
21.03579144668419
 97
        8
330
E6
330
126
330
E5
330
127
330
128
330
E9
330
E8
330
E7
 75
     1
 76
     0
 52
45.0
 41
0.1
 77
     0
 78
     1
 53
45.0
 43
0.0
 44
0.0
 45
-0.0707106781186548
 46
0.0707106781186548
 79
     0
 98
        1
 10
0.0
 20
0.0
  0
HATCH
  5
1AC
330
47
100
AcDbEntity
  8
1
  6
Continuous
 62
     2
100
AcDbHatch
 10
0.0
 20
0.0
 30
0.0
210
0.0
220
0.0
230
1.0
  2
_USER
 70
     0
 71
     1
 91
        1
 92
        1
 93
        8
 72
     1
 10
-31.60909496936353
 20
21.03579144668419
 11
-34.42408574647715
 21
21.03579144668419
 72
     1
 10
-34.42408574647715
 20
21.03579144668419
 11
-34.42408574647715
 21
20.2505261405606
 72
     1
 10
-34.42408574647715
 20
20.2505261405606
 11
-33.61298670900254
 21
20.2505261405606
 72
     1
 10
-33.61298670900254
 20
20.2505261405606
 11
-33.61298670900254
 21
17.9819819228731
 72
     1
 10
-33.61298670900254
 20
17.9819819228731
 11
-32.42019400683603
 21
17.9819819228731
 72
     1
 10
-32.42019400683603
 20
17.9819819228731
 11
-32.42019400683603
 21
20.2505261405606
 72
     1
 10
-32.42019400683603
 20
20.2505261405606
 11
-31.60909496936353
 21
20.2505261405606
 72
     1
 10
-31.60909496936353
 20
20.2505261405606
 11
-31.60909496936353
 21
21.03579144668419
 97
        8
330
E6
330
126
330
E5
330
127
330
128
330
E9
330
E8
330
E7
 75
     1
 76
     0
 52
45.0
 41
0.1
 77
     0
 78
     1
 53
45.0
 43
0.0
 44
0.0
 45
-0.0707106781186548
 46
0.0707106781186548
 79
     0
 98
        1
 10
0.0
 20
0.0
  0
HATCH
  5
1AD
330
47
100
AcDbEntity
  8
1
  6
Continuous
 62
     2
100
AcDbHatch
 10
0.0
 20
0.0
 30
0.0
210
0.0
220
0.0
230
1.0
  2
_USER
 70
     0
 71
     1
 91
        2
 92
        1
 93
        8
 72
     1
 10
-29.47066751341654
 20
17.9819819228731
 11
-29.68214756689233
 21
18.52294246709099
 72
     1
 10
-29.68214756689233
 20
18.52294246709099
 11
-30.81458914356614
 21
18.52294246709099
 72
     1
 10
-30.81458914356614
 20
18.52294246709099
 11
-31.02606919704195
 21
17.9819819228731
 72
     1
 10
-31.02606919704195
 20
17.9819819228731
 11
-32.26657360729493
 21
17.9819819228731
 72
     1
 10
-32.26657360729493
 20
17.9819819228731
 11
-30.86862056035562
 21
21.03579144668419
 72
     1
 10
-30.86862056035562
 20
21.03579144668419
 11
-29.62811615010293
 21
21.03579144668419
 72
     1
 10
-29.62811615010293
 20
21.03579144668419
 11
-28.23016310316262
 21
17.9819819228731
 72
     1
 10
-28.23016310316262
 20
17.9819819228731
 11
-29.47066751341654
 21
17.9819819228731
 97
        8
330
12A
330
12B
330
E2
330
12C
330
E1
330
E4
330
129
330
E3
 92
       16
 93
        3
 72
     1
 10
-30.54853359242114
 20
19.20350573239759
 11
-30.24836835522874
 21
19.97132069838429
 72
     1
 10
-30.24836835522874
 20
19.97132069838429
 11
-29.94820311803863
 21
19.20350573239759
 72
     1
 10
-29.94820311803863
 20
19.20350573239759
 11
-30.54853359242114
 21
19.20350573239759
 97
        3
330
E0
330
12E
330
12D
 75
     1
 76
     0
 52
45.0
 41
0.1
 77
     0
 78
     1
 53
45.0
 43
0.0
 44
0.0
 45
-0.0707106781186548
 46
0.0707106781186548
 79
     0
 98
        1
 10
0.0
 20
0.0
  0
HATCH
  5
1AE
330
47
100
AcDbEntity
  8
1
  6
Continuous
 62
     2
100
AcDbHatch
 10
0.0
 20
0.0
 30
0.0
210
0.0
220
0.0
230
1.0
  2
_USER
 70
     0
 71
     1
 91
        2
 92
        1
 93
        8
 72
     1
 10
-29.47066751341654
 20
17.9819819228731
 11
-29.68214756689233
 21
18.52294246709099
 72
     1
 10
-29.68214756689233
 20
18.52294246709099
 11
-30.81458914356614
 21
18.52294246709099
 72
     1
 10
-30.81458914356614
 20
18.52294246709099
 11
-31.02606919704195
 21
17.9819819228731
 72
     1
 10
-31.02606919704195
 20
17.9819819228731
 11
-32.26657360729493
 21
17.9819819228731
 72
     1
 10
-32.26657360729493
 20
17.9819819228731
 11
-30.86862056035562
 21
21.03579144668419
 72
     1
 10
-30.86862056035562
 20
21.03579144668419
 11
-29.62811615010293
 21
21.03579144668419
 72
     1
 10
-29.62811615010293
 20
21.03579144668419
 11
-28.23016310316262
 21
17.9819819228731
 72
     1
 10
-28.23016310316262
 20
17.9819819228731
 11
-29.47066751341654
 21
17.9819819228731
 97
        8
330
12A
330
12B
330
E2
330
12C
330
E1
330
E4
330
129
330
E3
 92
       16
 93
        3
 72
     1
 10
-30.54853359242114
 20
19.20350573239759
 11
-30.24836835522874
 21
19.97132069838429
 72
     1
 10
-30.24836835522874
 20
19.97132069838429
 11
-29.94820311803863
 21
19.20350573239759
 72
     1
 10
-29.94820311803863
 20
19.20350573239759
 11
-30.54853359242114
 21
19.20350573239759
 97
        3
330
E0
330
12E
330
12D
 75
     1
 76
     0
 52
45.0
 41
0.1
 77
     0
 78
     1
 53
45.0
 43
0.0
 44
0.0
 45
-0.0707106781186548
 46
0.0707106781186548
 79
     0
 98
        1
 10
0.0
 20
0.0
  0
HATCH
  5
1AF
330
47
100
AcDbEntity
  8
1
  6
Continuous
 62
     2
100
AcDbHatch
 10
0.0
 20
0.0
 30
0.0
210
0.0
220
0.0
230
1.0
  2
_USER
 70
     0
 71
     1
 91
        1
 92
        1
 93
        4
 72
     1
 10
-27.83971909963063
 20
21.34117239904739
 11
-29.08022350988352
 21
21.34117239904739
 72
     1
 10
-29.08022350988352
 20
21.34117239904739
 11
-29.08022350988352
 21
24.39498192285859
 72
     1
 10
-29.08022350988352
 20
24.39498192285859
 11
-27.83971909963063
 21
24.39498192285859
 72
     1
 10
-27.83971909963063
 20
24.39498192285859
 11
-27.83971909963063
 21
21.34117239904739
 97
        4
330
DD
330
DF
330
12F
330
DE
 75
     1
 76
     0
 52
45.0
 41
0.1
 77
     0
 78
     1
 53
45.0
 43
0.0
 44
0.0
 45
-0.0707106781186548
 46
0.0707106781186548
 79
     0
 98
        1
 10
0.0
 20
0.0
  0
HATCH
  5
1B0
330
47
100
AcDbEntity
  8
1
  6
Continuous
 62
     2
100
AcDbHatch
 10
0.0
 20
0.0
 30
0.0
210
0.0
220
0.0
230
1.0
  2
_USER
 70
     0
 71
     1
 91
        1
 92
        1
 93
        4
 72
     1
 10
-27.83971909963063
 20
21.34117239904739
 11
-29.08022350988352
 21
21.34117239904739
 72
     1
 10
-29.08022350988352
 20
21.34117239904739
 11
-29.08022350988352
 21
24.39498192285859
 72
     1
 10
-29.08022350988352
 20
24.39498192285859
 11
-27.83971909963063
 21
24.39498192285859
 72
     1
 10
-27.83971909963063
 20
24.39498192285859
 11
-27.83971909963063
 21
21.34117239904739
 97
        4
330
DD
330
DF
330
12F
330
DE
 75
     1
 76
     0
 52
45.0
 41
0.1
 77
     0
 78
     1
 53
45.0
 43
0.0
 44
0.0
 45
-0.0707106781186548
 46
0.0707106781186548
 79
     0
 98
        1
 10
0.0
 20
0.0
  0
HATCH
  5
1B1
330
47
100
AcDbEntity
  8
1
  6
Continuous
 62
     2
100
AcDbHatch
 10
0.0
 20
0.0
 30
0.0
210
0.0
220
0.0
230
1.0
  2
_USER
 70
     0
 71
     1
 91
        1
 92
        1
 93
       12
 72
     1
 10
-23.61723293395983
 20
24.39498192285859
 11
-24.91976256472634
 21
22.92203139282239
 72
     1
 10
-24.91976256472634
 20
22.92203139282239
 11
-23.52180951778604
 21
21.34117239904739
 72
     1
 10
-23.52180951778604
 20
21.34117239904739
 11
-24.92453373553434
 21
21.34117239904739
 72
     1
 10
-24.92453373553434
 20
21.34117239904739
 11
-25.62112467359984
 21
22.12890418434111
 72
     1
 10
-25.62112467359984
 20
22.12890418434111
 11
-26.31771561166553
 21
21.34117239904739
 72
     1
 10
-26.31771561166553
 20
21.34117239904739
 11
-27.72043982941375
 21
21.34117239904739
 72
     1
 10
-27.72043982941375
 20
21.34117239904739
 11
-26.32248678247345
 21
22.92203139282239
 72
     1
 10
-26.32248678247345
 20
22.92203139282239
 11
-27.62501641324093
 21
24.39498192285859
 72
     1
 10
-27.62501641324093
 20
24.39498192285859
 11
-26.22229219549163
 21
24.39498192285859
 72
     1
 10
-26.22229219549163
 20
24.39498192285859
 11
-25.62112467359984
 21
23.7151586013031
 72
     1
 10
-25.62112467359984
 20
23.7151586013031
 11
-25.01995715170705
 21
24.39498192285859
 72
     1
 10
-25.01995715170705
 20
24.39498192285859
 11
-23.61723293395983
 21
24.39498192285859
 97
       12
330
D8
330
D7
330
D6
330
133
330
134
330
130
330
131
330
DC
330
DB
330
DA
330
D9
330
132
 75
     1
 76
     0
 52
45.0
 41
0.1
 77
     0
 78
     1
 53
45.0
 43
0.0
 44
0.0
 45
-0.0707106781186548
 46
0.0707106781186548
 79
     0
 98
        1
 10
0.0
 20
0.0
  0
HATCH
  5
1B2
330
47
100
AcDbEntity
  8
1
  6
Continuous
 62
     2
100
AcDbHatch
 10
0.0
 20
0.0
 30
0.0
210
0.0
220
0.0
230
1.0
  2
_USER
 70
     0
 71
     1
 91
        1
 92
        1
 93
       12
 72
     1
 10
-23.61723293395983
 20
24.39498192285859
 11
-24.91976256472634
 21
22.92203139282239
 72
     1
 10
-24.91976256472634
 20
22.92203139282239
 11
-23.52180951778604
 21
21.34117239904739
 72
     1
 10
-23.52180951778604
 20
21.34117239904739
 11
-24.92453373553434
 21
21.34117239904739
 72
     1
 10
-24.92453373553434
 20
21.34117239904739
 11
-25.62112467359984
 21
22.12890418434111
 72
     1
 10
-25.62112467359984
 20
22.12890418434111
 11
-26.31771561166553
 21
21.34117239904739
 72
     1
 10
-26.31771561166553
 20
21.34117239904739
 11
-27.72043982941375
 21
21.34117239904739
 72
     1
 10
-27.72043982941375
 20
21.34117239904739
 11
-26.32248678247345
 21
22.92203139282239
 72
     1
 10
-26.32248678247345
 20
22.92203139282239
 11
-27.62501641324093
 21
24.39498192285859
 72
     1
 10
-27.62501641324093
 20
24.39498192285859
 11
-26.22229219549163
 21
24.39498192285859
 72
     1
 10
-26.22229219549163
 20
24.39498192285859
 11
-25.62112467359984
 21
23.7151586013031
 72
     1
 10
-25.62112467359984
 20
23.7151586013031
 11
-25.01995715170705
 21
24.39498192285859
 72
     1
 10
-25.01995715170705
 20
24.39498192285859
 11
-23.61723293395983
 21
24.39498192285859
 97
       12
330
D8
330
D7
330
D6
330
133
330
134
330
130
330
131
330
DC
330
DB
330
DA
330
D9
330
132
 75
     1
 76
     0
 52
45.0
 41
0.1
 77
     0
 78
     1
 53
45.0
 43
0.0
 44
0.0
 45
-0.0707106781186548
 46
0.0707106781186548
 79
     0
 98
        1
 10
0.0
 20
0.0
  0
HATCH
  5
1B3
330
47
100
AcDbEntity
  8
1
  6
Continuous
 62
     2
100
AcDbHatch
 10
0.0
 20
0.0
 30
0.0
210
0.0
220
0.0
230
1.0
  2
_USER
 70
     0
 71
     1
 91
        2
 92
        1
 93
        6
 72
     1
 10
-42.63496834810584
 20
22.2842506401912
 11
-43.39373593588613
 21
22.2842506401912
 72
     1
 10
-43.39373593588613
 20
22.2842506401912
 11
-43.39373593588613
 21
21.34117239904739
 72
     1
 10
-43.39373593588613
 20
21.34117239904739
 11
-44.63424034614025
 21
21.34117239904739
 72
     1
 10
-44.63424034614025
 20
21.34117239904739
 11
-44.63424034614025
 21
24.39498192285859
 72
     1
 10
-44.63424034614025
 20
24.39498192285859
 11
-42.63496834810584
 21
24.39498192285859
 72
     2
 10
-42.63496834810584
 20
23.33961628152491
 40
1.055365641333712
 50
270.0
 51
450.0
 73
     0
 97
        6
330
100
330
FF
330
10C
330
10B
330
101
330
151
 92
       16
 93
        4
 72
     2
 10
-43.07644087434423
 20
23.3790122527474
 40
0.3528638246711218
 50
270.0
 51
450.0
 73
     1
 72
     1
 10
-43.07644087434423
 20
23.73187607741849
 11
-43.39373593588613
 21
23.73187607741849
 72
     1
 10
-43.39373593588613
 20
23.73187607741849
 11
-43.39373593588613
 21
23.02614842807628
 72
     1
 10
-43.39373593588613
 20
23.02614842807628
 11
-43.07644087434423
 21
23.02614842807628
 97
        4
330
165
330
FD
330
10D
330
FE
 75
     1
 76
     0
 52
45.0
 41
0.1
 77
     0
 78
     1
 53
45.0
 43
0.0
 44
0.0
 45
-0.0707106781186548
 46
0.0707106781186548
 79
     0
 98
        1
 10
0.0
 20
0.0
  0
HATCH
  5
1B4
330
47
100
AcDbEntity
  8
1
  6
Continuous
 62
     2
100
AcDbHatch
 10
0.0
 20
0.0
 30
0.0
210
0.0
220
0.0
230
1.0
  2
_USER
 70
     0
 71
     1
 91
        2
 92
        1
 93
        6
 72
     1
 10
-42.63496834810584
 20
22.2842506401912
 11
-43.39373593588613
 21
22.2842506401912
 72
     1
 10
-43.39373593588613
 20
22.2842506401912
 11
-43.39373593588613
 21
21.34117239904739
 72
     1
 10
-43.39373593588613
 20
21.34117239904739
 11
-44.63424034614025
 21
21.34117239904739
 72
     1
 10
-44.63424034614025
 20
21.34117239904739
 11
-44.63424034614025
 21
24.39498192285859
 72
     1
 10
-44.63424034614025
 20
24.39498192285859
 11
-42.63496834810584
 21
24.39498192285859
 72
     2
 10
-42.63496834810584
 20
23.33961628152491
 40
1.055365641333712
 50
270.0
 51
450.0
 73
     0
 97
        6
330
100
330
FF
330
10C
330
10B
330
101
330
151
 92
       16
 93
        4
 72
     2
 10
-43.07644087434423
 20
23.3790122527474
 40
0.3528638246711218
 50
270.0
 51
450.0
 73
     1
 72
     1
 10
-43.07644087434423
 20
23.73187607741849
 11
-43.39373593588613
 21
23.73187607741849
 72
     1
 10
-43.39373593588613
 20
23.73187607741849
 11
-43.39373593588613
 21
23.02614842807628
 72
     1
 10
-43.39373593588613
 20
23.02614842807628
 11
-43.07644087434423
 21
23.02614842807628
 97
        4
330
165
330
FD
330
10D
330
FE
 75
     1
 76
     0
 52
45.0
 41
0.1
 77
     0
 78
     1
 53
45.0
 43
0.0
 44
0.0
 45
-0.0707106781186548
 46
0.0707106781186548
 79
     0
 98
        1
 10
0.0
 20
0.0
  0
HATCH
  5
1B5
330
47
100
AcDbEntity
  8
1
  6
Continuous
 62
     2
100
AcDbHatch
 10
0.0
 20
0.0
 30
0.0
210
0.0
220
0.0
230
1.0
  2
_USER
 70
     0
 71
     1
 91
        2
 92
        1
 93
        4
 72
     2
 10
-40.07842559974674
 20
18.9703116744756
 40
2.065479772208568
 50
62.45185182430637
 51
117.5481481756662
 73
     1
 72
     2
 10
-40.35936549158004
 20
19.50888668477839
 40
1.458034083651487
 50
117.5481481756619
 51
242.451851824338
 73
     1
 72
     2
 10
-40.07842559974674
 20
20.04746169508169
 40
2.065479772208502
 50
242.4518518243403
 51
297.5481481756871
 73
     1
 72
     2
 10
-39.79748570791344
 20
19.50888668477839
 40
1.458034083652003
 50
297.548148175701
 51
422.451851824299
 73
     1
 97
        4
330
15D
330
15C
330
15E
330
15B
 92
       16
 93
        4
 72
     2
 10
-40.27816563609315
 20
19.50888668477839
 40
0.7717997786796947
 50
321.8795802028417
 51
398.120419797153
 73
     1
 72
     2
 10
-40.07842559974674
 20
19.6656178628989
 40
0.5179085730132976
 50
38.12041979714672
 51
141.8795802028591
 73
     1
 72
     2
 10
-39.87868556340064
 20
19.50888668477839
 40
0.771799778679461
 50
141.8795802028365
 51
218.1204197971687
 73
     1
 72
     2
 10
-40.07842559974674
 20
19.35215550665839
 40
0.5179085730137354
 50
218.1204197971931
 51
321.879580202801
 73
     1
 97
        4
330
179
330
176
330
177
330
178
 75
     1
 76
     0
 52
45.0
 41
0.1
 77
     0
 78
     1
 53
45.0
 43
0.0
 44
0.0
 45
-0.0707106781186548
 46
0.0707106781186548
 79
     0
 98
        1
 10
0.0
 20
0.0
  0
HATCH
  5
1B6
330
47
100
AcDbEntity
  8
1
  6
Continuous
 62
     2
100
AcDbHatch
 10
0.0
 20
0.0
 30
0.0
210
0.0
220
0.0
230
1.0
  2
_USER
 70
     0
 71
     1
 91
        2
 92
        1
 93
        4
 72
     2
 10
-40.07842559974674
 20
18.9703116744756
 40
2.065479772208568
 50
62.45185182430637
 51
117.5481481756662
 73
     1
 72
     2
 10
-40.35936549158004
 20
19.50888668477839
 40
1.458034083651487
 50
117.5481481756619
 51
242.451851824338
 73
     1
 72
     2
 10
-40.07842559974674
 20
20.04746169508169
 40
2.065479772208502
 50
242.4518518243403
 51
297.5481481756871
 73
     1
 72
     2
 10
-39.79748570791344
 20
19.50888668477839
 40
1.458034083652003
 50
297.548148175701
 51
422.451851824299
 73
     1
 97
        4
330
15D
330
15C
330
15E
330
15B
 92
       16
 93
        4
 72
     2
 10
-40.27816563609315
 20
19.50888668477839
 40
0.7717997786796947
 50
321.8795802028417
 51
398.120419797153
 73
     1
 72
     2
 10
-40.07842559974674
 20
19.6656178628989
 40
0.5179085730132976
 50
38.12041979714672
 51
141.8795802028591
 73
     1
 72
     2
 10
-39.87868556340064
 20
19.50888668477839
 40
0.771799778679461
 50
141.8795802028365
 51
218.1204197971687
 73
     1
 72
     2
 10
-40.07842559974674
 20
19.35215550665839
 40
0.5179085730137354
 50
218.1204197971931
 51
321.879580202801
 73
     1
 97
        4
330
179
330
176
330
177
330
178
 75
     1
 76
     0
 52
45.0
 41
0.1
 77
     0
 78
     1
 53
45.0
 43
0.0
 44
0.0
 45
-0.0707106781186548
 46
0.0707106781186548
 79
     0
 98
        1
 10
0.0
 20
0.0
  0
HATCH
  5
1B7
330
47
100
AcDbEntity
  8
1
  6
Continuous
 62
     2
100
AcDbHatch
 10
0.0
 20
0.0
 30
0.0
210
0.0
220
0.0
230
1.0
  2
_USER
 70
     0
 71
     1
 91
        2
 92
        1
 93
       12
 72
     1
 10
-33.18343040533745
 20
23.69696831741561
 11
-34.51935823176513
 21
23.69696831741561
 72
     1
 10
-34.51935823176513
 20
23.69696831741561
 11
-34.51935823176513
 21
23.2170839636739
 72
     1
 10
-34.51935823176513
 20
23.2170839636739
 11
-33.18343040533745
 21
23.2170839636739
 72
     1
 10
-33.18343040533745
 20
23.2170839636739
 11
-33.18343040533745
 21
22.5190703582316
 72
     1
 10
-33.18343040533745
 20
22.5190703582316
 11
-34.51935823176513
 21
22.5190703582316
 72
     1
 10
-34.51935823176513
 20
22.5190703582316
 11
-34.51935823176513
 21
22.03918600448989
 72
     1
 10
-34.51935823176513
 20
22.03918600448989
 11
-33.18343040533745
 21
22.03918600448989
 72
     1
 10
-33.18343040533745
 20
22.03918600448989
 11
-33.18343040533745
 21
21.34117239904739
 72
     1
 10
-33.18343040533745
 20
21.34117239904739
 11
-36.33375012911844
 21
21.34117239904739
 72
     2
 10
-36.33375012911844
 20
22.86807716095271
 40
1.526904761905882
 50
90.0
 51
270.0
 73
     0
 72
     1
 10
-36.33375012911844
 20
24.39498192285859
 11
-33.18343040533745
 21
24.39498192285859
 72
     1
 10
-33.18343040533745
 20
24.39498192285859
 11
-33.18343040533745
 21
23.69696831741561
 97
       12
330
114
330
166
330
115
330
116
330
117
330
118
330
F5
330
F4
330
F3
330
F2
330
119
330
113
 92
       16
 93
        4
 72
     2
 10
-36.11747811895324
 20
23.02480833907319
 40
0.5179085730135231
 50
38.12041979714413
 51
141.8795802028496
 73
     1
 72
     2
 10
-35.91773808260695
 20
22.86807716095271
 40
0.7717997786796745
 50
141.8795802028402
 51
218.120419797156
 73
     1
 72
     2
 10
-36.11747811895324
 20
22.71134598283229
 40
0.5179085730134505
 50
218.1204197971504
 51
321.8795802028558
 73
     1
 72
     2
 10
-36.31721815529943
 20
22.86807716095271
 40
0.7717997786796351
 50
321.879580202844
 51
398.1204197971597
 73
     1
 97
        4
330
160
330
15F
330
15A
330
159
 75
     1
 76
     0
 52
45.0
 41
0.1
 77
     0
 78
     1
 53
45.0
 43
0.0
 44
0.0
 45
-0.0707106781186548
 46
0.0707106781186548
 79
     0
 98
        1
 10
0.0
 20
0.0
  0
HATCH
  5
1B8
330
47
100
AcDbEntity
  8
1
  6
Continuous
 62
     2
100
AcDbHatch
 10
0.0
 20
0.0
 30
0.0
210
0.0
220
0.0
230
1.0
  2
_USER
 70
     0
 71
     1
 91
        2
 92
        1
 93
       12
 72
     1
 10
-33.18343040533745
 20
23.69696831741561
 11
-34.51935823176513
 21
23.69696831741561
 72
     1
 10
-34.51935823176513
 20
23.69696831741561
 11
-34.51935823176513
 21
23.2170839636739
 72
     1
 10
-34.51935823176513
 20
23.2170839636739
 11
-33.18343040533745
 21
23.2170839636739
 72
     1
 10
-33.18343040533745
 20
23.2170839636739
 11
-33.18343040533745
 21
22.5190703582316
 72
     1
 10
-33.18343040533745
 20
22.5190703582316
 11
-34.51935823176513
 21
22.5190703582316
 72
     1
 10
-34.51935823176513
 20
22.5190703582316
 11
-34.51935823176513
 21
22.03918600448989
 72
     1
 10
-34.51935823176513
 20
22.03918600448989
 11
-33.18343040533745
 21
22.03918600448989
 72
     1
 10
-33.18343040533745
 20
22.03918600448989
 11
-33.18343040533745
 21
21.34117239904739
 72
     1
 10
-33.18343040533745
 20
21.34117239904739
 11
-36.33375012911844
 21
21.34117239904739
 72
     2
 10
-36.33375012911844
 20
22.86807716095271
 40
1.526904761905882
 50
90.0
 51
270.0
 73
     0
 72
     1
 10
-36.33375012911844
 20
24.39498192285859
 11
-33.18343040533745
 21
24.39498192285859
 72
     1
 10
-33.18343040533745
 20
24.39498192285859
 11
-33.18343040533745
 21
23.69696831741561
 97
       12
330
114
330
166
330
115
330
116
330
117
330
118
330
F5
330
F4
330
F3
330
F2
330
119
330
113
 92
       16
 93
        4
 72
     2
 10
-36.11747811895324
 20
23.02480833907319
 40
0.5179085730135231
 50
38.12041979714413
 51
141.8795802028496
 73
     1
 72
     2
 10
-35.91773808260695
 20
22.86807716095271
 40
0.7717997786796745
 50
141.8795802028402
 51
218.120419797156
 73
     1
 72
     2
 10
-36.11747811895324
 20
22.71134598283229
 40
0.5179085730134505
 50
218.1204197971504
 51
321.8795802028558
 73
     1
 72
     2
 10
-36.31721815529943
 20
22.86807716095271
 40
0.7717997786796351
 50
321.879580202844
 51
398.1204197971597
 73
     1
 97
        4
330
160
330
15F
330
15A
330
159
 75
     1
 76
     0
 52
45.0
 41
0.1
 77
     0
 78
     1
 53
45.0
 43
0.0
 44
0.0
 45
-0.0707106781186548
 46
0.0707106781186548
 79
     0
 98
        1
 10
0.0
 20
0.0
  0
HATCH
  5
1B9
330
47
100
AcDbEntity
  8
1
  6
Continuous
 62
     2
100
AcDbHatch
 10
0.0
 20
0.0
 30
0.0
210
0.0
220
0.0
230
1.0
  2
_USER
 70
     0
 71
     1
 91
        4
 92
        1
 93
        8
 72
     1
 10
-45.11135742700705
 20
23.9707373074566
 11
-45.11135742700705
 21
18.40622653825639
 72
     2
 10
-45.53560204239093
 20
18.40622653825639
 40
0.4242446153832908
 50
0.0
 51
90.0
 73
     0
 72
     1
 10
-45.53560204239093
 20
17.9819819228731
 11
-51.00891413310774
 21
17.9819819228731
 72
     2
 10
-51.00891413310774
 20
18.40622653825639
 40
0.4242446153828041
 50
90.0
 51
180.0
 73
     0
 72
     1
 10
-51.43315874849054
 20
18.40622653825639
 11
-51.43315874849054
 21
23.9707373074566
 72
     2
 10
-51.00891413310774
 20
23.9707373074566
 40
0.4242446153838024
 50
180.0
 51
270.0
 73
     0
 72
     1
 10
-51.00891413310774
 20
24.3949819228404
 11
-45.53560204239093
 21
24.3949819228404
 72
     2
 10
-45.53560204239093
 20
23.9707373074566
 40
0.424244615383877
 50
270.0
 51
360.0
 73
     0
 97
        8
330
108
330
156
330
109
330
161
330
106
330
158
330
107
330
157
 92
       16
 93
        1
 72
     2
 10
-48.38932848259023
 20
21.6518550791011
 40
0.4709789327785074
 50
0.0
 51
360.0
 73
     1
 97
        1
330
17C
 92
       16
 93
        8
 72
     2
 10
-47.83947076982955
 20
20.54271347913269
 40
0.3157169230765298
 50
115.3740086783507
 51
180.0
 73
     1
 72
     1
 10
-48.15518769290634
 20
20.54271347913269
 11
-48.15518769290634
 21
19.96086207243761
 72
     2
 10
-47.83947076982955
 20
19.96086207243761
 40
0.3157169230767849
 50
180.0
 51
269.8110329574567
 73
     1
 72
     2
 10
-47.83385463451953
 20
21.6636970200066
 40
2.018561131933269
 50
269.8110329575862
 51
450.1889670424138
 73
     1
 72
     2
 10
-47.83947076982955
 20
23.3665319675757
 40
0.3157169230760639
 50
90.18896704254335
 51
180.0
 73
     1
 72
     1
 10
-48.15518769290634
 20
23.3665319675757
 11
-48.15518769290634
 21
22.76099667906891
 72
     2
 10
-47.83947076982955
 20
22.76099667906891
 40
0.3157169230767849
 50
180.0
 51
244.6259913216493
 73
     1
 72
     2
 10
-48.36551346791742
 20
21.6518550791011
 40
0.911848150144456
 50
295.3740086781922
 51
424.625991321824
 73
     0
 97
        8
330
16E
330
CF
330
16B
330
16C
330
14A
330
CE
330
16D
330
149
 92
       16
 93
       12
 72
     2
 10
-50.41501945636125
 20
19.0102544015067
 40
0.3157169230756764
 50
180.0
 51
270.0
 73
     1
 72
     1
 10
-50.41501945636125
 20
18.69453747842999
 11
-48.93918619535162
 21
18.69453747842999
 72
     2
 10
-48.93918619535162
 20
19.0102544015067
 40
0.3157169230767103
 50
270.0
 51
360.0
 73
     1
 72
     1
 10
-48.62346927227503
 20
19.0102544015067
 11
-48.62346927227503
 21
20.54102533303831
 72
     2
 10
-48.93918619535162
 20
20.54102533303831
 40
0.3157169230765859
 50
0.0
 51
64.80558935146145
 73
     1
 72
     2
 10
-48.41660174777664
 20
21.6518550791011
 40
0.9118975235576114
 50
115.1944106485122
 51
244.8055893514717
 73
     0
 72
     2
 10
-48.93918619535162
 20
22.76268482516329
 40
0.3157169230761172
 50
295.1944106485386
 51
360.0
 73
     1
 72
     1
 10
-48.62346927227503
 20
22.76268482516329
 11
-48.62346927227503
 21
23.3667094442238
 72
     2
 10
-48.93918619535162
 20
23.3667094442238
 40
0.3157169230765859
 50
0.0
 51
90.0
 73
     1
 72
     1
 10
-48.93918619535162
 20
23.6824263673
 11
-50.41501945636125
 21
23.6824263673
 72
     2
 10
-50.41501945636125
 20
23.3667094442238
 40
0.3157169230761987
 50
90.0
 51
180.0
 73
     1
 72
     1
 10
-50.73073637943693
 20
23.3667094442238
 11
-50.73073637943693
 21
19.0102544015067
 97
       12
330
152
330
10A
330
155
330
105
330
162
330
163
330
154
330
104
330
153
330
103
330
164
330
102
 75
     1
 76
     0
 52
45.0
 41
0.1
 77
     0
 78
     1
 53
45.0
 43
0.0
 44
0.0
 45
-0.0707106781186548
 46
0.0707106781186548
 79
     0
 98
        1
 10
0.0
 20
0.0
  0
HATCH
  5
1BA
330
47
100
AcDbEntity
  8
1
  6
Continuous
 62
     2
100
AcDbHatch
 10
0.0
 20
0.0
 30
0.0
210
0.0
220
0.0
230
1.0
  2
_USER
 70
     0
 71
     1
 91
        4
 92
        1
 93
        8
 72
     1
 10
-45.11135742700705
 20
23.9707373074566
 11
-45.11135742700705
 21
18.40622653825639
 72
     2
 10
-45.53560204239093
 20
18.40622653825639
 40
0.4242446153832908
 50
0.0
 51
90.0
 73
     0
 72
     1
 10
-45.53560204239093
 20
17.9819819228731
 11
-51.00891413310774
 21
17.9819819228731
 72
     2
 10
-51.00891413310774
 20
18.40622653825639
 40
0.4242446153828041
 50
90.0
 51
180.0
 73
     0
 72
     1
 10
-51.43315874849054
 20
18.40622653825639
 11
-51.43315874849054
 21
23.9707373074566
 72
     2
 10
-51.00891413310774
 20
23.9707373074566
 40
0.4242446153838024
 50
180.0
 51
270.0
 73
     0
 72
     1
 10
-51.00891413310774
 20
24.3949819228404
 11
-45.53560204239093
 21
24.3949819228404
 72
     2
 10
-45.53560204239093
 20
23.9707373074566
 40
0.424244615383877
 50
270.0
 51
360.0
 73
     0
 97
        8
330
108
330
156
330
109
330
161
330
106
330
158
330
107
330
157
 92
       16
 93
        1
 72
     2
 10
-48.38932848259023
 20
21.6518550791011
 40
0.4709789327785074
 50
0.0
 51
360.0
 73
     1
 97
        1
330
17C
 92
       16
 93
        8
 72
     2
 10
-47.83947076982955
 20
20.54271347913269
 40
0.3157169230765298
 50
115.3740086783507
 51
180.0
 73
     1
 72
     1
 10
-48.15518769290634
 20
20.54271347913269
 11
-48.15518769290634
 21
19.96086207243761
 72
     2
 10
-47.83947076982955
 20
19.96086207243761
 40
0.3157169230767849
 50
180.0
 51
269.8110329574567
 73
     1
 72
     2
 10
-47.83385463451953
 20
21.6636970200066
 40
2.018561131933269
 50
269.8110329575862
 51
450.1889670424138
 73
     1
 72
     2
 10
-47.83947076982955
 20
23.3665319675757
 40
0.3157169230760639
 50
90.18896704254335
 51
180.0
 73
     1
 72
     1
 10
-48.15518769290634
 20
23.3665319675757
 11
-48.15518769290634
 21
22.76099667906891
 72
     2
 10
-47.83947076982955
 20
22.76099667906891
 40
0.3157169230767849
 50
180.0
 51
244.6259913216493
 73
     1
 72
     2
 10
-48.36551346791742
 20
21.6518550791011
 40
0.911848150144456
 50
295.3740086781922
 51
424.625991321824
 73
     0
 97
        8
330
16E
330
CF
330
16B
330
16C
330
14A
330
CE
330
16D
330
149
 92
       16
 93
       12
 72
     2
 10
-50.41501945636125
 20
19.0102544015067
 40
0.3157169230756764
 50
180.0
 51
270.0
 73
     1
 72
     1
 10
-50.41501945636125
 20
18.69453747842999
 11
-48.93918619535162
 21
18.69453747842999
 72
     2
 10
-48.93918619535162
 20
19.0102544015067
 40
0.3157169230767103
 50
270.0
 51
360.0
 73
     1
 72
     1
 10
-48.62346927227503
 20
19.0102544015067
 11
-48.62346927227503
 21
20.54102533303831
 72
     2
 10
-48.93918619535162
 20
20.54102533303831
 40
0.3157169230765859
 50
0.0
 51
64.80558935146145
 73
     1
 72
     2
 10
-48.41660174777664
 20
21.6518550791011
 40
0.9118975235576114
 50
115.1944106485122
 51
244.8055893514717
 73
     0
 72
     2
 10
-48.93918619535162
 20
22.76268482516329
 40
0.3157169230761172
 50
295.1944106485386
 51
360.0
 73
     1
 72
     1
 10
-48.62346927227503
 20
22.76268482516329
 11
-48.62346927227503
 21
23.3667094442238
 72
     2
 10
-48.93918619535162
 20
23.3667094442238
 40
0.3157169230765859
 50
0.0
 51
90.0
 73
     1
 72
     1
 10
-48.93918619535162
 20
23.6824263673
 11
-50.41501945636125
 21
23.6824263673
 72
     2
 10
-50.41501945636125
 20
23.3667094442238
 40
0.3157169230761987
 50
90.0
 51
180.0
 73
     1
 72
     1
 10
-50.73073637943693
 20
23.3667094442238
 11
-50.73073637943693
 21
19.0102544015067
 97
       12
330
152
330
10A
330
155
330
105
330
162
330
163
330
154
330
104
330
153
330
103
330
164
330
102
 75
     1
 76
     0
 52
45.0
 41
0.1
 77
     0
 78
     1
 53
45.0
 43
0.0
 44
0.0
 45
-0.0707106781186548
 46
0.0707106781186548
 79
     0
 98
        1
 10
0.0
 20
0.0
  0
HATCH
  5
1BB
330
47
100
AcDbEntity
  8
1
  6
Continuous
 62
     2
100
AcDbHatch
 10
0.0
 20
0.0
 30
0.0
210
0.0
220
0.0
230
1.0
  2
_USER
 70
     0
 71
     1
 91
        1
 92
        1
 93
       18
 72
     1
 10
-23.52180951778604
 20
20.2505261405606
 11
-24.33290855525942
 21
20.2505261405606
 72
     1
 10
-24.33290855525942
 20
20.2505261405606
 11
-24.33290855525942
 21
17.9819819228731
 72
     1
 10
-24.33290855525942
 20
17.9819819228731
 11
-25.52570125742713
 21
17.9819819228731
 72
     1
 10
-25.52570125742713
 20
17.9819819228731
 11
-25.52570125742713
 21
20.2505261405606
 72
     1
 10
-25.52570125742713
 20
20.2505261405606
 11
-26.62934055699523
 21
20.2505261405606
 72
     2
 10
-26.62934055699523
 20
19.2960031337345
 40
0.954523006826097
 50
90.0
 51
109.3371432194321
 73
     1
 72
     2
 10
-26.77601055509894
 20
19.71395811411739
 40
0.5115800601944098
 50
109.337143219485
 51
151.4785267424224
 73
     1
 72
     2
 10
-26.39865329701755
 20
19.50888668477839
 40
0.9410597353348844
 50
151.4785267423624
 51
208.5214732576697
 73
     1
 72
     2
 10
-26.77601055509894
 20
19.3038152554399
 40
0.5115800601960153
 50
208.521473257687
 51
246.6277221118451
 73
     1
 72
     2
 10
-26.61957052239583
 20
19.6658072741499
 40
0.9059297849852782
 50
246.6277221118179
 51
288.4480761180818
 73
     1
 72
     2
 10
-27.03773825605774
 20
20.91935305018649
 40
2.227384008972748
 50
288.4480761181337
 51
301.9309089499399
 73
     1
 72
     1
 10
-25.85968321403382
 20
19.02900233103671
 11
-25.85968321403382
 21
18.15648532423339
 72
     2
 10
-27.19561113115054
 20
22.82156763003479
 40
4.852596863498824
 50
74.02000874166129
 51
84.84185523036375
 73
     0
 72
     2
 10
-26.90675503641472
 20
19.6216770468132
 40
1.639695123940453
 50
84.84185523032401
 51
164.9381082228991
 73
     0
 72
     2
 10
-27.32588287987633
 20
19.50888668477839
 40
1.205656168393009
 50
164.9381082229043
 51
195.0618917770971
 73
     0
 72
     2
 10
-26.90675503641472
 20
19.39609632274349
 40
1.639695123940211
 50
195.061891777105
 51
270.0
 73
     0
 72
     1
 10
-26.90675503641472
 20
21.0357914466837
 11
-23.52180951778604
 21
21.03579144668419
 72
     1
 10
-23.52180951778604
 20
21.03579144668419
 11
-23.52180951778604
 21
20.2505261405606
 97
       18
330
D1
330
167
330
168
330
150
330
14F
330
135
330
14E
330
14D
330
169
330
14C
330
16A
330
14B
330
136
330
D0
330
D5
330
D4
330
D3
330
D2
 75
     1
 76
     0
 52
45.0
 41
0.1
 77
     0
 78
     1
 53
45.0
 43
0.0
 44
0.0
 45
-0.0707106781186548
 46
0.0707106781186548
 79
     0
 98
        1
 10
0.0
 20
0.0
  0
HATCH
  5
1BC
330
47
100
AcDbEntity
  8
1
  6
Continuous
 62
     2
100
AcDbHatch
 10
0.0
 20
0.0
 30
0.0
210
0.0
220
0.0
230
1.0
  2
_USER
 70
     0
 71
     1
 91
        1
 92
        1
 93
       18
 72
     1
 10
-23.52180951778604
 20
20.2505261405606
 11
-24.33290855525942
 21
20.2505261405606
 72
     1
 10
-24.33290855525942
 20
20.2505261405606
 11
-24.33290855525942
 21
17.9819819228731
 72
     1
 10
-24.33290855525942
 20
17.9819819228731
 11
-25.52570125742713
 21
17.9819819228731
 72
     1
 10
-25.52570125742713
 20
17.9819819228731
 11
-25.52570125742713
 21
20.2505261405606
 72
     1
 10
-25.52570125742713
 20
20.2505261405606
 11
-26.62934055699523
 21
20.2505261405606
 72
     2
 10
-26.62934055699523
 20
19.2960031337345
 40
0.954523006826097
 50
90.0
 51
109.3371432194321
 73
     1
 72
     2
 10
-26.77601055509894
 20
19.71395811411739
 40
0.5115800601944098
 50
109.337143219485
 51
151.4785267424224
 73
     1
 72
     2
 10
-26.39865329701755
 20
19.50888668477839
 40
0.9410597353348844
 50
151.4785267423624
 51
208.5214732576697
 73
     1
 72
     2
 10
-26.77601055509894
 20
19.3038152554399
 40
0.5115800601960153
 50
208.521473257687
 51
246.6277221118451
 73
     1
 72
     2
 10
-26.61957052239583
 20
19.6658072741499
 40
0.9059297849852782
 50
246.6277221118179
 51
288.4480761180818
 73
     1
 72
     2
 10
-27.03773825605774
 20
20.91935305018649
 40
2.227384008972748
 50
288.4480761181337
 51
301.9309089499399
 73
     1
 72
     1
 10
-25.85968321403382
 20
19.02900233103671
 11
-25.85968321403382
 21
18.15648532423339
 72
     2
 10
-27.19561113115054
 20
22.82156763003479
 40
4.852596863498824
 50
74.02000874166129
 51
84.84185523036375
 73
     0
 72
     2
 10
-26.90675503641472
 20
19.6216770468132
 40
1.639695123940453
 50
84.84185523032401
 51
164.9381082228991
 73
     0
 72
     2
 10
-27.32588287987633
 20
19.50888668477839
 40
1.205656168393009
 50
164.9381082229043
 51
195.0618917770971
 73
     0
 72
     2
 10
-26.90675503641472
 20
19.39609632274349
 40
1.639695123940211
 50
195.061891777105
 51
270.0
 73
     0
 72
     1
 10
-26.90675503641472
 20
21.0357914466837
 11
-23.52180951778604
 21
21.03579144668419
 72
     1
 10
-23.52180951778604
 20
21.03579144668419
 11
-23.52180951778604
 21
20.2505261405606
 97
       18
330
D1
330
167
330
168
330
150
330
14F
330
135
330
14E
330
14D
330
169
330
14C
330
16A
330
14B
330
136
330
D0
330
D5
330
D4
330
D3
330
D2
 75
     1
 76
     0
 52
45.0
 41
0.1
 77
     0
 78
     1
 53
45.0
 43
0.0
 44
0.0
 45
-0.0707106781186548
 46
0.0707106781186548
 79
     0
 98
        1
 10
0.0
 20
0.0
  0
HATCH
  5
1BD
330
47
100
AcDbEntity
  8
1
  6
Continuous
 62
     2
100
AcDbHatch
 10
0.0
 20
0.0
 30
0.0
210
0.0
220
0.0
230
1.0
  2
_USER
 70
     0
 71
     1
 91
        1
 92
        1
 93
       14
 72
     2
 10
-43.00945651566764
 20
19.39609632274349
 40
1.639695123940507
 50
84.84185523036236
 51
164.9381082228864
 73
     1
 72
     2
 10
-43.42858435913044
 20
19.50888668477839
 40
1.205656168390944
 50
164.9381082228765
 51
195.061891777095
 73
     1
 72
     2
 10
-43.00945651566764
 20
19.6216770468132
 40
1.639695123939387
 50
195.0618917770896
 51
275.1581447696395
 73
     1
 72
     2
 10
-43.29831261040354
 20
22.82156763003479
 40
4.852596863498134
 50
275.1581447696249
 51
285.9799912583529
 73
     1
 72
     1
 10
-41.96238469328574
 20
18.15648532423398
 11
-41.96238469328574
 21
19.02900233103719
 72
     2
 10
-43.14043973531062
 20
20.91935305018708
 40
2.227384008972737
 50
58.06909105004065
 51
71.55192388186722
 73
     0
 72
     2
 10
-42.72227200164983
 20
19.6658072741499
 40
0.905929784984916
 50
71.55192388184157
 51
113.3722778881291
 73
     0
 72
     2
 10
-42.87871203435185
 20
19.3038152554399
 40
0.5115800601948034
 50
113.3722778881728
 51
151.4785267423044
 73
     0
 72
     2
 10
-42.50135477627154
 20
19.50888668477839
 40
0.9410597353332545
 50
151.4785267422943
 51
208.5214732577331
 73
     0
 72
     2
 10
-42.87871203435185
 20
19.71395811411739
 40
0.5115800601948811
 50
208.5214732576956
 51
246.627722111801
 73
     0
 72
     2
 10
-42.72227200164983
 20
19.35196609540679
 40
0.9059297849853296
 50
246.6277221118712
 51
288.4480761181464
 73
     0
 72
     2
 10
-43.14043973531062
 20
18.09842031937021
 40
2.227384008973474
 50
288.4480761181328
 51
301.9309089499593
 73
     0
 72
     1
 10
-41.96238469328574
 20
19.9887710385201
 11
-41.96238469328574
 21
20.86128804532339
 72
     2
 10
-43.29831261040354
 20
16.1962057395225
 40
4.852596863498064
 50
74.02000874164737
 51
84.84185523037506
 73
     1
 97
       14
330
16F
330
170
330
171
330
172
330
137
330
148
330
147
330
146
330
173
330
174
330
145
330
175
330
138
330
144
 75
     1
 76
     0
 52
45.0
 41
0.1
 77
     0
 78
     1
 53
45.0
 43
0.0
 44
0.0
 45
-0.0707106781186548
 46
0.0707106781186548
 79
     0
 98
        1
 10
0.0
 20
0.0
  0
HATCH
  5
1BE
330
47
100
AcDbEntity
  8
1
  6
Continuous
 62
     2
100
AcDbHatch
 10
0.0
 20
0.0
 30
0.0
210
0.0
220
0.0
230
1.0
  2
_USER
 70
     0
 71
     1
 91
        1
 92
        1
 93
       14
 72
     2
 10
-43.00945651566764
 20
19.39609632274349
 40
1.639695123940507
 50
84.84185523036236
 51
164.9381082228864
 73
     1
 72
     2
 10
-43.42858435913044
 20
19.50888668477839
 40
1.205656168390944
 50
164.9381082228765
 51
195.061891777095
 73
     1
 72
     2
 10
-43.00945651566764
 20
19.6216770468132
 40
1.639695123939387
 50
195.0618917770896
 51
275.1581447696395
 73
     1
 72
     2
 10
-43.29831261040354
 20
22.82156763003479
 40
4.852596863498134
 50
275.1581447696249
 51
285.9799912583529
 73
     1
 72
     1
 10
-41.96238469328574
 20
18.15648532423398
 11
-41.96238469328574
 21
19.02900233103719
 72
     2
 10
-43.14043973531062
 20
20.91935305018708
 40
2.227384008972737
 50
58.06909105004065
 51
71.55192388186722
 73
     0
 72
     2
 10
-42.72227200164983
 20
19.6658072741499
 40
0.905929784984916
 50
71.55192388184157
 51
113.3722778881291
 73
     0
 72
     2
 10
-42.87871203435185
 20
19.3038152554399
 40
0.5115800601948034
 50
113.3722778881728
 51
151.4785267423044
 73
     0
 72
     2
 10
-42.50135477627154
 20
19.50888668477839
 40
0.9410597353332545
 50
151.4785267422943
 51
208.5214732577331
 73
     0
 72
     2
 10
-42.87871203435185
 20
19.71395811411739
 40
0.5115800601948811
 50
208.5214732576956
 51
246.627722111801
 73
     0
 72
     2
 10
-42.72227200164983
 20
19.35196609540679
 40
0.9059297849853296
 50
246.6277221118712
 51
288.4480761181464
 73
     0
 72
     2
 10
-43.14043973531062
 20
18.09842031937021
 40
2.227384008973474
 50
288.4480761181328
 51
301.9309089499593
 73
     0
 72
     1
 10
-41.96238469328574
 20
19.9887710385201
 11
-41.96238469328574
 21
20.86128804532339
 72
     2
 10
-43.29831261040354
 20
16.1962057395225
 40
4.852596863498064
 50
74.02000874164737
 51
84.84185523037506
 73
     1
 97
       14
330
16F
330
170
330
171
330
172
330
137
330
148
330
147
330
146
330
173
330
174
330
145
330
175
330
138
330
144
 75
     1
 76
     0
 52
45.0
 41
0.1
 77
     0
 78
     1
 53
45.0
 43
0.0
 44
0.0
 45
-0.0707106781186548
 46
0.0707106781186548
 79
     0
 98
        1
 10
0.0
 20
0.0
  0
ENDBLK
  5
49
330
47
100
AcDbEntity
  8
0
100
AcDbBlockEnd
  0
BLOCK
  5
4B
330
4A
100
AcDbEntity
  8
0
100
AcDbBlockBegin
  2
_punkt
 70
     0
 10
73.87499089169687
 20
10.6884819228568
 30
0.0
  3
_punkt
  1

  0
LINE
  5
1BF
330
4A
100
AcDbEntity
  8
1
  6
Continuous
 62
     2
100
AcDbLine
 10
73.87499089169687
 20
10.6884819228568
 30
0.0
 11
78.87499089169586
 21
10.6884819228568
 31
0.0
  0
LINE
  5
1C0
330
4A
100
AcDbEntity
  8
1
  6
Continuous
 62
     2
100
AcDbLine
 10
73.87499089169687
 20
10.6884819228568
 30
0.0
 11
73.87499089169687
 21
5.68848192285668
 31
0.0
  0
ENDBLK
  5
4C
330
4A
100
AcDbEntity
  8
0
100
AcDbBlockEnd
  0
BLOCK
  5
50
330
4D
100
AcDbEntity
  8
0
100
AcDbBlockBegin
  2
A4I_CS
 70
     0
 10
73.87499089169687
 20
5.68848192285668
 30
0.0
  3
A4I_CS
  1

  0
INSERT
  5
4E
330
4D
100
AcDbEntity
  8
1
100
AcDbBlockReference
  2
_rahmen
 10
73.87499089169687
 20
5.68848192285668
 30
0.0
  0
INSERT
  5
4F
330
4D
100
AcDbEntity
  8
1
100
AcDbBlockReference
  2
_punkt
 10
73.87499089169687
 20
10.6884819228568
 30
0.0
  0
ENDBLK
  5
51
330
4D
100
AcDbEntity
  8
0
100
AcDbBlockEnd
  0
BLOCK
  5
53
330
52
100
AcDbEntity
  8
0
100
AcDbBlockBegin
  2
D_URK_ND-select__1
 70
     0
 10
-26.33780714506713
 20
59.32696885924794
 30
0.0
  3
D_URK_ND-select__1
  1

  0
LINE
  5
1C1
330
52
100
AcDbEntity
  8
0
  6
Continuous
 62
     7
100
AcDbLine
 10
-25.08780714506703
 20
101.9230176905967
 30
0.0
 11
-26.33780714506703
 21
100.8404859358661
 31
0.0
  0
LINE
  5
1C2
330
52
100
AcDbEntity
  8
0
  6
Continuous
 62
     7
100
AcDbLine
 10
-25.08780714506703
 20
101.9230176905967
 30
0.0
 11
-17.72659121289934
 21
104.0480176905967
 31
0.0
  0
LINE
  5
1C3
330
52
100
AcDbEntity
  8
0
  6
Continuous
 62
     7
100
AcDbLine
 10
-17.72659121289934
 20
104.0480176905967
 30
0.0
 11
-18.97659121289934
 21
102.9654859358662
 31
0.0
  0
LINE
  5
1C4
330
52
100
AcDbEntity
  8
0
  6
Continuous
 62
     7
100
AcDbLine
 10
-21.14165472236053
 20
91.37952774250559
 30
0.0
 11
-26.33780714506713
 21
95.87952774250556
 31
0.0
  0
LINE
  5
1C5
330
52
100
AcDbEntity
  8
0
  6
Continuous
 62
     7
100
AcDbLine
 10
-26.33780714506703
 20
100.8404859358661
 30
0.0
 11
-18.97659121289934
 21
102.9654859358662
 31
0.0
  0
LINE
  5
1C6
330
52
100
AcDbEntity
  8
0
  6
Continuous
 62
     7
100
AcDbLine
 10
-26.33780714506713
 20
95.87952774250556
 30
0.0
 11
-26.33780714506703
 21
100.8404859358661
 31
0.0
  0
LINE
  5
1C7
330
52
100
AcDbEntity
  8
0
  6
Continuous
 62
     7
100
AcDbLine
 10
-18.97659121289934
 20
102.9654859358662
 30
0.0
 11
21.72660276496916
 21
91.21548593586613
 31
0.0
  0
LINE
  5
1C8
330
52
100
AcDbEntity
  8
0
  6
Continuous
 62
     7
100
AcDbLine
 10
-17.72659121289934
 20
104.0480176905967
 30
0.0
 11
22.97660276496916
 21
92.29801769059668
 31
0.0
  0
LINE
  5
1C9
330
52
100
AcDbEntity
  8
0
  6
Continuous
 62
     7
100
AcDbLine
 10
25.14166627443038
 20
60.40950061397849
 30
0.0
 11
23.89166627443038
 21
59.32696885924794
 31
0.0
  0
LINE
  5
1CA
330
52
100
AcDbEntity
  8
0
  6
Continuous
 62
     7
100
AcDbLine
 10
25.14166627443026
 20
78.74037166074903
 30
0.0
 11
25.14166627443038
 21
60.40950061397849
 31
0.0
  0
LINE
  5
1CB
330
52
100
AcDbEntity
  8
0
  6
Continuous
 62
     7
100
AcDbLine
 10
22.97660276496916
 20
92.29801769059668
 30
0.0
 11
21.72660276496916
 21
91.21548593586613
 31
0.0
  0
LINE
  5
1CC
330
52
100
AcDbEntity
  8
0
  6
Continuous
 62
     7
100
AcDbLine
 10
30.33781869713698
 20
85.92301769059665
 30
0.0
 11
29.08781869713698
 21
84.8404859358661
 31
0.0
  0
LINE
  5
1CD
330
52
100
AcDbEntity
  8
0
  6
Continuous
 62
     7
100
AcDbLine
 10
21.72660276496916
 20
91.21548593586613
 30
0.0
 11
29.08781869713698
 21
84.8404859358661
 31
0.0
  0
LINE
  5
1CE
330
52
100
AcDbEntity
  8
0
  6
Continuous
 62
     7
100
AcDbLine
 10
22.97660276496916
 20
92.29801769059668
 30
0.0
 11
30.33781869713698
 21
85.92301769059665
 31
0.0
  0
LINE
  5
1CF
330
52
100
AcDbEntity
  8
0
  6
Continuous
 62
     7
100
AcDbLine
 10
23.89166627443038
 20
78.37952774250559
 30
0.0
 11
23.89166627443038
 21
59.32696885924794
 31
0.0
  0
LINE
  5
1D0
330
52
100
AcDbEntity
  8
0
  6
Continuous
 62
     7
100
AcDbLine
 10
29.08781869713698
 20
79.87952774250563
 30
0.0
 11
23.89166627443038
 21
78.37952774250559
 31
0.0
  0
LINE
  5
1D1
330
52
100
AcDbEntity
  8
0
  6
Continuous
 62
     7
100
AcDbLine
 10
-21.14165472236053
 20
72.32696885924793
 30
0.0
 11
-21.14165472236053
 21
91.37952774250559
 31
0.0
  0
LINE
  5
1D2
330
52
100
AcDbEntity
  8
0
  6
Continuous
 62
     7
100
AcDbLine
 10
30.33781869713698
 20
85.92301769059665
 30
0.0
 11
30.33781869713698
 21
80.96205949723618
 31
0.0
  0
LINE
  5
1D3
330
52
100
AcDbEntity
  8
0
  6
Continuous
 62
     7
100
AcDbLine
 10
29.08781869713698
 20
84.8404859358661
 30
0.0
 11
29.08781869713698
 21
79.87952774250563
 31
0.0
  0
LINE
  5
1D4
330
52
100
AcDbEntity
  8
0
  6
Continuous
 62
     7
100
AcDbLine
 10
30.33781869713698
 20
80.96205949723618
 30
0.0
 11
29.08781869713698
 21
79.87952774250563
 31
0.0
  0
LINE
  5
1D5
330
52
100
AcDbEntity
  8
0
  6
Continuous
 62
     7
100
AcDbLine
 10
23.89166627443038
 20
59.32696885924794
 30
0.0
 11
-21.14165472236053
 21
72.32696885924793
 31
0.0
  0
ENDBLK
  5
54
330
52
100
AcDbEntity
  8
0
100
AcDbBlockEnd
  0
BLOCK
  5
57
330
55
100
AcDbEntity
  8
0
100
AcDbBlockBegin
  2
AllgSicht1
 70
     0
 10
1.99999468132998
 20
81.99999864861502
 30
0.0
  3
AllgSicht1
  1

  0
INSERT
  5
56
330
55
100
AcDbEntity
  8
0
100
AcDbBlockReference
  2
D_URK_ND-select__1
 10
-26.33780714506713
 20
59.32696885924794
 30
0.0
  0
ENDBLK
  5
58
330
55
100
AcDbEntity
  8
0
100
AcDbBlockEnd
  0
BLOCK
  5
5A
330
59
100
AcDbEntity
  8
0
100
AcDbBlockBegin
  2
D_URK_ND-select__2
 70
     0
 10
-136.2499873778753
 20
89.44999699998998
 30
0.0
  3
D_URK_ND-select__2
  1

  0
LINE
  5
1D6
330
59
100
AcDbEntity
  8
0
  6
Continuous
 62
     7
100
AcDbLine
 10
-136.2499873778753
 20
89.44999699998998
 30
0.0
 11
-127.7499873778754
 21
89.44999699998998
 31
0.0
  0
LINE
  5
1D7
330
59
100
AcDbEntity
  8
0
  6
Continuous
 62
     7
100
AcDbLine
 10
-136.2499873778753
 20
91.94999699998998
 30
0.0
 11
-136.2499873778753
 21
89.44999699998998
 31
0.0
  0
LINE
  5
1D8
330
59
100
AcDbEntity
  8
0
  6
Continuous
 62
     7
100
AcDbLine
 10
-136.2499873778753
 20
91.94999699998998
 30
0.0
 11
-127.7499873778754
 21
91.94999699998998
 31
0.0
  0
LINE
  5
1D9
330
59
100
AcDbEntity
  8
0
  6
Continuous
 62
     7
100
AcDbLine
 10
-80.74998737787539
 20
89.44999699998998
 30
0.0
 11
-72.24998737787539
 21
89.44999699998998
 31
0.0
  0
LINE
  5
1DA
330
59
100
AcDbEntity
  8
0
  6
Continuous
 62
     7
100
AcDbLine
 10
-127.7499873778754
 20
89.44999699998998
 30
0.0
 11
-80.74998737787539
 21
89.44999699998998
 31
0.0
  0
LINE
  5
1DB
330
59
100
AcDbEntity
  8
0
  6
Continuous
 62
     7
100
AcDbLine
 10
-80.74998737787539
 20
91.94999699998998
 30
0.0
 11
-72.24998737787539
 21
91.94999699998998
 31
0.0
  0
LINE
  5
1DC
330
59
100
AcDbEntity
  8
0
  6
Continuous
 62
     7
100
AcDbLine
 10
-72.24998737787539
 20
91.94999699998998
 30
0.0
 11
-72.24998737787539
 21
89.44999699998998
 31
0.0
  0
LINE
  5
1DD
330
59
100
AcDbEntity
  8
0
  6
Continuous
 62
     7
100
AcDbLine
 10
-127.7499873778754
 20
91.94999699998998
 30
0.0
 11
-127.7499873778754
 21
89.44999699998998
 31
0.0
  0
LINE
  5
1DE
330
59
100
AcDbEntity
  8
0
  6
Continuous
 62
     7
100
AcDbLine
 10
-80.74998737787539
 20
91.94999699998998
 30
0.0
 11
-80.74998737787539
 21
89.44999699998998
 31
0.0
  0
LINE
  5
1DF
330
59
100
AcDbEntity
  8
0
  6
Continuous
 62
     7
100
AcDbLine
 10
-127.7499873778754
 20
91.94999699998998
 30
0.0
 11
-80.74998737787539
 21
91.94999699998998
 31
0.0
  0
ENDBLK
  5
5B
330
59
100
AcDbEntity
  8
0
100
AcDbBlockEnd
  0
BLOCK
  5
5E
330
5C
100
AcDbEntity
  8
0
100
AcDbBlockBegin
  2
Drfsicht1
 70
     0
 10
-104.25000018894
 20
90.69999699999498
 30
0.0
  3
Drfsicht1
  1

  0
INSERT
  5
5D
330
5C
100
AcDbEntity
  8
0
100
AcDbBlockReference
  2
D_URK_ND-select__2
 10
-136.2499873778753
 20
89.44999699998998
 30
0.0
  0
DIMENSION
  5
1EC
330
5C
100
AcDbEntity
  8
1
100
AcDbDimension
  2
*D17
 10
-146.2499873778753
 20
91.94999699998992
 30
0.0
 11
-149.6749873778753
 21
100.754797525609
 31
0.0
 70
    32
  1
<>
 71
     5
 42
-1.0
 53
90.0
  3
ME10_DIM_10
100
AcDbAlignedDimension
 13
-136.2499873778753
 23
89.44999699998998
 33
0.0
 14
-136.2499873778753
 24
91.94999699998998
 34
0.0
 50
90.0
100
AcDbRotatedDimension
  0
ENDBLK
  5
5F
330
5C
100
AcDbEntity
  8
0
100
AcDbBlockEnd
  0
BLOCK
  5
61
330
60
100
AcDbEntity
  8
0
100
AcDbBlockBegin
  2
D_URK_ND-select__3
 70
     0
 10
-30.00001821659663
 20
125.9499944932324
 30
0.0
  3
D_URK_ND-select__3
  1

  0
LINE
  5
1ED
330
60
100
AcDbEntity
  8
0
  6
Continuous
 62
     7
100
AcDbLine
 10
-21.50001821659657
 20
162.0499944932323
 30
0.0
 11
-30.00001821659663
 21
157.1425172051205
 31
0.0
  0
LINE
  5
1EE
330
60
100
AcDbEntity
  8
0
  6
Continuous
 62
     7
100
AcDbLine
 10
33.99998178340343
 20
151.4140961083701
 30
0.0
 11
33.99998178340332
 21
157.1425172051205
 31
0.0
  0
LINE
  5
1EF
330
60
100
AcDbEntity
  8
0
  6
Continuous
 62
     7
100
AcDbLine
 10
27.99998178340343
 20
147.9499944932324
 30
0.0
 11
33.99998178340343
 21
151.4140961083701
 31
0.0
  0
LINE
  5
1F0
330
60
100
AcDbEntity
  8
0
  6
Continuous
 62
     7
100
AcDbLine
 10
27.99998178340343
 20
125.9499944932324
 30
0.0
 11
27.99998178340343
 21
147.9499944932324
 31
0.0
  0
LINE
  5
1F1
330
60
100
AcDbEntity
  8
0
  6
Continuous
 62
     7
100
AcDbLine
 10
-24.00001821659657
 20
125.9499944932324
 30
0.0
 11
27.99998178340343
 21
125.9499944932324
 31
0.0
  0
LINE
  5
1F2
330
60
100
AcDbEntity
  8
0
  6
Continuous
 62
     7
100
AcDbLine
 10
-24.00001821659663
 20
147.9499944932324
 30
0.0
 11
-24.00001821659657
 21
125.9499944932324
 31
0.0
  0
LINE
  5
1F3
330
60
100
AcDbEntity
  8
0
  6
Continuous
 62
     7
100
AcDbLine
 10
-30.00001821659657
 20
151.4140961083702
 30
0.0
 11
-24.00001821659663
 21
147.9499944932324
 31
0.0
  0
LINE
  5
1F4
330
60
100
AcDbEntity
  8
0
  6
Continuous
 62
     7
100
AcDbLine
 10
-30.00001821659663
 20
157.1425172051205
 30
0.0
 11
-30.00001821659657
 21
151.4140961083702
 31
0.0
  0
LINE
  5
1F5
330
60
100
AcDbEntity
  8
0
  6
Continuous
 62
     7
100
AcDbLine
 10
25.49998178340337
 20
162.0499944932324
 30
0.0
 11
-21.50001821659657
 21
162.0499944932323
 31
0.0
  0
LINE
  5
1F6
330
60
100
AcDbEntity
  8
0
  6
Continuous
 62
     7
100
AcDbLine
 10
33.99998178340332
 20
157.1425172051205
 30
0.0
 11
25.49998178340337
 21
162.0499944932324
 31
0.0
  0
ENDBLK
  5
62
330
60
100
AcDbEntity
  8
0
100
AcDbBlockEnd
  0
BLOCK
  5
65
330
63
100
AcDbEntity
  8
0
100
AcDbBlockBegin
  2
Rckans1
 70
     0
 10
1.99999459446804
 20
143.9999969999999
 30
0.0
  3
Rckans1
  1

  0
INSERT
  5
64
330
63
100
AcDbEntity
  8
0
100
AcDbBlockReference
  2
D_URK_ND-select__3
 10
-30.00001821659663
 20
125.9499944932324
 30
0.0
  0
ENDBLK
  5
66
330
63
100
AcDbEntity
  8
0
100
AcDbBlockEnd
  0
BLOCK
  5
68
330
67
100
AcDbEntity
  8
0
100
AcDbBlockBegin
  2
D_URK_ND-select__4
 70
     0
 10
-173.2500000000098
 20
125.9499944932323
 30
0.0
  3
D_URK_ND-select__4
  1

  0
LINE
  5
1F7
330
67
100
AcDbEntity
  8
0
  6
Continuous
 62
     7
100
AcDbLine
 10
-170.7500000000098
 20
162.0499944932323
 30
0.0
 11
-173.2500000000098
 21
162.0499944932323
 31
0.0
  0
LINE
  5
1F8
330
67
100
AcDbEntity
  8
0
  6
Continuous
 62
     7
100
AcDbLine
 10
-170.7500000000098
 20
162.0499944932323
 30
0.0
 11
-170.7500000000098
 21
157.1425172051204
 31
0.0
  0
LINE
  5
1F9
330
67
100
AcDbEntity
  8
0
  6
Continuous
 62
     7
100
AcDbLine
 10
-170.7500000000098
 20
157.1425172051204
 30
0.0
 11
-173.2500000000098
 21
157.1425172051204
 31
0.0
  0
LINE
  5
1FA
330
67
100
AcDbEntity
  8
0
  6
Continuous
 62
     7
100
AcDbLine
 10
-173.2500000000098
 20
162.0499944932323
 30
0.0
 11
-173.2500000000098
 21
157.1425172051204
 31
0.0
  0
LINE
  5
1FB
330
67
100
AcDbEntity
  8
0
  6
Continuous
 62
     7
100
AcDbLine
 10
-173.2500000000098
 20
157.1425172051204
 30
0.0
 11
-173.2500000000098
 21
151.4140961083701
 31
0.0
  0
LINE
  5
1FC
330
67
100
AcDbEntity
  8
0
  6
Continuous
 62
     7
100
AcDbLine
 10
-170.7500000000098
 20
157.1425172051204
 30
0.0
 11
-170.7500000000098
 21
151.4140961083701
 31
0.0
  0
LINE
  5
1FD
330
67
100
AcDbEntity
  8
0
  6
Continuous
 62
     7
100
AcDbLine
 10
-173.2500000000098
 20
151.4140961083701
 30
0.0
 11
-173.2500000000098
 21
147.9499944932323
 31
0.0
  0
LINE
  5
1FE
330
67
100
AcDbEntity
  8
0
  6
Continuous
 62
     7
100
AcDbLine
 10
-170.7500000000098
 20
151.4140961083701
 30
0.0
 11
-173.2500000000098
 21
151.4140961083701
 31
0.0
  0
LINE
  5
1FF
330
67
100
AcDbEntity
  8
0
  6
Continuous
 62
     7
100
AcDbLine
 10
-170.7500000000098
 20
151.4140961083701
 30
0.0
 11
-170.7500000000098
 21
147.9499944932323
 31
0.0
  0
LINE
  5
200
330
67
100
AcDbEntity
  8
0
  6
Continuous
 62
     7
100
AcDbLine
 10
-170.7500000000098
 20
125.9499944932323
 30
0.0
 11
-173.2500000000098
 21
125.9499944932323
 31
0.0
  0
LINE
  5
201
330
67
100
AcDbEntity
  8
0
  6
Continuous
 62
     7
100
AcDbLine
 10
-173.2500000000098
 20
147.9499944932323
 30
0.0
 11
-173.2500000000098
 21
125.9499944932323
 31
0.0
  0
LINE
  5
202
330
67
100
AcDbEntity
  8
0
  6
Continuous
 62
     7
100
AcDbLine
 10
-170.7500000000098
 20
147.9499944932323
 30
0.0
 11
-173.2500000000098
 21
147.9499944932323
 31
0.0
  0
LINE
  5
203
330
67
100
AcDbEntity
  8
0
  6
Continuous
 62
     7
100
AcDbLine
 10
-170.7500000000098
 20
147.9499944932323
 30
0.0
 11
-170.7500000000098
 21
125.9499944932323
 31
0.0
  0
ENDBLK
  5
69
330
67
100
AcDbEntity
  8
0
100
AcDbBlockEnd
  0
BLOCK
  5
6C
330
6A
100
AcDbEntity
  8
0
100
AcDbBlockBegin
  2
SA_Rechts1
 70
     0
 10
-172.0000000000048
 20
143.9999969999998
 30
0.0
  3
SA_Rechts1
  1

  0
INSERT
  5
6B
330
6A
100
AcDbEntity
  8
0
100
AcDbBlockReference
  2
D_URK_ND-select__4
 10
-173.2500000000098
 20
125.9499944932323
 30
0.0
  0
ENDBLK
  5
6D
330
6A
100
AcDbEntity
  8
0
100
AcDbBlockEnd
  0
BLOCK
  5
6F
330
6E
100
AcDbEntity
  8
0
100
AcDbBlockBegin
  2
D_URK_ND-select__5
 70
     0
 10
-50.249999999985
 20
125.9499949864655
 30
0.0
  3
D_URK_ND-select__5
  1

  0
LINE
  5
204
330
6E
100
AcDbEntity
  8
0
  6
Continuous
 62
     7
100
AcDbLine
 10
-47.749999999985
 20
157.1425176983537
 30
0.0
 11
-47.749999999985
 21
162.0499949864656
 31
0.0
  0
LINE
  5
205
330
6E
100
AcDbEntity
  8
0
  6
Continuous
 62
     7
100
AcDbLine
 10
-47.749999999985
 20
151.4140966016032
 30
0.0
 11
-47.749999999985
 21
157.1425176983537
 31
0.0
  0
LINE
  5
206
330
6E
100
AcDbEntity
  8
0
  6
Continuous
 62
     7
100
AcDbLine
 10
-50.249999999985
 20
162.0499949864656
 30
0.0
 11
-47.749999999985
 21
162.0499949864656
 31
0.0
  0
LINE
  5
207
330
6E
100
AcDbEntity
  8
0
  6
Continuous
 62
     7
100
AcDbLine
 10
-50.249999999985
 20
151.4140966016032
 30
0.0
 11
-50.249999999985
 21
157.1425176983537
 31
0.0
  0
LINE
  5
208
330
6E
100
AcDbEntity
  8
0
  6
Continuous
 62
     7
100
AcDbLine
 10
-50.249999999985
 20
157.1425176983537
 30
0.0
 11
-47.749999999985
 21
157.1425176983537
 31
0.0
  0
LINE
  5
209
330
6E
100
AcDbEntity
  8
0
  6
Continuous
 62
     7
100
AcDbLine
 10
-50.249999999985
 20
157.1425176983537
 30
0.0
 11
-50.249999999985
 21
162.0499949864656
 31
0.0
  0
LINE
  5
20A
330
6E
100
AcDbEntity
  8
0
  6
Continuous
 62
     7
100
AcDbLine
 10
-47.749999999985
 20
147.9499949864655
 30
0.0
 11
-47.749999999985
 21
151.4140966016032
 31
0.0
  0
LINE
  5
20B
330
6E
100
AcDbEntity
  8
0
  6
Continuous
 62
     7
100
AcDbLine
 10
-47.749999999985
 20
125.9499949864655
 30
0.0
 11
-47.749999999985
 21
147.9499949864655
 31
0.0
  0
LINE
  5
20C
330
6E
100
AcDbEntity
  8
0
  6
Continuous
 62
     7
100
AcDbLine
 10
-50.249999999985
 20
147.9499949864655
 30
0.0
 11
-50.249999999985
 21
151.4140966016032
 31
0.0
  0
LINE
  5
20D
330
6E
100
AcDbEntity
  8
0
  6
Continuous
 62
     7
100
AcDbLine
 10
-50.249999999985
 20
151.4140966016032
 30
0.0
 11
-47.749999999985
 21
151.4140966016032
 31
0.0
  0
LINE
  5
20E
330
6E
100
AcDbEntity
  8
0
  6
Continuous
 62
     7
100
AcDbLine
 10
-50.249999999985
 20
125.9499949864655
 30
0.0
 11
-47.749999999985
 21
125.9499949864655
 31
0.0
  0
LINE
  5
20F
330
6E
100
AcDbEntity
  8
0
  6
Continuous
 62
     7
100
AcDbLine
 10
-47.749999999985
 20
147.9499949864655
 30
0.0
 11
-50.249999999985
 21
147.9499949864655
 31
0.0
  0
LINE
  5
210
330
6E
100
AcDbEntity
  8
0
  6
Continuous
 62
     7
100
AcDbLine
 10
-50.249999999985
 20
125.9499949864655
 30
0.0
 11
-50.249999999985
 21
147.9499949864655
 31
0.0
  0
ENDBLK
  5
70
330
6E
100
AcDbEntity
  8
0
100
AcDbBlockEnd
  0
BLOCK
  5
73
330
71
100
AcDbEntity
  8
0
100
AcDbBlockBegin
  2
SA_links1
 70
     0
 10
-48.99999999999
 20
143.999997493233
 30
0.0
  3
SA_links1
  1

  0
INSERT
  5
72
330
71
100
AcDbEntity
  8
0
100
AcDbBlockReference
  2
D_URK_ND-select__5
 10
-50.249999999985
 20
125.9499949864655
 30
0.0
  0
ENDBLK
  5
74
330
71
100
AcDbEntity
  8
0
100
AcDbBlockEnd
  0
BLOCK
  5
76
330
75
100
AcDbEntity
  8
0
100
AcDbBlockBegin
  2
D_URK_ND-select__6
 70
     0
 10
-136.2499873778754
 20
125.9499949864655
 30
0.0
  3
D_URK_ND-select__6
  1

  0
LINE
  5
211
330
75
100
AcDbEntity
  8
0
  6
Continuous
 62
     7
100
AcDbLine
 10
-127.7499873778754
 20
162.0499949864655
 30
0.0
 11
-80.74998737787539
 21
162.0499949864654
 31
0.0
  0
LINE
  5
212
330
75
100
AcDbEntity
  8
0
  6
Continuous
 62
     7
100
AcDbLine
 10
-80.74998737787539
 20
162.0499949864654
 30
0.0
 11
-72.24998737787539
 21
157.1425176983536
 31
0.0
  0
LINE
  5
213
330
75
100
AcDbEntity
  8
0
  6
Continuous
 62
     7
100
AcDbLine
 10
-72.24998737787539
 20
157.1425176983536
 30
0.0
 11
-72.24998737787539
 21
151.4140966016033
 31
0.0
  0
LINE
  5
214
330
75
100
AcDbEntity
  8
0
  6
Continuous
 62
     7
100
AcDbLine
 10
-72.24998737787539
 20
151.4140966016033
 30
0.0
 11
-78.24998737787539
 21
147.9499949864655
 31
0.0
  0
LINE
  5
215
330
75
100
AcDbEntity
  8
0
  6
Continuous
 62
     7
100
AcDbLine
 10
-78.24998737787539
 20
147.9499949864655
 30
0.0
 11
-78.24998737787539
 21
125.9499949864655
 31
0.0
  0
LINE
  5
216
330
75
100
AcDbEntity
  8
0
  6
Continuous
 62
     7
100
AcDbLine
 10
-78.24998737787539
 20
125.9499949864655
 30
0.0
 11
-130.2499873778754
 21
125.9499949864655
 31
0.0
  0
LINE
  5
217
330
75
100
AcDbEntity
  8
0
  6
Continuous
 62
     7
100
AcDbLine
 10
-130.2499873778754
 20
125.9499949864655
 30
0.0
 11
-130.2499873778754
 21
147.9499949864655
 31
0.0
  0
LINE
  5
218
330
75
100
AcDbEntity
  8
0
  6
Continuous
 62
     7
100
AcDbLine
 10
-130.2499873778754
 20
147.9499949864655
 30
0.0
 11
-136.2499873778754
 21
151.4140966016032
 31
0.0
  0
LINE
  5
219
330
75
100
AcDbEntity
  8
0
  6
Continuous
 62
     7
100
AcDbLine
 10
-136.2499873778754
 20
151.4140966016032
 30
0.0
 11
-136.2499873778753
 21
157.1425176983536
 31
0.0
  0
LINE
  5
21A
330
75
100
AcDbEntity
  8
0
  6
Continuous
 62
     7
100
AcDbLine
 10
-136.2499873778753
 20
157.1425176983536
 30
0.0
 11
-127.7499873778754
 21
162.0499949864655
 31
0.0
  0
ENDBLK
  5
77
330
75
100
AcDbEntity
  8
0
100
AcDbBlockEnd
  0
BLOCK
  5
7A
330
78
100
AcDbEntity
  8
0
100
AcDbBlockBegin
  2
Vordans1
 70
     0
 10
-104.25000018894
 20
143.999997493233
 30
0.0
  3
Vordans1
  1

  0
INSERT
  5
79
330
78
100
AcDbEntity
  8
0
100
AcDbBlockReference
  2
D_URK_ND-select__6
 10
-136.2499873778754
 20
125.9499949864655
 30
0.0
  0
DIMENSION
  5
225
330
78
100
AcDbEntity
  8
1
100
AcDbDimension
  2
*D18
 10
-136.2499873778754
 20
116.0204290769798
 30
0.0
 11
-104.5442274361411
 21
119.2704290769798
 31
0.0
 70
    32
  1
<>
 71
     5
 42
-1.0
 53
0.00013888888889
  3
ME10_DIM_11
100
AcDbAlignedDimension
 13
-72.24998737787539
 23
151.4140966016033
 33
0.0
 14
-136.2499873778754
 24
151.4140966016032
 34
0.0
100
AcDbRotatedDimension
  0
DIMENSION
  5
230
330
78
100
AcDbEntity
  8
1
100
AcDbDimension
  2
*D19
 10
-146.2499873778754
 20
162.0499949864655
 30
0.0
 11
-149.6749873778754
 21
143.976146041981
 31
0.0
 70
    32
  1
<>
 71
     5
 42
-1.0
 53
90.0
  3
ME10_DIM_12
100
AcDbAlignedDimension
 13
-130.2499873778754
 23
125.9499949864655
 33
0.0
 14
-127.7499873778754
 24
162.0499949864655
 34
0.0
 50
90.0
100
AcDbRotatedDimension
  0
ENDBLK
  5
7B
330
78
100
AcDbEntity
  8
0
100
AcDbBlockEnd
  0
BLOCK
  5
84
330
7C
100
AcDbEntity
  8
0
100
AcDbBlockBegin
  2
1
 70
     0
 10
0.0
 20
0.0
 30
0.0
  3
1
  1

  0
INSERT
  5
7D
330
7C
100
AcDbEntity
  8
0
100
AcDbBlockReference
  2
A4I_CS
 10
73.87499089169687
 20
5.68848192285668
 30
0.0
  0
INSERT
  5
7E
330
7C
100
AcDbEntity
  8
0
100
AcDbBlockReference
  2
AllgSicht1
 10
1.99999468132998
 20
81.99999864861502
 30
0.0
  0
INSERT
  5
7F
330
7C
100
AcDbEntity
  8
0
100
AcDbBlockReference
  2
Drfsicht1
 10
-104.25000018894
 20
90.69999699999498
 30
0.0
  0
INSERT
  5
80
330
7C
100
AcDbEntity
  8
0
100
AcDbBlockReference
  2
Rckans1
 10
1.99999459446804
 20
143.9999969999999
 30
0.0
  0
INSERT
  5
81
330
7C
100
AcDbEntity
  8
0
100
AcDbBlockReference
  2
SA_Rechts1
 10
-172.0000000000048
 20
143.9999969999998
 30
0.0
  0
INSERT
  5
82
330
7C
100
AcDbEntity
  8
0
100
AcDbBlockReference
  2
SA_links1
 10
-48.99999999999
 20
143.999997493233
 30
0.0
  0
INSERT
  5
83
330
7C
100
AcDbEntity
  8
0
100
AcDbBlockReference
  2
Vordans1
 10
-104.25000018894
 20
143.999997493233
 30
0.0
  0
ENDBLK
  5
85
330
7C
100
AcDbEntity
  8
0
100
AcDbBlockEnd
  0
BLOCK
  5
1E9
330
1E0
100
AcDbEntity
  8
0
100
AcDbBlockBegin
  2
*D17
 70
     1
 10
0.0
 20
0.0
 30
0.0
  3
*D17
  1

  0
LINE
  5
1E1
330
1E0
100
AcDbEntity
  8
1
  6
Continuous
 62
     2
100
AcDbLine
 10
-146.2499873778753
 20
103.992297525609
 30
0.0
 11
-146.2499873778753
 21
91.94999699998992
 31
0.0
  0
LINE
  5
1E2
330
1E0
100
AcDbEntity
  8
1
  6
Continuous
 62
     2
100
AcDbLine
 10
-146.2499873778753
 20
91.94999699998992
 30
0.0
 11
-146.2499873778753
 21
89.44999699998992
 31
0.0
  0
LINE
  5
1E3
330
1E0
100
AcDbEntity
  8
1
  6
Continuous
 62
     2
100
AcDbLine
 10
-146.2499873778753
 20
89.44999699998992
 30
0.0
 11
-146.2499873778753
 21
82.44999699998992
 31
0.0
  0
LINE
  5
1E4
330
1E0
100
AcDbEntity
  8
1
  6
Continuous
 62
     2
100
AcDbLine
 10
-136.2499873778753
 20
91.94999699998992
 30
0.0
 11
-147.7499873778753
 21
91.94999699998992
 31
0.0
  0
LINE
  5
1E5
330
1E0
100
AcDbEntity
  8
1
  6
Continuous
 62
     2
100
AcDbLine
 10
-136.2499873778753
 20
89.44999699998992
 30
0.0
 11
-147.7499873778753
 21
89.44999699998992
 31
0.0
  0
SOLID
  5
1E6
330
1E0
100
AcDbEntity
  8
1
 62
     2
100
AcDbTrace
 10
-146.7107711194312
 20
95.44999699998992
 30
0.0
 11
-145.7892036363194
 21
95.44999699998992
 31
0.0
 12
-146.2499873778753
 22
91.94999699998992
 32
0.0
 13
-146.2499873778753
 23
91.94999699998992
 33
0.0
  0
SOLID
  5
1E7
330
1E0
100
AcDbEntity
  8
1
 62
     2
100
AcDbTrace
 10
-145.7892036363194
 20
85.94999699998992
 30
0.0
 11
-146.7107711194312
 21
85.94999699998992
 31
0.0
 12
-146.2499873778753
 22
89.44999699998992
 32
0.0
 13
-146.2499873778753
 23
89.44999699998992
 33
0.0
  0
MTEXT
  5
1E8
330
1E0
100
AcDbEntity
  8
1
 62
     3
100
AcDbMText
 10
-148.0999873778753
 20
97.51729752560901
 30
0.0
 40
3.5
 41
0.0
 71
     7
 72
     1
  1
2,5
  7
CONVERTER_11
 11
0.0
 21
1.0
 31
0.0
 73
     1
 44
0.60024009603842
  0
ENDBLK
  5
1EA
330
1E0
100
AcDbEntity
  8
0
100
AcDbBlockEnd
  0
BLOCK
  5
222
330
21B
100
AcDbEntity
  8
0
100
AcDbBlockBegin
  2
*D18
 70
     1
 10
0.0
 20
0.0
 30
0.0
  3
*D18
  1

  0
LINE
  5
21C
330
21B
100
AcDbEntity
  8
1
  6
Continuous
 62
     2
100
AcDbLine
 10
-136.2499873778754
 20
116.0204290769798
 30
0.0
 11
-72.2499873778754
 21
116.0204290769798
 31
0.0
  0
LINE
  5
21D
330
21B
100
AcDbEntity
  8
1
  6
Continuous
 62
     2
100
AcDbLine
 10
-136.2499873778754
 20
151.4140966016031
 30
0.0
 11
-136.2499873778754
 21
114.5204290769798
 31
0.0
  0
LINE
  5
21E
330
21B
100
AcDbEntity
  8
1
  6
Continuous
 62
     2
100
AcDbLine
 10
-72.2499873778754
 20
151.4140966016032
 30
0.0
 11
-72.2499873778754
 21
114.5204290769798
 31
0.0
  0
SOLID
  5
21F
330
21B
100
AcDbEntity
  8
1
 62
     2
100
AcDbTrace
 10
-132.7499873778754
 20
116.4812128185357
 30
0.0
 11
-132.7499873778754
 21
115.5596453354239
 31
0.0
 12
-136.2499873778754
 22
116.0204290769798
 32
0.0
 13
-136.2499873778754
 23
116.0204290769798
 33
0.0
  0
SOLID
  5
220
330
21B
100
AcDbEntity
  8
1
 62
     2
100
AcDbTrace
 10
-75.7499873778754
 20
115.5596453354239
 30
0.0
 11
-75.7499873778754
 21
116.4812128185357
 31
0.0
 12
-72.2499873778754
 22
116.0204290769798
 32
0.0
 13
-72.2499873778754
 23
116.0204290769798
 33
0.0
  0
MTEXT
  5
221
330
21B
100
AcDbEntity
  8
1
 62
     3
100
AcDbMText
 10
-107.1692274361411
 20
117.5204290769798
 30
0.0
 40
3.5
 41
0.0
 71
     7
 72
     1
  1
64
  7
CONVERTER_11
 11
0.9999999999970619
 21
2.424068405545306E-6
 31
0.0
 73
     1
 44
0.60024009603842
  0
ENDBLK
  5
223
330
21B
100
AcDbEntity
  8
0
100
AcDbBlockEnd
  0
BLOCK
  5
22D
330
226
100
AcDbEntity
  8
0
100
AcDbBlockBegin
  2
*D19
 70
     1
 10
0.0
 20
0.0
 30
0.0
  3
*D19
  1

  0
LINE
  5
227
330
226
100
AcDbEntity
  8
1
  6
Continuous
 62
     2
100
AcDbLine
 10
-146.2499873778754
 20
162.0499949864655
 30
0.0
 11
-146.2499873778754
 21
125.9499949864655
 31
0.0
  0
LINE
  5
228
330
226
100
AcDbEntity
  8
1
  6
Continuous
 62
     2
100
AcDbLine
 10
-127.7499873778754
 20
162.0499949864655
 30
0.0
 11
-147.7499873778754
 21
162.0499949864655
 31
0.0
  0
LINE
  5
229
330
226
100
AcDbEntity
  8
1
  6
Continuous
 62
     2
100
AcDbLine
 10
-130.2499873778754
 20
125.9499949864655
 30
0.0
 11
-147.7499873778754
 21
125.9499949864655
 31
0.0
  0
SOLID
  5
22A
330
226
100
AcDbEntity
  8
1
 62
     2
100
AcDbTrace
 10
-145.7892036363195
 20
158.5499949864655
 30
0.0
 11
-146.7107711194313
 21
158.5499949864655
 31
0.0
 12
-146.2499873778754
 22
162.0499949864655
 32
0.0
 13
-146.2499873778754
 23
162.0499949864655
 33
0.0
  0
SOLID
  5
22B
330
226
100
AcDbEntity
  8
1
 62
     2
100
AcDbTrace
 10
-146.7107711194313
 20
129.4499949864655
 30
0.0
 11
-145.7892036363195
 21
129.4499949864655
 31
0.0
 12
-146.2499873778754
 22
125.9499949864655
 32
0.0
 13
-146.2499873778754
 23
125.9499949864655
 33
0.0
  0
MTEXT
  5
22C
330
226
100
AcDbEntity
  8
1
 62
     3
100
AcDbMText
 10
-148.0999873778754
 20
139.688646041981
 30
0.0
 40
3.5
 41
0.0
 71
     7
 72
     1
  1
36,1
  7
CONVERTER_11
 11
0.0
 21
1.0
 31
0.0
 73
     1
 44
0.60024009603842
  0
ENDBLK
  5
22E
330
226
100
AcDbEntity
  8
0
100
AcDbBlockEnd
  0
ENDSEC
  0
SECTION
  2
ENTITIES
  0
INSERT
  5
86
330
1F
100
AcDbEntity
  8
1
100
AcDbBlockReference
  2
1
 10
0.0
 20
0.0
 30
0.0
  0
ENDSEC
  0
SECTION
  2
OBJECTS
  0
DICTIONARY
  5
C
330
0
100
AcDbDictionary
281
     1
  3
ACAD_GROUP
350
D
  3
ACAD_LAYOUT
350
1A
  3
ACAD_MATERIAL
350
3B
  3
ACAD_MLEADERSTYLE
350
258
  3
ACAD_MLINESTYLE
350
17
  3
ACAD_PLOTSETTINGS
350
19
  3
ACAD_PLOTSTYLENAME
350
E
  3
ACAD_TABLESTYLE
350
257
  3
ACAD_VISUALSTYLE
350
2A
  0
DICTIONARY
  5
D
102
{ACAD_REACTORS
330
C
102
}
330
C
100
AcDbDictionary
281
     1
  0
DICTIONARY
  5
1A
102
{ACAD_REACTORS
330
C
102
}
330
C
100
AcDbDictionary
281
     1
  3
Layout1
350
1E
  3
Layout2
350
26
  3
Model
350
22
  0
DICTIONARY
  5
3B
102
{ACAD_REACTORS
330
C
102
}
330
C
100
AcDbDictionary
281
     1
  3
ByBlock
350
3D
  3
ByLayer
350
3C
  3
Global
350
3E
  0
DICTIONARY
  5
258
102
{ACAD_REACTORS
330
C
102
}
330
C
100
AcDbDictionary
281
     1
  0
DICTIONARY
  5
17
102
{ACAD_REACTORS
330
C
102
}
330
C
100
AcDbDictionary
281
     1
  3
Standard
350
18
  0
DICTIONARY
  5
19
102
{ACAD_REACTORS
330
C
102
}
330
C
100
AcDbDictionary
281
     1
  0
ACDBDICTIONARYWDFLT
  5
E
102
{ACAD_REACTORS
330
C
102
}
330
C
100
AcDbDictionary
281
     1
  3
Normal
350
F
100
AcDbDictionaryWithDefault
340
F
  0
DICTIONARY
  5
257
102
{ACAD_REACTORS
330
C
102
}
330
C
100
AcDbDictionary
281
     1
  0
DICTIONARY
  5
2A
102
{ACAD_REACTORS
330
C
102
}
330
C
100
AcDbDictionary
281
     1
  3
2dWireframe
350
2F
  3
3D Hidden
350
31
  3
3dWireframe
350
30
  3
Basic
350
32
  3
Brighten
350
36
  3
ColorChange
350
3A
  3
Conceptual
350
34
  3
Dim
350
35
  3
Facepattern
350
39
  3
Flat
350
2B
  3
FlatWithEdges
350
2C
  3
Gouraud
350
2D
  3
GouraudWithEdges
350
2E
  3
Linepattern
350
38
  3
Realistic
350
33
  3
Thicken
350
37
  0
LAYOUT
  5
1E
102
{ACAD_REACTORS
330
1A
102
}
330
1A
100
AcDbPlotSettings
  1

  2
none_device
  4

  6

 40
0.0
 41
0.0
 42
0.0
 43
0.0
 44
0.0
 45
0.0
 46
0.0
 47
0.0
 48
0.0
 49
0.0
140
0.0
141
0.0
142
1.0
143
1.0
 70
   688
 72
     0
 73
     0
 74
     5
  7

 75
    16
 76
     0
 77
     2
 78
   300
147
1.0
148
0.0
149
0.0
100
AcDbLayout
  1
Layout1
 70
     1
 71
     1
 10
0.0
 20
0.0
 11
12.0
 21
9.0
 12
0.0
 22
0.0
 32
0.0
 14
1.00000000000000E+20
 24
1.00000000000000E+20
 34
1.00000000000000E+20
 15
-1.00000000000000E+20
 25
-1.00000000000000E+20
 35
-1.00000000000000E+20
146
0.0
 13
0.0
 23
0.0
 33
0.0
 16
1.0
 26
0.0
 36
0.0
 17
0.0
 27
1.0
 37
0.0
 76
     0
330
1B
  0
LAYOUT
  5
26
102
{ACAD_REACTORS
330
1A
102
}
330
1A
100
AcDbPlotSettings
  1

  2
none_device
  4

  6

 40
0.0
 41
0.0
 42
0.0
 43
0.0
 44
0.0
 45
0.0
 46
0.0
 47
0.0
 48
0.0
 49
0.0
140
0.0
141
0.0
142
1.0
143
1.0
 70
   688
 72
     0
 73
     0
 74
     5
  7

 75
    16
 76
     0
 77
     2
 78
   300
147
1.0
148
0.0
149
0.0
100
AcDbLayout
  1
Layout2
 70
     1
 71
     2
 10
0.0
 20
0.0
 11
0.0
 21
0.0
 12
0.0
 22
0.0
 32
0.0
 14
0.0
 24
0.0
 34
0.0
 15
0.0
 25
0.0
 35
0.0
146
0.0
 13
0.0
 23
0.0
 33
0.0
 16
1.0
 26
0.0
 36
0.0
 17
0.0
 27
1.0
 37
0.0
 76
     0
330
23
  0
LAYOUT
  5
22
102
{ACAD_REACTORS
330
1A
102
}
330
1A
100
AcDbPlotSettings
  1

  2
none_device
  4

  6

 40
0.0
 41
0.0
 42
0.0
 43
0.0
 44
0.0
 45
0.0
 46
0.0
 47
0.0
 48
0.0
 49
0.0
140
0.0
141
0.0
142
1.0
143
1.0
 70
  1712
 72
     0
 73
     0
 74
     0
  7

 75
     0
 76
     0
 77
     2
 78
   300
147
1.0
148
0.0
149
0.0
100
AcDbLayout
  1
Model
 70
     1
 71
     0
 10
0.0
 20
0.0
 11
12.0
 21
9.0
 12
0.0
 22
0.0
 32
0.0
 14
-218.1250091083022
 24
5.68848192285668
 34
0.0
 15
78.87499089169586
 25
215.6884819228568
 35
0.0
146
0.0
 13
0.0
 23
0.0
 33
0.0
 16
1.0
 26
0.0
 36
0.0
 17
0.0
 27
1.0
 37
0.0
 76
     0
330
1F
331
29
  0
MATERIAL
  5
3D
102
{ACAD_REACTORS
330
3B
102
}
102
{ACAD_XDICTIONARY
360
253
102
}
330
3B
100
AcDbMaterial
  1
ByBlock
  0
MATERIAL
  5
3C
102
{ACAD_REACTORS
330
3B
102
}
102
{ACAD_XDICTIONARY
360
251
102
}
330
3B
100
AcDbMaterial
  1
ByLayer
  0
MATERIAL
  5
3E
102
{ACAD_REACTORS
330
3B
102
}
102
{ACAD_XDICTIONARY
360
255
102
}
330
3B
100
AcDbMaterial
  1
Global
  0
MLINESTYLE
  5
18
102
{ACAD_REACTORS
330
17
102
}
330
17
100
AcDbMlineStyle
  2
Standard
 70
     0
  3

 62
   256
 51
90.0
 52
90.0
 71
     2
 49
0.5
 62
   256
  6
BYLAYER
 49
-0.5
 62
   256
  6
BYLAYER
  0
ACDBPLACEHOLDER
  5
F
102
{ACAD_REACTORS
330
E
102
}
330
E
  0
VISUALSTYLE
  5
2F
102
{ACAD_REACTORS
330
2A
102
}
102
{ACAD_XDICTIONARY
360
239
102
}
330
2A
100
AcDbVisualStyle
  2
2dWireframe
 70
     4
 71
     0
 72
     2
 73
     0
 90
        0
 40
-0.6
 41
-30.0
 62
     5
 63
     7
421
 16777215
 74
     1
 91
        4
 64
     7
 65
   257
 75
     1
175
     1
 42
1.0
 92
        0
 66
   257
 43
1.0
 76
     1
 77
     6
 78
     2
 67
     7
 79
     5
170
     0
171
     0
290
     0
174
     0
 93
        1
 44
0.0
173
     0
291
     0
 45
0.0
1001
ACAD
1000
AcDbSavedByObjectVersion
1070
     0
  0
VISUALSTYLE
  5
31
102
{ACAD_REACTORS
330
2A
102
}
102
{ACAD_XDICTIONARY
360
23D
102
}
330
2A
100
AcDbVisualStyle
  2
3D Hidden
 70
     6
 71
     1
 72
     2
 73
     2
 90
        0
 40
-0.6
 41
-30.0
 62
     5
 63
     7
421
 16777215
 74
     2
 91
        2
 64
     7
 65
   257
 75
     2
175
     1
 42
40.0
 92
        0
 66
   257
 43
1.0
 76
     1
 77
     6
 78
     2
 67
     7
 79
     3
170
     0
171
     0
290
     0
174
     0
 93
        1
 44
0.0
173
     0
291
     0
 45
0.0
1001
ACAD
1000
AcDbSavedByObjectVersion
1070
     0
  0
VISUALSTYLE
  5
30
102
{ACAD_REACTORS
330
2A
102
}
102
{ACAD_XDICTIONARY
360
23B
102
}
330
2A
100
AcDbVisualStyle
  2
3dWireframe
 70
     5
 71
     0
 72
     2
 73
     0
 90
        0
 40
-0.6
 41
-30.0
 62
     5
 63
     7
421
 16777215
 74
     1
 91
        4
 64
     7
 65
   257
 75
     1
175
     1
 42
1.0
 92
        0
 66
   257
 43
1.0
 76
     1
 77
     6
 78
     2
 67
     7
 79
     5
170
     0
171
     0
290
     0
174
     0
 93
        1
 44
0.0
173
     0
291
     0
 45
0.0
1001
ACAD
1000
AcDbSavedByObjectVersion
1070
     0
  0
VISUALSTYLE
  5
32
102
{ACAD_REACTORS
330
2A
102
}
102
{ACAD_XDICTIONARY
360
23F
102
}
330
2A
100
AcDbVisualStyle
  2
Basic
 70
     7
 71
     1
 72
     0
 73
     1
 90
        0
 40
-0.6
 41
-30.0
 62
     5
 63
     7
421
 16777215
 74
     0
 91
        4
 64
     7
 65
   257
 75
     1
175
     1
 42
1.0
 92
        8
 66
     7
 43
1.0
 76
     1
 77
     6
 78
     2
 67
     7
 79
     5
170
     0
171
     0
290
     0
174
     0
 93
        1
 44
0.0
173
     0
291
     1
 45
0.0
1001
ACAD
1000
AcDbSavedByObjectVersion
1070
     0
  0
VISUALSTYLE
  5
36
102
{ACAD_REACTORS
330
2A
102
}
102
{ACAD_XDICTIONARY
360
247
102
}
330
2A
100
AcDbVisualStyle
  2
Brighten
 70
    12
 71
     2
 72
     2
 73
     0
 90
        0
 40
-0.6
 41
-30.0
 62
     5
 63
     7
421
 16777215
 74
     1
 91
        4
 64
     7
 65
   257
 75
     1
175
     1
 42
1.0
 92
        8
 66
     7
 43
1.0
 76
     1
 77
     6
 78
     2
 67
     7
 79
     5
170
     0
171
     0
290
     0
174
     0
 93
        1
 44
50.0
173
     0
291
     1
 45
0.0
1001
ACAD
1000
AcDbSavedByObjectVersion
1070
     0
  0
VISUALSTYLE
  5
3A
102
{ACAD_REACTORS
330
2A
102
}
102
{ACAD_XDICTIONARY
360
24F
102
}
330
2A
100
AcDbVisualStyle
  2
ColorChange
 70
    16
 71
     2
 72
     2
 73
     3
 90
        0
 40
-0.6
 41
-30.0
 62
     5
 63
     8
421
  8421504
 74
     1
 91
        4
 64
     7
 65
   257
 75
     1
175
     1
 42
1.0
 92
        8
 66
     8
424
  8421504
 43
1.0
 76
     1
 77
     6
 78
     2
 67
     7
 79
     5
170
     0
171
     0
290
     0
174
     0
 93
        1
 44
0.0
173
     0
291
     1
 45
0.0
1001
ACAD
1000
AcDbSavedByObjectVersion
1070
     0
  0
VISUALSTYLE
  5
34
102
{ACAD_REACTORS
330
2A
102
}
102
{ACAD_XDICTIONARY
360
243
102
}
330
2A
100
AcDbVisualStyle
  2
Conceptual
 70
     9
 71
     3
 72
     2
 73
     0
 90
        0
 40
-0.6
 41
-30.0
 62
     5
 63
     7
421
 16777215
 74
     2
 91
        2
 64
     7
 65
   257
 75
     1
175
     1
 42
40.0
 92
        8
 66
     7
 43
1.0
 76
     1
 77
     6
 78
     2
 67
     7
 79
     3
170
     0
171
     0
290
     0
174
     0
 93
        1
 44
0.0
173
     0
291
     0
 45
0.0
1001
ACAD
1000
AcDbSavedByObjectVersion
1070
     0
  0
VISUALSTYLE
  5
35
102
{ACAD_REACTORS
330
2A
102
}
102
{ACAD_XDICTIONARY
360
245
102
}
330
2A
100
AcDbVisualStyle
  2
Dim
 70
    11
 71
     2
 72
     2
 73
     0
 90
        0
 40
-0.6
 41
-30.0
 62
     5
 63
     7
421
 16777215
 74
     1
 91
        4
 64
     7
 65
   257
 75
     1
175
     1
 42
1.0
 92
        8
 66
     7
 43
1.0
 76
     1
 77
     6
 78
     2
 67
     7
 79
     5
170
     0
171
     0
290
     0
174
     0
 93
        1
 44
-50.0
173
     0
291
     1
 45
0.0
1001
ACAD
1000
AcDbSavedByObjectVersion
1070
     0
  0
VISUALSTYLE
  5
39
102
{ACAD_REACTORS
330
2A
102
}
102
{ACAD_XDICTIONARY
360
24D
102
}
330
2A
100
AcDbVisualStyle
  2
Facepattern
 70
    15
 71
     2
 72
     2
 73
     0
 90
        0
 40
-0.6
 41
-30.0
 62
     5
 63
     7
421
 16777215
 74
     1
 91
        4
 64
     7
 65
   257
 75
     1
175
     1
 42
1.0
 92
        8
 66
     7
 43
1.0
 76
     1
 77
     6
 78
     2
 67
     7
 79
     5
170
     0
171
     0
290
     0
174
     0
 93
        1
 44
0.0
173
     0
291
     1
 45
0.0
1001
ACAD
1000
AcDbSavedByObjectVersion
1070
     0
  0
VISUALSTYLE
  5
2B
102
{ACAD_REACTORS
330
2A
102
}
102
{ACAD_XDICTIONARY
360
231
102
}
330
2A
100
AcDbVisualStyle
  2
Flat
 70
     0
 71
     2
 72
     1
 73
     1
 90
        2
 40
-0.6
 41
30.0
 62
     5
 63
     7
421
 16777215
 74
     0
 91
        4
 64
     7
 65
   257
 75
     1
175
     1
 42
1.0
 92
        8
 66
     7
 43
1.0
 76
     1
 77
     6
 78
     2
 67
     7
 79
     5
170
     0
171
     0
290
     0
174
     0
 93
       13
 44
0.0
173
     0
291
     1
 45
0.0
1001
ACAD
1000
AcDbSavedByObjectVersion
1070
     0
  0
VISUALSTYLE
  5
2C
102
{ACAD_REACTORS
330
2A
102
}
102
{ACAD_XDICTIONARY
360
233
102
}
330
2A
100
AcDbVisualStyle
  2
FlatWithEdges
 70
     1
 71
     2
 72
     1
 73
     1
 90
        2
 40
-0.6
 41
30.0
 62
     5
 63
     7
421
 16777215
 74
     1
 91
        4
 64
     7
 65
   257
 75
     1
175
     1
 42
1.0
 92
        0
 66
   257
 43
1.0
 76
     1
 77
     6
 78
     2
 67
     7
 79
     5
170
     0
171
     0
290
     0
174
     0
 93
       13
 44
0.0
173
     0
291
     1
 45
0.0
1001
ACAD
1000
AcDbSavedByObjectVersion
1070
     0
  0
VISUALSTYLE
  5
2D
102
{ACAD_REACTORS
330
2A
102
}
102
{ACAD_XDICTIONARY
360
235
102
}
330
2A
100
AcDbVisualStyle
  2
Gouraud
 70
     2
 71
     2
 72
     2
 73
     1
 90
        2
 40
-0.6
 41
30.0
 62
     5
 63
     7
421
 16777215
 74
     0
 91
        4
 64
     7
 65
   257
 75
     1
175
     1
 42
1.0
 92
        0
 66
     7
 43
1.0
 76
     1
 77
     6
 78
     2
 67
     7
 79
     5
170
     0
171
     0
290
     0
174
     0
 93
       13
 44
0.0
173
     0
291
     1
 45
0.0
1001
ACAD
1000
AcDbSavedByObjectVersion
1070
     0
  0
VISUALSTYLE
  5
2E
102
{ACAD_REACTORS
330
2A
102
}
102
{ACAD_XDICTIONARY
360
237
102
}
330
2A
100
AcDbVisualStyle
  2
GouraudWithEdges
 70
     3
 71
     2
 72
     2
 73
     1
 90
        2
 40
-0.6
 41
30.0
 62
     5
 63
     7
421
 16777215
 74
     1
 91
        4
 64
     7
 65
   257
 75
     1
175
     1
 42
1.0
 92
        0
 66
   257
 43
1.0
 76
     1
 77
     6
 78
     2
 67
     7
 79
     5
170
     0
171
     0
290
     0
174
     0
 93
       13
 44
0.0
173
     0
291
     1
 45
0.0
1001
ACAD
1000
AcDbSavedByObjectVersion
1070
     0
  0
VISUALSTYLE
  5
38
102
{ACAD_REACTORS
330
2A
102
}
102
{ACAD_XDICTIONARY
360
24B
102
}
330
2A
100
AcDbVisualStyle
  2
Linepattern
 70
    14
 71
     2
 72
     2
 73
     0
 90
        0
 40
-0.6
 41
-30.0
 62
     5
 63
     7
421
 16777215
 74
     1
 91
        4
 64
     7
 65
   257
 75
     7
175
     7
 42
1.0
 92
        8
 66
     7
 43
1.0
 76
     1
 77
     6
 78
     2
 67
     7
 79
     5
170
     0
171
     0
290
     0
174
     0
 93
        1
 44
0.0
173
     0
291
     1
 45
0.0
1001
ACAD
1000
AcDbSavedByObjectVersion
1070
     0
  0
VISUALSTYLE
  5
33
102
{ACAD_REACTORS
330
2A
102
}
102
{ACAD_XDICTIONARY
360
241
102
}
330
2A
100
AcDbVisualStyle
  2
Realistic
 70
     8
 71
     2
 72
     2
 73
     0
 90
        0
 40
-0.6
 41
-30.0
 62
     5
 63
     7
421
 16777215
 74
     1
 91
        0
 64
     7
 65
   257
 75
     1
175
     1
 42
1.0
 92
        8
 66
     8
424
  7895160
 43
1.0
 76
     1
 77
     6
 78
     2
 67
     7
 79
     5
170
     0
171
     0
290
     0
174
     0
 93
       13
 44
0.0
173
     0
291
     0
 45
0.0
1001
ACAD
1000
AcDbSavedByObjectVersion
1070
     0
  0
VISUALSTYLE
  5
37
102
{ACAD_REACTORS
330
2A
102
}
102
{ACAD_XDICTIONARY
360
249
102
}
330
2A
100
AcDbVisualStyle
  2
Thicken
 70
    13
 71
     2
 72
     2
 73
     0
 90
        0
 40
-0.6
 41
-30.0
 62
     5
 63
     7
421
 16777215
 74
     1
 91
        4
 64
     7
 65
   257
 75
     1
175
     1
 42
1.0
 92
       12
 66
     7
 43
1.0
 76
     1
 77
     6
 78
     2
 67
     7
 79
     5
170
     0
171
     0
290
     0
174
     0
 93
        1
 44
0.0
173
     0
291
     1
 45
0.0
1001
ACAD
1000
AcDbSavedByObjectVersion
1070
     0
  0
DICTIONARY
  5
253
330
3D
100
AcDbDictionary
280
     1
281
     1
  3
ACAD_XREC_ROUNDTRIP
360
254
  0
DICTIONARY
  5
251
330
3C
100
AcDbDictionary
280
     1
281
     1
  3
ACAD_XREC_ROUNDTRIP
360
252
  0
DICTIONARY
  5
255
330
3E
100
AcDbDictionary
280
     1
281
     1
  3
ACAD_XREC_ROUNDTRIP
360
256
  0
DICTIONARY
  5
239
330
2F
100
AcDbDictionary
280
     1
281
     1
  3
ACAD_XREC_ROUNDTRIP
360
23A
  0
DICTIONARY
  5
23D
330
31
100
AcDbDictionary
280
     1
281
     1
  3
ACAD_XREC_ROUNDTRIP
360
23E
  0
DICTIONARY
  5
23B
330
30
100
AcDbDictionary
280
     1
281
     1
  3
ACAD_XREC_ROUNDTRIP
360
23C
  0
DICTIONARY
  5
23F
330
32
100
AcDbDictionary
280
     1
281
     1
  3
ACAD_XREC_ROUNDTRIP
360
240
  0
DICTIONARY
  5
247
330
36
100
AcDbDictionary
280
     1
281
     1
  3
ACAD_XREC_ROUNDTRIP
360
248
  0
DICTIONARY
  5
24F
330
3A
100
AcDbDictionary
280
     1
281
     1
  3
ACAD_XREC_ROUNDTRIP
360
250
  0
DICTIONARY
  5
243
330
34
100
AcDbDictionary
280
     1
281
     1
  3
ACAD_XREC_ROUNDTRIP
360
244
  0
DICTIONARY
  5
245
330
35
100
AcDbDictionary
280
     1
281
     1
  3
ACAD_XREC_ROUNDTRIP
360
246
  0
DICTIONARY
  5
24D
330
39
100
AcDbDictionary
280
     1
281
     1
  3
ACAD_XREC_ROUNDTRIP
360
24E
  0
DICTIONARY
  5
231
330
2B
100
AcDbDictionary
280
     1
281
     1
  3
ACAD_XREC_ROUNDTRIP
360
232
  0
DICTIONARY
  5
233
330
2C
100
AcDbDictionary
280
     1
281
     1
  3
ACAD_XREC_ROUNDTRIP
360
234
  0
DICTIONARY
  5
235
330
2D
100
AcDbDictionary
280
     1
281
     1
  3
ACAD_XREC_ROUNDTRIP
360
236
  0
DICTIONARY
  5
237
330
2E
100
AcDbDictionary
280
     1
281
     1
  3
ACAD_XREC_ROUNDTRIP
360
238
  0
DICTIONARY
  5
24B
330
38
100
AcDbDictionary
280
     1
281
     1
  3
ACAD_XREC_ROUNDTRIP
360
24C
  0
DICTIONARY
  5
241
330
33
100
AcDbDictionary
280
     1
281
     1
  3
ACAD_XREC_ROUNDTRIP
360
242
  0
DICTIONARY
  5
249
330
37
100
AcDbDictionary
280
     1
281
     1
  3
ACAD_XREC_ROUNDTRIP
360
24A
  0
XRECORD
  5
254
102
{ACAD_REACTORS
330
253
102
}
330
253
100
AcDbXrecord
280
     1
102
MATERIAL
148
0.0
149
0.0
149
0.0
 93
        0
 94
      127
282
     0
 72
     1
 77
     1
171
     1
175
     1
179
     1
273
     0
  0
XRECORD
  5
252
102
{ACAD_REACTORS
330
251
102
}
330
251
100
AcDbXrecord
280
     1
102
MATERIAL
148
0.0
149
0.0
149
0.0
 93
        0
 94
      127
282
     0
 72
     1
 77
     1
171
     1
175
     1
179
     1
273
     0
  0
XRECORD
  5
256
102
{ACAD_REACTORS
330
255
102
}
330
255
100
AcDbXrecord
280
     1
102
MATERIAL
148
0.0
149
0.0
149
0.0
 93
        0
 94
      127
282
     0
 72
     1
 77
     1
171
     1
175
     1
179
     1
273
     0
  0
XRECORD
  5
23A
102
{ACAD_REACTORS
330
239
102
}
330
239
100
AcDbXrecord
280
     1
102
RTVSPropertyOp0
 70
     1
102
RTVSPropertyOp1
 70
     1
102
RTVSPropertyOp2
 70
     1
102
RTVSPropertyOp3
 70
     1
102
RTVSPropertyOp4
 70
     1
102
RTVSPropertyOp5
 70
     1
102
RTVSPropertyOp6
 70
     1
102
RTVSPropertyOp7
 70
     1
102
RTVSPropertyOp8
 70
     1
102
RTVSPropertyOp9
 70
     1
102
RTVSPropertyOp10
 70
     1
102
RTVSPropertyOp11
 70
     1
102
RTVSPropertyOp12
 70
     1
102
RTVSPropertyOp13
 70
     1
102
RTVSPropertyOp14
 70
     1
102
RTVSPropertyOp15
 70
     1
102
RTVSPropertyOp16
 70
     1
102
RTVSPropertyOp17
 70
     1
102
RTVSPropertyOp18
 70
     1
102
RTVSPropertyOp19
 70
     1
102
RTVSPropertyOp20
 70
     1
102
RTVSPropertyOp21
 70
     1
102
RTVSPropertyOp22
 70
     1
102
RTVSPropertyOp23
 70
     1
102
RTVSPropertyOp24
 70
     1
102
RTVSPropertyOp25
 70
     1
102
RTVSPropertyOp26
 70
     1
102
RTVSPropertyOp27
 70
     1
102
RTVSPropertyOp28
 70
     1
102
RTVSPropertyOp29
 70
     1
102
RTVSPropertyOp30
 70
     1
102
RTVSPropertyOp31
 70
     1
102
RTVSPropertyOp32
 70
     1
  0
XRECORD
  5
23E
102
{ACAD_REACTORS
330
23D
102
}
330
23D
100
AcDbXrecord
280
     1
102
RTVSPropertyOp0
 70
     1
102
RTVSPropertyOp1
 70
     1
102
RTVSPropertyOp2
 70
     1
102
RTVSPropertyOp3
 70
     1
102
RTVSPropertyOp4
 70
     1
102
RTVSPropertyOp5
 70
     1
102
RTVSPropertyOp6
 70
     1
102
RTVSPropertyOp7
 70
     1
102
RTVSPropertyOp8
 70
     1
102
RTVSPropertyOp9
 70
     1
102
RTVSPropertyOp10
 70
     1
102
RTVSPropertyOp11
 70
     1
102
RTVSPropertyOp12
 70
     1
102
RTVSPropertyOp13
 70
     1
102
RTVSPropertyOp14
 70
     1
102
RTVSPropertyOp15
 70
     1
102
RTVSPropertyOp16
 70
     1
102
RTVSPropertyOp17
 70
     1
102
RTVSPropertyOp18
 70
     1
102
RTVSPropertyOp19
 70
     1
102
RTVSPropertyOp20
 70
     1
102
RTVSPropertyOp21
 70
     1
102
RTVSPropertyOp22
 70
     1
102
RTVSPropertyOp23
 70
     1
102
RTVSPropertyOp24
 70
     1
102
RTVSPropertyOp25
 70
     1
102
RTVSPropertyOp26
 70
     1
102
RTVSPropertyOp27
 70
     1
102
RTVSPropertyOp28
 70
     1
102
RTVSPropertyOp29
 70
     1
102
RTVSPropertyOp30
 70
     1
102
RTVSPropertyOp31
 70
     1
102
RTVSPropertyOp32
 70
     1
  0
XRECORD
  5
23C
102
{ACAD_REACTORS
330
23B
102
}
330
23B
100
AcDbXrecord
280
     1
102
RTVSPropertyOp0
 70
     1
102
RTVSPropertyOp1
 70
     1
102
RTVSPropertyOp2
 70
     1
102
RTVSPropertyOp3
 70
     1
102
RTVSPropertyOp4
 70
     1
102
RTVSPropertyOp5
 70
     1
102
RTVSPropertyOp6
 70
     1
102
RTVSPropertyOp7
 70
     1
102
RTVSPropertyOp8
 70
     1
102
RTVSPropertyOp9
 70
     1
102
RTVSPropertyOp10
 70
     1
102
RTVSPropertyOp11
 70
     1
102
RTVSPropertyOp12
 70
     1
102
RTVSPropertyOp13
 70
     1
102
RTVSPropertyOp14
 70
     1
102
RTVSPropertyOp15
 70
     1
102
RTVSPropertyOp16
 70
     1
102
RTVSPropertyOp17
 70
     1
102
RTVSPropertyOp18
 70
     1
102
RTVSPropertyOp19
 70
     1
102
RTVSPropertyOp20
 70
     1
102
RTVSPropertyOp21
 70
     1
102
RTVSPropertyOp22
 70
     1
102
RTVSPropertyOp23
 70
     1
102
RTVSPropertyOp24
 70
     1
102
RTVSPropertyOp25
 70
     1
102
RTVSPropertyOp26
 70
     1
102
RTVSPropertyOp27
 70
     1
102
RTVSPropertyOp28
 70
     1
102
RTVSPropertyOp29
 70
     1
102
RTVSPropertyOp30
 70
     1
102
RTVSPropertyOp31
 70
     1
102
RTVSPropertyOp32
 70
     1
  0
XRECORD
  5
240
102
{ACAD_REACTORS
330
23F
102
}
330
23F
100
AcDbXrecord
280
     1
102
RTVSPropertyOp0
 70
     1
102
RTVSPropertyOp1
 70
     1
102
RTVSPropertyOp2
 70
     1
102
RTVSPropertyOp3
 70
     1
102
RTVSPropertyOp4
 70
     1
102
RTVSPropertyOp5
 70
     1
102
RTVSPropertyOp6
 70
     1
102
RTVSPropertyOp7
 70
     1
102
RTVSPropertyOp8
 70
     1
102
RTVSPropertyOp9
 70
     1
102
RTVSPropertyOp10
 70
     1
102
RTVSPropertyOp11
 70
     1
102
RTVSPropertyOp12
 70
     1
102
RTVSPropertyOp13
 70
     1
102
RTVSPropertyOp14
 70
     1
102
RTVSPropertyOp15
 70
     1
102
RTVSPropertyOp16
 70
     1
102
RTVSPropertyOp17
 70
     1
102
RTVSPropertyOp18
 70
     1
102
RTVSPropertyOp19
 70
     1
102
RTVSPropertyOp20
 70
     1
102
RTVSPropertyOp21
 70
     1
102
RTVSPropertyOp22
 70
     1
102
RTVSPropertyOp23
 70
     1
102
RTVSPropertyOp24
 70
     1
102
RTVSPropertyOp25
 70
     1
102
RTVSPropertyOp26
 70
     1
102
RTVSPropertyOp27
 70
     1
102
RTVSPropertyOp28
 70
     1
102
RTVSPropertyOp29
 70
     1
102
RTVSPropertyOp30
 70
     1
102
RTVSPropertyOp31
 70
     1
102
RTVSPropertyOp32
 70
     1
  0
XRECORD
  5
248
102
{ACAD_REACTORS
330
247
102
}
330
247
100
AcDbXrecord
280
     1
102
RTVSPropertyOp0
 70
     1
102
RTVSPropertyOp1
 70
     1
102
RTVSPropertyOp2
 70
     1
102
RTVSPropertyOp3
 70
     1
102
RTVSPropertyOp4
 70
     1
102
RTVSPropertyOp5
 70
     1
102
RTVSPropertyOp6
 70
     1
102
RTVSPropertyOp7
 70
     1
102
RTVSPropertyOp8
 70
     1
102
RTVSPropertyOp9
 70
     1
102
RTVSPropertyOp10
 70
     1
102
RTVSPropertyOp11
 70
     1
102
RTVSPropertyOp12
 70
     1
102
RTVSPropertyOp13
 70
     1
102
RTVSPropertyOp14
 70
     1
102
RTVSPropertyOp15
 70
     1
102
RTVSPropertyOp16
 70
     1
102
RTVSPropertyOp17
 70
     1
102
RTVSPropertyOp18
 70
     1
102
RTVSPropertyOp19
 70
     1
102
RTVSPropertyOp20
 70
     1
102
RTVSPropertyOp21
 70
     1
102
RTVSPropertyOp22
 70
     1
102
RTVSPropertyOp23
 70
     1
102
RTVSPropertyOp24
 70
     1
102
RTVSPropertyOp25
 70
     1
102
RTVSPropertyOp26
 70
     1
102
RTVSPropertyOp27
 70
     1
102
RTVSPropertyOp28
 70
     1
102
RTVSPropertyOp29
 70
     1
102
RTVSPropertyOp30
 70
     1
102
RTVSPropertyOp31
 70
     1
102
RTVSPropertyOp32
 70
     1
  0
XRECORD
  5
250
102
{ACAD_REACTORS
330
24F
102
}
330
24F
100
AcDbXrecord
280
     1
102
RTVSPropertyOp0
 70
     1
102
RTVSPropertyOp1
 70
     1
102
RTVSPropertyOp2
 70
     1
102
RTVSPropertyOp3
 70
     1
102
RTVSPropertyOp4
 70
     1
102
RTVSPropertyOp5
 70
     1
102
RTVSPropertyOp6
 70
     1
102
RTVSPropertyOp7
 70
     1
102
RTVSPropertyOp8
 70
     1
102
RTVSPropertyOp9
 70
     1
102
RTVSPropertyOp10
 70
     1
102
RTVSPropertyOp11
 70
     1
102
RTVSPropertyOp12
 70
     1
102
RTVSPropertyOp13
 70
     1
102
RTVSPropertyOp14
 70
     1
102
RTVSPropertyOp15
 70
     1
102
RTVSPropertyOp16
 70
     1
102
RTVSPropertyOp17
 70
     1
102
RTVSPropertyOp18
 70
     1
102
RTVSPropertyOp19
 70
     1
102
RTVSPropertyOp20
 70
     1
102
RTVSPropertyOp21
 70
     1
102
RTVSPropertyOp22
 70
     1
102
RTVSPropertyOp23
 70
     1
102
RTVSPropertyOp24
 70
     1
102
RTVSPropertyOp25
 70
     1
102
RTVSPropertyOp26
 70
     1
102
RTVSPropertyOp27
 70
     1
102
RTVSPropertyOp28
 70
     1
102
RTVSPropertyOp29
 70
     1
102
RTVSPropertyOp30
 70
     1
102
RTVSPropertyOp31
 70
     1
102
RTVSPropertyOp32
 70
     1
  0
XRECORD
  5
244
102
{ACAD_REACTORS
330
243
102
}
330
243
100
AcDbXrecord
280
     1
102
RTVSPropertyOp0
 70
     1
102
RTVSPropertyOp1
 70
     1
102
RTVSPropertyOp2
 70
     1
102
RTVSPropertyOp3
 70
     1
102
RTVSPropertyOp4
 70
     1
102
RTVSPropertyOp5
 70
     1
102
RTVSPropertyOp6
 70
     1
102
RTVSPropertyOp7
 70
     1
102
RTVSPropertyOp8
 70
     1
102
RTVSPropertyOp9
 70
     1
102
RTVSPropertyOp10
 70
     1
102
RTVSPropertyOp11
 70
     1
102
RTVSPropertyOp12
 70
     1
102
RTVSPropertyOp13
 70
     1
102
RTVSPropertyOp14
 70
     1
102
RTVSPropertyOp15
 70
     1
102
RTVSPropertyOp16
 70
     1
102
RTVSPropertyOp17
 70
     1
102
RTVSPropertyOp18
 70
     1
102
RTVSPropertyOp19
 70
     1
102
RTVSPropertyOp20
 70
     1
102
RTVSPropertyOp21
 70
     1
102
RTVSPropertyOp22
 70
     1
102
RTVSPropertyOp23
 70
     1
102
RTVSPropertyOp24
 70
     1
102
RTVSPropertyOp25
 70
     1
102
RTVSPropertyOp26
 70
     1
102
RTVSPropertyOp27
 70
     1
102
RTVSPropertyOp28
 70
     1
102
RTVSPropertyOp29
 70
     1
102
RTVSPropertyOp30
 70
     1
102
RTVSPropertyOp31
 70
     1
102
RTVSPropertyOp32
 70
     1
  0
XRECORD
  5
246
102
{ACAD_REACTORS
330
245
102
}
330
245
100
AcDbXrecord
280
     1
102
RTVSPropertyOp0
 70
     1
102
RTVSPropertyOp1
 70
     1
102
RTVSPropertyOp2
 70
     1
102
RTVSPropertyOp3
 70
     1
102
RTVSPropertyOp4
 70
     1
102
RTVSPropertyOp5
 70
     1
102
RTVSPropertyOp6
 70
     1
102
RTVSPropertyOp7
 70
     1
102
RTVSPropertyOp8
 70
     1
102
RTVSPropertyOp9
 70
     1
102
RTVSPropertyOp10
 70
     1
102
RTVSPropertyOp11
 70
     1
102
RTVSPropertyOp12
 70
     1
102
RTVSPropertyOp13
 70
     1
102
RTVSPropertyOp14
 70
     1
102
RTVSPropertyOp15
 70
     1
102
RTVSPropertyOp16
 70
     1
102
RTVSPropertyOp17
 70
     1
102
RTVSPropertyOp18
 70
     1
102
RTVSPropertyOp19
 70
     1
102
RTVSPropertyOp20
 70
     1
102
RTVSPropertyOp21
 70
     1
102
RTVSPropertyOp22
 70
     1
102
RTVSPropertyOp23
 70
     1
102
RTVSPropertyOp24
 70
     1
102
RTVSPropertyOp25
 70
     1
102
RTVSPropertyOp26
 70
     1
102
RTVSPropertyOp27
 70
     1
102
RTVSPropertyOp28
 70
     1
102
RTVSPropertyOp29
 70
     1
102
RTVSPropertyOp30
 70
     1
102
RTVSPropertyOp31
 70
     1
102
RTVSPropertyOp32
 70
     1
  0
XRECORD
  5
24E
102
{ACAD_REACTORS
330
24D
102
}
330
24D
100
AcDbXrecord
280
     1
102
RTVSPropertyOp0
 70
     1
102
RTVSPropertyOp1
 70
     1
102
RTVSPropertyOp2
 70
     1
102
RTVSPropertyOp3
 70
     1
102
RTVSPropertyOp4
 70
     1
102
RTVSPropertyOp5
 70
     1
102
RTVSPropertyOp6
 70
     1
102
RTVSPropertyOp7
 70
     1
102
RTVSPropertyOp8
 70
     1
102
RTVSPropertyOp9
 70
     1
102
RTVSPropertyOp10
 70
     1
102
RTVSPropertyOp11
 70
     1
102
RTVSPropertyOp12
 70
     1
102
RTVSPropertyOp13
 70
     1
102
RTVSPropertyOp14
 70
     1
102
RTVSPropertyOp15
 70
     1
102
RTVSPropertyOp16
 70
     1
102
RTVSPropertyOp17
 70
     1
102
RTVSPropertyOp18
 70
     1
102
RTVSPropertyOp19
 70
     1
102
RTVSPropertyOp20
 70
     1
102
RTVSPropertyOp21
 70
     1
102
RTVSPropertyOp22
 70
     1
102
RTVSPropertyOp23
 70
     1
102
RTVSPropertyOp24
 70
     1
102
RTVSPropertyOp25
 70
     1
102
RTVSPropertyOp26
 70
     1
102
RTVSPropertyOp27
 70
     1
102
RTVSPropertyOp28
 70
     1
102
RTVSPropertyOp29
 70
     1
102
RTVSPropertyOp30
 70
     1
102
RTVSPropertyOp31
 70
     1
102
RTVSPropertyOp32
 70
     1
  0
XRECORD
  5
232
102
{ACAD_REACTORS
330
231
102
}
330
231
100
AcDbXrecord
280
     1
102
RTVSPropertyOp0
 70
     1
102
RTVSPropertyOp1
 70
     1
102
RTVSPropertyOp2
 70
     1
102
RTVSPropertyOp3
 70
     1
102
RTVSPropertyOp4
 70
     1
102
RTVSPropertyOp5
 70
     1
102
RTVSPropertyOp6
 70
     1
102
RTVSPropertyOp7
 70
     1
102
RTVSPropertyOp8
 70
     1
102
RTVSPropertyOp9
 70
     1
102
RTVSPropertyOp10
 70
     1
102
RTVSPropertyOp11
 70
     1
102
RTVSPropertyOp12
 70
     1
102
RTVSPropertyOp13
 70
     1
102
RTVSPropertyOp14
 70
     1
102
RTVSPropertyOp15
 70
     1
102
RTVSPropertyOp16
 70
     1
102
RTVSPropertyOp17
 70
     1
102
RTVSPropertyOp18
 70
     1
102
RTVSPropertyOp19
 70
     1
102
RTVSPropertyOp20
 70
     1
102
RTVSPropertyOp21
 70
     1
102
RTVSPropertyOp22
 70
     1
102
RTVSPropertyOp23
 70
     1
102
RTVSPropertyOp24
 70
     1
102
RTVSPropertyOp25
 70
     1
102
RTVSPropertyOp26
 70
     1
102
RTVSPropertyOp27
 70
     1
102
RTVSPropertyOp28
 70
     1
102
RTVSPropertyOp29
 70
     1
102
RTVSPropertyOp30
 70
     1
102
RTVSPropertyOp31
 70
     1
102
RTVSPropertyOp32
 70
     1
  0
XRECORD
  5
234
102
{ACAD_REACTORS
330
233
102
}
330
233
100
AcDbXrecord
280
     1
102
RTVSPropertyOp0
 70
     1
102
RTVSPropertyOp1
 70
     1
102
RTVSPropertyOp2
 70
     1
102
RTVSPropertyOp3
 70
     1
102
RTVSPropertyOp4
 70
     1
102
RTVSPropertyOp5
 70
     1
102
RTVSPropertyOp6
 70
     1
102
RTVSPropertyOp7
 70
     1
102
RTVSPropertyOp8
 70
     1
102
RTVSPropertyOp9
 70
     1
102
RTVSPropertyOp10
 70
     1
102
RTVSPropertyOp11
 70
     1
102
RTVSPropertyOp12
 70
     1
102
RTVSPropertyOp13
 70
     1
102
RTVSPropertyOp14
 70
     1
102
RTVSPropertyOp15
 70
     1
102
RTVSPropertyOp16
 70
     1
102
RTVSPropertyOp17
 70
     1
102
RTVSPropertyOp18
 70
     1
102
RTVSPropertyOp19
 70
     1
102
RTVSPropertyOp20
 70
     1
102
RTVSPropertyOp21
 70
     1
102
RTVSPropertyOp22
 70
     1
102
RTVSPropertyOp23
 70
     1
102
RTVSPropertyOp24
 70
     1
102
RTVSPropertyOp25
 70
     1
102
RTVSPropertyOp26
 70
     1
102
RTVSPropertyOp27
 70
     1
102
RTVSPropertyOp28
 70
     1
102
RTVSPropertyOp29
 70
     1
102
RTVSPropertyOp30
 70
     1
102
RTVSPropertyOp31
 70
     1
102
RTVSPropertyOp32
 70
     1
  0
XRECORD
  5
236
102
{ACAD_REACTORS
330
235
102
}
330
235
100
AcDbXrecord
280
     1
102
RTVSPropertyOp0
 70
     1
102
RTVSPropertyOp1
 70
     1
102
RTVSPropertyOp2
 70
     1
102
RTVSPropertyOp3
 70
     1
102
RTVSPropertyOp4
 70
     1
102
RTVSPropertyOp5
 70
     1
102
RTVSPropertyOp6
 70
     1
102
RTVSPropertyOp7
 70
     1
102
RTVSPropertyOp8
 70
     1
102
RTVSPropertyOp9
 70
     1
102
RTVSPropertyOp10
 70
     1
102
RTVSPropertyOp11
 70
     1
102
RTVSPropertyOp12
 70
     1
102
RTVSPropertyOp13
 70
     1
102
RTVSPropertyOp14
 70
     1
102
RTVSPropertyOp15
 70
     1
102
RTVSPropertyOp16
 70
     1
102
RTVSPropertyOp17
 70
     1
102
RTVSPropertyOp18
 70
     1
102
RTVSPropertyOp19
 70
     1
102
RTVSPropertyOp20
 70
     1
102
RTVSPropertyOp21
 70
     1
102
RTVSPropertyOp22
 70
     1
102
RTVSPropertyOp23
 70
     1
102
RTVSPropertyOp24
 70
     1
102
RTVSPropertyOp25
 70
     1
102
RTVSPropertyOp26
 70
     1
102
RTVSPropertyOp27
 70
     1
102
RTVSPropertyOp28
 70
     1
102
RTVSPropertyOp29
 70
     1
102
RTVSPropertyOp30
 70
     1
102
RTVSPropertyOp31
 70
     1
102
RTVSPropertyOp32
 70
     1
  0
XRECORD
  5
238
102
{ACAD_REACTORS
330
237
102
}
330
237
100
AcDbXrecord
280
     1
102
RTVSPropertyOp0
 70
     1
102
RTVSPropertyOp1
 70
     1
102
RTVSPropertyOp2
 70
     1
102
RTVSPropertyOp3
 70
     1
102
RTVSPropertyOp4
 70
     1
102
RTVSPropertyOp5
 70
     1
102
RTVSPropertyOp6
 70
     1
102
RTVSPropertyOp7
 70
     1
102
RTVSPropertyOp8
 70
     1
102
RTVSPropertyOp9
 70
     1
102
RTVSPropertyOp10
 70
     1
102
RTVSPropertyOp11
 70
     1
102
RTVSPropertyOp12
 70
     1
102
RTVSPropertyOp13
 70
     1
102
RTVSPropertyOp14
 70
     1
102
RTVSPropertyOp15
 70
     1
102
RTVSPropertyOp16
 70
     1
102
RTVSPropertyOp17
 70
     1
102
RTVSPropertyOp18
 70
     1
102
RTVSPropertyOp19
 70
     1
102
RTVSPropertyOp20
 70
     1
102
RTVSPropertyOp21
 70
     1
102
RTVSPropertyOp22
 70
     1
102
RTVSPropertyOp23
 70
     1
102
RTVSPropertyOp24
 70
     1
102
RTVSPropertyOp25
 70
     1
102
RTVSPropertyOp26
 70
     1
102
RTVSPropertyOp27
 70
     1
102
RTVSPropertyOp28
 70
     1
102
RTVSPropertyOp29
 70
     1
102
RTVSPropertyOp30
 70
     1
102
RTVSPropertyOp31
 70
     1
102
RTVSPropertyOp32
 70
     1
  0
XRECORD
  5
24C
102
{ACAD_REACTORS
330
24B
102
}
330
24B
100
AcDbXrecord
280
     1
102
RTVSPropertyOp0
 70
     1
102
RTVSPropertyOp1
 70
     1
102
RTVSPropertyOp2
 70
     1
102
RTVSPropertyOp3
 70
     1
102
RTVSPropertyOp4
 70
     1
102
RTVSPropertyOp5
 70
     1
102
RTVSPropertyOp6
 70
     1
102
RTVSPropertyOp7
 70
     1
102
RTVSPropertyOp8
 70
     1
102
RTVSPropertyOp9
 70
     1
102
RTVSPropertyOp10
 70
     1
102
RTVSPropertyOp11
 70
     1
102
RTVSPropertyOp12
 70
     1
102
RTVSPropertyOp13
 70
     1
102
RTVSPropertyOp14
 70
     1
102
RTVSPropertyOp15
 70
     1
102
RTVSPropertyOp16
 70
     1
102
RTVSPropertyOp17
 70
     1
102
RTVSPropertyOp18
 70
     1
102
RTVSPropertyOp19
 70
     1
102
RTVSPropertyOp20
 70
     1
102
RTVSPropertyOp21
 70
     1
102
RTVSPropertyOp22
 70
     1
102
RTVSPropertyOp23
 70
     1
102
RTVSPropertyOp24
 70
     1
102
RTVSPropertyOp25
 70
     1
102
RTVSPropertyOp26
 70
     1
102
RTVSPropertyOp27
 70
     1
102
RTVSPropertyOp28
 70
     1
102
RTVSPropertyOp29
 70
     1
102
RTVSPropertyOp30
 70
     1
102
RTVSPropertyOp31
 70
     1
102
RTVSPropertyOp32
 70
     1
  0
XRECORD
  5
242
102
{ACAD_REACTORS
330
241
102
}
330
241
100
AcDbXrecord
280
     1
102
RTVSPropertyOp0
 70
     1
102
RTVSPropertyOp1
 70
     1
102
RTVSPropertyOp2
 70
     1
102
RTVSPropertyOp3
 70
     1
102
RTVSPropertyOp4
 70
     1
102
RTVSPropertyOp5
 70
     1
102
RTVSPropertyOp6
 70
     1
102
RTVSPropertyOp7
 70
     1
102
RTVSPropertyOp8
 70
     1
102
RTVSPropertyOp9
 70
     1
102
RTVSPropertyOp10
 70
     1
102
RTVSPropertyOp11
 70
     1
102
RTVSPropertyOp12
 70
     1
102
RTVSPropertyOp13
 70
     1
102
RTVSPropertyOp14
 70
     1
102
RTVSPropertyOp15
 70
     1
102
RTVSPropertyOp16
 70
     1
102
RTVSPropertyOp17
 70
     1
102
RTVSPropertyOp18
 70
     1
102
RTVSPropertyOp19
 70
     1
102
RTVSPropertyOp20
 70
     1
102
RTVSPropertyOp21
 70
     1
102
RTVSPropertyOp22
 70
     1
102
RTVSPropertyOp23
 70
     1
102
RTVSPropertyOp24
 70
     1
102
RTVSPropertyOp25
 70
     1
102
RTVSPropertyOp26
 70
     1
102
RTVSPropertyOp27
 70
     1
102
RTVSPropertyOp28
 70
     1
102
RTVSPropertyOp29
 70
     1
102
RTVSPropertyOp30
 70
     1
102
RTVSPropertyOp31
 70
     1
102
RTVSPropertyOp32
 70
     1
  0
XRECORD
  5
24A
102
{ACAD_REACTORS
330
249
102
}
330
249
100
AcDbXrecord
280
     1
102
RTVSPropertyOp0
 70
     1
102
RTVSPropertyOp1
 70
     1
102
RTVSPropertyOp2
 70
     1
102
RTVSPropertyOp3
 70
     1
102
RTVSPropertyOp4
 70
     1
102
RTVSPropertyOp5
 70
     1
102
RTVSPropertyOp6
 70
     1
102
RTVSPropertyOp7
 70
     1
102
RTVSPropertyOp8
 70
     1
102
RTVSPropertyOp9
 70
     1
102
RTVSPropertyOp10
 70
     1
102
RTVSPropertyOp11
 70
     1
102
RTVSPropertyOp12
 70
     1
102
RTVSPropertyOp13
 70
     1
102
RTVSPropertyOp14
 70
     1
102
RTVSPropertyOp15
 70
     1
102
RTVSPropertyOp16
 70
     1
102
RTVSPropertyOp17
 70
     1
102
RTVSPropertyOp18
 70
     1
102
RTVSPropertyOp19
 70
     1
102
RTVSPropertyOp20
 70
     1
102
RTVSPropertyOp21
 70
     1
102
RTVSPropertyOp22
 70
     1
102
RTVSPropertyOp23
 70
     1
102
RTVSPropertyOp24
 70
     1
102
RTVSPropertyOp25
 70
     1
102
RTVSPropertyOp26
 70
     1
102
RTVSPropertyOp27
 70
     1
102
RTVSPropertyOp28
 70
     1
102
RTVSPropertyOp29
 70
     1
102
RTVSPropertyOp30
 70
     1
102
RTVSPropertyOp31
 70
     1
102
RTVSPropertyOp32
 70
     1
  0
ENDSEC
  0
EOF
