  0
SECTION
  2
HEADER
  9
$ACADVER
  1
AC1018
  9
$ACADMAINTVER
 70
     0
  9
$DWGCODEPAGE
  3
ANSI_1252
  9
$INSBASE
 10
0.0
 20
0.0
 30
0.0
  9
$EXTMIN
 10
-242.5000004718497
 20
1.13735863781886
 30
0.0
  9
$EXTMAX
 10
54.49999952814841
 20
211.137358637819
 30
0.0
  9
$LIMMIN
 10
0.0
 20
0.0
  9
$LIMMAX
 10
12.0
 20
9.0
  9
$ORTHOMODE
 70
     0
  9
$REGENMODE
 70
     1
  9
$FILLMODE
 70
     1
  9
$QTEXTMODE
 70
     0
  9
$MIRRTEXT
 70
     1
  9
$LTSCALE
 40
1.0
  9
$ATTMODE
 70
     1
  9
$TEXTSIZE
 40
0.2
  9
$TRACEWID
 40
0.05
  9
$TEXTSTYLE
  7
Standard
  9
$CLAYER
  8
0
  9
$CELTYPE
  6
ByLayer
  9
$CECOLOR
 62
   256
  9
$CELTSCALE
 40
1.0
  9
$DISPSILH
 70
     0
  9
$DIMSCALE
 40
1.0
  9
$DIMASZ
 40
0.18
  9
$DIMEXO
 40
0.0625
  9
$DIMDLI
 40
0.38
  9
$DIMRND
 40
0.0
  9
$DIMDLE
 40
0.0
  9
$DIMEXE
 40
0.18
  9
$DIMTP
 40
0.0
  9
$DIMTM
 40
0.0
  9
$DIMTXT
 40
0.18
  9
$DIMCEN
 40
0.09
  9
$DIMTSZ
 40
0.0
  9
$DIMTOL
 70
     0
  9
$DIMLIM
 70
     0
  9
$DIMTIH
 70
     1
  9
$DIMTOH
 70
     1
  9
$DIMSE1
 70
     0
  9
$DIMSE2
 70
     0
  9
$DIMTAD
 70
     0
  9
$DIMZIN
 70
     0
  9
$DIMBLK
  1

  9
$DIMASO
 70
     1
  9
$DIMSHO
 70
     1
  9
$DIMPOST
  1

  9
$DIMAPOST
  1

  9
$DIMALT
 70
     0
  9
$DIMALTD
 70
     2
  9
$DIMALTF
 40
25.4
  9
$DIMLFAC
 40
1.0
  9
$DIMTOFL
 70
     0
  9
$DIMTVP
 40
0.0
  9
$DIMTIX
 70
     0
  9
$DIMSOXD
 70
     0
  9
$DIMSAH
 70
     0
  9
$DIMBLK1
  1

  9
$DIMBLK2
  1

  9
$DIMSTYLE
  2
Standard
  9
$DIMCLRD
 70
     0
  9
$DIMCLRE
 70
     0
  9
$DIMCLRT
 70
     0
  9
$DIMTFAC
 40
1.0
  9
$DIMGAP
 40
0.09
  9
$DIMJUST
 70
     0
  9
$DIMSD1
 70
     0
  9
$DIMSD2
 70
     0
  9
$DIMTOLJ
 70
     1
  9
$DIMTZIN
 70
     0
  9
$DIMALTZ
 70
     0
  9
$DIMALTTZ
 70
     0
  9
$DIMUPT
 70
     0
  9
$DIMDEC
 70
     4
  9
$DIMTDEC
 70
     4
  9
$DIMALTU
 70
     2
  9
$DIMALTTD
 70
     2
  9
$DIMTXSTY
  7
Standard
  9
$DIMAUNIT
 70
     0
  9
$DIMADEC
 70
     0
  9
$DIMALTRND
 40
0.0
  9
$DIMAZIN
 70
     0
  9
$DIMDSEP
 70
    46
  9
$DIMATFIT
 70
     3
  9
$DIMFRAC
 70
     0
  9
$DIMLDRBLK
  1

  9
$DIMLUNIT
 70
     2
  9
$DIMLWD
 70
    -2
  9
$DIMLWE
 70
    -2
  9
$DIMTMOVE
 70
     0
  9
$LUNITS
 70
     2
  9
$LUPREC
 70
     4
  9
$SKETCHINC
 40
0.1
  9
$FILLETRAD
 40
0.5
  9
$AUNITS
 70
     0
  9
$AUPREC
 70
     0
  9
$MENU
  1
.
  9
$ELEVATION
 40
0.0
  9
$PELEVATION
 40
0.0
  9
$THICKNESS
 40
0.0
  9
$LIMCHECK
 70
     0
  9
$CHAMFERA
 40
0.5
  9
$CHAMFERB
 40
0.5
  9
$CHAMFERC
 40
1.0
  9
$CHAMFERD
 40
0.0
  9
$SKPOLY
 70
     0
  9
$TDCREATE
 40
2458137.608138206
  9
$TDUCREATE
 40
2458137.566471539
  9
$TDUPDATE
 40
2458137.608138935
  9
$TDUUPDATE
 40
2458137.566472269
  9
$TDINDWG
 40
0.0000000116
  9
$TDUSRTIMER
 40
0.0000000116
  9
$USRTIMER
 70
     1
  9
$ANGBASE
 50
0.0
  9
$ANGDIR
 70
     0
  9
$PDMODE
 70
     0
  9
$PDSIZE
 40
0.0
  9
$PLINEWID
 40
0.0
  9
$SPLFRAME
 70
     0
  9
$SPLINETYPE
 70
     6
  9
$SPLINESEGS
 70
     8
  9
$HANDSEED
  5
283
  9
$SURFTAB1
 70
     6
  9
$SURFTAB2
 70
     6
  9
$SURFTYPE
 70
     6
  9
$SURFU
 70
     6
  9
$SURFV
 70
     6
  9
$UCSBASE
  2

  9
$UCSNAME
  2

  9
$UCSORG
 10
0.0
 20
0.0
 30
0.0
  9
$UCSXDIR
 10
1.0
 20
0.0
 30
0.0
  9
$UCSYDIR
 10
0.0
 20
1.0
 30
0.0
  9
$UCSORTHOREF
  2

  9
$UCSORTHOVIEW
 70
     0
  9
$UCSORGTOP
 10
0.0
 20
0.0
 30
0.0
  9
$UCSORGBOTTOM
 10
0.0
 20
0.0
 30
0.0
  9
$UCSORGLEFT
 10
0.0
 20
0.0
 30
0.0
  9
$UCSORGRIGHT
 10
0.0
 20
0.0
 30
0.0
  9
$UCSORGFRONT
 10
0.0
 20
0.0
 30
0.0
  9
$UCSORGBACK
 10
0.0
 20
0.0
 30
0.0
  9
$PUCSBASE
  2

  9
$PUCSNAME
  2

  9
$PUCSORG
 10
0.0
 20
0.0
 30
0.0
  9
$PUCSXDIR
 10
1.0
 20
0.0
 30
0.0
  9
$PUCSYDIR
 10
0.0
 20
1.0
 30
0.0
  9
$PUCSORTHOREF
  2

  9
$PUCSORTHOVIEW
 70
     0
  9
$PUCSORGTOP
 10
0.0
 20
0.0
 30
0.0
  9
$PUCSORGBOTTOM
 10
0.0
 20
0.0
 30
0.0
  9
$PUCSORGLEFT
 10
0.0
 20
0.0
 30
0.0
  9
$PUCSORGRIGHT
 10
0.0
 20
0.0
 30
0.0
  9
$PUCSORGFRONT
 10
0.0
 20
0.0
 30
0.0
  9
$PUCSORGBACK
 10
0.0
 20
0.0
 30
0.0
  9
$USERI1
 70
     0
  9
$USERI2
 70
     0
  9
$USERI3
 70
     0
  9
$USERI4
 70
     0
  9
$USERI5
 70
     0
  9
$USERR1
 40
18.1
  9
$USERR2
 40
0.0
  9
$USERR3
 40
0.0
  9
$USERR4
 40
0.0
  9
$USERR5
 40
0.0
  9
$WORLDVIEW
 70
     1
  9
$SHADEDGE
 70
     3
  9
$SHADEDIF
 70
    70
  9
$TILEMODE
 70
     1
  9
$MAXACTVP
 70
    64
  9
$PINSBASE
 10
0.0
 20
0.0
 30
0.0
  9
$PLIMCHECK
 70
     0
  9
$PEXTMIN
 10
1.00000000000000E+20
 20
1.00000000000000E+20
 30
1.00000000000000E+20
  9
$PEXTMAX
 10
-1.00000000000000E+20
 20
-1.00000000000000E+20
 30
-1.00000000000000E+20
  9
$PLIMMIN
 10
0.0
 20
0.0
  9
$PLIMMAX
 10
12.0
 20
9.0
  9
$UNITMODE
 70
     0
  9
$VISRETAIN
 70
     1
  9
$PLINEGEN
 70
     0
  9
$PSLTSCALE
 70
     1
  9
$TREEDEPTH
 70
  3020
  9
$CMLSTYLE
  2
Standard
  9
$CMLJUST
 70
     0
  9
$CMLSCALE
 40
1.0
  9
$PROXYGRAPHICS
 70
     1
  9
$MEASUREMENT
 70
     1
  9
$CELWEIGHT
370
    -1
  9
$ENDCAPS
280
     0
  9
$JOINSTYLE
280
     0
  9
$LWDISPLAY
290
     0
  9
$INSUNITS
 70
     4
  9
$HYPERLINKBASE
  1

  9
$STYLESHEET
  1

  9
$XEDIT
290
     1
  9
$CEPSNTYPE
380
     0
  9
$PSTYLEMODE
290
     1
  9
$FINGERPRINTGUID
  2
{4BB63CE7-2B7A-4A2A-A0C4-70490E0C79FB}
  9
$VERSIONGUID
  2
{FAEB1C32-E019-11D5-929B-00C0DF256EC4}
  9
$EXTNAMES
290
     1
  9
$PSVPSCALE
 40
0.0
  9
$OLESTARTUP
290
     0
  9
$SORTENTS
280
   127
  9
$INDEXCTL
280
     0
  9
$HIDETEXT
280
     1
  9
$XCLIPFRAME
290
     0
  9
$HALOGAP
280
     0
  9
$OBSCOLOR
 70
   257
  9
$OBSLTYPE
280
     0
  9
$INTERSECTIONDISPLAY
280
     0
  9
$INTERSECTIONCOLOR
 70
   257
  9
$DIMASSOC
280
     2
  9
$PROJECTNAME
  1

  0
ENDSEC
  0
SECTION
  2
CLASSES
  0
CLASS
  1
ACDBDICTIONARYWDFLT
  2
AcDbDictionaryWithDefault
  3
ObjectDBX Classes
 90
        0
 91
        4
280
     0
281
     0
  0
CLASS
  1
VISUALSTYLE
  2
AcDbVisualStyle
  3
ObjectDBX Classes
 90
     4095
 91
        4
280
     0
281
     0
  0
CLASS
  1
MATERIAL
  2
AcDbMaterial
  3
ObjectDBX Classes
 90
     1153
 91
        4
280
     0
281
     0
  0
ENDSEC
  0
SECTION
  2
TABLES
  0
TABLE
  2
VPORT
  5
8
330
0
100
AcDbSymbolTable
 70
     1
  0
VPORT
  5
29
330
8
100
AcDbSymbolTableRecord
100
AcDbViewportTableRecord
  2
*Active
 70
     0
 10
0.0
 20
0.0
 11
1.0
 21
1.0
 12
-94.00000047185064
 22
106.1373586378189
 13
0.0
 23
0.0
 14
0.5
 24
0.5
 15
0.5
 25
0.5
 16
0.0
 26
0.0
 36
1.0
 17
0.0
 27
0.0
 37
0.0
 40
231.0000000000002
 41
1.60267857142857
 42
50.0
 43
0.0
 44
0.0
 50
0.0
 51
0.0
 71
     0
 72
   100
 73
     1
 74
     3
 75
     0
 76
     0
 77
     0
 78
     0
281
     0
 65
     1
110
0.0
120
0.0
130
0.0
111
1.0
121
0.0
131
0.0
112
0.0
122
1.0
132
0.0
 79
     0
146
0.0
  0
ENDTAB
  0
TABLE
  2
LTYPE
  5
5
330
0
100
AcDbSymbolTable
 70
     8
  0
LTYPE
  5
14
330
5
100
AcDbSymbolTableRecord
100
AcDbLinetypeTableRecord
  2
ByBlock
 70
     0
  3

 72
    65
 73
     0
 40
0.0
  0
LTYPE
  5
15
330
5
100
AcDbSymbolTableRecord
100
AcDbLinetypeTableRecord
  2
ByLayer
 70
     0
  3

 72
    65
 73
     0
 40
0.0
  0
LTYPE
  5
16
330
5
100
AcDbSymbolTableRecord
100
AcDbLinetypeTableRecord
  2
Continuous
 70
     0
  3
Solid line
 72
    65
 73
     0
 40
0.0
  0
LTYPE
  5
3F
330
5
100
AcDbSymbolTableRecord
100
AcDbLinetypeTableRecord
  2
DASHED
 70
     0
  3
Dashed
 72
    65
 73
     2
 40
15.0
 49
7.0
 74
     0
 49
-8.0
 74
     0
  0
LTYPE
  5
40
330
5
100
AcDbSymbolTableRecord
100
AcDbLinetypeTableRecord
  2
DOTTED
 70
     0
  3
Dotted
 72
    65
 73
     2
 40
1.0
 49
0.0
 74
     0
 49
-1.0
 74
     0
  0
LTYPE
  5
41
330
5
100
AcDbSymbolTableRecord
100
AcDbLinetypeTableRecord
  2
DOT_CENTER
 70
     0
  3
Dot_Center
 72
    65
 73
     4
 40
14.0
 49
12.0
 74
     0
 49
-1.0
 74
     0
 49
0.0
 74
     0
 49
-1.0
 74
     0
  0
LTYPE
  5
42
330
5
100
AcDbSymbolTableRecord
100
AcDbLinetypeTableRecord
  2
LONG_DASHED
 70
     0
  3
Long_Dashed
 72
    65
 73
     2
 40
15.0
 49
10.0
 74
     0
 49
-5.0
 74
     0
  0
LTYPE
  5
43
330
5
100
AcDbSymbolTableRecord
100
AcDbLinetypeTableRecord
  2
DASH_CENTER
 70
     0
  3
Dash_Center
 72
    65
 73
     4
 40
14.0
 49
11.0
 74
     0
 49
-1.0
 74
     0
 49
1.0
 74
     0
 49
-1.0
 74
     0
  0
LTYPE
  5
44
330
5
100
AcDbSymbolTableRecord
100
AcDbLinetypeTableRecord
  2
PHANTOM
 70
     0
  3
Phantom
 72
    65
 73
     6
 40
13.0
 49
10.0
 74
     0
 49
-1.0
 74
     0
 49
0.0
 74
     0
 49
-1.0
 74
     0
 49
0.0
 74
     0
 49
-1.0
 74
     0
  0
LTYPE
  5
45
330
5
100
AcDbSymbolTableRecord
100
AcDbLinetypeTableRecord
  2
CENTER_DASH_DASH
 70
     0
  3
Center_Dash_Dash
 72
    65
 73
     6
 40
14.0
 49
9.0
 74
     0
 49
-1.0
 74
     0
 49
1.0
 74
     0
 49
-1.0
 74
     0
 49
1.0
 74
     0
 49
-1.0
 74
     0
  0
ENDTAB
  0
TABLE
  2
LAYER
  5
2
330
0
100
AcDbSymbolTable
 70
     2
  0
LAYER
  5
10
330
2
100
AcDbSymbolTableRecord
100
AcDbLayerTableRecord
  2
0
 70
     0
 62
     7
  6
Continuous
370
    -3
390
F
  0
LAYER
  5
46
330
2
100
AcDbSymbolTableRecord
100
AcDbLayerTableRecord
  2
1
 70
     0
 62
     7
  6
Continuous
370
    -3
390
F
  0
ENDTAB
  0
TABLE
  2
STYLE
  5
3
330
0
100
AcDbSymbolTable
 70
     5
  0
STYLE
  5
11
330
3
100
AcDbSymbolTableRecord
100
AcDbTextStyleTableRecord
  2
Standard
 70
     0
 40
0.0
 41
1.0
 50
0.0
 71
     0
 42
0.2
  3
txt
  4

  0
STYLE
  5
C2
330
3
100
AcDbSymbolTableRecord
100
AcDbTextStyleTableRecord
  2
CONVERTER_11
 70
     0
 40
0.0
 41
0.9
 50
0.0
 71
     0
 42
0.2
  3
txt.shx
  4

  0
STYLE
  5
21E
330
3
100
AcDbSymbolTableRecord
100
AcDbTextStyleTableRecord
  2
CONVERTER_12
 70
     0
 40
0.0
 41
0.81
 50
0.0
 71
     0
 42
0.2
  3
txt.shx
  4

  0
STYLE
  5
234
330
3
100
AcDbSymbolTableRecord
100
AcDbTextStyleTableRecord
  2
CONVERTER_13
 70
     0
 40
0.0
 41
0.72
 50
0.0
 71
     0
 42
0.2
  3
txt.shx
  4

  0
STYLE
  5
237
330
3
100
AcDbSymbolTableRecord
100
AcDbTextStyleTableRecord
  2
CONVERTER_14
 70
     0
 40
0.0
 41
0.855
 50
0.0
 71
     0
 42
0.2
  3
txt.shx
  4

  0
ENDTAB
  0
TABLE
  2
VIEW
  5
6
330
0
100
AcDbSymbolTable
 70
     0
  0
ENDTAB
  0
TABLE
  2
UCS
  5
7
330
0
100
AcDbSymbolTable
 70
     0
  0
ENDTAB
  0
TABLE
  2
APPID
  5
9
330
0
100
AcDbSymbolTable
 70
     1
  0
APPID
  5
12
330
9
100
AcDbSymbolTableRecord
100
AcDbRegAppTableRecord
  2
ACAD
 70
     0
  0
ENDTAB
  0
TABLE
  2
DIMSTYLE
  5
A
330
0
100
AcDbSymbolTable
 70
     4
100
AcDbDimStyleTable
  0
DIMSTYLE
105
27
330
A
100
AcDbSymbolTableRecord
100
AcDbDimStyleTableRecord
  2
Standard
 70
     0
178
     0
340
11
  0
DIMSTYLE
105
C6
102
{ACAD_REACTORS
330
C7
102
}
330
A
100
AcDbSymbolTableRecord
100
AcDbDimStyleTableRecord
  2
ME10_DIM_10
 70
     0
 41
3.5
 42
0.0
 44
1.5
 73
     0
 74
     0
 77
     1
 78
     8
140
3.5
147
1.5
172
     1
173
     1
174
     1
175
     1
176
     2
177
     2
178
     3
340
C2
  0
DIMSTYLE
105
115
102
{ACAD_REACTORS
330
116
102
}
330
A
100
AcDbSymbolTableRecord
100
AcDbDimStyleTableRecord
  2
ME10_DIM_11
 70
     0
 41
3.5
 42
0.0
 44
1.5
 73
     0
 74
     0
 77
     1
 78
     8
140
3.5
147
1.5
172
     1
173
     1
174
     1
175
     1
176
     2
177
     2
178
     3
340
C2
  0
DIMSTYLE
105
120
102
{ACAD_REACTORS
330
121
102
}
330
A
100
AcDbSymbolTableRecord
100
AcDbDimStyleTableRecord
  2
ME10_DIM_12
 70
     0
 41
3.5
 42
0.0
 44
1.5
 73
     0
 74
     0
 77
     1
 78
     8
140
3.5
147
1.5
172
     1
173
     1
174
     1
175
     1
176
     2
177
     2
178
     3
340
C2
  0
ENDTAB
  0
TABLE
  2
BLOCK_RECORD
  5
1
330
0
100
AcDbSymbolTable
 70
    20
  0
BLOCK_RECORD
  5
1F
330
1
100
AcDbSymbolTableRecord
100
AcDbBlockTableRecord
  2
*Model_Space
340
22
  0
BLOCK_RECORD
  5
1B
330
1
100
AcDbSymbolTableRecord
100
AcDbBlockTableRecord
  2
*Paper_Space
340
1E
  0
BLOCK_RECORD
  5
23
330
1
100
AcDbSymbolTableRecord
100
AcDbBlockTableRecord
  2
*Paper_Space0
340
26
  0
BLOCK_RECORD
  5
47
330
1
100
AcDbSymbolTableRecord
100
AcDbBlockTableRecord
  2
TS_URK_ND-select__1
340
0
102
{BLKREFS
331
4B
102
}
  0
BLOCK_RECORD
  5
4A
330
1
100
AcDbSymbolTableRecord
100
AcDbBlockTableRecord
  2
AllgSicht1
340
0
102
{BLKREFS
331
7D
102
}
  0
BLOCK_RECORD
  5
4E
330
1
100
AcDbSymbolTableRecord
100
AcDbBlockTableRecord
  2
TS_URK_ND-select__2
340
0
102
{BLKREFS
331
52
102
}
  0
BLOCK_RECORD
  5
51
330
1
100
AcDbSymbolTableRecord
100
AcDbBlockTableRecord
  2
Drfsicht1
340
0
102
{BLKREFS
331
7E
102
}
  0
BLOCK_RECORD
  5
55
330
1
100
AcDbSymbolTableRecord
100
AcDbBlockTableRecord
  2
TS_URK_ND-select__3
340
0
102
{BLKREFS
331
59
102
}
  0
BLOCK_RECORD
  5
58
330
1
100
AcDbSymbolTableRecord
100
AcDbBlockTableRecord
  2
Rckans1
340
0
102
{BLKREFS
331
7F
102
}
  0
BLOCK_RECORD
  5
5C
330
1
100
AcDbSymbolTableRecord
100
AcDbBlockTableRecord
  2
TS_URK_ND-select__4
340
0
102
{BLKREFS
331
60
102
}
  0
BLOCK_RECORD
  5
5F
330
1
100
AcDbSymbolTableRecord
100
AcDbBlockTableRecord
  2
SA_Links1
340
0
102
{BLKREFS
331
80
102
}
  0
BLOCK_RECORD
  5
63
330
1
100
AcDbSymbolTableRecord
100
AcDbBlockTableRecord
  2
TS_URK_ND-select__5
340
0
102
{BLKREFS
331
67
102
}
  0
BLOCK_RECORD
  5
66
330
1
100
AcDbSymbolTableRecord
100
AcDbBlockTableRecord
  2
SA_Rechts1
340
0
102
{BLKREFS
331
81
102
}
  0
BLOCK_RECORD
  5
6A
330
1
100
AcDbSymbolTableRecord
100
AcDbBlockTableRecord
  2
TS_URK_ND-select__6
340
0
102
{BLKREFS
331
6E
102
}
  0
BLOCK_RECORD
  5
6D
330
1
100
AcDbSymbolTableRecord
100
AcDbBlockTableRecord
  2
Vordans1
340
0
102
{BLKREFS
331
82
102
}
  0
BLOCK_RECORD
  5
71
330
1
100
AcDbSymbolTableRecord
100
AcDbBlockTableRecord
  2
_rahmen
340
0
102
{BLKREFS
331
78
102
}
  0
BLOCK_RECORD
  5
74
330
1
100
AcDbSymbolTableRecord
100
AcDbBlockTableRecord
  2
_punkt
340
0
102
{BLKREFS
331
79
102
}
  0
BLOCK_RECORD
  5
77
330
1
100
AcDbSymbolTableRecord
100
AcDbBlockTableRecord
  2
A4I_CS
340
0
102
{BLKREFS
331
83
102
}
  0
BLOCK_RECORD
  5
7C
330
1
100
AcDbSymbolTableRecord
100
AcDbBlockTableRecord
  2
1
340
0
102
{BLKREFS
331
86
102
}
  0
BLOCK_RECORD
  5
BA
330
1
100
AcDbSymbolTableRecord
100
AcDbBlockTableRecord
  2
*D17
340
0
  0
BLOCK_RECORD
  5
10C
330
1
100
AcDbSymbolTableRecord
100
AcDbBlockTableRecord
  2
*D18
340
0
  0
BLOCK_RECORD
  5
117
330
1
100
AcDbSymbolTableRecord
100
AcDbBlockTableRecord
  2
*D19
340
0
  0
ENDTAB
  0
ENDSEC
  0
SECTION
  2
BLOCKS
  0
BLOCK
  5
20
330
1F
100
AcDbEntity
  8
0
100
AcDbBlockBegin
  2
*Model_Space
 70
     0
 10
0.0
 20
0.0
 30
0.0
  3
*Model_Space
  1

  0
ENDBLK
  5
21
330
1F
100
AcDbEntity
  8
0
100
AcDbBlockEnd
  0
BLOCK
  5
1C
330
1B
100
AcDbEntity
 67
     1
  8
0
100
AcDbBlockBegin
  2
*Paper_Space
 70
     0
 10
0.0
 20
0.0
 30
0.0
  3
*Paper_Space
  1

  0
ENDBLK
  5
1D
330
1B
100
AcDbEntity
 67
     1
  8
0
100
AcDbBlockEnd
  0
BLOCK
  5
24
330
23
100
AcDbEntity
  8
0
100
AcDbBlockBegin
  2
*Paper_Space0
 70
     0
 10
0.0
 20
0.0
 30
0.0
  3
*Paper_Space0
  1

  0
ENDBLK
  5
25
330
23
100
AcDbEntity
  8
0
100
AcDbBlockEnd
  0
BLOCK
  5
48
330
47
100
AcDbEntity
  8
0
100
AcDbBlockBegin
  2
TS_URK_ND-select__1
 70
     0
 10
-48.71089118877447
 20
49.37471694434513
 30
0.0
  3
TS_URK_ND-select__1
  1

  0
LINE
  5
87
330
47
100
AcDbEntity
  8
0
  6
Continuous
 62
     7
100
AcDbLine
 10
-40.81089118877449
 20
102.7281686610209
 30
0.0
 11
-41.21089118877447
 21
102.3817584995071
 31
0.0
  0
LINE
  5
88
330
47
100
AcDbEntity
  8
0
  6
Continuous
 62
     7
100
AcDbLine
 10
-41.21089118877447
 20
102.3817584995071
 30
0.0
 11
-48.71089118877447
 21
91.55644095220165
 31
0.0
  0
LINE
  5
89
330
47
100
AcDbEntity
  8
0
  6
Continuous
 62
     7
100
AcDbLine
 10
-48.71089118877447
 20
91.55644095220165
 30
0.0
 11
-48.71089118877447
 21
66.87471694434512
 31
0.0
  0
LINE
  5
8A
330
47
100
AcDbEntity
  8
0
  6
Continuous
 62
     7
100
AcDbLine
 10
-27.27676244510957
 20
63.71830585759066
 30
0.0
 11
-26.87676244510959
 21
64.06471601910444
 31
0.0
  0
LINE
  5
8B
330
47
100
AcDbEntity
  8
0
  6
Continuous
 62
     7
100
AcDbLine
 10
-27.27676244510957
 20
63.71830585759066
 30
0.0
 11
-27.27676244510957
 21
66.31638206894398
 31
0.0
  0
LINE
  5
8C
330
47
100
AcDbEntity
  8
0
  6
Continuous
 62
     7
100
AcDbLine
 10
-37.88557364146899
 20
66.78080585759066
 30
0.0
 11
-27.27676244510957
 21
63.71830585759066
 31
0.0
  0
LINE
  5
8D
330
47
100
AcDbEntity
  8
0
  6
Continuous
 62
     7
100
AcDbLine
 10
-26.87676244510959
 20
64.06471601910444
 30
0.0
 11
-26.87676244510959
 21
66.20091201510606
 31
0.0
  0
LINE
  5
8E
330
47
100
AcDbEntity
  8
0
  6
Continuous
 62
     7
100
AcDbLine
 10
-24.67868623375628
 20
65.56638206894398
 30
0.0
 11
-24.67868623375628
 21
63.40131855948288
 31
0.0
  0
LINE
  5
8F
330
47
100
AcDbEntity
  8
0
  6
Continuous
 62
     7
100
AcDbLine
 10
-24.67868623375628
 20
63.40131855948288
 30
0.0
 11
-22.94663542618739
 21
62.90131855948288
 31
0.0
  0
LINE
  5
90
330
47
100
AcDbEntity
  8
0
  6
Continuous
 62
     7
100
AcDbLine
 10
-22.94663542618739
 20
62.90131855948288
 30
0.0
 11
-22.94663542618739
 21
65.06638206894398
 31
0.0
  0
LINE
  5
91
330
47
100
AcDbEntity
  8
0
  6
Continuous
 62
     7
100
AcDbLine
 10
-14.93590044118139
 20
62.75388206894399
 30
0.0
 11
-13.85336868645078
 21
62.44138206894399
 31
0.0
  0
LINE
  5
92
330
47
100
AcDbEntity
  8
0
  6
Continuous
 62
     7
100
AcDbLine
 10
-12.12131787888197
 20
61.94138206894399
 30
0.0
 11
-9.52324166752868
 21
61.19138206894399
 31
0.0
  0
LINE
  5
93
330
47
100
AcDbEntity
  8
0
  6
Continuous
 62
     7
100
AcDbLine
 10
-48.71089118877447
 20
66.87471694434512
 30
0.0
 11
-40.91666255471449
 21
64.62471694434512
 31
0.0
  0
LINE
  5
94
330
47
100
AcDbEntity
  8
0
  6
Continuous
 62
     7
100
AcDbLine
 10
-40.91666255471449
 20
64.62471694434512
 30
0.0
 11
-37.88557364146899
 21
66.78080585759066
 31
0.0
  0
LINE
  5
95
330
47
100
AcDbEntity
  8
0
  6
Continuous
 62
     7
100
AcDbLine
 10
12.31088707613623
 20
49.72112710585891
 30
0.0
 11
12.31088707613623
 21
74.40285111371529
 31
0.0
  0
LINE
  5
96
330
47
100
AcDbEntity
  8
0
  6
Continuous
 62
     7
100
AcDbLine
 10
-11.72131787888199
 20
60.12272872099666
 30
0.0
 11
-11.72131787888199
 21
61.82591201510606
 31
0.0
  0
LINE
  5
97
330
47
100
AcDbEntity
  8
0
  6
Continuous
 62
     7
100
AcDbLine
 10
-11.72131787888199
 20
60.12272872099666
 30
0.0
 11
-12.12131787888197
 21
59.77631855948289
 31
0.0
  0
LINE
  5
98
330
47
100
AcDbEntity
  8
0
  6
Continuous
 62
     7
100
AcDbLine
 10
-9.52324166752868
 20
61.19138206894399
 30
0.0
 11
-9.52324166752868
 21
58.59330585759067
 31
0.0
  0
LINE
  5
99
330
47
100
AcDbEntity
  8
0
  6
Continuous
 62
     7
100
AcDbLine
 10
-12.12131787888197
 20
59.77631855948289
 30
0.0
 11
-12.12131787888197
 21
61.94138206894399
 31
0.0
  0
LINE
  5
9A
330
47
100
AcDbEntity
  8
0
  6
Continuous
 62
     7
100
AcDbLine
 10
-14.53590044118138
 20
60.93522872099666
 30
0.0
 11
-14.53590044118138
 21
62.63841201510606
 31
0.0
  0
LINE
  5
9B
330
47
100
AcDbEntity
  8
0
  6
Continuous
 62
     7
100
AcDbLine
 10
-22.54663542618738
 20
63.24772872099666
 30
0.0
 11
-22.54663542618738
 21
64.95091201510606
 31
0.0
  0
LINE
  5
9C
330
47
100
AcDbEntity
  8
0
  6
Continuous
 62
     7
100
AcDbLine
 10
-27.27676244510957
 20
66.31638206894398
 30
0.0
 11
-24.67868623375628
 21
65.56638206894398
 31
0.0
  0
LINE
  5
9D
330
47
100
AcDbEntity
  8
0
  6
Continuous
 62
     7
100
AcDbLine
 10
-22.94663542618739
 20
65.06638206894398
 30
0.0
 11
-21.86410367145689
 21
64.75388206894398
 31
0.0
  0
LINE
  5
9E
330
47
100
AcDbEntity
  8
0
  6
Continuous
 62
     7
100
AcDbLine
 10
-21.86410367145689
 20
64.75388206894398
 30
0.0
 11
-21.86410367145689
 21
62.58881855948288
 31
0.0
  0
LINE
  5
9F
330
47
100
AcDbEntity
  8
0
  6
Continuous
 62
     7
100
AcDbLine
 10
-21.86410367145689
 20
62.58881855948288
 30
0.0
 11
-14.93590044118139
 21
60.58881855948289
 31
0.0
  0
LINE
  5
A0
330
47
100
AcDbEntity
  8
0
  6
Continuous
 62
     7
100
AcDbLine
 10
-14.93590044118139
 20
60.58881855948289
 30
0.0
 11
-14.93590044118139
 21
62.75388206894399
 31
0.0
  0
LINE
  5
A1
330
47
100
AcDbEntity
  8
0
  6
Continuous
 62
     7
100
AcDbLine
 10
-13.85336868645078
 20
62.44138206894399
 30
0.0
 11
-13.85336868645078
 21
60.27631855948289
 31
0.0
  0
LINE
  5
A2
330
47
100
AcDbEntity
  8
0
  6
Continuous
 62
     7
100
AcDbLine
 10
-13.85336868645078
 20
60.27631855948289
 30
0.0
 11
-12.12131787888197
 21
59.77631855948289
 31
0.0
  0
LINE
  5
A3
330
47
100
AcDbEntity
  8
0
  6
Continuous
 62
     7
100
AcDbLine
 10
-22.94663542618739
 20
62.90131855948288
 30
0.0
 11
-22.54663542618738
 21
63.24772872099666
 31
0.0
  0
LINE
  5
A4
330
47
100
AcDbEntity
  8
0
  6
Continuous
 62
     7
100
AcDbLine
 10
-14.93590044118139
 20
60.58881855948289
 30
0.0
 11
-14.53590044118138
 21
60.93522872099666
 31
0.0
  0
LINE
  5
A5
330
47
100
AcDbEntity
  8
0
  6
Continuous
 62
     7
100
AcDbLine
 10
11.91088707613622
 20
49.37471694434513
 30
0.0
 11
11.91088707613622
 21
74.05644095220153
 31
0.0
  0
LINE
  5
A6
330
47
100
AcDbEntity
  8
0
  6
Continuous
 62
     7
100
AcDbLine
 10
11.91088707613622
 20
74.05644095220153
 30
0.0
 11
4.41088707613622
 21
89.21188551842931
 31
0.0
  0
LINE
  5
A7
330
47
100
AcDbEntity
  8
0
  6
Continuous
 62
     7
100
AcDbLine
 10
12.31088707613623
 20
74.40285111371529
 30
0.0
 11
11.91088707613622
 21
74.05644095220153
 31
0.0
  0
LINE
  5
A8
330
47
100
AcDbEntity
  8
0
  6
Continuous
 62
     7
100
AcDbLine
 10
4.81088707613623
 20
89.5582956799431
 30
0.0
 11
4.41088707613622
 21
89.21188551842931
 31
0.0
  0
LINE
  5
A9
330
47
100
AcDbEntity
  8
0
  6
Continuous
 62
     7
100
AcDbLine
 10
12.31088707613623
 20
74.40285111371529
 30
0.0
 11
4.81088707613623
 21
89.5582956799431
 31
0.0
  0
LINE
  5
AA
330
47
100
AcDbEntity
  8
0
  6
Continuous
 62
     7
100
AcDbLine
 10
4.41088707613622
 20
89.21188551842931
 30
0.0
 11
-41.21089118877447
 21
102.3817584995071
 31
0.0
  0
LINE
  5
AB
330
47
100
AcDbEntity
  8
0
  6
Continuous
 62
     7
100
AcDbLine
 10
4.11665844207633
 20
51.62471694434512
 30
0.0
 11
11.91088707613622
 21
49.37471694434513
 31
0.0
  0
LINE
  5
AC
330
47
100
AcDbEntity
  8
0
  6
Continuous
 62
     7
100
AcDbLine
 10
1.08556952883072
 20
55.53080585759065
 30
0.0
 11
4.11665844207633
 21
51.62471694434512
 31
0.0
  0
LINE
  5
AD
330
47
100
AcDbEntity
  8
0
  6
Continuous
 62
     7
100
AcDbLine
 10
12.31088707613623
 20
49.72112710585891
 30
0.0
 11
11.91088707613622
 21
49.37471694434513
 31
0.0
  0
LINE
  5
AE
330
47
100
AcDbEntity
  8
0
  6
Continuous
 62
     7
100
AcDbLine
 10
-9.52324166752868
 20
58.59330585759067
 30
0.0
 11
1.08556952883072
 21
55.53080585759065
 31
0.0
  0
LINE
  5
AF
330
47
100
AcDbEntity
  8
0
  6
Continuous
 62
     7
100
AcDbLine
 10
4.81088707613623
 20
89.5582956799431
 30
0.0
 11
-40.81089118877449
 21
102.7281686610209
 31
0.0
  0
ENDBLK
  5
49
330
47
100
AcDbEntity
  8
0
100
AcDbBlockEnd
  0
BLOCK
  5
4C
330
4A
100
AcDbEntity
  8
0
100
AcDbBlockBegin
  2
AllgSicht1
 70
     0
 10
-17.20000199999848
 20
78.0
 30
0.0
  3
AllgSicht1
  1

  0
INSERT
  5
4B
330
4A
100
AcDbEntity
  8
0
100
AcDbBlockReference
  2
TS_URK_ND-select__1
 10
-48.71089118877447
 20
49.37471694434513
 30
0.0
  0
ENDBLK
  5
4D
330
4A
100
AcDbEntity
  8
0
100
AcDbBlockEnd
  0
BLOCK
  5
4F
330
4E
100
AcDbEntity
  8
0
100
AcDbBlockBegin
  2
TS_URK_ND-select__2
 70
     0
 10
-169.000000009973
 20
90.59999990463264
 30
0.0
  3
TS_URK_ND-select__2
  1

  0
LINE
  5
B0
330
4E
100
AcDbEntity
  8
0
  6
Continuous
 62
     7
100
AcDbLine
 10
-99.00000000997301
 20
90.59999990463264
 30
0.0
 11
-107.6602540478175
 21
90.59999990463264
 31
0.0
  0
LINE
  5
B1
330
4E
100
AcDbEntity
  8
0
  6
Continuous
 62
     7
100
AcDbLine
 10
-99.00000000997301
 20
91.39999990463264
 30
0.0
 11
-107.6602540478175
 21
91.39999990463264
 31
0.0
  0
LINE
  5
B2
330
4E
100
AcDbEntity
  8
0
  6
Continuous
 62
     7
100
AcDbLine
 10
-99.00000000997301
 20
91.39999990463264
 30
0.0
 11
-99.00000000997301
 21
90.59999990463264
 31
0.0
  0
LINE
  5
B3
330
4E
100
AcDbEntity
  8
0
  6
Continuous
 62
     7
100
AcDbLine
 10
-160.3397459721286
 20
91.39999990463264
 30
0.0
 11
-169.000000009973
 21
91.39999990463264
 31
0.0
  0
LINE
  5
B4
330
4E
100
AcDbEntity
  8
0
  6
Continuous
 62
     7
100
AcDbLine
 10
-107.6602540478175
 20
91.39999990463264
 30
0.0
 11
-160.3397459721286
 21
91.39999990463264
 31
0.0
  0
LINE
  5
B5
330
4E
100
AcDbEntity
  8
0
  6
Continuous
 62
     7
100
AcDbLine
 10
-160.3397459721286
 20
90.59999990463264
 30
0.0
 11
-169.000000009973
 21
90.59999990463264
 31
0.0
  0
LINE
  5
B6
330
4E
100
AcDbEntity
  8
0
  6
Continuous
 62
     7
100
AcDbLine
 10
-169.000000009973
 20
91.39999990463264
 30
0.0
 11
-169.000000009973
 21
90.59999990463264
 31
0.0
  0
LINE
  5
B7
330
4E
100
AcDbEntity
  8
0
  6
Continuous
 62
     7
100
AcDbLine
 10
-107.6602540478175
 20
91.39999990463264
 30
0.0
 11
-107.6602540478175
 21
90.59999990463264
 31
0.0
  0
LINE
  5
B8
330
4E
100
AcDbEntity
  8
0
  6
Continuous
 62
     7
100
AcDbLine
 10
-160.3397459721286
 20
91.39999990463264
 30
0.0
 11
-160.3397459721286
 21
90.59999990463264
 31
0.0
  0
LINE
  5
B9
330
4E
100
AcDbEntity
  8
0
  6
Continuous
 62
     7
100
AcDbLine
 10
-107.6602540478175
 20
90.59999990463264
 30
0.0
 11
-160.3397459721286
 21
90.59999990463264
 31
0.0
  0
ENDBLK
  5
50
330
4E
100
AcDbEntity
  8
0
100
AcDbBlockEnd
  0
BLOCK
  5
53
330
51
100
AcDbEntity
  8
0
100
AcDbBlockBegin
  2
Drfsicht1
 70
     0
 10
-134.0
 20
93.00000000000007
 30
0.0
  3
Drfsicht1
  1

  0
INSERT
  5
52
330
51
100
AcDbEntity
  8
0
100
AcDbBlockReference
  2
TS_URK_ND-select__2
 10
-169.000000009973
 20
90.59999990463264
 30
0.0
  0
DIMENSION
  5
C7
330
51
100
AcDbEntity
  8
1
100
AcDbDimension
  2
*D17
 10
-179.000000009973
 20
91.39999990463264
 30
0.0
 11
-182.425000009973
 21
99.34855464675363
 31
0.0
 70
    32
  1
<>
 71
     5
 42
-1.0
 53
90.0
  3
ME10_DIM_10
100
AcDbAlignedDimension
 13
-169.000000009973
 23
90.59999990463264
 33
0.0
 14
-169.000000009973
 24
91.39999990463264
 34
0.0
 50
90.0
100
AcDbRotatedDimension
  0
ENDBLK
  5
54
330
51
100
AcDbEntity
  8
0
100
AcDbBlockEnd
  0
BLOCK
  5
56
330
55
100
AcDbEntity
  8
0
100
AcDbBlockBegin
  2
TS_URK_ND-select__3
 70
     0
 10
-52.20000170664065
 20
125.4000000953675
 30
0.0
  3
TS_URK_ND-select__3
  1

  0
LINE
  5
C8
330
55
100
AcDbEntity
  8
0
  6
Continuous
 62
     7
100
AcDbLine
 10
-43.20000170664063
 20
125.4000000953675
 30
0.0
 11
-52.20000170664065
 21
125.4000000953675
 31
0.0
  0
LINE
  5
C9
330
55
100
AcDbEntity
  8
0
  6
Continuous
 62
     7
100
AcDbLine
 10
17.79999829335936
 20
125.4000000953675
 30
0.0
 11
8.79999829335936
 21
125.4000000953675
 31
0.0
  0
LINE
  5
CA
330
55
100
AcDbEntity
  8
0
  6
Continuous
 62
     7
100
AcDbLine
 10
-24.45000170664062
 20
131.9000000953675
 30
0.0
 11
-27.45000170664061
 21
131.9000000953675
 31
0.0
  0
LINE
  5
CB
330
55
100
AcDbEntity
  8
0
  6
Continuous
 62
     7
100
AcDbLine
 10
-21.20000170664062
 20
131.9000000953675
 30
0.0
 11
-22.45000170664062
 21
131.9000000953675
 31
0.0
  0
LINE
  5
CC
330
55
100
AcDbEntity
  8
0
  6
Continuous
 62
     7
100
AcDbLine
 10
-11.95000170664065
 20
131.9000000953675
 30
0.0
 11
-13.20000170664065
 21
131.9000000953675
 31
0.0
  0
LINE
  5
CD
330
55
100
AcDbEntity
  8
0
  6
Continuous
 62
     7
100
AcDbLine
 10
-6.95000170664064
 20
131.9000000953675
 30
0.0
 11
-9.95000170664064
 21
131.9000000953675
 31
0.0
  0
LINE
  5
CE
330
55
100
AcDbEntity
  8
0
  6
Continuous
 62
     7
100
AcDbLine
 10
-27.45000170664061
 20
131.9000000953675
 30
0.0
 11
-27.45000170664061
 21
128.9000000953675
 31
0.0
  0
LINE
  5
CF
330
55
100
AcDbEntity
  8
0
  6
Continuous
 62
     7
100
AcDbLine
 10
-24.45000170664062
 20
129.4000000953675
 30
0.0
 11
-22.45000170664062
 21
129.4000000953675
 31
0.0
  0
LINE
  5
D0
330
55
100
AcDbEntity
  8
0
  6
Continuous
 62
     7
100
AcDbLine
 10
-24.45000170664062
 20
129.4000000953675
 30
0.0
 11
-24.45000170664062
 21
131.9000000953675
 31
0.0
  0
LINE
  5
D1
330
55
100
AcDbEntity
  8
0
  6
Continuous
 62
     7
100
AcDbLine
 10
-22.45000170664062
 20
129.4000000953675
 30
0.0
 11
-22.45000170664062
 21
131.9000000953675
 31
0.0
  0
LINE
  5
D2
330
55
100
AcDbEntity
  8
0
  6
Continuous
 62
     7
100
AcDbLine
 10
-21.20000170664062
 20
129.4000000953675
 30
0.0
 11
-21.20000170664062
 21
131.9000000953675
 31
0.0
  0
LINE
  5
D3
330
55
100
AcDbEntity
  8
0
  6
Continuous
 62
     7
100
AcDbLine
 10
-13.20000170664065
 20
129.4000000953675
 30
0.0
 11
-13.20000170664065
 21
131.9000000953675
 31
0.0
  0
LINE
  5
D4
330
55
100
AcDbEntity
  8
0
  6
Continuous
 62
     7
100
AcDbLine
 10
-11.95000170664065
 20
129.4000000953675
 30
0.0
 11
-11.95000170664065
 21
131.9000000953675
 31
0.0
  0
LINE
  5
D5
330
55
100
AcDbEntity
  8
0
  6
Continuous
 62
     7
100
AcDbLine
 10
-9.95000170664064
 20
129.4000000953675
 30
0.0
 11
-9.95000170664064
 21
131.9000000953675
 31
0.0
  0
LINE
  5
D6
330
55
100
AcDbEntity
  8
0
  6
Continuous
 62
     7
100
AcDbLine
 10
-6.95000170664064
 20
128.9000000953675
 30
0.0
 11
-6.95000170664064
 21
131.9000000953675
 31
0.0
  0
LINE
  5
D7
330
55
100
AcDbEntity
  8
0
  6
Continuous
 62
     7
100
AcDbLine
 10
-27.45000170664061
 20
128.9000000953675
 30
0.0
 11
-39.70000170664063
 21
128.9000000953674
 31
0.0
  0
LINE
  5
D8
330
55
100
AcDbEntity
  8
0
  6
Continuous
 62
     7
100
AcDbLine
 10
-21.20000170664062
 20
129.4000000953675
 30
0.0
 11
-13.20000170664065
 21
129.4000000953675
 31
0.0
  0
LINE
  5
D9
330
55
100
AcDbEntity
  8
0
  6
Continuous
 62
     7
100
AcDbLine
 10
-11.95000170664065
 20
129.4000000953675
 30
0.0
 11
-9.95000170664064
 21
129.4000000953675
 31
0.0
  0
LINE
  5
DA
330
55
100
AcDbEntity
  8
0
  6
Continuous
 62
     7
100
AcDbLine
 10
5.29999829335936
 20
128.9000000953675
 30
0.0
 11
-6.95000170664064
 21
128.9000000953675
 31
0.0
  0
LINE
  5
DB
330
55
100
AcDbEntity
  8
0
  6
Continuous
 62
     7
100
AcDbLine
 10
-39.70000170664063
 20
128.9000000953674
 30
0.0
 11
-43.20000170664063
 21
125.4000000953675
 31
0.0
  0
LINE
  5
DC
330
55
100
AcDbEntity
  8
0
  6
Continuous
 62
     7
100
AcDbLine
 10
8.79999829335936
 20
125.4000000953675
 30
0.0
 11
5.29999829335936
 21
128.9000000953675
 31
0.0
  0
LINE
  5
DD
330
55
100
AcDbEntity
  8
0
  6
Continuous
 62
     7
100
AcDbLine
 10
-52.20000170664065
 20
125.4000000953675
 30
0.0
 11
-52.20000170664065
 21
153.9000000953673
 31
0.0
  0
LINE
  5
DE
330
55
100
AcDbEntity
  8
0
  6
Continuous
 62
     7
100
AcDbLine
 10
9.13974425551496
 20
168.9000000953675
 30
0.0
 11
17.79999829335936
 21
153.9000000953675
 31
0.0
  0
LINE
  5
DF
330
55
100
AcDbEntity
  8
0
  6
Continuous
 62
     7
100
AcDbLine
 10
-43.5397476687962
 20
168.9000000953675
 30
0.0
 11
9.13974425551496
 21
168.9000000953675
 31
0.0
  0
LINE
  5
E0
330
55
100
AcDbEntity
  8
0
  6
Continuous
 62
     7
100
AcDbLine
 10
17.79999829335936
 20
153.9000000953675
 30
0.0
 11
17.79999829335936
 21
125.4000000953675
 31
0.0
  0
LINE
  5
E1
330
55
100
AcDbEntity
  8
0
  6
Continuous
 62
     7
100
AcDbLine
 10
-52.20000170664065
 20
153.9000000953673
 30
0.0
 11
-43.5397476687962
 21
168.9000000953675
 31
0.0
  0
ENDBLK
  5
57
330
55
100
AcDbEntity
  8
0
100
AcDbBlockEnd
  0
BLOCK
  5
5A
330
58
100
AcDbEntity
  8
0
100
AcDbBlockBegin
  2
Rckans1
 70
     0
 10
-17.20000171661366
 20
147.1500000953674
 30
0.0
  3
Rckans1
  1

  0
INSERT
  5
59
330
58
100
AcDbEntity
  8
0
100
AcDbBlockReference
  2
TS_URK_ND-select__3
 10
-52.20000170664065
 20
125.4000000953675
 30
0.0
  0
MTEXT
  5
E2
330
58
100
AcDbEntity
  8
1
 62
     6
100
AcDbMText
 10
-17.20000171661366
 20
120.4000000953674
 30
0.0
 40
5.0
 41
0.0
 71
     2
 72
     1
  1
 
  7
CONVERTER_11
 73
     1
 44
1.32052821128451
  0
ENDBLK
  5
5B
330
58
100
AcDbEntity
  8
0
100
AcDbBlockEnd
  0
BLOCK
  5
5D
330
5C
100
AcDbEntity
  8
0
100
AcDbBlockBegin
  2
TS_URK_ND-select__4
 70
     0
 10
-75.00000076293836
 20
125.4000000953674
 30
0.0
  3
TS_URK_ND-select__4
  1

  0
LINE
  5
E3
330
5C
100
AcDbEntity
  8
0
  6
Continuous
 62
     7
100
AcDbLine
 10
-75.00000076293836
 20
125.4000000953674
 30
0.0
 11
-75.00000076293836
 21
153.9000000953675
 31
0.0
  0
LINE
  5
E4
330
5C
100
AcDbEntity
  8
0
  6
Continuous
 62
     7
100
AcDbLine
 10
-74.20000076293834
 20
153.9000000953675
 30
0.0
 11
-74.20000076293834
 21
125.4000000953674
 31
0.0
  0
LINE
  5
E5
330
5C
100
AcDbEntity
  8
0
  6
Continuous
 62
     7
100
AcDbLine
 10
-75.00000076293836
 20
153.9000000953675
 30
0.0
 11
-74.20000076293834
 21
153.9000000953675
 31
0.0
  0
LINE
  5
E6
330
5C
100
AcDbEntity
  8
0
  6
Continuous
 62
     7
100
AcDbLine
 10
-75.00000076293836
 20
168.9000000953674
 30
0.0
 11
-75.00000076293836
 21
153.9000000953675
 31
0.0
  0
LINE
  5
E7
330
5C
100
AcDbEntity
  8
0
  6
Continuous
 62
     7
100
AcDbLine
 10
-75.00000076293836
 20
168.9000000953674
 30
0.0
 11
-74.20000076293834
 21
168.9000000953674
 31
0.0
  0
LINE
  5
E8
330
5C
100
AcDbEntity
  8
0
  6
Continuous
 62
     7
100
AcDbLine
 10
-74.20000076293834
 20
125.4000000953674
 30
0.0
 11
-75.00000076293836
 21
125.4000000953674
 31
0.0
  0
LINE
  5
E9
330
5C
100
AcDbEntity
  8
0
  6
Continuous
 62
     7
100
AcDbLine
 10
-74.20000076293834
 20
168.9000000953674
 30
0.0
 11
-74.20000076293834
 21
153.9000000953675
 31
0.0
  0
ENDBLK
  5
5E
330
5C
100
AcDbEntity
  8
0
100
AcDbBlockEnd
  0
BLOCK
  5
61
330
5F
100
AcDbEntity
  8
0
100
AcDbBlockBegin
  2
SA_Links1
 70
     0
 10
-76.60000085830575
 20
147.1500000953674
 30
0.0
  3
SA_Links1
  1

  0
INSERT
  5
60
330
5F
100
AcDbEntity
  8
0
100
AcDbBlockReference
  2
TS_URK_ND-select__4
 10
-75.00000076293836
 20
125.4000000953674
 30
0.0
  0
ENDBLK
  5
62
330
5F
100
AcDbEntity
  8
0
100
AcDbBlockEnd
  0
BLOCK
  5
64
330
63
100
AcDbEntity
  8
0
100
AcDbBlockBegin
  2
TS_URK_ND-select__5
 70
     0
 10
-205.7999992370606
 20
125.4000000953675
 30
0.0
  3
TS_URK_ND-select__5
  1

  0
LINE
  5
EA
330
63
100
AcDbEntity
  8
0
  6
Continuous
 62
     7
100
AcDbLine
 10
-205.7999992370606
 20
125.4000000953675
 30
0.0
 11
-205.7999992370606
 21
153.9000000953674
 31
0.0
  0
LINE
  5
EB
330
63
100
AcDbEntity
  8
0
  6
Continuous
 62
     7
100
AcDbLine
 10
-204.9999992370606
 20
125.4000000953675
 30
0.0
 11
-204.9999992370606
 21
153.9000000953673
 31
0.0
  0
LINE
  5
EC
330
63
100
AcDbEntity
  8
0
  6
Continuous
 62
     7
100
AcDbLine
 10
-204.9999992370606
 20
125.4000000953675
 30
0.0
 11
-205.7999992370606
 21
125.4000000953675
 31
0.0
  0
LINE
  5
ED
330
63
100
AcDbEntity
  8
0
  6
Continuous
 62
     7
100
AcDbLine
 10
-205.7999992370606
 20
153.9000000953674
 30
0.0
 11
-205.7999992370606
 21
168.9000000953675
 31
0.0
  0
LINE
  5
EE
330
63
100
AcDbEntity
  8
0
  6
Continuous
 62
     7
100
AcDbLine
 10
-204.9999992370606
 20
153.9000000953673
 30
0.0
 11
-204.9999992370606
 21
168.9000000953675
 31
0.0
  0
LINE
  5
EF
330
63
100
AcDbEntity
  8
0
  6
Continuous
 62
     7
100
AcDbLine
 10
-204.9999992370606
 20
168.9000000953675
 30
0.0
 11
-205.7999992370606
 21
168.9000000953675
 31
0.0
  0
LINE
  5
F0
330
63
100
AcDbEntity
  8
0
  6
Continuous
 62
     7
100
AcDbLine
 10
-204.9999992370606
 20
153.9000000953673
 30
0.0
 11
-205.7999992370606
 21
153.9000000953674
 31
0.0
  0
ENDBLK
  5
65
330
63
100
AcDbEntity
  8
0
100
AcDbBlockEnd
  0
BLOCK
  5
68
330
66
100
AcDbEntity
  8
0
100
AcDbBlockBegin
  2
SA_Rechts1
 70
     0
 10
-203.3999991416931
 20
147.1500000953674
 30
0.0
  3
SA_Rechts1
  1

  0
INSERT
  5
67
330
66
100
AcDbEntity
  8
0
100
AcDbBlockReference
  2
TS_URK_ND-select__5
 10
-205.7999992370606
 20
125.4000000953675
 30
0.0
  0
MTEXT
  5
F1
330
66
100
AcDbEntity
  8
1
 62
     6
100
AcDbMText
 10
-203.399999141693
 20
120.4000000953674
 30
0.0
 40
5.0
 41
0.0
 71
     2
 72
     1
  1
 
  7
CONVERTER_11
 73
     1
 44
1.32052821128451
  0
ENDBLK
  5
69
330
66
100
AcDbEntity
  8
0
100
AcDbBlockEnd
  0
BLOCK
  5
6B
330
6A
100
AcDbEntity
  8
0
100
AcDbBlockBegin
  2
TS_URK_ND-select__6
 70
     0
 10
-169.000000009973
 20
125.4000000953674
 30
0.0
  3
TS_URK_ND-select__6
  1

  0
LINE
  5
F2
330
6A
100
AcDbEntity
  8
0
  6
Continuous
 62
     7
100
AcDbLine
 10
-160.3397459721286
 20
168.9000000953674
 30
0.0
 11
-169.000000009973
 21
153.9000000953675
 31
0.0
  0
LINE
  5
F3
330
6A
100
AcDbEntity
  8
0
  6
Continuous
 62
     7
100
AcDbLine
 10
-169.000000009973
 20
153.9000000953675
 30
0.0
 11
-169.000000009973
 21
125.4000000953675
 31
0.0
  0
LINE
  5
F4
330
6A
100
AcDbEntity
  8
0
  6
Continuous
 62
     7
100
AcDbLine
 10
-139.250000009973
 20
131.9000000953675
 30
0.0
 11
-138.000000009973
 21
131.9000000953675
 31
0.0
  0
LINE
  5
F5
330
6A
100
AcDbEntity
  8
0
  6
Continuous
 62
     7
100
AcDbLine
 10
-126.7500000099731
 20
131.9000000953675
 30
0.0
 11
-123.7500000099731
 21
131.9000000953675
 31
0.0
  0
LINE
  5
F6
330
6A
100
AcDbEntity
  8
0
  6
Continuous
 62
     7
100
AcDbLine
 10
-144.250000009973
 20
131.9000000953675
 30
0.0
 11
-141.250000009973
 21
131.9000000953675
 31
0.0
  0
LINE
  5
F7
330
6A
100
AcDbEntity
  8
0
  6
Continuous
 62
     7
100
AcDbLine
 10
-107.6602540478175
 20
168.9000000953674
 30
0.0
 11
-160.3397459721286
 21
168.9000000953674
 31
0.0
  0
LINE
  5
F8
330
6A
100
AcDbEntity
  8
0
  6
Continuous
 62
     7
100
AcDbLine
 10
-138.000000009973
 20
129.4000000953675
 30
0.0
 11
-130.0000000099731
 21
129.4000000953675
 31
0.0
  0
LINE
  5
F9
330
6A
100
AcDbEntity
  8
0
  6
Continuous
 62
     7
100
AcDbLine
 10
-138.000000009973
 20
131.9000000953675
 30
0.0
 11
-138.000000009973
 21
129.4000000953675
 31
0.0
  0
LINE
  5
FA
330
6A
100
AcDbEntity
  8
0
  6
Continuous
 62
     7
100
AcDbLine
 10
-130.0000000099731
 20
129.4000000953675
 30
0.0
 11
-130.0000000099731
 21
131.9000000953675
 31
0.0
  0
LINE
  5
FB
330
6A
100
AcDbEntity
  8
0
  6
Continuous
 62
     7
100
AcDbLine
 10
-139.250000009973
 20
129.4000000953675
 30
0.0
 11
-139.250000009973
 21
131.9000000953675
 31
0.0
  0
LINE
  5
FC
330
6A
100
AcDbEntity
  8
0
  6
Continuous
 62
     7
100
AcDbLine
 10
-156.500000009973
 20
128.9000000953675
 30
0.0
 11
-144.250000009973
 21
128.9000000953675
 31
0.0
  0
LINE
  5
FD
330
6A
100
AcDbEntity
  8
0
  6
Continuous
 62
     7
100
AcDbLine
 10
-123.7500000099731
 20
128.9000000953675
 30
0.0
 11
-111.500000009973
 21
128.9000000953674
 31
0.0
  0
LINE
  5
FE
330
6A
100
AcDbEntity
  8
0
  6
Continuous
 62
     7
100
AcDbLine
 10
-141.250000009973
 20
131.9000000953675
 30
0.0
 11
-141.250000009973
 21
129.4000000953675
 31
0.0
  0
LINE
  5
FF
330
6A
100
AcDbEntity
  8
0
  6
Continuous
 62
     7
100
AcDbLine
 10
-144.250000009973
 20
128.9000000953675
 30
0.0
 11
-144.250000009973
 21
131.9000000953675
 31
0.0
  0
LINE
  5
100
330
6A
100
AcDbEntity
  8
0
  6
Continuous
 62
     7
100
AcDbLine
 10
-160.000000009973
 20
125.4000000953675
 30
0.0
 11
-156.500000009973
 21
128.9000000953675
 31
0.0
  0
LINE
  5
101
330
6A
100
AcDbEntity
  8
0
  6
Continuous
 62
     7
100
AcDbLine
 10
-130.0000000099731
 20
131.9000000953675
 30
0.0
 11
-128.7500000099731
 21
131.9000000953675
 31
0.0
  0
LINE
  5
102
330
6A
100
AcDbEntity
  8
0
  6
Continuous
 62
     7
100
AcDbLine
 10
-128.7500000099731
 20
131.9000000953675
 30
0.0
 11
-128.7500000099731
 21
129.4000000953675
 31
0.0
  0
LINE
  5
103
330
6A
100
AcDbEntity
  8
0
  6
Continuous
 62
     7
100
AcDbLine
 10
-126.7500000099731
 20
129.4000000953675
 30
0.0
 11
-126.7500000099731
 21
131.9000000953675
 31
0.0
  0
LINE
  5
104
330
6A
100
AcDbEntity
  8
0
  6
Continuous
 62
     7
100
AcDbLine
 10
-123.7500000099731
 20
131.9000000953675
 30
0.0
 11
-123.7500000099731
 21
128.9000000953675
 31
0.0
  0
LINE
  5
105
330
6A
100
AcDbEntity
  8
0
  6
Continuous
 62
     7
100
AcDbLine
 10
-99.00000000997302
 20
125.4000000953675
 30
0.0
 11
-99.00000000997302
 21
153.9000000953673
 31
0.0
  0
LINE
  5
106
330
6A
100
AcDbEntity
  8
0
  6
Continuous
 62
     7
100
AcDbLine
 10
-169.000000009973
 20
125.4000000953675
 30
0.0
 11
-160.000000009973
 21
125.4000000953675
 31
0.0
  0
LINE
  5
107
330
6A
100
AcDbEntity
  8
0
  6
Continuous
 62
     7
100
AcDbLine
 10
-108.000000009973
 20
125.4000000953674
 30
0.0
 11
-99.00000000997302
 21
125.4000000953675
 31
0.0
  0
LINE
  5
108
330
6A
100
AcDbEntity
  8
0
  6
Continuous
 62
     7
100
AcDbLine
 10
-141.250000009973
 20
129.4000000953675
 30
0.0
 11
-139.250000009973
 21
129.4000000953675
 31
0.0
  0
LINE
  5
109
330
6A
100
AcDbEntity
  8
0
  6
Continuous
 62
     7
100
AcDbLine
 10
-128.7500000099731
 20
129.4000000953675
 30
0.0
 11
-126.7500000099731
 21
129.4000000953675
 31
0.0
  0
LINE
  5
10A
330
6A
100
AcDbEntity
  8
0
  6
Continuous
 62
     7
100
AcDbLine
 10
-111.500000009973
 20
128.9000000953674
 30
0.0
 11
-108.000000009973
 21
125.4000000953674
 31
0.0
  0
LINE
  5
10B
330
6A
100
AcDbEntity
  8
0
  6
Continuous
 62
     7
100
AcDbLine
 10
-99.00000000997302
 20
153.9000000953673
 30
0.0
 11
-107.6602540478175
 21
168.9000000953674
 31
0.0
  0
ENDBLK
  5
6C
330
6A
100
AcDbEntity
  8
0
100
AcDbBlockEnd
  0
BLOCK
  5
6F
330
6D
100
AcDbEntity
  8
0
100
AcDbBlockBegin
  2
Vordans1
 70
     0
 10
-134.0
 20
147.1500000953674
 30
0.0
  3
Vordans1
  1

  0
INSERT
  5
6E
330
6D
100
AcDbEntity
  8
0
100
AcDbBlockReference
  2
TS_URK_ND-select__6
 10
-169.000000009973
 20
125.4000000953674
 30
0.0
  0
DIMENSION
  5
116
330
6D
100
AcDbEntity
  8
1
100
AcDbDimension
  2
*D18
 10
-169.0000000099731
 20
115.4000000953675
 30
0.0
 11
-134.0000000099731
 21
118.6500000953675
 31
0.0
 70
    32
  1
<>
 71
     5
 42
-1.0
 53
0.00013888888889
  3
ME10_DIM_11
100
AcDbAlignedDimension
 13
-99.00000000997302
 23
125.4000000953675
 33
0.0
 14
-169.000000009973
 24
125.4000000953675
 34
0.0
100
AcDbRotatedDimension
  0
DIMENSION
  5
121
330
6D
100
AcDbEntity
  8
1
100
AcDbDimension
  2
*D19
 10
-179.0000000099731
 20
125.4000000953675
 30
0.0
 11
-182.4250000099731
 21
145.426794529168
 31
0.0
 70
    32
  1
<>
 71
     5
 42
-1.0
 53
90.0
  3
ME10_DIM_12
100
AcDbAlignedDimension
 13
-160.3397459721286
 23
168.9000000953674
 33
0.0
 14
-169.000000009973
 24
125.4000000953675
 34
0.0
 50
90.0
100
AcDbRotatedDimension
  0
ENDBLK
  5
70
330
6D
100
AcDbEntity
  8
0
100
AcDbBlockEnd
  0
BLOCK
  5
72
330
71
100
AcDbEntity
  8
0
100
AcDbBlockBegin
  2
_rahmen
 70
     0
 10
49.49999952814942
 20
1.13735863781886
 30
0.0
  3
_rahmen
  1

  0
LINE
  5
122
330
71
100
AcDbEntity
  8
1
  6
Continuous
 62
     6
100
AcDbLine
 10
-80.0448049986006
 20
31.63735863781898
 30
0.0
 11
49.49999952815111
 21
31.63735863781898
 31
0.0
  0
LINE
  5
123
330
71
100
AcDbEntity
  8
1
  6
Continuous
 62
     7
100
AcDbLine
 10
-61.84480499860058
 20
10.38735863781898
 30
0.0
 11
-43.64480499860068
 21
10.38735863781898
 31
0.0
  0
LINE
  5
124
330
71
100
AcDbEntity
  8
1
  6
Continuous
 62
     6
100
AcDbLine
 10
-61.84480499860058
 20
6.13735863781898
 30
0.0
 11
-80.0448049986006
 21
6.13735863781886
 31
0.0
  0
LINE
  5
125
330
71
100
AcDbEntity
  8
1
  6
Continuous
 62
     7
100
AcDbLine
 10
-61.84480499860058
 20
10.38735863781898
 30
0.0
 11
-61.84480499860058
 21
6.13735863781898
 31
0.0
  0
LINE
  5
126
330
71
100
AcDbEntity
  8
1
  6
Continuous
 62
     7
100
AcDbLine
 10
-43.64480499860068
 20
10.38735863781898
 30
0.0
 11
-43.64480499860068
 21
6.13735863781886
 31
0.0
  0
LINE
  5
127
330
71
100
AcDbEntity
  8
1
  6
Continuous
 62
     7
100
AcDbLine
 10
-80.0448049986006
 20
10.38735863781886
 30
0.0
 11
-80.0448049986006
 21
6.13735863781886
 31
0.0
  0
LINE
  5
128
330
71
100
AcDbEntity
  8
1
  6
Continuous
 62
     7
100
AcDbLine
 10
-80.0448049986006
 20
10.38735863781886
 30
0.0
 11
-61.84480499860058
 21
10.38735863781898
 31
0.0
  0
LINE
  5
129
330
71
100
AcDbEntity
  8
1
  6
Continuous
 62
     2
100
AcDbLine
 10
-70.80815011203799
 20
29.76235863781889
 30
0.0
 11
-70.80815011203799
 21
24.76235863781889
 31
0.0
  0
LINE
  5
12A
330
71
100
AcDbEntity
  8
1
  6
Continuous
 62
     2
100
AcDbLine
 10
-70.80815011203799
 20
24.76235863781889
 30
0.0
 11
-75.80815011203799
 21
26.01235863781889
 31
0.0
  0
LINE
  5
12B
330
71
100
AcDbEntity
  8
1
  6
Continuous
 62
     2
100
AcDbLine
 10
-75.80815011203799
 20
26.01235863781889
 30
0.0
 11
-75.80815011203799
 21
28.51235863781889
 31
0.0
  0
LINE
  5
12C
330
71
100
AcDbEntity
  8
1
  6
Continuous
 62
     2
100
AcDbLine
 10
-75.80815011203799
 20
28.51235863781889
 30
0.0
 11
-70.80815011203799
 21
29.76235863781889
 31
0.0
  0
LINE
  5
12D
330
71
100
AcDbEntity
  8
1
  6
Continuous
 62
     6
100
AcDbLine
 10
-202.5000004718488
 20
6.13735863781898
 30
0.0
 11
-237.5000004718487
 21
6.13735863781898
 31
0.0
  0
LINE
  5
12E
330
71
100
AcDbEntity
  8
1
  6
Continuous
 62
     6
100
AcDbLine
 10
49.49999952815111
 20
23.13735863781898
 30
0.0
 11
49.49999952815071
 21
14.63735863781898
 31
0.0
  0
LINE
  5
12F
330
71
100
AcDbEntity
  8
1
  6
Continuous
 62
     6
100
AcDbLine
 10
-43.64480499860068
 20
6.13735863781886
 30
0.0
 11
-44.0000004718506
 21
6.13735863781898
 31
0.0
  0
LINE
  5
130
330
71
100
AcDbEntity
  8
1
  6
Continuous
 62
     6
100
AcDbLine
 10
-196.3000004718508
 20
6.13735863781886
 30
0.0
 11
-202.5000004718488
 21
6.13735863781898
 31
0.0
  0
LINE
  5
131
330
71
100
AcDbEntity
  8
1
  6
Continuous
 62
     7
100
AcDbLine
 10
-43.64480499860068
 20
23.13735863781898
 30
0.0
 11
-43.64480499860068
 21
10.38735863781898
 31
0.0
  0
LINE
  5
132
330
71
100
AcDbEntity
  8
1
  6
Continuous
 62
     7
100
AcDbLine
 10
-80.0448049986006
 20
23.13735863781898
 30
0.0
 11
-80.0448049986006
 21
10.38735863781886
 31
0.0
  0
LINE
  5
133
330
71
100
AcDbEntity
  8
1
  6
Continuous
 62
     6
100
AcDbLine
 10
-94.00000047185057
 20
6.13735863781898
 30
0.0
 11
-144.0000004718508
 21
6.13735863781898
 31
0.0
  0
LINE
  5
134
330
71
100
AcDbEntity
  8
1
  6
Continuous
 62
     6
100
AcDbLine
 10
-196.3000004718508
 20
6.13735863781886
 30
0.0
 11
-194.0000004718506
 21
6.13735863781898
 31
0.0
  0
LINE
  5
135
330
71
100
AcDbEntity
  8
1
  6
Continuous
 62
     6
100
AcDbLine
 10
-43.64480499860068
 20
6.13735863781886
 30
0.0
 11
5.9999995281494
 21
6.13735863781898
 31
0.0
  0
LINE
  5
136
330
71
100
AcDbEntity
  8
1
  6
Continuous
 62
     6
100
AcDbLine
 10
49.49999952814942
 20
6.13735863781898
 30
0.0
 11
49.49999952815071
 21
14.63735863781898
 31
0.0
  0
LINE
  5
137
330
71
100
AcDbEntity
  8
1
  6
Continuous
 62
     2
100
AcDbLine
 10
-242.5000004718497
 20
6.13735863781898
 30
0.0
 11
-242.5000004718497
 21
1.13735863781886
 31
0.0
  0
LINE
  5
138
330
71
100
AcDbEntity
  8
1
  6
Continuous
 62
     2
100
AcDbLine
 10
-237.5000004718487
 20
6.13735863781898
 30
0.0
 11
-242.5000004718497
 21
6.13735863781898
 31
0.0
  0
LINE
  5
139
330
71
100
AcDbEntity
  8
1
  6
Continuous
 62
     2
100
AcDbLine
 10
-237.5000004718487
 20
1.13735863781886
 30
0.0
 11
-194.0000004718506
 21
1.13735863781886
 31
0.0
  0
LINE
  5
13A
330
71
100
AcDbEntity
  8
1
  6
Continuous
 62
     2
100
AcDbLine
 10
-237.5000004718487
 20
6.13735863781898
 30
0.0
 11
-237.5000004718487
 21
1.13735863781886
 31
0.0
  0
LINE
  5
13B
330
71
100
AcDbEntity
  8
1
  6
Continuous
 62
     2
100
AcDbLine
 10
5.9999995281494
 20
1.13735863781886
 30
0.0
 11
-44.0000004718506
 21
1.13735863781886
 31
0.0
  0
LINE
  5
13C
330
71
100
AcDbEntity
  8
1
  6
Continuous
 62
     2
100
AcDbLine
 10
5.9999995281494
 20
1.13735863781886
 30
0.0
 11
5.9999995281494
 21
6.13735863781898
 31
0.0
  0
LINE
  5
13D
330
71
100
AcDbEntity
  8
1
  6
Continuous
 62
     2
100
AcDbLine
 10
-44.0000004718506
 20
1.13735863781886
 30
0.0
 11
-44.0000004718506
 21
6.13735863781898
 31
0.0
  0
LINE
  5
13E
330
71
100
AcDbEntity
  8
1
  6
Continuous
 62
     2
100
AcDbLine
 10
-94.00000047185057
 20
1.13735863781886
 30
0.0
 11
-44.0000004718506
 21
1.13735863781886
 31
0.0
  0
LINE
  5
13F
330
71
100
AcDbEntity
  8
1
  6
Continuous
 62
     2
100
AcDbLine
 10
-94.00000047185057
 20
1.13735863781886
 30
0.0
 11
-94.00000047185057
 21
6.13735863781898
 31
0.0
  0
LINE
  5
140
330
71
100
AcDbEntity
  8
1
  6
Continuous
 62
     2
100
AcDbLine
 10
-144.0000004718508
 20
1.13735863781886
 30
0.0
 11
-94.00000047185057
 21
1.13735863781886
 31
0.0
  0
LINE
  5
141
330
71
100
AcDbEntity
  8
1
  6
Continuous
 62
     2
100
AcDbLine
 10
-144.0000004718508
 20
1.13735863781886
 30
0.0
 11
-144.0000004718508
 21
6.13735863781898
 31
0.0
  0
LINE
  5
142
330
71
100
AcDbEntity
  8
1
  6
Continuous
 62
     2
100
AcDbLine
 10
-194.0000004718506
 20
1.13735863781886
 30
0.0
 11
-144.0000004718508
 21
1.13735863781886
 31
0.0
  0
LINE
  5
143
330
71
100
AcDbEntity
  8
1
  6
Continuous
 62
     2
100
AcDbLine
 10
-194.0000004718506
 20
1.13735863781886
 30
0.0
 11
-194.0000004718506
 21
6.13735863781898
 31
0.0
  0
LINE
  5
144
330
71
100
AcDbEntity
  8
1
  6
Continuous
 62
     6
100
AcDbLine
 10
-237.5000004718489
 20
56.13735863781909
 30
0.0
 11
-237.5000004718487
 21
6.13735863781898
 31
0.0
  0
LINE
  5
145
330
71
100
AcDbEntity
  8
1
  6
Continuous
 62
     2
100
AcDbLine
 10
-242.5000004718497
 20
56.13735863781909
 30
0.0
 11
-242.5000004718497
 21
6.13735863781898
 31
0.0
  0
LINE
  5
146
330
71
100
AcDbEntity
  8
1
  6
Continuous
 62
     2
100
AcDbLine
 10
-242.5000004718497
 20
56.13735863781909
 30
0.0
 11
-237.5000004718489
 21
56.13735863781909
 31
0.0
  0
LINE
  5
147
330
71
100
AcDbEntity
  8
1
  6
Continuous
 62
     6
100
AcDbLine
 10
-237.5000004718491
 20
106.1373586378189
 30
0.0
 11
-237.5000004718489
 21
56.13735863781909
 31
0.0
  0
LINE
  5
148
330
71
100
AcDbEntity
  8
1
  6
Continuous
 62
     2
100
AcDbLine
 10
-242.5000004718497
 20
106.1373586378189
 30
0.0
 11
-242.5000004718497
 21
56.13735863781909
 31
0.0
  0
LINE
  5
149
330
71
100
AcDbEntity
  8
1
  6
Continuous
 62
     2
100
AcDbLine
 10
-242.5000004718497
 20
106.1373586378189
 30
0.0
 11
-237.5000004718491
 21
106.1373586378189
 31
0.0
  0
LINE
  5
14A
330
71
100
AcDbEntity
  8
1
  6
Continuous
 62
     6
100
AcDbLine
 10
-237.5000004718496
 20
156.137358637819
 30
0.0
 11
-237.5000004718491
 21
106.1373586378189
 31
0.0
  0
LINE
  5
14B
330
71
100
AcDbEntity
  8
1
  6
Continuous
 62
     2
100
AcDbLine
 10
-242.5000004718497
 20
156.137358637819
 30
0.0
 11
-242.5000004718497
 21
106.1373586378189
 31
0.0
  0
LINE
  5
14C
330
71
100
AcDbEntity
  8
1
  6
Continuous
 62
     2
100
AcDbLine
 10
-242.5000004718497
 20
156.137358637819
 30
0.0
 11
-237.5000004718496
 21
156.137358637819
 31
0.0
  0
LINE
  5
14D
330
71
100
AcDbEntity
  8
1
  6
Continuous
 62
     6
100
AcDbLine
 10
-237.5000004718497
 20
191.137358637819
 30
0.0
 11
-237.5000004718496
 21
156.137358637819
 31
0.0
  0
LINE
  5
14E
330
71
100
AcDbEntity
  8
1
  6
Continuous
 62
     2
100
AcDbLine
 10
-242.5000004718497
 20
211.137358637819
 30
0.0
 11
-242.5000004718497
 21
156.137358637819
 31
0.0
  0
LINE
  5
14F
330
71
100
AcDbEntity
  8
1
  6
Continuous
 62
     2
100
AcDbLine
 10
-242.5000004718497
 20
1.13735863781886
 30
0.0
 11
-237.5000004718487
 21
1.13735863781886
 31
0.0
  0
LINE
  5
150
330
71
100
AcDbEntity
  8
1
  6
Continuous
 62
     2
100
AcDbLine
 10
-94.00000047185057
 20
211.137358637819
 30
0.0
 11
-94.00000047185057
 21
201.9286667931177
 31
0.0
  0
LINE
  5
151
330
71
100
AcDbEntity
  8
1
  6
Continuous
 62
     2
100
AcDbLine
 10
-94.00000047185057
 20
211.137358637819
 30
0.0
 11
-242.5000004718497
 21
211.137358637819
 31
0.0
  0
LINE
  5
152
330
71
100
AcDbEntity
  8
1
  6
Continuous
 62
     2
100
AcDbLine
 10
54.49999952814841
 20
6.13735863781898
 30
0.0
 11
54.49999952814841
 21
56.13735863781909
 31
0.0
  0
LINE
  5
153
330
71
100
AcDbEntity
  8
1
  6
Continuous
 62
     2
100
AcDbLine
 10
54.49999952814841
 20
156.137358637819
 30
0.0
 11
54.49999952814841
 21
211.137358637819
 31
0.0
  0
LINE
  5
154
330
71
100
AcDbEntity
  8
1
  6
Continuous
 62
     6
100
AcDbLine
 10
49.49999952814861
 20
156.137358637819
 30
0.0
 11
49.49999952814841
 21
191.137358637819
 31
0.0
  0
LINE
  5
155
330
71
100
AcDbEntity
  8
1
  6
Continuous
 62
     2
100
AcDbLine
 10
49.49999952814861
 20
156.137358637819
 30
0.0
 11
54.49999952814841
 21
156.137358637819
 31
0.0
  0
LINE
  5
156
330
71
100
AcDbEntity
  8
1
  6
Continuous
 62
     2
100
AcDbLine
 10
54.49999952814841
 20
106.1373586378189
 30
0.0
 11
54.49999952814841
 21
156.137358637819
 31
0.0
  0
LINE
  5
157
330
71
100
AcDbEntity
  8
1
  6
Continuous
 62
     6
100
AcDbLine
 10
49.49999952814981
 20
106.1373586378189
 30
0.0
 11
49.49999952814861
 21
156.137358637819
 31
0.0
  0
LINE
  5
158
330
71
100
AcDbEntity
  8
1
  6
Continuous
 62
     2
100
AcDbLine
 10
49.49999952814981
 20
106.1373586378189
 30
0.0
 11
54.49999952814841
 21
106.1373586378189
 31
0.0
  0
LINE
  5
159
330
71
100
AcDbEntity
  8
1
  6
Continuous
 62
     2
100
AcDbLine
 10
54.49999952814841
 20
56.13735863781909
 30
0.0
 11
54.49999952814841
 21
106.1373586378189
 31
0.0
  0
LINE
  5
15A
330
71
100
AcDbEntity
  8
1
  6
Continuous
 62
     6
100
AcDbLine
 10
49.49999952815031
 20
56.13735863781909
 30
0.0
 11
49.49999952814981
 21
106.1373586378189
 31
0.0
  0
LINE
  5
15B
330
71
100
AcDbEntity
  8
1
  6
Continuous
 62
     2
100
AcDbLine
 10
49.49999952815031
 20
56.13735863781909
 30
0.0
 11
54.49999952814841
 21
56.13735863781909
 31
0.0
  0
LINE
  5
15C
330
71
100
AcDbEntity
  8
1
  6
Continuous
 62
     6
100
AcDbLine
 10
49.49999952814841
 20
191.137358637819
 30
0.0
 11
-237.5000004718497
 21
191.137358637819
 31
0.0
  0
LINE
  5
15D
330
71
100
AcDbEntity
  8
1
  6
Continuous
 62
     2
100
AcDbLine
 10
54.49999952814841
 20
211.137358637819
 30
0.0
 11
-94.00000047185057
 21
211.137358637819
 31
0.0
  0
LINE
  5
15E
330
71
100
AcDbEntity
  8
1
  6
Continuous
 62
     6
100
AcDbLine
 10
49.49999952815111
 20
23.13735863781898
 30
0.0
 11
49.49999952815031
 21
56.13735863781909
 31
0.0
  0
LINE
  5
15F
330
71
100
AcDbEntity
  8
1
  6
Continuous
 62
     2
100
AcDbLine
 10
49.49999952814942
 20
1.13735863781886
 30
0.0
 11
5.9999995281494
 21
1.13735863781886
 31
0.0
  0
LINE
  5
160
330
71
100
AcDbEntity
  8
1
  6
Continuous
 62
     2
100
AcDbLine
 10
54.49999952814841
 20
1.13735863781886
 30
0.0
 11
49.49999952814942
 21
1.13735863781886
 31
0.0
  0
LINE
  5
161
330
71
100
AcDbEntity
  8
1
  6
Continuous
 62
     2
100
AcDbLine
 10
54.49999952814841
 20
1.13735863781886
 30
0.0
 11
54.49999952814841
 21
6.13735863781898
 31
0.0
  0
LINE
  5
162
330
71
100
AcDbEntity
  8
1
  6
Continuous
 62
     6
100
AcDbLine
 10
-80.0448049986006
 20
23.13735863781898
 30
0.0
 11
-43.64480499860068
 21
23.13735863781898
 31
0.0
  0
LINE
  5
163
330
71
100
AcDbEntity
  8
1
  6
Continuous
 62
     2
100
AcDbLine
 10
49.49999952814942
 20
6.13735863781898
 30
0.0
 11
49.49999952814942
 21
1.13735863781886
 31
0.0
  0
LINE
  5
164
330
71
100
AcDbEntity
  8
1
  6
Continuous
 62
     2
100
AcDbLine
 10
49.49999952814942
 20
6.13735863781898
 30
0.0
 11
54.49999952814841
 21
6.13735863781898
 31
0.0
  0
LINE
  5
165
330
71
100
AcDbEntity
  8
1
  6
Continuous
 62
     6
100
AcDbLine
 10
-44.0000004718506
 20
6.13735863781898
 30
0.0
 11
-61.84480499860058
 21
6.13735863781898
 31
0.0
  0
LINE
  5
166
330
71
100
AcDbEntity
  8
1
  6
Continuous
 62
     6
100
AcDbLine
 10
5.9999995281494
 20
6.13735863781898
 30
0.0
 11
49.49999952814942
 21
6.13735863781898
 31
0.0
  0
LINE
  5
167
330
71
100
AcDbEntity
  8
1
  6
Continuous
 62
     6
100
AcDbLine
 10
-144.0000004718508
 20
6.13735863781898
 30
0.0
 11
-149.0448049986006
 21
6.13735863781898
 31
0.0
  0
LINE
  5
168
330
71
100
AcDbEntity
  8
1
  6
Continuous
 62
     6
100
AcDbLine
 10
-94.00000047185057
 20
6.13735863781898
 30
0.0
 11
-80.0448049986006
 21
6.13735863781886
 31
0.0
  0
LINE
  5
169
102
{ACAD_REACTORS
330
253
330
254
102
}
330
71
100
AcDbEntity
  8
0
  6
Continuous
 62
     2
100
AcDbLine
 10
-72.53017905645379
 20
18.20987339403109
 30
0.0
 11
-72.53017905645379
 21
18.81540868253788
 31
0.0
  0
LINE
  5
16A
102
{ACAD_REACTORS
330
253
330
254
102
}
330
71
100
AcDbEntity
  8
0
  6
Continuous
 62
     2
100
AcDbLine
 10
-72.53017905645379
 20
15.40973878739979
 30
0.0
 11
-72.53017905645379
 21
15.99159019409487
 31
0.0
  0
LINE
  5
16B
102
{ACAD_REACTORS
330
255
330
256
102
}
330
71
100
AcDbEntity
  8
0
  6
Continuous
 62
     2
100
AcDbLine
 10
-49.90069262097458
 20
15.69940285552278
 30
0.0
 11
-49.90069262097458
 21
13.43085863783529
 31
0.0
  0
LINE
  5
16C
102
{ACAD_REACTORS
330
255
330
256
102
}
330
71
100
AcDbEntity
  8
0
  6
Continuous
 62
     2
100
AcDbLine
 10
-51.28174639996217
 20
16.48466816164589
 30
0.0
 11
-47.89680088133349
 21
16.48466816164637
 31
0.0
  0
LINE
  5
16D
102
{ACAD_REACTORS
330
255
330
256
102
}
330
71
100
AcDbEntity
  8
0
  6
Continuous
 62
     2
100
AcDbLine
 10
-47.89680088133349
 20
15.69940285552278
 30
0.0
 11
-47.89680088133349
 21
16.48466816164637
 31
0.0
  0
LINE
  5
16E
102
{ACAD_REACTORS
330
255
330
256
102
}
330
71
100
AcDbEntity
  8
0
  6
Continuous
 62
     2
100
AcDbLine
 10
-48.70789991880687
 20
15.69940285552278
 30
0.0
 11
-47.89680088133349
 21
15.69940285552278
 31
0.0
  0
LINE
  5
16F
102
{ACAD_REACTORS
330
255
330
256
102
}
330
71
100
AcDbEntity
  8
0
  6
Continuous
 62
     2
100
AcDbLine
 10
-48.70789991880687
 20
13.43085863783529
 30
0.0
 11
-48.70789991880687
 21
15.69940285552278
 31
0.0
  0
LINE
  5
170
102
{ACAD_REACTORS
330
255
330
256
102
}
330
71
100
AcDbEntity
  8
0
  6
Continuous
 62
     2
100
AcDbLine
 10
-49.90069262097458
 20
13.43085863783529
 30
0.0
 11
-48.70789991880687
 21
13.43085863783529
 31
0.0
  0
LINE
  5
171
102
{ACAD_REACTORS
330
24B
330
24C
102
}
330
71
100
AcDbEntity
  8
0
  6
Continuous
 62
     2
100
AcDbLine
 10
-50.59728355903908
 20
19.84385863782077
 30
0.0
 11
-52.00000777678838
 21
19.84385863782077
 31
0.0
  0
LINE
  5
172
102
{ACAD_REACTORS
330
24B
330
24C
102
}
330
71
100
AcDbEntity
  8
0
  6
Continuous
 62
     2
100
AcDbLine
 10
-50.59728355903908
 20
19.84385863782077
 30
0.0
 11
-49.99611603714729
 21
19.16403531626528
 31
0.0
  0
LINE
  5
173
102
{ACAD_REACTORS
330
24B
330
24C
102
}
330
71
100
AcDbEntity
  8
0
  6
Continuous
 62
     2
100
AcDbLine
 10
-49.99611603714729
 20
19.16403531626528
 30
0.0
 11
-49.3949485152545
 21
19.84385863782077
 31
0.0
  0
LINE
  5
174
102
{ACAD_REACTORS
330
24B
330
24C
102
}
330
71
100
AcDbEntity
  8
0
  6
Continuous
 62
     2
100
AcDbLine
 10
-49.29475392827379
 20
18.37090810778457
 30
0.0
 11
-47.99222429750728
 21
19.84385863782077
 31
0.0
  0
LINE
  5
175
102
{ACAD_REACTORS
330
24B
330
24C
102
}
330
71
100
AcDbEntity
  8
0
  6
Continuous
 62
     2
100
AcDbLine
 10
-49.29475392827379
 20
18.37090810778457
 30
0.0
 11
-47.89680088133349
 21
16.79004911400958
 31
0.0
  0
LINE
  5
176
102
{ACAD_REACTORS
330
24B
330
24C
102
}
330
71
100
AcDbEntity
  8
0
  6
Continuous
 62
     2
100
AcDbLine
 10
-49.29952509908179
 20
16.79004911400958
 30
0.0
 11
-47.89680088133349
 21
16.79004911400958
 31
0.0
  0
LINE
  5
177
102
{ACAD_REACTORS
330
24B
330
24C
102
}
330
71
100
AcDbEntity
  8
0
  6
Continuous
 62
     2
100
AcDbLine
 10
-49.99611603714729
 20
17.57778089930329
 30
0.0
 11
-49.29952509908179
 21
16.79004911400958
 31
0.0
  0
LINE
  5
178
102
{ACAD_REACTORS
330
249
330
24A
102
}
330
71
100
AcDbEntity
  8
0
  6
Continuous
 62
     2
100
AcDbLine
 10
-53.45521487343098
 20
19.84385863782077
 30
0.0
 11
-52.21471046317808
 21
19.84385863782077
 31
0.0
  0
LINE
  5
179
102
{ACAD_REACTORS
330
249
330
24A
102
}
330
71
100
AcDbEntity
  8
0
  6
Continuous
 62
     2
100
AcDbLine
 10
-52.21471046317808
 20
19.84385863782077
 30
0.0
 11
-52.21471046317808
 21
16.79004911400958
 31
0.0
  0
LINE
  5
17A
102
{ACAD_REACTORS
330
249
330
24A
102
}
330
71
100
AcDbEntity
  8
0
  6
Continuous
 62
     2
100
AcDbLine
 10
-53.45521487343098
 20
16.79004911400958
 30
0.0
 11
-53.45521487343098
 21
19.84385863782077
 31
0.0
  0
LINE
  5
17B
102
{ACAD_REACTORS
330
247
330
248
102
}
330
71
100
AcDbEntity
  8
0
  6
Continuous
 62
     2
100
AcDbLine
 10
-54.92352495596859
 20
14.65238244735977
 30
0.0
 11
-54.62335971877619
 21
15.42019741334647
 31
0.0
  0
LINE
  5
17C
102
{ACAD_REACTORS
330
247
330
248
102
}
330
71
100
AcDbEntity
  8
0
  6
Continuous
 62
     2
100
AcDbLine
 10
-55.4010605605894
 20
13.43085863783529
 30
0.0
 11
-55.18958050711359
 21
13.97181918205317
 31
0.0
  0
LINE
  5
17D
102
{ACAD_REACTORS
330
247
330
248
102
}
330
71
100
AcDbEntity
  8
0
  6
Continuous
 62
     2
100
AcDbLine
 10
-55.24361192390308
 20
16.48466816164637
 30
0.0
 11
-56.64156497084238
 21
13.43085863783529
 31
0.0
  0
LINE
  5
17E
102
{ACAD_REACTORS
330
247
330
248
102
}
330
71
100
AcDbEntity
  8
0
  6
Continuous
 62
     2
100
AcDbLine
 10
-52.60515446671008
 20
13.43085863783529
 30
0.0
 11
-53.845658876964
 21
13.43085863783529
 31
0.0
  0
LINE
  5
17F
102
{ACAD_REACTORS
330
247
330
248
102
}
330
71
100
AcDbEntity
  8
0
  6
Continuous
 62
     2
100
AcDbLine
 10
-55.18958050711359
 20
13.97181918205317
 30
0.0
 11
-54.05713893043978
 21
13.97181918205317
 31
0.0
  0
LINE
  5
180
102
{ACAD_REACTORS
330
245
330
246
102
}
330
71
100
AcDbEntity
  8
0
  6
Continuous
 62
     2
100
AcDbLine
 10
-58.7990771100246
 20
15.69940285552278
 30
0.0
 11
-57.98797807254999
 21
15.69940285552278
 31
0.0
  0
LINE
  5
181
102
{ACAD_REACTORS
330
245
330
246
102
}
330
71
100
AcDbEntity
  8
0
  6
Continuous
 62
     2
100
AcDbLine
 10
-55.98408633291098
 20
16.48466816164637
 30
0.0
 11
-58.7990771100246
 21
16.48466816164637
 31
0.0
  0
LINE
  5
182
102
{ACAD_REACTORS
330
245
330
246
102
}
330
71
100
AcDbEntity
  8
0
  6
Continuous
 62
     2
100
AcDbLine
 10
-55.98408633291098
 20
15.69940285552278
 30
0.0
 11
-55.98408633291098
 21
16.48466816164637
 31
0.0
  0
LINE
  5
183
102
{ACAD_REACTORS
330
245
330
246
102
}
330
71
100
AcDbEntity
  8
0
  6
Continuous
 62
     2
100
AcDbLine
 10
-56.79518537038348
 20
15.69940285552278
 30
0.0
 11
-55.98408633291098
 21
15.69940285552278
 31
0.0
  0
LINE
  5
184
102
{ACAD_REACTORS
330
245
330
246
102
}
330
71
100
AcDbEntity
  8
0
  6
Continuous
 62
     2
100
AcDbLine
 10
-56.79518537038348
 20
13.43085863783529
 30
0.0
 11
-56.79518537038348
 21
15.69940285552278
 31
0.0
  0
LINE
  5
185
102
{ACAD_REACTORS
330
243
330
244
102
}
330
71
100
AcDbEntity
  8
0
  6
Continuous
 62
     2
100
AcDbLine
 10
-56.12707052628548
 20
16.79004911400958
 30
0.0
 11
-56.12707052628548
 21
18.09882462421427
 31
0.0
  0
LINE
  5
186
102
{ACAD_REACTORS
330
243
330
244
102
}
330
71
100
AcDbEntity
  8
0
  6
Continuous
 62
     2
100
AcDbLine
 10
-57.31986322845199
 20
19.84385863782077
 30
0.0
 11
-57.31986322845199
 21
16.79004911400958
 31
0.0
  0
LINE
  5
187
102
{ACAD_REACTORS
330
243
330
244
102
}
330
71
100
AcDbEntity
  8
0
  6
Continuous
 62
     2
100
AcDbLine
 10
-56.12707052628548
 20
19.84385863782077
 30
0.0
 11
-57.31986322845199
 21
19.84385863782077
 31
0.0
  0
LINE
  5
188
102
{ACAD_REACTORS
330
243
330
244
102
}
330
71
100
AcDbEntity
  8
0
  6
Continuous
 62
     2
100
AcDbLine
 10
-54.88656611603147
 20
19.84385863782077
 30
0.0
 11
-54.88656611603147
 21
18.53508312761559
 31
0.0
  0
LINE
  5
189
102
{ACAD_REACTORS
330
241
330
242
102
}
330
71
100
AcDbEntity
  8
0
  6
Continuous
 62
     2
100
AcDbLine
 10
-62.56830204887169
 20
16.48466816164637
 30
0.0
 11
-62.56830204887169
 21
13.43085863783529
 31
0.0
  0
LINE
  5
18A
102
{ACAD_REACTORS
330
241
330
242
102
}
330
71
100
AcDbEntity
  8
0
  6
Continuous
 62
     2
100
AcDbLine
 10
-61.37550934670409
 20
16.48466816164637
 30
0.0
 11
-62.56830204887169
 21
16.48466816164637
 31
0.0
  0
LINE
  5
18B
102
{ACAD_REACTORS
330
241
330
242
102
}
330
71
100
AcDbEntity
  8
0
  6
Continuous
 62
     2
100
AcDbLine
 10
-60.1350049364512
 20
13.43085863783529
 30
0.0
 11
-58.9422122342848
 21
13.43085863783529
 31
0.0
  0
LINE
  5
18C
102
{ACAD_REACTORS
330
241
330
242
102
}
330
71
100
AcDbEntity
  8
0
  6
Continuous
 62
     2
100
AcDbLine
 10
-62.56830204887169
 20
13.43085863783529
 30
0.0
 11
-61.37550934670409
 21
13.43085863783529
 31
0.0
  0
LINE
  5
18D
102
{ACAD_REACTORS
330
251
330
252
102
}
330
71
100
AcDbEntity
  8
0
  6
Continuous
 62
     2
100
AcDbLine
 10
-58.89434959531258
 20
18.66596067863608
 30
0.0
 11
-58.89434959531258
 21
19.14584503237779
 31
0.0
  0
LINE
  5
18E
102
{ACAD_REACTORS
330
251
330
252
102
}
330
71
100
AcDbEntity
  8
0
  6
Continuous
 62
     2
100
AcDbLine
 10
-57.5584217688849
 20
18.66596067863608
 30
0.0
 11
-58.89434959531258
 21
18.66596067863608
 31
0.0
  0
LINE
  5
18F
102
{ACAD_REACTORS
330
251
330
252
102
}
330
71
100
AcDbEntity
  8
0
  6
Continuous
 62
     2
100
AcDbLine
 10
-57.5584217688849
 20
17.96794707319378
 30
0.0
 11
-57.5584217688849
 21
18.66596067863608
 31
0.0
  0
LINE
  5
190
102
{ACAD_REACTORS
330
251
330
252
102
}
330
71
100
AcDbEntity
  8
0
  6
Continuous
 62
     2
100
AcDbLine
 10
-58.89434959531258
 20
17.96794707319378
 30
0.0
 11
-57.5584217688849
 21
17.96794707319378
 31
0.0
  0
LINE
  5
191
102
{ACAD_REACTORS
330
23F
330
240
102
}
330
71
100
AcDbEntity
  8
0
  6
Continuous
 62
     2
100
AcDbLine
 10
-62.3773042856395
 20
19.84385863782077
 30
0.0
 11
-62.3773042856395
 21
16.79004911400958
 31
0.0
  0
LINE
  5
192
102
{ACAD_REACTORS
330
23F
330
240
102
}
330
71
100
AcDbEntity
  8
0
  6
Continuous
 62
     2
100
AcDbLine
 10
-62.3773042856395
 20
16.79004911400958
 30
0.0
 11
-63.5700969878059
 21
16.79004911400958
 31
0.0
  0
LINE
  5
193
102
{ACAD_REACTORS
330
23F
330
240
102
}
330
71
100
AcDbEntity
  8
0
  6
Continuous
 62
     2
100
AcDbLine
 10
-63.5700969878059
 20
16.79004911400958
 30
0.0
 11
-63.5700969878059
 21
17.92432122285339
 31
0.0
  0
LINE
  5
194
102
{ACAD_REACTORS
330
23F
330
240
102
}
330
71
100
AcDbEntity
  8
0
  6
Continuous
 62
     2
100
AcDbLine
 10
-64.61975456571338
 20
16.79004911400958
 30
0.0
 11
-65.81254726787998
 21
16.79004911400958
 31
0.0
  0
LINE
  5
195
102
{ACAD_REACTORS
330
23F
330
240
102
}
330
71
100
AcDbEntity
  8
0
  6
Continuous
 62
     2
100
AcDbLine
 10
-65.81254726787998
 20
19.84385863782077
 30
0.0
 11
-64.61975456571338
 21
19.84385863782077
 31
0.0
  0
LINE
  5
196
102
{ACAD_REACTORS
330
23F
330
240
102
}
330
71
100
AcDbEntity
  8
0
  6
Continuous
 62
     2
100
AcDbLine
 10
-64.61975456571338
 20
19.84385863782077
 30
0.0
 11
-64.61975456571338
 21
18.77502530448618
 31
0.0
  0
LINE
  5
197
102
{ACAD_REACTORS
330
23F
330
240
102
}
330
71
100
AcDbEntity
  8
0
  6
Continuous
 62
     2
100
AcDbLine
 10
-64.61975456571338
 20
18.77502530448618
 30
0.0
 11
-63.5700969878059
 21
18.77502530448618
 31
0.0
  0
LINE
  5
198
102
{ACAD_REACTORS
330
24D
330
24E
102
}
330
71
100
AcDbEntity
  8
0
  6
Continuous
 62
     2
100
AcDbLine
 10
-67.76872729943358
 20
19.18075279238067
 30
0.0
 11
-67.45143223789168
 21
19.18075279238067
 31
0.0
  0
LINE
  5
199
102
{ACAD_REACTORS
330
24D
330
24E
102
}
330
71
100
AcDbEntity
  8
0
  6
Continuous
 62
     2
100
AcDbLine
 10
-67.76872729943358
 20
18.47502514303847
 30
0.0
 11
-67.45143223789168
 21
18.47502514303847
 31
0.0
  0
LINE
  5
19A
102
{ACAD_REACTORS
330
24D
330
24E
102
}
330
71
100
AcDbEntity
  8
0
  6
Continuous
 62
     2
100
AcDbLine
 10
-69.0092317096877
 20
19.84385863782077
 30
0.0
 11
-69.0092317096877
 21
16.79004911400958
 31
0.0
  0
LINE
  5
19B
102
{ACAD_REACTORS
330
24D
330
24E
102
}
330
71
100
AcDbEntity
  8
0
  6
Continuous
 62
     2
100
AcDbLine
 10
-69.0092317096877
 20
19.84385863782077
 30
0.0
 11
-67.0099597116533
 21
19.84385863782077
 31
0.0
  0
LINE
  5
19C
102
{ACAD_REACTORS
330
24D
330
24E
102
}
330
71
100
AcDbEntity
  8
0
  6
Continuous
 62
     2
100
AcDbLine
 10
-67.76872729943358
 20
17.73312735515339
 30
0.0
 11
-67.0099597116533
 21
17.73312735515339
 31
0.0
  0
LINE
  5
19D
102
{ACAD_REACTORS
330
253
330
254
102
}
330
71
100
AcDbEntity
  8
0
  6
Continuous
 62
     2
100
AcDbLine
 10
-75.10572774298439
 20
18.81558615918598
 30
0.0
 11
-75.10572774298439
 21
14.45913111646888
 31
0.0
  0
LINE
  5
19E
102
{ACAD_REACTORS
330
253
330
254
102
}
330
71
100
AcDbEntity
  8
0
  6
Continuous
 62
     2
100
AcDbLine
 10
-74.7900108199087
 20
19.13130308226218
 30
0.0
 11
-73.31417755889908
 21
19.13130308226218
 31
0.0
  0
LINE
  5
19F
102
{ACAD_REACTORS
330
253
330
254
102
}
330
71
100
AcDbEntity
  8
0
  6
Continuous
 62
     2
100
AcDbLine
 10
-72.99846063582248
 20
18.21156154012547
 30
0.0
 11
-72.99846063582248
 21
18.81558615918598
 31
0.0
  0
LINE
  5
1A0
102
{ACAD_REACTORS
330
253
330
254
102
}
330
71
100
AcDbEntity
  8
0
  6
Continuous
 62
     2
100
AcDbLine
 10
-72.99846063582248
 20
14.45913111646888
 30
0.0
 11
-72.99846063582248
 21
15.98990204800049
 31
0.0
  0
LINE
  5
1A1
102
{ACAD_REACTORS
330
253
330
254
102
}
330
71
100
AcDbEntity
  8
0
  6
Continuous
 62
     2
100
AcDbLine
 10
-69.91059340593839
 20
13.43085863783529
 30
0.0
 11
-75.38390549665519
 21
13.43085863783529
 31
0.0
  0
LINE
  5
1A2
102
{ACAD_REACTORS
330
253
330
254
102
}
330
71
100
AcDbEntity
  8
0
  6
Continuous
 62
     2
100
AcDbLine
 10
-69.4863487905545
 20
19.41961402241878
 30
0.0
 11
-69.4863487905545
 21
13.85510325321857
 31
0.0
  0
LINE
  5
1A3
102
{ACAD_REACTORS
330
253
330
254
102
}
330
71
100
AcDbEntity
  8
0
  6
Continuous
 62
     2
100
AcDbLine
 10
-75.38390549665519
 20
19.84385863780258
 30
0.0
 11
-69.91059340593839
 21
19.84385863780258
 31
0.0
  0
LINE
  5
1A4
102
{ACAD_REACTORS
330
253
330
254
102
}
330
71
100
AcDbEntity
  8
0
  6
Continuous
 62
     2
100
AcDbLine
 10
-75.80815011203799
 20
19.41961402241878
 30
0.0
 11
-75.80815011203799
 21
13.85510325321857
 31
0.0
  0
LINE
  5
1A5
102
{ACAD_REACTORS
330
253
330
254
102
}
330
71
100
AcDbEntity
  8
0
  6
Continuous
 62
     2
100
AcDbLine
 10
-73.31417755889908
 20
14.14341419339218
 30
0.0
 11
-74.7900108199087
 21
14.14341419339218
 31
0.0
  0
LINE
  5
1A6
102
{ACAD_REACTORS
330
24D
330
24E
102
}
330
71
100
AcDbEntity
  8
0
  6
Continuous
 62
     2
100
AcDbLine
 10
-67.76872729943358
 20
16.79004911400958
 30
0.0
 11
-67.76872729943358
 21
17.73312735515339
 31
0.0
  0
LINE
  5
1A7
102
{ACAD_REACTORS
330
24D
330
24E
102
}
330
71
100
AcDbEntity
  8
0
  6
Continuous
 62
     2
100
AcDbLine
 10
-69.0092317096877
 20
16.79004911400958
 30
0.0
 11
-67.76872729943358
 21
16.79004911400958
 31
0.0
  0
LINE
  5
1A8
102
{ACAD_REACTORS
330
24D
330
24E
102
}
330
71
100
AcDbEntity
  8
0
  6
Continuous
 62
     2
100
AcDbLine
 10
-67.76872729943358
 20
18.47502514303847
 30
0.0
 11
-67.76872729943358
 21
19.18075279238067
 31
0.0
  0
LINE
  5
1A9
102
{ACAD_REACTORS
330
23F
330
240
102
}
330
71
100
AcDbEntity
  8
0
  6
Continuous
 62
     2
100
AcDbLine
 10
-65.81254726787998
 20
19.84385863782077
 30
0.0
 11
-65.81254726787998
 21
16.79004911400958
 31
0.0
  0
LINE
  5
1AA
102
{ACAD_REACTORS
330
23F
330
240
102
}
330
71
100
AcDbEntity
  8
0
  6
Continuous
 62
     2
100
AcDbLine
 10
-64.61975456571338
 20
17.92432122285339
 30
0.0
 11
-64.61975456571338
 21
16.79004911400958
 31
0.0
  0
LINE
  5
1AB
102
{ACAD_REACTORS
330
23F
330
240
102
}
330
71
100
AcDbEntity
  8
0
  6
Continuous
 62
     2
100
AcDbLine
 10
-63.5700969878059
 20
17.92432122285339
 30
0.0
 11
-64.61975456571338
 21
17.92432122285339
 31
0.0
  0
LINE
  5
1AC
102
{ACAD_REACTORS
330
23F
330
240
102
}
330
71
100
AcDbEntity
  8
0
  6
Continuous
 62
     2
100
AcDbLine
 10
-63.5700969878059
 20
19.84385863782077
 30
0.0
 11
-62.3773042856395
 21
19.84385863782077
 31
0.0
  0
LINE
  5
1AD
102
{ACAD_REACTORS
330
23F
330
240
102
}
330
71
100
AcDbEntity
  8
0
  6
Continuous
 62
     2
100
AcDbLine
 10
-63.5700969878059
 20
18.77502530448618
 30
0.0
 11
-63.5700969878059
 21
19.84385863782077
 31
0.0
  0
LINE
  5
1AE
102
{ACAD_REACTORS
330
251
330
252
102
}
330
71
100
AcDbEntity
  8
0
  6
Continuous
 62
     2
100
AcDbLine
 10
-57.5584217688849
 20
19.14584503237779
 30
0.0
 11
-57.5584217688849
 21
19.84385863782077
 31
0.0
  0
LINE
  5
1AF
102
{ACAD_REACTORS
330
251
330
252
102
}
330
71
100
AcDbEntity
  8
0
  6
Continuous
 62
     2
100
AcDbLine
 10
-60.70874149266589
 20
19.84385863782077
 30
0.0
 11
-57.5584217688849
 21
19.84385863782077
 31
0.0
  0
LINE
  5
1B0
102
{ACAD_REACTORS
330
251
330
252
102
}
330
71
100
AcDbEntity
  8
0
  6
Continuous
 62
     2
100
AcDbLine
 10
-60.70874149266589
 20
16.79004911400958
 30
0.0
 11
-57.5584217688849
 21
16.79004911400958
 31
0.0
  0
LINE
  5
1B1
102
{ACAD_REACTORS
330
251
330
252
102
}
330
71
100
AcDbEntity
  8
0
  6
Continuous
 62
     2
100
AcDbLine
 10
-57.5584217688849
 20
16.79004911400958
 30
0.0
 11
-57.5584217688849
 21
17.48806271945207
 31
0.0
  0
LINE
  5
1B2
102
{ACAD_REACTORS
330
251
330
252
102
}
330
71
100
AcDbEntity
  8
0
  6
Continuous
 62
     2
100
AcDbLine
 10
-57.5584217688849
 20
17.48806271945207
 30
0.0
 11
-58.89434959531258
 21
17.48806271945207
 31
0.0
  0
LINE
  5
1B3
102
{ACAD_REACTORS
330
251
330
252
102
}
330
71
100
AcDbEntity
  8
0
  6
Continuous
 62
     2
100
AcDbLine
 10
-58.89434959531258
 20
17.48806271945207
 30
0.0
 11
-58.89434959531258
 21
17.96794707319378
 31
0.0
  0
LINE
  5
1B4
102
{ACAD_REACTORS
330
251
330
252
102
}
330
71
100
AcDbEntity
  8
0
  6
Continuous
 62
     2
100
AcDbLine
 10
-58.89434959531258
 20
19.14584503237779
 30
0.0
 11
-57.5584217688849
 21
19.14584503237779
 31
0.0
  0
LINE
  5
1B5
102
{ACAD_REACTORS
330
241
330
242
102
}
330
71
100
AcDbEntity
  8
0
  6
Continuous
 62
     2
100
AcDbLine
 10
-61.37550934670409
 20
13.43085863783529
 30
0.0
 11
-61.37550934670409
 21
14.73963414803987
 31
0.0
  0
LINE
  5
1B6
102
{ACAD_REACTORS
330
241
330
242
102
}
330
71
100
AcDbEntity
  8
0
  6
Continuous
 62
     2
100
AcDbLine
 10
-61.37550934670409
 20
14.73963414803987
 30
0.0
 11
-60.1350049364512
 21
13.43085863783529
 31
0.0
  0
LINE
  5
1B7
102
{ACAD_REACTORS
330
241
330
242
102
}
330
71
100
AcDbEntity
  8
0
  6
Continuous
 62
     2
100
AcDbLine
 10
-58.9422122342848
 20
13.43085863783529
 30
0.0
 11
-58.9422122342848
 21
16.48466816164637
 31
0.0
  0
LINE
  5
1B8
102
{ACAD_REACTORS
330
241
330
242
102
}
330
71
100
AcDbEntity
  8
0
  6
Continuous
 62
     2
100
AcDbLine
 10
-58.9422122342848
 20
16.48466816164637
 30
0.0
 11
-60.1350049364512
 21
16.48466816164637
 31
0.0
  0
LINE
  5
1B9
102
{ACAD_REACTORS
330
241
330
242
102
}
330
71
100
AcDbEntity
  8
0
  6
Continuous
 62
     2
100
AcDbLine
 10
-60.1350049364512
 20
16.48466816164637
 30
0.0
 11
-60.1350049364512
 21
15.17589265144127
 31
0.0
  0
LINE
  5
1BA
102
{ACAD_REACTORS
330
241
330
242
102
}
330
71
100
AcDbEntity
  8
0
  6
Continuous
 62
     2
100
AcDbLine
 10
-60.1350049364512
 20
15.17589265144127
 30
0.0
 11
-61.37550934670409
 21
16.48466816164637
 31
0.0
  0
LINE
  5
1BB
102
{ACAD_REACTORS
330
243
330
244
102
}
330
71
100
AcDbEntity
  8
0
  6
Continuous
 62
     2
100
AcDbLine
 10
-56.12707052628548
 20
18.09882462421427
 30
0.0
 11
-54.88656611603147
 21
16.79004911400958
 31
0.0
  0
LINE
  5
1BC
102
{ACAD_REACTORS
330
243
330
244
102
}
330
71
100
AcDbEntity
  8
0
  6
Continuous
 62
     2
100
AcDbLine
 10
-54.88656611603147
 20
16.79004911400958
 30
0.0
 11
-53.69377341386488
 21
16.79004911400958
 31
0.0
  0
LINE
  5
1BD
102
{ACAD_REACTORS
330
243
330
244
102
}
330
71
100
AcDbEntity
  8
0
  6
Continuous
 62
     2
100
AcDbLine
 10
-53.69377341386488
 20
16.79004911400958
 30
0.0
 11
-53.69377341386488
 21
19.84385863782077
 31
0.0
  0
LINE
  5
1BE
102
{ACAD_REACTORS
330
243
330
244
102
}
330
71
100
AcDbEntity
  8
0
  6
Continuous
 62
     2
100
AcDbLine
 10
-53.69377341386488
 20
19.84385863782077
 30
0.0
 11
-54.88656611603147
 21
19.84385863782077
 31
0.0
  0
LINE
  5
1BF
102
{ACAD_REACTORS
330
243
330
244
102
}
330
71
100
AcDbEntity
  8
0
  6
Continuous
 62
     2
100
AcDbLine
 10
-54.88656611603147
 20
18.53508312761559
 30
0.0
 11
-56.12707052628548
 21
19.84385863782077
 31
0.0
  0
LINE
  5
1C0
102
{ACAD_REACTORS
330
243
330
244
102
}
330
71
100
AcDbEntity
  8
0
  6
Continuous
 62
     2
100
AcDbLine
 10
-57.31986322845199
 20
16.79004911400958
 30
0.0
 11
-56.12707052628548
 21
16.79004911400958
 31
0.0
  0
LINE
  5
1C1
102
{ACAD_REACTORS
330
245
330
246
102
}
330
71
100
AcDbEntity
  8
0
  6
Continuous
 62
     2
100
AcDbLine
 10
-58.7990771100246
 20
16.48466816164637
 30
0.0
 11
-58.7990771100246
 21
15.69940285552278
 31
0.0
  0
LINE
  5
1C2
102
{ACAD_REACTORS
330
245
330
246
102
}
330
71
100
AcDbEntity
  8
0
  6
Continuous
 62
     2
100
AcDbLine
 10
-57.98797807254999
 20
15.69940285552278
 30
0.0
 11
-57.98797807254999
 21
13.43085863783529
 31
0.0
  0
LINE
  5
1C3
102
{ACAD_REACTORS
330
245
330
246
102
}
330
71
100
AcDbEntity
  8
0
  6
Continuous
 62
     2
100
AcDbLine
 10
-57.98797807254999
 20
13.43085863783529
 30
0.0
 11
-56.79518537038348
 21
13.43085863783529
 31
0.0
  0
LINE
  5
1C4
102
{ACAD_REACTORS
330
247
330
248
102
}
330
71
100
AcDbEntity
  8
0
  6
Continuous
 62
     2
100
AcDbLine
 10
-53.845658876964
 20
13.43085863783529
 30
0.0
 11
-54.05713893043978
 21
13.97181918205317
 31
0.0
  0
LINE
  5
1C5
102
{ACAD_REACTORS
330
247
330
248
102
}
330
71
100
AcDbEntity
  8
0
  6
Continuous
 62
     2
100
AcDbLine
 10
-54.00310751365038
 20
16.48466816164637
 30
0.0
 11
-52.60515446671008
 21
13.43085863783529
 31
0.0
  0
LINE
  5
1C6
102
{ACAD_REACTORS
330
247
330
248
102
}
330
71
100
AcDbEntity
  8
0
  6
Continuous
 62
     2
100
AcDbLine
 10
-55.24361192390308
 20
16.48466816164637
 30
0.0
 11
-54.00310751365038
 21
16.48466816164637
 31
0.0
  0
LINE
  5
1C7
102
{ACAD_REACTORS
330
247
330
248
102
}
330
71
100
AcDbEntity
  8
0
  6
Continuous
 62
     2
100
AcDbLine
 10
-56.64156497084238
 20
13.43085863783529
 30
0.0
 11
-55.4010605605894
 21
13.43085863783529
 31
0.0
  0
LINE
  5
1C8
102
{ACAD_REACTORS
330
247
330
248
102
}
330
71
100
AcDbEntity
  8
0
  6
Continuous
 62
     2
100
AcDbLine
 10
-54.92352495596859
 20
14.65238244735977
 30
0.0
 11
-54.32319448158609
 21
14.65238244735977
 31
0.0
  0
LINE
  5
1C9
102
{ACAD_REACTORS
330
247
330
248
102
}
330
71
100
AcDbEntity
  8
0
  6
Continuous
 62
     2
100
AcDbLine
 10
-54.32319448158609
 20
14.65238244735977
 30
0.0
 11
-54.62335971877619
 21
15.42019741334647
 31
0.0
  0
LINE
  5
1CA
102
{ACAD_REACTORS
330
249
330
24A
102
}
330
71
100
AcDbEntity
  8
0
  6
Continuous
 62
     2
100
AcDbLine
 10
-52.21471046317808
 20
16.79004911400958
 30
0.0
 11
-53.45521487343098
 21
16.79004911400958
 31
0.0
  0
LINE
  5
1CB
102
{ACAD_REACTORS
330
24B
330
24C
102
}
330
71
100
AcDbEntity
  8
0
  6
Continuous
 62
     2
100
AcDbLine
 10
-50.69270697521299
 20
16.79004911400958
 30
0.0
 11
-52.0954311929612
 21
16.79004911400958
 31
0.0
  0
LINE
  5
1CC
102
{ACAD_REACTORS
330
24B
330
24C
102
}
330
71
100
AcDbEntity
  8
0
  6
Continuous
 62
     2
100
AcDbLine
 10
-50.69270697521299
 20
16.79004911400958
 30
0.0
 11
-49.99611603714729
 21
17.57778089930329
 31
0.0
  0
LINE
  5
1CD
102
{ACAD_REACTORS
330
24B
330
24C
102
}
330
71
100
AcDbEntity
  8
0
  6
Continuous
 62
     2
100
AcDbLine
 10
-49.3949485152545
 20
19.84385863782077
 30
0.0
 11
-47.99222429750728
 21
19.84385863782077
 31
0.0
  0
LINE
  5
1CE
102
{ACAD_REACTORS
330
24B
330
24C
102
}
330
71
100
AcDbEntity
  8
0
  6
Continuous
 62
     2
100
AcDbLine
 10
-52.00000777678838
 20
19.84385863782077
 30
0.0
 11
-50.6974781460209
 21
18.37090810778457
 31
0.0
  0
LINE
  5
1CF
102
{ACAD_REACTORS
330
24B
330
24C
102
}
330
71
100
AcDbEntity
  8
0
  6
Continuous
 62
     2
100
AcDbLine
 10
-52.0954311929612
 20
16.79004911400958
 30
0.0
 11
-50.6974781460209
 21
18.37090810778457
 31
0.0
  0
LINE
  5
1D0
102
{ACAD_REACTORS
330
255
330
256
102
}
330
71
100
AcDbEntity
  8
0
  6
Continuous
 62
     2
100
AcDbLine
 10
-50.23467457758127
 20
14.47787904599889
 30
0.0
 11
-50.23467457758127
 21
13.60536203919557
 31
0.0
  0
LINE
  5
1D1
102
{ACAD_REACTORS
330
255
330
256
102
}
330
71
100
AcDbEntity
  8
0
  6
Continuous
 62
     2
100
AcDbLine
 10
-51.00433192054268
 20
15.69940285552278
 30
0.0
 11
-49.90069262097458
 21
15.69940285552278
 31
0.0
  0
LINE
  5
1D2
102
{ACAD_REACTORS
330
257
330
258
102
}
330
71
100
AcDbEntity
  8
0
  6
Continuous
 62
     2
100
AcDbLine
 10
-66.3373760568332
 20
14.47787904599937
 30
0.0
 11
-66.3373760568332
 21
13.60536203919617
 31
0.0
  0
LINE
  5
1D3
102
{ACAD_REACTORS
330
257
330
258
102
}
330
71
100
AcDbEntity
  8
0
  6
Continuous
 62
     2
100
AcDbLine
 10
-66.3373760568332
 20
15.43764775348228
 30
0.0
 11
-66.3373760568332
 21
16.31016476028557
 31
0.0
  0
LINE
  5
1D4
330
71
100
AcDbEntity
  8
1
  6
Continuous
 62
     7
100
AcDbLine
 10
49.49999952815071
 20
14.63735863781898
 30
0.0
 11
-43.64480499860068
 21
14.63735863781898
 31
0.0
  0
LINE
  5
1D5
330
71
100
AcDbEntity
  8
1
  6
Continuous
 62
     6
100
AcDbLine
 10
-149.0448049986006
 20
6.13735863781898
 30
0.0
 11
-194.0000004718506
 21
6.13735863781898
 31
0.0
  0
LINE
  5
1D6
330
71
100
AcDbEntity
  8
1
  6
Continuous
 62
     7
100
AcDbLine
 10
40.5815912464719
 20
31.63735863781898
 30
0.0
 11
40.5815912464719
 21
23.13735863781898
 31
0.0
  0
LINE
  5
1D7
330
71
100
AcDbEntity
  8
1
  6
Continuous
 62
     7
100
AcDbLine
 10
14.0815912464723
 20
31.63735863781898
 30
0.0
 11
14.0815912464723
 21
23.13735863781898
 31
0.0
  0
LINE
  5
1D8
330
71
100
AcDbEntity
  8
1
  6
Continuous
 62
     7
100
AcDbLine
 10
-43.64480499860068
 20
23.13735863781898
 30
0.0
 11
-43.64480499860068
 21
31.63735863781898
 31
0.0
  0
LINE
  5
1D9
330
71
100
AcDbEntity
  8
1
  6
Continuous
 62
     7
100
AcDbLine
 10
-80.0448049986006
 20
23.13735863781898
 30
0.0
 11
-80.0448049986006
 21
31.63735863781898
 31
0.0
  0
LINE
  5
1DA
330
71
100
AcDbEntity
  8
1
  6
Continuous
 62
     6
100
AcDbLine
 10
-43.64480499860068
 20
23.13735863781898
 30
0.0
 11
49.49999952815111
 21
23.13735863781898
 31
0.0
  0
LINE
  5
1DB
330
71
100
AcDbEntity
  8
1
  6
Continuous
 62
     7
100
AcDbLine
 10
-15.74480499860059
 20
14.63735863781889
 30
0.0
 11
-15.74480499860059
 21
23.13735863781898
 31
0.0
  0
LINE
  5
1DC
330
71
100
AcDbEntity
  8
1
  6
PHANTOM
 62
     2
100
AcDbLine
 10
-64.55815011203799
 20
27.26235863781889
 30
0.0
 11
-70.05815011203799
 21
27.26235863781889
 31
0.0
  0
LINE
  5
1DD
330
71
100
AcDbEntity
  8
1
  6
PHANTOM
 62
     2
100
AcDbLine
 10
-67.30815011203799
 20
30.01235863781889
 30
0.0
 11
-67.30815011203799
 21
24.51235863781889
 31
0.0
  0
LINE
  5
1DE
330
71
100
AcDbEntity
  8
1
  6
DOT_CENTER
 62
     2
100
AcDbLine
 10
-76.05815011203799
 20
27.26235863781889
 30
0.0
 11
-70.55815011203799
 21
27.26235863781889
 31
0.0
  0
ARC
  5
1DF
102
{ACAD_REACTORS
330
257
330
258
102
}
330
71
100
AcDbEntity
  8
0
  6
Continuous
 62
     2
100
AcDbCircle
 10
-67.673303973951
 20
11.64508245448468
 30
0.0
 40
4.852596863498064
100
AcDbArc
 50
74.02000874164737
 51
84.84185523037506
  0
ARC
  5
1E0
102
{ACAD_REACTORS
330
257
330
258
102
}
330
71
100
AcDbEntity
  8
0
  6
Continuous
 62
     2
100
AcDbCircle
 10
-67.09726336519728
 20
14.80084281036898
 30
0.0
 40
0.9059297849853211
100
AcDbArc
 50
71.55192388185344
 51
113.372277888129
  0
ARC
  5
1E1
102
{ACAD_REACTORS
330
257
330
258
102
}
330
71
100
AcDbEntity
  8
0
  6
Continuous
 62
     2
100
AcDbCircle
 10
-67.2537033978993
 20
14.75269197040208
 30
0.0
 40
0.5115800601948034
100
AcDbArc
 50
208.5214732576956
 51
246.627722111827
  0
ARC
  5
1E2
102
{ACAD_REACTORS
330
257
330
258
102
}
330
71
100
AcDbEntity
  8
0
  6
Continuous
 62
     2
100
AcDbCircle
 10
-67.09726336519728
 20
15.11468398911208
 30
0.0
 40
0.905929784984916
100
AcDbArc
 50
246.6277221118709
 51
288.4480761181586
  0
ARC
  5
1E3
102
{ACAD_REACTORS
330
257
330
258
102
}
330
71
100
AcDbEntity
  8
0
  6
Continuous
 62
     2
100
AcDbCircle
 10
-67.51543109885807
 20
16.36822976514927
 30
0.0
 40
2.227384008972737
100
AcDbArc
 50
288.4480761181328
 51
301.9309089499592
  0
ARC
  5
1E4
102
{ACAD_REACTORS
330
253
330
254
102
}
330
71
100
AcDbEntity
  8
0
  6
Continuous
 62
     2
100
AcDbCircle
 10
-72.74050483146488
 20
17.10073179406328
 30
0.0
 40
0.9118481501444557
100
AcDbArc
 50
295.3740086781766
 51
64.62599132180736
  0
ARC
  5
1E5
102
{ACAD_REACTORS
330
253
330
254
102
}
330
71
100
AcDbEntity
  8
0
  6
Continuous
 62
     2
100
AcDbCircle
 10
-72.214462133377
 20
18.81540868253788
 30
0.0
 40
0.3157169230760746
100
AcDbArc
 50
90.18896704254594
 51
180.0
  0
ARC
  5
1E6
102
{ACAD_REACTORS
330
255
330
256
102
}
330
71
100
AcDbEntity
  8
0
  6
Continuous
 62
     2
100
AcDbCircle
 10
-51.00433192054268
 20
14.74487984869668
 30
0.0
 40
0.9545230068261006
100
AcDbArc
 50
90.0
 51
109.3371432194319
  0
ARC
  5
1E7
102
{ACAD_REACTORS
330
255
330
256
102
}
330
71
100
AcDbEntity
  8
0
  6
Continuous
 62
     2
100
AcDbCircle
 10
-50.773644660565
 20
14.95776339974057
 30
0.0
 40
0.9410597353348915
100
AcDbArc
 50
151.4785267423625
 51
208.5214732576695
  0
ARC
  5
1E8
102
{ACAD_REACTORS
330
255
330
256
102
}
330
71
100
AcDbEntity
  8
0
  6
Continuous
 62
     2
100
AcDbCircle
 10
-50.99456188594328
 20
15.11468398911208
 30
0.0
 40
0.9059297849852797
100
AcDbArc
 50
246.6277221118177
 51
288.4480761180808
  0
ARC
  5
1E9
102
{ACAD_REACTORS
330
255
330
256
102
}
330
71
100
AcDbEntity
  8
0
  6
Continuous
 62
     2
100
AcDbCircle
 10
-51.41272961960519
 20
16.36822976514867
 30
0.0
 40
2.227384008972744
100
AcDbArc
 50
288.4480761181333
 51
301.9309089499397
  0
ARC
  5
1EA
102
{ACAD_REACTORS
330
255
330
256
102
}
330
71
100
AcDbEntity
  8
0
  6
Continuous
 62
     2
100
AcDbCircle
 10
-51.57060249469799
 20
18.27044434499697
 30
0.0
 40
4.852596863498815
100
AcDbArc
 50
275.1581447696363
 51
285.9799912583386
  0
ARC
  5
1EB
102
{ACAD_REACTORS
330
255
330
256
102
}
330
71
100
AcDbEntity
  8
0
  6
Continuous
 62
     2
100
AcDbCircle
 10
-51.28174639996217
 20
15.07055376177539
 30
0.0
 40
1.639695123940456
100
AcDbArc
 50
195.0618917771012
 51
275.158144769676
  0
ARC
  5
1EC
102
{ACAD_REACTORS
330
24D
330
24E
102
}
330
71
100
AcDbEntity
  8
0
  6
Continuous
 62
     2
100
AcDbCircle
 10
-67.0099597116533
 20
18.78849299648709
 30
0.0
 40
1.055365641333701
100
AcDbArc
 50
270.0
 51
90.0
  0
ARC
  5
1ED
102
{ACAD_REACTORS
330
253
330
254
102
}
330
71
100
AcDbEntity
  8
0
  6
Continuous
 62
     2
100
AcDbCircle
 10
-74.7900108199087
 20
14.45913111646888
 30
0.0
 40
0.3157169230756836
100
AcDbArc
 50
180.0
 51
270.0
  0
ARC
  5
1EE
102
{ACAD_REACTORS
330
253
330
254
102
}
330
71
100
AcDbEntity
  8
0
  6
Continuous
 62
     2
100
AcDbCircle
 10
-73.31417755889908
 20
18.81558615918598
 30
0.0
 40
0.315716923076593
100
AcDbArc
 50
0.0
 51
90.0
  0
ARC
  5
1EF
102
{ACAD_REACTORS
330
253
330
254
102
}
330
71
100
AcDbEntity
  8
0
  6
Continuous
 62
     2
100
AcDbCircle
 10
-73.31417755889908
 20
18.21156154012547
 30
0.0
 40
0.3157169230761203
100
AcDbArc
 50
295.1944106485397
 51
0.0
  0
ARC
  5
1F0
102
{ACAD_REACTORS
330
253
330
254
102
}
330
71
100
AcDbEntity
  8
0
  6
Continuous
 62
     2
100
AcDbCircle
 10
-73.31417755889908
 20
14.45913111646888
 30
0.0
 40
0.3157169230766996
100
AcDbArc
 50
270.0
 51
0.0
  0
ARC
  5
1F1
102
{ACAD_REACTORS
330
253
330
254
102
}
330
71
100
AcDbEntity
  8
0
  6
Continuous
 62
     2
100
AcDbCircle
 10
-75.38390549665519
 20
19.41961402241878
 30
0.0
 40
0.4242446153837989
100
AcDbArc
 50
90.0
 51
180.0
  0
ARC
  5
1F2
102
{ACAD_REACTORS
330
253
330
254
102
}
330
71
100
AcDbEntity
  8
0
  6
Continuous
 62
     2
100
AcDbCircle
 10
-69.91059340593839
 20
19.41961402241878
 30
0.0
 40
0.4242446153838841
100
AcDbArc
 50
0.0
 51
90.0
  0
ARC
  5
1F3
102
{ACAD_REACTORS
330
253
330
254
102
}
330
71
100
AcDbEntity
  8
0
  6
Continuous
 62
     2
100
AcDbCircle
 10
-69.91059340593839
 20
13.85510325321857
 30
0.0
 40
0.4242446153832802
100
AcDbArc
 50
270.0
 51
0.0
  0
ARC
  5
1F4
102
{ACAD_REACTORS
330
251
330
252
102
}
330
71
100
AcDbEntity
  8
0
  6
Continuous
 62
     2
100
AcDbCircle
 10
-60.69220951884688
 20
18.31695387591489
 30
0.0
 40
0.7717997786796351
100
AcDbArc
 50
321.879580202844
 51
38.12041979715956
  0
ARC
  5
1F5
102
{ACAD_REACTORS
330
251
330
252
102
}
330
71
100
AcDbEntity
  8
0
  6
Continuous
 62
     2
100
AcDbCircle
 10
-60.4924694825007
 20
18.16022269779447
 30
0.0
 40
0.5179085730134315
100
AcDbArc
 50
218.1204197971516
 51
321.8795802028571
  0
ARC
  5
1F6
102
{ACAD_REACTORS
330
24F
330
250
102
}
330
71
100
AcDbEntity
  8
0
  6
Continuous
 62
     2
100
AcDbCircle
 10
-64.17247707146089
 20
14.95776339974057
 30
0.0
 40
1.458034083652003
100
AcDbArc
 50
297.548148175701
 51
62.45185182429898
  0
ARC
  5
1F7
102
{ACAD_REACTORS
330
24F
330
250
102
}
330
71
100
AcDbEntity
  8
0
  6
Continuous
 62
     2
100
AcDbCircle
 10
-64.73435685512749
 20
14.95776339974057
 30
0.0
 40
1.458034083651492
100
AcDbArc
 50
117.5481481756624
 51
242.4518518243375
  0
ARC
  5
1F8
102
{ACAD_REACTORS
330
24F
330
250
102
}
330
71
100
AcDbEntity
  8
0
  6
Continuous
 62
     2
100
AcDbCircle
 10
-64.45341696329419
 20
14.41918838943778
 30
0.0
 40
2.065479772208566
100
AcDbArc
 50
62.45185182430634
 51
117.5481481756664
  0
ARC
  5
1F9
102
{ACAD_REACTORS
330
24F
330
250
102
}
330
71
100
AcDbEntity
  8
0
  6
Continuous
 62
     2
100
AcDbCircle
 10
-64.45341696329419
 20
15.49633841004388
 30
0.0
 40
2.065479772208513
100
AcDbArc
 50
242.4518518243403
 51
297.548148175687
  0
ARC
  5
1FA
102
{ACAD_REACTORS
330
251
330
252
102
}
330
71
100
AcDbEntity
  8
0
  6
Continuous
 62
     2
100
AcDbCircle
 10
-60.2927294461544
 20
18.31695387591489
 30
0.0
 40
0.7717997786796724
100
AcDbArc
 50
141.8795802028404
 51
218.120419797156
  0
ARC
  5
1FB
102
{ACAD_REACTORS
330
251
330
252
102
}
330
71
100
AcDbEntity
  8
0
  6
Continuous
 62
     2
100
AcDbCircle
 10
-60.4924694825007
 20
18.47368505403537
 30
0.0
 40
0.5179085730135321
100
AcDbArc
 50
38.12041979714286
 51
141.8795802028484
  0
ARC
  5
1FC
102
{ACAD_REACTORS
330
253
330
254
102
}
330
71
100
AcDbEntity
  8
0
  6
Continuous
 62
     2
100
AcDbCircle
 10
-75.38390549665519
 20
13.85510325321857
 30
0.0
 40
0.4242446153828041
100
AcDbArc
 50
180.0
 51
270.0
  0
ARC
  5
1FD
102
{ACAD_REACTORS
330
253
330
254
102
}
330
71
100
AcDbEntity
  8
0
  6
Continuous
 62
     2
100
AcDbCircle
 10
-73.31417755889908
 20
15.98990204800049
 30
0.0
 40
0.315716923076593
100
AcDbArc
 50
0.0
 51
64.80558935146041
  0
ARC
  5
1FE
102
{ACAD_REACTORS
330
253
330
254
102
}
330
71
100
AcDbEntity
  8
0
  6
Continuous
 62
     2
100
AcDbCircle
 10
-72.79159311132409
 20
17.10073179406328
 30
0.0
 40
0.9118975235576114
100
AcDbArc
 50
115.1944106485283
 51
244.8055893514877
  0
ARC
  5
1FF
102
{ACAD_REACTORS
330
253
330
254
102
}
330
71
100
AcDbEntity
  8
0
  6
Continuous
 62
     2
100
AcDbCircle
 10
-74.7900108199087
 20
18.81558615918598
 30
0.0
 40
0.3157169230761987
100
AcDbArc
 50
90.0
 51
180.0
  0
ARC
  5
200
102
{ACAD_REACTORS
330
24D
330
24E
102
}
330
71
100
AcDbEntity
  8
0
  6
Continuous
 62
     2
100
AcDbCircle
 10
-67.45143223789168
 20
18.82788896770958
 30
0.0
 40
0.3528638246711111
100
AcDbArc
 50
270.0
 51
90.0
  0
ARC
  5
201
102
{ACAD_REACTORS
330
251
330
252
102
}
330
71
100
AcDbEntity
  8
0
  6
Continuous
 62
     2
100
AcDbCircle
 10
-60.70874149266589
 20
18.31695387591489
 30
0.0
 40
1.526904761905879
100
AcDbArc
 50
90.0
 51
270.0
  0
ARC
  5
202
102
{ACAD_REACTORS
330
255
330
256
102
}
330
71
100
AcDbEntity
  8
0
  6
Continuous
 62
     2
100
AcDbCircle
 10
-51.28174639996217
 20
14.84497303770567
 30
0.0
 40
1.63969512394022
100
AcDbArc
 50
90.0
 51
164.9381082228951
  0
ARC
  5
203
102
{ACAD_REACTORS
330
255
330
256
102
}
330
71
100
AcDbEntity
  8
0
  6
Continuous
 62
     2
100
AcDbCircle
 10
-51.70087424342378
 20
14.95776339974057
 30
0.0
 40
1.205656168393002
100
AcDbArc
 50
164.9381082229029
 51
195.0618917770958
  0
ARC
  5
204
102
{ACAD_REACTORS
330
255
330
256
102
}
330
71
100
AcDbEntity
  8
0
  6
Continuous
 62
     2
100
AcDbCircle
 10
-51.15100191864639
 20
14.75269197040208
 30
0.0
 40
0.5115800601960208
100
AcDbArc
 50
208.5214732576864
 51
246.6277221118445
  0
ARC
  5
205
102
{ACAD_REACTORS
330
255
330
256
102
}
330
71
100
AcDbEntity
  8
0
  6
Continuous
 62
     2
100
AcDbCircle
 10
-51.15100191864639
 20
15.16283482907957
 30
0.0
 40
0.5115800601944194
100
AcDbArc
 50
109.3371432194851
 51
151.4785267424226
  0
ARC
  5
206
102
{ACAD_REACTORS
330
253
330
254
102
}
330
71
100
AcDbEntity
  8
0
  6
Continuous
 62
     2
100
AcDbCircle
 10
-72.214462133377
 20
15.40973878739979
 30
0.0
 40
0.315716923076792
100
AcDbArc
 50
180.0
 51
269.8110329574542
  0
ARC
  5
207
102
{ACAD_REACTORS
330
253
330
254
102
}
330
71
100
AcDbEntity
  8
0
  6
Continuous
 62
     2
100
AcDbCircle
 10
-72.20884599806698
 20
17.11257373496878
 30
0.0
 40
2.018561131933267
100
AcDbArc
 50
269.8110329575858
 51
90.18896704241416
  0
ARC
  5
208
102
{ACAD_REACTORS
330
253
330
254
102
}
330
71
100
AcDbEntity
  8
0
  6
Continuous
 62
     2
100
AcDbCircle
 10
-72.214462133377
 20
18.20987339403109
 30
0.0
 40
0.315716923076792
100
AcDbArc
 50
180.0
 51
244.6259913216482
  0
ARC
  5
209
102
{ACAD_REACTORS
330
253
330
254
102
}
330
71
100
AcDbEntity
  8
0
  6
Continuous
 62
     2
100
AcDbCircle
 10
-72.214462133377
 20
15.99159019409487
 30
0.0
 40
0.3157169230765344
100
AcDbArc
 50
115.3740086783517
 51
180.0
  0
ARC
  5
20A
102
{ACAD_REACTORS
330
257
330
258
102
}
330
71
100
AcDbEntity
  8
0
  6
Continuous
 62
     2
100
AcDbCircle
 10
-67.38444787921509
 20
14.84497303770567
 30
0.0
 40
1.639695123940505
100
AcDbArc
 50
84.84185523036236
 51
164.9381082228865
  0
ARC
  5
20B
102
{ACAD_REACTORS
330
257
330
258
102
}
330
71
100
AcDbEntity
  8
0
  6
Continuous
 62
     2
100
AcDbCircle
 10
-67.80357572267789
 20
14.95776339974057
 30
0.0
 40
1.205656168390943
100
AcDbArc
 50
164.9381082228765
 51
195.0618917770949
  0
ARC
  5
20C
102
{ACAD_REACTORS
330
257
330
258
102
}
330
71
100
AcDbEntity
  8
0
  6
Continuous
 62
     2
100
AcDbCircle
 10
-67.38444787921509
 20
15.07055376177539
 30
0.0
 40
1.639695123939389
100
AcDbArc
 50
195.0618917770898
 51
275.1581447696395
  0
ARC
  5
20D
102
{ACAD_REACTORS
330
257
330
258
102
}
330
71
100
AcDbEntity
  8
0
  6
Continuous
 62
     2
100
AcDbCircle
 10
-67.673303973951
 20
18.27044434499697
 30
0.0
 40
4.852596863498136
100
AcDbArc
 50
275.1581447696249
 51
285.9799912583529
  0
ARC
  5
20E
102
{ACAD_REACTORS
330
257
330
258
102
}
330
71
100
AcDbEntity
  8
0
  6
Continuous
 62
     2
100
AcDbCircle
 10
-66.87634613981899
 20
14.95776339974057
 30
0.0
 40
0.9410597353332545
100
AcDbArc
 50
151.4785267422669
 51
208.5214732577058
  0
ARC
  5
20F
102
{ACAD_REACTORS
330
257
330
258
102
}
330
71
100
AcDbEntity
  8
0
  6
Continuous
 62
     2
100
AcDbCircle
 10
-67.2537033978993
 20
15.16283482907957
 30
0.0
 40
0.5115800601948796
100
AcDbArc
 50
113.3722778881991
 51
151.4785267423044
  0
ARC
  5
210
102
{ACAD_REACTORS
330
257
330
258
102
}
330
71
100
AcDbEntity
  8
0
  6
Continuous
 62
     2
100
AcDbCircle
 10
-67.51543109885807
 20
13.54729703433239
 30
0.0
 40
2.227384008973474
100
AcDbArc
 50
58.06909105004068
 51
71.55192388186722
  0
ARC
  5
211
102
{ACAD_REACTORS
330
24F
330
250
102
}
330
71
100
AcDbEntity
  8
0
  6
Continuous
 62
     2
100
AcDbCircle
 10
-64.45341696329419
 20
15.11449457786108
 30
0.0
 40
0.5179085730133032
100
AcDbArc
 50
38.1204197971475
 51
141.8795802028583
  0
ARC
  5
212
102
{ACAD_REACTORS
330
24F
330
250
102
}
330
71
100
AcDbEntity
  8
0
  6
Continuous
 62
     2
100
AcDbCircle
 10
-64.25367692694809
 20
14.95776339974057
 30
0.0
 40
0.7717997786794676
100
AcDbArc
 50
141.8795802028359
 51
218.1204197971687
  0
ARC
  5
213
102
{ACAD_REACTORS
330
24F
330
250
102
}
330
71
100
AcDbEntity
  8
0
  6
Continuous
 62
     2
100
AcDbCircle
 10
-64.45341696329419
 20
14.80103222162057
 30
0.0
 40
0.5179085730137343
100
AcDbArc
 50
218.120419797193
 51
321.8795802028012
  0
ARC
  5
214
102
{ACAD_REACTORS
330
24F
330
250
102
}
330
71
100
AcDbEntity
  8
0
  6
Continuous
 62
     2
100
AcDbCircle
 10
-64.6531569996406
 20
14.95776339974057
 30
0.0
 40
0.7717997786796947
100
AcDbArc
 50
321.8795802028417
 51
38.1204197971537
  0
CIRCLE
  5
215
330
71
100
AcDbEntity
  8
1
  6
Continuous
 62
     2
100
AcDbCircle
 10
-67.30815011203799
 20
27.26235863781889
 30
0.0
 40
2.5
  0
CIRCLE
  5
216
330
71
100
AcDbEntity
  8
1
  6
Continuous
 62
     2
100
AcDbCircle
 10
-67.30815011203799
 20
27.26235863781889
 30
0.0
 40
1.249999999999915
  0
CIRCLE
  5
217
102
{ACAD_REACTORS
330
253
330
254
102
}
330
71
100
AcDbEntity
  8
0
  6
Continuous
 62
     2
100
AcDbCircle
 10
-72.76431984613768
 20
17.10073179406328
 30
0.0
 40
0.4709789327785074
  0
MTEXT
  5
218
330
71
100
AcDbEntity
  8
1
 62
     3
100
AcDbMText
 10
-237.4949326857788
 20
192.9286667931178
 30
0.0
 40
1.8
 41
0.0
 71
     7
 72
     1
  3
Weitergabe sowie Vervielf\U+00e4ltigung dieses Dokuments, Verwertung und \PMitteilung seines Inhalts sind verboten, soweit nicht ausdr\U+00fccklich gestattet. \PZuwiderhandlungen verpflichten zu Schadenersatz. Alle Rechte f\U+00fcr den Fall\Pder Pat
  1
ent-, Gebrauchsmuster- oder Designeintragung vorbehalten.
  7
CONVERTER_11
 73
     1
 44
0.99639855942377
  0
MTEXT
  5
219
330
71
100
AcDbEntity
  8
1
 62
     3
100
AcDbMText
 10
-54.64182284699069
 20
192.9286667931178
 30
0.0
 40
1.8
 41
0.0
 71
     7
 72
     1
  3
Transfer or duplication of this document as well as the utilisation or\Pcommunication of its content are not permitted unless express consent\Pis granted. Violations give rise to claims for damages. All rights reserved\Pin case of patent, utility mo
  1
del or design patent registrations.
  7
CONVERTER_11
 73
     1
 44
0.99639855942377
  0
TEXT
  5
21A
330
71
100
AcDbEntity
  8
1
 62
     2
100
AcDbText
 10
-60.84480499860078
 20
7.37834142282736
 30
0.0
 40
1.8
  1
of
 41
0.9
  7
CONVERTER_11
100
AcDbText
  0
TEXT
  5
21B
330
71
100
AcDbEntity
  8
1
 62
     2
100
AcDbText
 10
-79.0448049986006
 20
7.37834142282731
 30
0.0
 40
1.8
  1
page
 41
0.9
  7
CONVERTER_11
100
AcDbText
  0
TEXT
  5
21C
330
71
100
AcDbEntity
  8
1
 62
     2
100
AcDbText
 10
-70.3985400282586
 20
7.33810998401697
 30
0.0
 40
1.8
  1
1
 41
0.9
  7
CONVERTER_11
100
AcDbText
  0
TEXT
  5
21D
330
71
100
AcDbEntity
  8
1
 62
     2
100
AcDbText
 10
-55.60949618878709
 20
7.38735863781886
 30
0.0
 40
1.8
  1
1
 41
0.9
  7
CONVERTER_11
100
AcDbText
  0
MTEXT
  5
21F
330
71
100
AcDbEntity
  8
1
 62
     7
100
AcDbMText
 10
2.9275972647749
 20
9.3873586378192
 30
0.0
 40
3.0
 41
0.0
 71
     5
 72
     1
  1
TS-URK-ND
  7
CONVERTER_12
 73
     1
 44
1.20048019207683
  0
MTEXT
  5
220
330
71
100
AcDbEntity
  8
1
 62
     2
100
AcDbMText
 10
-42.64480499860068
 20
13.63735863781898
 30
0.0
 40
1.8
 41
0.0
 71
     1
 72
     1
  1
description
  7
CONVERTER_11
 73
     1
 44
1.20048019207683
  0
MTEXT
  5
221
330
71
100
AcDbEntity
  8
1
 62
     3
100
AcDbMText
 10
-53.84480499860069
 20
27.26235863781898
 30
0.0
 40
2.5
 41
0.0
 71
     5
 72
     1
  1
DIN A4
  7
CONVERTER_11
 73
     1
 44
1.20048019207683
  0
MTEXT
  5
222
330
71
100
AcDbEntity
  8
1
 62
     7
100
AcDbMText
 10
-240.0000004718497
 20
28.63735863781898
 30
0.0
 40
3.5
 41
0.0
 71
     5
 72
     1
  1
D
  7
CONVERTER_11
 73
     1
 44
1.20048019207683
  0
MTEXT
  5
223
330
71
100
AcDbEntity
  8
1
 62
     7
100
AcDbMText
 10
-240.0000004718497
 20
81.13735863781898
 30
0.0
 40
3.5
 41
0.0
 71
     5
 72
     1
  1
C
  7
CONVERTER_11
 73
     1
 44
1.20048019207683
  0
MTEXT
  5
224
330
71
100
AcDbEntity
  8
1
 62
     7
100
AcDbMText
 10
-240.0000004718497
 20
131.137358637819
 30
0.0
 40
3.5
 41
0.0
 71
     5
 72
     1
  1
B
  7
CONVERTER_11
 73
     1
 44
1.20048019207683
  0
MTEXT
  5
225
330
71
100
AcDbEntity
  8
1
 62
     7
100
AcDbMText
 10
-240.0000004718497
 20
183.637358637819
 30
0.0
 40
3.5
 41
0.0
 71
     5
 72
     1
  1
A
  7
CONVERTER_11
 73
     1
 44
1.20048019207683
  0
MTEXT
  5
226
330
71
100
AcDbEntity
  8
1
 62
     7
100
AcDbMText
 10
30.24999952814861
 20
3.63735863781886
 30
0.0
 40
3.5
 41
0.0
 71
     5
 72
     1
  1
6
  7
CONVERTER_11
 73
     1
 44
1.20048019207683
  0
MTEXT
  5
227
330
71
100
AcDbEntity
  8
1
 62
     7
100
AcDbMText
 10
-19.0000004718506
 20
3.63735863781886
 30
0.0
 40
3.5
 41
0.0
 71
     5
 72
     1
  1
5
  7
CONVERTER_11
 73
     1
 44
1.20048019207683
  0
MTEXT
  5
228
330
71
100
AcDbEntity
  8
1
 62
     7
100
AcDbMText
 10
-69.00000047185068
 20
3.63735863781886
 30
0.0
 40
3.5
 41
0.0
 71
     5
 72
     1
  1
4
  7
CONVERTER_11
 73
     1
 44
1.20048019207683
  0
MTEXT
  5
229
330
71
100
AcDbEntity
  8
1
 62
     7
100
AcDbMText
 10
-119.0000004718506
 20
3.63735863781886
 30
0.0
 40
3.5
 41
0.0
 71
     5
 72
     1
  1
3
  7
CONVERTER_11
 73
     1
 44
1.20048019207683
  0
MTEXT
  5
22A
330
71
100
AcDbEntity
  8
1
 62
     7
100
AcDbMText
 10
-169.0000004718506
 20
3.63735863781886
 30
0.0
 40
3.5
 41
0.0
 71
     5
 72
     1
  1
2
  7
CONVERTER_11
 73
     1
 44
1.20048019207683
  0
MTEXT
  5
22B
330
71
100
AcDbEntity
  8
1
 62
     7
100
AcDbMText
 10
-218.2500004718502
 20
3.63735863781886
 30
0.0
 40
3.5
 41
0.0
 71
     5
 72
     1
  1
1
  7
CONVERTER_11
 73
     1
 44
1.20048019207683
  0
MTEXT
  5
22C
330
71
100
AcDbEntity
  8
1
 62
     7
100
AcDbMText
 10
51.99999952814841
 20
28.63735863781898
 30
0.0
 40
3.5
 41
0.0
 71
     5
 72
     1
  1
D
  7
CONVERTER_11
 73
     1
 44
1.20048019207683
  0
MTEXT
  5
22D
330
71
100
AcDbEntity
  8
1
 62
     7
100
AcDbMText
 10
51.99999952814841
 20
131.1373586378209
 30
0.0
 40
3.5
 41
0.0
 71
     5
 72
     1
  1
B
  7
CONVERTER_11
 73
     1
 44
1.20048019207683
  0
MTEXT
  5
22E
330
71
100
AcDbEntity
  8
1
 62
     7
100
AcDbMText
 10
51.99999952814841
 20
183.637358637819
 30
0.0
 40
3.5
 41
0.0
 71
     5
 72
     1
  1
A
  7
CONVERTER_11
 73
     1
 44
1.20048019207683
  0
MTEXT
  5
22F
330
71
100
AcDbEntity
  8
1
 62
     7
100
AcDbMText
 10
51.99999952814841
 20
81.13735863782088
 30
0.0
 40
3.5
 41
0.0
 71
     5
 72
     1
  1
C
  7
CONVERTER_11
 73
     1
 44
1.20048019207683
  0
MTEXT
  5
230
330
71
100
AcDbEntity
  8
1
 62
     2
100
AcDbMText
 10
-114.4828197236481
 20
18.88735863781889
 30
0.0
 40
2.0
 41
0.0
 71
     5
 72
     1
  1
General Information\P- Simplified representation\P- Document excluded from change process\P- Linear dimensions [mm]
  7
CONVERTER_11
 73
     1
 44
1.20048019207683
  0
TEXT
  5
231
330
71
100
AcDbEntity
  8
1
 62
     7
100
AcDbText
 10
-42.14480499860088
 20
15.93735863781888
 30
0.0
 40
2.5
  1
0701105
 41
0.81
  7
CONVERTER_12
100
AcDbText
  0
MTEXT
  5
232
330
71
100
AcDbEntity
  8
1
 62
     2
100
AcDbMText
 10
-42.5448049986006
 20
22.13735863781898
 30
0.0
 40
1.8
 41
0.0
 71
     1
 72
     1
  1
ident.-No.
  7
CONVERTER_11
 73
     1
 44
1.20048019207683
  0
MTEXT
  5
233
330
71
100
AcDbEntity
  8
1
 62
     2
100
AcDbMText
 10
41.68159124647212
 20
30.63735863781898
 30
0.0
 40
1.8
 41
0.0
 71
     1
 72
     1
  1
scale
  7
CONVERTER_11
 73
     1
 44
1.20048019207683
  0
MTEXT
  5
235
330
71
100
AcDbEntity
  8
1
 62
     3
100
AcDbMText
 10
45.04079538731172
 20
24.43735863781907
 30
0.0
 40
2.5
 41
0.0
 71
     8
 72
     1
  1
1:1
  7
CONVERTER_13
 73
     1
 44
1.32052821128451
  0
TEXT
  5
236
330
71
100
AcDbEntity
  8
1
 62
     7
100
AcDbText
 10
-42.5448049986006
 20
24.43735863781888
 30
0.0
 40
2.5
  1
00352256
 41
0.81
  7
CONVERTER_12
100
AcDbText
  0
MTEXT
  5
238
330
71
100
AcDbEntity
  8
1
 62
     2
100
AcDbMText
 10
-42.5448049986006
 20
30.63735863781898
 30
0.0
 40
1.8
 41
0.0
 71
     1
 72
     1
  1
document-No. / RI
  7
CONVERTER_14
 73
     1
 44
1.32052821128451
  0
TEXT
  5
239
330
71
100
AcDbEntity
  8
1
 62
     3
100
AcDbText
 10
-14.74480499860059
 20
15.93735863781888
 30
0.0
 40
2.5
  1
TECDOC 2D_Productdrawing
 41
0.81
  7
CONVERTER_12
100
AcDbText
  0
MTEXT
  5
23A
330
71
100
AcDbEntity
  8
1
 62
     2
100
AcDbMText
 10
-14.74480499860059
 20
22.13735863781889
 30
0.0
 40
1.8
 41
0.0
 71
     1
 72
     1
  1
document-type
  7
CONVERTER_11
 73
     1
 44
1.20048019207683
  0
MTEXT
  5
23B
330
71
100
AcDbEntity
  8
1
 62
     2
100
AcDbMText
 10
15.0815912464723
 20
30.63735863781889
 30
0.0
 40
1.8
 41
0.0
 71
     1
 72
     1
  1
date
  7
CONVERTER_11
 73
     1
 44
1.32052821128451
  0
TEXT
  5
23C
330
71
100
AcDbEntity
  8
1
 62
     3
100
AcDbText
 10
15.0815912464723
 20
24.43735863781888
 30
0.0
 40
2.5
  1
02.01.2018
 41
0.81
  7
CONVERTER_12
100
AcDbText
  0
TEXT
  5
23D
330
71
100
AcDbEntity
  8
1
 62
     7
100
AcDbText
 10
-22.5148927795448
 20
24.43735863781888
 30
0.0
 40
2.5
  1
02
 41
0.81
  7
CONVERTER_12
100
AcDbText
  0
TEXT
  5
23E
330
71
100
AcDbEntity
  8
1
 62
     7
100
AcDbText
 10
-24.6712572765868
 20
24.43735863781888
 30
0.0
 40
2.5
  1
/
 41
0.9
  7
CONVERTER_11
100
AcDbText
  0
HATCH
  5
23F
330
71
100
AcDbEntity
  8
1
  6
Continuous
 62
     2
100
AcDbHatch
 10
0.0
 20
0.0
 30
0.0
210
0.0
220
0.0
230
1.0
  2
_USER
 70
     0
 71
     1
 91
        1
 92
        1
 93
       12
 72
     1
 10
-62.3773042856395
 20
16.79004911400958
 11
-63.5700969878059
 21
16.79004911400958
 72
     1
 10
-63.5700969878059
 20
16.79004911400958
 11
-63.5700969878059
 21
17.92432122285339
 72
     1
 10
-63.5700969878059
 20
17.92432122285339
 11
-64.61975456571338
 21
17.92432122285339
 72
     1
 10
-64.61975456571338
 20
17.92432122285339
 11
-64.61975456571338
 21
16.79004911400958
 72
     1
 10
-64.61975456571338
 20
16.79004911400958
 11
-65.81254726787998
 21
16.79004911400958
 72
     1
 10
-65.81254726787998
 20
16.79004911400958
 11
-65.81254726787998
 21
19.84385863782077
 72
     1
 10
-65.81254726787998
 20
19.84385863782077
 11
-64.61975456571338
 21
19.84385863782077
 72
     1
 10
-64.61975456571338
 20
19.84385863782077
 11
-64.61975456571338
 21
18.77502530448618
 72
     1
 10
-64.61975456571338
 20
18.77502530448618
 11
-63.5700969878059
 21
18.77502530448618
 72
     1
 10
-63.5700969878059
 20
18.77502530448618
 11
-63.5700969878059
 21
19.84385863782077
 72
     1
 10
-63.5700969878059
 20
19.84385863782077
 11
-62.3773042856395
 21
19.84385863782077
 72
     1
 10
-62.3773042856395
 20
19.84385863782077
 11
-62.3773042856395
 21
16.79004911400958
 97
       12
330
1AC
330
1AD
330
197
330
196
330
195
330
1A9
330
194
330
1AA
330
1AB
330
193
330
192
330
191
 75
     1
 76
     0
 52
45.0
 41
0.1
 77
     0
 78
     1
 53
45.0
 43
0.0
 44
0.0
 45
-0.0707106781186548
 46
0.0707106781186548
 79
     0
 98
        1
 10
0.0
 20
0.0
  0
HATCH
  5
240
330
71
100
AcDbEntity
  8
1
  6
Continuous
 62
     2
100
AcDbHatch
 10
0.0
 20
0.0
 30
0.0
210
0.0
220
0.0
230
1.0
  2
_USER
 70
     0
 71
     1
 91
        1
 92
        1
 93
       12
 72
     1
 10
-62.3773042856395
 20
16.79004911400958
 11
-63.5700969878059
 21
16.79004911400958
 72
     1
 10
-63.5700969878059
 20
16.79004911400958
 11
-63.5700969878059
 21
17.92432122285339
 72
     1
 10
-63.5700969878059
 20
17.92432122285339
 11
-64.61975456571338
 21
17.92432122285339
 72
     1
 10
-64.61975456571338
 20
17.92432122285339
 11
-64.61975456571338
 21
16.79004911400958
 72
     1
 10
-64.61975456571338
 20
16.79004911400958
 11
-65.81254726787998
 21
16.79004911400958
 72
     1
 10
-65.81254726787998
 20
16.79004911400958
 11
-65.81254726787998
 21
19.84385863782077
 72
     1
 10
-65.81254726787998
 20
19.84385863782077
 11
-64.61975456571338
 21
19.84385863782077
 72
     1
 10
-64.61975456571338
 20
19.84385863782077
 11
-64.61975456571338
 21
18.77502530448618
 72
     1
 10
-64.61975456571338
 20
18.77502530448618
 11
-63.5700969878059
 21
18.77502530448618
 72
     1
 10
-63.5700969878059
 20
18.77502530448618
 11
-63.5700969878059
 21
19.84385863782077
 72
     1
 10
-63.5700969878059
 20
19.84385863782077
 11
-62.3773042856395
 21
19.84385863782077
 72
     1
 10
-62.3773042856395
 20
19.84385863782077
 11
-62.3773042856395
 21
16.79004911400958
 97
       12
330
1AC
330
1AD
330
197
330
196
330
195
330
1A9
330
194
330
1AA
330
1AB
330
193
330
192
330
191
 75
     1
 76
     0
 52
45.0
 41
0.1
 77
     0
 78
     1
 53
45.0
 43
0.0
 44
0.0
 45
-0.0707106781186548
 46
0.0707106781186548
 79
     0
 98
        1
 10
0.0
 20
0.0
  0
HATCH
  5
241
330
71
100
AcDbEntity
  8
1
  6
Continuous
 62
     2
100
AcDbHatch
 10
0.0
 20
0.0
 30
0.0
210
0.0
220
0.0
230
1.0
  2
_USER
 70
     0
 71
     1
 91
        1
 92
        1
 93
       10
 72
     1
 10
-60.1350049364512
 20
15.17589265144127
 11
-61.37550934670409
 21
16.48466816164637
 72
     1
 10
-61.37550934670409
 20
16.48466816164637
 11
-62.56830204887169
 21
16.48466816164637
 72
     1
 10
-62.56830204887169
 20
16.48466816164637
 11
-62.56830204887169
 21
13.43085863783529
 72
     1
 10
-62.56830204887169
 20
13.43085863783529
 11
-61.37550934670409
 21
13.43085863783529
 72
     1
 10
-61.37550934670409
 20
13.43085863783529
 11
-61.37550934670409
 21
14.73963414803987
 72
     1
 10
-61.37550934670409
 20
14.73963414803987
 11
-60.1350049364512
 21
13.43085863783529
 72
     1
 10
-60.1350049364512
 20
13.43085863783529
 11
-58.9422122342848
 21
13.43085863783529
 72
     1
 10
-58.9422122342848
 20
13.43085863783529
 11
-58.9422122342848
 21
16.48466816164637
 72
     1
 10
-58.9422122342848
 20
16.48466816164637
 11
-60.1350049364512
 21
16.48466816164637
 72
     1
 10
-60.1350049364512
 20
16.48466816164637
 11
-60.1350049364512
 21
15.17589265144127
 97
       10
330
1BA
330
18A
330
189
330
18C
330
1B5
330
1B6
330
18B
330
1B7
330
1B8
330
1B9
 75
     1
 76
     0
 52
45.0
 41
0.1
 77
     0
 78
     1
 53
45.0
 43
0.0
 44
0.0
 45
-0.0707106781186548
 46
0.0707106781186548
 79
     0
 98
        1
 10
0.0
 20
0.0
  0
HATCH
  5
242
330
71
100
AcDbEntity
  8
1
  6
Continuous
 62
     2
100
AcDbHatch
 10
0.0
 20
0.0
 30
0.0
210
0.0
220
0.0
230
1.0
  2
_USER
 70
     0
 71
     1
 91
        1
 92
        1
 93
       10
 72
     1
 10
-60.1350049364512
 20
15.17589265144127
 11
-61.37550934670409
 21
16.48466816164637
 72
     1
 10
-61.37550934670409
 20
16.48466816164637
 11
-62.56830204887169
 21
16.48466816164637
 72
     1
 10
-62.56830204887169
 20
16.48466816164637
 11
-62.56830204887169
 21
13.43085863783529
 72
     1
 10
-62.56830204887169
 20
13.43085863783529
 11
-61.37550934670409
 21
13.43085863783529
 72
     1
 10
-61.37550934670409
 20
13.43085863783529
 11
-61.37550934670409
 21
14.73963414803987
 72
     1
 10
-61.37550934670409
 20
14.73963414803987
 11
-60.1350049364512
 21
13.43085863783529
 72
     1
 10
-60.1350049364512
 20
13.43085863783529
 11
-58.9422122342848
 21
13.43085863783529
 72
     1
 10
-58.9422122342848
 20
13.43085863783529
 11
-58.9422122342848
 21
16.48466816164637
 72
     1
 10
-58.9422122342848
 20
16.48466816164637
 11
-60.1350049364512
 21
16.48466816164637
 72
     1
 10
-60.1350049364512
 20
16.48466816164637
 11
-60.1350049364512
 21
15.17589265144127
 97
       10
330
1BA
330
18A
330
189
330
18C
330
1B5
330
1B6
330
18B
330
1B7
330
1B8
330
1B9
 75
     1
 76
     0
 52
45.0
 41
0.1
 77
     0
 78
     1
 53
45.0
 43
0.0
 44
0.0
 45
-0.0707106781186548
 46
0.0707106781186548
 79
     0
 98
        1
 10
0.0
 20
0.0
  0
HATCH
  5
243
330
71
100
AcDbEntity
  8
1
  6
Continuous
 62
     2
100
AcDbHatch
 10
0.0
 20
0.0
 30
0.0
210
0.0
220
0.0
230
1.0
  2
_USER
 70
     0
 71
     1
 91
        1
 92
        1
 93
       10
 72
     1
 10
-54.88656611603147
 20
18.53508312761559
 11
-56.12707052628548
 21
19.84385863782077
 72
     1
 10
-56.12707052628548
 20
19.84385863782077
 11
-57.31986322845199
 21
19.84385863782077
 72
     1
 10
-57.31986322845199
 20
19.84385863782077
 11
-57.31986322845199
 21
16.79004911400958
 72
     1
 10
-57.31986322845199
 20
16.79004911400958
 11
-56.12707052628548
 21
16.79004911400958
 72
     1
 10
-56.12707052628548
 20
16.79004911400958
 11
-56.12707052628548
 21
18.09882462421427
 72
     1
 10
-56.12707052628548
 20
18.09882462421427
 11
-54.88656611603147
 21
16.79004911400958
 72
     1
 10
-54.88656611603147
 20
16.79004911400958
 11
-53.69377341386488
 21
16.79004911400958
 72
     1
 10
-53.69377341386488
 20
16.79004911400958
 11
-53.69377341386488
 21
19.84385863782077
 72
     1
 10
-53.69377341386488
 20
19.84385863782077
 11
-54.88656611603147
 21
19.84385863782077
 72
     1
 10
-54.88656611603147
 20
19.84385863782077
 11
-54.88656611603147
 21
18.53508312761559
 97
       10
330
1BF
330
187
330
186
330
1C0
330
185
330
1BB
330
1BC
330
1BD
330
1BE
330
188
 75
     1
 76
     0
 52
45.0
 41
0.1
 77
     0
 78
     1
 53
45.0
 43
0.0
 44
0.0
 45
-0.0707106781186548
 46
0.0707106781186548
 79
     0
 98
        1
 10
0.0
 20
0.0
  0
HATCH
  5
244
330
71
100
AcDbEntity
  8
1
  6
Continuous
 62
     2
100
AcDbHatch
 10
0.0
 20
0.0
 30
0.0
210
0.0
220
0.0
230
1.0
  2
_USER
 70
     0
 71
     1
 91
        1
 92
        1
 93
       10
 72
     1
 10
-54.88656611603147
 20
18.53508312761559
 11
-56.12707052628548
 21
19.84385863782077
 72
     1
 10
-56.12707052628548
 20
19.84385863782077
 11
-57.31986322845199
 21
19.84385863782077
 72
     1
 10
-57.31986322845199
 20
19.84385863782077
 11
-57.31986322845199
 21
16.79004911400958
 72
     1
 10
-57.31986322845199
 20
16.79004911400958
 11
-56.12707052628548
 21
16.79004911400958
 72
     1
 10
-56.12707052628548
 20
16.79004911400958
 11
-56.12707052628548
 21
18.09882462421427
 72
     1
 10
-56.12707052628548
 20
18.09882462421427
 11
-54.88656611603147
 21
16.79004911400958
 72
     1
 10
-54.88656611603147
 20
16.79004911400958
 11
-53.69377341386488
 21
16.79004911400958
 72
     1
 10
-53.69377341386488
 20
16.79004911400958
 11
-53.69377341386488
 21
19.84385863782077
 72
     1
 10
-53.69377341386488
 20
19.84385863782077
 11
-54.88656611603147
 21
19.84385863782077
 72
     1
 10
-54.88656611603147
 20
19.84385863782077
 11
-54.88656611603147
 21
18.53508312761559
 97
       10
330
1BF
330
187
330
186
330
1C0
330
185
330
1BB
330
1BC
330
1BD
330
1BE
330
188
 75
     1
 76
     0
 52
45.0
 41
0.1
 77
     0
 78
     1
 53
45.0
 43
0.0
 44
0.0
 45
-0.0707106781186548
 46
0.0707106781186548
 79
     0
 98
        1
 10
0.0
 20
0.0
  0
HATCH
  5
245
330
71
100
AcDbEntity
  8
1
  6
Continuous
 62
     2
100
AcDbHatch
 10
0.0
 20
0.0
 30
0.0
210
0.0
220
0.0
230
1.0
  2
_USER
 70
     0
 71
     1
 91
        1
 92
        1
 93
        8
 72
     1
 10
-55.98408633291098
 20
16.48466816164637
 11
-58.7990771100246
 21
16.48466816164637
 72
     1
 10
-58.7990771100246
 20
16.48466816164637
 11
-58.7990771100246
 21
15.69940285552278
 72
     1
 10
-58.7990771100246
 20
15.69940285552278
 11
-57.98797807254999
 21
15.69940285552278
 72
     1
 10
-57.98797807254999
 20
15.69940285552278
 11
-57.98797807254999
 21
13.43085863783529
 72
     1
 10
-57.98797807254999
 20
13.43085863783529
 11
-56.79518537038348
 21
13.43085863783529
 72
     1
 10
-56.79518537038348
 20
13.43085863783529
 11
-56.79518537038348
 21
15.69940285552278
 72
     1
 10
-56.79518537038348
 20
15.69940285552278
 11
-55.98408633291098
 21
15.69940285552278
 72
     1
 10
-55.98408633291098
 20
15.69940285552278
 11
-55.98408633291098
 21
16.48466816164637
 97
        8
330
181
330
1C1
330
180
330
1C2
330
1C3
330
184
330
183
330
182
 75
     1
 76
     0
 52
45.0
 41
0.1
 77
     0
 78
     1
 53
45.0
 43
0.0
 44
0.0
 45
-0.0707106781186548
 46
0.0707106781186548
 79
     0
 98
        1
 10
0.0
 20
0.0
  0
HATCH
  5
246
330
71
100
AcDbEntity
  8
1
  6
Continuous
 62
     2
100
AcDbHatch
 10
0.0
 20
0.0
 30
0.0
210
0.0
220
0.0
230
1.0
  2
_USER
 70
     0
 71
     1
 91
        1
 92
        1
 93
        8
 72
     1
 10
-55.98408633291098
 20
16.48466816164637
 11
-58.7990771100246
 21
16.48466816164637
 72
     1
 10
-58.7990771100246
 20
16.48466816164637
 11
-58.7990771100246
 21
15.69940285552278
 72
     1
 10
-58.7990771100246
 20
15.69940285552278
 11
-57.98797807254999
 21
15.69940285552278
 72
     1
 10
-57.98797807254999
 20
15.69940285552278
 11
-57.98797807254999
 21
13.43085863783529
 72
     1
 10
-57.98797807254999
 20
13.43085863783529
 11
-56.79518537038348
 21
13.43085863783529
 72
     1
 10
-56.79518537038348
 20
13.43085863783529
 11
-56.79518537038348
 21
15.69940285552278
 72
     1
 10
-56.79518537038348
 20
15.69940285552278
 11
-55.98408633291098
 21
15.69940285552278
 72
     1
 10
-55.98408633291098
 20
15.69940285552278
 11
-55.98408633291098
 21
16.48466816164637
 97
        8
330
181
330
1C1
330
180
330
1C2
330
1C3
330
184
330
183
330
182
 75
     1
 76
     0
 52
45.0
 41
0.1
 77
     0
 78
     1
 53
45.0
 43
0.0
 44
0.0
 45
-0.0707106781186548
 46
0.0707106781186548
 79
     0
 98
        1
 10
0.0
 20
0.0
  0
HATCH
  5
247
330
71
100
AcDbEntity
  8
1
  6
Continuous
 62
     2
100
AcDbHatch
 10
0.0
 20
0.0
 30
0.0
210
0.0
220
0.0
230
1.0
  2
_USER
 70
     0
 71
     1
 91
        2
 92
        1
 93
        8
 72
     1
 10
-53.845658876964
 20
13.43085863783529
 11
-54.05713893043978
 21
13.97181918205317
 72
     1
 10
-54.05713893043978
 20
13.97181918205317
 11
-55.18958050711359
 21
13.97181918205317
 72
     1
 10
-55.18958050711359
 20
13.97181918205317
 11
-55.4010605605894
 21
13.43085863783529
 72
     1
 10
-55.4010605605894
 20
13.43085863783529
 11
-56.64156497084238
 21
13.43085863783529
 72
     1
 10
-56.64156497084238
 20
13.43085863783529
 11
-55.24361192390308
 21
16.48466816164637
 72
     1
 10
-55.24361192390308
 20
16.48466816164637
 11
-54.00310751365038
 21
16.48466816164637
 72
     1
 10
-54.00310751365038
 20
16.48466816164637
 11
-52.60515446671008
 21
13.43085863783529
 72
     1
 10
-52.60515446671008
 20
13.43085863783529
 11
-53.845658876964
 21
13.43085863783529
 97
        8
330
1C5
330
1C6
330
17D
330
1C7
330
17C
330
17F
330
1C4
330
17E
 92
       16
 93
        3
 72
     1
 10
-54.92352495596859
 20
14.65238244735977
 11
-54.62335971877619
 21
15.42019741334647
 72
     1
 10
-54.62335971877619
 20
15.42019741334647
 11
-54.32319448158609
 21
14.65238244735977
 72
     1
 10
-54.32319448158609
 20
14.65238244735977
 11
-54.92352495596859
 21
14.65238244735977
 97
        3
330
17B
330
1C9
330
1C8
 75
     1
 76
     0
 52
45.0
 41
0.1
 77
     0
 78
     1
 53
45.0
 43
0.0
 44
0.0
 45
-0.0707106781186548
 46
0.0707106781186548
 79
     0
 98
        1
 10
0.0
 20
0.0
  0
HATCH
  5
248
330
71
100
AcDbEntity
  8
1
  6
Continuous
 62
     2
100
AcDbHatch
 10
0.0
 20
0.0
 30
0.0
210
0.0
220
0.0
230
1.0
  2
_USER
 70
     0
 71
     1
 91
        2
 92
        1
 93
        8
 72
     1
 10
-53.845658876964
 20
13.43085863783529
 11
-54.05713893043978
 21
13.97181918205317
 72
     1
 10
-54.05713893043978
 20
13.97181918205317
 11
-55.18958050711359
 21
13.97181918205317
 72
     1
 10
-55.18958050711359
 20
13.97181918205317
 11
-55.4010605605894
 21
13.43085863783529
 72
     1
 10
-55.4010605605894
 20
13.43085863783529
 11
-56.64156497084238
 21
13.43085863783529
 72
     1
 10
-56.64156497084238
 20
13.43085863783529
 11
-55.24361192390308
 21
16.48466816164637
 72
     1
 10
-55.24361192390308
 20
16.48466816164637
 11
-54.00310751365038
 21
16.48466816164637
 72
     1
 10
-54.00310751365038
 20
16.48466816164637
 11
-52.60515446671008
 21
13.43085863783529
 72
     1
 10
-52.60515446671008
 20
13.43085863783529
 11
-53.845658876964
 21
13.43085863783529
 97
        8
330
1C5
330
1C6
330
17D
330
1C7
330
17C
330
17F
330
1C4
330
17E
 92
       16
 93
        3
 72
     1
 10
-54.92352495596859
 20
14.65238244735977
 11
-54.62335971877619
 21
15.42019741334647
 72
     1
 10
-54.62335971877619
 20
15.42019741334647
 11
-54.32319448158609
 21
14.65238244735977
 72
     1
 10
-54.32319448158609
 20
14.65238244735977
 11
-54.92352495596859
 21
14.65238244735977
 97
        3
330
17B
330
1C9
330
1C8
 75
     1
 76
     0
 52
45.0
 41
0.1
 77
     0
 78
     1
 53
45.0
 43
0.0
 44
0.0
 45
-0.0707106781186548
 46
0.0707106781186548
 79
     0
 98
        1
 10
0.0
 20
0.0
  0
HATCH
  5
249
330
71
100
AcDbEntity
  8
1
  6
Continuous
 62
     2
100
AcDbHatch
 10
0.0
 20
0.0
 30
0.0
210
0.0
220
0.0
230
1.0
  2
_USER
 70
     0
 71
     1
 91
        1
 92
        1
 93
        4
 72
     1
 10
-52.21471046317808
 20
16.79004911400958
 11
-53.45521487343098
 21
16.79004911400958
 72
     1
 10
-53.45521487343098
 20
16.79004911400958
 11
-53.45521487343098
 21
19.84385863782077
 72
     1
 10
-53.45521487343098
 20
19.84385863782077
 11
-52.21471046317808
 21
19.84385863782077
 72
     1
 10
-52.21471046317808
 20
19.84385863782077
 11
-52.21471046317808
 21
16.79004911400958
 97
        4
330
178
330
17A
330
1CA
330
179
 75
     1
 76
     0
 52
45.0
 41
0.1
 77
     0
 78
     1
 53
45.0
 43
0.0
 44
0.0
 45
-0.0707106781186548
 46
0.0707106781186548
 79
     0
 98
        1
 10
0.0
 20
0.0
  0
HATCH
  5
24A
330
71
100
AcDbEntity
  8
1
  6
Continuous
 62
     2
100
AcDbHatch
 10
0.0
 20
0.0
 30
0.0
210
0.0
220
0.0
230
1.0
  2
_USER
 70
     0
 71
     1
 91
        1
 92
        1
 93
        4
 72
     1
 10
-52.21471046317808
 20
16.79004911400958
 11
-53.45521487343098
 21
16.79004911400958
 72
     1
 10
-53.45521487343098
 20
16.79004911400958
 11
-53.45521487343098
 21
19.84385863782077
 72
     1
 10
-53.45521487343098
 20
19.84385863782077
 11
-52.21471046317808
 21
19.84385863782077
 72
     1
 10
-52.21471046317808
 20
19.84385863782077
 11
-52.21471046317808
 21
16.79004911400958
 97
        4
330
178
330
17A
330
1CA
330
179
 75
     1
 76
     0
 52
45.0
 41
0.1
 77
     0
 78
     1
 53
45.0
 43
0.0
 44
0.0
 45
-0.0707106781186548
 46
0.0707106781186548
 79
     0
 98
        1
 10
0.0
 20
0.0
  0
HATCH
  5
24B
330
71
100
AcDbEntity
  8
1
  6
Continuous
 62
     2
100
AcDbHatch
 10
0.0
 20
0.0
 30
0.0
210
0.0
220
0.0
230
1.0
  2
_USER
 70
     0
 71
     1
 91
        1
 92
        1
 93
       12
 72
     1
 10
-47.99222429750728
 20
19.84385863782077
 11
-49.29475392827379
 21
18.37090810778457
 72
     1
 10
-49.29475392827379
 20
18.37090810778457
 11
-47.89680088133349
 21
16.79004911400958
 72
     1
 10
-47.89680088133349
 20
16.79004911400958
 11
-49.29952509908179
 21
16.79004911400958
 72
     1
 10
-49.29952509908179
 20
16.79004911400958
 11
-49.99611603714729
 21
17.57778089930329
 72
     1
 10
-49.99611603714729
 20
17.57778089930329
 11
-50.69270697521299
 21
16.79004911400958
 72
     1
 10
-50.69270697521299
 20
16.79004911400958
 11
-52.0954311929612
 21
16.79004911400958
 72
     1
 10
-52.0954311929612
 20
16.79004911400958
 11
-50.6974781460209
 21
18.37090810778457
 72
     1
 10
-50.6974781460209
 20
18.37090810778457
 11
-52.00000777678838
 21
19.84385863782077
 72
     1
 10
-52.00000777678838
 20
19.84385863782077
 11
-50.59728355903908
 21
19.84385863782077
 72
     1
 10
-50.59728355903908
 20
19.84385863782077
 11
-49.99611603714729
 21
19.16403531626528
 72
     1
 10
-49.99611603714729
 20
19.16403531626528
 11
-49.3949485152545
 21
19.84385863782077
 72
     1
 10
-49.3949485152545
 20
19.84385863782077
 11
-47.99222429750728
 21
19.84385863782077
 97
       12
330
173
330
172
330
171
330
1CE
330
1CF
330
1CB
330
1CC
330
177
330
176
330
175
330
174
330
1CD
 75
     1
 76
     0
 52
45.0
 41
0.1
 77
     0
 78
     1
 53
45.0
 43
0.0
 44
0.0
 45
-0.0707106781186548
 46
0.0707106781186548
 79
     0
 98
        1
 10
0.0
 20
0.0
  0
HATCH
  5
24C
330
71
100
AcDbEntity
  8
1
  6
Continuous
 62
     2
100
AcDbHatch
 10
0.0
 20
0.0
 30
0.0
210
0.0
220
0.0
230
1.0
  2
_USER
 70
     0
 71
     1
 91
        1
 92
        1
 93
       12
 72
     1
 10
-47.99222429750728
 20
19.84385863782077
 11
-49.29475392827379
 21
18.37090810778457
 72
     1
 10
-49.29475392827379
 20
18.37090810778457
 11
-47.89680088133349
 21
16.79004911400958
 72
     1
 10
-47.89680088133349
 20
16.79004911400958
 11
-49.29952509908179
 21
16.79004911400958
 72
     1
 10
-49.29952509908179
 20
16.79004911400958
 11
-49.99611603714729
 21
17.57778089930329
 72
     1
 10
-49.99611603714729
 20
17.57778089930329
 11
-50.69270697521299
 21
16.79004911400958
 72
     1
 10
-50.69270697521299
 20
16.79004911400958
 11
-52.0954311929612
 21
16.79004911400958
 72
     1
 10
-52.0954311929612
 20
16.79004911400958
 11
-50.6974781460209
 21
18.37090810778457
 72
     1
 10
-50.6974781460209
 20
18.37090810778457
 11
-52.00000777678838
 21
19.84385863782077
 72
     1
 10
-52.00000777678838
 20
19.84385863782077
 11
-50.59728355903908
 21
19.84385863782077
 72
     1
 10
-50.59728355903908
 20
19.84385863782077
 11
-49.99611603714729
 21
19.16403531626528
 72
     1
 10
-49.99611603714729
 20
19.16403531626528
 11
-49.3949485152545
 21
19.84385863782077
 72
     1
 10
-49.3949485152545
 20
19.84385863782077
 11
-47.99222429750728
 21
19.84385863782077
 97
       12
330
173
330
172
330
171
330
1CE
330
1CF
330
1CB
330
1CC
330
177
330
176
330
175
330
174
330
1CD
 75
     1
 76
     0
 52
45.0
 41
0.1
 77
     0
 78
     1
 53
45.0
 43
0.0
 44
0.0
 45
-0.0707106781186548
 46
0.0707106781186548
 79
     0
 98
        1
 10
0.0
 20
0.0
  0
HATCH
  5
24D
330
71
100
AcDbEntity
  8
1
  6
Continuous
 62
     2
100
AcDbHatch
 10
0.0
 20
0.0
 30
0.0
210
0.0
220
0.0
230
1.0
  2
_USER
 70
     0
 71
     1
 91
        2
 92
        1
 93
        6
 72
     1
 10
-67.0099597116533
 20
17.73312735515339
 11
-67.76872729943358
 21
17.73312735515339
 72
     1
 10
-67.76872729943358
 20
17.73312735515339
 11
-67.76872729943358
 21
16.79004911400958
 72
     1
 10
-67.76872729943358
 20
16.79004911400958
 11
-69.0092317096877
 21
16.79004911400958
 72
     1
 10
-69.0092317096877
 20
16.79004911400958
 11
-69.0092317096877
 21
19.84385863782077
 72
     1
 10
-69.0092317096877
 20
19.84385863782077
 11
-67.0099597116533
 21
19.84385863782077
 72
     2
 10
-67.0099597116533
 20
18.78849299648709
 40
1.055365641333701
 50
270.0
 51
450.0
 73
     0
 97
        6
330
19B
330
19A
330
1A7
330
1A6
330
19C
330
1EC
 92
       16
 93
        4
 72
     2
 10
-67.45143223789168
 20
18.82788896770958
 40
0.3528638246711111
 50
270.0
 51
450.0
 73
     1
 72
     1
 10
-67.45143223789168
 20
19.18075279238067
 11
-67.76872729943358
 21
19.18075279238067
 72
     1
 10
-67.76872729943358
 20
19.18075279238067
 11
-67.76872729943358
 21
18.47502514303847
 72
     1
 10
-67.76872729943358
 20
18.47502514303847
 11
-67.45143223789168
 21
18.47502514303847
 97
        4
330
200
330
198
330
1A8
330
199
 75
     1
 76
     0
 52
45.0
 41
0.1
 77
     0
 78
     1
 53
45.0
 43
0.0
 44
0.0
 45
-0.0707106781186548
 46
0.0707106781186548
 79
     0
 98
        1
 10
0.0
 20
0.0
  0
HATCH
  5
24E
330
71
100
AcDbEntity
  8
1
  6
Continuous
 62
     2
100
AcDbHatch
 10
0.0
 20
0.0
 30
0.0
210
0.0
220
0.0
230
1.0
  2
_USER
 70
     0
 71
     1
 91
        2
 92
        1
 93
        6
 72
     1
 10
-67.0099597116533
 20
17.73312735515339
 11
-67.76872729943358
 21
17.73312735515339
 72
     1
 10
-67.76872729943358
 20
17.73312735515339
 11
-67.76872729943358
 21
16.79004911400958
 72
     1
 10
-67.76872729943358
 20
16.79004911400958
 11
-69.0092317096877
 21
16.79004911400958
 72
     1
 10
-69.0092317096877
 20
16.79004911400958
 11
-69.0092317096877
 21
19.84385863782077
 72
     1
 10
-69.0092317096877
 20
19.84385863782077
 11
-67.0099597116533
 21
19.84385863782077
 72
     2
 10
-67.0099597116533
 20
18.78849299648709
 40
1.055365641333701
 50
270.0
 51
450.0
 73
     0
 97
        6
330
19B
330
19A
330
1A7
330
1A6
330
19C
330
1EC
 92
       16
 93
        4
 72
     2
 10
-67.45143223789168
 20
18.82788896770958
 40
0.3528638246711111
 50
270.0
 51
450.0
 73
     1
 72
     1
 10
-67.45143223789168
 20
19.18075279238067
 11
-67.76872729943358
 21
19.18075279238067
 72
     1
 10
-67.76872729943358
 20
19.18075279238067
 11
-67.76872729943358
 21
18.47502514303847
 72
     1
 10
-67.76872729943358
 20
18.47502514303847
 11
-67.45143223789168
 21
18.47502514303847
 97
        4
330
200
330
198
330
1A8
330
199
 75
     1
 76
     0
 52
45.0
 41
0.1
 77
     0
 78
     1
 53
45.0
 43
0.0
 44
0.0
 45
-0.0707106781186548
 46
0.0707106781186548
 79
     0
 98
        1
 10
0.0
 20
0.0
  0
HATCH
  5
24F
330
71
100
AcDbEntity
  8
1
  6
Continuous
 62
     2
100
AcDbHatch
 10
0.0
 20
0.0
 30
0.0
210
0.0
220
0.0
230
1.0
  2
_USER
 70
     0
 71
     1
 91
        2
 92
        1
 93
        4
 72
     2
 10
-64.45341696329419
 20
14.41918838943778
 40
2.065479772208566
 50
62.45185182430634
 51
117.5481481756664
 73
     1
 72
     2
 10
-64.73435685512749
 20
14.95776339974057
 40
1.458034083651492
 50
117.5481481756624
 51
242.4518518243375
 73
     1
 72
     2
 10
-64.45341696329419
 20
15.49633841004388
 40
2.065479772208513
 50
242.4518518243403
 51
297.548148175687
 73
     1
 72
     2
 10
-64.17247707146089
 20
14.95776339974057
 40
1.458034083652003
 50
297.548148175701
 51
422.451851824299
 73
     1
 97
        4
330
1F8
330
1F7
330
1F9
330
1F6
 92
       16
 93
        4
 72
     2
 10
-64.6531569996406
 20
14.95776339974057
 40
0.7717997786796947
 50
321.8795802028417
 51
398.1204197971537
 73
     1
 72
     2
 10
-64.45341696329419
 20
15.11449457786108
 40
0.5179085730133032
 50
38.1204197971475
 51
141.8795802028583
 73
     1
 72
     2
 10
-64.25367692694809
 20
14.95776339974057
 40
0.7717997786794676
 50
141.8795802028359
 51
218.1204197971687
 73
     1
 72
     2
 10
-64.45341696329419
 20
14.80103222162057
 40
0.5179085730137343
 50
218.120419797193
 51
321.8795802028012
 73
     1
 97
        4
330
214
330
211
330
212
330
213
 75
     1
 76
     0
 52
45.0
 41
0.1
 77
     0
 78
     1
 53
45.0
 43
0.0
 44
0.0
 45
-0.0707106781186548
 46
0.0707106781186548
 79
     0
 98
        1
 10
0.0
 20
0.0
  0
HATCH
  5
250
330
71
100
AcDbEntity
  8
1
  6
Continuous
 62
     2
100
AcDbHatch
 10
0.0
 20
0.0
 30
0.0
210
0.0
220
0.0
230
1.0
  2
_USER
 70
     0
 71
     1
 91
        2
 92
        1
 93
        4
 72
     2
 10
-64.45341696329419
 20
14.41918838943778
 40
2.065479772208566
 50
62.45185182430634
 51
117.5481481756664
 73
     1
 72
     2
 10
-64.73435685512749
 20
14.95776339974057
 40
1.458034083651492
 50
117.5481481756624
 51
242.4518518243375
 73
     1
 72
     2
 10
-64.45341696329419
 20
15.49633841004388
 40
2.065479772208513
 50
242.4518518243403
 51
297.548148175687
 73
     1
 72
     2
 10
-64.17247707146089
 20
14.95776339974057
 40
1.458034083652003
 50
297.548148175701
 51
422.451851824299
 73
     1
 97
        4
330
1F8
330
1F7
330
1F9
330
1F6
 92
       16
 93
        4
 72
     2
 10
-64.6531569996406
 20
14.95776339974057
 40
0.7717997786796947
 50
321.8795802028417
 51
398.1204197971537
 73
     1
 72
     2
 10
-64.45341696329419
 20
15.11449457786108
 40
0.5179085730133032
 50
38.1204197971475
 51
141.8795802028583
 73
     1
 72
     2
 10
-64.25367692694809
 20
14.95776339974057
 40
0.7717997786794676
 50
141.8795802028359
 51
218.1204197971687
 73
     1
 72
     2
 10
-64.45341696329419
 20
14.80103222162057
 40
0.5179085730137343
 50
218.120419797193
 51
321.8795802028012
 73
     1
 97
        4
330
214
330
211
330
212
330
213
 75
     1
 76
     0
 52
45.0
 41
0.1
 77
     0
 78
     1
 53
45.0
 43
0.0
 44
0.0
 45
-0.0707106781186548
 46
0.0707106781186548
 79
     0
 98
        1
 10
0.0
 20
0.0
  0
HATCH
  5
251
330
71
100
AcDbEntity
  8
1
  6
Continuous
 62
     2
100
AcDbHatch
 10
0.0
 20
0.0
 30
0.0
210
0.0
220
0.0
230
1.0
  2
_USER
 70
     0
 71
     1
 91
        2
 92
        1
 93
       12
 72
     1
 10
-57.5584217688849
 20
19.14584503237779
 11
-58.89434959531258
 21
19.14584503237779
 72
     1
 10
-58.89434959531258
 20
19.14584503237779
 11
-58.89434959531258
 21
18.66596067863608
 72
     1
 10
-58.89434959531258
 20
18.66596067863608
 11
-57.5584217688849
 21
18.66596067863608
 72
     1
 10
-57.5584217688849
 20
18.66596067863608
 11
-57.5584217688849
 21
17.96794707319378
 72
     1
 10
-57.5584217688849
 20
17.96794707319378
 11
-58.89434959531258
 21
17.96794707319378
 72
     1
 10
-58.89434959531258
 20
17.96794707319378
 11
-58.89434959531258
 21
17.48806271945207
 72
     1
 10
-58.89434959531258
 20
17.48806271945207
 11
-57.5584217688849
 21
17.48806271945207
 72
     1
 10
-57.5584217688849
 20
17.48806271945207
 11
-57.5584217688849
 21
16.79004911400958
 72
     1
 10
-57.5584217688849
 20
16.79004911400958
 11
-60.70874149266589
 21
16.79004911400958
 72
     2
 10
-60.70874149266589
 20
18.31695387591489
 40
1.526904761905879
 50
90.0
 51
270.0
 73
     0
 72
     1
 10
-60.70874149266589
 20
19.84385863782077
 11
-57.5584217688849
 21
19.84385863782077
 72
     1
 10
-57.5584217688849
 20
19.84385863782077
 11
-57.5584217688849
 21
19.14584503237779
 97
       12
330
1AF
330
201
330
1B0
330
1B1
330
1B2
330
1B3
330
190
330
18F
330
18E
330
18D
330
1B4
330
1AE
 92
       16
 93
        4
 72
     2
 10
-60.4924694825007
 20
18.47368505403537
 40
0.5179085730135321
 50
38.12041979714286
 51
141.8795802028484
 73
     1
 72
     2
 10
-60.2927294461544
 20
18.31695387591489
 40
0.7717997786796724
 50
141.8795802028404
 51
218.120419797156
 73
     1
 72
     2
 10
-60.4924694825007
 20
18.16022269779447
 40
0.5179085730134315
 50
218.1204197971516
 51
321.8795802028571
 73
     1
 72
     2
 10
-60.69220951884688
 20
18.31695387591489
 40
0.7717997786796351
 50
321.879580202844
 51
398.1204197971596
 73
     1
 97
        4
330
1FB
330
1FA
330
1F5
330
1F4
 75
     1
 76
     0
 52
45.0
 41
0.1
 77
     0
 78
     1
 53
45.0
 43
0.0
 44
0.0
 45
-0.0707106781186548
 46
0.0707106781186548
 79
     0
 98
        1
 10
0.0
 20
0.0
  0
HATCH
  5
252
330
71
100
AcDbEntity
  8
1
  6
Continuous
 62
     2
100
AcDbHatch
 10
0.0
 20
0.0
 30
0.0
210
0.0
220
0.0
230
1.0
  2
_USER
 70
     0
 71
     1
 91
        2
 92
        1
 93
       12
 72
     1
 10
-57.5584217688849
 20
19.14584503237779
 11
-58.89434959531258
 21
19.14584503237779
 72
     1
 10
-58.89434959531258
 20
19.14584503237779
 11
-58.89434959531258
 21
18.66596067863608
 72
     1
 10
-58.89434959531258
 20
18.66596067863608
 11
-57.5584217688849
 21
18.66596067863608
 72
     1
 10
-57.5584217688849
 20
18.66596067863608
 11
-57.5584217688849
 21
17.96794707319378
 72
     1
 10
-57.5584217688849
 20
17.96794707319378
 11
-58.89434959531258
 21
17.96794707319378
 72
     1
 10
-58.89434959531258
 20
17.96794707319378
 11
-58.89434959531258
 21
17.48806271945207
 72
     1
 10
-58.89434959531258
 20
17.48806271945207
 11
-57.5584217688849
 21
17.48806271945207
 72
     1
 10
-57.5584217688849
 20
17.48806271945207
 11
-57.5584217688849
 21
16.79004911400958
 72
     1
 10
-57.5584217688849
 20
16.79004911400958
 11
-60.70874149266589
 21
16.79004911400958
 72
     2
 10
-60.70874149266589
 20
18.31695387591489
 40
1.526904761905879
 50
90.0
 51
270.0
 73
     0
 72
     1
 10
-60.70874149266589
 20
19.84385863782077
 11
-57.5584217688849
 21
19.84385863782077
 72
     1
 10
-57.5584217688849
 20
19.84385863782077
 11
-57.5584217688849
 21
19.14584503237779
 97
       12
330
1AF
330
201
330
1B0
330
1B1
330
1B2
330
1B3
330
190
330
18F
330
18E
330
18D
330
1B4
330
1AE
 92
       16
 93
        4
 72
     2
 10
-60.4924694825007
 20
18.47368505403537
 40
0.5179085730135321
 50
38.12041979714286
 51
141.8795802028484
 73
     1
 72
     2
 10
-60.2927294461544
 20
18.31695387591489
 40
0.7717997786796724
 50
141.8795802028404
 51
218.120419797156
 73
     1
 72
     2
 10
-60.4924694825007
 20
18.16022269779447
 40
0.5179085730134315
 50
218.1204197971516
 51
321.8795802028571
 73
     1
 72
     2
 10
-60.69220951884688
 20
18.31695387591489
 40
0.7717997786796351
 50
321.879580202844
 51
398.1204197971596
 73
     1
 97
        4
330
1FB
330
1FA
330
1F5
330
1F4
 75
     1
 76
     0
 52
45.0
 41
0.1
 77
     0
 78
     1
 53
45.0
 43
0.0
 44
0.0
 45
-0.0707106781186548
 46
0.0707106781186548
 79
     0
 98
        1
 10
0.0
 20
0.0
  0
HATCH
  5
253
330
71
100
AcDbEntity
  8
1
  6
Continuous
 62
     2
100
AcDbHatch
 10
0.0
 20
0.0
 30
0.0
210
0.0
220
0.0
230
1.0
  2
_USER
 70
     0
 71
     1
 91
        4
 92
        1
 93
        8
 72
     1
 10
-69.4863487905545
 20
19.41961402241878
 11
-69.4863487905545
 21
13.85510325321857
 72
     2
 10
-69.91059340593839
 20
13.85510325321857
 40
0.4242446153832802
 50
0.0
 51
90.0
 73
     0
 72
     1
 10
-69.91059340593839
 20
13.43085863783529
 11
-75.38390549665519
 21
13.43085863783529
 72
     2
 10
-75.38390549665519
 20
13.85510325321857
 40
0.4242446153828041
 50
90.0
 51
180.0
 73
     0
 72
     1
 10
-75.80815011203799
 20
13.85510325321857
 11
-75.80815011203799
 21
19.41961402241878
 72
     2
 10
-75.38390549665519
 20
19.41961402241878
 40
0.4242446153837989
 50
180.0
 51
270.0
 73
     0
 72
     1
 10
-75.38390549665519
 20
19.84385863780258
 11
-69.91059340593839
 21
19.84385863780258
 72
     2
 10
-69.91059340593839
 20
19.41961402241878
 40
0.4242446153838841
 50
270.0
 51
360.0
 73
     0
 97
        8
330
1A3
330
1F1
330
1A4
330
1FC
330
1A1
330
1F3
330
1A2
330
1F2
 92
       16
 93
        1
 72
     2
 10
-72.76431984613768
 20
17.10073179406328
 40
0.4709789327785074
 50
0.0
 51
360.0
 73
     1
 97
        1
330
217
 92
       16
 93
        8
 72
     2
 10
-72.214462133377
 20
15.99159019409487
 40
0.3157169230765344
 50
115.3740086783517
 51
180.0
 73
     1
 72
     1
 10
-72.53017905645379
 20
15.99159019409487
 11
-72.53017905645379
 21
15.40973878739979
 72
     2
 10
-72.214462133377
 20
15.40973878739979
 40
0.315716923076792
 50
180.0
 51
269.8110329574542
 73
     1
 72
     2
 10
-72.20884599806698
 20
17.11257373496878
 40
2.018561131933267
 50
269.8110329575858
 51
450.1889670424142
 73
     1
 72
     2
 10
-72.214462133377
 20
18.81540868253788
 40
0.3157169230760746
 50
90.18896704254594
 51
180.0
 73
     1
 72
     1
 10
-72.53017905645379
 20
18.81540868253788
 11
-72.53017905645379
 21
18.20987339403109
 72
     2
 10
-72.214462133377
 20
18.20987339403109
 40
0.315716923076792
 50
180.0
 51
244.6259913216482
 73
     1
 72
     2
 10
-72.74050483146488
 20
17.10073179406328
 40
0.9118481501444557
 50
295.3740086781926
 51
424.6259913218234
 73
     0
 97
        8
330
209
330
16A
330
206
330
207
330
1E5
330
169
330
208
330
1E4
 92
       16
 93
       12
 72
     2
 10
-74.7900108199087
 20
14.45913111646888
 40
0.3157169230756836
 50
180.0
 51
270.0
 73
     1
 72
     1
 10
-74.7900108199087
 20
14.14341419339218
 11
-73.31417755889908
 21
14.14341419339218
 72
     2
 10
-73.31417755889908
 20
14.45913111646888
 40
0.3157169230766996
 50
270.0
 51
360.0
 73
     1
 72
     1
 10
-72.99846063582248
 20
14.45913111646888
 11
-72.99846063582248
 21
15.98990204800049
 72
     2
 10
-73.31417755889908
 20
15.98990204800049
 40
0.315716923076593
 50
0.0
 51
64.80558935146041
 73
     1
 72
     2
 10
-72.79159311132409
 20
17.10073179406328
 40
0.9118975235576114
 50
115.1944106485123
 51
244.8055893514717
 73
     0
 72
     2
 10
-73.31417755889908
 20
18.21156154012547
 40
0.3157169230761203
 50
295.1944106485397
 51
360.0
 73
     1
 72
     1
 10
-72.99846063582248
 20
18.21156154012547
 11
-72.99846063582248
 21
18.81558615918598
 72
     2
 10
-73.31417755889908
 20
18.81558615918598
 40
0.315716923076593
 50
0.0
 51
90.0
 73
     1
 72
     1
 10
-73.31417755889908
 20
19.13130308226218
 11
-74.7900108199087
 21
19.13130308226218
 72
     2
 10
-74.7900108199087
 20
18.81558615918598
 40
0.3157169230761987
 50
90.0
 51
180.0
 73
     1
 72
     1
 10
-75.10572774298439
 20
18.81558615918598
 11
-75.10572774298439
 21
14.45913111646888
 97
       12
330
1ED
330
1A5
330
1F0
330
1A0
330
1FD
330
1FE
330
1EF
330
19F
330
1EE
330
19E
330
1FF
330
19D
 75
     1
 76
     0
 52
45.0
 41
0.1
 77
     0
 78
     1
 53
45.0
 43
0.0
 44
0.0
 45
-0.0707106781186548
 46
0.0707106781186548
 79
     0
 98
        1
 10
0.0
 20
0.0
  0
HATCH
  5
254
330
71
100
AcDbEntity
  8
1
  6
Continuous
 62
     2
100
AcDbHatch
 10
0.0
 20
0.0
 30
0.0
210
0.0
220
0.0
230
1.0
  2
_USER
 70
     0
 71
     1
 91
        4
 92
        1
 93
        8
 72
     1
 10
-69.4863487905545
 20
19.41961402241878
 11
-69.4863487905545
 21
13.85510325321857
 72
     2
 10
-69.91059340593839
 20
13.85510325321857
 40
0.4242446153832802
 50
0.0
 51
90.0
 73
     0
 72
     1
 10
-69.91059340593839
 20
13.43085863783529
 11
-75.38390549665519
 21
13.43085863783529
 72
     2
 10
-75.38390549665519
 20
13.85510325321857
 40
0.4242446153828041
 50
90.0
 51
180.0
 73
     0
 72
     1
 10
-75.80815011203799
 20
13.85510325321857
 11
-75.80815011203799
 21
19.41961402241878
 72
     2
 10
-75.38390549665519
 20
19.41961402241878
 40
0.4242446153837989
 50
180.0
 51
270.0
 73
     0
 72
     1
 10
-75.38390549665519
 20
19.84385863780258
 11
-69.91059340593839
 21
19.84385863780258
 72
     2
 10
-69.91059340593839
 20
19.41961402241878
 40
0.4242446153838841
 50
270.0
 51
360.0
 73
     0
 97
        8
330
1A3
330
1F1
330
1A4
330
1FC
330
1A1
330
1F3
330
1A2
330
1F2
 92
       16
 93
        1
 72
     2
 10
-72.76431984613768
 20
17.10073179406328
 40
0.4709789327785074
 50
0.0
 51
360.0
 73
     1
 97
        1
330
217
 92
       16
 93
        8
 72
     2
 10
-72.214462133377
 20
15.99159019409487
 40
0.3157169230765344
 50
115.3740086783517
 51
180.0
 73
     1
 72
     1
 10
-72.53017905645379
 20
15.99159019409487
 11
-72.53017905645379
 21
15.40973878739979
 72
     2
 10
-72.214462133377
 20
15.40973878739979
 40
0.315716923076792
 50
180.0
 51
269.8110329574542
 73
     1
 72
     2
 10
-72.20884599806698
 20
17.11257373496878
 40
2.018561131933267
 50
269.8110329575858
 51
450.1889670424142
 73
     1
 72
     2
 10
-72.214462133377
 20
18.81540868253788
 40
0.3157169230760746
 50
90.18896704254594
 51
180.0
 73
     1
 72
     1
 10
-72.53017905645379
 20
18.81540868253788
 11
-72.53017905645379
 21
18.20987339403109
 72
     2
 10
-72.214462133377
 20
18.20987339403109
 40
0.315716923076792
 50
180.0
 51
244.6259913216482
 73
     1
 72
     2
 10
-72.74050483146488
 20
17.10073179406328
 40
0.9118481501444557
 50
295.3740086781926
 51
424.6259913218234
 73
     0
 97
        8
330
209
330
16A
330
206
330
207
330
1E5
330
169
330
208
330
1E4
 92
       16
 93
       12
 72
     2
 10
-74.7900108199087
 20
14.45913111646888
 40
0.3157169230756836
 50
180.0
 51
270.0
 73
     1
 72
     1
 10
-74.7900108199087
 20
14.14341419339218
 11
-73.31417755889908
 21
14.14341419339218
 72
     2
 10
-73.31417755889908
 20
14.45913111646888
 40
0.3157169230766996
 50
270.0
 51
360.0
 73
     1
 72
     1
 10
-72.99846063582248
 20
14.45913111646888
 11
-72.99846063582248
 21
15.98990204800049
 72
     2
 10
-73.31417755889908
 20
15.98990204800049
 40
0.315716923076593
 50
0.0
 51
64.80558935146041
 73
     1
 72
     2
 10
-72.79159311132409
 20
17.10073179406328
 40
0.9118975235576114
 50
115.1944106485123
 51
244.8055893514717
 73
     0
 72
     2
 10
-73.31417755889908
 20
18.21156154012547
 40
0.3157169230761203
 50
295.1944106485397
 51
360.0
 73
     1
 72
     1
 10
-72.99846063582248
 20
18.21156154012547
 11
-72.99846063582248
 21
18.81558615918598
 72
     2
 10
-73.31417755889908
 20
18.81558615918598
 40
0.315716923076593
 50
0.0
 51
90.0
 73
     1
 72
     1
 10
-73.31417755889908
 20
19.13130308226218
 11
-74.7900108199087
 21
19.13130308226218
 72
     2
 10
-74.7900108199087
 20
18.81558615918598
 40
0.3157169230761987
 50
90.0
 51
180.0
 73
     1
 72
     1
 10
-75.10572774298439
 20
18.81558615918598
 11
-75.10572774298439
 21
14.45913111646888
 97
       12
330
1ED
330
1A5
330
1F0
330
1A0
330
1FD
330
1FE
330
1EF
330
19F
330
1EE
330
19E
330
1FF
330
19D
 75
     1
 76
     0
 52
45.0
 41
0.1
 77
     0
 78
     1
 53
45.0
 43
0.0
 44
0.0
 45
-0.0707106781186548
 46
0.0707106781186548
 79
     0
 98
        1
 10
0.0
 20
0.0
  0
HATCH
  5
255
330
71
100
AcDbEntity
  8
1
  6
Continuous
 62
     2
100
AcDbHatch
 10
0.0
 20
0.0
 30
0.0
210
0.0
220
0.0
230
1.0
  2
_USER
 70
     0
 71
     1
 91
        1
 92
        1
 93
       18
 72
     1
 10
-47.89680088133349
 20
15.69940285552278
 11
-48.70789991880687
 21
15.69940285552278
 72
     1
 10
-48.70789991880687
 20
15.69940285552278
 11
-48.70789991880687
 21
13.43085863783529
 72
     1
 10
-48.70789991880687
 20
13.43085863783529
 11
-49.90069262097458
 21
13.43085863783529
 72
     1
 10
-49.90069262097458
 20
13.43085863783529
 11
-49.90069262097458
 21
15.69940285552278
 72
     1
 10
-49.90069262097458
 20
15.69940285552278
 11
-51.00433192054268
 21
15.69940285552278
 72
     2
 10
-51.00433192054268
 20
14.74487984869668
 40
0.9545230068261006
 50
90.0
 51
109.3371432194319
 73
     1
 72
     2
 10
-51.15100191864639
 20
15.16283482907957
 40
0.5115800601944194
 50
109.3371432194851
 51
151.4785267424226
 73
     1
 72
     2
 10
-50.773644660565
 20
14.95776339974057
 40
0.9410597353348915
 50
151.4785267423625
 51
208.5214732576695
 73
     1
 72
     2
 10
-51.15100191864639
 20
14.75269197040208
 40
0.5115800601960208
 50
208.5214732576864
 51
246.6277221118445
 73
     1
 72
     2
 10
-50.99456188594328
 20
15.11468398911208
 40
0.9059297849852797
 50
246.6277221118177
 51
288.4480761180808
 73
     1
 72
     2
 10
-51.41272961960519
 20
16.36822976514867
 40
2.227384008972744
 50
288.4480761181333
 51
301.9309089499397
 73
     1
 72
     1
 10
-50.23467457758127
 20
14.47787904599889
 11
-50.23467457758127
 21
13.60536203919557
 72
     2
 10
-51.57060249469799
 20
18.27044434499697
 40
4.852596863498815
 50
74.0200087416614
 51
84.8418552303637
 73
     0
 72
     2
 10
-51.28174639996217
 20
15.07055376177539
 40
1.639695123940456
 50
84.84185523032401
 51
164.9381082228988
 73
     0
 72
     2
 10
-51.70087424342378
 20
14.95776339974057
 40
1.205656168393002
 50
164.9381082229043
 51
195.0618917770971
 73
     0
 72
     2
 10
-51.28174639996217
 20
14.84497303770567
 40
1.63969512394022
 50
195.0618917771049
 51
270.0
 73
     0
 72
     1
 10
-51.28174639996217
 20
16.48466816164589
 11
-47.89680088133349
 21
16.48466816164637
 72
     1
 10
-47.89680088133349
 20
16.48466816164637
 11
-47.89680088133349
 21
15.69940285552278
 97
       18
330
16C
330
202
330
203
330
1EB
330
1EA
330
1D0
330
1E9
330
1E8
330
204
330
1E7
330
205
330
1E6
330
1D1
330
16B
330
170
330
16F
330
16E
330
16D
 75
     1
 76
     0
 52
45.0
 41
0.1
 77
     0
 78
     1
 53
45.0
 43
0.0
 44
0.0
 45
-0.0707106781186548
 46
0.0707106781186548
 79
     0
 98
        1
 10
0.0
 20
0.0
  0
HATCH
  5
256
330
71
100
AcDbEntity
  8
1
  6
Continuous
 62
     2
100
AcDbHatch
 10
0.0
 20
0.0
 30
0.0
210
0.0
220
0.0
230
1.0
  2
_USER
 70
     0
 71
     1
 91
        1
 92
        1
 93
       18
 72
     1
 10
-47.89680088133349
 20
15.69940285552278
 11
-48.70789991880687
 21
15.69940285552278
 72
     1
 10
-48.70789991880687
 20
15.69940285552278
 11
-48.70789991880687
 21
13.43085863783529
 72
     1
 10
-48.70789991880687
 20
13.43085863783529
 11
-49.90069262097458
 21
13.43085863783529
 72
     1
 10
-49.90069262097458
 20
13.43085863783529
 11
-49.90069262097458
 21
15.69940285552278
 72
     1
 10
-49.90069262097458
 20
15.69940285552278
 11
-51.00433192054268
 21
15.69940285552278
 72
     2
 10
-51.00433192054268
 20
14.74487984869668
 40
0.9545230068261006
 50
90.0
 51
109.3371432194319
 73
     1
 72
     2
 10
-51.15100191864639
 20
15.16283482907957
 40
0.5115800601944194
 50
109.3371432194851
 51
151.4785267424226
 73
     1
 72
     2
 10
-50.773644660565
 20
14.95776339974057
 40
0.9410597353348915
 50
151.4785267423625
 51
208.5214732576695
 73
     1
 72
     2
 10
-51.15100191864639
 20
14.75269197040208
 40
0.5115800601960208
 50
208.5214732576864
 51
246.6277221118445
 73
     1
 72
     2
 10
-50.99456188594328
 20
15.11468398911208
 40
0.9059297849852797
 50
246.6277221118177
 51
288.4480761180808
 73
     1
 72
     2
 10
-51.41272961960519
 20
16.36822976514867
 40
2.227384008972744
 50
288.4480761181333
 51
301.9309089499397
 73
     1
 72
     1
 10
-50.23467457758127
 20
14.47787904599889
 11
-50.23467457758127
 21
13.60536203919557
 72
     2
 10
-51.57060249469799
 20
18.27044434499697
 40
4.852596863498815
 50
74.0200087416614
 51
84.8418552303637
 73
     0
 72
     2
 10
-51.28174639996217
 20
15.07055376177539
 40
1.639695123940456
 50
84.84185523032401
 51
164.9381082228988
 73
     0
 72
     2
 10
-51.70087424342378
 20
14.95776339974057
 40
1.205656168393002
 50
164.9381082229043
 51
195.0618917770971
 73
     0
 72
     2
 10
-51.28174639996217
 20
14.84497303770567
 40
1.63969512394022
 50
195.0618917771049
 51
270.0
 73
     0
 72
     1
 10
-51.28174639996217
 20
16.48466816164589
 11
-47.89680088133349
 21
16.48466816164637
 72
     1
 10
-47.89680088133349
 20
16.48466816164637
 11
-47.89680088133349
 21
15.69940285552278
 97
       18
330
16C
330
202
330
203
330
1EB
330
1EA
330
1D0
330
1E9
330
1E8
330
204
330
1E7
330
205
330
1E6
330
1D1
330
16B
330
170
330
16F
330
16E
330
16D
 75
     1
 76
     0
 52
45.0
 41
0.1
 77
     0
 78
     1
 53
45.0
 43
0.0
 44
0.0
 45
-0.0707106781186548
 46
0.0707106781186548
 79
     0
 98
        1
 10
0.0
 20
0.0
  0
HATCH
  5
257
330
71
100
AcDbEntity
  8
1
  6
Continuous
 62
     2
100
AcDbHatch
 10
0.0
 20
0.0
 30
0.0
210
0.0
220
0.0
230
1.0
  2
_USER
 70
     0
 71
     1
 91
        1
 92
        1
 93
       14
 72
     2
 10
-67.38444787921509
 20
14.84497303770567
 40
1.639695123940505
 50
84.84185523036236
 51
164.9381082228865
 73
     1
 72
     2
 10
-67.80357572267789
 20
14.95776339974057
 40
1.205656168390943
 50
164.9381082228765
 51
195.0618917770949
 73
     1
 72
     2
 10
-67.38444787921509
 20
15.07055376177539
 40
1.639695123939389
 50
195.0618917770898
 51
275.1581447696395
 73
     1
 72
     2
 10
-67.673303973951
 20
18.27044434499697
 40
4.852596863498136
 50
275.1581447696249
 51
285.9799912583529
 73
     1
 72
     1
 10
-66.3373760568332
 20
13.60536203919617
 11
-66.3373760568332
 21
14.47787904599937
 72
     2
 10
-67.51543109885807
 20
16.36822976514927
 40
2.227384008972737
 50
58.0690910500408
 51
71.55192388186722
 73
     0
 72
     2
 10
-67.09726336519728
 20
15.11468398911208
 40
0.905929784984916
 50
71.55192388184147
 51
113.3722778881291
 73
     0
 72
     2
 10
-67.2537033978993
 20
14.75269197040208
 40
0.5115800601948034
 50
113.3722778881729
 51
151.4785267423044
 73
     0
 72
     2
 10
-66.87634613981899
 20
14.95776339974057
 40
0.9410597353332545
 50
151.4785267422942
 51
208.5214732577331
 73
     0
 72
     2
 10
-67.2537033978993
 20
15.16283482907957
 40
0.5115800601948796
 50
208.5214732576956
 51
246.6277221118009
 73
     0
 72
     2
 10
-67.09726336519728
 20
14.80084281036898
 40
0.9059297849853211
 50
246.6277221118709
 51
288.4480761181465
 73
     0
 72
     2
 10
-67.51543109885807
 20
13.54729703433239
 40
2.227384008973474
 50
288.4480761181328
 51
301.9309089499593
 73
     0
 72
     1
 10
-66.3373760568332
 20
15.43764775348228
 11
-66.3373760568332
 21
16.31016476028557
 72
     2
 10
-67.673303973951
 20
11.64508245448468
 40
4.852596863498064
 50
74.02000874164737
 51
84.84185523037506
 73
     1
 97
       14
330
20A
330
20B
330
20C
330
20D
330
1D2
330
1E3
330
1E2
330
1E1
330
20E
330
20F
330
1E0
330
210
330
1D3
330
1DF
 75
     1
 76
     0
 52
45.0
 41
0.1
 77
     0
 78
     1
 53
45.0
 43
0.0
 44
0.0
 45
-0.0707106781186548
 46
0.0707106781186548
 79
     0
 98
        1
 10
0.0
 20
0.0
  0
HATCH
  5
258
330
71
100
AcDbEntity
  8
1
  6
Continuous
 62
     2
100
AcDbHatch
 10
0.0
 20
0.0
 30
0.0
210
0.0
220
0.0
230
1.0
  2
_USER
 70
     0
 71
     1
 91
        1
 92
        1
 93
       14
 72
     2
 10
-67.38444787921509
 20
14.84497303770567
 40
1.639695123940505
 50
84.84185523036236
 51
164.9381082228865
 73
     1
 72
     2
 10
-67.80357572267789
 20
14.95776339974057
 40
1.205656168390943
 50
164.9381082228765
 51
195.0618917770949
 73
     1
 72
     2
 10
-67.38444787921509
 20
15.07055376177539
 40
1.639695123939389
 50
195.0618917770898
 51
275.1581447696395
 73
     1
 72
     2
 10
-67.673303973951
 20
18.27044434499697
 40
4.852596863498136
 50
275.1581447696249
 51
285.9799912583529
 73
     1
 72
     1
 10
-66.3373760568332
 20
13.60536203919617
 11
-66.3373760568332
 21
14.47787904599937
 72
     2
 10
-67.51543109885807
 20
16.36822976514927
 40
2.227384008972737
 50
58.0690910500408
 51
71.55192388186722
 73
     0
 72
     2
 10
-67.09726336519728
 20
15.11468398911208
 40
0.905929784984916
 50
71.55192388184147
 51
113.3722778881291
 73
     0
 72
     2
 10
-67.2537033978993
 20
14.75269197040208
 40
0.5115800601948034
 50
113.3722778881729
 51
151.4785267423044
 73
     0
 72
     2
 10
-66.87634613981899
 20
14.95776339974057
 40
0.9410597353332545
 50
151.4785267422942
 51
208.5214732577331
 73
     0
 72
     2
 10
-67.2537033978993
 20
15.16283482907957
 40
0.5115800601948796
 50
208.5214732576956
 51
246.6277221118009
 73
     0
 72
     2
 10
-67.09726336519728
 20
14.80084281036898
 40
0.9059297849853211
 50
246.6277221118709
 51
288.4480761181465
 73
     0
 72
     2
 10
-67.51543109885807
 20
13.54729703433239
 40
2.227384008973474
 50
288.4480761181328
 51
301.9309089499593
 73
     0
 72
     1
 10
-66.3373760568332
 20
15.43764775348228
 11
-66.3373760568332
 21
16.31016476028557
 72
     2
 10
-67.673303973951
 20
11.64508245448468
 40
4.852596863498064
 50
74.02000874164737
 51
84.84185523037506
 73
     1
 97
       14
330
20A
330
20B
330
20C
330
20D
330
1D2
330
1E3
330
1E2
330
1E1
330
20E
330
20F
330
1E0
330
210
330
1D3
330
1DF
 75
     1
 76
     0
 52
45.0
 41
0.1
 77
     0
 78
     1
 53
45.0
 43
0.0
 44
0.0
 45
-0.0707106781186548
 46
0.0707106781186548
 79
     0
 98
        1
 10
0.0
 20
0.0
  0
ENDBLK
  5
73
330
71
100
AcDbEntity
  8
0
100
AcDbBlockEnd
  0
BLOCK
  5
75
330
74
100
AcDbEntity
  8
0
100
AcDbBlockBegin
  2
_punkt
 70
     0
 10
49.49999952814942
 20
6.13735863781898
 30
0.0
  3
_punkt
  1

  0
LINE
  5
259
330
74
100
AcDbEntity
  8
1
  6
Continuous
 62
     2
100
AcDbLine
 10
49.49999952814942
 20
6.13735863781898
 30
0.0
 11
54.49999952814841
 21
6.13735863781898
 31
0.0
  0
LINE
  5
25A
330
74
100
AcDbEntity
  8
1
  6
Continuous
 62
     2
100
AcDbLine
 10
49.49999952814942
 20
6.13735863781898
 30
0.0
 11
49.49999952814942
 21
1.13735863781886
 31
0.0
  0
ENDBLK
  5
76
330
74
100
AcDbEntity
  8
0
100
AcDbBlockEnd
  0
BLOCK
  5
7A
330
77
100
AcDbEntity
  8
0
100
AcDbBlockBegin
  2
A4I_CS
 70
     0
 10
49.49999952814942
 20
1.13735863781886
 30
0.0
  3
A4I_CS
  1

  0
INSERT
  5
78
330
77
100
AcDbEntity
  8
1
100
AcDbBlockReference
  2
_rahmen
 10
49.49999952814942
 20
1.13735863781886
 30
0.0
  0
INSERT
  5
79
330
77
100
AcDbEntity
  8
1
100
AcDbBlockReference
  2
_punkt
 10
49.49999952814942
 20
6.13735863781898
 30
0.0
  0
ENDBLK
  5
7B
330
77
100
AcDbEntity
  8
0
100
AcDbBlockEnd
  0
BLOCK
  5
84
330
7C
100
AcDbEntity
  8
0
100
AcDbBlockBegin
  2
1
 70
     0
 10
0.0
 20
0.0
 30
0.0
  3
1
  1

  0
INSERT
  5
7D
330
7C
100
AcDbEntity
  8
0
100
AcDbBlockReference
  2
AllgSicht1
 10
-17.20000199999848
 20
78.0
 30
0.0
  0
INSERT
  5
7E
330
7C
100
AcDbEntity
  8
0
100
AcDbBlockReference
  2
Drfsicht1
 10
-134.0
 20
93.00000000000007
 30
0.0
  0
INSERT
  5
7F
330
7C
100
AcDbEntity
  8
0
100
AcDbBlockReference
  2
Rckans1
 10
-17.20000171661366
 20
147.1500000953674
 30
0.0
  0
INSERT
  5
80
330
7C
100
AcDbEntity
  8
0
100
AcDbBlockReference
  2
SA_Links1
 10
-76.60000085830575
 20
147.1500000953674
 30
0.0
  0
INSERT
  5
81
330
7C
100
AcDbEntity
  8
0
100
AcDbBlockReference
  2
SA_Rechts1
 10
-203.3999991416931
 20
147.1500000953674
 30
0.0
  0
INSERT
  5
82
330
7C
100
AcDbEntity
  8
0
100
AcDbBlockReference
  2
Vordans1
 10
-134.0
 20
147.1500000953674
 30
0.0
  0
INSERT
  5
83
330
7C
100
AcDbEntity
  8
0
100
AcDbBlockReference
  2
A4I_CS
 10
49.49999952814942
 20
1.13735863781886
 30
0.0
  0
ENDBLK
  5
85
330
7C
100
AcDbEntity
  8
0
100
AcDbBlockEnd
  0
BLOCK
  5
C4
330
BA
100
AcDbEntity
  8
0
100
AcDbBlockBegin
  2
*D17
 70
     1
 10
0.0
 20
0.0
 30
0.0
  3
*D17
  1

  0
LINE
  5
BB
330
BA
100
AcDbEntity
  8
1
  6
Continuous
 62
     2
100
AcDbLine
 10
-179.000000009973
 20
102.5860546467536
 30
0.0
 11
-179.000000009973
 21
91.39999990463264
 31
0.0
  0
LINE
  5
BC
330
BA
100
AcDbEntity
  8
1
  6
Continuous
 62
     2
100
AcDbLine
 10
-179.000000009973
 20
91.39999990463264
 30
0.0
 11
-179.000000009973
 21
90.59999990463264
 31
0.0
  0
LINE
  5
BD
330
BA
100
AcDbEntity
  8
1
  6
Continuous
 62
     2
100
AcDbLine
 10
-179.000000009973
 20
90.59999990463264
 30
0.0
 11
-179.000000009973
 21
83.59999990463264
 31
0.0
  0
LINE
  5
BE
330
BA
100
AcDbEntity
  8
1
  6
Continuous
 62
     2
100
AcDbLine
 10
-169.000000009973
 20
91.39999990463264
 30
0.0
 11
-180.500000009973
 21
91.39999990463264
 31
0.0
  0
LINE
  5
BF
330
BA
100
AcDbEntity
  8
1
  6
Continuous
 62
     2
100
AcDbLine
 10
-169.000000009973
 20
90.59999990463264
 30
0.0
 11
-180.500000009973
 21
90.59999990463264
 31
0.0
  0
SOLID
  5
C0
330
BA
100
AcDbEntity
  8
1
 62
     2
100
AcDbTrace
 10
-179.4607837515289
 20
94.89999990463264
 30
0.0
 11
-178.5392162684171
 21
94.89999990463264
 31
0.0
 12
-179.000000009973
 22
91.39999990463264
 32
0.0
 13
-179.000000009973
 23
91.39999990463264
 33
0.0
  0
SOLID
  5
C1
330
BA
100
AcDbEntity
  8
1
 62
     2
100
AcDbTrace
 10
-178.5392162684171
 20
87.09999990463264
 30
0.0
 11
-179.4607837515289
 21
87.09999990463264
 31
0.0
 12
-179.000000009973
 22
90.59999990463264
 32
0.0
 13
-179.000000009973
 23
90.59999990463264
 33
0.0
  0
MTEXT
  5
C3
330
BA
100
AcDbEntity
  8
1
 62
     3
100
AcDbMText
 10
-180.850000009973
 20
96.11105464675363
 30
0.0
 40
3.5
 41
0.0
 71
     7
 72
     1
  1
0,8
  7
CONVERTER_11
 11
0.0
 21
1.0
 31
0.0
 73
     1
 44
0.60024009603842
  0
ENDBLK
  5
C5
330
BA
100
AcDbEntity
  8
0
100
AcDbBlockEnd
  0
BLOCK
  5
113
330
10C
100
AcDbEntity
  8
0
100
AcDbBlockBegin
  2
*D18
 70
     1
 10
0.0
 20
0.0
 30
0.0
  3
*D18
  1

  0
LINE
  5
10D
330
10C
100
AcDbEntity
  8
1
  6
Continuous
 62
     2
100
AcDbLine
 10
-169.0000000099731
 20
115.4000000953675
 30
0.0
 11
-99.00000000997305
 21
115.4000000953675
 31
0.0
  0
LINE
  5
10E
330
10C
100
AcDbEntity
  8
1
  6
Continuous
 62
     2
100
AcDbLine
 10
-169.0000000099731
 20
125.4000000953675
 30
0.0
 11
-169.0000000099731
 21
113.9000000953675
 31
0.0
  0
LINE
  5
10F
330
10C
100
AcDbEntity
  8
1
  6
Continuous
 62
     2
100
AcDbLine
 10
-99.00000000997305
 20
125.4000000953675
 30
0.0
 11
-99.00000000997305
 21
113.9000000953675
 31
0.0
  0
SOLID
  5
110
330
10C
100
AcDbEntity
  8
1
 62
     2
100
AcDbTrace
 10
-165.5000000099731
 20
115.8607838369234
 30
0.0
 11
-165.5000000099731
 21
114.9392163538116
 31
0.0
 12
-169.0000000099731
 22
115.4000000953675
 32
0.0
 13
-169.0000000099731
 23
115.4000000953675
 33
0.0
  0
SOLID
  5
111
330
10C
100
AcDbEntity
  8
1
 62
     2
100
AcDbTrace
 10
-102.500000009973
 20
114.9392163538116
 30
0.0
 11
-102.500000009973
 21
115.8607838369234
 31
0.0
 12
-99.00000000997305
 22
115.4000000953675
 32
0.0
 13
-99.00000000997305
 23
115.4000000953675
 33
0.0
  0
MTEXT
  5
112
330
10C
100
AcDbEntity
  8
1
 62
     3
100
AcDbMText
 10
-136.6250000099731
 20
116.9000000953675
 30
0.0
 40
3.5
 41
0.0
 71
     7
 72
     1
  1
70
  7
CONVERTER_11
 11
0.9999999999970619
 21
2.424068405545306E-6
 31
0.0
 73
     1
 44
0.60024009603842
  0
ENDBLK
  5
114
330
10C
100
AcDbEntity
  8
0
100
AcDbBlockEnd
  0
BLOCK
  5
11E
330
117
100
AcDbEntity
  8
0
100
AcDbBlockBegin
  2
*D19
 70
     1
 10
0.0
 20
0.0
 30
0.0
  3
*D19
  1

  0
LINE
  5
118
330
117
100
AcDbEntity
  8
1
  6
Continuous
 62
     2
100
AcDbLine
 10
-179.0000000099731
 20
125.4000000953675
 30
0.0
 11
-179.0000000099731
 21
168.9000000953674
 31
0.0
  0
LINE
  5
119
330
117
100
AcDbEntity
  8
1
  6
Continuous
 62
     2
100
AcDbLine
 10
-169.0000000099731
 20
125.4000000953675
 30
0.0
 11
-180.5000000099731
 21
125.4000000953675
 31
0.0
  0
LINE
  5
11A
330
117
100
AcDbEntity
  8
1
  6
Continuous
 62
     2
100
AcDbLine
 10
-160.3397459721287
 20
168.9000000953674
 30
0.0
 11
-180.5000000099731
 21
168.9000000953674
 31
0.0
  0
SOLID
  5
11B
330
117
100
AcDbEntity
  8
1
 62
     2
100
AcDbTrace
 10
-179.460783751529
 20
128.9000000953675
 30
0.0
 11
-178.5392162684172
 21
128.9000000953675
 31
0.0
 12
-179.0000000099731
 22
125.4000000953675
 32
0.0
 13
-179.0000000099731
 23
125.4000000953675
 33
0.0
  0
SOLID
  5
11C
330
117
100
AcDbEntity
  8
1
 62
     2
100
AcDbTrace
 10
-178.5392162684172
 20
165.4000000953674
 30
0.0
 11
-179.460783751529
 21
165.4000000953674
 31
0.0
 12
-179.0000000099731
 22
168.9000000953674
 32
0.0
 13
-179.0000000099731
 23
168.9000000953674
 33
0.0
  0
MTEXT
  5
11D
330
117
100
AcDbEntity
  8
1
 62
     3
100
AcDbMText
 10
-180.8500000099731
 20
140.614294529168
 30
0.0
 40
3.5
 41
0.0
 71
     7
 72
     1
  1
43,5
  7
CONVERTER_11
 11
0.0
 21
1.0
 31
0.0
 73
     1
 44
0.60024009603842
  0
ENDBLK
  5
11F
330
117
100
AcDbEntity
  8
0
100
AcDbBlockEnd
  0
ENDSEC
  0
SECTION
  2
ENTITIES
  0
INSERT
  5
86
330
1F
100
AcDbEntity
  8
1
100
AcDbBlockReference
  2
1
 10
0.0
 20
0.0
 30
0.0
  0
ENDSEC
  0
SECTION
  2
OBJECTS
  0
DICTIONARY
  5
C
330
0
100
AcDbDictionary
281
     1
  3
ACAD_GROUP
350
D
  3
ACAD_LAYOUT
350
1A
  3
ACAD_MATERIAL
350
3B
  3
ACAD_MLEADERSTYLE
350
282
  3
ACAD_MLINESTYLE
350
17
  3
ACAD_PLOTSETTINGS
350
19
  3
ACAD_PLOTSTYLENAME
350
E
  3
ACAD_TABLESTYLE
350
281
  3
ACAD_VISUALSTYLE
350
2A
  0
DICTIONARY
  5
D
102
{ACAD_REACTORS
330
C
102
}
330
C
100
AcDbDictionary
281
     1
  0
DICTIONARY
  5
1A
102
{ACAD_REACTORS
330
C
102
}
330
C
100
AcDbDictionary
281
     1
  3
Layout1
350
1E
  3
Layout2
350
26
  3
Model
350
22
  0
DICTIONARY
  5
3B
102
{ACAD_REACTORS
330
C
102
}
330
C
100
AcDbDictionary
281
     1
  3
ByBlock
350
3D
  3
ByLayer
350
3C
  3
Global
350
3E
  0
DICTIONARY
  5
282
102
{ACAD_REACTORS
330
C
102
}
330
C
100
AcDbDictionary
281
     1
  0
DICTIONARY
  5
17
102
{ACAD_REACTORS
330
C
102
}
330
C
100
AcDbDictionary
281
     1
  3
Standard
350
18
  0
DICTIONARY
  5
19
102
{ACAD_REACTORS
330
C
102
}
330
C
100
AcDbDictionary
281
     1
  0
ACDBDICTIONARYWDFLT
  5
E
102
{ACAD_REACTORS
330
C
102
}
330
C
100
AcDbDictionary
281
     1
  3
Normal
350
F
100
AcDbDictionaryWithDefault
340
F
  0
DICTIONARY
  5
281
102
{ACAD_REACTORS
330
C
102
}
330
C
100
AcDbDictionary
281
     1
  0
DICTIONARY
  5
2A
102
{ACAD_REACTORS
330
C
102
}
330
C
100
AcDbDictionary
281
     1
  3
2dWireframe
350
2F
  3
3D Hidden
350
31
  3
3dWireframe
350
30
  3
Basic
350
32
  3
Brighten
350
36
  3
ColorChange
350
3A
  3
Conceptual
350
34
  3
Dim
350
35
  3
Facepattern
350
39
  3
Flat
350
2B
  3
FlatWithEdges
350
2C
  3
Gouraud
350
2D
  3
GouraudWithEdges
350
2E
  3
Linepattern
350
38
  3
Realistic
350
33
  3
Thicken
350
37
  0
LAYOUT
  5
1E
102
{ACAD_REACTORS
330
1A
102
}
330
1A
100
AcDbPlotSettings
  1

  2
none_device
  4

  6

 40
0.0
 41
0.0
 42
0.0
 43
0.0
 44
0.0
 45
0.0
 46
0.0
 47
0.0
 48
0.0
 49
0.0
140
0.0
141
0.0
142
1.0
143
1.0
 70
   688
 72
     0
 73
     0
 74
     5
  7

 75
    16
 76
     0
 77
     2
 78
   300
147
1.0
148
0.0
149
0.0
100
AcDbLayout
  1
Layout1
 70
     1
 71
     1
 10
0.0
 20
0.0
 11
12.0
 21
9.0
 12
0.0
 22
0.0
 32
0.0
 14
1.00000000000000E+20
 24
1.00000000000000E+20
 34
1.00000000000000E+20
 15
-1.00000000000000E+20
 25
-1.00000000000000E+20
 35
-1.00000000000000E+20
146
0.0
 13
0.0
 23
0.0
 33
0.0
 16
1.0
 26
0.0
 36
0.0
 17
0.0
 27
1.0
 37
0.0
 76
     0
330
1B
  0
LAYOUT
  5
26
102
{ACAD_REACTORS
330
1A
102
}
330
1A
100
AcDbPlotSettings
  1

  2
none_device
  4

  6

 40
0.0
 41
0.0
 42
0.0
 43
0.0
 44
0.0
 45
0.0
 46
0.0
 47
0.0
 48
0.0
 49
0.0
140
0.0
141
0.0
142
1.0
143
1.0
 70
   688
 72
     0
 73
     0
 74
     5
  7

 75
    16
 76
     0
 77
     2
 78
   300
147
1.0
148
0.0
149
0.0
100
AcDbLayout
  1
Layout2
 70
     1
 71
     2
 10
0.0
 20
0.0
 11
0.0
 21
0.0
 12
0.0
 22
0.0
 32
0.0
 14
0.0
 24
0.0
 34
0.0
 15
0.0
 25
0.0
 35
0.0
146
0.0
 13
0.0
 23
0.0
 33
0.0
 16
1.0
 26
0.0
 36
0.0
 17
0.0
 27
1.0
 37
0.0
 76
     0
330
23
  0
LAYOUT
  5
22
102
{ACAD_REACTORS
330
1A
102
}
330
1A
100
AcDbPlotSettings
  1

  2
none_device
  4

  6

 40
0.0
 41
0.0
 42
0.0
 43
0.0
 44
0.0
 45
0.0
 46
0.0
 47
0.0
 48
0.0
 49
0.0
140
0.0
141
0.0
142
1.0
143
1.0
 70
  1712
 72
     0
 73
     0
 74
     0
  7

 75
     0
 76
     0
 77
     2
 78
   300
147
1.0
148
0.0
149
0.0
100
AcDbLayout
  1
Model
 70
     1
 71
     0
 10
0.0
 20
0.0
 11
12.0
 21
9.0
 12
0.0
 22
0.0
 32
0.0
 14
-242.5000004718497
 24
1.13735863781886
 34
0.0
 15
54.49999952814841
 25
211.137358637819
 35
0.0
146
0.0
 13
0.0
 23
0.0
 33
0.0
 16
1.0
 26
0.0
 36
0.0
 17
0.0
 27
1.0
 37
0.0
 76
     0
330
1F
331
29
  0
MATERIAL
  5
3D
102
{ACAD_REACTORS
330
3B
102
}
102
{ACAD_XDICTIONARY
360
27D
102
}
330
3B
100
AcDbMaterial
  1
ByBlock
  0
MATERIAL
  5
3C
102
{ACAD_REACTORS
330
3B
102
}
102
{ACAD_XDICTIONARY
360
27B
102
}
330
3B
100
AcDbMaterial
  1
ByLayer
  0
MATERIAL
  5
3E
102
{ACAD_REACTORS
330
3B
102
}
102
{ACAD_XDICTIONARY
360
27F
102
}
330
3B
100
AcDbMaterial
  1
Global
  0
MLINESTYLE
  5
18
102
{ACAD_REACTORS
330
17
102
}
330
17
100
AcDbMlineStyle
  2
Standard
 70
     0
  3

 62
   256
 51
90.0
 52
90.0
 71
     2
 49
0.5
 62
   256
  6
BYLAYER
 49
-0.5
 62
   256
  6
BYLAYER
  0
ACDBPLACEHOLDER
  5
F
102
{ACAD_REACTORS
330
E
102
}
330
E
  0
VISUALSTYLE
  5
2F
102
{ACAD_REACTORS
330
2A
102
}
102
{ACAD_XDICTIONARY
360
263
102
}
330
2A
100
AcDbVisualStyle
  2
2dWireframe
 70
     4
 71
     0
 72
     2
 73
     0
 90
        0
 40
-0.6
 41
-30.0
 62
     5
 63
     7
421
 16777215
 74
     1
 91
        4
 64
     7
 65
   257
 75
     1
175
     1
 42
1.0
 92
        0
 66
   257
 43
1.0
 76
     1
 77
     6
 78
     2
 67
     7
 79
     5
170
     0
171
     0
290
     0
174
     0
 93
        1
 44
0.0
173
     0
291
     0
 45
0.0
1001
ACAD
1000
AcDbSavedByObjectVersion
1070
     0
  0
VISUALSTYLE
  5
31
102
{ACAD_REACTORS
330
2A
102
}
102
{ACAD_XDICTIONARY
360
267
102
}
330
2A
100
AcDbVisualStyle
  2
3D Hidden
 70
     6
 71
     1
 72
     2
 73
     2
 90
        0
 40
-0.6
 41
-30.0
 62
     5
 63
     7
421
 16777215
 74
     2
 91
        2
 64
     7
 65
   257
 75
     2
175
     1
 42
40.0
 92
        0
 66
   257
 43
1.0
 76
     1
 77
     6
 78
     2
 67
     7
 79
     3
170
     0
171
     0
290
     0
174
     0
 93
        1
 44
0.0
173
     0
291
     0
 45
0.0
1001
ACAD
1000
AcDbSavedByObjectVersion
1070
     0
  0
VISUALSTYLE
  5
30
102
{ACAD_REACTORS
330
2A
102
}
102
{ACAD_XDICTIONARY
360
265
102
}
330
2A
100
AcDbVisualStyle
  2
3dWireframe
 70
     5
 71
     0
 72
     2
 73
     0
 90
        0
 40
-0.6
 41
-30.0
 62
     5
 63
     7
421
 16777215
 74
     1
 91
        4
 64
     7
 65
   257
 75
     1
175
     1
 42
1.0
 92
        0
 66
   257
 43
1.0
 76
     1
 77
     6
 78
     2
 67
     7
 79
     5
170
     0
171
     0
290
     0
174
     0
 93
        1
 44
0.0
173
     0
291
     0
 45
0.0
1001
ACAD
1000
AcDbSavedByObjectVersion
1070
     0
  0
VISUALSTYLE
  5
32
102
{ACAD_REACTORS
330
2A
102
}
102
{ACAD_XDICTIONARY
360
269
102
}
330
2A
100
AcDbVisualStyle
  2
Basic
 70
     7
 71
     1
 72
     0
 73
     1
 90
        0
 40
-0.6
 41
-30.0
 62
     5
 63
     7
421
 16777215
 74
     0
 91
        4
 64
     7
 65
   257
 75
     1
175
     1
 42
1.0
 92
        8
 66
     7
 43
1.0
 76
     1
 77
     6
 78
     2
 67
     7
 79
     5
170
     0
171
     0
290
     0
174
     0
 93
        1
 44
0.0
173
     0
291
     1
 45
0.0
1001
ACAD
1000
AcDbSavedByObjectVersion
1070
     0
  0
VISUALSTYLE
  5
36
102
{ACAD_REACTORS
330
2A
102
}
102
{ACAD_XDICTIONARY
360
271
102
}
330
2A
100
AcDbVisualStyle
  2
Brighten
 70
    12
 71
     2
 72
     2
 73
     0
 90
        0
 40
-0.6
 41
-30.0
 62
     5
 63
     7
421
 16777215
 74
     1
 91
        4
 64
     7
 65
   257
 75
     1
175
     1
 42
1.0
 92
        8
 66
     7
 43
1.0
 76
     1
 77
     6
 78
     2
 67
     7
 79
     5
170
     0
171
     0
290
     0
174
     0
 93
        1
 44
50.0
173
     0
291
     1
 45
0.0
1001
ACAD
1000
AcDbSavedByObjectVersion
1070
     0
  0
VISUALSTYLE
  5
3A
102
{ACAD_REACTORS
330
2A
102
}
102
{ACAD_XDICTIONARY
360
279
102
}
330
2A
100
AcDbVisualStyle
  2
ColorChange
 70
    16
 71
     2
 72
     2
 73
     3
 90
        0
 40
-0.6
 41
-30.0
 62
     5
 63
     8
421
  8421504
 74
     1
 91
        4
 64
     7
 65
   257
 75
     1
175
     1
 42
1.0
 92
        8
 66
     8
424
  8421504
 43
1.0
 76
     1
 77
     6
 78
     2
 67
     7
 79
     5
170
     0
171
     0
290
     0
174
     0
 93
        1
 44
0.0
173
     0
291
     1
 45
0.0
1001
ACAD
1000
AcDbSavedByObjectVersion
1070
     0
  0
VISUALSTYLE
  5
34
102
{ACAD_REACTORS
330
2A
102
}
102
{ACAD_XDICTIONARY
360
26D
102
}
330
2A
100
AcDbVisualStyle
  2
Conceptual
 70
     9
 71
     3
 72
     2
 73
     0
 90
        0
 40
-0.6
 41
-30.0
 62
     5
 63
     7
421
 16777215
 74
     2
 91
        2
 64
     7
 65
   257
 75
     1
175
     1
 42
40.0
 92
        8
 66
     7
 43
1.0
 76
     1
 77
     6
 78
     2
 67
     7
 79
     3
170
     0
171
     0
290
     0
174
     0
 93
        1
 44
0.0
173
     0
291
     0
 45
0.0
1001
ACAD
1000
AcDbSavedByObjectVersion
1070
     0
  0
VISUALSTYLE
  5
35
102
{ACAD_REACTORS
330
2A
102
}
102
{ACAD_XDICTIONARY
360
26F
102
}
330
2A
100
AcDbVisualStyle
  2
Dim
 70
    11
 71
     2
 72
     2
 73
     0
 90
        0
 40
-0.6
 41
-30.0
 62
     5
 63
     7
421
 16777215
 74
     1
 91
        4
 64
     7
 65
   257
 75
     1
175
     1
 42
1.0
 92
        8
 66
     7
 43
1.0
 76
     1
 77
     6
 78
     2
 67
     7
 79
     5
170
     0
171
     0
290
     0
174
     0
 93
        1
 44
-50.0
173
     0
291
     1
 45
0.0
1001
ACAD
1000
AcDbSavedByObjectVersion
1070
     0
  0
VISUALSTYLE
  5
39
102
{ACAD_REACTORS
330
2A
102
}
102
{ACAD_XDICTIONARY
360
277
102
}
330
2A
100
AcDbVisualStyle
  2
Facepattern
 70
    15
 71
     2
 72
     2
 73
     0
 90
        0
 40
-0.6
 41
-30.0
 62
     5
 63
     7
421
 16777215
 74
     1
 91
        4
 64
     7
 65
   257
 75
     1
175
     1
 42
1.0
 92
        8
 66
     7
 43
1.0
 76
     1
 77
     6
 78
     2
 67
     7
 79
     5
170
     0
171
     0
290
     0
174
     0
 93
        1
 44
0.0
173
     0
291
     1
 45
0.0
1001
ACAD
1000
AcDbSavedByObjectVersion
1070
     0
  0
VISUALSTYLE
  5
2B
102
{ACAD_REACTORS
330
2A
102
}
102
{ACAD_XDICTIONARY
360
25B
102
}
330
2A
100
AcDbVisualStyle
  2
Flat
 70
     0
 71
     2
 72
     1
 73
     1
 90
        2
 40
-0.6
 41
30.0
 62
     5
 63
     7
421
 16777215
 74
     0
 91
        4
 64
     7
 65
   257
 75
     1
175
     1
 42
1.0
 92
        8
 66
     7
 43
1.0
 76
     1
 77
     6
 78
     2
 67
     7
 79
     5
170
     0
171
     0
290
     0
174
     0
 93
       13
 44
0.0
173
     0
291
     1
 45
0.0
1001
ACAD
1000
AcDbSavedByObjectVersion
1070
     0
  0
VISUALSTYLE
  5
2C
102
{ACAD_REACTORS
330
2A
102
}
102
{ACAD_XDICTIONARY
360
25D
102
}
330
2A
100
AcDbVisualStyle
  2
FlatWithEdges
 70
     1
 71
     2
 72
     1
 73
     1
 90
        2
 40
-0.6
 41
30.0
 62
     5
 63
     7
421
 16777215
 74
     1
 91
        4
 64
     7
 65
   257
 75
     1
175
     1
 42
1.0
 92
        0
 66
   257
 43
1.0
 76
     1
 77
     6
 78
     2
 67
     7
 79
     5
170
     0
171
     0
290
     0
174
     0
 93
       13
 44
0.0
173
     0
291
     1
 45
0.0
1001
ACAD
1000
AcDbSavedByObjectVersion
1070
     0
  0
VISUALSTYLE
  5
2D
102
{ACAD_REACTORS
330
2A
102
}
102
{ACAD_XDICTIONARY
360
25F
102
}
330
2A
100
AcDbVisualStyle
  2
Gouraud
 70
     2
 71
     2
 72
     2
 73
     1
 90
        2
 40
-0.6
 41
30.0
 62
     5
 63
     7
421
 16777215
 74
     0
 91
        4
 64
     7
 65
   257
 75
     1
175
     1
 42
1.0
 92
        0
 66
     7
 43
1.0
 76
     1
 77
     6
 78
     2
 67
     7
 79
     5
170
     0
171
     0
290
     0
174
     0
 93
       13
 44
0.0
173
     0
291
     1
 45
0.0
1001
ACAD
1000
AcDbSavedByObjectVersion
1070
     0
  0
VISUALSTYLE
  5
2E
102
{ACAD_REACTORS
330
2A
102
}
102
{ACAD_XDICTIONARY
360
261
102
}
330
2A
100
AcDbVisualStyle
  2
GouraudWithEdges
 70
     3
 71
     2
 72
     2
 73
     1
 90
        2
 40
-0.6
 41
30.0
 62
     5
 63
     7
421
 16777215
 74
     1
 91
        4
 64
     7
 65
   257
 75
     1
175
     1
 42
1.0
 92
        0
 66
   257
 43
1.0
 76
     1
 77
     6
 78
     2
 67
     7
 79
     5
170
     0
171
     0
290
     0
174
     0
 93
       13
 44
0.0
173
     0
291
     1
 45
0.0
1001
ACAD
1000
AcDbSavedByObjectVersion
1070
     0
  0
VISUALSTYLE
  5
38
102
{ACAD_REACTORS
330
2A
102
}
102
{ACAD_XDICTIONARY
360
275
102
}
330
2A
100
AcDbVisualStyle
  2
Linepattern
 70
    14
 71
     2
 72
     2
 73
     0
 90
        0
 40
-0.6
 41
-30.0
 62
     5
 63
     7
421
 16777215
 74
     1
 91
        4
 64
     7
 65
   257
 75
     7
175
     7
 42
1.0
 92
        8
 66
     7
 43
1.0
 76
     1
 77
     6
 78
     2
 67
     7
 79
     5
170
     0
171
     0
290
     0
174
     0
 93
        1
 44
0.0
173
     0
291
     1
 45
0.0
1001
ACAD
1000
AcDbSavedByObjectVersion
1070
     0
  0
VISUALSTYLE
  5
33
102
{ACAD_REACTORS
330
2A
102
}
102
{ACAD_XDICTIONARY
360
26B
102
}
330
2A
100
AcDbVisualStyle
  2
Realistic
 70
     8
 71
     2
 72
     2
 73
     0
 90
        0
 40
-0.6
 41
-30.0
 62
     5
 63
     7
421
 16777215
 74
     1
 91
        0
 64
     7
 65
   257
 75
     1
175
     1
 42
1.0
 92
        8
 66
     8
424
  7895160
 43
1.0
 76
     1
 77
     6
 78
     2
 67
     7
 79
     5
170
     0
171
     0
290
     0
174
     0
 93
       13
 44
0.0
173
     0
291
     0
 45
0.0
1001
ACAD
1000
AcDbSavedByObjectVersion
1070
     0
  0
VISUALSTYLE
  5
37
102
{ACAD_REACTORS
330
2A
102
}
102
{ACAD_XDICTIONARY
360
273
102
}
330
2A
100
AcDbVisualStyle
  2
Thicken
 70
    13
 71
     2
 72
     2
 73
     0
 90
        0
 40
-0.6
 41
-30.0
 62
     5
 63
     7
421
 16777215
 74
     1
 91
        4
 64
     7
 65
   257
 75
     1
175
     1
 42
1.0
 92
       12
 66
     7
 43
1.0
 76
     1
 77
     6
 78
     2
 67
     7
 79
     5
170
     0
171
     0
290
     0
174
     0
 93
        1
 44
0.0
173
     0
291
     1
 45
0.0
1001
ACAD
1000
AcDbSavedByObjectVersion
1070
     0
  0
DICTIONARY
  5
27D
330
3D
100
AcDbDictionary
280
     1
281
     1
  3
ACAD_XREC_ROUNDTRIP
360
27E
  0
DICTIONARY
  5
27B
330
3C
100
AcDbDictionary
280
     1
281
     1
  3
ACAD_XREC_ROUNDTRIP
360
27C
  0
DICTIONARY
  5
27F
330
3E
100
AcDbDictionary
280
     1
281
     1
  3
ACAD_XREC_ROUNDTRIP
360
280
  0
DICTIONARY
  5
263
330
2F
100
AcDbDictionary
280
     1
281
     1
  3
ACAD_XREC_ROUNDTRIP
360
264
  0
DICTIONARY
  5
267
330
31
100
AcDbDictionary
280
     1
281
     1
  3
ACAD_XREC_ROUNDTRIP
360
268
  0
DICTIONARY
  5
265
330
30
100
AcDbDictionary
280
     1
281
     1
  3
ACAD_XREC_ROUNDTRIP
360
266
  0
DICTIONARY
  5
269
330
32
100
AcDbDictionary
280
     1
281
     1
  3
ACAD_XREC_ROUNDTRIP
360
26A
  0
DICTIONARY
  5
271
330
36
100
AcDbDictionary
280
     1
281
     1
  3
ACAD_XREC_ROUNDTRIP
360
272
  0
DICTIONARY
  5
279
330
3A
100
AcDbDictionary
280
     1
281
     1
  3
ACAD_XREC_ROUNDTRIP
360
27A
  0
DICTIONARY
  5
26D
330
34
100
AcDbDictionary
280
     1
281
     1
  3
ACAD_XREC_ROUNDTRIP
360
26E
  0
DICTIONARY
  5
26F
330
35
100
AcDbDictionary
280
     1
281
     1
  3
ACAD_XREC_ROUNDTRIP
360
270
  0
DICTIONARY
  5
277
330
39
100
AcDbDictionary
280
     1
281
     1
  3
ACAD_XREC_ROUNDTRIP
360
278
  0
DICTIONARY
  5
25B
330
2B
100
AcDbDictionary
280
     1
281
     1
  3
ACAD_XREC_ROUNDTRIP
360
25C
  0
DICTIONARY
  5
25D
330
2C
100
AcDbDictionary
280
     1
281
     1
  3
ACAD_XREC_ROUNDTRIP
360
25E
  0
DICTIONARY
  5
25F
330
2D
100
AcDbDictionary
280
     1
281
     1
  3
ACAD_XREC_ROUNDTRIP
360
260
  0
DICTIONARY
  5
261
330
2E
100
AcDbDictionary
280
     1
281
     1
  3
ACAD_XREC_ROUNDTRIP
360
262
  0
DICTIONARY
  5
275
330
38
100
AcDbDictionary
280
     1
281
     1
  3
ACAD_XREC_ROUNDTRIP
360
276
  0
DICTIONARY
  5
26B
330
33
100
AcDbDictionary
280
     1
281
     1
  3
ACAD_XREC_ROUNDTRIP
360
26C
  0
DICTIONARY
  5
273
330
37
100
AcDbDictionary
280
     1
281
     1
  3
ACAD_XREC_ROUNDTRIP
360
274
  0
XRECORD
  5
27E
102
{ACAD_REACTORS
330
27D
102
}
330
27D
100
AcDbXrecord
280
     1
102
MATERIAL
148
0.0
149
0.0
149
0.0
 93
        0
 94
      127
282
     0
 72
     1
 77
     1
171
     1
175
     1
179
     1
273
     0
  0
XRECORD
  5
27C
102
{ACAD_REACTORS
330
27B
102
}
330
27B
100
AcDbXrecord
280
     1
102
MATERIAL
148
0.0
149
0.0
149
0.0
 93
        0
 94
      127
282
     0
 72
     1
 77
     1
171
     1
175
     1
179
     1
273
     0
  0
XRECORD
  5
280
102
{ACAD_REACTORS
330
27F
102
}
330
27F
100
AcDbXrecord
280
     1
102
MATERIAL
148
0.0
149
0.0
149
0.0
 93
        0
 94
      127
282
     0
 72
     1
 77
     1
171
     1
175
     1
179
     1
273
     0
  0
XRECORD
  5
264
102
{ACAD_REACTORS
330
263
102
}
330
263
100
AcDbXrecord
280
     1
102
RTVSPropertyOp0
 70
     1
102
RTVSPropertyOp1
 70
     1
102
RTVSPropertyOp2
 70
     1
102
RTVSPropertyOp3
 70
     1
102
RTVSPropertyOp4
 70
     1
102
RTVSPropertyOp5
 70
     1
102
RTVSPropertyOp6
 70
     1
102
RTVSPropertyOp7
 70
     1
102
RTVSPropertyOp8
 70
     1
102
RTVSPropertyOp9
 70
     1
102
RTVSPropertyOp10
 70
     1
102
RTVSPropertyOp11
 70
     1
102
RTVSPropertyOp12
 70
     1
102
RTVSPropertyOp13
 70
     1
102
RTVSPropertyOp14
 70
     1
102
RTVSPropertyOp15
 70
     1
102
RTVSPropertyOp16
 70
     1
102
RTVSPropertyOp17
 70
     1
102
RTVSPropertyOp18
 70
     1
102
RTVSPropertyOp19
 70
     1
102
RTVSPropertyOp20
 70
     1
102
RTVSPropertyOp21
 70
     1
102
RTVSPropertyOp22
 70
     1
102
RTVSPropertyOp23
 70
     1
102
RTVSPropertyOp24
 70
     1
102
RTVSPropertyOp25
 70
     1
102
RTVSPropertyOp26
 70
     1
102
RTVSPropertyOp27
 70
     1
102
RTVSPropertyOp28
 70
     1
102
RTVSPropertyOp29
 70
     1
102
RTVSPropertyOp30
 70
     1
102
RTVSPropertyOp31
 70
     1
102
RTVSPropertyOp32
 70
     1
  0
XRECORD
  5
268
102
{ACAD_REACTORS
330
267
102
}
330
267
100
AcDbXrecord
280
     1
102
RTVSPropertyOp0
 70
     1
102
RTVSPropertyOp1
 70
     1
102
RTVSPropertyOp2
 70
     1
102
RTVSPropertyOp3
 70
     1
102
RTVSPropertyOp4
 70
     1
102
RTVSPropertyOp5
 70
     1
102
RTVSPropertyOp6
 70
     1
102
RTVSPropertyOp7
 70
     1
102
RTVSPropertyOp8
 70
     1
102
RTVSPropertyOp9
 70
     1
102
RTVSPropertyOp10
 70
     1
102
RTVSPropertyOp11
 70
     1
102
RTVSPropertyOp12
 70
     1
102
RTVSPropertyOp13
 70
     1
102
RTVSPropertyOp14
 70
     1
102
RTVSPropertyOp15
 70
     1
102
RTVSPropertyOp16
 70
     1
102
RTVSPropertyOp17
 70
     1
102
RTVSPropertyOp18
 70
     1
102
RTVSPropertyOp19
 70
     1
102
RTVSPropertyOp20
 70
     1
102
RTVSPropertyOp21
 70
     1
102
RTVSPropertyOp22
 70
     1
102
RTVSPropertyOp23
 70
     1
102
RTVSPropertyOp24
 70
     1
102
RTVSPropertyOp25
 70
     1
102
RTVSPropertyOp26
 70
     1
102
RTVSPropertyOp27
 70
     1
102
RTVSPropertyOp28
 70
     1
102
RTVSPropertyOp29
 70
     1
102
RTVSPropertyOp30
 70
     1
102
RTVSPropertyOp31
 70
     1
102
RTVSPropertyOp32
 70
     1
  0
XRECORD
  5
266
102
{ACAD_REACTORS
330
265
102
}
330
265
100
AcDbXrecord
280
     1
102
RTVSPropertyOp0
 70
     1
102
RTVSPropertyOp1
 70
     1
102
RTVSPropertyOp2
 70
     1
102
RTVSPropertyOp3
 70
     1
102
RTVSPropertyOp4
 70
     1
102
RTVSPropertyOp5
 70
     1
102
RTVSPropertyOp6
 70
     1
102
RTVSPropertyOp7
 70
     1
102
RTVSPropertyOp8
 70
     1
102
RTVSPropertyOp9
 70
     1
102
RTVSPropertyOp10
 70
     1
102
RTVSPropertyOp11
 70
     1
102
RTVSPropertyOp12
 70
     1
102
RTVSPropertyOp13
 70
     1
102
RTVSPropertyOp14
 70
     1
102
RTVSPropertyOp15
 70
     1
102
RTVSPropertyOp16
 70
     1
102
RTVSPropertyOp17
 70
     1
102
RTVSPropertyOp18
 70
     1
102
RTVSPropertyOp19
 70
     1
102
RTVSPropertyOp20
 70
     1
102
RTVSPropertyOp21
 70
     1
102
RTVSPropertyOp22
 70
     1
102
RTVSPropertyOp23
 70
     1
102
RTVSPropertyOp24
 70
     1
102
RTVSPropertyOp25
 70
     1
102
RTVSPropertyOp26
 70
     1
102
RTVSPropertyOp27
 70
     1
102
RTVSPropertyOp28
 70
     1
102
RTVSPropertyOp29
 70
     1
102
RTVSPropertyOp30
 70
     1
102
RTVSPropertyOp31
 70
     1
102
RTVSPropertyOp32
 70
     1
  0
XRECORD
  5
26A
102
{ACAD_REACTORS
330
269
102
}
330
269
100
AcDbXrecord
280
     1
102
RTVSPropertyOp0
 70
     1
102
RTVSPropertyOp1
 70
     1
102
RTVSPropertyOp2
 70
     1
102
RTVSPropertyOp3
 70
     1
102
RTVSPropertyOp4
 70
     1
102
RTVSPropertyOp5
 70
     1
102
RTVSPropertyOp6
 70
     1
102
RTVSPropertyOp7
 70
     1
102
RTVSPropertyOp8
 70
     1
102
RTVSPropertyOp9
 70
     1
102
RTVSPropertyOp10
 70
     1
102
RTVSPropertyOp11
 70
     1
102
RTVSPropertyOp12
 70
     1
102
RTVSPropertyOp13
 70
     1
102
RTVSPropertyOp14
 70
     1
102
RTVSPropertyOp15
 70
     1
102
RTVSPropertyOp16
 70
     1
102
RTVSPropertyOp17
 70
     1
102
RTVSPropertyOp18
 70
     1
102
RTVSPropertyOp19
 70
     1
102
RTVSPropertyOp20
 70
     1
102
RTVSPropertyOp21
 70
     1
102
RTVSPropertyOp22
 70
     1
102
RTVSPropertyOp23
 70
     1
102
RTVSPropertyOp24
 70
     1
102
RTVSPropertyOp25
 70
     1
102
RTVSPropertyOp26
 70
     1
102
RTVSPropertyOp27
 70
     1
102
RTVSPropertyOp28
 70
     1
102
RTVSPropertyOp29
 70
     1
102
RTVSPropertyOp30
 70
     1
102
RTVSPropertyOp31
 70
     1
102
RTVSPropertyOp32
 70
     1
  0
XRECORD
  5
272
102
{ACAD_REACTORS
330
271
102
}
330
271
100
AcDbXrecord
280
     1
102
RTVSPropertyOp0
 70
     1
102
RTVSPropertyOp1
 70
     1
102
RTVSPropertyOp2
 70
     1
102
RTVSPropertyOp3
 70
     1
102
RTVSPropertyOp4
 70
     1
102
RTVSPropertyOp5
 70
     1
102
RTVSPropertyOp6
 70
     1
102
RTVSPropertyOp7
 70
     1
102
RTVSPropertyOp8
 70
     1
102
RTVSPropertyOp9
 70
     1
102
RTVSPropertyOp10
 70
     1
102
RTVSPropertyOp11
 70
     1
102
RTVSPropertyOp12
 70
     1
102
RTVSPropertyOp13
 70
     1
102
RTVSPropertyOp14
 70
     1
102
RTVSPropertyOp15
 70
     1
102
RTVSPropertyOp16
 70
     1
102
RTVSPropertyOp17
 70
     1
102
RTVSPropertyOp18
 70
     1
102
RTVSPropertyOp19
 70
     1
102
RTVSPropertyOp20
 70
     1
102
RTVSPropertyOp21
 70
     1
102
RTVSPropertyOp22
 70
     1
102
RTVSPropertyOp23
 70
     1
102
RTVSPropertyOp24
 70
     1
102
RTVSPropertyOp25
 70
     1
102
RTVSPropertyOp26
 70
     1
102
RTVSPropertyOp27
 70
     1
102
RTVSPropertyOp28
 70
     1
102
RTVSPropertyOp29
 70
     1
102
RTVSPropertyOp30
 70
     1
102
RTVSPropertyOp31
 70
     1
102
RTVSPropertyOp32
 70
     1
  0
XRECORD
  5
27A
102
{ACAD_REACTORS
330
279
102
}
330
279
100
AcDbXrecord
280
     1
102
RTVSPropertyOp0
 70
     1
102
RTVSPropertyOp1
 70
     1
102
RTVSPropertyOp2
 70
     1
102
RTVSPropertyOp3
 70
     1
102
RTVSPropertyOp4
 70
     1
102
RTVSPropertyOp5
 70
     1
102
RTVSPropertyOp6
 70
     1
102
RTVSPropertyOp7
 70
     1
102
RTVSPropertyOp8
 70
     1
102
RTVSPropertyOp9
 70
     1
102
RTVSPropertyOp10
 70
     1
102
RTVSPropertyOp11
 70
     1
102
RTVSPropertyOp12
 70
     1
102
RTVSPropertyOp13
 70
     1
102
RTVSPropertyOp14
 70
     1
102
RTVSPropertyOp15
 70
     1
102
RTVSPropertyOp16
 70
     1
102
RTVSPropertyOp17
 70
     1
102
RTVSPropertyOp18
 70
     1
102
RTVSPropertyOp19
 70
     1
102
RTVSPropertyOp20
 70
     1
102
RTVSPropertyOp21
 70
     1
102
RTVSPropertyOp22
 70
     1
102
RTVSPropertyOp23
 70
     1
102
RTVSPropertyOp24
 70
     1
102
RTVSPropertyOp25
 70
     1
102
RTVSPropertyOp26
 70
     1
102
RTVSPropertyOp27
 70
     1
102
RTVSPropertyOp28
 70
     1
102
RTVSPropertyOp29
 70
     1
102
RTVSPropertyOp30
 70
     1
102
RTVSPropertyOp31
 70
     1
102
RTVSPropertyOp32
 70
     1
  0
XRECORD
  5
26E
102
{ACAD_REACTORS
330
26D
102
}
330
26D
100
AcDbXrecord
280
     1
102
RTVSPropertyOp0
 70
     1
102
RTVSPropertyOp1
 70
     1
102
RTVSPropertyOp2
 70
     1
102
RTVSPropertyOp3
 70
     1
102
RTVSPropertyOp4
 70
     1
102
RTVSPropertyOp5
 70
     1
102
RTVSPropertyOp6
 70
     1
102
RTVSPropertyOp7
 70
     1
102
RTVSPropertyOp8
 70
     1
102
RTVSPropertyOp9
 70
     1
102
RTVSPropertyOp10
 70
     1
102
RTVSPropertyOp11
 70
     1
102
RTVSPropertyOp12
 70
     1
102
RTVSPropertyOp13
 70
     1
102
RTVSPropertyOp14
 70
     1
102
RTVSPropertyOp15
 70
     1
102
RTVSPropertyOp16
 70
     1
102
RTVSPropertyOp17
 70
     1
102
RTVSPropertyOp18
 70
     1
102
RTVSPropertyOp19
 70
     1
102
RTVSPropertyOp20
 70
     1
102
RTVSPropertyOp21
 70
     1
102
RTVSPropertyOp22
 70
     1
102
RTVSPropertyOp23
 70
     1
102
RTVSPropertyOp24
 70
     1
102
RTVSPropertyOp25
 70
     1
102
RTVSPropertyOp26
 70
     1
102
RTVSPropertyOp27
 70
     1
102
RTVSPropertyOp28
 70
     1
102
RTVSPropertyOp29
 70
     1
102
RTVSPropertyOp30
 70
     1
102
RTVSPropertyOp31
 70
     1
102
RTVSPropertyOp32
 70
     1
  0
XRECORD
  5
270
102
{ACAD_REACTORS
330
26F
102
}
330
26F
100
AcDbXrecord
280
     1
102
RTVSPropertyOp0
 70
     1
102
RTVSPropertyOp1
 70
     1
102
RTVSPropertyOp2
 70
     1
102
RTVSPropertyOp3
 70
     1
102
RTVSPropertyOp4
 70
     1
102
RTVSPropertyOp5
 70
     1
102
RTVSPropertyOp6
 70
     1
102
RTVSPropertyOp7
 70
     1
102
RTVSPropertyOp8
 70
     1
102
RTVSPropertyOp9
 70
     1
102
RTVSPropertyOp10
 70
     1
102
RTVSPropertyOp11
 70
     1
102
RTVSPropertyOp12
 70
     1
102
RTVSPropertyOp13
 70
     1
102
RTVSPropertyOp14
 70
     1
102
RTVSPropertyOp15
 70
     1
102
RTVSPropertyOp16
 70
     1
102
RTVSPropertyOp17
 70
     1
102
RTVSPropertyOp18
 70
     1
102
RTVSPropertyOp19
 70
     1
102
RTVSPropertyOp20
 70
     1
102
RTVSPropertyOp21
 70
     1
102
RTVSPropertyOp22
 70
     1
102
RTVSPropertyOp23
 70
     1
102
RTVSPropertyOp24
 70
     1
102
RTVSPropertyOp25
 70
     1
102
RTVSPropertyOp26
 70
     1
102
RTVSPropertyOp27
 70
     1
102
RTVSPropertyOp28
 70
     1
102
RTVSPropertyOp29
 70
     1
102
RTVSPropertyOp30
 70
     1
102
RTVSPropertyOp31
 70
     1
102
RTVSPropertyOp32
 70
     1
  0
XRECORD
  5
278
102
{ACAD_REACTORS
330
277
102
}
330
277
100
AcDbXrecord
280
     1
102
RTVSPropertyOp0
 70
     1
102
RTVSPropertyOp1
 70
     1
102
RTVSPropertyOp2
 70
     1
102
RTVSPropertyOp3
 70
     1
102
RTVSPropertyOp4
 70
     1
102
RTVSPropertyOp5
 70
     1
102
RTVSPropertyOp6
 70
     1
102
RTVSPropertyOp7
 70
     1
102
RTVSPropertyOp8
 70
     1
102
RTVSPropertyOp9
 70
     1
102
RTVSPropertyOp10
 70
     1
102
RTVSPropertyOp11
 70
     1
102
RTVSPropertyOp12
 70
     1
102
RTVSPropertyOp13
 70
     1
102
RTVSPropertyOp14
 70
     1
102
RTVSPropertyOp15
 70
     1
102
RTVSPropertyOp16
 70
     1
102
RTVSPropertyOp17
 70
     1
102
RTVSPropertyOp18
 70
     1
102
RTVSPropertyOp19
 70
     1
102
RTVSPropertyOp20
 70
     1
102
RTVSPropertyOp21
 70
     1
102
RTVSPropertyOp22
 70
     1
102
RTVSPropertyOp23
 70
     1
102
RTVSPropertyOp24
 70
     1
102
RTVSPropertyOp25
 70
     1
102
RTVSPropertyOp26
 70
     1
102
RTVSPropertyOp27
 70
     1
102
RTVSPropertyOp28
 70
     1
102
RTVSPropertyOp29
 70
     1
102
RTVSPropertyOp30
 70
     1
102
RTVSPropertyOp31
 70
     1
102
RTVSPropertyOp32
 70
     1
  0
XRECORD
  5
25C
102
{ACAD_REACTORS
330
25B
102
}
330
25B
100
AcDbXrecord
280
     1
102
RTVSPropertyOp0
 70
     1
102
RTVSPropertyOp1
 70
     1
102
RTVSPropertyOp2
 70
     1
102
RTVSPropertyOp3
 70
     1
102
RTVSPropertyOp4
 70
     1
102
RTVSPropertyOp5
 70
     1
102
RTVSPropertyOp6
 70
     1
102
RTVSPropertyOp7
 70
     1
102
RTVSPropertyOp8
 70
     1
102
RTVSPropertyOp9
 70
     1
102
RTVSPropertyOp10
 70
     1
102
RTVSPropertyOp11
 70
     1
102
RTVSPropertyOp12
 70
     1
102
RTVSPropertyOp13
 70
     1
102
RTVSPropertyOp14
 70
     1
102
RTVSPropertyOp15
 70
     1
102
RTVSPropertyOp16
 70
     1
102
RTVSPropertyOp17
 70
     1
102
RTVSPropertyOp18
 70
     1
102
RTVSPropertyOp19
 70
     1
102
RTVSPropertyOp20
 70
     1
102
RTVSPropertyOp21
 70
     1
102
RTVSPropertyOp22
 70
     1
102
RTVSPropertyOp23
 70
     1
102
RTVSPropertyOp24
 70
     1
102
RTVSPropertyOp25
 70
     1
102
RTVSPropertyOp26
 70
     1
102
RTVSPropertyOp27
 70
     1
102
RTVSPropertyOp28
 70
     1
102
RTVSPropertyOp29
 70
     1
102
RTVSPropertyOp30
 70
     1
102
RTVSPropertyOp31
 70
     1
102
RTVSPropertyOp32
 70
     1
  0
XRECORD
  5
25E
102
{ACAD_REACTORS
330
25D
102
}
330
25D
100
AcDbXrecord
280
     1
102
RTVSPropertyOp0
 70
     1
102
RTVSPropertyOp1
 70
     1
102
RTVSPropertyOp2
 70
     1
102
RTVSPropertyOp3
 70
     1
102
RTVSPropertyOp4
 70
     1
102
RTVSPropertyOp5
 70
     1
102
RTVSPropertyOp6
 70
     1
102
RTVSPropertyOp7
 70
     1
102
RTVSPropertyOp8
 70
     1
102
RTVSPropertyOp9
 70
     1
102
RTVSPropertyOp10
 70
     1
102
RTVSPropertyOp11
 70
     1
102
RTVSPropertyOp12
 70
     1
102
RTVSPropertyOp13
 70
     1
102
RTVSPropertyOp14
 70
     1
102
RTVSPropertyOp15
 70
     1
102
RTVSPropertyOp16
 70
     1
102
RTVSPropertyOp17
 70
     1
102
RTVSPropertyOp18
 70
     1
102
RTVSPropertyOp19
 70
     1
102
RTVSPropertyOp20
 70
     1
102
RTVSPropertyOp21
 70
     1
102
RTVSPropertyOp22
 70
     1
102
RTVSPropertyOp23
 70
     1
102
RTVSPropertyOp24
 70
     1
102
RTVSPropertyOp25
 70
     1
102
RTVSPropertyOp26
 70
     1
102
RTVSPropertyOp27
 70
     1
102
RTVSPropertyOp28
 70
     1
102
RTVSPropertyOp29
 70
     1
102
RTVSPropertyOp30
 70
     1
102
RTVSPropertyOp31
 70
     1
102
RTVSPropertyOp32
 70
     1
  0
XRECORD
  5
260
102
{ACAD_REACTORS
330
25F
102
}
330
25F
100
AcDbXrecord
280
     1
102
RTVSPropertyOp0
 70
     1
102
RTVSPropertyOp1
 70
     1
102
RTVSPropertyOp2
 70
     1
102
RTVSPropertyOp3
 70
     1
102
RTVSPropertyOp4
 70
     1
102
RTVSPropertyOp5
 70
     1
102
RTVSPropertyOp6
 70
     1
102
RTVSPropertyOp7
 70
     1
102
RTVSPropertyOp8
 70
     1
102
RTVSPropertyOp9
 70
     1
102
RTVSPropertyOp10
 70
     1
102
RTVSPropertyOp11
 70
     1
102
RTVSPropertyOp12
 70
     1
102
RTVSPropertyOp13
 70
     1
102
RTVSPropertyOp14
 70
     1
102
RTVSPropertyOp15
 70
     1
102
RTVSPropertyOp16
 70
     1
102
RTVSPropertyOp17
 70
     1
102
RTVSPropertyOp18
 70
     1
102
RTVSPropertyOp19
 70
     1
102
RTVSPropertyOp20
 70
     1
102
RTVSPropertyOp21
 70
     1
102
RTVSPropertyOp22
 70
     1
102
RTVSPropertyOp23
 70
     1
102
RTVSPropertyOp24
 70
     1
102
RTVSPropertyOp25
 70
     1
102
RTVSPropertyOp26
 70
     1
102
RTVSPropertyOp27
 70
     1
102
RTVSPropertyOp28
 70
     1
102
RTVSPropertyOp29
 70
     1
102
RTVSPropertyOp30
 70
     1
102
RTVSPropertyOp31
 70
     1
102
RTVSPropertyOp32
 70
     1
  0
XRECORD
  5
262
102
{ACAD_REACTORS
330
261
102
}
330
261
100
AcDbXrecord
280
     1
102
RTVSPropertyOp0
 70
     1
102
RTVSPropertyOp1
 70
     1
102
RTVSPropertyOp2
 70
     1
102
RTVSPropertyOp3
 70
     1
102
RTVSPropertyOp4
 70
     1
102
RTVSPropertyOp5
 70
     1
102
RTVSPropertyOp6
 70
     1
102
RTVSPropertyOp7
 70
     1
102
RTVSPropertyOp8
 70
     1
102
RTVSPropertyOp9
 70
     1
102
RTVSPropertyOp10
 70
     1
102
RTVSPropertyOp11
 70
     1
102
RTVSPropertyOp12
 70
     1
102
RTVSPropertyOp13
 70
     1
102
RTVSPropertyOp14
 70
     1
102
RTVSPropertyOp15
 70
     1
102
RTVSPropertyOp16
 70
     1
102
RTVSPropertyOp17
 70
     1
102
RTVSPropertyOp18
 70
     1
102
RTVSPropertyOp19
 70
     1
102
RTVSPropertyOp20
 70
     1
102
RTVSPropertyOp21
 70
     1
102
RTVSPropertyOp22
 70
     1
102
RTVSPropertyOp23
 70
     1
102
RTVSPropertyOp24
 70
     1
102
RTVSPropertyOp25
 70
     1
102
RTVSPropertyOp26
 70
     1
102
RTVSPropertyOp27
 70
     1
102
RTVSPropertyOp28
 70
     1
102
RTVSPropertyOp29
 70
     1
102
RTVSPropertyOp30
 70
     1
102
RTVSPropertyOp31
 70
     1
102
RTVSPropertyOp32
 70
     1
  0
XRECORD
  5
276
102
{ACAD_REACTORS
330
275
102
}
330
275
100
AcDbXrecord
280
     1
102
RTVSPropertyOp0
 70
     1
102
RTVSPropertyOp1
 70
     1
102
RTVSPropertyOp2
 70
     1
102
RTVSPropertyOp3
 70
     1
102
RTVSPropertyOp4
 70
     1
102
RTVSPropertyOp5
 70
     1
102
RTVSPropertyOp6
 70
     1
102
RTVSPropertyOp7
 70
     1
102
RTVSPropertyOp8
 70
     1
102
RTVSPropertyOp9
 70
     1
102
RTVSPropertyOp10
 70
     1
102
RTVSPropertyOp11
 70
     1
102
RTVSPropertyOp12
 70
     1
102
RTVSPropertyOp13
 70
     1
102
RTVSPropertyOp14
 70
     1
102
RTVSPropertyOp15
 70
     1
102
RTVSPropertyOp16
 70
     1
102
RTVSPropertyOp17
 70
     1
102
RTVSPropertyOp18
 70
     1
102
RTVSPropertyOp19
 70
     1
102
RTVSPropertyOp20
 70
     1
102
RTVSPropertyOp21
 70
     1
102
RTVSPropertyOp22
 70
     1
102
RTVSPropertyOp23
 70
     1
102
RTVSPropertyOp24
 70
     1
102
RTVSPropertyOp25
 70
     1
102
RTVSPropertyOp26
 70
     1
102
RTVSPropertyOp27
 70
     1
102
RTVSPropertyOp28
 70
     1
102
RTVSPropertyOp29
 70
     1
102
RTVSPropertyOp30
 70
     1
102
RTVSPropertyOp31
 70
     1
102
RTVSPropertyOp32
 70
     1
  0
XRECORD
  5
26C
102
{ACAD_REACTORS
330
26B
102
}
330
26B
100
AcDbXrecord
280
     1
102
RTVSPropertyOp0
 70
     1
102
RTVSPropertyOp1
 70
     1
102
RTVSPropertyOp2
 70
     1
102
RTVSPropertyOp3
 70
     1
102
RTVSPropertyOp4
 70
     1
102
RTVSPropertyOp5
 70
     1
102
RTVSPropertyOp6
 70
     1
102
RTVSPropertyOp7
 70
     1
102
RTVSPropertyOp8
 70
     1
102
RTVSPropertyOp9
 70
     1
102
RTVSPropertyOp10
 70
     1
102
RTVSPropertyOp11
 70
     1
102
RTVSPropertyOp12
 70
     1
102
RTVSPropertyOp13
 70
     1
102
RTVSPropertyOp14
 70
     1
102
RTVSPropertyOp15
 70
     1
102
RTVSPropertyOp16
 70
     1
102
RTVSPropertyOp17
 70
     1
102
RTVSPropertyOp18
 70
     1
102
RTVSPropertyOp19
 70
     1
102
RTVSPropertyOp20
 70
     1
102
RTVSPropertyOp21
 70
     1
102
RTVSPropertyOp22
 70
     1
102
RTVSPropertyOp23
 70
     1
102
RTVSPropertyOp24
 70
     1
102
RTVSPropertyOp25
 70
     1
102
RTVSPropertyOp26
 70
     1
102
RTVSPropertyOp27
 70
     1
102
RTVSPropertyOp28
 70
     1
102
RTVSPropertyOp29
 70
     1
102
RTVSPropertyOp30
 70
     1
102
RTVSPropertyOp31
 70
     1
102
RTVSPropertyOp32
 70
     1
  0
XRECORD
  5
274
102
{ACAD_REACTORS
330
273
102
}
330
273
100
AcDbXrecord
280
     1
102
RTVSPropertyOp0
 70
     1
102
RTVSPropertyOp1
 70
     1
102
RTVSPropertyOp2
 70
     1
102
RTVSPropertyOp3
 70
     1
102
RTVSPropertyOp4
 70
     1
102
RTVSPropertyOp5
 70
     1
102
RTVSPropertyOp6
 70
     1
102
RTVSPropertyOp7
 70
     1
102
RTVSPropertyOp8
 70
     1
102
RTVSPropertyOp9
 70
     1
102
RTVSPropertyOp10
 70
     1
102
RTVSPropertyOp11
 70
     1
102
RTVSPropertyOp12
 70
     1
102
RTVSPropertyOp13
 70
     1
102
RTVSPropertyOp14
 70
     1
102
RTVSPropertyOp15
 70
     1
102
RTVSPropertyOp16
 70
     1
102
RTVSPropertyOp17
 70
     1
102
RTVSPropertyOp18
 70
     1
102
RTVSPropertyOp19
 70
     1
102
RTVSPropertyOp20
 70
     1
102
RTVSPropertyOp21
 70
     1
102
RTVSPropertyOp22
 70
     1
102
RTVSPropertyOp23
 70
     1
102
RTVSPropertyOp24
 70
     1
102
RTVSPropertyOp25
 70
     1
102
RTVSPropertyOp26
 70
     1
102
RTVSPropertyOp27
 70
     1
102
RTVSPropertyOp28
 70
     1
102
RTVSPropertyOp29
 70
     1
102
RTVSPropertyOp30
 70
     1
102
RTVSPropertyOp31
 70
     1
102
RTVSPropertyOp32
 70
     1
  0
ENDSEC
  0
EOF
