  0
SECTION
  2
HEADER
  9
$ACADVER
  1
AC1018
  9
$ACADMAINTVER
 70
     0
  9
$DWGCODEPAGE
  3
ANSI_1252
  9
$INSBASE
 10
0.0
 20
0.0
 30
0.0
  9
$EXTMIN
 10
-229.1687495240934
 20
2.54508692059187
 30
0.0
  9
$EXTMAX
 10
67.83125047590471
 20
212.545086920592
 30
0.0
  9
$LIMMIN
 10
0.0
 20
0.0
  9
$LIMMAX
 10
12.0
 20
9.0
  9
$ORTHOMODE
 70
     0
  9
$REGENMODE
 70
     1
  9
$FILLMODE
 70
     1
  9
$QTEXTMODE
 70
     0
  9
$MIRRTEXT
 70
     1
  9
$LTSCALE
 40
1.0
  9
$ATTMODE
 70
     1
  9
$TEXTSIZE
 40
0.2
  9
$TRACEWID
 40
0.05
  9
$TEXTSTYLE
  7
Standard
  9
$CLAYER
  8
0
  9
$CELTYPE
  6
ByLayer
  9
$CECOLOR
 62
   256
  9
$CELTSCALE
 40
1.0
  9
$DISPSILH
 70
     0
  9
$DIMSCALE
 40
1.0
  9
$DIMASZ
 40
0.18
  9
$DIMEXO
 40
0.0625
  9
$DIMDLI
 40
0.38
  9
$DIMRND
 40
0.0
  9
$DIMDLE
 40
0.0
  9
$DIMEXE
 40
0.18
  9
$DIMTP
 40
0.0
  9
$DIMTM
 40
0.0
  9
$DIMTXT
 40
0.18
  9
$DIMCEN
 40
0.09
  9
$DIMTSZ
 40
0.0
  9
$DIMTOL
 70
     0
  9
$DIMLIM
 70
     0
  9
$DIMTIH
 70
     1
  9
$DIMTOH
 70
     1
  9
$DIMSE1
 70
     0
  9
$DIMSE2
 70
     0
  9
$DIMTAD
 70
     0
  9
$DIMZIN
 70
     0
  9
$DIMBLK
  1

  9
$DIMASO
 70
     1
  9
$DIMSHO
 70
     1
  9
$DIMPOST
  1

  9
$DIMAPOST
  1

  9
$DIMALT
 70
     0
  9
$DIMALTD
 70
     2
  9
$DIMALTF
 40
25.4
  9
$DIMLFAC
 40
1.0
  9
$DIMTOFL
 70
     0
  9
$DIMTVP
 40
0.0
  9
$DIMTIX
 70
     0
  9
$DIMSOXD
 70
     0
  9
$DIMSAH
 70
     0
  9
$DIMBLK1
  1

  9
$DIMBLK2
  1

  9
$DIMSTYLE
  2
Standard
  9
$DIMCLRD
 70
     0
  9
$DIMCLRE
 70
     0
  9
$DIMCLRT
 70
     0
  9
$DIMTFAC
 40
1.0
  9
$DIMGAP
 40
0.09
  9
$DIMJUST
 70
     0
  9
$DIMSD1
 70
     0
  9
$DIMSD2
 70
     0
  9
$DIMTOLJ
 70
     1
  9
$DIMTZIN
 70
     0
  9
$DIMALTZ
 70
     0
  9
$DIMALTTZ
 70
     0
  9
$DIMUPT
 70
     0
  9
$DIMDEC
 70
     4
  9
$DIMTDEC
 70
     4
  9
$DIMALTU
 70
     2
  9
$DIMALTTD
 70
     2
  9
$DIMTXSTY
  7
Standard
  9
$DIMAUNIT
 70
     0
  9
$DIMADEC
 70
     0
  9
$DIMALTRND
 40
0.0
  9
$DIMAZIN
 70
     0
  9
$DIMDSEP
 70
    46
  9
$DIMATFIT
 70
     3
  9
$DIMFRAC
 70
     0
  9
$DIMLDRBLK
  1

  9
$DIMLUNIT
 70
     2
  9
$DIMLWD
 70
    -2
  9
$DIMLWE
 70
    -2
  9
$DIMTMOVE
 70
     0
  9
$LUNITS
 70
     2
  9
$LUPREC
 70
     4
  9
$SKETCHINC
 40
0.1
  9
$FILLETRAD
 40
0.5
  9
$AUNITS
 70
     0
  9
$AUPREC
 70
     0
  9
$MENU
  1
.
  9
$ELEVATION
 40
0.0
  9
$PELEVATION
 40
0.0
  9
$THICKNESS
 40
0.0
  9
$LIMCHECK
 70
     0
  9
$CHAMFERA
 40
0.5
  9
$CHAMFERB
 40
0.5
  9
$CHAMFERC
 40
1.0
  9
$CHAMFERD
 40
0.0
  9
$SKPOLY
 70
     0
  9
$TDCREATE
 40
2458170.693173773
  9
$TDUCREATE
 40
2458170.651507107
  9
$TDUPDATE
 40
2458170.693174491
  9
$TDUUPDATE
 40
2458170.651507824
  9
$TDINDWG
 40
0.0000000116
  9
$TDUSRTIMER
 40
0.0000000116
  9
$USRTIMER
 70
     1
  9
$ANGBASE
 50
0.0
  9
$ANGDIR
 70
     0
  9
$PDMODE
 70
     0
  9
$PDSIZE
 40
0.0
  9
$PLINEWID
 40
0.0
  9
$SPLFRAME
 70
     0
  9
$SPLINETYPE
 70
     6
  9
$SPLINESEGS
 70
     8
  9
$HANDSEED
  5
459
  9
$SURFTAB1
 70
     6
  9
$SURFTAB2
 70
     6
  9
$SURFTYPE
 70
     6
  9
$SURFU
 70
     6
  9
$SURFV
 70
     6
  9
$UCSBASE
  2

  9
$UCSNAME
  2

  9
$UCSORG
 10
0.0
 20
0.0
 30
0.0
  9
$UCSXDIR
 10
1.0
 20
0.0
 30
0.0
  9
$UCSYDIR
 10
0.0
 20
1.0
 30
0.0
  9
$UCSORTHOREF
  2

  9
$UCSORTHOVIEW
 70
     0
  9
$UCSORGTOP
 10
0.0
 20
0.0
 30
0.0
  9
$UCSORGBOTTOM
 10
0.0
 20
0.0
 30
0.0
  9
$UCSORGLEFT
 10
0.0
 20
0.0
 30
0.0
  9
$UCSORGRIGHT
 10
0.0
 20
0.0
 30
0.0
  9
$UCSORGFRONT
 10
0.0
 20
0.0
 30
0.0
  9
$UCSORGBACK
 10
0.0
 20
0.0
 30
0.0
  9
$PUCSBASE
  2

  9
$PUCSNAME
  2

  9
$PUCSORG
 10
0.0
 20
0.0
 30
0.0
  9
$PUCSXDIR
 10
1.0
 20
0.0
 30
0.0
  9
$PUCSYDIR
 10
0.0
 20
1.0
 30
0.0
  9
$PUCSORTHOREF
  2

  9
$PUCSORTHOVIEW
 70
     0
  9
$PUCSORGTOP
 10
0.0
 20
0.0
 30
0.0
  9
$PUCSORGBOTTOM
 10
0.0
 20
0.0
 30
0.0
  9
$PUCSORGLEFT
 10
0.0
 20
0.0
 30
0.0
  9
$PUCSORGRIGHT
 10
0.0
 20
0.0
 30
0.0
  9
$PUCSORGFRONT
 10
0.0
 20
0.0
 30
0.0
  9
$PUCSORGBACK
 10
0.0
 20
0.0
 30
0.0
  9
$USERI1
 70
     0
  9
$USERI2
 70
     0
  9
$USERI3
 70
     0
  9
$USERI4
 70
     0
  9
$USERI5
 70
     0
  9
$USERR1
 40
18.1
  9
$USERR2
 40
0.0
  9
$USERR3
 40
0.0
  9
$USERR4
 40
0.0
  9
$USERR5
 40
0.0
  9
$WORLDVIEW
 70
     1
  9
$SHADEDGE
 70
     3
  9
$SHADEDIF
 70
    70
  9
$TILEMODE
 70
     1
  9
$MAXACTVP
 70
    64
  9
$PINSBASE
 10
0.0
 20
0.0
 30
0.0
  9
$PLIMCHECK
 70
     0
  9
$PEXTMIN
 10
1.00000000000000E+20
 20
1.00000000000000E+20
 30
1.00000000000000E+20
  9
$PEXTMAX
 10
-1.00000000000000E+20
 20
-1.00000000000000E+20
 30
-1.00000000000000E+20
  9
$PLIMMIN
 10
0.0
 20
0.0
  9
$PLIMMAX
 10
12.0
 20
9.0
  9
$UNITMODE
 70
     0
  9
$VISRETAIN
 70
     1
  9
$PLINEGEN
 70
     0
  9
$PSLTSCALE
 70
     1
  9
$TREEDEPTH
 70
  3020
  9
$CMLSTYLE
  2
Standard
  9
$CMLJUST
 70
     0
  9
$CMLSCALE
 40
1.0
  9
$PROXYGRAPHICS
 70
     1
  9
$MEASUREMENT
 70
     1
  9
$CELWEIGHT
370
    -1
  9
$ENDCAPS
280
     0
  9
$JOINSTYLE
280
     0
  9
$LWDISPLAY
290
     0
  9
$INSUNITS
 70
     4
  9
$HYPERLINKBASE
  1

  9
$STYLESHEET
  1

  9
$XEDIT
290
     1
  9
$CEPSNTYPE
380
     0
  9
$PSTYLEMODE
290
     1
  9
$FINGERPRINTGUID
  2
{35A594D2-7D5F-43AB-8A2D-BB4583167A41}
  9
$VERSIONGUID
  2
{FAEB1C32-E019-11D5-929B-00C0DF256EC4}
  9
$EXTNAMES
290
     1
  9
$PSVPSCALE
 40
0.0
  9
$OLESTARTUP
290
     0
  9
$SORTENTS
280
   127
  9
$INDEXCTL
280
     0
  9
$HIDETEXT
280
     1
  9
$XCLIPFRAME
290
     0
  9
$HALOGAP
280
     0
  9
$OBSCOLOR
 70
   257
  9
$OBSLTYPE
280
     0
  9
$INTERSECTIONDISPLAY
280
     0
  9
$INTERSECTIONCOLOR
 70
   257
  9
$DIMASSOC
280
     2
  9
$PROJECTNAME
  1

  0
ENDSEC
  0
SECTION
  2
CLASSES
  0
CLASS
  1
ACDBDICTIONARYWDFLT
  2
AcDbDictionaryWithDefault
  3
ObjectDBX Classes
 90
        0
 91
        4
280
     0
281
     0
  0
CLASS
  1
VISUALSTYLE
  2
AcDbVisualStyle
  3
ObjectDBX Classes
 90
     4095
 91
        4
280
     0
281
     0
  0
CLASS
  1
MATERIAL
  2
AcDbMaterial
  3
ObjectDBX Classes
 90
     1153
 91
        4
280
     0
281
     0
  0
ENDSEC
  0
SECTION
  2
TABLES
  0
TABLE
  2
VPORT
  5
8
330
0
100
AcDbSymbolTable
 70
     1
  0
VPORT
  5
29
330
8
100
AcDbSymbolTableRecord
100
AcDbViewportTableRecord
  2
*Active
 70
     0
 10
0.0
 20
0.0
 11
1.0
 21
1.0
 12
-80.66874952409435
 22
107.5450869205919
 13
0.0
 23
0.0
 14
0.5
 24
0.5
 15
0.5
 25
0.5
 16
0.0
 26
0.0
 36
1.0
 17
0.0
 27
0.0
 37
0.0
 40
231.0000000000002
 41
1.60267857142857
 42
50.0
 43
0.0
 44
0.0
 50
0.0
 51
0.0
 71
     0
 72
   100
 73
     1
 74
     3
 75
     0
 76
     0
 77
     0
 78
     0
281
     0
 65
     1
110
0.0
120
0.0
130
0.0
111
1.0
121
0.0
131
0.0
112
0.0
122
1.0
132
0.0
 79
     0
146
0.0
  0
ENDTAB
  0
TABLE
  2
LTYPE
  5
5
330
0
100
AcDbSymbolTable
 70
     8
  0
LTYPE
  5
14
330
5
100
AcDbSymbolTableRecord
100
AcDbLinetypeTableRecord
  2
ByBlock
 70
     0
  3

 72
    65
 73
     0
 40
0.0
  0
LTYPE
  5
15
330
5
100
AcDbSymbolTableRecord
100
AcDbLinetypeTableRecord
  2
ByLayer
 70
     0
  3

 72
    65
 73
     0
 40
0.0
  0
LTYPE
  5
16
330
5
100
AcDbSymbolTableRecord
100
AcDbLinetypeTableRecord
  2
Continuous
 70
     0
  3
Solid line
 72
    65
 73
     0
 40
0.0
  0
LTYPE
  5
3F
330
5
100
AcDbSymbolTableRecord
100
AcDbLinetypeTableRecord
  2
DASHED
 70
     0
  3
Dashed
 72
    65
 73
     2
 40
15.0
 49
7.0
 74
     0
 49
-8.0
 74
     0
  0
LTYPE
  5
40
330
5
100
AcDbSymbolTableRecord
100
AcDbLinetypeTableRecord
  2
DOTTED
 70
     0
  3
Dotted
 72
    65
 73
     2
 40
1.0
 49
0.0
 74
     0
 49
-1.0
 74
     0
  0
LTYPE
  5
41
330
5
100
AcDbSymbolTableRecord
100
AcDbLinetypeTableRecord
  2
DOT_CENTER
 70
     0
  3
Dot_Center
 72
    65
 73
     4
 40
14.0
 49
12.0
 74
     0
 49
-1.0
 74
     0
 49
0.0
 74
     0
 49
-1.0
 74
     0
  0
LTYPE
  5
42
330
5
100
AcDbSymbolTableRecord
100
AcDbLinetypeTableRecord
  2
LONG_DASHED
 70
     0
  3
Long_Dashed
 72
    65
 73
     2
 40
15.0
 49
10.0
 74
     0
 49
-5.0
 74
     0
  0
LTYPE
  5
43
330
5
100
AcDbSymbolTableRecord
100
AcDbLinetypeTableRecord
  2
DASH_CENTER
 70
     0
  3
Dash_Center
 72
    65
 73
     4
 40
14.0
 49
11.0
 74
     0
 49
-1.0
 74
     0
 49
1.0
 74
     0
 49
-1.0
 74
     0
  0
LTYPE
  5
44
330
5
100
AcDbSymbolTableRecord
100
AcDbLinetypeTableRecord
  2
PHANTOM
 70
     0
  3
Phantom
 72
    65
 73
     6
 40
13.0
 49
10.0
 74
     0
 49
-1.0
 74
     0
 49
0.0
 74
     0
 49
-1.0
 74
     0
 49
0.0
 74
     0
 49
-1.0
 74
     0
  0
LTYPE
  5
45
330
5
100
AcDbSymbolTableRecord
100
AcDbLinetypeTableRecord
  2
CENTER_DASH_DASH
 70
     0
  3
Center_Dash_Dash
 72
    65
 73
     6
 40
14.0
 49
9.0
 74
     0
 49
-1.0
 74
     0
 49
1.0
 74
     0
 49
-1.0
 74
     0
 49
1.0
 74
     0
 49
-1.0
 74
     0
  0
ENDTAB
  0
TABLE
  2
LAYER
  5
2
330
0
100
AcDbSymbolTable
 70
     2
  0
LAYER
  5
10
330
2
100
AcDbSymbolTableRecord
100
AcDbLayerTableRecord
  2
0
 70
     0
 62
     7
  6
Continuous
370
    -3
390
F
  0
LAYER
  5
46
330
2
100
AcDbSymbolTableRecord
100
AcDbLayerTableRecord
  2
1
 70
     0
 62
     7
  6
Continuous
370
    -3
390
F
  0
ENDTAB
  0
TABLE
  2
STYLE
  5
3
330
0
100
AcDbSymbolTable
 70
     5
  0
STYLE
  5
11
330
3
100
AcDbSymbolTableRecord
100
AcDbTextStyleTableRecord
  2
Standard
 70
     0
 40
0.0
 41
1.0
 50
0.0
 71
     0
 42
0.2
  3
txt
  4

  0
STYLE
  5
13F
330
3
100
AcDbSymbolTableRecord
100
AcDbTextStyleTableRecord
  2
CONVERTER_11
 70
     0
 40
0.0
 41
0.9
 50
0.0
 71
     0
 42
0.2
  3
txt.shx
  4

  0
STYLE
  5
3F4
330
3
100
AcDbSymbolTableRecord
100
AcDbTextStyleTableRecord
  2
CONVERTER_12
 70
     0
 40
0.0
 41
0.81
 50
0.0
 71
     0
 42
0.2
  3
txt.shx
  4

  0
STYLE
  5
40A
330
3
100
AcDbSymbolTableRecord
100
AcDbTextStyleTableRecord
  2
CONVERTER_13
 70
     0
 40
0.0
 41
0.72
 50
0.0
 71
     0
 42
0.2
  3
txt.shx
  4

  0
STYLE
  5
40D
330
3
100
AcDbSymbolTableRecord
100
AcDbTextStyleTableRecord
  2
CONVERTER_14
 70
     0
 40
0.0
 41
0.855
 50
0.0
 71
     0
 42
0.2
  3
txt.shx
  4

  0
ENDTAB
  0
TABLE
  2
VIEW
  5
6
330
0
100
AcDbSymbolTable
 70
     0
  0
ENDTAB
  0
TABLE
  2
UCS
  5
7
330
0
100
AcDbSymbolTable
 70
     0
  0
ENDTAB
  0
TABLE
  2
APPID
  5
9
330
0
100
AcDbSymbolTable
 70
     1
  0
APPID
  5
12
330
9
100
AcDbSymbolTableRecord
100
AcDbRegAppTableRecord
  2
ACAD
 70
     0
  0
ENDTAB
  0
TABLE
  2
DIMSTYLE
  5
A
330
0
100
AcDbSymbolTable
 70
     7
100
AcDbDimStyleTable
  0
DIMSTYLE
105
27
330
A
100
AcDbSymbolTableRecord
100
AcDbDimStyleTableRecord
  2
Standard
 70
     0
178
     0
340
11
  0
DIMSTYLE
105
191
102
{ACAD_REACTORS
330
192
102
}
330
A
100
AcDbSymbolTableRecord
100
AcDbDimStyleTableRecord
  2
ME10_DIM_10
 70
     0
 41
3.5
 42
0.0
 44
1.5
 73
     0
 74
     0
 77
     1
 78
     8
140
3.5
147
1.5
172
     1
173
     1
174
     1
175
     1
176
     2
177
     2
271
     2
178
     3
271
     2
340
13F
  0
DIMSTYLE
105
2CA
102
{ACAD_REACTORS
330
2CB
102
}
330
A
100
AcDbSymbolTableRecord
100
AcDbDimStyleTableRecord
  2
ME10_DIM_11
 70
     0
 41
3.5
 42
0.0
 44
1.5
 73
     0
 74
     0
 77
     1
 78
     8
140
3.5
147
1.5
172
     1
173
     1
174
     1
175
     1
176
     2
177
     2
178
     3
340
13F
  0
DIMSTYLE
105
2D5
102
{ACAD_REACTORS
330
2D6
102
}
330
A
100
AcDbSymbolTableRecord
100
AcDbDimStyleTableRecord
  2
ME10_DIM_12
 70
     0
 41
3.5
 42
0.0
 44
1.5
 73
     0
 74
     0
 77
     1
 78
     8
140
3.5
147
1.5
172
     1
173
     1
174
     1
175
     1
176
     2
177
     2
178
     3
340
13F
  0
DIMSTYLE
105
2E0
102
{ACAD_REACTORS
330
2E1
102
}
330
A
100
AcDbSymbolTableRecord
100
AcDbDimStyleTableRecord
  2
ME10_DIM_13
 70
     0
 41
3.5
 42
0.0
 44
1.5
 73
     0
 74
     0
 77
     1
 78
     8
140
3.5
147
1.5
172
     1
173
     1
174
     1
175
     1
176
     2
177
     2
271
     2
178
     3
271
     2
340
13F
  0
DIMSTYLE
105
2EB
102
{ACAD_REACTORS
330
2EC
102
}
330
A
100
AcDbSymbolTableRecord
100
AcDbDimStyleTableRecord
  2
ME10_DIM_14
 70
     0
 41
3.5
 42
0.0
 44
1.5
 73
     0
 74
     0
 77
     1
 78
     8
140
3.5
147
1.5
172
     1
173
     1
174
     1
175
     1
176
     2
177
     2
271
     2
178
     3
271
     2
340
13F
  0
DIMSTYLE
105
2F6
102
{ACAD_REACTORS
330
2F7
102
}
330
A
100
AcDbSymbolTableRecord
100
AcDbDimStyleTableRecord
  2
ME10_DIM_15
 70
     0
 41
3.5
 42
0.0
 44
1.5
 73
     0
 74
     0
 77
     1
 78
     8
140
3.5
147
1.5
172
     1
173
     1
174
     1
175
     1
176
     2
177
     2
271
     2
178
     3
271
     2
340
13F
  0
ENDTAB
  0
TABLE
  2
BLOCK_RECORD
  5
1
330
0
100
AcDbSymbolTable
 70
    23
  0
BLOCK_RECORD
  5
1F
330
1
100
AcDbSymbolTableRecord
100
AcDbBlockTableRecord
  2
*Model_Space
340
22
  0
BLOCK_RECORD
  5
1B
330
1
100
AcDbSymbolTableRecord
100
AcDbBlockTableRecord
  2
*Paper_Space
340
1E
  0
BLOCK_RECORD
  5
23
330
1
100
AcDbSymbolTableRecord
100
AcDbBlockTableRecord
  2
*Paper_Space0
340
26
  0
BLOCK_RECORD
  5
47
330
1
100
AcDbSymbolTableRecord
100
AcDbBlockTableRecord
  2
URKN_S-select__1
340
0
102
{BLKREFS
331
4B
102
}
  0
BLOCK_RECORD
  5
4A
330
1
100
AcDbSymbolTableRecord
100
AcDbBlockTableRecord
  2
AllgSicht1
340
0
102
{BLKREFS
331
7D
102
}
  0
BLOCK_RECORD
  5
4E
330
1
100
AcDbSymbolTableRecord
100
AcDbBlockTableRecord
  2
URKN_S-select__2
340
0
102
{BLKREFS
331
52
102
}
  0
BLOCK_RECORD
  5
51
330
1
100
AcDbSymbolTableRecord
100
AcDbBlockTableRecord
  2
Drfsicht1
340
0
102
{BLKREFS
331
7E
102
}
  0
BLOCK_RECORD
  5
55
330
1
100
AcDbSymbolTableRecord
100
AcDbBlockTableRecord
  2
URKN_S-select__3
340
0
102
{BLKREFS
331
59
102
}
  0
BLOCK_RECORD
  5
58
330
1
100
AcDbSymbolTableRecord
100
AcDbBlockTableRecord
  2
Rckans1
340
0
102
{BLKREFS
331
7F
102
}
  0
BLOCK_RECORD
  5
5C
330
1
100
AcDbSymbolTableRecord
100
AcDbBlockTableRecord
  2
URKN_S-select__4
340
0
102
{BLKREFS
331
60
102
}
  0
BLOCK_RECORD
  5
5F
330
1
100
AcDbSymbolTableRecord
100
AcDbBlockTableRecord
  2
SA_Rechts1
340
0
102
{BLKREFS
331
80
102
}
  0
BLOCK_RECORD
  5
63
330
1
100
AcDbSymbolTableRecord
100
AcDbBlockTableRecord
  2
URKN_S-select__5
340
0
102
{BLKREFS
331
67
102
}
  0
BLOCK_RECORD
  5
66
330
1
100
AcDbSymbolTableRecord
100
AcDbBlockTableRecord
  2
SA_links1
340
0
102
{BLKREFS
331
81
102
}
  0
BLOCK_RECORD
  5
6A
330
1
100
AcDbSymbolTableRecord
100
AcDbBlockTableRecord
  2
URKN_S-select__6
340
0
102
{BLKREFS
331
6E
102
}
  0
BLOCK_RECORD
  5
6D
330
1
100
AcDbSymbolTableRecord
100
AcDbBlockTableRecord
  2
Vordans1
340
0
102
{BLKREFS
331
82
102
}
  0
BLOCK_RECORD
  5
71
330
1
100
AcDbSymbolTableRecord
100
AcDbBlockTableRecord
  2
_rahmen
340
0
102
{BLKREFS
331
78
102
}
  0
BLOCK_RECORD
  5
74
330
1
100
AcDbSymbolTableRecord
100
AcDbBlockTableRecord
  2
_punkt
340
0
102
{BLKREFS
331
79
102
}
  0
BLOCK_RECORD
  5
77
330
1
100
AcDbSymbolTableRecord
100
AcDbBlockTableRecord
  2
A4I_CS
340
0
102
{BLKREFS
331
83
102
}
  0
BLOCK_RECORD
  5
7C
330
1
100
AcDbSymbolTableRecord
100
AcDbBlockTableRecord
  2
1
340
0
102
{BLKREFS
331
86
102
}
  0
BLOCK_RECORD
  5
186
330
1
100
AcDbSymbolTableRecord
100
AcDbBlockTableRecord
  2
*D17
340
0
  0
BLOCK_RECORD
  5
2C1
330
1
100
AcDbSymbolTableRecord
100
AcDbBlockTableRecord
  2
*D18
340
0
  0
BLOCK_RECORD
  5
2CC
330
1
100
AcDbSymbolTableRecord
100
AcDbBlockTableRecord
  2
*D19
340
0
  0
BLOCK_RECORD
  5
2D7
330
1
100
AcDbSymbolTableRecord
100
AcDbBlockTableRecord
  2
*D20
340
0
  0
BLOCK_RECORD
  5
2E2
330
1
100
AcDbSymbolTableRecord
100
AcDbBlockTableRecord
  2
*D21
340
0
  0
BLOCK_RECORD
  5
2ED
330
1
100
AcDbSymbolTableRecord
100
AcDbBlockTableRecord
  2
*D22
340
0
  0
ENDTAB
  0
ENDSEC
  0
SECTION
  2
BLOCKS
  0
BLOCK
  5
20
330
1F
100
AcDbEntity
  8
0
100
AcDbBlockBegin
  2
*Model_Space
 70
     0
 10
0.0
 20
0.0
 30
0.0
  3
*Model_Space
  1

  0
ENDBLK
  5
21
330
1F
100
AcDbEntity
  8
0
100
AcDbBlockEnd
  0
BLOCK
  5
1C
330
1B
100
AcDbEntity
 67
     1
  8
0
100
AcDbBlockBegin
  2
*Paper_Space
 70
     0
 10
0.0
 20
0.0
 30
0.0
  3
*Paper_Space
  1

  0
ENDBLK
  5
1D
330
1B
100
AcDbEntity
 67
     1
  8
0
100
AcDbBlockEnd
  0
BLOCK
  5
24
330
23
100
AcDbEntity
  8
0
100
AcDbBlockBegin
  2
*Paper_Space0
 70
     0
 10
0.0
 20
0.0
 30
0.0
  3
*Paper_Space0
  1

  0
ENDBLK
  5
25
330
23
100
AcDbEntity
  8
0
100
AcDbBlockEnd
  0
BLOCK
  5
48
330
47
100
AcDbEntity
  8
0
100
AcDbBlockBegin
  2
URKN_S-select__1
 70
     0
 10
-40.86272829954946
 20
52.85892442067909
 30
0.0
  3
URKN_S-select__1
  1

  0
LINE
  5
87
330
47
100
AcDbEntity
  8
0
  6
Continuous
 62
     7
100
AcDbLine
 10
-11.24465949012165
 20
52.85892442067909
 30
0.0
 11
-7.93883632850265
 21
55.72185125906013
 31
0.0
  0
LINE
  5
88
330
47
100
AcDbEntity
  8
0
  6
Continuous
 62
     7
100
AcDbLine
 10
-36.70556445268238
 20
64.4523790661958
 30
0.0
 11
-36.70556445268238
 21
64.27917398543731
 31
0.0
  0
LINE
  5
89
330
47
100
AcDbEntity
  8
0
  6
Continuous
 62
     7
100
AcDbLine
 10
-39.95340162557579
 20
62.05575109465271
 30
0.0
 11
-38.69766479008835
 21
61.69325109465271
 31
0.0
  0
LINE
  5
8A
330
47
100
AcDbEntity
  8
0
  6
Continuous
 62
     7
100
AcDbLine
 10
-40.86272829954945
 20
61.40892442067907
 30
0.0
 11
-40.86272829954945
 21
63.57398793014016
 31
0.0
  0
LINE
  5
8B
330
47
100
AcDbEntity
  8
0
  6
Continuous
 62
     7
100
AcDbLine
 10
-37.91259385286784
 20
60.55729396221047
 30
0.0
 11
-40.86272829954945
 21
61.40892442067907
 31
0.0
  0
LINE
  5
8C
330
47
100
AcDbEntity
  8
0
  6
Continuous
 62
     7
100
AcDbLine
 10
-37.91259385286784
 20
60.55729396221047
 30
0.0
 11
-33.83759385286786
 21
64.08634748263205
 31
0.0
  0
LINE
  5
8D
330
47
100
AcDbEntity
  8
0
  6
Continuous
 62
     7
100
AcDbLine
 10
-38.69766479008837
 20
65.61042575790631
 30
0.0
 11
-40.75704243301121
 21
63.82695240314939
 31
0.0
  0
LINE
  5
8E
330
47
100
AcDbEntity
  8
0
  6
Continuous
 62
     7
100
AcDbLine
 10
-28.10667701251265
 20
66.49889557036073
 30
0.0
 11
-28.39196248505354
 21
65.51655051436063
 31
0.0
  0
LINE
  5
8F
330
47
100
AcDbEntity
  8
0
  6
Continuous
 62
     7
100
AcDbLine
 10
-10.81164678822934
 20
58.18988446452104
 30
0.0
 11
-11.26631012521624
 21
60.37198824497116
 31
0.0
  0
LINE
  5
90
330
47
100
AcDbEntity
  8
0
  6
Continuous
 62
     7
100
AcDbLine
 10
-7.28259326780784
 20
57.17113446452106
 30
0.0
 11
-10.81164678822934
 21
58.18988446452104
 31
0.0
  0
LINE
  5
91
330
47
100
AcDbEntity
  8
0
  6
Continuous
 62
     7
100
AcDbLine
 10
-7.28259326780784
 20
56.13190397997975
 30
0.0
 11
-7.28259326780784
 21
57.17113446452106
 31
0.0
  0
LINE
  5
92
330
47
100
AcDbEntity
  8
0
  6
Continuous
 62
     7
100
AcDbLine
 10
-7.97541359083534
 20
56.15869889922287
 30
0.0
 11
-7.28259326780784
 21
56.13190397997975
 31
0.0
  0
LINE
  5
93
330
47
100
AcDbEntity
  8
0
  6
Continuous
 62
     7
100
AcDbLine
 10
-3.21227387002094
 20
64.30998013355796
 30
0.0
 11
-4.15178985080435
 21
53.84247823613124
 31
0.0
  0
LINE
  5
94
330
47
100
AcDbEntity
  8
0
  6
Continuous
 62
     7
100
AcDbLine
 10
-4.15178985080435
 20
53.84247823613124
 30
0.0
 11
-0.07678985080435
 21
57.37153175655283
 31
0.0
  0
LINE
  5
95
330
47
100
AcDbEntity
  8
0
  6
Continuous
 62
     7
100
AcDbLine
 10
-2.81227387002094
 20
64.93209265788174
 30
0.0
 11
-2.81227387002104
 21
79.98166288826789
 31
0.0
  0
LINE
  5
96
330
47
100
AcDbEntity
  8
0
  6
Continuous
 62
     7
100
AcDbLine
 10
0.86272612997905
 20
67.83903365397954
 30
0.0
 11
-0.07678985080435
 21
57.37153175655283
 31
0.0
  0
LINE
  5
97
330
47
100
AcDbEntity
  8
0
  6
Continuous
 62
     7
100
AcDbLine
 10
0.46272612997905
 20
67.76832585527579
 30
0.0
 11
-2.81227387002094
 21
64.93209265788174
 31
0.0
  0
LINE
  5
98
330
47
100
AcDbEntity
  8
0
  6
Continuous
 62
     7
100
AcDbLine
 10
-4.15178985080435
 20
53.84247823613124
 30
0.0
 11
-7.15268945724014
 21
54.70876333392462
 31
0.0
  0
LINE
  5
99
330
47
100
AcDbEntity
  8
0
  6
Continuous
 62
     7
100
AcDbLine
 10
-7.15268945724014
 20
54.70876333392462
 30
0.0
 11
-7.97541359083534
 21
55.76898746751988
 31
0.0
  0
LINE
  5
9A
330
47
100
AcDbEntity
  8
0
  6
Continuous
 62
     7
100
AcDbLine
 10
-7.28259326780784
 20
56.75869889922285
 30
0.0
 11
-7.97541359083534
 21
56.15869889922287
 31
0.0
  0
LINE
  5
9B
330
47
100
AcDbEntity
  8
0
  6
Continuous
 62
     7
100
AcDbLine
 10
-7.97541359083534
 20
55.76898746751988
 30
0.0
 11
-7.97541359083534
 21
56.15869889922287
 31
0.0
  0
LINE
  5
9C
330
47
100
AcDbEntity
  8
0
  6
Continuous
 62
     7
100
AcDbLine
 10
-7.47590949012164
 20
57.22694005101687
 30
0.0
 11
-11.24465949012165
 21
53.96310681050427
 31
0.0
  0
LINE
  5
9D
330
47
100
AcDbEntity
  8
0
  6
Continuous
 62
     7
100
AcDbLine
 10
-3.21227387002094
 20
64.30998013355796
 30
0.0
 11
0.86272612997905
 21
67.83903365397954
 31
0.0
  0
LINE
  5
9E
330
47
100
AcDbEntity
  8
0
  6
Continuous
 62
     7
100
AcDbLine
 10
-18.45432097662715
 20
96.10524861389943
 30
0.0
 11
-19.27236450800915
 21
96.34139744042557
 31
0.0
  0
LINE
  5
9F
330
47
100
AcDbEntity
  8
0
  6
Continuous
 62
     7
100
AcDbLine
 10
-20.02236450800915
 20
95.69187838758725
 30
0.0
 11
-18.45432097662715
 21
95.239223210115
 31
0.0
  0
LINE
  5
A0
330
47
100
AcDbEntity
  8
0
  6
Continuous
 62
     7
100
AcDbLine
 10
-36.5493305457905
 20
93.80370633978445
 30
0.0
 11
-36.7779172873482
 21
93.47376979785578
 31
0.0
  0
LINE
  5
A1
330
47
100
AcDbEntity
  8
0
  6
Continuous
 62
     7
100
AcDbLine
 10
-34.26769868943755
 20
97.09695825592702
 30
0.0
 11
-33.96291636736066
 21
97.36090748947002
 31
0.0
  0
LINE
  5
A2
330
47
100
AcDbEntity
  8
0
  6
Continuous
 62
     7
100
AcDbLine
 10
-36.5493305457905
 20
93.80370633978445
 30
0.0
 11
-33.33933054579084
 21
96.58364788593221
 31
0.0
  0
LINE
  5
A3
330
47
100
AcDbEntity
  8
0
  6
Continuous
 62
     7
100
AcDbLine
 10
-36.7779172873482
 20
93.47376979785578
 30
0.0
 11
-35.97541728734822
 21
92.77878441131877
 31
0.0
  0
LINE
  5
A4
330
47
100
AcDbEntity
  8
0
  6
Continuous
 62
     7
100
AcDbLine
 10
-34.03911194787987
 20
97.42689479785578
 30
0.0
 11
-34.26769868943755
 21
97.09695825592702
 31
0.0
  0
LINE
  5
A5
330
47
100
AcDbEntity
  8
0
  6
Continuous
 62
     7
100
AcDbLine
 10
-33.23661194787994
 20
96.73190941131878
 30
0.0
 11
-34.03911194787987
 21
97.42689479785578
 31
0.0
  0
LINE
  5
A6
330
47
100
AcDbEntity
  8
0
  6
Continuous
 62
     7
100
AcDbLine
 10
-35.97541728734822
 20
92.77878441131877
 30
0.0
 11
-33.23661194787994
 21
96.73190941131878
 31
0.0
  0
LINE
  5
A7
330
47
100
AcDbEntity
  8
0
  6
Continuous
 62
     7
100
AcDbLine
 10
-33.56791728734831
 20
96.25371134400376
 30
0.0
 11
-36.7779172873482
 21
93.47376979785578
 31
0.0
  0
LINE
  5
A8
330
47
100
AcDbEntity
  8
0
  6
Continuous
 62
     7
100
AcDbLine
 10
-37.37641279444574
 20
71.271130640498
 30
0.0
 11
-37.55715548421901
 21
71.11460287960602
 31
0.0
  0
LINE
  5
A9
330
47
100
AcDbEntity
  8
0
  6
Continuous
 62
     7
100
AcDbLine
 10
-34.73559856777456
 20
70.50879323817384
 30
0.0
 11
-37.43577330155418
 21
71.28826654287714
 31
0.0
  0
LINE
  5
AA
330
47
100
AcDbEntity
  8
0
  6
Continuous
 62
     7
100
AcDbLine
 10
-19.27236450800915
 20
96.34139744042557
 30
0.0
 11
-20.02236450800915
 21
95.69187838758725
 31
0.0
  0
LINE
  5
AB
330
47
100
AcDbEntity
  8
0
  6
Continuous
 62
     2
100
AcDbLine
 10
-34.28559856777454
 20
69.98917799590315
 30
0.0
 11
-34.73559856777456
 21
69.59946656420013
 31
0.0
  0
LINE
  5
AC
330
47
100
AcDbEntity
  8
0
  6
Continuous
 62
     7
100
AcDbLine
 10
-18.45432097662715
 20
97.46202174649507
 30
0.0
 11
-18.45432097662715
 21
85.85728133578358
 31
0.0
  0
LINE
  5
AD
330
47
100
AcDbEntity
  8
0
  6
Continuous
 62
     7
100
AcDbLine
 10
-36.7924089017626
 20
65.86344626296581
 30
0.0
 11
-37.77672677386252
 21
65.97403255873357
 31
0.0
  0
LINE
  5
AE
330
47
100
AcDbEntity
  8
0
  6
Continuous
 62
     7
100
AcDbLine
 10
-28.39196248505354
 20
65.51655051436063
 30
0.0
 11
-33.41490982700329
 21
66.96655051436062
 31
0.0
  0
LINE
  5
AF
330
47
100
AcDbEntity
  8
0
  6
Continuous
 62
     7
100
AcDbLine
 10
-10.13727387002105
 20
95.06109705356417
 30
0.0
 11
-18.45432097662715
 21
97.46202174649507
 31
0.0
  0
LINE
  5
B0
330
47
100
AcDbEntity
  8
0
  6
Continuous
 62
     7
100
AcDbLine
 10
-15.12932097662714
 20
100.3415562140783
 30
0.0
 11
-16.99127559476365
 21
100.8790562140783
 31
0.0
  0
LINE
  5
B1
330
47
100
AcDbEntity
  8
0
  6
Continuous
 62
     7
100
AcDbLine
 10
-16.24127559476365
 20
101.5285752669167
 30
0.0
 11
-16.99127559476365
 21
100.8790562140783
 31
0.0
  0
LINE
  5
B2
330
47
100
AcDbEntity
  8
0
  6
Continuous
 62
     7
100
AcDbLine
 10
-16.99127559476365
 20
100.8790562140783
 30
0.0
 11
-16.99127559476365
 21
98.72905621407833
 31
0.0
  0
LINE
  5
B3
330
47
100
AcDbEntity
  8
0
  6
Continuous
 62
     7
100
AcDbLine
 10
-19.27236450800915
 20
102.4035752669167
 30
0.0
 11
-19.27236450800915
 21
96.34139744042557
 31
0.0
  0
LINE
  5
B4
330
47
100
AcDbEntity
  8
0
  6
Continuous
 62
     7
100
AcDbLine
 10
-21.88431912614574
 20
90.68681580336684
 30
0.0
 11
-21.88431912614574
 21
102.2915562140783
 31
0.0
  0
LINE
  5
B5
330
47
100
AcDbEntity
  8
0
  6
Continuous
 62
     7
100
AcDbLine
 10
-20.02236450800915
 20
101.7540562140783
 30
0.0
 11
-21.88431912614574
 21
102.2915562140783
 31
0.0
  0
LINE
  5
B6
330
47
100
AcDbEntity
  8
0
  6
Continuous
 62
     7
100
AcDbLine
 10
-20.02236450800915
 20
101.7540562140783
 30
0.0
 11
-19.27236450800915
 21
102.4035752669167
 31
0.0
  0
LINE
  5
B7
330
47
100
AcDbEntity
  8
0
  6
Continuous
 62
     7
100
AcDbLine
 10
-20.02236450800915
 20
101.7540562140783
 30
0.0
 11
-20.02236450800915
 21
95.69187838758725
 31
0.0
  0
LINE
  5
B8
330
47
100
AcDbEntity
  8
0
  6
Continuous
 62
     7
100
AcDbLine
 10
-25.20931912614574
 20
87.80728133578359
 30
0.0
 11
-25.20931912614574
 21
99.41202174649507
 31
0.0
  0
LINE
  5
B9
330
47
100
AcDbEntity
  8
0
  6
Continuous
 62
     7
100
AcDbLine
 10
-37.59348240026321
 20
64.88190397997974
 30
0.0
 11
-36.70556445268238
 21
64.4523790661958
 31
0.0
  0
LINE
  5
BA
330
47
100
AcDbEntity
  8
0
  6
Continuous
 62
     7
100
AcDbLine
 10
-34.26769868943755
 20
97.09695825592702
 30
0.0
 11
-35.44588905890322
 21
99.04235388844056
 31
0.0
  0
LINE
  5
BB
330
47
100
AcDbEntity
  8
0
  6
Continuous
 62
     7
100
AcDbLine
 10
-25.20931912614574
 20
99.41202174649507
 30
0.0
 11
-33.52636623275176
 21
101.812946439426
 31
0.0
  0
LINE
  5
BC
330
47
100
AcDbEntity
  8
0
  6
Continuous
 62
     7
100
AcDbLine
 10
-21.88431912614574
 20
102.2915562140783
 30
0.0
 11
-25.20931912614574
 21
99.41202174649507
 31
0.0
  0
LINE
  5
BD
330
47
100
AcDbEntity
  8
0
  6
Continuous
 62
     7
100
AcDbLine
 10
-18.45432097662715
 20
97.46202174649507
 30
0.0
 11
-15.12932097662714
 21
100.3415562140783
 31
0.0
  0
LINE
  5
BE
330
47
100
AcDbEntity
  8
0
  6
Continuous
 62
     7
100
AcDbLine
 10
-29.45136623275174
 20
105.3419999598475
 30
0.0
 11
-19.27236450800915
 21
102.4035752669167
 31
0.0
  0
LINE
  5
BF
330
47
100
AcDbEntity
  8
0
  6
Continuous
 62
     7
100
AcDbLine
 10
-5.96294141333524
 20
92.89016558783084
 30
0.0
 11
-3.68130955698234
 21
88.27961290523109
 31
0.0
  0
LINE
  5
C0
330
47
100
AcDbEntity
  8
0
  6
Continuous
 62
     7
100
AcDbLine
 10
-4.14275104386964
 20
94.71132100260608
 30
0.0
 11
-5.32094141333535
 21
93.44615389706036
 31
0.0
  0
LINE
  5
C1
330
47
100
AcDbEntity
  8
0
  6
Continuous
 62
     7
100
AcDbLine
 10
-6.06227387002104
 20
98.59015057398574
 30
0.0
 11
-4.14275104386964
 21
94.71132100260608
 31
0.0
  0
LINE
  5
C2
330
47
100
AcDbEntity
  8
0
  6
Continuous
 62
     7
100
AcDbLine
 10
-9.39594141333534
 20
89.91710037663877
 30
0.0
 11
-5.32094141333535
 21
93.44615389706036
 31
0.0
  0
LINE
  5
C3
330
47
100
AcDbEntity
  8
0
  6
Continuous
 62
     7
100
AcDbLine
 10
-8.21775104386964
 20
91.1822674821845
 30
0.0
 11
-4.14275104386964
 21
94.71132100260608
 31
0.0
  0
LINE
  5
C4
330
47
100
AcDbEntity
  8
0
  6
Continuous
 62
     7
100
AcDbLine
 10
-8.21775104386964
 20
91.1822674821845
 30
0.0
 11
-9.39594141333534
 21
89.91710037663877
 31
0.0
  0
LINE
  5
C5
330
47
100
AcDbEntity
  8
0
  6
Continuous
 62
     7
100
AcDbLine
 10
-7.04622281542464
 20
85.1689630490562
 30
0.0
 11
-7.68822281542464
 21
84.61297473982657
 31
0.0
  0
LINE
  5
C6
330
47
100
AcDbEntity
  8
0
  6
Continuous
 62
     7
100
AcDbLine
 10
-7.68822281542464
 20
84.61297473982657
 30
0.0
 11
-6.88572281542464
 21
84.84463653533894
 31
0.0
  0
LINE
  5
C7
330
47
100
AcDbEntity
  8
0
  6
Continuous
 62
     7
100
AcDbLine
 10
-3.21227387002104
 20
81.06756990408071
 30
0.0
 11
-3.21227387002094
 21
64.30998013355796
 31
0.0
  0
LINE
  5
C8
330
47
100
AcDbEntity
  8
0
  6
Continuous
 62
     7
100
AcDbLine
 10
-5.13499992644795
 20
84.95287232597647
 30
0.0
 11
-3.21227387002104
 21
81.06756990408071
 31
0.0
  0
LINE
  5
C9
330
47
100
AcDbEntity
  8
0
  6
Continuous
 62
     7
100
AcDbLine
 10
-10.13727387002105
 20
95.06109705356417
 30
0.0
 11
-6.06227387002104
 21
98.59015057398574
 31
0.0
  0
LINE
  5
CA
330
47
100
AcDbEntity
  8
0
  6
Continuous
 62
     7
100
AcDbLine
 10
-16.24127559476365
 20
101.5285752669167
 30
0.0
 11
-6.06227387002104
 21
98.59015057398574
 31
0.0
  0
LINE
  5
CB
330
47
100
AcDbEntity
  8
0
  6
Continuous
 62
     7
100
AcDbLine
 10
-36.7924089017626
 20
66.46930732792707
 30
0.0
 11
-36.7924089017626
 21
65.86344626296581
 31
0.0
  0
LINE
  5
CC
330
47
100
AcDbEntity
  8
0
  6
Continuous
 62
     7
100
AcDbLine
 10
-37.48522922479017
 20
67.86930732792707
 30
0.0
 11
-36.7924089017626
 21
66.46930732792707
 31
0.0
  0
LINE
  5
CD
330
47
100
AcDbEntity
  8
0
  6
Continuous
 62
     7
100
AcDbLine
 10
-10.42702815489284
 20
90.14734973982662
 30
0.0
 11
-7.68822281542464
 21
84.61297473982657
 31
0.0
  0
LINE
  5
CE
330
47
100
AcDbEntity
  8
0
  6
Continuous
 62
     7
100
AcDbLine
 10
-5.13499992644795
 20
84.95287232597647
 30
0.0
 11
-1.05999992644794
 21
88.48192584639807
 31
0.0
  0
LINE
  5
CF
330
47
100
AcDbEntity
  8
0
  6
Continuous
 62
     7
100
AcDbLine
 10
-7.11430955698235
 20
85.30654769403912
 30
0.0
 11
-3.03930955698235
 21
88.83560121446071
 31
0.0
  0
LINE
  5
D0
330
47
100
AcDbEntity
  8
0
  6
Continuous
 62
     7
100
AcDbLine
 10
-1.05999992644794
 20
88.48192584639807
 30
0.0
 11
0.86272612997897
 21
84.5966234245023
 31
0.0
  0
LINE
  5
D1
330
47
100
AcDbEntity
  8
0
  6
Continuous
 62
     7
100
AcDbLine
 10
-3.03930955698235
 20
88.83560121446071
 30
0.0
 11
-1.05999992644794
 21
88.48192584639807
 31
0.0
  0
LINE
  5
D2
330
47
100
AcDbEntity
  8
0
  6
Continuous
 62
     7
100
AcDbLine
 10
0.46272612997905
 20
67.76832585527579
 30
0.0
 11
-2.81227387002104
 21
70.60455905266984
 31
0.0
  0
LINE
  5
D3
330
47
100
AcDbEntity
  8
0
  6
Continuous
 62
     7
100
AcDbLine
 10
0.86272612997897
 20
84.5966234245023
 30
0.0
 11
0.86272612997905
 21
67.83903365397954
 31
0.0
  0
LINE
  5
D4
330
47
100
AcDbEntity
  8
0
  6
Continuous
 62
     7
100
AcDbLine
 10
0.46272612997905
 20
67.76832585527579
 30
0.0
 11
0.46272612997896
 21
82.81789608566193
 31
0.0
  0
LINE
  5
D5
330
47
100
AcDbEntity
  8
0
  6
Continuous
 62
     7
100
AcDbLine
 10
-6.88572281542464
 20
84.84463653533894
 30
0.0
 11
-7.11430955698235
 21
85.30654769403912
 31
0.0
  0
LINE
  5
D6
330
47
100
AcDbEntity
  8
0
  6
Continuous
 62
     7
100
AcDbLine
 10
-33.41490982700329
 20
66.96655051436062
 30
0.0
 11
-33.66490982700327
 21
67.47173199990152
 31
0.0
  0
LINE
  5
D7
330
47
100
AcDbEntity
  8
0
  6
Continuous
 62
     7
100
AcDbLine
 10
-37.48522922479017
 20
68.91861804772631
 30
0.0
 11
-37.48522922479017
 21
67.86930732792707
 31
0.0
  0
LINE
  5
D8
330
47
100
AcDbEntity
  8
0
  6
Continuous
 62
     7
100
AcDbLine
 10
-33.66490982700327
 20
67.47173199990152
 30
0.0
 11
-37.48522922479017
 21
68.91861804772631
 31
0.0
  0
LINE
  5
D9
330
47
100
AcDbEntity
  8
0
  6
Continuous
 62
     7
100
AcDbLine
 10
-7.11430955698235
 20
85.30654769403912
 30
0.0
 11
-5.13499992644795
 21
84.95287232597647
 31
0.0
  0
LINE
  5
DA
330
47
100
AcDbEntity
  8
0
  6
Continuous
 62
     7
100
AcDbLine
 10
-2.81227387002104
 20
79.98166288826789
 30
0.0
 11
0.46272612997896
 21
82.81789608566193
 31
0.0
  0
LINE
  5
DB
330
47
100
AcDbEntity
  8
0
  6
Continuous
 62
     7
100
AcDbLine
 10
-3.21227387002104
 20
81.06756990408071
 30
0.0
 11
0.86272612997897
 21
84.5966234245023
 31
0.0
  0
LINE
  5
DC
330
47
100
AcDbEntity
  8
0
  6
Continuous
 62
     2
100
AcDbLine
 10
-27.85909247309755
 20
66.71331007107854
 30
0.0
 11
-28.10667701251265
 21
66.49889557036073
 31
0.0
  0
LINE
  5
DD
330
47
100
AcDbEntity
  8
0
  6
Continuous
 62
     7
100
AcDbLine
 10
-33.47117167727437
 20
67.0802402947575
 30
0.0
 11
-36.70556445268238
 21
64.27917398543731
 31
0.0
  0
LINE
  5
DE
330
47
100
AcDbEntity
  8
0
  6
Continuous
 62
     7
100
AcDbLine
 10
-27.29399074020404
 20
66.46742193803783
 30
0.0
 11
-28.39196248505354
 21
65.51655051436063
 31
0.0
  0
LINE
  5
DF
330
47
100
AcDbEntity
  8
0
  6
Continuous
 62
     7
100
AcDbLine
 10
-33.53117167727493
 20
67.20148385128846
 30
0.0
 11
-36.70556445268238
 21
64.4523790661958
 31
0.0
  0
LINE
  5
E0
330
47
100
AcDbEntity
  8
0
  6
Continuous
 62
     7
100
AcDbLine
 10
-34.31757846439429
 20
67.71892000879967
 30
0.0
 11
-37.59348240026321
 21
64.88190397997974
 31
0.0
  0
LINE
  5
E1
330
47
100
AcDbEntity
  8
0
  6
Continuous
 62
     7
100
AcDbLine
 10
-39.89964832465101
 20
63.59460013834178
 30
0.0
 11
-39.85485390721392
 21
63.53463496555005
 31
0.0
  0
LINE
  5
E2
330
47
100
AcDbEntity
  8
0
  6
Continuous
 62
     7
100
AcDbLine
 10
-38.69766479008837
 20
63.72949241699345
 30
0.0
 11
-39.83626992426684
 21
62.74343144591549
 31
0.0
  0
LINE
  5
E3
330
47
100
AcDbEntity
  8
0
  6
Continuous
 62
     2
100
AcDbLine
 10
-39.95340162557579
 20
62.58875050153803
 30
0.0
 11
-38.69766479008837
 21
63.67625050153802
 31
0.0
  0
LINE
  5
E4
330
47
100
AcDbEntity
  8
0
  6
Continuous
 62
     7
100
AcDbLine
 10
-39.95340162557579
 20
62.58875050153803
 30
0.0
 11
-39.95340162557579
 21
62.05575109465271
 31
0.0
  0
LINE
  5
E5
330
47
100
AcDbEntity
  8
0
  6
Continuous
 62
     7
100
AcDbLine
 10
-39.95340162557579
 20
62.05575109465271
 30
0.0
 11
-38.69766479008837
 21
63.14325109465271
 31
0.0
  0
LINE
  5
E6
330
47
100
AcDbEntity
  8
0
  6
Continuous
 62
     7
100
AcDbLine
 10
-38.69766479008835
 20
61.69325109465271
 30
0.0
 11
-38.69766479008837
 21
69.87719116041568
 31
0.0
  0
LINE
  5
E7
330
47
100
AcDbEntity
  8
0
  6
Continuous
 62
     2
100
AcDbLine
 10
-40.42971559765724
 20
63.88200063203237
 30
0.0
 11
-38.69766479008837
 21
65.38200063203237
 31
0.0
  0
LINE
  5
E8
330
47
100
AcDbEntity
  8
0
  6
Continuous
 62
     7
100
AcDbLine
 10
-40.42971559765724
 20
63.88200063203237
 30
0.0
 11
-40.21320924671113
 21
63.81950063203237
 31
0.0
  0
LINE
  5
E9
330
47
100
AcDbEntity
  8
0
  6
Continuous
 62
     2
100
AcDbLine
 10
-39.85485390721392
 20
63.53463496555005
 30
0.0
 11
-38.69766479008837
 21
64.53679013796369
 31
0.0
  0
LINE
  5
EA
330
47
100
AcDbEntity
  8
0
  6
Continuous
 62
     2
100
AcDbLine
 10
-39.89964832465101
 20
63.59460013834178
 30
0.0
 11
-38.69766479008837
 21
64.63554841420364
 31
0.0
  0
LINE
  5
EB
330
47
100
AcDbEntity
  8
0
  6
Continuous
 62
     2
100
AcDbLine
 10
-40.21320924671113
 20
63.81950063203237
 30
0.0
 11
-38.69766479008837
 21
65.13200063203239
 31
0.0
  0
LINE
  5
EC
330
47
100
AcDbEntity
  8
0
  6
Continuous
 62
     7
100
AcDbLine
 10
-39.55836623729803
 20
71.46947188548498
 30
0.0
 11
-40.45136623275185
 21
75.05998013355804
 31
0.0
  0
LINE
  5
ED
330
47
100
AcDbEntity
  8
0
  6
Continuous
 62
     7
100
AcDbLine
 10
-40.45136623275185
 20
75.05998013355804
 30
0.0
 11
-40.45136623275178
 21
91.81756990408067
 31
0.0
  0
LINE
  5
EE
330
47
100
AcDbEntity
  8
0
  6
Continuous
 62
     7
100
AcDbLine
 10
-38.09194195733001
 20
71.0461516590921
 30
0.0
 11
-39.55836623729803
 21
71.46947188548498
 31
0.0
  0
LINE
  5
EF
330
47
100
AcDbEntity
  8
0
  6
Continuous
 62
     7
100
AcDbLine
 10
-37.753635538759
 20
71.0176201295148
 30
0.0
 11
-38.48629305701191
 21
70.38312010643413
 31
0.0
  0
LINE
  5
F0
330
47
100
AcDbEntity
  8
0
  6
Continuous
 62
     7
100
AcDbLine
 10
-37.83163938630392
 20
70.49321656420013
 30
0.0
 11
-34.73559856777456
 21
69.59946656420013
 31
0.0
  0
LINE
  5
F1
330
47
100
AcDbEntity
  8
0
  6
Continuous
 62
     7
100
AcDbLine
 10
-38.52864017632496
 20
94.5927859197205
 30
0.0
 11
-36.5493305457905
 21
93.80370633978445
 31
0.0
  0
LINE
  5
F2
330
47
100
AcDbEntity
  8
0
  6
Continuous
 62
     2
100
AcDbLine
 10
-37.04413938630393
 20
71.17521156968037
 30
0.0
 11
-37.83163938630392
 21
70.49321656420013
 31
0.0
  0
LINE
  5
F3
330
47
100
AcDbEntity
  8
0
  6
Continuous
 62
     7
100
AcDbLine
 10
-35.03551087729946
 20
67.99082564897085
 30
0.0
 11
-36.7924089017626
 21
66.46930732792707
 31
0.0
  0
LINE
  5
F4
330
47
100
AcDbEntity
  8
0
  6
Continuous
 62
     7
100
AcDbLine
 10
-36.64224667603892
 20
68.59935163009261
 30
0.0
 11
-37.48522922479017
 21
67.86930732792707
 31
0.0
  0
LINE
  5
F5
330
47
100
AcDbEntity
  8
0
  6
Continuous
 62
     7
100
AcDbLine
 10
-37.77672677386252
 20
65.97403255873357
 30
0.0
 11
-37.59348240026321
 21
64.88190397997974
 31
0.0
  0
LINE
  5
F6
330
47
100
AcDbEntity
  8
0
  6
Continuous
 62
     7
100
AcDbLine
 10
-35.44588905890322
 20
99.04235388844056
 30
0.0
 11
-33.52636623275176
 21
101.812946439426
 31
0.0
  0
LINE
  5
F7
330
47
100
AcDbEntity
  8
0
  6
Continuous
 62
     7
100
AcDbLine
 10
-34.54878154623162
 20
67.80648454948134
 30
0.0
 11
-36.7924089017626
 21
65.86344626296581
 31
0.0
  0
LINE
  5
F8
330
47
100
AcDbEntity
  8
0
  6
Continuous
 62
     7
100
AcDbLine
 10
-40.45136623275178
 20
91.81756990408067
 30
0.0
 11
-38.52864017632496
 21
94.5927859197205
 31
0.0
  0
LINE
  5
F9
330
47
100
AcDbEntity
  8
0
  6
Continuous
 62
     7
100
AcDbLine
 10
-38.52864017632496
 20
94.5927859197205
 30
0.0
 11
-34.7388222335306
 21
97.8748645338985
 31
0.0
  0
LINE
  5
FA
330
47
100
AcDbEntity
  8
0
  6
Continuous
 62
     7
100
AcDbLine
 10
-33.52636623275176
 20
101.812946439426
 30
0.0
 11
-29.45136623275174
 21
105.3419999598475
 31
0.0
  0
LINE
  5
FB
330
47
100
AcDbEntity
  8
0
  6
Continuous
 62
     7
100
AcDbLine
 10
-9.32946711125705
 20
57.76201604677735
 30
0.0
 11
-11.50446711125704
 21
55.87841079354621
 31
0.0
  0
LINE
  5
FC
330
47
100
AcDbEntity
  8
0
  6
Continuous
 62
     7
100
AcDbLine
 10
-8.95446711125705
 20
57.6537628713043
 30
0.0
 11
-11.50446711125704
 21
55.445398091654
 31
0.0
  0
LINE
  5
FD
330
47
100
AcDbEntity
  8
0
  6
Continuous
 62
     7
100
AcDbLine
 10
-8.56558870447374
 20
57.54150334488514
 30
0.0
 11
-12.24058870447374
 21
54.35885998597733
 31
0.0
  0
LINE
  5
FE
330
47
100
AcDbEntity
  8
0
  6
Continuous
 62
     7
100
AcDbLine
 10
-25.20931912614574
 20
87.80728133578359
 30
0.0
 11
-21.88431912614574
 21
90.68681580336684
 31
0.0
  0
LINE
  5
FF
330
47
100
AcDbEntity
  8
0
  6
Continuous
 62
     7
100
AcDbLine
 10
-21.88431912614574
 20
90.68681580336684
 30
0.0
 11
-18.45432097662715
 21
89.69666062589458
 31
0.0
  0
LINE
  5
100
330
47
100
AcDbEntity
  8
0
  6
Continuous
 62
     7
100
AcDbLine
 10
-10.13727387002105
 20
95.06109705356417
 30
0.0
 11
-8.21775104386964
 21
91.1822674821845
 31
0.0
  0
LINE
  5
101
330
47
100
AcDbEntity
  8
0
  6
Continuous
 62
     7
100
AcDbLine
 10
-9.39594141333534
 20
89.91710037663877
 30
0.0
 11
-9.62452815489294
 21
90.37901153533898
 31
0.0
  0
LINE
  5
102
330
47
100
AcDbEntity
  8
0
  6
Continuous
 62
     7
100
AcDbLine
 10
-9.62452815489294
 20
90.37901153533898
 30
0.0
 11
-10.42702815489284
 21
90.14734973982662
 31
0.0
  0
LINE
  5
103
330
47
100
AcDbEntity
  8
0
  6
Continuous
 62
     7
100
AcDbLine
 10
-12.24058870447374
 20
54.35885998597733
 30
0.0
 11
-11.24465949012165
 21
53.96310681050427
 31
0.0
  0
LINE
  5
104
330
47
100
AcDbEntity
  8
0
  6
Continuous
 62
     7
100
AcDbLine
 10
-11.24465949012165
 20
53.96310681050427
 30
0.0
 11
-11.24465949012165
 21
52.85892442067909
 31
0.0
  0
LINE
  5
105
330
47
100
AcDbEntity
  8
0
  6
Continuous
 62
     7
100
AcDbLine
 10
-11.24465949012165
 20
52.85892442067909
 30
0.0
 11
-13.79943443128575
 21
53.59642442067909
 31
0.0
  0
LINE
  5
106
330
47
100
AcDbEntity
  8
0
  6
Continuous
 62
     7
100
AcDbLine
 10
-11.69932282710845
 20
62.0834411604157
 30
0.0
 11
-12.13233552900074
 21
62.2084411604157
 31
0.0
  0
LINE
  5
107
330
47
100
AcDbEntity
  8
0
  6
Continuous
 62
     2
100
AcDbLine
 10
-12.19419448641395
 20
62.22185702995205
 30
0.0
 11
-12.56534823089294
 21
61.90042845852348
 31
0.0
  0
LINE
  5
108
330
47
100
AcDbEntity
  8
0
  6
Continuous
 62
     7
100
AcDbLine
 10
-12.56534823089294
 20
61.90042845852348
 30
0.0
 11
-12.56534823089294
 21
60.96998628126283
 31
0.0
  0
LINE
  5
109
330
47
100
AcDbEntity
  8
0
  6
Continuous
 62
     7
100
AcDbLine
 10
-12.56534823089294
 20
60.96998628126283
 30
0.0
 11
-11.45184348410415
 21
61.93430967921651
 31
0.0
  0
LINE
  5
10A
330
47
100
AcDbEntity
  8
0
  6
Continuous
 62
     7
100
AcDbLine
 10
-11.26631012521624
 20
60.37198824497116
 30
0.0
 11
-11.26631012521624
 21
61.52542845852348
 31
0.0
  0
LINE
  5
10B
330
47
100
AcDbEntity
  8
0
  6
Continuous
 62
     7
100
AcDbLine
 10
-11.50446711125704
 20
55.87841079354621
 30
0.0
 11
-11.50446711125704
 21
55.445398091654
 31
0.0
  0
LINE
  5
10C
330
47
100
AcDbEntity
  8
0
  6
Continuous
 62
     7
100
AcDbLine
 10
-11.50446711125704
 20
55.445398091654
 30
0.0
 11
-12.24058870447374
 21
55.65789809165399
 31
0.0
  0
LINE
  5
10D
330
47
100
AcDbEntity
  8
0
  6
Continuous
 62
     7
100
AcDbLine
 10
-12.24058870447374
 20
55.65789809165399
 30
0.0
 11
-12.24058870447374
 21
54.35885998597733
 31
0.0
  0
LINE
  5
10E
330
47
100
AcDbEntity
  8
0
  6
Continuous
 62
     7
100
AcDbLine
 10
-13.79943443128575
 20
53.59642442067909
 30
0.0
 11
-13.79943443128575
 21
55.02536633692344
 31
0.0
  0
LINE
  5
10F
330
47
100
AcDbEntity
  8
0
  6
Continuous
 62
     7
100
AcDbLine
 10
-13.79943443128575
 20
55.02536633692344
 30
0.0
 11
-14.35369068970775
 21
55.18536633692347
 31
0.0
  0
LINE
  5
110
330
47
100
AcDbEntity
  8
0
  6
Continuous
 62
     7
100
AcDbLine
 10
-27.59088898655294
 20
66.6709411604157
 30
0.0
 11
-27.68841886064374
 21
66.69909560994587
 31
0.0
  0
LINE
  5
111
330
47
100
AcDbEntity
  8
0
  6
Continuous
 62
     7
100
AcDbLine
 10
-27.15787628466075
 20
64.07776875963008
 30
0.0
 11
-27.15787628466075
 21
66.11292845852347
 31
0.0
  0
LINE
  5
112
330
47
100
AcDbEntity
  8
0
  6
Continuous
 62
     2
100
AcDbLine
 10
-27.15787628466075
 20
64.11796113849473
 30
0.0
 11
-27.41768390579604
 21
63.89296113849473
 31
0.0
  0
LINE
  5
113
330
47
100
AcDbEntity
  8
0
  6
Continuous
 62
     7
100
AcDbLine
 10
-27.15787628466075
 20
64.43775631471823
 30
0.0
 11
-27.87594147529164
 21
63.81589361805854
 31
0.0
  0
LINE
  5
114
330
47
100
AcDbEntity
  8
0
  6
Continuous
 62
     2
100
AcDbLine
 10
-25.44585819473355
 20
62.11695305177938
 30
0.0
 11
-26.46758215102294
 21
61.23211414997765
 31
0.0
  0
LINE
  5
115
330
47
100
AcDbEntity
  8
0
  6
Continuous
 62
     7
100
AcDbLine
 10
-25.26954629072024
 20
62.09581738955075
 30
0.0
 11
-26.54960465486374
 21
60.98725432787575
 31
0.0
  0
LINE
  5
116
330
47
100
AcDbEntity
  8
0
  6
Continuous
 62
     7
100
AcDbLine
 10
-12.56534823089294
 20
60.96998628126283
 30
0.0
 11
-11.50446711125704
 21
55.87841079354621
 31
0.0
  0
LINE
  5
117
330
47
100
AcDbEntity
  8
0
  6
Continuous
 62
     7
100
AcDbLine
 10
-25.20931912614574
 20
87.80728133578359
 30
0.0
 11
-18.45432097662715
 21
85.85728133578358
 31
0.0
  0
SPLINE
  5
118
330
47
100
AcDbEntity
  8
0
  6
Continuous
 62
     7
100
AcDbSpline
210
0.0
220
0.0
230
1.0
 70
     8
 71
     3
 72
    11
 73
     7
 74
     5
 42
0.000000001
 43
0.0000000001
 44
0.00000001
 40
0.0
 40
0.0
 40
0.0
 40
0.0
 40
0.9475859412044125
 40
1.920473026473802
 40
2.926545669603246
 40
3.970811136093953
 40
3.970811136093953
 40
3.970811136093953
 40
3.970811136093953
 10
-37.91259385286784
 20
60.55729396221047
 30
0.0
 10
-37.73652571625508
 20
60.82048570280848
 30
0.0
 10
-37.37968832519675
 20
61.35389657773639
 30
0.0
 10
-37.01752569846528
 20
62.26602645462759
 30
0.0
 10
-36.77217892765213
 20
63.24782155032698
 30
0.0
 10
-36.728043319105
 20
63.93114694193092
 30
0.0
 10
-36.70556445268238
 20
64.27917398543731
 30
0.0
 11
-37.91259385286784
 21
60.55729396221047
 31
0.0
 11
-37.41340385915669
 21
61.36273078042618
 31
0.0
 11
-37.04200594569645
 21
62.26193758302733
 31
0.0
 11
-36.80471471739774
 21
63.23962620378505
 31
0.0
 11
-36.70556445268238
 21
64.27917398543731
 31
0.0
  0
SPLINE
  5
119
330
47
100
AcDbEntity
  8
0
  6
Continuous
 62
     7
100
AcDbSpline
210
0.0
220
0.0
230
1.0
 70
     8
 71
     3
 72
    11
 73
     7
 74
     5
 42
0.000000001
 43
0.0000000001
 44
0.00000001
 40
0.0
 40
0.0
 40
0.0
 40
0.0
 40
1.501716589123583
 40
3.0119829280259
 40
4.507380582629323
 40
5.96594089628841
 40
5.96594089628841
 40
5.96594089628841
 40
5.96594089628841
 10
-15.78405714551624
 20
56.35357262009019
 30
0.0
 10
-16.05061544075952
 20
56.77841386027382
 30
0.0
 10
-16.58524964467609
 20
57.63051508836848
 30
0.0
 10
-17.60626548994079
 20
58.74146784145312
 30
0.0
 10
-18.7429643452592
 20
59.71277202019934
 30
0.0
 10
-19.6015189524844
 20
60.19907461227705
 30
0.0
 10
-20.02544295622334
 20
60.43919368311309
 30
0.0
 11
-15.78405714551624
 21
56.35357262009019
 31
0.0
 11
-16.62043349485219
 21
57.60082051768258
 31
0.0
 11
-17.63096015942295
 21
58.72320203883029
 31
0.0
 11
-18.77961308590928
 21
59.68070431269186
 31
0.0
 11
-20.02544295622334
 21
60.43919368311309
 31
0.0
  0
SPLINE
  5
11A
330
47
100
AcDbEntity
  8
0
  6
Continuous
 62
     7
100
AcDbSpline
210
0.0
220
0.0
230
1.0
 70
     8
 71
     3
 72
    11
 73
     7
 74
     5
 42
0.000000001
 43
0.0000000001
 44
0.00000001
 40
0.0
 40
0.0
 40
0.0
 40
0.0
 40
0.0935705952109208
 40
0.1815181363975987
 40
0.2647690944696026
 40
0.3453217744506238
 40
0.3453217744506238
 40
0.3453217744506238
 40
0.3453217744506238
 10
-40.42971559765724
 20
63.88200063203237
 30
0.0
 10
-40.4602459049136
 20
63.8890410323489
 30
0.0
 10
-40.51947182606113
 20
63.90269873106901
 30
0.0
 10
-40.60850410166761
 20
63.89822524199452
 30
0.0
 10
-40.69074133718431
 20
63.87526062753118
 30
0.0
 10
-40.73518611118829
 20
63.84287733596229
 30
0.0
 10
-40.75704243301121
 20
63.82695240314939
 30
0.0
 11
-40.42971559765724
 21
63.88200063203237
 31
0.0
 11
-40.52178803879929
 21
63.89867762031307
 31
0.0
 11
-40.60964952545055
 21
63.89478794611787
 31
0.0
 11
-40.68928163576541
 21
63.87050936502091
 31
0.0
 11
-40.75704243301121
 21
63.82695240314939
 31
0.0
  0
SPLINE
  5
11B
330
47
100
AcDbEntity
  8
0
  6
Continuous
 62
     7
100
AcDbSpline
210
0.0
220
0.0
230
1.0
 70
     8
 71
     3
 72
     9
 73
     5
 74
     3
 42
0.000000001
 43
0.0000000001
 44
0.00000001
 40
0.0
 40
0.0
 40
0.0
 40
0.0
 40
0.1347351597551298
 40
0.2806984683898093
 40
0.2806984683898093
 40
0.2806984683898093
 40
0.2806984683898093
 10
-40.75704243301121
 20
63.82695240314939
 30
0.0
 10
-40.78743491671237
 20
63.79225093685931
 30
0.0
 10
-40.85075262378597
 20
63.7199561494354
 30
0.0
 10
-40.85863136216674
 20
63.62392445182874
 30
0.0
 10
-40.86272829954945
 20
63.57398793014016
 30
0.0
 11
-40.75704243301121
 21
63.82695240314939
 31
0.0
 11
-40.83544675882843
 21
63.71737902341538
 31
0.0
 11
-40.86272829954945
 21
63.57398793014016
 31
0.0
  0
SPLINE
  5
11C
330
47
100
AcDbEntity
  8
0
  6
Continuous
 62
     7
100
AcDbSpline
210
0.0
220
0.0
230
1.0
 70
     8
 71
     3
 72
    11
 73
     7
 74
     5
 42
0.000000001
 43
0.0000000001
 44
0.00000001
 40
0.0
 40
0.0
 40
0.0
 40
0.0
 40
0.1676014956986454
 40
0.3276192723756229
 40
0.4818199683815844
 40
0.6328501322469842
 40
0.6328501322469842
 40
0.6328501322469842
 40
0.6328501322469842
 10
-25.62899625489594
 20
62.13645156091958
 30
0.0
 10
-25.68497222572456
 20
62.13934146518663
 30
0.0
 10
-25.79439133768452
 20
62.14499049514686
 30
0.0
 10
-25.95341712107365
 20
62.1151533891169
 30
0.0
 10
-26.09977841012566
 20
62.05898412115914
 30
0.0
 10
-26.18121787850808
 20
61.99724334815166
 30
0.0
 10
-26.22151463950054
 20
61.96669361628356
 30
0.0
 11
-25.62899625489594
 21
62.13645156091958
 31
0.0
 11
-25.79658718704047
 21
62.1383333162536
 31
0.0
 11
-25.95407681688924
 21
62.11000125044657
 31
0.0
 11
-26.09705412769945
 21
62.05224881389445
 31
0.0
 11
-26.22151463950054
 21
61.96669361628356
 31
0.0
  0
SPLINE
  5
11D
330
47
100
AcDbEntity
  8
0
  6
Continuous
 62
     7
100
AcDbSpline
210
0.0
220
0.0
230
1.0
 70
     8
 71
     3
 72
     9
 73
     5
 74
     3
 42
0.000000001
 43
0.0000000001
 44
0.00000001
 40
0.0
 40
0.0
 40
0.0
 40
0.0
 40
0.0849727062785317
 40
0.173088721105833
 40
0.173088721105833
 40
0.173088721105833
 40
0.173088721105833
 10
-28.01574569599774
 20
66.64404738106288
 30
0.0
 10
-28.0358377741835
 20
66.62357911151035
 30
0.0
 10
-28.07676516049692
 20
66.58188539891607
 30
0.0
 10
-28.09658641571932
 20
66.52689174644516
 30
0.0
 10
-28.10667701251265
 20
66.49889557036073
 30
0.0
 11
-28.01574569599774
 21
66.64404738106288
 31
0.0
 11
-28.07093529532684
 21
66.5794372488611
 31
0.0
 11
-28.10667701251265
 21
66.49889557036073
 31
0.0
  0
SPLINE
  5
11E
330
47
100
AcDbEntity
  8
0
  6
Continuous
 62
     7
100
AcDbSpline
210
0.0
220
0.0
230
1.0
 70
     8
 71
     3
 72
    11
 73
     7
 74
     5
 42
0.000000001
 43
0.0000000001
 44
0.00000001
 40
0.0
 40
0.0
 40
0.0
 40
0.0
 40
0.0994033217203209
 40
0.2014330550267208
 40
0.3081733529235186
 40
0.4208342685142784
 40
0.4208342685142784
 40
0.4208342685142784
 40
0.4208342685142784
 10
-27.87594147529164
 20
63.81589361805854
 30
0.0
 10
-27.89945504647722
 20
63.79228485547605
 30
0.0
 10
-27.94710344784784
 20
63.74444353530475
 30
0.0
 10
-27.99393337297073
 20
63.6514311654395
 30
0.0
 10
-28.022328305061
 20
63.54715345831032
 30
0.0
 10
-28.02301212030886
 20
63.4737402747663
 30
0.0
 10
-28.02336324693005
 20
63.43604314237867
 30
0.0
 11
-27.87594147529164
 21
63.81589361805854
 31
0.0
 11
-27.9423328682802
 21
63.74191251477743
 31
0.0
 11
-27.99004520452179
 21
63.65172604151161
 31
0.0
 11
-28.01737969880364
 21
63.54854504974305
 31
0.0
 11
-28.02336324693005
 21
63.43604314237867
 31
0.0
  0
SPLINE
  5
11F
330
47
100
AcDbEntity
  8
0
  6
Continuous
 62
     7
100
AcDbSpline
210
0.0
220
0.0
230
1.0
 70
     8
 71
     3
 72
    11
 73
     7
 74
     5
 42
0.000000001
 43
0.0000000001
 44
0.00000001
 40
0.0
 40
0.0
 40
0.0
 40
0.0
 40
0.1882257032866395
 40
0.3824491697457931
 40
0.5871851159401408
 40
0.8046506808535121
 40
0.8046506808535121
 40
0.8046506808535121
 40
0.8046506808535121
 10
-26.22151463950054
 20
61.96669361628356
 30
0.0
 10
-26.26572949017543
 20
61.92158030206996
 30
0.0
 10
-26.35556807502041
 20
61.82991614003898
 30
0.0
 10
-26.43795697989552
 20
61.64879391634116
 30
0.0
 10
-26.4810928126557
 20
61.44584507762134
 30
0.0
 10
-26.47217533229989
 20
61.30477556819054
 30
0.0
 10
-26.46758215102294
 20
61.23211414997765
 30
0.0
 11
-26.22151463950054
 21
61.96669361628356
 31
0.0
 11
-26.34539650514468
 21
61.82498193905385
 31
0.0
 11
-26.42983166520994
 21
61.65007207728743
 31
0.0
 11
-26.4711576084594
 21
61.44955032037559
 31
0.0
 11
-26.46758215102294
 21
61.23211414997765
 31
0.0
  0
SPLINE
  5
120
330
47
100
AcDbEntity
  8
0
  6
Continuous
 62
     7
100
AcDbSpline
210
0.0
220
0.0
230
1.0
 70
     8
 71
     3
 72
     9
 73
     5
 74
     3
 42
0.000000001
 43
0.0000000001
 44
0.00000001
 40
0.0
 40
0.0
 40
0.0
 40
0.0
 40
0.1053579233047615
 40
0.2134431121004073
 40
0.2134431121004073
 40
0.2134431121004073
 40
0.2134431121004073
 10
-37.55715548421901
 20
71.11460287960602
 30
0.0
 10
-37.5319490507835
 20
71.13950616179855
 30
0.0
 10
-37.48088371271767
 20
71.18995737784863
 30
0.0
 10
-37.4509376447143
 20
71.2552188585751
 30
0.0
 10
-37.43577330155418
 20
71.28826654287714
 30
0.0
 11
-37.55715548421901
 21
71.11460287960602
 31
0.0
 11
-37.48668194493554
 21
71.19292128433062
 31
0.0
 11
-37.43577330155418
 21
71.28826654287714
 31
0.0
  0
SPLINE
  5
121
330
47
100
AcDbEntity
  8
0
  6
Continuous
 62
     7
100
AcDbSpline
210
0.0
220
0.0
230
1.0
 70
     8
 71
     3
 72
    15
 73
    11
 74
     9
 42
0.000000001
 43
0.0000000001
 44
0.00000001
 40
0.0
 40
0.0
 40
0.0
 40
0.0
 40
0.1129385421857383
 40
0.2322801150809037
 40
0.3616824440741451
 40
0.5012113718837571
 40
0.6480042193304556
 40
0.7974169697409774
 40
0.9442165363784927
 40
1.083757557813985
 40
1.083757557813985
 40
1.083757557813985
 40
1.083757557813985
 10
-34.39190539065285
 20
69.65726720452727
 30
0.0
 10
-34.36614936420159
 20
69.68532489695122
 30
0.0
 10
-34.31317708891263
 20
69.74303101596362
 30
0.0
 10
-34.27903820598537
 20
69.86260759520133
 30
0.0
 10
-34.28010604837791
 20
69.99312990591149
 30
0.0
 10
-34.31794551902117
 20
70.12804443954799
 30
0.0
 10
-34.38813439744475
 20
70.25658299122996
 30
0.0
 10
-34.48571227297555
 20
70.36846652884874
 30
0.0
 10
-34.60208749729612
 20
70.45860473757013
 30
0.0
 10
-34.69185337767843
 20
70.49234887289379
 30
0.0
 10
-34.73559856777456
 20
70.50879323817384
 30
0.0
 11
-34.39190539065285
 21
69.65726720452727
 31
0.0
 11
-34.32197717248004
 21
69.74595294073296
 31
0.0
 11
-34.28554976289761
 21
69.85959912985906
 31
0.0
 11
-34.28557433552604
 21
69.9890014595172
 31
0.0
 11
-34.32204812436306
 21
70.12367879545641
 31
0.0
 11
-34.39201768797646
 21
70.25272297554848
 31
0.0
 11
-34.48981520589873
 21
70.36568232867742
 31
0.0
 11
-34.60752009972721
 21
70.45340729962035
 31
0.0
 11
-34.73559856777456
 21
70.50879323817384
 31
0.0
  0
SPLINE
  5
122
330
47
100
AcDbEntity
  8
0
  6
Continuous
 62
     7
100
AcDbSpline
210
0.0
220
0.0
230
1.0
 70
     8
 71
     3
 72
    11
 73
     7
 74
     5
 42
0.000000001
 43
0.0000000001
 44
0.00000001
 40
0.0
 40
0.0
 40
0.0
 40
0.0
 40
0.0982491249895939
 40
0.1905940433496385
 40
0.2780075494674062
 40
0.3625878635464133
 40
0.3625878635464133
 40
0.3625878635464133
 40
0.3625878635464133
 10
-34.73559856777456
 20
69.59946656420013
 30
0.0
 10
-34.70354174514947
 20
69.59207414386643
 30
0.0
 10
-34.64135452801733
 20
69.57773355948083
 30
0.0
 10
-34.54787063853891
 20
69.58243072335024
 30
0.0
 10
-34.46152154097349
 20
69.60654356823349
 30
0.0
 10
-34.41485452859379
 20
69.6405460250542
 30
0.0
 10
-34.39190539065285
 20
69.65726720452727
 30
0.0
 11
-34.73559856777456
 21
69.59946656420013
 31
0.0
 11
-34.6389225045754
 21
69.58195572650541
 31
0.0
 11
-34.54666794359158
 21
69.58603988441038
 31
0.0
 11
-34.46305422776096
 21
69.61153239456219
 31
0.0
 11
-34.39190539065285
 21
69.65726720452727
 31
0.0
  0
SPLINE
  5
123
330
47
100
AcDbEntity
  8
0
  6
Continuous
 62
     7
100
AcDbSpline
210
0.0
220
0.0
230
1.0
 70
     8
 71
     3
 72
     9
 73
     5
 74
     3
 42
0.000000001
 43
0.0000000001
 44
0.00000001
 40
0.0
 40
0.0
 40
0.0
 40
0.0
 40
0.4306373060047346
 40
0.7986432292267823
 40
0.7986432292267823
 40
0.7986432292267823
 40
0.7986432292267823
 10
-25.41947882503915
 20
101.5800181084017
 30
0.0
 10
-25.31306880364195
 20
101.6829368367899
 30
0.0
 10
-25.11572492532169
 20
101.8738059252168
 30
0.0
 10
-25.07145004828885
 20
102.1433261715322
 30
0.0
 10
-25.05104868544635
 20
102.2675181084017
 30
0.0
 11
-25.41947882503915
 21
101.5800181084017
 31
0.0
 11
-25.14475337133526
 21
101.9116420162644
 31
0.0
 11
-25.05104868544635
 21
102.2675181084017
 31
0.0
  0
SPLINE
  5
124
330
47
100
AcDbEntity
  8
0
  6
Continuous
 62
     7
100
AcDbSpline
210
0.0
220
0.0
230
1.0
 70
     8
 71
     3
 72
    17
 73
    13
 74
    11
 42
0.000000001
 43
0.0000000001
 44
0.00000001
 40
0.0
 40
0.0
 40
0.0
 40
0.0
 40
0.3680059164316691
 40
0.798643224493164
 40
1.320263018005052
 40
1.930285532802644
 40
2.60760833958628
 40
3.320900926458375
 40
4.034193513107452
 40
4.711516318982015
 40
5.321538834386834
 40
5.843158633572403
 40
5.843158633572403
 40
5.843158633572403
 40
5.843158633572403
 10
-30.55104868544638
 20
102.2675181084017
 30
0.0
 10
-30.53009429327101
 20
102.1442984699822
 30
0.0
 10
-30.48461924350065
 20
101.8768882923685
 30
0.0
 10
-30.16931696800944
 20
101.5421343033481
 30
0.0
 10
-29.72861717279913
 20
101.2648654714135
 30
0.0
 10
-29.15842177795328
 20
101.0543508427202
 30
0.0
 10
-28.50298782107993
 20
100.9222346743299
 30
0.0
 10
-27.80115089755727
 20
100.8774317802226
 30
0.0
 10
-27.09871106097675
 20
100.9216252833353
 30
0.0
 10
-26.4449392396977
 20
101.0565511757078
 30
0.0
 10
-25.86954855013786
 20
101.2579573465375
 30
0.0
 10
-25.56148006866782
 20
101.4784048952337
 30
0.0
 10
-25.41947882503915
 20
101.5800181084017
 30
0.0
 11
-30.55104868544638
 21
102.2675181084017
 31
0.0
 11
-30.45734399955747
 21
101.9116420162643
 31
0.0
 11
-30.18261854585358
 21
101.5800181084016
 31
0.0
 11
-29.74559181528282
 21
101.2952465434834
 31
0.0
 11
-29.1760486854464
 21
101.0767331781981
 31
0.0
 11
-28.51280086972106
 21
100.9393704513461
 31
0.0
 11
-27.8010486854464
 21
100.8925181084017
 31
0.0
 11
-27.08929650117173
 21
100.9393704513461
 31
0.0
 11
-26.42604868544639
 21
101.0767331781981
 31
0.0
 11
-25.85650555560993
 21
101.2952465434834
 31
0.0
 11
-25.41947882503915
 21
101.5800181084017
 31
0.0
  0
SPLINE
  5
125
330
47
100
AcDbEntity
  8
0
  6
Continuous
 62
     7
100
AcDbSpline
210
0.0
220
0.0
230
1.0
 70
     8
 71
     3
 72
    11
 73
     7
 74
     5
 42
0.000000001
 43
0.0000000001
 44
0.00000001
 40
0.0
 40
0.0
 40
0.0
 40
0.0
 40
0.0935705952109475
 40
0.1815181363975945
 40
0.2647690944696173
 40
0.3453217744506449
 40
0.3453217744506449
 40
0.3453217744506449
 40
0.3453217744506449
 10
-27.68841886064374
 20
66.69909560994587
 30
0.0
 10
-27.71894916790011
 20
66.70613601026241
 30
0.0
 10
-27.77817508904763
 20
66.7197937089825
 30
0.0
 10
-27.86720736465412
 20
66.71532021990798
 30
0.0
 10
-27.94944460017081
 20
66.69235560544463
 30
0.0
 10
-27.99388937417481
 20
66.65997231387576
 30
0.0
 10
-28.01574569599774
 20
66.64404738106288
 30
0.0
 11
-27.68841886064374
 21
66.69909560994587
 31
0.0
 11
-27.78049130178582
 21
66.71577259822655
 31
0.0
 11
-27.86835278843704
 21
66.71188292403134
 31
0.0
 11
-27.94798489875192
 21
66.68760434293438
 31
0.0
 11
-28.01574569599774
 21
66.64404738106288
 31
0.0
  0
SPLINE
  5
126
330
47
100
AcDbEntity
  8
0
  6
Continuous
 62
     7
100
AcDbSpline
210
0.0
220
0.0
230
1.0
 70
     8
 71
     3
 72
    11
 73
     7
 74
     5
 42
0.000000001
 43
0.0000000001
 44
0.00000001
 40
0.0
 40
0.0
 40
0.0
 40
0.0
 40
0.130998833440329
 40
0.2541253920138795
 40
0.3706767344519052
 40
0.4834504872167302
 40
0.4834504872167302
 40
0.4834504872167302
 40
0.4834504872167302
 10
-27.41768390579604
 20
63.89296113849473
 30
0.0
 10
-27.46042633600227
 20
63.90281769894878
 30
0.0
 10
-27.54334262502669
 20
63.92193848299253
 30
0.0
 10
-27.6679878116085
 20
63.91567559555899
 30
0.0
 10
-27.783119943515
 20
63.88352513773629
 30
0.0
 10
-27.84534262452481
 20
63.83818852415303
 30
0.0
 10
-27.87594147529164
 20
63.81589361805854
 30
0.0
 11
-27.41768390579604
 21
63.89296113849473
 31
0.0
 11
-27.54658532339494
 21
63.91630892208769
 31
0.0
 11
-27.66959140470669
 21
63.9108633782144
 31
0.0
 11
-27.7810763591475
 21
63.87687336467866
 31
0.0
 11
-27.87594147529164
 21
63.81589361805854
 31
0.0
  0
SPLINE
  5
127
330
47
100
AcDbEntity
  8
0
  6
Continuous
 62
     7
100
AcDbSpline
210
0.0
220
0.0
230
1.0
 70
     8
 71
     3
 72
    13
 73
     9
 74
     7
 42
0.000000001
 43
0.0000000001
 44
0.00000001
 40
0.0
 40
0.0
 40
0.0
 40
0.0
 40
0.104556728650848
 40
0.2061418007536902
 40
0.3022745471530079
 40
0.3916590361759649
 40
0.474738988815128
 40
0.5539452715656918
 40
0.5539452715656918
 40
0.5539452715656918
 40
0.5539452715656918
 10
-27.04017271998005
 20
61.09546846698422
 30
0.0
 10
-27.01596993387232
 20
61.07022837934014
 30
0.0
 10
-26.96825223085921
 20
61.02046557478738
 30
0.0
 10
-26.88171570520709
 20
60.96689894162054
 30
0.0
 10
-26.79100145707609
 20
60.93380583820352
 30
0.0
 10
-26.70109695658135
 20
60.92546564310885
 30
0.0
 10
-26.61629465356842
 20
60.94074545353705
 30
0.0
 10
-26.57147807095983
 20
60.97200004157565
 30
0.0
 10
-26.54960465486374
 20
60.98725432787575
 30
0.0
 11
-27.04017271998005
 21
61.09546846698422
 31
0.0
 11
-26.9646579669556
 21
61.02315227864074
 31
0.0
 11
-26.87860568371815
 21
60.96916587752641
 31
0.0
 11
-26.78793503422812
 21
60.93722313844241
 31
0.0
 11
-26.69888300590134
 21
60.9295209510806
 31
0.0
 11
-26.61757529500638
 21
60.94658950332938
 31
0.0
 11
-26.54960465486374
 21
60.98725432787575
 31
0.0
  0
SPLINE
  5
128
330
47
100
AcDbEntity
  8
0
  6
Continuous
 62
     7
100
AcDbSpline
210
0.0
220
0.0
230
1.0
 70
     8
 71
     3
 72
     9
 73
     5
 74
     3
 42
0.000000001
 43
0.0000000001
 44
0.00000001
 40
0.0
 40
0.0
 40
0.0
 40
0.0
 40
1.428307669132084
 40
2.922802907428553
 40
2.922802907428553
 40
2.922802907428553
 40
2.922802907428553
 10
-33.83759385286786
 20
64.08634748263205
 30
0.0
 10
-33.57834665468901
 20
64.49050273131634
 30
0.0
 10
-33.0478387987044
 20
65.31754173270755
 30
0.0
 10
-32.83733736292624
 20
66.27776468728389
 30
0.0
 10
-32.72970322695323
 20
66.76874840686591
 30
0.0
 11
-33.83759385286786
 21
64.08634748263205
 31
0.0
 11
-33.13627158599461
 21
65.3306183048717
 31
0.0
 11
-32.72970322695323
 21
66.76874840686591
 31
0.0
  0
SPLINE
  5
129
330
47
100
AcDbEntity
  8
0
  6
Continuous
 62
     7
100
AcDbSpline
210
0.0
220
0.0
230
1.0
 70
     8
 71
     3
 72
    19
 73
    15
 74
    13
 42
0.000000001
 43
0.0000000001
 44
0.00000001
 40
0.0
 40
0.0
 40
0.0
 40
0.0
 40
0.3680059210525904
 40
0.7986432255765475
 40
1.320263020133538
 40
1.930285536548606
 40
2.607608345772903
 40
3.320900935876173
 40
4.034193525979429
 40
4.711516335203727
 40
5.32153885161878
 40
5.843158646175752
 40
6.273795950699679
 40
6.641801871752254
 40
6.641801871752254
 40
6.641801871752254
 40
6.641801871752254
 10
-25.05104868544635
 20
102.2675181084017
 30
0.0
 10
-25.07200306185949
 20
102.3907377201922
 30
0.0
 10
-25.117478084217
 20
102.6581478346533
 30
0.0
 10
-25.43278066824616
 20
102.9929023865141
 30
0.0
 10
-25.87347888265198
 20
103.2701684309261
 30
0.0
 10
-26.44368168532137
 20
103.4806960851666
 30
0.0
 10
-27.09908359888011
 20
103.6127559098907
 30
0.0
 10
-27.8010486854464
 20
103.6577841386156
 30
0.0
 10
-28.50301377201269
 20
103.6127559098908
 30
0.0
 10
-29.15841568557143
 20
103.4806960851666
 30
0.0
 10
-29.72861848824078
 20
103.270168430926
 30
0.0
 10
-30.16931670264655
 20
102.992902386514
 30
0.0
 10
-30.48461928667574
 20
102.6581478346534
 30
0.0
 10
-30.53009430903323
 20
102.3907377201921
 30
0.0
 10
-30.55104868544638
 20
102.2675181084017
 30
0.0
 11
-25.05104868544635
 21
102.2675181084017
 31
0.0
 11
-25.14475337133526
 21
102.623394200539
 31
0.0
 11
-25.41947882503914
 21
102.9550181084017
 31
0.0
 11
-25.85650555560992
 21
103.2397896733199
 31
0.0
 11
-26.42604868544639
 21
103.4583030386052
 31
0.0
 11
-27.08929650117173
 21
103.5956657654572
 31
0.0
 11
-27.8010486854464
 21
103.6425181084017
 31
0.0
 11
-28.51280086972106
 21
103.5956657654572
 31
0.0
 11
-29.1760486854464
 21
103.4583030386052
 31
0.0
 11
-29.74559181528284
 21
103.2397896733199
 31
0.0
 11
-30.18261854585359
 21
102.9550181084016
 31
0.0
 11
-30.45734399955748
 21
102.623394200539
 31
0.0
 11
-30.55104868544638
 21
102.2675181084017
 31
0.0
  0
SPLINE
  5
12A
330
47
100
AcDbEntity
  8
0
  6
Continuous
 62
     7
100
AcDbSpline
210
0.0
220
0.0
230
1.0
 70
     8
 71
     3
 72
     9
 73
     5
 74
     3
 42
0.000000001
 43
0.0000000001
 44
0.00000001
 40
0.0
 40
0.0
 40
0.0
 40
0.0
 40
0.0538940626129674
 40
0.112279384777765
 40
0.112279384777765
 40
0.112279384777765
 40
0.112279384777765
 10
-39.91112727896052
 20
62.68993629074173
 30
0.0
 10
-39.92328427215019
 20
62.6760557045577
 30
0.0
 10
-39.94861134438916
 20
62.64713778448743
 30
0.0
 10
-39.95176285065889
 20
62.60872510977246
 30
0.0
 10
-39.95340162557579
 20
62.58875050153803
 30
0.0
 11
-39.91112727896052
 21
62.68993629074173
 31
0.0
 11
-39.94248900928739
 21
62.64610693884812
 31
0.0
 11
-39.95340162557579
 21
62.58875050153803
 31
0.0
  0
SPLINE
  5
12B
330
47
100
AcDbEntity
  8
0
  6
Continuous
 62
     7
100
AcDbSpline
210
0.0
220
0.0
230
1.0
 70
     8
 71
     3
 72
     9
 73
     5
 74
     3
 42
0.000000001
 43
0.0000000001
 44
0.00000001
 40
0.0
 40
0.0
 40
0.0
 40
0.0
 40
0.0355940948216652
 40
0.0710538863244352
 40
0.0710538863244352
 40
0.0710538863244352
 40
0.0710538863244352
 10
-39.8940170264591
 20
62.70216375478145
 30
0.0
 10
-39.88389365504656
 20
62.70838222324013
 30
0.0
 10
-39.86368512086409
 20
62.72079571319298
 30
0.0
 10
-39.84539679651676
 20
62.73589571017393
 30
0.0
 10
-39.83626992426684
 20
62.74343144591549
 30
0.0
 11
-39.8940170264591
 21
62.70216375478145
 31
0.0
 11
-39.86412878658349
 21
62.72149333668061
 31
0.0
 11
-39.83626992426684
 21
62.74343144591549
 31
0.0
  0
SPLINE
  5
12C
330
47
100
AcDbEntity
  8
0
  6
Continuous
 62
     7
100
AcDbSpline
210
0.0
220
0.0
230
1.0
 70
     8
 71
     3
 72
    13
 73
     9
 74
     7
 42
0.000000001
 43
0.0000000001
 44
0.00000001
 40
0.0
 40
0.0
 40
0.0
 40
0.0
 40
0.1248411886603763
 40
0.2550773715367849
 40
0.3943177140035065
 40
0.5436156424344634
 40
0.7016670892362349
 40
0.8654408283585895
 40
0.8654408283585895
 40
0.8654408283585895
 40
0.8654408283585895
 10
-39.83626992426684
 20
62.74343144591549
 30
0.0
 10
-39.80736058302085
 20
62.77387171282123
 30
0.0
 10
-39.74829259837057
 20
62.83606772735916
 30
0.0
 10
-39.70146039220483
 20
62.96226353415499
 30
0.0
 10
-39.68784281353736
 20
63.10230663863598
 30
0.0
 10
-39.71045811680982
 20
63.25070598273238
 30
0.0
 10
-39.7646485497276
 20
63.39964285566325
 30
0.0
 10
-39.82443112434704
 20
63.48910734954791
 30
0.0
 10
-39.85485390721392
 20
63.53463496555005
 30
0.0
 11
-39.83626992426684
 21
62.74343144591549
 31
0.0
 11
-39.75643409684608
 21
62.83940833902831
 31
0.0
 11
-39.70795855637023
 21
62.96028673438687
 31
0.0
 11
-39.69375750394589
 21
63.09880100773426
 31
0.0
 11
-39.71468414120835
 21
63.24662505113381
 31
0.0
 11
-39.76948099621743
 21
63.39487337213428
 31
0.0
 11
-39.85485390721392
 21
63.53463496555005
 31
0.0
  0
SPLINE
  5
12D
330
47
100
AcDbEntity
  8
0
  6
Continuous
 62
     7
100
AcDbSpline
210
0.0
220
0.0
230
1.0
 70
     8
 71
     3
 72
     9
 73
     5
 74
     3
 42
0.000000001
 43
0.0000000001
 44
0.00000001
 40
0.0
 40
0.0
 40
0.0
 40
0.0
 40
0.0105463981386464
 40
0.0210530027013121
 40
0.0210530027013121
 40
0.0210530027013121
 40
0.0210530027013121
 10
-39.8940170264591
 20
62.70216375478145
 30
0.0
 10
-39.89701654382167
 20
62.70032124566565
 30
0.0
 10
-39.9030042495659
 20
62.69664316306827
 30
0.0
 10
-39.90842302060028
 20
62.69216910126232
 30
0.0
 10
-39.91112727896052
 20
62.68993629074173
 30
0.0
 11
-39.8940170264591
 21
62.70216375478145
 31
0.0
 11
-39.90287280123707
 21
62.69643647125577
 31
0.0
 11
-39.91112727896052
 21
62.68993629074173
 31
0.0
  0
SPLINE
  5
12E
330
47
100
AcDbEntity
  8
0
  6
Continuous
 62
     7
100
AcDbSpline
210
0.0
220
0.0
230
1.0
 70
     8
 71
     3
 72
    11
 73
     7
 74
     5
 42
0.000000001
 43
0.0000000001
 44
0.00000001
 40
0.0
 40
0.0
 40
0.0
 40
0.0
 40
0.1010495858332284
 40
0.2011562146919501
 40
0.2986299914395269
 40
0.3920887822124757
 40
0.3920887822124757
 40
0.3920887822124757
 40
0.3920887822124757
 10
-39.89964832465101
 20
63.59460013834178
 30
0.0
 10
-39.92100595857551
 20
63.62074381389077
 30
0.0
 10
-39.96352193607778
 20
63.67278719203786
 30
0.0
 10
-40.04061144029206
 20
63.7365094123961
 30
0.0
 10
-40.12346550023958
 20
63.7881585737962
 30
0.0
 10
-40.18371699139261
 20
63.80920077772172
 30
0.0
 10
-40.21320924671113
 20
63.81950063203237
 30
0.0
 11
-39.89964832465101
 21
63.59460013834178
 31
0.0
 11
-39.96609615756638
 21
63.67072966209425
 31
0.0
 11
-40.04263718690586
 21
63.73524949069667
 31
0.0
 11
-40.12614517506316
 21
63.78552426983192
 31
0.0
 11
-40.21320924671113
 21
63.81950063203237
 31
0.0
  0
SPLINE
  5
12F
330
47
100
AcDbEntity
  8
0
  6
Continuous
 62
     7
100
AcDbSpline
210
0.0
220
0.0
230
1.0
 70
     8
 71
     3
 72
    11
 73
     7
 74
     5
 42
0.000000001
 43
0.0000000001
 44
0.00000001
 40
0.0
 40
0.0
 40
0.0
 40
0.0
 40
0.1340578103041652
 40
0.2712905770934171
 40
0.4142835042396563
 40
0.5646514904338904
 40
0.5646514904338904
 40
0.5646514904338904
 40
0.5646514904338904
 10
-38.48629305701191
 20
70.38312010643413
 30
0.0
 10
-38.51812110016422
 20
70.35143478655726
 30
0.0
 10
-38.58253097444768
 20
70.28731371808814
 30
0.0
 10
-38.64803963024959
 20
70.16382055376482
 30
0.0
 10
-38.69033426420368
 20
70.02544914219897
 30
0.0
 10
-38.69518067371953
 20
69.92743186914427
 30
0.0
 10
-38.69766479008837
 20
69.87719116041568
 30
0.0
 11
-38.48629305701191
 21
70.38312010643413
 31
0.0
 11
-38.57652432607102
 21
70.28397468289036
 31
0.0
 11
-38.64310309760403
 21
70.16397426576142
 31
0.0
 11
-38.68391519571986
 21
70.0269291986023
 31
0.0
 11
-38.69766479008837
 21
69.87719116041568
 31
0.0
  0
SPLINE
  5
130
330
47
100
AcDbEntity
  8
0
  6
Continuous
 62
     7
100
AcDbSpline
210
0.0
220
0.0
230
1.0
 70
     8
 71
     3
 72
    11
 73
     7
 74
     5
 42
0.000000001
 43
0.0000000001
 44
0.00000001
 40
0.0
 40
0.0
 40
0.0
 40
0.0
 40
0.1871411907843842
 40
0.3630362754382481
 40
0.5295381944253235
 40
0.6906435563658333
 40
0.6906435563658333
 40
0.6906435563658333
 40
0.6906435563658333
 10
-37.83163938630392
 20
70.49321656420013
 30
0.0
 10
-37.89270000093493
 20
70.50729736486042
 30
0.0
 10
-38.01115184177468
 20
70.53461277688969
 30
0.0
 10
-38.18921639481948
 20
70.5256657919176
 30
0.0
 10
-38.35369087131063
 20
70.47973656905576
 30
0.0
 10
-38.44258041282922
 20
70.414969972451
 30
0.0
 10
-38.48629305701191
 20
70.38312010643413
 30
0.0
 11
-37.83163938630392
 21
70.49321656420013
 31
0.0
 11
-38.01578426858804
 21
70.52657054076148
 31
0.0
 11
-38.19150724189054
 21
70.51879119237108
 31
0.0
 11
-38.35077146252028
 21
70.47023403017715
 31
0.0
 11
-38.48629305701191
 21
70.38312010643413
 31
0.0
  0
SPLINE
  5
131
330
47
100
AcDbEntity
  8
0
  6
Continuous
 62
     7
100
AcDbSpline
210
0.0
220
0.0
230
1.0
 70
     8
 71
     3
 72
    11
 73
     7
 74
     5
 42
0.000000001
 43
0.0000000001
 44
0.00000001
 40
0.0
 40
0.0
 40
0.0
 40
0.0
 40
0.1538892952047527
 40
0.2978823951877237
 40
0.4333081504047951
 40
0.5637031100644196
 40
0.5637031100644196
 40
0.5637031100644196
 40
0.5637031100644196
 10
-38.09194195733001
 20
71.0461516590921
 30
0.0
 10
-38.04248045415202
 20
71.03162314033405
 30
0.0
 10
-37.9467381772481
 20
71.0035004059001
 30
0.0
 10
-37.80072750403287
 20
71.00398432247383
 30
0.0
 10
-37.6653242790658
 20
71.03694172820582
 30
0.0
 10
-37.59275393615333
 20
71.08904451583092
 30
0.0
 10
-37.55715548421901
 20
71.11460287960602
 30
0.0
 11
-38.09194195733001
 21
71.0461516590921
 31
0.0
 11
-37.94232060059309
 21
71.01016048144265
 31
0.0
 11
-37.79832777424438
 21
71.00987853237763
 31
0.0
 11
-37.66762215956658
 21
71.04532113809155
 31
0.0
 11
-37.55715548421901
 21
71.11460287960602
 31
0.0
  0
SPLINE
  5
132
330
47
100
AcDbEntity
  8
0
  6
Continuous
 62
     7
100
AcDbSpline
210
0.0
220
0.0
230
1.0
 70
     8
 71
     3
 72
    19
 73
    15
 74
    13
 42
0.000000001
 43
0.0000000001
 44
0.00000001
 40
0.0
 40
0.0
 40
0.0
 40
0.0
 40
0.3680059210525922
 40
0.7986432255765419
 40
1.320263020133551
 40
1.930285536548639
 40
2.607608345772915
 40
3.320900935876133
 40
4.034193525979356
 40
4.711516335203675
 40
5.321538851618762
 40
5.843158646175735
 40
6.273795950699669
 40
6.64180187175226
 40
6.64180187175226
 40
6.64180187175226
 40
6.64180187175226
 10
-9.462591417326436
 20
97.76751810840167
 30
0.0
 10
-9.48354579373958
 20
97.89073772019215
 30
0.0
 10
-9.529020816097093
 20
98.15814783465335
 30
0.0
 10
-9.844323400126271
 20
98.49290238651399
 30
0.0
 10
-10.28502161453208
 20
98.7701684309261
 30
0.0
 10
-10.85522441720145
 20
98.9806960851666
 30
0.0
 10
-11.51062633076019
 20
99.11275590989075
 30
0.0
 10
-12.21259141732645
 20
99.1577841386156
 30
0.0
 10
-12.91455650389271
 20
99.11275590989072
 30
0.0
 10
-13.56995841745148
 20
98.98069608516664
 30
0.0
 10
-14.14016122012085
 20
98.77016843092605
 30
0.0
 10
-14.58085943452662
 20
98.49290238651399
 30
0.0
 10
-14.8961620185558
 20
98.15814783465333
 30
0.0
 10
-14.9416370409133
 20
97.89073772019213
 30
0.0
 10
-14.96259141732644
 20
97.76751810840167
 30
0.0
 11
-9.462591417326436
 21
97.76751810840167
 31
0.0
 11
-9.55629610321535
 21
98.12339420053898
 31
0.0
 11
-9.83102155691924
 21
98.45501810840166
 31
0.0
 11
-10.26804828749002
 21
98.73978967331989
 31
0.0
 11
-10.83759141732649
 21
98.95830303860527
 31
0.0
 11
-11.50083923305182
 21
99.09566576545721
 31
0.0
 11
-12.21259141732645
 21
99.14251810840166
 31
0.0
 11
-12.92434360160107
 21
99.09566576545721
 31
0.0
 11
-13.58759141732645
 21
98.95830303860527
 31
0.0
 11
-14.15713454716291
 21
98.73978967331988
 31
0.0
 11
-14.59416127773365
 21
98.45501810840165
 31
0.0
 11
-14.86888673143753
 21
98.12339420053898
 31
0.0
 11
-14.96259141732644
 21
97.76751810840167
 31
0.0
  0
SPLINE
  5
133
330
47
100
AcDbEntity
  8
0
  6
Continuous
 62
     7
100
AcDbSpline
210
0.0
220
0.0
230
1.0
 70
     8
 71
     3
 72
     9
 73
     5
 74
     3
 42
0.000000001
 43
0.0000000001
 44
0.00000001
 40
0.0
 40
0.0
 40
0.0
 40
0.0
 40
0.4306373060047542
 40
0.79864322922679
 40
0.79864322922679
 40
0.79864322922679
 40
0.79864322922679
 10
-9.83102155691924
 20
97.08001810840166
 30
0.0
 10
-9.72461153552204
 20
97.18293683678985
 30
0.0
 10
-9.527267657201792
 20
97.3738059252168
 30
0.0
 10
-9.482992780168935
 20
97.64332617153217
 30
0.0
 10
-9.462591417326436
 20
97.76751810840167
 30
0.0
 11
-9.83102155691924
 21
97.08001810840166
 31
0.0
 11
-9.55629610321535
 21
97.41164201626434
 31
0.0
 11
-9.462591417326436
 21
97.76751810840167
 31
0.0
  0
SPLINE
  5
134
330
47
100
AcDbEntity
  8
0
  6
Continuous
 62
     7
100
AcDbSpline
210
0.0
220
0.0
230
1.0
 70
     8
 71
     3
 72
    17
 73
    13
 74
    11
 42
0.000000001
 43
0.0000000001
 44
0.00000001
 40
0.0
 40
0.0
 40
0.0
 40
0.0
 40
0.3680059164316146
 40
0.7986432244931125
 40
1.320263018004991
 40
1.930285532802578
 40
2.607608339586261
 40
3.320900926458372
 40
4.034193513107399
 40
4.711516318981954
 40
5.321538834386777
 40
5.843158633572337
 40
5.843158633572337
 40
5.843158633572337
 40
5.843158633572337
 10
-14.96259141732644
 20
97.76751810840167
 30
0.0
 10
-14.94163702515106
 20
97.64429846998222
 30
0.0
 10
-14.89616197538069
 20
97.37688829236849
 30
0.0
 10
-14.58085969988953
 20
97.04213430334815
 30
0.0
 10
-14.14015990467922
 20
96.76486547141346
 30
0.0
 10
-13.56996450983338
 20
96.55435084272021
 30
0.0
 10
-12.91453055296
 20
96.42223467432989
 30
0.0
 10
-12.21269362943734
 20
96.37743178022255
 30
0.0
 10
-11.51025379285681
 20
96.42162528333525
 30
0.0
 10
-10.85648197157782
 20
96.55655117570784
 30
0.0
 10
-10.28109128201796
 20
96.75795734653751
 30
0.0
 10
-9.9730228005479
 20
96.97840489523361
 30
0.0
 10
-9.83102155691924
 20
97.08001810840166
 30
0.0
 11
-14.96259141732644
 21
97.76751810840167
 31
0.0
 11
-14.86888673143753
 21
97.41164201626434
 31
0.0
 11
-14.59416127773365
 21
97.08001810840166
 31
0.0
 11
-14.15713454716292
 21
96.79524654348344
 31
0.0
 11
-13.58759141732649
 21
96.57673317819805
 31
0.0
 11
-12.92434360160112
 21
96.43937045134611
 31
0.0
 11
-12.21259141732645
 21
96.39251810840166
 31
0.0
 11
-11.50083923305182
 21
96.43937045134611
 31
0.0
 11
-10.83759141732649
 21
96.57673317819805
 31
0.0
 11
-10.26804828749002
 21
96.79524654348343
 31
0.0
 11
-9.83102155691924
 21
97.08001810840166
 31
0.0
  0
SPLINE
  5
135
330
47
100
AcDbEntity
  8
0
  6
Continuous
 62
     7
100
AcDbSpline
210
0.0
220
0.0
230
1.0
 70
     8
 71
     3
 72
    13
 73
     9
 74
     7
 42
0.000000001
 43
0.0000000001
 44
0.00000001
 40
0.0
 40
0.0
 40
0.0
 40
0.0
 40
0.117263164263559
 40
0.2419307378212819
 40
0.3712960139461057
 40
0.5017221147109197
 40
0.629373771144762
 40
0.7509434390751653
 40
0.7509434390751653
 40
0.7509434390751653
 40
0.7509434390751653
 10
-11.26631012521624
 20
61.52542845852348
 30
0.0
 10
-11.26938449947043
 20
61.56457882104793
 30
0.0
 10
-11.27572738948854
 20
61.64535163602371
 30
0.0
 10
-11.32159742258975
 20
61.7619995503336
 30
0.0
 10
-11.38986690207147
 20
61.87120730106811
 30
0.0
 10
-11.47946532225952
 20
61.9651457066704
 30
0.0
 10
-11.58286725680195
 20
62.04054873653527
 30
0.0
 10
-11.66114103196075
 20
62.06937820803204
 30
0.0
 10
-11.69932282710845
 20
62.0834411604157
 30
0.0
 11
-11.26631012521624
 21
61.52542845852348
 31
0.0
 11
-11.28106478674962
 21
61.64175966656951
 31
0.0
 11
-11.3243228271085
 21
61.75868163399653
 31
0.0
 11
-11.39313669089157
 21
61.86822627065688
 31
0.0
 11
-11.48281647616234
 21
61.96292845852347
 31
0.0
 11
-11.58725092296649
 21
62.03633412686985
 31
0.0
 11
-11.69932282710845
 21
62.0834411604157
 31
0.0
  0
SPLINE
  5
136
330
47
100
AcDbEntity
  8
0
  6
Continuous
 62
     7
100
AcDbSpline
210
0.0
220
0.0
230
1.0
 70
     8
 71
     3
 72
    11
 73
     7
 74
     5
 42
0.000000001
 43
0.0000000001
 44
0.00000001
 40
0.0
 40
0.0
 40
0.0
 40
0.0
 40
0.0935705952108711
 40
0.1815181363975461
 40
0.2647690944695649
 40
0.3453217744506405
 40
0.3453217744506405
 40
0.3453217744506405
 40
0.3453217744506405
 10
-12.13233552900074
 20
62.2084411604157
 30
0.0
 10
-12.16286583625708
 20
62.21548156073221
 30
0.0
 10
-12.22209175740459
 20
62.22913925945232
 30
0.0
 10
-12.31112403301106
 20
62.22466577037781
 30
0.0
 10
-12.39336126852779
 20
62.20170115591448
 30
0.0
 10
-12.43780604253178
 20
62.16931786434558
 30
0.0
 10
-12.45966236435474
 20
62.15339293153271
 30
0.0
 11
-12.13233552900074
 21
62.2084411604157
 31
0.0
 11
-12.22440797014274
 21
62.22511814869638
 31
0.0
 11
-12.312269456794
 21
62.22122847450117
 31
0.0
 11
-12.39190156710887
 21
62.19694989340422
 31
0.0
 11
-12.45966236435474
 21
62.15339293153271
 31
0.0
  0
SPLINE
  5
137
330
47
100
AcDbEntity
  8
0
  6
Continuous
 62
     7
100
AcDbSpline
210
0.0
220
0.0
230
1.0
 70
     8
 71
     3
 72
     9
 73
     5
 74
     3
 42
0.000000001
 43
0.0000000001
 44
0.00000001
 40
0.0
 40
0.0
 40
0.0
 40
0.0
 40
0.134735159755092
 40
0.2806984683897805
 40
0.2806984683897805
 40
0.2806984683897805
 40
0.2806984683897805
 10
-12.45966236435474
 20
62.15339293153271
 30
0.0
 10
-12.49005484805587
 20
62.11869146524263
 30
0.0
 10
-12.55337255512945
 20
62.04639667781869
 30
0.0
 10
-12.56125129351022
 20
61.95036498021206
 30
0.0
 10
-12.56534823089294
 20
61.90042845852348
 30
0.0
 11
-12.45966236435474
 21
62.15339293153271
 31
0.0
 11
-12.5380666901719
 21
62.04381955179871
 31
0.0
 11
-12.56534823089294
 21
61.90042845852348
 31
0.0
  0
SPLINE
  5
138
330
47
100
AcDbEntity
  8
0
  6
Continuous
 62
     7
100
AcDbSpline
210
0.0
220
0.0
230
1.0
 70
     8
 71
     3
 72
    11
 73
     7
 74
     5
 42
0.000000001
 43
0.0000000001
 44
0.00000001
 40
0.0
 40
0.0
 40
0.0
 40
0.0
 40
0.0627418998187498
 40
0.1274830534601845
 40
0.1957283673663241
 40
0.2682168887433389
 40
0.2682168887433389
 40
0.2682168887433389
 40
0.2682168887433389
 10
-26.54960465486374
 20
60.98725432787575
 30
0.0
 10
-26.53486637160536
 20
61.00229209897426
 30
0.0
 10
-26.50492018488605
 20
61.03284682527482
 30
0.0
 10
-26.47745721313224
 20
61.09322089568717
 30
0.0
 10
-26.46307860691424
 20
61.16087050812793
 30
0.0
 10
-26.46605109060277
 20
61.20789367732715
 30
0.0
 10
-26.46758215102294
 20
61.23211414997765
 30
0.0
 11
-26.54960465486374
 21
60.98725432787575
 31
0.0
 11
-26.50831069964902
 21
61.03449155361898
 31
0.0
 11
-26.48016564629394
 21
61.09279484087444
 31
0.0
 11
-26.46639033187743
 21
61.1596354265117
 31
0.0
 11
-26.46758215102294
 21
61.23211414997765
 31
0.0
  0
SPLINE
  5
139
330
47
100
AcDbEntity
  8
0
  6
Continuous
 62
     7
100
AcDbSpline
210
0.0
220
0.0
230
1.0
 70
     8
 71
     3
 72
    11
 73
     7
 74
     5
 42
0.000000001
 43
0.0000000001
 44
0.00000001
 40
0.0
 40
0.0
 40
0.0
 40
0.0
 40
0.0561423569815171
 40
0.1089108807812982
 40
0.1588614544872712
 40
0.2071930616845627
 40
0.2071930616845627
 40
0.2071930616845627
 40
0.2071930616845627
 10
-27.41768390579604
 20
63.89296113849473
 30
0.0
 10
-27.39936572148955
 20
63.88873689831573
 30
0.0
 10
-27.36383016821891
 20
63.88054228491929
 30
0.0
 10
-27.31041080358777
 20
63.88322637563475
 30
0.0
 10
-27.26106846446085
 20
63.89700514673871
 30
0.0
 10
-27.2344015974627
 20
63.91643511629326
 30
0.0
 10
-27.22128780458364
 20
63.92599007582454
 30
0.0
 11
-27.41768390579604
 21
63.89296113849473
 31
0.0
 11
-27.36244044111083
 21
63.88295494552634
 31
0.0
 11
-27.30972354912009
 21
63.88528875004345
 31
0.0
 11
-27.26194428293119
 21
63.89985589870163
 31
0.0
 11
-27.22128780458364
 21
63.92599007582454
 31
0.0
  0
SPLINE
  5
13A
330
47
100
AcDbEntity
  8
0
  6
Continuous
 62
     7
100
AcDbSpline
210
0.0
220
0.0
230
1.0
 70
     8
 71
     3
 72
    13
 73
     9
 74
     7
 42
0.000000001
 43
0.0000000001
 44
0.00000001
 40
0.0
 40
0.0
 40
0.0
 40
0.0
 40
0.1172631642635312
 40
0.2419307378212619
 40
0.3712960139461079
 40
0.5017221147109499
 40
0.6293737711447728
 40
0.7509434390751815
 40
0.7509434390751815
 40
0.7509434390751815
 40
0.7509434390751815
 10
-27.15787628466075
 20
66.11292845852347
 30
0.0
 10
-27.16095065891492
 20
66.15207882104794
 30
0.0
 10
-27.167293548933
 20
66.23285163602368
 30
0.0
 10
-27.21316358203418
 20
66.34949955033359
 30
0.0
 10
-27.28143306151599
 20
66.4587073010681
 30
0.0
 10
-27.37103148170402
 20
66.55264570667039
 30
0.0
 10
-27.47443341624642
 20
66.62804873653532
 30
0.0
 10
-27.55270719140524
 20
66.65687820803203
 30
0.0
 10
-27.59088898655294
 20
66.6709411604157
 30
0.0
 11
-27.15787628466075
 21
66.11292845852347
 31
0.0
 11
-27.17263094619408
 21
66.22925966656949
 31
0.0
 11
-27.21588898655294
 21
66.34618163399652
 31
0.0
 11
-27.28470285033607
 21
66.45572627065687
 31
0.0
 11
-27.37438263560685
 21
66.55042845852347
 31
0.0
 11
-27.47881708241096
 21
66.62383412686987
 31
0.0
 11
-27.59088898655294
 21
66.6709411604157
 31
0.0
  0
SPLINE
  5
13B
330
47
100
AcDbEntity
  8
0
  6
Continuous
 62
     7
100
AcDbSpline
210
0.0
220
0.0
230
1.0
 70
     8
 71
     3
 72
     9
 73
     5
 74
     3
 42
0.000000001
 43
0.0000000001
 44
0.00000001
 40
0.0
 40
0.0
 40
0.0
 40
0.0
 40
0.080841094993665
 40
0.1684190793150903
 40
0.1684190793150903
 40
0.1684190793150903
 40
0.1684190793150903
 10
-27.22128780458364
 20
63.92599007582454
 30
0.0
 10
-27.20305231455683
 20
63.94681095537727
 30
0.0
 10
-27.16506169737298
 20
63.99018783123206
 30
0.0
 10
-27.16033444706626
 20
64.04780684691096
 30
0.0
 10
-27.15787628466075
 20
64.07776875963008
 30
0.0
 11
-27.22128780458364
 21
63.92599007582454
 31
0.0
 11
-27.17424520909336
 21
63.99173410366494
 31
0.0
 11
-27.15787628466075
 21
64.07776875963008
 31
0.0
  0
SPLINE
  5
13C
330
47
100
AcDbEntity
  8
0
  6
Continuous
 62
     7
100
AcDbSpline
210
0.0
220
0.0
230
1.0
 70
     8
 71
     3
 72
    11
 73
     7
 74
     5
 42
0.000000001
 43
0.0000000001
 44
0.00000001
 40
0.0
 40
0.0
 40
0.0
 40
0.0
 40
0.6085423711959672
 40
1.247260111612466
 40
1.90851743856236
 40
2.5819518412524
 40
2.5819518412524
 40
2.5819518412524
 40
2.5819518412524
 10
-28.02336324693005
 20
63.43604314237867
 30
0.0
 10
-28.00308542128541
 20
63.23359710702189
 30
0.0
 10
-27.96152425259805
 20
62.81866648713378
 30
0.0
 10
-27.75298676703837
 20
62.21290557698043
 30
0.0
 10
-27.4543418234889
 20
61.62327602563905
 30
0.0
 10
-27.17906625186525
 20
61.27247117436379
 30
0.0
 10
-27.04017271998005
 20
61.09546846698422
 30
0.0
 11
-28.02336324693005
 21
63.43604314237867
 31
0.0
 11
-27.93998101463616
 21
62.83324033695747
 31
0.0
 11
-27.74224782828015
 21
62.22590028282411
 31
0.0
 11
-27.43819478728224
 21
61.6386924807554
 31
0.0
 11
-27.04017271998005
 21
61.09546846698422
 31
0.0
  0
SPLINE
  5
13D
330
47
100
AcDbEntity
  8
0
  6
Continuous
 62
     7
100
AcDbSpline
210
0.0
220
0.0
230
1.0
 70
     8
 71
     3
 72
     9
 73
     5
 74
     3
 42
0.000000001
 43
0.0000000001
 44
0.00000001
 40
0.0
 40
0.0
 40
0.0
 40
0.0
 40
3.017382863901013
 40
5.879923767077711
 40
5.879923767077711
 40
5.879923767077711
 40
5.879923767077711
 10
-20.02544295622334
 20
60.43919368311309
 30
0.0
 10
-20.94436133478671
 20
60.86142090508201
 30
0.0
 10
-22.73504229161468
 20
61.68420804643971
 30
0.0
 10
-24.6814303317899
 20
61.98837369592159
 30
0.0
 10
-25.62899625489594
 20
62.13645156091958
 30
0.0
 11
-20.02544295622334
 21
60.43919368311309
 31
0.0
 11
-22.82320205732656
 21
61.56930136166195
 31
0.0
 11
-25.62899625489594
 21
62.13645156091958
 31
0.0
  0
SPLINE
  5
13E
330
47
100
AcDbEntity
  8
0
  6
Continuous
 62
     7
100
AcDbSpline
210
0.0
220
0.0
230
1.0
 70
     8
 71
     3
 72
    11
 73
     7
 74
     5
 42
0.000000001
 43
0.0000000001
 44
0.00000001
 40
0.0
 40
0.0
 40
0.0
 40
0.0
 40
0.4826695327548218
 40
0.9661074661588489
 40
1.438159115350843
 40
1.888547215089419
 40
1.888547215089419
 40
1.888547215089419
 40
1.888547215089419
 10
-15.78405714551624
 20
56.35357262009019
 30
0.0
 10
-15.69665383286105
 20
56.21787882404749
 30
0.0
 10
-15.521708051052
 20
55.94627521876922
 30
0.0
 10
-15.17345552341223
 20
55.6121194665748
 30
0.0
 10
-14.78565781917646
 20
55.34169229638345
 30
0.0
 10
-14.49540755349871
 20
55.23665269861395
 30
0.0
 10
-14.35369068970775
 20
55.18536633692347
 30
0.0
 11
-15.78405714551624
 21
56.35357262009019
 31
0.0
 11
-15.50712098532287
 21
55.95825472072286
 31
0.0
 11
-15.16245808774685
 21
55.61925660229844
 31
0.0
 11
-14.77030572029254
 21
55.35648430122914
 31
0.0
 11
-14.35369068970775
 21
55.18536633692347
 31
0.0
  0
ENDBLK
  5
49
330
47
100
AcDbEntity
  8
0
100
AcDbBlockEnd
  0
BLOCK
  5
4C
330
4A
100
AcDbEntity
  8
0
100
AcDbBlockBegin
  2
AllgSicht1
 70
     0
 10
-20.00000008281495
 20
79.00000002392017
 30
0.0
  3
AllgSicht1
  1

  0
INSERT
  5
4B
330
4A
100
AcDbEntity
  8
0
100
AcDbBlockReference
  2
URKN_S-select__1
 10
-40.86272829954946
 20
52.85892442067909
 30
0.0
  0
MTEXT
  5
140
330
4A
100
AcDbEntity
  8
1
 62
     6
100
AcDbMText
 10
-20.00000008281495
 20
45.54017425601796
 30
0.0
 40
5.0
 41
0.0
 71
     2
 72
     1
  1
 
  7
CONVERTER_11
 73
     1
 44
1.32052821128451
  0
ENDBLK
  5
4D
330
4A
100
AcDbEntity
  8
0
100
AcDbBlockEnd
  0
BLOCK
  5
4F
330
4E
100
AcDbEntity
  8
0
100
AcDbBlockBegin
  2
URKN_S-select__2
 70
     0
 10
-137.5500010937325
 20
72.87118200053834
 30
0.0
  3
URKN_S-select__2
  1

  0
LINE
  5
141
330
4E
100
AcDbEntity
  8
0
  6
Continuous
 62
     7
100
AcDbLine
 10
-94.07500109373262
 20
72.87118200053834
 30
0.0
 11
-94.07500109373262
 21
81.02118200053835
 31
0.0
  0
LINE
  5
142
330
4E
100
AcDbEntity
  8
0
  6
Continuous
 62
     7
100
AcDbLine
 10
-96.2951739062445
 20
81.02118200053835
 30
0.0
 11
-94.07500109373262
 21
81.02118200053835
 31
0.0
  0
LINE
  5
143
330
4E
100
AcDbEntity
  8
0
  6
Continuous
 62
     7
100
AcDbLine
 10
-96.2951739062445
 20
72.87118200053834
 30
0.0
 11
-96.2951739062445
 21
81.02118200053835
 31
0.0
  0
LINE
  5
144
330
4E
100
AcDbEntity
  8
0
  6
Continuous
 62
     7
100
AcDbLine
 10
-99.24338175074821
 20
72.87118200053834
 30
0.0
 11
-98.58068380224182
 21
72.87118200053834
 31
0.0
  0
LINE
  5
145
330
4E
100
AcDbEntity
  8
0
  6
Continuous
 62
     7
100
AcDbLine
 10
-98.58068380224182
 20
72.87118200053834
 30
0.0
 11
-98.58068380224182
 21
81.02118200053835
 31
0.0
  0
LINE
  5
146
330
4E
100
AcDbEntity
  8
0
  6
Continuous
 62
     7
100
AcDbLine
 10
-99.24338175074821
 20
81.02118200053835
 30
0.0
 11
-99.24338175074821
 21
72.87118200053834
 31
0.0
  0
LINE
  5
147
330
4E
100
AcDbEntity
  8
0
  6
Continuous
 62
     7
100
AcDbLine
 10
-99.85482828122066
 20
72.87118200053834
 30
0.0
 11
-99.85482828122066
 21
81.02118200053835
 31
0.0
  0
LINE
  5
148
330
4E
100
AcDbEntity
  8
0
  6
Continuous
 62
     7
100
AcDbLine
 10
-102.0713023220089
 20
72.87118200053834
 30
0.0
 11
-102.0713023220089
 21
81.02118200053835
 31
0.0
  0
LINE
  5
149
330
4E
100
AcDbEntity
  8
0
  6
Continuous
 62
     7
100
AcDbLine
 10
-119.4750010937325
 20
79.52118200053835
 30
0.0
 11
-119.4750010937325
 21
72.87118200053834
 31
0.0
  0
LINE
  5
14A
330
4E
100
AcDbEntity
  8
0
  6
Continuous
 62
     7
100
AcDbLine
 10
-111.6750010937325
 20
72.87118200053834
 30
0.0
 11
-111.6750010937325
 21
79.52118200053835
 31
0.0
  0
LINE
  5
14B
330
4E
100
AcDbEntity
  8
0
  6
Continuous
 62
     7
100
AcDbLine
 10
-111.6750010937325
 20
79.52118200053835
 30
0.0
 11
-113.8250010937325
 21
79.52118200053835
 31
0.0
  0
LINE
  5
14C
330
4E
100
AcDbEntity
  8
0
  6
Continuous
 62
     7
100
AcDbLine
 10
-117.3250010937325
 20
79.52118200053835
 30
0.0
 11
-119.4750010937325
 21
79.52118200053835
 31
0.0
  0
LINE
  5
14D
330
4E
100
AcDbEntity
  8
0
  6
Continuous
 62
     7
100
AcDbLine
 10
-119.4750010937325
 20
72.87118200053834
 30
0.0
 11
-111.6750010937325
 21
72.87118200053834
 31
0.0
  0
LINE
  5
14E
330
4E
100
AcDbEntity
  8
0
  6
Continuous
 62
     7
100
AcDbLine
 10
-119.4750010937325
 20
72.87118200053834
 30
0.0
 11
-129.0786998654561
 21
72.87118200053834
 31
0.0
  0
LINE
  5
14F
330
4E
100
AcDbEntity
  8
0
  6
Continuous
 62
     7
100
AcDbLine
 10
-126.8691657117109
 20
75.00483484186518
 30
0.0
 11
-123.0586539350594
 21
78.81534661851671
 31
0.0
  0
LINE
  5
150
330
4E
100
AcDbEntity
  8
0
  6
Continuous
 62
     7
100
AcDbLine
 10
-122.2808364757541
 20
78.03752915921152
 30
0.0
 11
-126.0913482524057
 21
74.22701738255998
 31
0.0
  0
LINE
  5
151
330
4E
100
AcDbEntity
  8
0
  6
Continuous
 62
     7
100
AcDbLine
 10
-108.8691657117109
 20
75.00483484186518
 30
0.0
 11
-105.0586539350594
 21
78.81534661851671
 31
0.0
  0
LINE
  5
152
330
4E
100
AcDbEntity
  8
0
  6
Continuous
 62
     7
100
AcDbLine
 10
-104.2808364757542
 20
78.03752915921152
 30
0.0
 11
-108.0913482524057
 21
74.22701738255998
 31
0.0
  0
LINE
  5
153
330
4E
100
AcDbEntity
  8
0
  6
Continuous
 62
     7
100
AcDbLine
 10
-117.3250010937325
 20
79.52118200053835
 30
0.0
 11
-117.3250010937325
 21
81.02118200053835
 31
0.0
  0
LINE
  5
154
330
4E
100
AcDbEntity
  8
0
  6
Continuous
 62
     7
100
AcDbLine
 10
-131.2951739062445
 20
81.02118200053835
 30
0.0
 11
-129.0786998654561
 21
81.02118200053835
 31
0.0
  0
LINE
  5
155
330
4E
100
AcDbEntity
  8
0
  6
Continuous
 62
     7
100
AcDbLine
 10
-129.0786998654561
 20
81.02118200053835
 30
0.0
 11
-117.3250010937325
 21
81.02118200053835
 31
0.0
  0
LINE
  5
156
330
4E
100
AcDbEntity
  8
0
  6
Continuous
 62
     7
100
AcDbLine
 10
-131.9066204367169
 20
81.02118200053835
 30
0.0
 11
-131.2951739062445
 21
81.02118200053835
 31
0.0
  0
LINE
  5
157
330
4E
100
AcDbEntity
  8
0
  6
Continuous
 62
     7
100
AcDbLine
 10
-137.3000010937325
 20
81.02118200053835
 30
0.0
 11
-137.0750010937324
 21
81.02118200053835
 31
0.0
  0
LINE
  5
158
330
4E
100
AcDbEntity
  8
0
  6
Continuous
 62
     7
100
AcDbLine
 10
-137.0750010937324
 20
81.02118200053835
 30
0.0
 11
-134.8548282812205
 21
81.02118200053835
 31
0.0
  0
LINE
  5
159
330
4E
100
AcDbEntity
  8
0
  6
Continuous
 62
     7
100
AcDbLine
 10
-113.8250010937325
 20
81.02118200053835
 30
0.0
 11
-113.8250010937325
 21
79.52118200053835
 31
0.0
  0
LINE
  5
15A
330
4E
100
AcDbEntity
  8
0
  6
Continuous
 62
     7
100
AcDbLine
 10
-134.8548282812206
 20
72.87118200053834
 30
0.0
 11
-134.8548282812205
 21
81.02118200053835
 31
0.0
  0
LINE
  5
15B
330
4E
100
AcDbEntity
  8
0
  6
Continuous
 62
     7
100
AcDbLine
 10
-132.5693183852232
 20
81.02118200053835
 30
0.0
 11
-134.8548282812205
 21
81.02118200053835
 31
0.0
  0
LINE
  5
15C
330
4E
100
AcDbEntity
  8
0
  6
Continuous
 62
     7
100
AcDbLine
 10
-137.3000010937325
 20
79.97118200053833
 30
0.0
 11
-137.0750010937325
 21
79.97118200053833
 31
0.0
  0
LINE
  5
15D
330
4E
100
AcDbEntity
  8
0
  6
Continuous
 62
     7
100
AcDbLine
 10
-117.3250010937325
 20
79.52118200053835
 30
0.0
 11
-113.8250010937325
 21
79.52118200053835
 31
0.0
  0
LINE
  5
15E
330
4E
100
AcDbEntity
  8
0
  6
Continuous
 62
     2
100
AcDbLine
 10
-137.3000010937325
 20
81.02118200053835
 30
0.0
 11
-137.3000010937325
 21
79.97118200053833
 31
0.0
  0
LINE
  5
15F
330
4E
100
AcDbEntity
  8
0
  6
Continuous
 62
     7
100
AcDbLine
 10
-137.5500010937325
 20
81.02118200053835
 30
0.0
 11
-137.5500010937325
 21
72.87118200053834
 31
0.0
  0
LINE
  5
160
330
4E
100
AcDbEntity
  8
0
  6
Continuous
 62
     7
100
AcDbLine
 10
-96.2951739062445
 20
72.87118200053834
 30
0.0
 11
-94.07500109373262
 21
72.87118200053834
 31
0.0
  0
LINE
  5
161
330
4E
100
AcDbEntity
  8
0
  6
Continuous
 62
     7
100
AcDbLine
 10
-98.58068380224182
 20
72.87118200053834
 30
0.0
 11
-96.2951739062445
 21
72.87118200053834
 31
0.0
  0
LINE
  5
162
330
4E
100
AcDbEntity
  8
0
  6
Continuous
 62
     7
100
AcDbLine
 10
-99.85482828122066
 20
72.87118200053834
 30
0.0
 11
-99.24338175074821
 21
72.87118200053834
 31
0.0
  0
LINE
  5
163
330
4E
100
AcDbEntity
  8
0
  6
Continuous
 62
     7
100
AcDbLine
 10
-102.0713023220089
 20
72.87118200053834
 30
0.0
 11
-111.6750010937325
 21
72.87118200053834
 31
0.0
  0
LINE
  5
164
330
4E
100
AcDbEntity
  8
0
  6
Continuous
 62
     7
100
AcDbLine
 10
-131.2951739062445
 20
72.87118200053834
 30
0.0
 11
-129.0786998654561
 21
72.87118200053834
 31
0.0
  0
LINE
  5
165
330
4E
100
AcDbEntity
  8
0
  6
Continuous
 62
     7
100
AcDbLine
 10
-132.5693183852232
 20
72.87118200053834
 30
0.0
 11
-134.8548282812206
 21
72.87118200053834
 31
0.0
  0
LINE
  5
166
330
4E
100
AcDbEntity
  8
0
  6
Continuous
 62
     7
100
AcDbLine
 10
-134.8548282812206
 20
72.87118200053834
 30
0.0
 11
-137.0750010937325
 21
72.87118200053834
 31
0.0
  0
LINE
  5
167
330
4E
100
AcDbEntity
  8
0
  6
Continuous
 62
     7
100
AcDbLine
 10
-137.0750010937325
 20
72.87118200053834
 30
0.0
 11
-137.5500010937325
 21
72.87118200053834
 31
0.0
  0
LINE
  5
168
330
4E
100
AcDbEntity
  8
0
  6
Continuous
 62
     7
100
AcDbLine
 10
-102.0713023220089
 20
72.87118200053834
 30
0.0
 11
-99.85482828122066
 21
72.87118200053834
 31
0.0
  0
LINE
  5
169
330
4E
100
AcDbEntity
  8
0
  6
Continuous
 62
     7
100
AcDbLine
 10
-98.58068380224182
 20
81.02118200053835
 30
0.0
 11
-96.2951739062445
 21
81.02118200053835
 31
0.0
  0
LINE
  5
16A
330
4E
100
AcDbEntity
  8
0
  6
Continuous
 62
     7
100
AcDbLine
 10
-99.85482828122066
 20
81.02118200053835
 30
0.0
 11
-99.24338175074821
 21
81.02118200053835
 31
0.0
  0
LINE
  5
16B
330
4E
100
AcDbEntity
  8
0
  6
Continuous
 62
     7
100
AcDbLine
 10
-99.24338175074821
 20
81.02118200053835
 30
0.0
 11
-98.58068380224182
 21
81.02118200053835
 31
0.0
  0
LINE
  5
16C
330
4E
100
AcDbEntity
  8
0
  6
Continuous
 62
     7
100
AcDbLine
 10
-102.0713023220089
 20
81.02118200053835
 30
0.0
 11
-99.85482828122066
 21
81.02118200053835
 31
0.0
  0
LINE
  5
16D
330
4E
100
AcDbEntity
  8
0
  6
Continuous
 62
     7
100
AcDbLine
 10
-113.8250010937325
 20
81.02118200053835
 30
0.0
 11
-102.0713023220089
 21
81.02118200053835
 31
0.0
  0
LINE
  5
16E
330
4E
100
AcDbEntity
  8
0
  6
Continuous
 62
     7
100
AcDbLine
 10
-137.3000010937325
 20
81.02118200053835
 30
0.0
 11
-137.5500010937325
 21
81.02118200053835
 31
0.0
  0
LINE
  5
16F
330
4E
100
AcDbEntity
  8
0
  6
Continuous
 62
     7
100
AcDbLine
 10
-113.8250010937325
 20
81.02118200053835
 30
0.0
 11
-117.3250010937325
 21
81.02118200053835
 31
0.0
  0
LINE
  5
170
330
4E
100
AcDbEntity
  8
0
  6
Continuous
 62
     7
100
AcDbLine
 10
-129.0786998654561
 20
72.87118200053834
 30
0.0
 11
-129.0786998654561
 21
81.02118200053835
 31
0.0
  0
LINE
  5
171
330
4E
100
AcDbEntity
  8
0
  6
Continuous
 62
     7
100
AcDbLine
 10
-131.2951739062445
 20
72.87118200053834
 30
0.0
 11
-131.2951739062445
 21
81.02118200053835
 31
0.0
  0
LINE
  5
172
330
4E
100
AcDbEntity
  8
0
  6
Continuous
 62
     7
100
AcDbLine
 10
-131.9066204367169
 20
81.02118200053835
 30
0.0
 11
-131.9066204367169
 21
72.87118200053834
 31
0.0
  0
LINE
  5
173
330
4E
100
AcDbEntity
  8
0
  6
Continuous
 62
     7
100
AcDbLine
 10
-131.9066204367169
 20
72.87118200053834
 30
0.0
 11
-131.2951739062445
 21
72.87118200053834
 31
0.0
  0
LINE
  5
174
330
4E
100
AcDbEntity
  8
0
  6
Continuous
 62
     7
100
AcDbLine
 10
-132.5693183852232
 20
72.87118200053834
 30
0.0
 11
-131.9066204367169
 21
72.87118200053834
 31
0.0
  0
LINE
  5
175
330
4E
100
AcDbEntity
  8
0
  6
Continuous
 62
     7
100
AcDbLine
 10
-132.5693183852232
 20
81.02118200053835
 30
0.0
 11
-131.9066204367169
 21
81.02118200053835
 31
0.0
  0
LINE
  5
176
330
4E
100
AcDbEntity
  8
0
  6
Continuous
 62
     7
100
AcDbLine
 10
-132.5693183852232
 20
72.87118200053834
 30
0.0
 11
-132.5693183852232
 21
81.02118200053835
 31
0.0
  0
LINE
  5
177
330
4E
100
AcDbEntity
  8
0
  6
Continuous
 62
     7
100
AcDbLine
 10
-137.0750010937325
 20
72.87118200053834
 30
0.0
 11
-137.0750010937324
 21
81.02118200053835
 31
0.0
  0
LINE
  5
178
330
4E
100
AcDbEntity
  8
1
  6
DOT_CENTER
 62
     2
100
AcDbLine
 10
-103.5500010937326
 20
76.52118200053835
 30
0.0
 11
-109.6000010937325
 21
76.52118200053835
 31
0.0
  0
LINE
  5
179
330
4E
100
AcDbEntity
  8
1
  6
DOT_CENTER
 62
     2
100
AcDbLine
 10
-106.5750010937325
 20
79.54618200053831
 30
0.0
 11
-106.5750010937325
 21
73.49618200053838
 31
0.0
  0
LINE
  5
17A
330
4E
100
AcDbEntity
  8
1
  6
DOT_CENTER
 62
     2
100
AcDbLine
 10
-121.5500010937325
 20
76.52118200053835
 30
0.0
 11
-127.6000010937325
 21
76.52118200053835
 31
0.0
  0
LINE
  5
17B
330
4E
100
AcDbEntity
  8
1
  6
DOT_CENTER
 62
     2
100
AcDbLine
 10
-124.5750010937325
 20
79.54618200053835
 30
0.0
 11
-124.5750010937325
 21
73.49618200053834
 31
0.0
  0
ARC
  5
17C
330
4E
100
AcDbEntity
  8
0
  6
Continuous
 62
     7
100
AcDbCircle
 10
-106.5750010937325
 20
76.52118200053835
 30
0.0
 40
2.75000000000004
100
AcDbArc
 50
213.4630409671841
 51
236.5369590328149
  0
ARC
  5
17D
330
4E
100
AcDbEntity
  8
0
  6
Continuous
 62
     7
100
AcDbCircle
 10
-106.5750010937325
 20
76.52118200053835
 30
0.0
 40
2.75000000000002
100
AcDbArc
 50
236.5369590328149
 51
0.0
  0
ARC
  5
17E
330
4E
100
AcDbEntity
  8
0
  6
Continuous
 62
     7
100
AcDbCircle
 10
-106.5750010937325
 20
76.52118200053835
 30
0.0
 40
2.75
100
AcDbArc
 50
0.0
 51
33.46304096718543
  0
ARC
  5
17F
330
4E
100
AcDbEntity
  8
0
  6
Continuous
 62
     7
100
AcDbCircle
 10
-106.5750010937325
 20
76.52118200053835
 30
0.0
 40
2.749999999999945
100
AcDbArc
 50
33.46304096718543
 51
56.53695903281664
  0
ARC
  5
180
330
4E
100
AcDbEntity
  8
0
  6
Continuous
 62
     7
100
AcDbCircle
 10
-124.5750010937325
 20
76.52118200053835
 30
0.0
 40
2.750000000000028
100
AcDbArc
 50
33.46304096718428
 51
56.53695903281664
  0
ARC
  5
181
330
4E
100
AcDbEntity
  8
0
  6
Continuous
 62
     7
100
AcDbCircle
 10
-124.5750010937325
 20
76.52118200053835
 30
0.0
 40
2.75000000000004
100
AcDbArc
 50
213.4630409671841
 51
236.5369590328149
  0
ARC
  5
182
330
4E
100
AcDbEntity
  8
0
  6
Continuous
 62
     7
100
AcDbCircle
 10
-124.5750010937325
 20
76.52118200053835
 30
0.0
 40
2.75
100
AcDbArc
 50
0.0
 51
33.46304096718428
  0
ARC
  5
183
330
4E
100
AcDbEntity
  8
0
  6
Continuous
 62
     7
100
AcDbCircle
 10
-124.5750010937325
 20
76.52118200053835
 30
0.0
 40
2.75000000000002
100
AcDbArc
 50
236.5369590328149
 51
0.0
  0
ARC
  5
184
330
4E
100
AcDbEntity
  8
0
  6
Continuous
 62
     7
100
AcDbCircle
 10
-106.5750010937325
 20
76.52118200053835
 30
0.0
 40
2.749999999999965
100
AcDbArc
 50
56.53695903281664
 51
213.4630409671841
  0
ARC
  5
185
330
4E
100
AcDbEntity
  8
0
  6
Continuous
 62
     7
100
AcDbCircle
 10
-124.5750010937325
 20
76.52118200053835
 30
0.0
 40
2.749999999999965
100
AcDbArc
 50
56.53695903281664
 51
213.4630409671841
  0
ENDBLK
  5
50
330
4E
100
AcDbEntity
  8
0
100
AcDbBlockEnd
  0
BLOCK
  5
53
330
51
100
AcDbEntity
  8
0
100
AcDbBlockBegin
  2
Drfsicht1
 70
     0
 10
-115.8125000468662
 20
76.94618219125327
 30
0.0
  3
Drfsicht1
  1

  0
INSERT
  5
52
330
51
100
AcDbEntity
  8
0
100
AcDbBlockReference
  2
URKN_S-select__2
 10
-137.5500010937325
 20
72.87118200053834
 30
0.0
  0
DIMENSION
  5
192
330
51
100
AcDbEntity
  8
1
100
AcDbDimension
  2
*D17
 10
-147.5500010937325
 20
72.87118200053834
 30
0.0
 11
-150.9750010937325
 21
63.7828470700327
 31
0.0
 70
    33
  1
<>
 71
     5
 42
-1.0
 53
90.0
  3
ME10_DIM_10
100
AcDbAlignedDimension
 13
-137.5500010937325
 23
81.02118200053835
 33
0.0
 14
-137.5500010937325
 24
72.87118200053834
 34
0.0
  0
ENDBLK
  5
54
330
51
100
AcDbEntity
  8
0
100
AcDbBlockEnd
  0
BLOCK
  5
56
330
55
100
AcDbEntity
  8
0
100
AcDbBlockBegin
  2
URKN_S-select__3
 70
     0
 10
-26.73749885749371
 20
125.4499995851659
 30
0.0
  3
URKN_S-select__3
  1

  0
LINE
  5
193
330
55
100
AcDbEntity
  8
0
  6
Continuous
 62
     7
100
AcDbLine
 10
11.75681843399696
 20
164.2940709590883
 30
0.0
 11
12.02076766754
 21
163.836897475973
 31
0.0
  0
LINE
  5
194
330
55
100
AcDbEntity
  8
0
  6
Continuous
 62
     7
100
AcDbLine
 10
12.02076766754
 20
163.836897475973
 30
0.0
 11
11.09412048549067
 21
163.301897475973
 31
0.0
  0
LINE
  5
195
330
55
100
AcDbEntity
  8
0
  6
Continuous
 62
     7
100
AcDbLine
 10
-14.51249885749372
 20
125.4499995851659
 30
0.0
 11
-14.51249885749372
 21
127.0999995851659
 31
0.0
  0
LINE
  5
196
330
55
100
AcDbEntity
  8
0
  6
Continuous
 62
     7
100
AcDbLine
 10
-17.16249885749369
 20
128.8499995851659
 30
0.0
 11
-17.16249885749369
 21
128.3499995851659
 31
0.0
  0
LINE
  5
197
330
55
100
AcDbEntity
  8
0
  6
Continuous
 62
     7
100
AcDbLine
 10
-19.59721461607029
 20
168.8573346717943
 30
0.0
 11
-19.33326538252742
 21
169.3145081549096
 31
0.0
  0
LINE
  5
198
330
55
100
AcDbEntity
  8
0
  6
Continuous
 62
     7
100
AcDbLine
 10
-18.74119762921733
 20
174.5499995851659
 30
0.0
 11
-20.95767167000557
 21
170.7109539328629
 31
0.0
  0
LINE
  5
199
330
55
100
AcDbEntity
  8
0
  6
Continuous
 62
     7
100
AcDbLine
 10
-22.03749885749369
 20
131.7499995851659
 30
0.0
 11
-17.96249885749379
 21
131.7499995851659
 31
0.0
  0
LINE
  5
19A
330
55
100
AcDbEntity
  8
0
  6
Continuous
 62
     7
100
AcDbLine
 10
-17.96249885749379
 20
131.7499995851659
 30
0.0
 11
-17.4374988574937
 21
134.1181215495887
 31
0.0
  0
LINE
  5
19B
330
55
100
AcDbEntity
  8
0
  6
Continuous
 62
     7
100
AcDbLine
 10
-17.4374988574937
 20
134.1181215495887
 30
0.0
 11
-17.4374988574937
 21
135.4499995851659
 31
0.0
  0
LINE
  5
19C
330
55
100
AcDbEntity
  8
0
  6
Continuous
 62
     7
100
AcDbLine
 10
-15.9374988574937
 20
134.3756175021522
 30
0.0
 11
-17.16249885749369
 21
128.8499995851659
 31
0.0
  0
LINE
  5
19D
330
55
100
AcDbEntity
  8
0
  6
Continuous
 62
     7
100
AcDbLine
 10
-17.16249885749369
 20
128.3499995851659
 30
0.0
 11
-16.3124988574937
 21
128.3499995851659
 31
0.0
  0
LINE
  5
19E
330
55
100
AcDbEntity
  8
0
  6
Continuous
 62
     7
100
AcDbLine
 10
-16.3124988574937
 20
128.3499995851659
 30
0.0
 11
-16.3124988574937
 21
126.8499995851659
 31
0.0
  0
LINE
  5
19F
330
55
100
AcDbEntity
  8
0
  6
Continuous
 62
     7
100
AcDbLine
 10
-16.3124988574937
 20
126.8499995851659
 30
0.0
 11
-17.46249885749371
 21
126.7249995851659
 31
0.0
  0
LINE
  5
1A0
330
55
100
AcDbEntity
  8
0
  6
Continuous
 62
     7
100
AcDbLine
 10
-17.46249885749371
 20
126.7249995851659
 30
0.0
 11
-17.46249885749371
 21
125.4499995851659
 31
0.0
  0
LINE
  5
1A1
330
55
100
AcDbEntity
  8
0
  6
Continuous
 62
     7
100
AcDbLine
 10
-17.46249885749371
 20
125.4499995851659
 30
0.0
 11
-14.51249885749372
 21
125.4499995851659
 31
0.0
  0
LINE
  5
1A2
330
55
100
AcDbEntity
  8
0
  6
Continuous
 62
     7
100
AcDbLine
 10
16.26250114250629
 20
141.3500016552049
 30
0.0
 11
16.2625011425062
 21
160.699999585166
 31
0.0
  0
LINE
  5
1A3
330
55
100
AcDbEntity
  8
0
  6
Continuous
 62
     7
100
AcDbLine
 10
9.12221690108296
 20
168.8573346717942
 30
0.0
 11
10.48267395501822
 21
170.710953932863
 31
0.0
  0
LINE
  5
1A4
330
55
100
AcDbEntity
  8
0
  6
Continuous
 62
     7
100
AcDbLine
 10
10.48267395501822
 20
170.710953932863
 30
0.0
 11
8.26619991422985
 21
174.5499995851659
 31
0.0
  0
LINE
  5
1A5
330
55
100
AcDbEntity
  8
0
  6
Continuous
 62
     7
100
AcDbLine
 10
8.26619991422985
 20
174.5499995851659
 30
0.0
 11
-3.48749885749371
 21
174.5499995851659
 31
0.0
  0
LINE
  5
1A6
330
55
100
AcDbEntity
  8
0
  6
Continuous
 62
     7
100
AcDbLine
 10
-6.98749885749371
 20
174.5499995851659
 30
0.0
 11
-6.98749885749371
 21
167.5499995851659
 31
0.0
  0
LINE
  5
1A7
330
55
100
AcDbEntity
  8
0
  6
Continuous
 62
     7
100
AcDbLine
 10
-6.98749885749371
 20
167.5499995851659
 30
0.0
 11
-3.48749885749371
 21
167.5499995851659
 31
0.0
  0
LINE
  5
1A8
330
55
100
AcDbEntity
  8
0
  6
Continuous
 62
     7
100
AcDbLine
 10
-3.48749885749371
 20
174.5499995851659
 30
0.0
 11
-3.48749885749371
 21
167.5499995851659
 31
0.0
  0
LINE
  5
1A9
330
55
100
AcDbEntity
  8
0
  6
Continuous
 62
     7
100
AcDbLine
 10
-15.9374988574937
 20
135.4499995851659
 30
0.0
 11
-15.9374988574937
 21
134.3756175021522
 31
0.0
  0
LINE
  5
1AA
330
55
100
AcDbEntity
  8
0
  6
Continuous
 62
     7
100
AcDbLine
 10
1.41250114250629
 20
135.9499995851659
 30
0.0
 11
1.525118940627
 21
135.9499995851659
 31
0.0
  0
LINE
  5
1AB
330
55
100
AcDbEntity
  8
0
  6
Continuous
 62
     7
100
AcDbLine
 10
-16.9374988574937
 20
135.9499995851659
 30
0.0
 11
-16.4374988574937
 21
135.9499995851659
 31
0.0
  0
LINE
  5
1AC
330
55
100
AcDbEntity
  8
0
  6
Continuous
 62
     7
100
AcDbLine
 10
9.6625011425063
 20
137.9999995851659
 30
0.0
 11
12.78039436131968
 21
137.9999995851659
 31
0.0
  0
LINE
  5
1AD
330
55
100
AcDbEntity
  8
0
  6
Continuous
 62
     7
100
AcDbLine
 10
13.23750114250628
 20
136.9499995851659
 30
0.0
 11
9.6625011425063
 21
136.9499995851659
 31
0.0
  0
LINE
  5
1AE
330
55
100
AcDbEntity
  8
0
  6
Continuous
 62
     7
100
AcDbLine
 10
13.5380726614116
 20
137.501706513251
 30
0.0
 11
15.2313535669831
 21
137.501706513251
 31
0.0
  0
LINE
  5
1AF
330
55
100
AcDbEntity
  8
0
  6
Continuous
 62
     7
100
AcDbLine
 10
15.2313535669831
 20
137.501706513251
 30
0.0
 11
16.26250114250629
 21
141.3500016552049
 31
0.0
  0
LINE
  5
1B0
330
55
100
AcDbEntity
  8
0
  6
Continuous
 62
     7
100
AcDbLine
 10
8.42617627710109
 20
134.8499995851659
 30
0.0
 11
12.83750114250631
 21
135.2472798843003
 31
0.0
  0
LINE
  5
1B1
330
55
100
AcDbEntity
  8
0
  6
Continuous
 62
     7
100
AcDbLine
 10
8.85826766753994
 20
169.3145081549096
 30
0.0
 11
9.12221690108296
 21
168.8573346717942
 31
0.0
  0
LINE
  5
1B2
330
55
100
AcDbEntity
  8
0
  6
Continuous
 62
     7
100
AcDbLine
 10
7.93162048549066
 20
168.7795081549096
 30
0.0
 11
8.85826766753994
 21
169.3145081549096
 31
0.0
  0
LINE
  5
1B3
330
55
100
AcDbEntity
  8
0
  6
Continuous
 62
     7
100
AcDbLine
 10
14.0423283299943
 20
164.5454516980197
 30
0.0
 11
11.75681843399696
 21
164.2940709590883
 31
0.0
  0
LINE
  5
1B4
330
55
100
AcDbEntity
  8
0
  6
Continuous
 62
     7
100
AcDbLine
 10
16.2625011425062
 20
160.699999585166
 30
0.0
 11
14.0423283299943
 21
164.5454516980197
 31
0.0
  0
LINE
  5
1B5
330
55
100
AcDbEntity
  8
0
  6
Continuous
 62
     7
100
AcDbLine
 10
-22.03749885749375
 20
130.5499995851659
 30
0.0
 11
-22.03749885749369
 21
131.7499995851659
 31
0.0
  0
LINE
  5
1B6
330
55
100
AcDbEntity
  8
0
  6
Continuous
 62
     7
100
AcDbLine
 10
-21.23749885749371
 20
130.3499995851659
 30
0.0
 11
-22.03749885749375
 21
130.5499995851659
 31
0.0
  0
LINE
  5
1B7
330
55
100
AcDbEntity
  8
0
  6
Continuous
 62
     7
100
AcDbLine
 10
-21.23749885749371
 20
129.8999995851659
 30
0.0
 11
-21.23749885749371
 21
130.3499995851659
 31
0.0
  0
LINE
  5
1B8
330
55
100
AcDbEntity
  8
0
  6
Continuous
 62
     7
100
AcDbLine
 10
-22.18749885749371
 20
128.9499995851659
 30
0.0
 11
-21.23749885749371
 21
129.8999995851659
 31
0.0
  0
LINE
  5
1B9
330
55
100
AcDbEntity
  8
0
  6
Continuous
 62
     7
100
AcDbLine
 10
-25.65263924866723
 20
128.9499995851659
 30
0.0
 11
-22.18749885749371
 21
128.9499995851659
 31
0.0
  0
LINE
  5
1BA
330
55
100
AcDbEntity
  8
0
  6
Continuous
 62
     7
100
AcDbLine
 10
-22.4957653825274
 20
163.836897475973
 30
0.0
 11
-22.23181614898441
 21
164.2940709590883
 31
0.0
  0
LINE
  5
1BB
330
55
100
AcDbEntity
  8
0
  6
Continuous
 62
     7
100
AcDbLine
 10
-20.95767167000557
 20
170.7109539328629
 30
0.0
 11
-19.59721461607029
 21
168.8573346717943
 31
0.0
  0
LINE
  5
1BC
330
55
100
AcDbEntity
  8
0
  6
Continuous
 62
     7
100
AcDbLine
 10
-18.40661820047818
 20
168.7795081549097
 30
0.0
 11
-21.56911820047802
 21
163.3018974759729
 31
0.0
  0
LINE
  5
1BD
330
55
100
AcDbEntity
  8
0
  6
Continuous
 62
     7
100
AcDbLine
 10
-21.56911820047802
 20
163.3018974759729
 30
0.0
 11
-22.4957653825274
 21
163.836897475973
 31
0.0
  0
LINE
  5
1BE
330
55
100
AcDbEntity
  8
0
  6
Continuous
 62
     7
100
AcDbLine
 10
-22.23181614898441
 20
164.2940709590883
 30
0.0
 11
-24.51732604498174
 21
164.5454516980197
 31
0.0
  0
LINE
  5
1BF
330
55
100
AcDbEntity
  8
0
  6
Continuous
 62
     7
100
AcDbLine
 10
-24.51732604498174
 20
164.5454516980197
 30
0.0
 11
-26.73749885749361
 21
160.699999585166
 31
0.0
  0
LINE
  5
1C0
330
55
100
AcDbEntity
  8
0
  6
Continuous
 62
     7
100
AcDbLine
 10
-26.73749885749361
 20
160.699999585166
 30
0.0
 11
-26.73749885749371
 21
141.3500016552048
 31
0.0
  0
LINE
  5
1C1
330
55
100
AcDbEntity
  8
0
  6
Continuous
 62
     7
100
AcDbLine
 10
-26.73749885749371
 20
141.3500016552048
 30
0.0
 11
-25.65263924866723
 21
128.9499995851659
 31
0.0
  0
LINE
  5
1C2
330
55
100
AcDbEntity
  8
0
  6
Continuous
 62
     7
100
AcDbLine
 10
-6.98749885749371
 20
174.5499995851659
 30
0.0
 11
-18.74119762921733
 21
174.5499995851659
 31
0.0
  0
LINE
  5
1C3
330
55
100
AcDbEntity
  8
0
  6
Continuous
 62
     7
100
AcDbLine
 10
-19.33326538252742
 20
169.3145081549096
 30
0.0
 11
-18.40661820047818
 21
168.7795081549097
 31
0.0
  0
LINE
  5
1C4
330
55
100
AcDbEntity
  8
0
  6
Continuous
 62
     7
100
AcDbLine
 10
11.93722181039811
 20
130.3499995851659
 30
0.0
 11
11.93722181039811
 21
130.1499995851659
 31
0.0
  0
LINE
  5
1C5
330
55
100
AcDbEntity
  8
0
  6
Continuous
 62
     7
100
AcDbLine
 10
12.96250114250631
 20
130.5499995851659
 30
0.0
 11
11.93722181039811
 21
130.3499995851659
 31
0.0
  0
LINE
  5
1C6
330
55
100
AcDbEntity
  8
0
  6
Continuous
 62
     7
100
AcDbLine
 10
13.17409351935637
 20
131.7499995851659
 30
0.0
 11
12.96250114250631
 21
130.5499995851659
 31
0.0
  0
LINE
  5
1C7
330
55
100
AcDbEntity
  8
0
  6
Continuous
 62
     7
100
AcDbLine
 10
0.91250114250629
 20
133.0999995851659
 30
0.0
 11
0.91250114250629
 21
135.4499995851659
 31
0.0
  0
LINE
  5
1C8
330
55
100
AcDbEntity
  8
0
  6
Continuous
 62
     7
100
AcDbLine
 10
2.00808185377155
 20
135.5794091077171
 30
0.0
 11
2.33750114250631
 21
134.3499995851659
 31
0.0
  0
LINE
  5
1C9
330
55
100
AcDbEntity
  8
0
  6
Continuous
 62
     7
100
AcDbLine
 10
2.33750114250631
 20
134.3499995851659
 30
0.0
 11
8.13750114250629
 21
134.3499995851659
 31
0.0
  0
LINE
  5
1CA
330
55
100
AcDbEntity
  8
0
  6
Continuous
 62
     7
100
AcDbLine
 10
8.13750114250629
 20
134.3499995851659
 30
0.0
 11
8.42617627710109
 21
134.8499995851659
 31
0.0
  0
LINE
  5
1CB
330
55
100
AcDbEntity
  8
0
  6
Continuous
 62
     7
100
AcDbLine
 10
12.83750114250631
 20
135.2472798843003
 30
0.0
 11
12.83750114250631
 21
134.035640231221
 31
0.0
  0
LINE
  5
1CC
330
55
100
AcDbEntity
  8
0
  6
Continuous
 62
     7
100
AcDbLine
 10
12.0375011425063
 20
131.9504114872721
 30
0.0
 11
13.17409351935637
 21
131.7499995851659
 31
0.0
  0
LINE
  5
1CD
330
55
100
AcDbEntity
  8
0
  6
Continuous
 62
     7
100
AcDbLine
 10
12.83750114250631
 20
134.035640231221
 30
0.0
 11
12.0375011425063
 21
132.6499995851659
 31
0.0
  0
LINE
  5
1CE
330
55
100
AcDbEntity
  8
0
  6
Continuous
 62
     7
100
AcDbLine
 10
12.0375011425063
 20
132.6499995851659
 30
0.0
 11
12.0375011425063
 21
131.9504114872721
 31
0.0
  0
LINE
  5
1CF
330
55
100
AcDbEntity
  8
0
  6
Continuous
 62
     7
100
AcDbLine
 10
-14.51249885749372
 20
127.0999995851659
 30
0.0
 11
-13.8724988574937
 21
127.0999995851659
 31
0.0
  0
LINE
  5
1D0
330
55
100
AcDbEntity
  8
0
  6
Continuous
 62
     7
100
AcDbLine
 10
16.73750114250628
 20
125.4499995851659
 30
0.0
 11
16.73750114250628
 21
127.9499995851659
 31
0.0
  0
LINE
  5
1D1
330
55
100
AcDbEntity
  8
0
  6
Continuous
 62
     7
100
AcDbLine
 10
14.23750114250628
 20
130.2594006619244
 30
0.0
 11
14.23750114250628
 21
135.9499995851659
 31
0.0
  0
LINE
  5
1D2
330
55
100
AcDbEntity
  8
0
  6
Continuous
 62
     7
100
AcDbLine
 10
13.33097930863186
 20
125.4499995851659
 30
0.0
 11
16.73750114250628
 21
125.4499995851659
 31
0.0
  0
LINE
  5
1D3
330
55
100
AcDbEntity
  8
0
  6
Continuous
 62
     7
100
AcDbLine
 10
16.48750114250628
 20
128.3830122870581
 30
0.0
 11
14.73750114250628
 21
129.3933752581399
 31
0.0
  0
LINE
  5
1D4
330
55
100
AcDbEntity
  8
0
  6
Continuous
 62
     7
100
AcDbLine
 10
11.09412048549067
 20
163.301897475973
 30
0.0
 11
7.93162048549066
 21
168.7795081549096
 31
0.0
  0
ARC
  5
1D5
330
55
100
AcDbEntity
  8
0
  6
Continuous
 62
     7
100
AcDbCircle
 10
21.4336779314209
 20
130.4094627646089
 30
0.0
 40
9.499999999999886
100
AcDbArc
 50
181.5650519949543
 51
211.4697785839642
  0
ARC
  5
1D6
330
55
100
AcDbEntity
  8
0
  6
Continuous
 62
     7
100
AcDbCircle
 10
-16.9374988574937
 20
135.4499995851659
 30
0.0
 40
0.5
100
AcDbArc
 50
90.0
 51
180.0
  0
ARC
  5
1D7
330
55
100
AcDbEntity
  8
0
  6
Continuous
 62
     7
100
AcDbCircle
 10
1.525118940627
 20
135.4499995851659
 30
0.0
 40
0.5000000000000006
100
AcDbArc
 50
14.99999999999445
 51
90.0
  0
ARC
  5
1D8
330
55
100
AcDbEntity
  8
0
  6
Continuous
 62
     7
100
AcDbCircle
 10
-16.4374988574937
 20
135.4499995851659
 30
0.0
 40
0.5
100
AcDbArc
 50
0.0
 51
90.0
  0
ARC
  5
1D9
330
55
100
AcDbEntity
  8
0
  6
Continuous
 62
     7
100
AcDbCircle
 10
9.6625011425063
 20
137.4749995851659
 30
0.0
 40
0.5250000000000057
100
AcDbArc
 50
90.0
 51
270.0
  0
ARC
  5
1DA
330
55
100
AcDbEntity
  8
0
  6
Continuous
 62
     7
100
AcDbCircle
 10
13.48750114250628
 20
138.2499995851659
 30
0.0
 40
0.7500000000000506
100
AcDbArc
 50
199.4712206344893
 51
273.8663130269692
  0
ARC
  5
1DB
330
55
100
AcDbEntity
  8
0
  6
Continuous
 62
     7
100
AcDbCircle
 10
1.41250114250629
 20
135.4499995851659
 30
0.0
 40
0.5
100
AcDbArc
 50
90.0
 51
180.0
  0
ARC
  5
1DC
330
55
100
AcDbEntity
  8
0
  6
Continuous
 62
     7
100
AcDbCircle
 10
-1.0758308884999
 20
130.1888761241218
 30
0.0
 40
1.199999999999927
100
AcDbArc
 50
353.0762791559313
 51
79.29351303112074
  0
ARC
  5
1DD
330
55
100
AcDbEntity
  8
0
  6
Continuous
 62
     7
100
AcDbCircle
 10
1.21250114250631
 20
133.0999995851659
 30
0.0
 40
0.3000000000000114
100
AcDbArc
 50
180.0
 51
270.0
  0
ARC
  5
1DE
330
55
100
AcDbEntity
  8
0
  6
Continuous
 62
     7
100
AcDbCircle
 10
-1.4351451323874
 20
132.2116651709195
 30
0.0
 40
3.350000000000076
100
AcDbArc
 50
311.3165829300445
 51
357.5849578586676
  0
ARC
  5
1DF
330
55
100
AcDbEntity
  8
0
  6
Continuous
 62
     7
100
AcDbCircle
 10
0.51250114250629
 20
129.9959995851659
 30
0.0
 40
0.4000000000000289
100
AcDbArc
 50
173.0762791559473
 51
311.316582930049
  0
ARC
  5
1E0
330
55
100
AcDbEntity
  8
0
  6
Continuous
 62
     7
100
AcDbCircle
 10
-3.86249885749371
 20
115.4499995851659
 30
0.0
 40
16.19999999999996
100
AcDbArc
 50
79.29351303112054
 51
102.3352321792815
  0
ARC
  5
1E1
330
55
100
AcDbEntity
  8
0
  6
Continuous
 62
     7
100
AcDbCircle
 10
1.21250114250631
 20
132.0999995851659
 30
0.0
 40
0.6999999999999276
100
AcDbArc
 50
357.5849578586676
 51
90.0
  0
ARC
  5
1E2
330
55
100
AcDbEntity
  8
0
  6
Continuous
 62
     7
100
AcDbCircle
 10
-13.8724988574937
 20
129.0999995851659
 30
0.0
 40
2.0
100
AcDbArc
 50
270.0
 51
325.6719647666237
  0
ARC
  5
1E3
330
55
100
AcDbEntity
  8
0
  6
Continuous
 62
     7
100
AcDbCircle
 10
13.23750114250628
 20
135.9499995851659
 30
0.0
 40
1.0
100
AcDbArc
 50
0.0
 51
90.0
  0
ARC
  5
1E4
330
55
100
AcDbEntity
  8
0
  6
Continuous
 62
     7
100
AcDbCircle
 10
16.23750114250628
 20
127.9499995851659
 30
0.0
 40
0.5
100
AcDbArc
 50
0.0
 51
59.99999999999946
  0
ARC
  5
1E5
330
55
100
AcDbEntity
  8
0
  6
Continuous
 62
     7
100
AcDbCircle
 10
15.23750114250628
 20
130.2594006619244
 30
0.0
 40
1.0
100
AcDbArc
 50
180.0
 51
240.0000000000011
  0
ARC
  5
1E6
330
55
100
AcDbEntity
  8
0
  6
Continuous
 62
     7
100
AcDbCircle
 10
-5.6142742744855
 20
123.4606976127053
 30
0.0
 40
7.999999999999996
100
AcDbArc
 50
102.3352321792813
 51
145.6719647666237
  0
ENDBLK
  5
57
330
55
100
AcDbEntity
  8
0
100
AcDbBlockEnd
  0
BLOCK
  5
5A
330
58
100
AcDbEntity
  8
0
100
AcDbBlockBegin
  2
Rckans1
 70
     0
 10
-4.99999990436004
 20
150.0
 30
0.0
  3
Rckans1
  1

  0
INSERT
  5
59
330
58
100
AcDbEntity
  8
0
100
AcDbBlockReference
  2
URKN_S-select__3
 10
-26.73749885749371
 20
125.4499995851659
 30
0.0
  0
MTEXT
  5
1E7
330
58
100
AcDbEntity
  8
1
 62
     6
100
AcDbMText
 10
-4.99999990436004
 20
120.4499998092651
 30
0.0
 40
5.0
 41
0.0
 71
     2
 72
     1
  1
 
  7
CONVERTER_11
 73
     1
 44
1.32052821128451
  0
ENDBLK
  5
5B
330
58
100
AcDbEntity
  8
0
100
AcDbBlockEnd
  0
BLOCK
  5
5D
330
5C
100
AcDbEntity
  8
0
100
AcDbBlockBegin
  2
URKN_S-select__4
 70
     0
 10
-188.0750001906948
 20
125.4499995851658
 30
0.0
  3
URKN_S-select__4
  1

  0
LINE
  5
1E8
330
5C
100
AcDbEntity
  8
0
  6
Continuous
 62
     7
100
AcDbLine
 10
-179.9250001906948
 20
164.5454516980196
 30
0.0
 11
-179.9250001906948
 21
160.699999585166
 31
0.0
  0
LINE
  5
1E9
330
5C
100
AcDbEntity
  8
0
  6
Continuous
 62
     7
100
AcDbLine
 10
-180.7250001906948
 20
155.2499995851659
 30
0.0
 11
-180.7250001906948
 21
159.0461021693771
 31
0.0
  0
LINE
  5
1EA
330
5C
100
AcDbEntity
  8
0
  6
Continuous
 62
     7
100
AcDbLine
 10
-180.7250001906948
 20
141.6683553219739
 30
0.0
 11
-180.7250001906948
 21
144.2802988474296
 31
0.0
  0
LINE
  5
1EB
330
5C
100
AcDbEntity
  8
0
  6
Continuous
 62
     7
100
AcDbLine
 10
-179.9250001906948
 20
141.3500016552047
 30
0.0
 11
-179.9250001906948
 21
128.9499995851658
 31
0.0
  0
LINE
  5
1EC
330
5C
100
AcDbEntity
  8
0
  6
Continuous
 62
     7
100
AcDbLine
 10
-180.7250001906948
 20
144.2802988474296
 30
0.0
 11
-180.7250001906948
 21
155.2499995851659
 31
0.0
  0
LINE
  5
1ED
330
5C
100
AcDbEntity
  8
0
  6
Continuous
 62
     7
100
AcDbLine
 10
-187.2750001906948
 20
159.0461021693771
 30
0.0
 11
-180.7250001906948
 21
159.0461021693771
 31
0.0
  0
LINE
  5
1EE
330
5C
100
AcDbEntity
  8
0
  6
Continuous
 62
     7
100
AcDbLine
 10
-188.0750001906948
 20
160.699999585166
 30
0.0
 11
-179.9250001906948
 21
160.699999585166
 31
0.0
  0
LINE
  5
1EF
330
5C
100
AcDbEntity
  8
0
  6
Continuous
 62
     7
100
AcDbLine
 10
-186.7250001906948
 20
153.5499995851659
 30
0.0
 11
-182.4250001906948
 21
153.5499995851659
 31
0.0
  0
LINE
  5
1F0
330
5C
100
AcDbEntity
  8
0
  6
Continuous
 62
     7
100
AcDbLine
 10
-182.4250001906948
 20
153.5499995851659
 30
0.0
 11
-182.4250001906948
 21
145.4499995851659
 31
0.0
  0
LINE
  5
1F1
330
5C
100
AcDbEntity
  8
0
  6
Continuous
 62
     7
100
AcDbLine
 10
-182.4250001906948
 20
145.4499995851659
 30
0.0
 11
-186.7250001906948
 21
145.4499995851659
 31
0.0
  0
LINE
  5
1F2
330
5C
100
AcDbEntity
  8
0
  6
Continuous
 62
     7
100
AcDbLine
 10
-188.0750001906948
 20
141.3500016552047
 30
0.0
 11
-188.0750001906948
 21
128.9499995851658
 31
0.0
  0
LINE
  5
1F3
330
5C
100
AcDbEntity
  8
0
  6
Continuous
 62
     7
100
AcDbLine
 10
-188.0750001906948
 20
141.3500016552047
 30
0.0
 11
-179.9250001906948
 21
141.3500016552047
 31
0.0
  0
LINE
  5
1F4
330
5C
100
AcDbEntity
  8
0
  6
Continuous
 62
     7
100
AcDbLine
 10
-180.7250001906948
 20
141.6683553219739
 30
0.0
 11
-187.2750001906948
 21
141.6683553219739
 31
0.0
  0
LINE
  5
1F5
330
5C
100
AcDbEntity
  8
0
  6
Continuous
 62
     7
100
AcDbLine
 10
-187.2750001906948
 20
144.5775583299229
 30
0.0
 11
-186.7250001906948
 21
145.4499995851659
 31
0.0
  0
LINE
  5
1F6
330
5C
100
AcDbEntity
  8
0
  6
Continuous
 62
     7
100
AcDbLine
 10
-180.7250001906948
 20
144.2802988474296
 30
0.0
 11
-182.4250001906948
 21
145.4499995851659
 31
0.0
  0
LINE
  5
1F7
330
5C
100
AcDbEntity
  8
0
  6
Continuous
 62
     7
100
AcDbLine
 10
-188.0750001906948
 20
126.7249995851659
 30
0.0
 11
-188.0750001906948
 21
125.4499995851658
 31
0.0
  0
LINE
  5
1F8
330
5C
100
AcDbEntity
  8
0
  6
Continuous
 62
     7
100
AcDbLine
 10
-188.0750001906948
 20
126.8499995851659
 30
0.0
 11
-188.0750001906948
 21
126.7249995851659
 31
0.0
  0
LINE
  5
1F9
330
5C
100
AcDbEntity
  8
0
  6
Continuous
 62
     7
100
AcDbLine
 10
-188.0750001906948
 20
128.3499995851659
 30
0.0
 11
-188.0750001906948
 21
126.8499995851659
 31
0.0
  0
LINE
  5
1FA
330
5C
100
AcDbEntity
  8
0
  6
Continuous
 62
     7
100
AcDbLine
 10
-188.0750001906948
 20
128.3499995851659
 30
0.0
 11
-188.0750001906948
 21
128.8499995851659
 31
0.0
  0
LINE
  5
1FB
330
5C
100
AcDbEntity
  8
0
  6
Continuous
 62
     7
100
AcDbLine
 10
-188.0750001906948
 20
128.9499995851658
 30
0.0
 11
-188.0750001906948
 21
128.8499995851659
 31
0.0
  0
LINE
  5
1FC
330
5C
100
AcDbEntity
  8
0
  6
Continuous
 62
     7
100
AcDbLine
 10
-188.0750001906948
 20
164.5454516980196
 30
0.0
 11
-188.0750001906948
 21
160.699999585166
 31
0.0
  0
LINE
  5
1FD
330
5C
100
AcDbEntity
  8
0
  6
Continuous
 62
     7
100
AcDbLine
 10
-188.0750001906948
 20
168.8573346717942
 30
0.0
 11
-188.0750001906948
 21
170.7109539328629
 31
0.0
  0
LINE
  5
1FE
330
5C
100
AcDbEntity
  8
0
  6
Continuous
 62
     7
100
AcDbLine
 10
-188.0750001906948
 20
168.7795081549096
 30
0.0
 11
-188.0750001906948
 21
168.8573346717942
 31
0.0
  0
LINE
  5
1FF
330
5C
100
AcDbEntity
  8
0
  6
Continuous
 62
     7
100
AcDbLine
 10
-188.0750001906948
 20
170.7109539328629
 30
0.0
 11
-188.0750001906948
 21
174.5499995851658
 31
0.0
  0
LINE
  5
200
330
5C
100
AcDbEntity
  8
0
  6
Continuous
 62
     7
100
AcDbLine
 10
-188.0750001906948
 20
164.5454516980196
 30
0.0
 11
-188.0750001906948
 21
168.7795081549096
 31
0.0
  0
LINE
  5
201
330
5C
100
AcDbEntity
  8
0
  6
Continuous
 62
     7
100
AcDbLine
 10
-187.2750001906948
 20
154.8179735942987
 30
0.0
 11
-187.2750001906948
 21
159.0461021693771
 31
0.0
  0
LINE
  5
202
330
5C
100
AcDbEntity
  8
0
  6
Continuous
 62
     7
100
AcDbLine
 10
-188.0750001906948
 20
160.699999585166
 30
0.0
 11
-188.0750001906948
 21
141.3500016552047
 31
0.0
  0
LINE
  5
203
330
5C
100
AcDbEntity
  8
0
  6
Continuous
 62
     7
100
AcDbLine
 10
-187.2750001906948
 20
141.6683553219739
 30
0.0
 11
-187.2750001906948
 21
144.5775583299229
 31
0.0
  0
LINE
  5
204
330
5C
100
AcDbEntity
  8
0
  6
Continuous
 62
     7
100
AcDbLine
 10
-187.2750001906948
 20
144.5775583299229
 30
0.0
 11
-187.2750001906948
 21
154.8179735942987
 31
0.0
  0
LINE
  5
205
330
5C
100
AcDbEntity
  8
0
  6
Continuous
 62
     7
100
AcDbLine
 10
-186.7250001906948
 20
153.5499995851659
 30
0.0
 11
-187.2750001906948
 21
154.8179735942987
 31
0.0
  0
LINE
  5
206
330
5C
100
AcDbEntity
  8
0
  6
Continuous
 62
     7
100
AcDbLine
 10
-186.7250001906948
 20
145.4499995851659
 30
0.0
 11
-186.7250001906948
 21
153.5499995851659
 31
0.0
  0
LINE
  5
207
330
5C
100
AcDbEntity
  8
0
  6
Continuous
 62
     7
100
AcDbLine
 10
-179.9250001906948
 20
168.7795081549096
 30
0.0
 11
-179.9250001906948
 21
164.5454516980196
 31
0.0
  0
LINE
  5
208
330
5C
100
AcDbEntity
  8
0
  6
Continuous
 62
     7
100
AcDbLine
 10
-188.0750001906948
 20
168.8573346717942
 30
0.0
 11
-179.9250001906948
 21
168.8573346717942
 31
0.0
  0
LINE
  5
209
330
5C
100
AcDbEntity
  8
0
  6
Continuous
 62
     7
100
AcDbLine
 10
-188.0750001906948
 20
164.5454516980196
 30
0.0
 11
-179.9250001906948
 21
164.5454516980196
 31
0.0
  0
LINE
  5
20A
330
5C
100
AcDbEntity
  8
0
  6
Continuous
 62
     7
100
AcDbLine
 10
-179.9250001906948
 20
168.7795081549096
 30
0.0
 11
-188.0750001906948
 21
168.7795081549096
 31
0.0
  0
LINE
  5
20B
330
5C
100
AcDbEntity
  8
0
  6
Continuous
 62
     7
100
AcDbLine
 10
-188.0750001906948
 20
128.9499995851658
 30
0.0
 11
-179.9250001906948
 21
128.9499995851658
 31
0.0
  0
LINE
  5
20C
330
5C
100
AcDbEntity
  8
0
  6
Continuous
 62
     7
100
AcDbLine
 10
-179.9250001906948
 20
128.3499995851659
 30
0.0
 11
-188.0750001906948
 21
128.3499995851659
 31
0.0
  0
LINE
  5
20D
330
5C
100
AcDbEntity
  8
0
  6
Continuous
 62
     7
100
AcDbLine
 10
-179.9250001906948
 20
128.8499995851659
 30
0.0
 11
-188.0750001906948
 21
128.8499995851659
 31
0.0
  0
LINE
  5
20E
330
5C
100
AcDbEntity
  8
0
  6
Continuous
 62
     7
100
AcDbLine
 10
-179.9250001906948
 20
126.8499995851659
 30
0.0
 11
-188.0750001906948
 21
126.8499995851659
 31
0.0
  0
LINE
  5
20F
330
5C
100
AcDbEntity
  8
0
  6
Continuous
 62
     7
100
AcDbLine
 10
-179.9250001906948
 20
126.7249995851659
 30
0.0
 11
-188.0750001906948
 21
126.7249995851659
 31
0.0
  0
LINE
  5
210
330
5C
100
AcDbEntity
  8
0
  6
Continuous
 62
     7
100
AcDbLine
 10
-188.0750001906948
 20
125.4499995851658
 30
0.0
 11
-179.9250001906948
 21
125.4499995851658
 31
0.0
  0
LINE
  5
211
330
5C
100
AcDbEntity
  8
0
  6
Continuous
 62
     7
100
AcDbLine
 10
-188.0750001906948
 20
174.5499995851658
 30
0.0
 11
-179.9250001906948
 21
174.5499995851658
 31
0.0
  0
LINE
  5
212
330
5C
100
AcDbEntity
  8
0
  6
Continuous
 62
     7
100
AcDbLine
 10
-188.0750001906948
 20
170.7109539328629
 30
0.0
 11
-179.9250001906948
 21
170.7109539328629
 31
0.0
  0
LINE
  5
213
330
5C
100
AcDbEntity
  8
0
  6
Continuous
 62
     7
100
AcDbLine
 10
-179.9250001906948
 20
126.7249995851659
 30
0.0
 11
-179.9250001906948
 21
125.4499995851658
 31
0.0
  0
LINE
  5
214
330
5C
100
AcDbEntity
  8
0
  6
Continuous
 62
     7
100
AcDbLine
 10
-179.9250001906948
 20
126.8499995851659
 30
0.0
 11
-179.9250001906948
 21
126.7249995851659
 31
0.0
  0
LINE
  5
215
330
5C
100
AcDbEntity
  8
0
  6
Continuous
 62
     7
100
AcDbLine
 10
-179.9250001906948
 20
128.9499995851658
 30
0.0
 11
-179.9250001906948
 21
128.8499995851659
 31
0.0
  0
LINE
  5
216
330
5C
100
AcDbEntity
  8
0
  6
Continuous
 62
     7
100
AcDbLine
 10
-179.9250001906948
 20
128.8499995851659
 30
0.0
 11
-179.9250001906948
 21
128.3499995851659
 31
0.0
  0
LINE
  5
217
330
5C
100
AcDbEntity
  8
0
  6
Continuous
 62
     7
100
AcDbLine
 10
-179.9250001906948
 20
170.7109539328629
 30
0.0
 11
-179.9250001906948
 21
168.8573346717942
 31
0.0
  0
LINE
  5
218
330
5C
100
AcDbEntity
  8
0
  6
Continuous
 62
     7
100
AcDbLine
 10
-179.9250001906948
 20
168.8573346717942
 30
0.0
 11
-179.9250001906948
 21
168.7795081549096
 31
0.0
  0
LINE
  5
219
330
5C
100
AcDbEntity
  8
0
  6
Continuous
 62
     7
100
AcDbLine
 10
-179.9250001906948
 20
174.5499995851658
 30
0.0
 11
-179.9250001906948
 21
170.7109539328629
 31
0.0
  0
LINE
  5
21A
330
5C
100
AcDbEntity
  8
0
  6
Continuous
 62
     7
100
AcDbLine
 10
-179.9250001906948
 20
128.3499995851659
 30
0.0
 11
-179.9250001906948
 21
126.8499995851659
 31
0.0
  0
LINE
  5
21B
330
5C
100
AcDbEntity
  8
0
  6
Continuous
 62
     7
100
AcDbLine
 10
-179.9250001906948
 20
160.699999585166
 30
0.0
 11
-179.9250001906948
 21
141.3500016552047
 31
0.0
  0
LINE
  5
21C
330
5C
100
AcDbEntity
  8
0
  6
Continuous
 62
     7
100
AcDbLine
 10
-182.4250001906948
 20
153.5499995851659
 30
0.0
 11
-180.7250001906948
 21
155.2499995851659
 31
0.0
  0
ENDBLK
  5
5E
330
5C
100
AcDbEntity
  8
0
100
AcDbBlockEnd
  0
BLOCK
  5
61
330
5F
100
AcDbEntity
  8
0
100
AcDbBlockBegin
  2
SA_Rechts1
 70
     0
 10
-183.9999999999799
 20
150.0
 30
0.0
  3
SA_Rechts1
  1

  0
INSERT
  5
60
330
5F
100
AcDbEntity
  8
0
100
AcDbBlockReference
  2
URKN_S-select__4
 10
-188.0750001906948
 20
125.4499995851658
 30
0.0
  0
MTEXT
  5
21D
330
5F
100
AcDbEntity
  8
1
 62
     6
100
AcDbMText
 10
-183.99999999998
 20
120.4499998092651
 30
0.0
 40
5.0
 41
0.0
 71
     2
 72
     1
  1
 
  7
CONVERTER_11
 73
     1
 44
1.32052821128451
  0
ENDBLK
  5
62
330
5F
100
AcDbEntity
  8
0
100
AcDbBlockEnd
  0
BLOCK
  5
64
330
63
100
AcDbEntity
  8
0
100
AcDbBlockBegin
  2
URKN_S-select__5
 70
     0
 10
-60.76915214797241
 20
125.4499991703319
 30
0.0
  3
URKN_S-select__5
  1

  0
LINE
  5
21E
330
63
100
AcDbEntity
  8
0
  6
Continuous
 62
     7
100
AcDbLine
 10
-52.61915214797241
 20
125.4499991703319
 30
0.0
 11
-52.61915214797241
 21
127.9499991703319
 31
0.0
  0
LINE
  5
21F
330
63
100
AcDbEntity
  8
0
  6
Continuous
 62
     2
100
AcDbLine
 10
-60.76915214797241
 20
128.3830118722241
 30
0.0
 11
-59.71915214797241
 21
128.3830118722241
 31
0.0
  0
LINE
  5
220
330
63
100
AcDbEntity
  8
0
  6
Continuous
 62
     2
100
AcDbLine
 10
-60.76915214797241
 20
127.9499991703319
 30
0.0
 11
-52.61915214797241
 21
127.9499991703319
 31
0.0
  0
LINE
  5
221
330
63
100
AcDbEntity
  8
0
  6
Continuous
 62
     7
100
AcDbLine
 10
-52.61915214797241
 20
125.4499991703319
 30
0.0
 11
-60.76915214797241
 21
125.4499991703319
 31
0.0
  0
LINE
  5
222
330
63
100
AcDbEntity
  8
0
  6
Continuous
 62
     7
100
AcDbLine
 10
-60.76915214797241
 20
129.3933748433059
 30
0.0
 11
-60.76915214797241
 21
130.2594002470905
 31
0.0
  0
LINE
  5
223
330
63
100
AcDbEntity
  8
0
  6
Continuous
 62
     7
100
AcDbLine
 10
-60.76915214797241
 20
136.9499991703319
 30
0.0
 11
-60.76915214797241
 21
135.9499991703319
 31
0.0
  0
LINE
  5
224
330
63
100
AcDbEntity
  8
0
  6
Continuous
 62
     7
100
AcDbLine
 10
-52.6191521479724
 20
170.7109535180291
 30
0.0
 11
-52.61915214797241
 21
174.5499991703319
 31
0.0
  0
LINE
  5
225
330
63
100
AcDbEntity
  8
0
  6
Continuous
 62
     7
100
AcDbLine
 10
-52.61915214797241
 20
128.4499991703319
 30
0.0
 11
-52.61915214797241
 21
127.9499991703319
 31
0.0
  0
LINE
  5
226
330
63
100
AcDbEntity
  8
0
  6
Continuous
 62
     7
100
AcDbLine
 10
-52.61915214797241
 20
136.9499991703319
 30
0.0
 11
-52.61915214797241
 21
135.9499991703319
 31
0.0
  0
LINE
  5
227
330
63
100
AcDbEntity
  8
0
  6
Continuous
 62
     7
100
AcDbLine
 10
-52.61915214797241
 20
128.4499991703319
 30
0.0
 11
-52.61915214797241
 21
135.9499991703319
 31
0.0
  0
LINE
  5
228
330
63
100
AcDbEntity
  8
0
  6
Continuous
 62
     7
100
AcDbLine
 10
-52.61915214797241
 20
164.5454512831857
 30
0.0
 11
-52.61915214797241
 21
168.7795077400756
 31
0.0
  0
LINE
  5
229
330
63
100
AcDbEntity
  8
0
  6
Continuous
 62
     2
100
AcDbLine
 10
-60.76915214797241
 20
129.3933748433059
 30
0.0
 11
-59.71915214797241
 21
129.3933748433059
 31
0.0
  0
LINE
  5
22A
330
63
100
AcDbEntity
  8
0
  6
Continuous
 62
     7
100
AcDbLine
 10
-52.61915214797241
 20
174.5499991703319
 30
0.0
 11
-60.76915214797241
 21
174.5499991703319
 31
0.0
  0
LINE
  5
22B
330
63
100
AcDbEntity
  8
0
  6
Continuous
 62
     7
100
AcDbLine
 10
-60.76915214797241
 20
170.7109535180291
 30
0.0
 11
-60.76915214797241
 21
174.5499991703319
 31
0.0
  0
LINE
  5
22C
330
63
100
AcDbEntity
  8
0
  6
Continuous
 62
     7
100
AcDbLine
 10
-52.61915214797241
 20
168.8573342569603
 30
0.0
 11
-52.6191521479724
 21
170.7109535180291
 31
0.0
  0
LINE
  5
22D
330
63
100
AcDbEntity
  8
0
  6
Continuous
 62
     7
100
AcDbLine
 10
-60.76915214797241
 20
168.8573342569603
 30
0.0
 11
-60.76915214797241
 21
170.7109535180291
 31
0.0
  0
LINE
  5
22E
330
63
100
AcDbEntity
  8
0
  6
Continuous
 62
     7
100
AcDbLine
 10
-52.6191521479724
 20
170.7109535180291
 30
0.0
 11
-60.76915214797241
 21
170.7109535180291
 31
0.0
  0
LINE
  5
22F
330
63
100
AcDbEntity
  8
0
  6
Continuous
 62
     7
100
AcDbLine
 10
-52.61915214797241
 20
168.7795077400756
 30
0.0
 11
-52.61915214797241
 21
168.8573342569603
 31
0.0
  0
LINE
  5
230
330
63
100
AcDbEntity
  8
0
  6
Continuous
 62
     7
100
AcDbLine
 10
-60.76915214797241
 20
168.7795077400756
 30
0.0
 11
-60.76915214797241
 21
168.8573342569603
 31
0.0
  0
LINE
  5
231
330
63
100
AcDbEntity
  8
0
  6
Continuous
 62
     7
100
AcDbLine
 10
-60.76915214797241
 20
164.5454512831857
 30
0.0
 11
-60.76915214797241
 21
168.7795077400756
 31
0.0
  0
LINE
  5
232
330
63
100
AcDbEntity
  8
0
  6
Continuous
 62
     7
100
AcDbLine
 10
-52.61915214797241
 20
168.8573342569603
 30
0.0
 11
-60.76915214797241
 21
168.8573342569603
 31
0.0
  0
LINE
  5
233
330
63
100
AcDbEntity
  8
0
  6
Continuous
 62
     7
100
AcDbLine
 10
-60.76915214797241
 20
168.7795077400756
 30
0.0
 11
-52.61915214797241
 21
168.7795077400756
 31
0.0
  0
LINE
  5
234
330
63
100
AcDbEntity
  8
0
  6
Continuous
 62
     7
100
AcDbLine
 10
-60.76915214797241
 20
160.6999991703321
 30
0.0
 11
-60.76915214797241
 21
164.5454512831857
 31
0.0
  0
LINE
  5
235
330
63
100
AcDbEntity
  8
0
  6
Continuous
 62
     7
100
AcDbLine
 10
-52.61915214797241
 20
160.6999991703321
 30
0.0
 11
-52.61915214797241
 21
164.5454512831857
 31
0.0
  0
LINE
  5
236
330
63
100
AcDbEntity
  8
0
  6
Continuous
 62
     7
100
AcDbLine
 10
-52.61915214797241
 20
164.5454512831857
 30
0.0
 11
-60.76915214797241
 21
164.5454512831857
 31
0.0
  0
LINE
  5
237
330
63
100
AcDbEntity
  8
0
  6
Continuous
 62
     7
100
AcDbLine
 10
-52.61915214797241
 20
137.5017060984171
 30
0.0
 11
-60.76915214797241
 21
137.5017060984171
 31
0.0
  0
LINE
  5
238
330
63
100
AcDbEntity
  8
0
  6
Continuous
 62
     7
100
AcDbLine
 10
-60.76915214797241
 20
137.4999991703319
 30
0.0
 11
-52.61915214797241
 21
137.4999991703319
 31
0.0
  0
LINE
  5
239
330
63
100
AcDbEntity
  8
0
  6
Continuous
 62
     7
100
AcDbLine
 10
-60.76915214797241
 20
137.5017060984171
 30
0.0
 11
-60.76915214797241
 21
141.3500012403709
 31
0.0
  0
LINE
  5
23A
330
63
100
AcDbEntity
  8
0
  6
Continuous
 62
     7
100
AcDbLine
 10
-58.26915214797241
 20
145.449999170332
 30
0.0
 11
-58.26915214797241
 21
153.549999170332
 31
0.0
  0
LINE
  5
23B
330
63
100
AcDbEntity
  8
0
  6
Continuous
 62
     7
100
AcDbLine
 10
-60.76915214797241
 20
137.4999991703319
 30
0.0
 11
-60.76915214797241
 21
137.5017060984171
 31
0.0
  0
LINE
  5
23C
330
63
100
AcDbEntity
  8
0
  6
Continuous
 62
     7
100
AcDbLine
 10
-60.76915214797241
 20
136.9499991703319
 30
0.0
 11
-60.76915214797241
 21
137.4999991703319
 31
0.0
  0
LINE
  5
23D
330
63
100
AcDbEntity
  8
0
  6
Continuous
 62
     7
100
AcDbLine
 10
-53.41915214797241
 20
144.577557915089
 30
0.0
 11
-53.41915214797241
 21
141.6683549071399
 31
0.0
  0
LINE
  5
23E
330
63
100
AcDbEntity
  8
0
  6
Continuous
 62
     7
100
AcDbLine
 10
-52.61915214797241
 20
137.5017060984171
 30
0.0
 11
-52.61915214797241
 21
141.3500012403709
 31
0.0
  0
LINE
  5
23F
330
63
100
AcDbEntity
  8
0
  6
Continuous
 62
     7
100
AcDbLine
 10
-52.61915214797241
 20
137.4999991703319
 30
0.0
 11
-52.61915214797241
 21
137.5017060984171
 31
0.0
  0
LINE
  5
240
330
63
100
AcDbEntity
  8
0
  6
Continuous
 62
     7
100
AcDbLine
 10
-52.61915214797241
 20
136.9499991703319
 30
0.0
 11
-52.61915214797241
 21
137.4999991703319
 31
0.0
  0
LINE
  5
241
330
63
100
AcDbEntity
  8
0
  6
Continuous
 62
     7
100
AcDbLine
 10
-53.96915214797241
 20
153.549999170332
 30
0.0
 11
-53.96915214797241
 21
145.449999170332
 31
0.0
  0
LINE
  5
242
330
63
100
AcDbEntity
  8
0
  6
Continuous
 62
     7
100
AcDbLine
 10
-53.41915214797241
 20
154.8179731794647
 30
0.0
 11
-53.41915214797241
 21
144.577557915089
 31
0.0
  0
LINE
  5
243
330
63
100
AcDbEntity
  8
0
  6
Continuous
 62
     7
100
AcDbLine
 10
-52.61915214797241
 20
160.6999991703321
 30
0.0
 11
-60.76915214797241
 21
160.6999991703321
 31
0.0
  0
LINE
  5
244
330
63
100
AcDbEntity
  8
0
  6
Continuous
 62
     7
100
AcDbLine
 10
-52.61915214797241
 20
141.3500012403709
 30
0.0
 11
-60.76915214797241
 21
141.3500012403709
 31
0.0
  0
LINE
  5
245
330
63
100
AcDbEntity
  8
0
  6
Continuous
 62
     7
100
AcDbLine
 10
-59.96915214797241
 20
159.0461017545431
 30
0.0
 11
-59.96915214797241
 21
155.249999170332
 31
0.0
  0
LINE
  5
246
330
63
100
AcDbEntity
  8
0
  6
Continuous
 62
     7
100
AcDbLine
 10
-59.96915214797241
 20
159.0461017545431
 30
0.0
 11
-53.41915214797241
 21
159.0461017545431
 31
0.0
  0
LINE
  5
247
330
63
100
AcDbEntity
  8
0
  6
Continuous
 62
     7
100
AcDbLine
 10
-53.41915214797241
 20
159.0461017545431
 30
0.0
 11
-53.41915214797241
 21
154.8179731794647
 31
0.0
  0
LINE
  5
248
330
63
100
AcDbEntity
  8
0
  6
Continuous
 62
     7
100
AcDbLine
 10
-58.26915214797241
 20
153.549999170332
 30
0.0
 11
-53.96915214797241
 21
153.549999170332
 31
0.0
  0
LINE
  5
249
330
63
100
AcDbEntity
  8
0
  6
Continuous
 62
     7
100
AcDbLine
 10
-59.96915214797241
 20
144.2802984325956
 30
0.0
 11
-59.96915214797241
 21
141.6683549071399
 31
0.0
  0
LINE
  5
24A
330
63
100
AcDbEntity
  8
0
  6
Continuous
 62
     7
100
AcDbLine
 10
-53.41915214797241
 20
141.6683549071399
 30
0.0
 11
-59.96915214797241
 21
141.6683549071399
 31
0.0
  0
LINE
  5
24B
330
63
100
AcDbEntity
  8
0
  6
Continuous
 62
     7
100
AcDbLine
 10
-53.96915214797241
 20
145.449999170332
 30
0.0
 11
-58.26915214797241
 21
145.449999170332
 31
0.0
  0
LINE
  5
24C
330
63
100
AcDbEntity
  8
0
  6
Continuous
 62
     7
100
AcDbLine
 10
-60.76915214797241
 20
136.9499991703319
 30
0.0
 11
-52.61915214797241
 21
136.9499991703319
 31
0.0
  0
LINE
  5
24D
330
63
100
AcDbEntity
  8
0
  6
Continuous
 62
     7
100
AcDbLine
 10
-60.76915214797241
 20
130.2594002470905
 30
0.0
 11
-60.76915214797241
 21
135.9499991703319
 31
0.0
  0
LINE
  5
24E
330
63
100
AcDbEntity
  8
0
  6
Continuous
 62
     2
100
AcDbLine
 10
-60.76915214797241
 20
130.2594002470905
 30
0.0
 11
-59.71915214797241
 21
130.2594002470904
 31
0.0
  0
LINE
  5
24F
330
63
100
AcDbEntity
  8
0
  6
Continuous
 62
     2
100
AcDbLine
 10
-60.76915214797241
 20
135.9499991703319
 30
0.0
 11
-52.61915214797241
 21
135.9499991703319
 31
0.0
  0
LINE
  5
250
330
63
100
AcDbEntity
  8
0
  6
Continuous
 62
     7
100
AcDbLine
 10
-59.96915214797241
 20
155.249999170332
 30
0.0
 11
-59.96915214797241
 21
144.2802984325956
 31
0.0
  0
LINE
  5
251
330
63
100
AcDbEntity
  8
0
  6
Continuous
 62
     7
100
AcDbLine
 10
-60.76915214797241
 20
141.3500012403709
 30
0.0
 11
-60.76915214797241
 21
160.6999991703321
 31
0.0
  0
LINE
  5
252
330
63
100
AcDbEntity
  8
0
  6
Continuous
 62
     7
100
AcDbLine
 10
-52.61915214797241
 20
141.3500012403709
 30
0.0
 11
-52.61915214797241
 21
160.6999991703321
 31
0.0
  0
LINE
  5
253
330
63
100
AcDbEntity
  8
0
  6
Continuous
 62
     7
100
AcDbLine
 10
-53.96915214797241
 20
145.449999170332
 30
0.0
 11
-53.41915214797241
 21
144.577557915089
 31
0.0
  0
LINE
  5
254
330
63
100
AcDbEntity
  8
0
  6
Continuous
 62
     7
100
AcDbLine
 10
-53.41915214797241
 20
154.8179731794647
 30
0.0
 11
-53.96915214797241
 21
153.549999170332
 31
0.0
  0
LINE
  5
255
330
63
100
AcDbEntity
  8
0
  6
Continuous
 62
     7
100
AcDbLine
 10
-58.26915214797241
 20
145.449999170332
 30
0.0
 11
-59.96915214797241
 21
144.2802984325956
 31
0.0
  0
LINE
  5
256
330
63
100
AcDbEntity
  8
0
  6
Continuous
 62
     7
100
AcDbLine
 10
-59.71915214797241
 20
128.4499991703319
 30
0.0
 11
-52.61915214797241
 21
128.4499991703319
 31
0.0
  0
LINE
  5
257
330
63
100
AcDbEntity
  8
0
  6
Continuous
 62
     7
100
AcDbLine
 10
-59.71915214797241
 20
129.3933748433059
 30
0.0
 11
-59.71915214797241
 21
130.2594002470904
 31
0.0
  0
LINE
  5
258
330
63
100
AcDbEntity
  8
0
  6
Continuous
 62
     7
100
AcDbLine
 10
-60.76915214797241
 20
127.9499991703319
 30
0.0
 11
-60.76915214797241
 21
125.4499991703319
 31
0.0
  0
LINE
  5
259
330
63
100
AcDbEntity
  8
0
  6
Continuous
 62
     7
100
AcDbLine
 10
-60.76915214797241
 20
128.3830118722241
 30
0.0
 11
-60.76915214797241
 21
127.9499991703319
 31
0.0
  0
LINE
  5
25A
330
63
100
AcDbEntity
  8
0
  6
Continuous
 62
     7
100
AcDbLine
 10
-59.71915214797241
 20
128.3830118722241
 30
0.0
 11
-59.71915214797241
 21
128.4499991703319
 31
0.0
  0
LINE
  5
25B
330
63
100
AcDbEntity
  8
0
  6
Continuous
 62
     7
100
AcDbLine
 10
-59.71915214797241
 20
128.4499991703319
 30
0.0
 11
-59.71915214797241
 21
129.3933748433059
 31
0.0
  0
LINE
  5
25C
330
63
100
AcDbEntity
  8
0
  6
Continuous
 62
     7
100
AcDbLine
 10
-60.76915214797241
 20
128.3830118722241
 30
0.0
 11
-60.76915214797241
 21
129.3933748433059
 31
0.0
  0
LINE
  5
25D
330
63
100
AcDbEntity
  8
0
  6
Continuous
 62
     7
100
AcDbLine
 10
-59.96915214797241
 20
155.249999170332
 30
0.0
 11
-58.26915214797241
 21
153.549999170332
 31
0.0
  0
ENDBLK
  5
65
330
63
100
AcDbEntity
  8
0
100
AcDbBlockEnd
  0
BLOCK
  5
68
330
66
100
AcDbEntity
  8
0
100
AcDbBlockBegin
  2
SA_links1
 70
     0
 10
-56.69415233868733
 20
149.9999995851661
 30
0.0
  3
SA_links1
  1

  0
INSERT
  5
67
330
66
100
AcDbEntity
  8
0
100
AcDbBlockReference
  2
URKN_S-select__5
 10
-60.76915214797241
 20
125.4499991703319
 30
0.0
  0
ENDBLK
  5
69
330
66
100
AcDbEntity
  8
0
100
AcDbBlockEnd
  0
BLOCK
  5
6B
330
6A
100
AcDbEntity
  8
0
100
AcDbBlockBegin
  2
URKN_S-select__6
 70
     0
 10
-137.5500010937325
 20
125.449999170332
 30
0.0
  3
URKN_S-select__6
  1

  0
LINE
  5
25E
330
6A
100
AcDbEntity
  8
0
  6
Continuous
 62
     7
100
AcDbLine
 10
-137.5500010937325
 20
125.449999170332
 30
0.0
 11
-137.5500010937325
 21
127.949999170332
 31
0.0
  0
LINE
  5
25F
330
6A
100
AcDbEntity
  8
0
  6
Continuous
 62
     7
100
AcDbLine
 10
-103.6500010937325
 20
128.849999170332
 30
0.0
 11
-103.6500010937325
 21
128.349999170332
 31
0.0
  0
LINE
  5
260
330
6A
100
AcDbEntity
  8
0
  6
Continuous
 62
     7
100
AcDbLine
 10
-103.6500010937325
 20
128.349999170332
 30
0.0
 11
-104.5000010937325
 21
128.349999170332
 31
0.0
  0
LINE
  5
261
330
6A
100
AcDbEntity
  8
0
  6
Continuous
 62
     7
100
AcDbLine
 10
-104.5000010937325
 20
128.349999170332
 30
0.0
 11
-104.5000010937325
 21
126.849999170332
 31
0.0
  0
LINE
  5
262
330
6A
100
AcDbEntity
  8
0
  6
Continuous
 62
     7
100
AcDbLine
 10
-103.3500010937325
 20
126.724999170332
 30
0.0
 11
-103.3500010937325
 21
125.449999170332
 31
0.0
  0
LINE
  5
263
330
6A
100
AcDbEntity
  8
0
  6
Continuous
 62
     7
100
AcDbLine
 10
-133.7750010937326
 20
130.549999170332
 30
0.0
 11
-132.7497217616244
 21
130.349999170332
 31
0.0
  0
LINE
  5
264
330
6A
100
AcDbEntity
  8
0
  6
Continuous
 62
     7
100
AcDbLine
 10
-106.3000010937325
 20
127.099999170332
 30
0.0
 11
-106.9400010937325
 21
127.099999170332
 31
0.0
  0
LINE
  5
265
330
6A
100
AcDbEntity
  8
0
  6
Continuous
 62
     7
100
AcDbLine
 10
-106.3000010937325
 20
125.449999170332
 30
0.0
 11
-106.3000010937325
 21
127.099999170332
 31
0.0
  0
LINE
  5
266
330
6A
100
AcDbEntity
  8
0
  6
Continuous
 62
     7
100
AcDbLine
 10
-103.3500010937325
 20
125.449999170332
 30
0.0
 11
-106.3000010937325
 21
125.449999170332
 31
0.0
  0
LINE
  5
267
330
6A
100
AcDbEntity
  8
0
  6
Continuous
 62
     7
100
AcDbLine
 10
-134.1434792598581
 20
125.449999170332
 30
0.0
 11
-137.5500010937325
 21
125.449999170332
 31
0.0
  0
LINE
  5
268
330
6A
100
AcDbEntity
  8
0
  6
Continuous
 62
     7
100
AcDbLine
 10
-130.4750010937325
 20
137.999999170332
 30
0.0
 11
-133.5928943125459
 21
137.999999170332
 31
0.0
  0
LINE
  5
269
330
6A
100
AcDbEntity
  8
0
  6
Continuous
 62
     7
100
AcDbLine
 10
-132.5693183852232
 20
164.2940705442544
 30
0.0
 11
-132.8332676187662
 21
163.8368970611391
 31
0.0
  0
LINE
  5
26A
330
6A
100
AcDbEntity
  8
0
  6
Continuous
 62
     7
100
AcDbLine
 10
-132.8332676187662
 20
163.8368970611391
 30
0.0
 11
-131.9066204367169
 21
163.3018970611391
 31
0.0
  0
LINE
  5
26B
330
6A
100
AcDbEntity
  8
0
  6
Continuous
 62
     7
100
AcDbLine
 10
-133.6500010937326
 20
135.2472794694664
 30
0.0
 11
-133.6500010937326
 21
134.0356398163871
 31
0.0
  0
LINE
  5
26C
330
6A
100
AcDbEntity
  8
0
  6
Continuous
 62
     7
100
AcDbLine
 10
-131.2951739062445
 20
170.7109535180291
 30
0.0
 11
-129.0786998654561
 21
174.549999170332
 31
0.0
  0
LINE
  5
26D
330
6A
100
AcDbEntity
  8
0
  6
Continuous
 62
     7
100
AcDbLine
 10
-134.0500010937325
 20
136.949999170332
 30
0.0
 11
-130.4750010937325
 21
136.949999170332
 31
0.0
  0
LINE
  5
26E
330
6A
100
AcDbEntity
  8
0
  6
Continuous
 62
     7
100
AcDbLine
 10
-132.7497217616244
 20
130.349999170332
 30
0.0
 11
-132.7497217616244
 21
130.1499991703302
 31
0.0
  0
LINE
  5
26F
330
6A
100
AcDbEntity
  8
0
  6
Continuous
 62
     7
100
AcDbLine
 10
-104.8750010937325
 20
134.3756170873183
 30
0.0
 11
-103.6500010937325
 21
128.849999170332
 31
0.0
  0
LINE
  5
270
330
6A
100
AcDbEntity
  8
0
  6
Continuous
 62
     7
100
AcDbLine
 10
-113.8250010937325
 20
174.549999170332
 30
0.0
 11
-113.8250010937325
 21
167.549999170332
 31
0.0
  0
LINE
  5
271
330
6A
100
AcDbEntity
  8
0
  6
Continuous
 62
     7
100
AcDbLine
 10
-111.6750010937325
 20
174.549999170332
 30
0.0
 11
-113.8250010937325
 21
174.549999170332
 31
0.0
  0
LINE
  5
272
330
6A
100
AcDbEntity
  8
0
  6
Continuous
 62
     7
100
AcDbLine
 10
-117.3250010937325
 20
174.549999170332
 30
0.0
 11
-119.4750010937325
 21
174.549999170332
 31
0.0
  0
LINE
  5
273
330
6A
100
AcDbEntity
  8
0
  6
Continuous
 62
     7
100
AcDbLine
 10
-117.3250010937325
 20
174.549999170332
 30
0.0
 11
-117.3250010937325
 21
167.549999170332
 31
0.0
  0
LINE
  5
274
330
6A
100
AcDbEntity
  8
0
  6
Continuous
 62
     7
100
AcDbLine
 10
-129.9347168523092
 20
168.8573342569603
 30
0.0
 11
-131.2951739062445
 21
170.7109535180291
 31
0.0
  0
LINE
  5
275
330
6A
100
AcDbEntity
  8
0
  6
Continuous
 62
     7
100
AcDbLine
 10
-119.4750010937325
 20
174.549999170332
 30
0.0
 11
-129.0786998654561
 21
174.549999170332
 31
0.0
  0
LINE
  5
276
330
6A
100
AcDbEntity
  8
0
  6
Continuous
 62
     7
100
AcDbLine
 10
-119.4750010937325
 20
161.149999170332
 30
0.0
 11
-119.4750010937325
 21
174.549999170332
 31
0.0
  0
LINE
  5
277
330
6A
100
AcDbEntity
  8
0
  6
Continuous
 62
     7
100
AcDbLine
 10
-111.6750010937325
 20
174.549999170332
 30
0.0
 11
-111.6750010937325
 21
161.149999170332
 31
0.0
  0
LINE
  5
278
330
6A
100
AcDbEntity
  8
0
  6
Continuous
 62
     7
100
AcDbLine
 10
-102.0713023220089
 20
174.549999170332
 30
0.0
 11
-111.6750010937325
 21
174.549999170332
 31
0.0
  0
LINE
  5
279
330
6A
100
AcDbEntity
  8
0
  6
Continuous
 62
     7
100
AcDbLine
 10
-101.2152853351559
 20
168.8573342569604
 30
0.0
 11
-101.4792345686988
 21
169.3145077400757
 31
0.0
  0
LINE
  5
27A
330
6A
100
AcDbEntity
  8
0
  6
Continuous
 62
     7
100
AcDbLine
 10
-129.6707676187662
 20
169.3145077400757
 30
0.0
 11
-129.9347168523092
 21
168.8573342569603
 31
0.0
  0
LINE
  5
27B
330
6A
100
AcDbEntity
  8
0
  6
Continuous
 62
     7
100
AcDbLine
 10
-129.2386762283273
 20
134.849999170332
 30
0.0
 11
-133.6500010937326
 21
135.2472794694664
 31
0.0
  0
LINE
  5
27C
330
6A
100
AcDbEntity
  8
0
  6
Continuous
 62
     7
100
AcDbLine
 10
-104.8750010937325
 20
135.449999170332
 30
0.0
 11
-104.8750010937325
 21
134.3756170873183
 31
0.0
  0
LINE
  5
27D
330
6A
100
AcDbEntity
  8
0
  6
Continuous
 62
     7
100
AcDbLine
 10
-103.3750010937325
 20
134.1181211347548
 30
0.0
 11
-103.3750010937325
 21
135.449999170332
 31
0.0
  0
LINE
  5
27E
330
6A
100
AcDbEntity
  8
0
  6
Continuous
 62
     7
100
AcDbLine
 10
-101.4792345686988
 20
169.3145077400757
 30
0.0
 11
-102.4058817507481
 21
168.7795077400758
 31
0.0
  0
LINE
  5
27F
330
6A
100
AcDbEntity
  8
0
  6
Continuous
 62
     7
100
AcDbLine
 10
-128.7441204367169
 20
168.7795077400757
 30
0.0
 11
-129.6707676187662
 21
169.3145077400757
 31
0.0
  0
LINE
  5
280
330
6A
100
AcDbEntity
  8
0
  6
Continuous
 62
     7
100
AcDbLine
 10
-99.85482828122066
 20
170.710953518029
 30
0.0
 11
-101.2152853351559
 21
168.8573342569604
 31
0.0
  0
LINE
  5
281
330
6A
100
AcDbEntity
  8
0
  6
Continuous
 62
     7
100
AcDbLine
 10
-102.0713023220089
 20
174.549999170332
 30
0.0
 11
-99.85482828122066
 21
170.710953518029
 31
0.0
  0
LINE
  5
282
330
6A
100
AcDbEntity
  8
0
  6
Continuous
 62
     7
100
AcDbLine
 10
-137.0750010937325
 20
141.350001240371
 30
0.0
 11
-137.0750010937325
 21
160.6999991703322
 31
0.0
  0
LINE
  5
283
330
6A
100
AcDbEntity
  8
0
  6
Continuous
 62
     7
100
AcDbLine
 10
-137.0500010937325
 20
128.449999170332
 30
0.0
 11
-136.8000010937325
 21
128.449999170332
 31
0.0
  0
LINE
  5
284
330
6A
100
AcDbEntity
  8
0
  6
Continuous
 62
     7
100
AcDbLine
 10
-136.437932128215
 20
128.294826756539
 30
0.0
 11
-136.386207990284
 21
128.2405164117114
 31
0.0
  0
LINE
  5
285
330
6A
100
AcDbEntity
  8
0
  6
Continuous
 62
     7
100
AcDbLine
 10
-136.5000010937325
 20
127.1154538724182
 30
0.0
 11
-136.5000010937325
 21
126.4999991703319
 31
0.0
  0
LINE
  5
286
330
6A
100
AcDbEntity
  8
0
  6
Continuous
 62
     7
100
AcDbLine
 10
-136.5000010937325
 20
126.4999991703319
 30
0.0
 11
-135.0500010937325
 21
126.4999991703319
 31
0.0
  0
LINE
  5
287
330
6A
100
AcDbEntity
  8
0
  6
Continuous
 62
     7
100
AcDbLine
 10
-135.0500010937325
 20
126.4999991703319
 30
0.0
 11
-135.0500010937325
 21
130.2594002470905
 31
0.0
  0
LINE
  5
288
330
6A
100
AcDbEntity
  8
0
  6
Continuous
 62
     7
100
AcDbLine
 10
-135.0500010937325
 20
130.2594002470905
 30
0.0
 11
-135.0500010937325
 21
135.949999170332
 31
0.0
  0
LINE
  5
289
330
6A
100
AcDbEntity
  8
0
  6
Continuous
 62
     7
100
AcDbLine
 10
-134.3505726126379
 20
137.5017060984172
 30
0.0
 11
-136.0438535182094
 21
137.5017060984172
 31
0.0
  0
LINE
  5
28A
330
6A
100
AcDbEntity
  8
0
  6
Continuous
 62
     7
100
AcDbLine
 10
-133.6500010937326
 20
134.0356398163871
 30
0.0
 11
-132.8500010937325
 21
132.649999170332
 31
0.0
  0
LINE
  5
28B
330
6A
100
AcDbEntity
  8
0
  6
Continuous
 62
     7
100
AcDbLine
 10
-134.8548282812206
 20
164.5454512831858
 30
0.0
 11
-132.5693183852232
 21
164.2940705442544
 31
0.0
  0
LINE
  5
28C
330
6A
100
AcDbEntity
  8
0
  6
Continuous
 62
     7
100
AcDbLine
 10
-137.0750010937325
 20
160.6999991703322
 30
0.0
 11
-134.8548282812206
 21
164.5454512831858
 31
0.0
  0
LINE
  5
28D
330
6A
100
AcDbEntity
  8
0
  6
Continuous
 62
     7
100
AcDbLine
 10
-136.0438535182094
 20
137.5017060984172
 30
0.0
 11
-137.0750010937325
 21
141.350001240371
 31
0.0
  0
LINE
  5
28E
330
6A
100
AcDbEntity
  8
0
  6
Continuous
 62
     7
100
AcDbLine
 10
-123.1500010937326
 20
134.349999170332
 30
0.0
 11
-128.9500010937325
 21
134.349999170332
 31
0.0
  0
LINE
  5
28F
330
6A
100
AcDbEntity
  8
0
  6
Continuous
 62
     7
100
AcDbLine
 10
-122.8205818049978
 20
135.5794086928832
 30
0.0
 11
-123.1500010937326
 21
134.349999170332
 31
0.0
  0
LINE
  5
290
330
6A
100
AcDbEntity
  8
0
  6
Continuous
 62
     7
100
AcDbLine
 10
-122.2250010937325
 20
135.949999170332
 30
0.0
 11
-122.3376188918533
 21
135.949999170332
 31
0.0
  0
LINE
  5
291
330
6A
100
AcDbEntity
  8
0
  6
Continuous
 62
     7
100
AcDbLine
 10
-103.8750010937325
 20
135.949999170332
 30
0.0
 11
-104.3750010937325
 21
135.949999170332
 31
0.0
  0
LINE
  5
292
330
6A
100
AcDbEntity
  8
0
  6
Continuous
 62
     7
100
AcDbLine
 10
-94.07500109373252
 20
141.3500012403709
 30
0.0
 11
-95.159860702559
 21
128.949999170332
 31
0.0
  0
LINE
  5
293
330
6A
100
AcDbEntity
  8
0
  6
Continuous
 62
     7
100
AcDbLine
 10
-132.8500010937325
 20
131.9504110724382
 30
0.0
 11
-133.9865934705827
 21
131.749999170332
 31
0.0
  0
LINE
  5
294
330
6A
100
AcDbEntity
  8
0
  6
Continuous
 62
     7
100
AcDbLine
 10
-98.77500109373254
 20
131.749999170332
 30
0.0
 11
-102.8500010937324
 21
131.749999170332
 31
0.0
  0
LINE
  5
295
330
6A
100
AcDbEntity
  8
0
  6
Continuous
 62
     7
100
AcDbLine
 10
-98.77500109373253
 20
130.549999170332
 30
0.0
 11
-98.77500109373254
 21
131.749999170332
 31
0.0
  0
LINE
  5
296
330
6A
100
AcDbEntity
  8
0
  6
Continuous
 62
     7
100
AcDbLine
 10
-99.57500109373252
 20
130.349999170332
 30
0.0
 11
-98.77500109373253
 21
130.549999170332
 31
0.0
  0
LINE
  5
297
330
6A
100
AcDbEntity
  8
0
  6
Continuous
 62
     7
100
AcDbLine
 10
-99.57500109373252
 20
129.899999170332
 30
0.0
 11
-99.57500109373252
 21
130.349999170332
 31
0.0
  0
LINE
  5
298
330
6A
100
AcDbEntity
  8
0
  6
Continuous
 62
     7
100
AcDbLine
 10
-98.62500109373252
 20
128.949999170332
 30
0.0
 11
-99.57500109373252
 21
129.899999170332
 31
0.0
  0
LINE
  5
299
330
6A
100
AcDbEntity
  8
0
  6
Continuous
 62
     7
100
AcDbLine
 10
-95.159860702559
 20
128.949999170332
 30
0.0
 11
-98.62500109373252
 21
128.949999170332
 31
0.0
  0
LINE
  5
29A
330
6A
100
AcDbEntity
  8
0
  6
Continuous
 62
     7
100
AcDbLine
 10
-137.3000010937325
 20
128.3830118722242
 30
0.0
 11
-135.5500010937325
 21
129.393374843306
 31
0.0
  0
LINE
  5
29B
330
6A
100
AcDbEntity
  8
0
  6
Continuous
 62
     7
100
AcDbLine
 10
-117.3250010937325
 20
167.549999170332
 30
0.0
 11
-113.8250010937325
 21
167.549999170332
 31
0.0
  0
LINE
  5
29C
330
6A
100
AcDbEntity
  8
0
  6
Continuous
 62
     7
100
AcDbLine
 10
-132.8500010937325
 20
132.649999170332
 30
0.0
 11
-132.8500010937325
 21
131.9504110724382
 31
0.0
  0
LINE
  5
29D
330
6A
100
AcDbEntity
  8
0
  6
Continuous
 62
     7
100
AcDbLine
 10
-102.8500010937324
 20
131.749999170332
 30
0.0
 11
-103.3750010937325
 21
134.1181211347548
 31
0.0
  0
LINE
  5
29E
330
6A
100
AcDbEntity
  8
0
  6
Continuous
 62
     7
100
AcDbLine
 10
-102.4058817507481
 20
168.7795077400758
 30
0.0
 11
-99.24338175074821
 21
163.301897061139
 31
0.0
  0
LINE
  5
29F
330
6A
100
AcDbEntity
  8
0
  6
Continuous
 62
     7
100
AcDbLine
 10
-119.4750010937325
 20
161.149999170332
 30
0.0
 11
-111.6750010937325
 21
161.149999170332
 31
0.0
  0
LINE
  5
2A0
330
6A
100
AcDbEntity
  8
0
  6
Continuous
 62
     7
100
AcDbLine
 10
-99.24338175074821
 20
163.301897061139
 30
0.0
 11
-98.31673456869883
 21
163.8368970611391
 31
0.0
  0
LINE
  5
2A1
330
6A
100
AcDbEntity
  8
0
  6
Continuous
 62
     7
100
AcDbLine
 10
-98.31673456869883
 20
163.8368970611391
 30
0.0
 11
-98.58068380224182
 21
164.2940705442544
 31
0.0
  0
LINE
  5
2A2
330
6A
100
AcDbEntity
  8
0
  6
Continuous
 62
     7
100
AcDbLine
 10
-98.58068380224182
 20
164.2940705442544
 30
0.0
 11
-96.2951739062445
 21
164.5454512831858
 31
0.0
  0
LINE
  5
2A3
330
6A
100
AcDbEntity
  8
0
  6
Continuous
 62
     7
100
AcDbLine
 10
-128.9500010937325
 20
134.349999170332
 30
0.0
 11
-129.2386762283273
 21
134.849999170332
 31
0.0
  0
LINE
  5
2A4
330
6A
100
AcDbEntity
  8
0
  6
Continuous
 62
     7
100
AcDbLine
 10
-121.7250010937325
 20
133.099999170332
 30
0.0
 11
-121.7250010937325
 21
135.449999170332
 31
0.0
  0
LINE
  5
2A5
330
6A
100
AcDbEntity
  8
0
  6
Continuous
 62
     7
100
AcDbLine
 10
-94.07500109373262
 20
160.6999991703321
 30
0.0
 11
-94.07500109373252
 21
141.3500012403709
 31
0.0
  0
LINE
  5
2A6
330
6A
100
AcDbEntity
  8
0
  6
Continuous
 62
     7
100
AcDbLine
 10
-96.2951739062445
 20
164.5454512831858
 30
0.0
 11
-94.07500109373262
 21
160.6999991703321
 31
0.0
  0
LINE
  5
2A7
330
6A
100
AcDbEntity
  8
0
  6
Continuous
 62
     7
100
AcDbLine
 10
-133.9865934705827
 20
131.749999170332
 30
0.0
 11
-133.7750010937326
 21
130.549999170332
 31
0.0
  0
LINE
  5
2A8
330
6A
100
AcDbEntity
  8
0
  6
Continuous
 62
     7
100
AcDbLine
 10
-104.5000010937325
 20
126.849999170332
 30
0.0
 11
-103.3500010937325
 21
126.724999170332
 31
0.0
  0
LINE
  5
2A9
330
6A
100
AcDbEntity
  8
0
  6
Continuous
 62
     7
100
AcDbLine
 10
-131.9066204367169
 20
163.3018970611391
 30
0.0
 11
-128.7441204367169
 21
168.7795077400757
 31
0.0
  0
ARC
  5
2AA
330
6A
100
AcDbEntity
  8
0
  6
Continuous
 62
     7
100
AcDbCircle
 10
-121.3250010937325
 20
129.995999170332
 30
0.0
 40
0.3999999999999561
100
AcDbArc
 50
228.6834170699418
 51
6.92372084405285
  0
ARC
  5
2AB
330
6A
100
AcDbEntity
  8
0
  6
Continuous
 62
     7
100
AcDbCircle
 10
-106.9400010937325
 20
129.099999170332
 30
0.0
 40
1.999999999999953
100
AcDbArc
 50
214.3280352333769
 51
270.0
  0
ARC
  5
2AC
330
6A
100
AcDbEntity
  8
0
  6
Continuous
 62
     7
100
AcDbCircle
 10
-119.3773548188389
 20
132.2116647560856
 30
0.0
 40
3.349999999999878
100
AcDbArc
 50
182.4150421413325
 51
228.6834170699555
  0
ARC
  5
2AD
330
6A
100
AcDbEntity
  8
0
  6
Continuous
 62
     7
100
AcDbCircle
 10
-136.8000010937325
 20
127.949999170332
 30
0.0
 40
0.5000000000002568
100
AcDbArc
 50
43.6028189726925
 51
90.0
  0
ARC
  5
2AE
330
6A
100
AcDbEntity
  8
0
  6
Continuous
 62
     7
100
AcDbCircle
 10
-136.8750010937323
 20
127.7749991703321
 30
0.0
 40
0.6750000000000088
100
AcDbArc
 50
311.0823331404352
 51
43.6028189727025
  0
ARC
  5
2AF
330
6A
100
AcDbEntity
  8
0
  6
Continuous
 62
     7
100
AcDbCircle
 10
-136.3000010937325
 20
127.1154538724182
 30
0.0
 40
0.20000000000004
100
AcDbArc
 50
131.0823331404147
 51
180.0
  0
ARC
  5
2B0
330
6A
100
AcDbEntity
  8
0
  6
Continuous
 62
     7
100
AcDbCircle
 10
-134.0500010937325
 20
135.949999170332
 30
0.0
 40
1.0
100
AcDbArc
 50
90.0
 51
180.0
  0
ARC
  5
2B1
330
6A
100
AcDbEntity
  8
0
  6
Continuous
 62
     7
100
AcDbCircle
 10
-134.3000010937325
 20
138.249999170332
 30
0.0
 40
0.7500000000000456
100
AcDbArc
 50
266.1336869730241
 51
340.5287793655109
  0
ARC
  5
2B2
330
6A
100
AcDbEntity
  8
0
  6
Continuous
 62
     7
100
AcDbCircle
 10
-142.2461778826472
 20
130.409462349775
 30
0.0
 40
9.499999999999948
100
AcDbArc
 50
328.530221416036
 51
358.4349480050349
  0
ARC
  5
2B3
330
6A
100
AcDbEntity
  8
0
  6
Continuous
 62
     7
100
AcDbCircle
 10
-122.3376188918533
 20
135.449999170332
 30
0.0
 40
0.5
100
AcDbArc
 50
90.0
 51
165.0000000000074
  0
ARC
  5
2B4
330
6A
100
AcDbEntity
  8
0
  6
Continuous
 62
     7
100
AcDbCircle
 10
-122.2250010937325
 20
135.449999170332
 30
0.0
 40
0.5
100
AcDbArc
 50
0.0
 51
90.0
  0
ARC
  5
2B5
330
6A
100
AcDbEntity
  8
0
  6
Continuous
 62
     7
100
AcDbCircle
 10
-104.3750010937325
 20
135.449999170332
 30
0.0
 40
0.5
100
AcDbArc
 50
90.0
 51
180.0
  0
ARC
  5
2B6
330
6A
100
AcDbEntity
  8
0
  6
Continuous
 62
     7
100
AcDbCircle
 10
-103.8750010937325
 20
135.449999170332
 30
0.0
 40
0.5
100
AcDbArc
 50
0.0
 51
90.0
  0
ARC
  5
2B7
330
6A
100
AcDbEntity
  8
0
  6
Continuous
 62
     7
100
AcDbCircle
 10
-136.0500010937325
 20
130.2594002470905
 30
0.0
 40
1.000000000000058
100
AcDbArc
 50
299.9999999999981
 51
0.0
  0
ARC
  5
2B8
330
6A
100
AcDbEntity
  8
0
  6
Continuous
 62
     7
100
AcDbCircle
 10
-137.0500010937325
 20
127.949999170332
 30
0.0
 40
0.5
100
AcDbArc
 50
90.0
 51
120.0000000000022
  0
ARC
  5
2B9
330
6A
100
AcDbEntity
  8
0
  6
Continuous
 62
     7
100
AcDbCircle
 10
-137.0500010937325
 20
127.949999170332
 30
0.0
 40
0.4999999999999672
100
AcDbArc
 50
120.0000000000022
 51
180.0
  0
ARC
  5
2BA
330
6A
100
AcDbEntity
  8
0
  6
Continuous
 62
     7
100
AcDbCircle
 10
-116.9500010937325
 20
115.449999170332
 30
0.0
 40
16.2
100
AcDbArc
 50
77.66476782071845
 51
100.7064869688795
  0
ARC
  5
2BB
330
6A
100
AcDbEntity
  8
0
  6
Continuous
 62
     7
100
AcDbCircle
 10
-130.4750010937325
 20
137.474999170332
 30
0.0
 40
0.5250000000000057
100
AcDbArc
 50
270.0
 51
90.0
  0
ARC
  5
2BC
330
6A
100
AcDbEntity
  8
0
  6
Continuous
 62
     7
100
AcDbCircle
 10
-122.0250010937326
 20
133.099999170332
 30
0.0
 40
0.3000000000000114
100
AcDbArc
 50
270.0
 51
0.0
  0
ARC
  5
2BD
330
6A
100
AcDbEntity
  8
0
  6
Continuous
 62
     7
100
AcDbCircle
 10
-122.0250010937326
 20
132.099999170332
 30
0.0
 40
0.6999999999999886
100
AcDbArc
 50
90.0
 51
182.4150421413327
  0
ARC
  5
2BE
330
6A
100
AcDbEntity
  8
0
  6
Continuous
 62
     7
100
AcDbCircle
 10
-119.7366690627263
 20
130.1888757092879
 30
0.0
 40
1.199999999999902
100
AcDbArc
 50
100.7064869688795
 51
186.9237208440686
  0
ARC
  5
2BF
330
6A
100
AcDbEntity
  8
0
  6
Continuous
 62
     7
100
AcDbCircle
 10
-115.1982256767407
 20
123.4606971978714
 30
0.0
 40
8.000000000000004
100
AcDbArc
 50
34.32803523337624
 51
77.66476782071864
  0
ENDBLK
  5
6C
330
6A
100
AcDbEntity
  8
0
100
AcDbBlockEnd
  0
BLOCK
  5
6F
330
6D
100
AcDbEntity
  8
0
100
AcDbBlockBegin
  2
Vordans1
 70
     0
 10
-115.8125000468662
 20
149.9999995851661
 30
0.0
  3
Vordans1
  1

  0
INSERT
  5
6E
330
6D
100
AcDbEntity
  8
0
100
AcDbBlockReference
  2
URKN_S-select__6
 10
-137.5500010937325
 20
125.449999170332
 30
0.0
  0
LINE
  5
2C0
330
6D
100
AcDbEntity
  8
1
  6
Continuous
 62
     2
100
AcDbLine
 10
-116.2750010937326
 20
133.321500258395
 30
0.0
 11
-116.2750010937326
 21
129.5958195464169
 31
0.0
  0
DIMENSION
  5
2CB
330
6D
100
AcDbEntity
  8
1
100
AcDbDimension
  2
*D18
 10
-116.2750010937326
 20
113.380638697307
 30
0.0
 11
-107.730975008539
 21
116.805638697307
 31
0.0
 70
    32
  1
<>
 71
     5
 42
-1.0
 53
0.00013888888889
  3
ME10_DIM_11
100
AcDbAlignedDimension
 13
-98.77500109373253
 23
130.549999170332
 33
0.0
 14
-116.2750010937326
 24
129.5958195464169
 34
0.0
100
AcDbRotatedDimension
  0
DIMENSION
  5
2D6
330
6D
100
AcDbEntity
  8
1
100
AcDbDimension
  2
*D19
 10
-116.2750010937326
 20
105.380638697307
 30
0.0
 11
-105.282645080593
 21
108.805638697307
 31
0.0
 70
    32
  1
<>
 71
     5
 42
-1.0
 53
0.00013888888889
  3
ME10_DIM_12
100
AcDbAlignedDimension
 13
-94.07500109373252
 23
141.3500012403709
 33
0.0
 14
-116.2750010937326
 24
129.5958195464169
 34
0.0
100
AcDbRotatedDimension
  0
DIMENSION
  5
2E1
330
6D
100
AcDbEntity
  8
1
100
AcDbDimension
  2
*D20
 10
-137.5500010937325
 20
97.380638697307
 30
0.0
 11
-116.475010465489
 21
100.805638697307
 31
0.0
 70
    32
  1
<>
 71
     5
 42
-1.0
 53
0.00013888888889
  3
ME10_DIM_13
100
AcDbAlignedDimension
 13
-94.07500109373252
 23
141.3500012403709
 33
0.0
 14
-137.5500010937325
 24
125.449999170332
 34
0.0
100
AcDbRotatedDimension
  0
DIMENSION
  5
2EC
330
6D
100
AcDbEntity
  8
1
100
AcDbDimension
  2
*D21
 10
-147.5500010937325
 20
131.749999170332
 30
0.0
 11
-150.9750010937325
 21
154.278191471074
 31
0.0
 70
    32
  1
<>
 71
     5
 42
-1.0
 53
90.0
  3
ME10_DIM_14
100
AcDbAlignedDimension
 13
-129.0786998654561
 23
174.549999170332
 33
0.0
 14
-102.8500010937324
 24
131.749999170332
 34
0.0
 50
90.0
100
AcDbRotatedDimension
  0
DIMENSION
  5
2F7
330
6D
100
AcDbEntity
  8
1
100
AcDbDimension
  2
*D22
 10
-155.5500010937325
 20
125.449999170332
 30
0.0
 11
-158.9750010937325
 21
149.847880172886
 31
0.0
 70
    32
  1
<>
 71
     5
 42
-1.0
 53
90.0
  3
ME10_DIM_15
100
AcDbAlignedDimension
 13
-129.0786998654561
 23
174.549999170332
 33
0.0
 14
-137.5500010937325
 24
125.449999170332
 34
0.0
 50
90.0
100
AcDbRotatedDimension
  0
ENDBLK
  5
70
330
6D
100
AcDbEntity
  8
0
100
AcDbBlockEnd
  0
BLOCK
  5
72
330
71
100
AcDbEntity
  8
0
100
AcDbBlockBegin
  2
_rahmen
 70
     0
 10
62.83125047590572
 20
2.54508692059187
 30
0.0
  3
_rahmen
  1

  0
LINE
  5
2F8
330
71
100
AcDbEntity
  8
1
  6
Continuous
 62
     6
100
AcDbLine
 10
-66.7135540508443
 20
33.04508692059198
 30
0.0
 11
62.83125047590741
 21
33.04508692059198
 31
0.0
  0
LINE
  5
2F9
330
71
100
AcDbEntity
  8
1
  6
Continuous
 62
     7
100
AcDbLine
 10
-48.51355405084428
 20
11.79508692059198
 30
0.0
 11
-30.31355405084437
 21
11.79508692059198
 31
0.0
  0
LINE
  5
2FA
330
71
100
AcDbEntity
  8
1
  6
Continuous
 62
     6
100
AcDbLine
 10
-48.51355405084428
 20
7.54508692059198
 30
0.0
 11
-66.7135540508443
 21
7.54508692059187
 31
0.0
  0
LINE
  5
2FB
330
71
100
AcDbEntity
  8
1
  6
Continuous
 62
     7
100
AcDbLine
 10
-48.51355405084428
 20
11.79508692059198
 30
0.0
 11
-48.51355405084428
 21
7.54508692059198
 31
0.0
  0
LINE
  5
2FC
330
71
100
AcDbEntity
  8
1
  6
Continuous
 62
     7
100
AcDbLine
 10
-30.31355405084437
 20
11.79508692059198
 30
0.0
 11
-30.31355405084437
 21
7.54508692059187
 31
0.0
  0
LINE
  5
2FD
330
71
100
AcDbEntity
  8
1
  6
Continuous
 62
     7
100
AcDbLine
 10
-66.7135540508443
 20
11.79508692059187
 30
0.0
 11
-66.7135540508443
 21
7.54508692059187
 31
0.0
  0
LINE
  5
2FE
330
71
100
AcDbEntity
  8
1
  6
Continuous
 62
     7
100
AcDbLine
 10
-66.7135540508443
 20
11.79508692059187
 30
0.0
 11
-48.51355405084428
 21
11.79508692059198
 31
0.0
  0
LINE
  5
2FF
330
71
100
AcDbEntity
  8
1
  6
Continuous
 62
     2
100
AcDbLine
 10
-57.47689916428169
 20
31.1700869205919
 30
0.0
 11
-57.47689916428169
 21
26.1700869205919
 31
0.0
  0
LINE
  5
300
330
71
100
AcDbEntity
  8
1
  6
Continuous
 62
     2
100
AcDbLine
 10
-57.47689916428169
 20
26.1700869205919
 30
0.0
 11
-62.47689916428169
 21
27.4200869205919
 31
0.0
  0
LINE
  5
301
330
71
100
AcDbEntity
  8
1
  6
Continuous
 62
     2
100
AcDbLine
 10
-62.47689916428169
 20
27.4200869205919
 30
0.0
 11
-62.47689916428169
 21
29.9200869205919
 31
0.0
  0
LINE
  5
302
330
71
100
AcDbEntity
  8
1
  6
Continuous
 62
     2
100
AcDbLine
 10
-62.47689916428169
 20
29.9200869205919
 30
0.0
 11
-57.47689916428169
 21
31.1700869205919
 31
0.0
  0
LINE
  5
303
330
71
100
AcDbEntity
  8
1
  6
Continuous
 62
     6
100
AcDbLine
 10
-189.1687495240925
 20
7.54508692059198
 30
0.0
 11
-224.1687495240924
 21
7.54508692059198
 31
0.0
  0
LINE
  5
304
330
71
100
AcDbEntity
  8
1
  6
Continuous
 62
     6
100
AcDbLine
 10
62.83125047590741
 20
24.54508692059198
 30
0.0
 11
62.83125047590701
 21
16.04508692059198
 31
0.0
  0
LINE
  5
305
330
71
100
AcDbEntity
  8
1
  6
Continuous
 62
     6
100
AcDbLine
 10
-30.31355405084437
 20
7.54508692059187
 30
0.0
 11
-30.6687495240943
 21
7.54508692059198
 31
0.0
  0
LINE
  5
306
330
71
100
AcDbEntity
  8
1
  6
Continuous
 62
     6
100
AcDbLine
 10
-182.9687495240945
 20
7.54508692059187
 30
0.0
 11
-189.1687495240925
 21
7.54508692059198
 31
0.0
  0
LINE
  5
307
330
71
100
AcDbEntity
  8
1
  6
Continuous
 62
     7
100
AcDbLine
 10
-30.31355405084437
 20
24.54508692059198
 30
0.0
 11
-30.31355405084437
 21
11.79508692059198
 31
0.0
  0
LINE
  5
308
330
71
100
AcDbEntity
  8
1
  6
Continuous
 62
     7
100
AcDbLine
 10
-66.7135540508443
 20
24.54508692059198
 30
0.0
 11
-66.7135540508443
 21
11.79508692059187
 31
0.0
  0
LINE
  5
309
330
71
100
AcDbEntity
  8
1
  6
Continuous
 62
     6
100
AcDbLine
 10
-80.66874952409427
 20
7.54508692059198
 30
0.0
 11
-130.6687495240945
 21
7.54508692059198
 31
0.0
  0
LINE
  5
30A
330
71
100
AcDbEntity
  8
1
  6
Continuous
 62
     6
100
AcDbLine
 10
-182.9687495240945
 20
7.54508692059187
 30
0.0
 11
-180.6687495240943
 21
7.54508692059198
 31
0.0
  0
LINE
  5
30B
330
71
100
AcDbEntity
  8
1
  6
Continuous
 62
     6
100
AcDbLine
 10
-30.31355405084437
 20
7.54508692059187
 30
0.0
 11
19.33125047590571
 21
7.54508692059198
 31
0.0
  0
LINE
  5
30C
330
71
100
AcDbEntity
  8
1
  6
Continuous
 62
     6
100
AcDbLine
 10
62.83125047590572
 20
7.54508692059198
 30
0.0
 11
62.83125047590701
 21
16.04508692059198
 31
0.0
  0
LINE
  5
30D
330
71
100
AcDbEntity
  8
1
  6
Continuous
 62
     2
100
AcDbLine
 10
-229.1687495240934
 20
7.54508692059198
 30
0.0
 11
-229.1687495240934
 21
2.54508692059187
 31
0.0
  0
LINE
  5
30E
330
71
100
AcDbEntity
  8
1
  6
Continuous
 62
     2
100
AcDbLine
 10
-224.1687495240924
 20
7.54508692059198
 30
0.0
 11
-229.1687495240934
 21
7.54508692059198
 31
0.0
  0
LINE
  5
30F
330
71
100
AcDbEntity
  8
1
  6
Continuous
 62
     2
100
AcDbLine
 10
-224.1687495240924
 20
2.54508692059187
 30
0.0
 11
-180.6687495240943
 21
2.54508692059187
 31
0.0
  0
LINE
  5
310
330
71
100
AcDbEntity
  8
1
  6
Continuous
 62
     2
100
AcDbLine
 10
-224.1687495240924
 20
7.54508692059198
 30
0.0
 11
-224.1687495240924
 21
2.54508692059187
 31
0.0
  0
LINE
  5
311
330
71
100
AcDbEntity
  8
1
  6
Continuous
 62
     2
100
AcDbLine
 10
19.33125047590571
 20
2.54508692059187
 30
0.0
 11
-30.6687495240943
 21
2.54508692059187
 31
0.0
  0
LINE
  5
312
330
71
100
AcDbEntity
  8
1
  6
Continuous
 62
     2
100
AcDbLine
 10
19.33125047590571
 20
2.54508692059187
 30
0.0
 11
19.33125047590571
 21
7.54508692059198
 31
0.0
  0
LINE
  5
313
330
71
100
AcDbEntity
  8
1
  6
Continuous
 62
     2
100
AcDbLine
 10
-30.6687495240943
 20
2.54508692059187
 30
0.0
 11
-30.6687495240943
 21
7.54508692059198
 31
0.0
  0
LINE
  5
314
330
71
100
AcDbEntity
  8
1
  6
Continuous
 62
     2
100
AcDbLine
 10
-80.66874952409427
 20
2.54508692059187
 30
0.0
 11
-30.6687495240943
 21
2.54508692059187
 31
0.0
  0
LINE
  5
315
330
71
100
AcDbEntity
  8
1
  6
Continuous
 62
     2
100
AcDbLine
 10
-80.66874952409427
 20
2.54508692059187
 30
0.0
 11
-80.66874952409427
 21
7.54508692059198
 31
0.0
  0
LINE
  5
316
330
71
100
AcDbEntity
  8
1
  6
Continuous
 62
     2
100
AcDbLine
 10
-130.6687495240945
 20
2.54508692059187
 30
0.0
 11
-80.66874952409427
 21
2.54508692059187
 31
0.0
  0
LINE
  5
317
330
71
100
AcDbEntity
  8
1
  6
Continuous
 62
     2
100
AcDbLine
 10
-130.6687495240945
 20
2.54508692059187
 30
0.0
 11
-130.6687495240945
 21
7.54508692059198
 31
0.0
  0
LINE
  5
318
330
71
100
AcDbEntity
  8
1
  6
Continuous
 62
     2
100
AcDbLine
 10
-180.6687495240943
 20
2.54508692059187
 30
0.0
 11
-130.6687495240945
 21
2.54508692059187
 31
0.0
  0
LINE
  5
319
330
71
100
AcDbEntity
  8
1
  6
Continuous
 62
     2
100
AcDbLine
 10
-180.6687495240943
 20
2.54508692059187
 30
0.0
 11
-180.6687495240943
 21
7.54508692059198
 31
0.0
  0
LINE
  5
31A
330
71
100
AcDbEntity
  8
1
  6
Continuous
 62
     6
100
AcDbLine
 10
-224.1687495240926
 20
57.5450869205921
 30
0.0
 11
-224.1687495240924
 21
7.54508692059198
 31
0.0
  0
LINE
  5
31B
330
71
100
AcDbEntity
  8
1
  6
Continuous
 62
     2
100
AcDbLine
 10
-229.1687495240934
 20
57.5450869205921
 30
0.0
 11
-229.1687495240934
 21
7.54508692059198
 31
0.0
  0
LINE
  5
31C
330
71
100
AcDbEntity
  8
1
  6
Continuous
 62
     2
100
AcDbLine
 10
-229.1687495240934
 20
57.5450869205921
 30
0.0
 11
-224.1687495240926
 21
57.5450869205921
 31
0.0
  0
LINE
  5
31D
330
71
100
AcDbEntity
  8
1
  6
Continuous
 62
     6
100
AcDbLine
 10
-224.1687495240928
 20
107.5450869205919
 30
0.0
 11
-224.1687495240926
 21
57.5450869205921
 31
0.0
  0
LINE
  5
31E
330
71
100
AcDbEntity
  8
1
  6
Continuous
 62
     2
100
AcDbLine
 10
-229.1687495240934
 20
107.5450869205919
 30
0.0
 11
-229.1687495240934
 21
57.5450869205921
 31
0.0
  0
LINE
  5
31F
330
71
100
AcDbEntity
  8
1
  6
Continuous
 62
     2
100
AcDbLine
 10
-229.1687495240934
 20
107.5450869205919
 30
0.0
 11
-224.1687495240928
 21
107.5450869205919
 31
0.0
  0
LINE
  5
320
330
71
100
AcDbEntity
  8
1
  6
Continuous
 62
     6
100
AcDbLine
 10
-224.1687495240933
 20
157.545086920592
 30
0.0
 11
-224.1687495240928
 21
107.5450869205919
 31
0.0
  0
LINE
  5
321
330
71
100
AcDbEntity
  8
1
  6
Continuous
 62
     2
100
AcDbLine
 10
-229.1687495240934
 20
157.545086920592
 30
0.0
 11
-229.1687495240934
 21
107.5450869205919
 31
0.0
  0
LINE
  5
322
330
71
100
AcDbEntity
  8
1
  6
Continuous
 62
     2
100
AcDbLine
 10
-229.1687495240934
 20
157.545086920592
 30
0.0
 11
-224.1687495240933
 21
157.545086920592
 31
0.0
  0
LINE
  5
323
330
71
100
AcDbEntity
  8
1
  6
Continuous
 62
     6
100
AcDbLine
 10
-224.1687495240934
 20
192.545086920592
 30
0.0
 11
-224.1687495240933
 21
157.545086920592
 31
0.0
  0
LINE
  5
324
330
71
100
AcDbEntity
  8
1
  6
Continuous
 62
     2
100
AcDbLine
 10
-229.1687495240934
 20
212.545086920592
 30
0.0
 11
-229.1687495240934
 21
157.545086920592
 31
0.0
  0
LINE
  5
325
330
71
100
AcDbEntity
  8
1
  6
Continuous
 62
     2
100
AcDbLine
 10
-229.1687495240934
 20
2.54508692059187
 30
0.0
 11
-224.1687495240924
 21
2.54508692059187
 31
0.0
  0
LINE
  5
326
330
71
100
AcDbEntity
  8
1
  6
Continuous
 62
     2
100
AcDbLine
 10
-80.66874952409427
 20
212.545086920592
 30
0.0
 11
-80.66874952409427
 21
203.3363950758907
 31
0.0
  0
LINE
  5
327
330
71
100
AcDbEntity
  8
1
  6
Continuous
 62
     2
100
AcDbLine
 10
-80.66874952409427
 20
212.545086920592
 30
0.0
 11
-229.1687495240934
 21
212.545086920592
 31
0.0
  0
LINE
  5
328
330
71
100
AcDbEntity
  8
1
  6
Continuous
 62
     2
100
AcDbLine
 10
67.83125047590471
 20
7.54508692059198
 30
0.0
 11
67.83125047590471
 21
57.5450869205921
 31
0.0
  0
LINE
  5
329
330
71
100
AcDbEntity
  8
1
  6
Continuous
 62
     2
100
AcDbLine
 10
67.83125047590471
 20
157.545086920592
 30
0.0
 11
67.83125047590471
 21
212.545086920592
 31
0.0
  0
LINE
  5
32A
330
71
100
AcDbEntity
  8
1
  6
Continuous
 62
     6
100
AcDbLine
 10
62.83125047590491
 20
157.545086920592
 30
0.0
 11
62.83125047590471
 21
192.545086920592
 31
0.0
  0
LINE
  5
32B
330
71
100
AcDbEntity
  8
1
  6
Continuous
 62
     2
100
AcDbLine
 10
62.83125047590491
 20
157.545086920592
 30
0.0
 11
67.83125047590471
 21
157.545086920592
 31
0.0
  0
LINE
  5
32C
330
71
100
AcDbEntity
  8
1
  6
Continuous
 62
     2
100
AcDbLine
 10
67.83125047590471
 20
107.5450869205919
 30
0.0
 11
67.83125047590471
 21
157.545086920592
 31
0.0
  0
LINE
  5
32D
330
71
100
AcDbEntity
  8
1
  6
Continuous
 62
     6
100
AcDbLine
 10
62.83125047590612
 20
107.5450869205919
 30
0.0
 11
62.83125047590491
 21
157.545086920592
 31
0.0
  0
LINE
  5
32E
330
71
100
AcDbEntity
  8
1
  6
Continuous
 62
     2
100
AcDbLine
 10
62.83125047590612
 20
107.5450869205919
 30
0.0
 11
67.83125047590471
 21
107.5450869205919
 31
0.0
  0
LINE
  5
32F
330
71
100
AcDbEntity
  8
1
  6
Continuous
 62
     2
100
AcDbLine
 10
67.83125047590471
 20
57.5450869205921
 30
0.0
 11
67.83125047590471
 21
107.5450869205919
 31
0.0
  0
LINE
  5
330
330
71
100
AcDbEntity
  8
1
  6
Continuous
 62
     6
100
AcDbLine
 10
62.83125047590661
 20
57.5450869205921
 30
0.0
 11
62.83125047590612
 21
107.5450869205919
 31
0.0
  0
LINE
  5
331
330
71
100
AcDbEntity
  8
1
  6
Continuous
 62
     2
100
AcDbLine
 10
62.83125047590661
 20
57.5450869205921
 30
0.0
 11
67.83125047590471
 21
57.5450869205921
 31
0.0
  0
LINE
  5
332
330
71
100
AcDbEntity
  8
1
  6
Continuous
 62
     6
100
AcDbLine
 10
62.83125047590471
 20
192.545086920592
 30
0.0
 11
-224.1687495240934
 21
192.545086920592
 31
0.0
  0
LINE
  5
333
330
71
100
AcDbEntity
  8
1
  6
Continuous
 62
     2
100
AcDbLine
 10
67.83125047590471
 20
212.545086920592
 30
0.0
 11
-80.66874952409427
 21
212.545086920592
 31
0.0
  0
LINE
  5
334
330
71
100
AcDbEntity
  8
1
  6
Continuous
 62
     6
100
AcDbLine
 10
62.83125047590741
 20
24.54508692059198
 30
0.0
 11
62.83125047590661
 21
57.5450869205921
 31
0.0
  0
LINE
  5
335
330
71
100
AcDbEntity
  8
1
  6
Continuous
 62
     2
100
AcDbLine
 10
62.83125047590572
 20
2.54508692059187
 30
0.0
 11
19.33125047590571
 21
2.54508692059187
 31
0.0
  0
LINE
  5
336
330
71
100
AcDbEntity
  8
1
  6
Continuous
 62
     2
100
AcDbLine
 10
67.83125047590471
 20
2.54508692059187
 30
0.0
 11
62.83125047590572
 21
2.54508692059187
 31
0.0
  0
LINE
  5
337
330
71
100
AcDbEntity
  8
1
  6
Continuous
 62
     2
100
AcDbLine
 10
67.83125047590471
 20
2.54508692059187
 30
0.0
 11
67.83125047590471
 21
7.54508692059198
 31
0.0
  0
LINE
  5
338
330
71
100
AcDbEntity
  8
1
  6
Continuous
 62
     6
100
AcDbLine
 10
-66.7135540508443
 20
24.54508692059198
 30
0.0
 11
-30.31355405084437
 21
24.54508692059198
 31
0.0
  0
LINE
  5
339
330
71
100
AcDbEntity
  8
1
  6
Continuous
 62
     2
100
AcDbLine
 10
62.83125047590572
 20
7.54508692059198
 30
0.0
 11
62.83125047590572
 21
2.54508692059187
 31
0.0
  0
LINE
  5
33A
330
71
100
AcDbEntity
  8
1
  6
Continuous
 62
     2
100
AcDbLine
 10
62.83125047590572
 20
7.54508692059198
 30
0.0
 11
67.83125047590471
 21
7.54508692059198
 31
0.0
  0
LINE
  5
33B
330
71
100
AcDbEntity
  8
1
  6
Continuous
 62
     6
100
AcDbLine
 10
-30.6687495240943
 20
7.54508692059198
 30
0.0
 11
-48.51355405084428
 21
7.54508692059198
 31
0.0
  0
LINE
  5
33C
330
71
100
AcDbEntity
  8
1
  6
Continuous
 62
     6
100
AcDbLine
 10
19.33125047590571
 20
7.54508692059198
 30
0.0
 11
62.83125047590572
 21
7.54508692059198
 31
0.0
  0
LINE
  5
33D
330
71
100
AcDbEntity
  8
1
  6
Continuous
 62
     6
100
AcDbLine
 10
-130.6687495240945
 20
7.54508692059198
 30
0.0
 11
-135.7135540508443
 21
7.54508692059198
 31
0.0
  0
LINE
  5
33E
330
71
100
AcDbEntity
  8
1
  6
Continuous
 62
     6
100
AcDbLine
 10
-80.66874952409427
 20
7.54508692059198
 30
0.0
 11
-66.7135540508443
 21
7.54508692059187
 31
0.0
  0
LINE
  5
33F
102
{ACAD_REACTORS
330
429
330
42A
102
}
330
71
100
AcDbEntity
  8
0
  6
Continuous
 62
     2
100
AcDbLine
 10
-59.19892810869749
 20
19.6176016768041
 30
0.0
 11
-59.19892810869749
 21
20.22313696531089
 31
0.0
  0
LINE
  5
340
102
{ACAD_REACTORS
330
429
330
42A
102
}
330
71
100
AcDbEntity
  8
0
  6
Continuous
 62
     2
100
AcDbLine
 10
-59.19892810869749
 20
16.8174670701728
 30
0.0
 11
-59.19892810869749
 21
17.39931847686788
 31
0.0
  0
LINE
  5
341
102
{ACAD_REACTORS
330
42B
330
42C
102
}
330
71
100
AcDbEntity
  8
0
  6
Continuous
 62
     2
100
AcDbLine
 10
-36.56944167321828
 20
17.10713113829578
 30
0.0
 11
-36.56944167321828
 21
14.83858692060829
 31
0.0
  0
LINE
  5
342
102
{ACAD_REACTORS
330
42B
330
42C
102
}
330
71
100
AcDbEntity
  8
0
  6
Continuous
 62
     2
100
AcDbLine
 10
-37.95049545220587
 20
17.89239644441889
 30
0.0
 11
-34.56554993357719
 21
17.89239644441938
 31
0.0
  0
LINE
  5
343
102
{ACAD_REACTORS
330
42B
330
42C
102
}
330
71
100
AcDbEntity
  8
0
  6
Continuous
 62
     2
100
AcDbLine
 10
-34.56554993357719
 20
17.10713113829578
 30
0.0
 11
-34.56554993357719
 21
17.89239644441938
 31
0.0
  0
LINE
  5
344
102
{ACAD_REACTORS
330
42B
330
42C
102
}
330
71
100
AcDbEntity
  8
0
  6
Continuous
 62
     2
100
AcDbLine
 10
-35.37664897105057
 20
17.10713113829578
 30
0.0
 11
-34.56554993357719
 21
17.10713113829578
 31
0.0
  0
LINE
  5
345
102
{ACAD_REACTORS
330
42B
330
42C
102
}
330
71
100
AcDbEntity
  8
0
  6
Continuous
 62
     2
100
AcDbLine
 10
-35.37664897105057
 20
14.83858692060829
 30
0.0
 11
-35.37664897105057
 21
17.10713113829578
 31
0.0
  0
LINE
  5
346
102
{ACAD_REACTORS
330
42B
330
42C
102
}
330
71
100
AcDbEntity
  8
0
  6
Continuous
 62
     2
100
AcDbLine
 10
-36.56944167321828
 20
14.83858692060829
 30
0.0
 11
-35.37664897105057
 21
14.83858692060829
 31
0.0
  0
LINE
  5
347
102
{ACAD_REACTORS
330
421
330
422
102
}
330
71
100
AcDbEntity
  8
0
  6
Continuous
 62
     2
100
AcDbLine
 10
-37.26603261128278
 20
21.25158692059378
 30
0.0
 11
-38.66875682903208
 21
21.25158692059378
 31
0.0
  0
LINE
  5
348
102
{ACAD_REACTORS
330
421
330
422
102
}
330
71
100
AcDbEntity
  8
0
  6
Continuous
 62
     2
100
AcDbLine
 10
-37.26603261128278
 20
21.25158692059378
 30
0.0
 11
-36.66486508939099
 21
20.57176359903829
 31
0.0
  0
LINE
  5
349
102
{ACAD_REACTORS
330
421
330
422
102
}
330
71
100
AcDbEntity
  8
0
  6
Continuous
 62
     2
100
AcDbLine
 10
-36.66486508939099
 20
20.57176359903829
 30
0.0
 11
-36.0636975674982
 21
21.25158692059378
 31
0.0
  0
LINE
  5
34A
102
{ACAD_REACTORS
330
421
330
422
102
}
330
71
100
AcDbEntity
  8
0
  6
Continuous
 62
     2
100
AcDbLine
 10
-35.96350298051749
 20
19.77863639055758
 30
0.0
 11
-34.66097334975098
 21
21.25158692059378
 31
0.0
  0
LINE
  5
34B
102
{ACAD_REACTORS
330
421
330
422
102
}
330
71
100
AcDbEntity
  8
0
  6
Continuous
 62
     2
100
AcDbLine
 10
-35.96350298051749
 20
19.77863639055758
 30
0.0
 11
-34.56554993357719
 21
18.19777739678258
 31
0.0
  0
LINE
  5
34C
102
{ACAD_REACTORS
330
421
330
422
102
}
330
71
100
AcDbEntity
  8
0
  6
Continuous
 62
     2
100
AcDbLine
 10
-35.96827415132549
 20
18.19777739678258
 30
0.0
 11
-34.56554993357719
 21
18.19777739678258
 31
0.0
  0
LINE
  5
34D
102
{ACAD_REACTORS
330
421
330
422
102
}
330
71
100
AcDbEntity
  8
0
  6
Continuous
 62
     2
100
AcDbLine
 10
-36.66486508939099
 20
18.9855091820763
 30
0.0
 11
-35.96827415132549
 21
18.19777739678258
 31
0.0
  0
LINE
  5
34E
102
{ACAD_REACTORS
330
41F
330
420
102
}
330
71
100
AcDbEntity
  8
0
  6
Continuous
 62
     2
100
AcDbLine
 10
-40.12396392567467
 20
21.25158692059378
 30
0.0
 11
-38.88345951542178
 21
21.25158692059378
 31
0.0
  0
LINE
  5
34F
102
{ACAD_REACTORS
330
41F
330
420
102
}
330
71
100
AcDbEntity
  8
0
  6
Continuous
 62
     2
100
AcDbLine
 10
-38.88345951542178
 20
21.25158692059378
 30
0.0
 11
-38.88345951542178
 21
18.19777739678258
 31
0.0
  0
LINE
  5
350
102
{ACAD_REACTORS
330
41F
330
420
102
}
330
71
100
AcDbEntity
  8
0
  6
Continuous
 62
     2
100
AcDbLine
 10
-40.12396392567467
 20
18.19777739678258
 30
0.0
 11
-40.12396392567467
 21
21.25158692059378
 31
0.0
  0
LINE
  5
351
102
{ACAD_REACTORS
330
41D
330
41E
102
}
330
71
100
AcDbEntity
  8
0
  6
Continuous
 62
     2
100
AcDbLine
 10
-41.59227400821229
 20
16.06011073013278
 30
0.0
 11
-41.29210877101988
 21
16.82792569611948
 31
0.0
  0
LINE
  5
352
102
{ACAD_REACTORS
330
41D
330
41E
102
}
330
71
100
AcDbEntity
  8
0
  6
Continuous
 62
     2
100
AcDbLine
 10
-42.0698096128331
 20
14.83858692060829
 30
0.0
 11
-41.85832955935729
 21
15.37954746482618
 31
0.0
  0
LINE
  5
353
102
{ACAD_REACTORS
330
41D
330
41E
102
}
330
71
100
AcDbEntity
  8
0
  6
Continuous
 62
     2
100
AcDbLine
 10
-41.91236097614677
 20
17.89239644441938
 30
0.0
 11
-43.31031402308608
 21
14.83858692060829
 31
0.0
  0
LINE
  5
354
102
{ACAD_REACTORS
330
41D
330
41E
102
}
330
71
100
AcDbEntity
  8
0
  6
Continuous
 62
     2
100
AcDbLine
 10
-39.27390351895377
 20
14.83858692060829
 30
0.0
 11
-40.51440792920769
 21
14.83858692060829
 31
0.0
  0
LINE
  5
355
102
{ACAD_REACTORS
330
41D
330
41E
102
}
330
71
100
AcDbEntity
  8
0
  6
Continuous
 62
     2
100
AcDbLine
 10
-41.85832955935729
 20
15.37954746482618
 30
0.0
 11
-40.72588798268347
 21
15.37954746482618
 31
0.0
  0
LINE
  5
356
102
{ACAD_REACTORS
330
41B
330
41C
102
}
330
71
100
AcDbEntity
  8
0
  6
Continuous
 62
     2
100
AcDbLine
 10
-45.4678261622683
 20
17.10713113829578
 30
0.0
 11
-44.65672712479369
 21
17.10713113829578
 31
0.0
  0
LINE
  5
357
102
{ACAD_REACTORS
330
41B
330
41C
102
}
330
71
100
AcDbEntity
  8
0
  6
Continuous
 62
     2
100
AcDbLine
 10
-42.65283538515467
 20
17.89239644441938
 30
0.0
 11
-45.4678261622683
 21
17.89239644441938
 31
0.0
  0
LINE
  5
358
102
{ACAD_REACTORS
330
41B
330
41C
102
}
330
71
100
AcDbEntity
  8
0
  6
Continuous
 62
     2
100
AcDbLine
 10
-42.65283538515467
 20
17.10713113829578
 30
0.0
 11
-42.65283538515467
 21
17.89239644441938
 31
0.0
  0
LINE
  5
359
102
{ACAD_REACTORS
330
41B
330
41C
102
}
330
71
100
AcDbEntity
  8
0
  6
Continuous
 62
     2
100
AcDbLine
 10
-43.46393442262718
 20
17.10713113829578
 30
0.0
 11
-42.65283538515467
 21
17.10713113829578
 31
0.0
  0
LINE
  5
35A
102
{ACAD_REACTORS
330
41B
330
41C
102
}
330
71
100
AcDbEntity
  8
0
  6
Continuous
 62
     2
100
AcDbLine
 10
-43.46393442262718
 20
14.83858692060829
 30
0.0
 11
-43.46393442262718
 21
17.10713113829578
 31
0.0
  0
LINE
  5
35B
102
{ACAD_REACTORS
330
419
330
41A
102
}
330
71
100
AcDbEntity
  8
0
  6
Continuous
 62
     2
100
AcDbLine
 10
-42.79581957852918
 20
18.19777739678258
 30
0.0
 11
-42.79581957852918
 21
19.50655290698728
 31
0.0
  0
LINE
  5
35C
102
{ACAD_REACTORS
330
419
330
41A
102
}
330
71
100
AcDbEntity
  8
0
  6
Continuous
 62
     2
100
AcDbLine
 10
-43.98861228069569
 20
21.25158692059378
 30
0.0
 11
-43.98861228069569
 21
18.19777739678258
 31
0.0
  0
LINE
  5
35D
102
{ACAD_REACTORS
330
419
330
41A
102
}
330
71
100
AcDbEntity
  8
0
  6
Continuous
 62
     2
100
AcDbLine
 10
-42.79581957852918
 20
21.25158692059378
 30
0.0
 11
-43.98861228069569
 21
21.25158692059378
 31
0.0
  0
LINE
  5
35E
102
{ACAD_REACTORS
330
419
330
41A
102
}
330
71
100
AcDbEntity
  8
0
  6
Continuous
 62
     2
100
AcDbLine
 10
-41.55531516827517
 20
21.25158692059378
 30
0.0
 11
-41.55531516827517
 21
19.9428114103886
 31
0.0
  0
LINE
  5
35F
102
{ACAD_REACTORS
330
417
330
418
102
}
330
71
100
AcDbEntity
  8
0
  6
Continuous
 62
     2
100
AcDbLine
 10
-49.23705110111538
 20
17.89239644441938
 30
0.0
 11
-49.23705110111538
 21
14.83858692060829
 31
0.0
  0
LINE
  5
360
102
{ACAD_REACTORS
330
417
330
418
102
}
330
71
100
AcDbEntity
  8
0
  6
Continuous
 62
     2
100
AcDbLine
 10
-48.04425839894779
 20
17.89239644441938
 30
0.0
 11
-49.23705110111538
 21
17.89239644441938
 31
0.0
  0
LINE
  5
361
102
{ACAD_REACTORS
330
417
330
418
102
}
330
71
100
AcDbEntity
  8
0
  6
Continuous
 62
     2
100
AcDbLine
 10
-46.80375398869489
 20
14.83858692060829
 30
0.0
 11
-45.61096128652849
 21
14.83858692060829
 31
0.0
  0
LINE
  5
362
102
{ACAD_REACTORS
330
417
330
418
102
}
330
71
100
AcDbEntity
  8
0
  6
Continuous
 62
     2
100
AcDbLine
 10
-49.23705110111538
 20
14.83858692060829
 30
0.0
 11
-48.04425839894779
 21
14.83858692060829
 31
0.0
  0
LINE
  5
363
102
{ACAD_REACTORS
330
427
330
428
102
}
330
71
100
AcDbEntity
  8
0
  6
Continuous
 62
     2
100
AcDbLine
 10
-45.56309864755627
 20
20.07368896140909
 30
0.0
 11
-45.56309864755627
 21
20.5535733151508
 31
0.0
  0
LINE
  5
364
102
{ACAD_REACTORS
330
427
330
428
102
}
330
71
100
AcDbEntity
  8
0
  6
Continuous
 62
     2
100
AcDbLine
 10
-44.2271708211286
 20
20.07368896140909
 30
0.0
 11
-45.56309864755627
 21
20.07368896140909
 31
0.0
  0
LINE
  5
365
102
{ACAD_REACTORS
330
427
330
428
102
}
330
71
100
AcDbEntity
  8
0
  6
Continuous
 62
     2
100
AcDbLine
 10
-44.2271708211286
 20
19.37567535596679
 30
0.0
 11
-44.2271708211286
 21
20.07368896140909
 31
0.0
  0
LINE
  5
366
102
{ACAD_REACTORS
330
427
330
428
102
}
330
71
100
AcDbEntity
  8
0
  6
Continuous
 62
     2
100
AcDbLine
 10
-45.56309864755627
 20
19.37567535596679
 30
0.0
 11
-44.2271708211286
 21
19.37567535596679
 31
0.0
  0
LINE
  5
367
102
{ACAD_REACTORS
330
415
330
416
102
}
330
71
100
AcDbEntity
  8
0
  6
Continuous
 62
     2
100
AcDbLine
 10
-49.04605333788319
 20
21.25158692059378
 30
0.0
 11
-49.04605333788319
 21
18.19777739678258
 31
0.0
  0
LINE
  5
368
102
{ACAD_REACTORS
330
415
330
416
102
}
330
71
100
AcDbEntity
  8
0
  6
Continuous
 62
     2
100
AcDbLine
 10
-49.04605333788319
 20
18.19777739678258
 30
0.0
 11
-50.23884604004959
 21
18.19777739678258
 31
0.0
  0
LINE
  5
369
102
{ACAD_REACTORS
330
415
330
416
102
}
330
71
100
AcDbEntity
  8
0
  6
Continuous
 62
     2
100
AcDbLine
 10
-50.23884604004959
 20
18.19777739678258
 30
0.0
 11
-50.23884604004959
 21
19.3320495056264
 31
0.0
  0
LINE
  5
36A
102
{ACAD_REACTORS
330
415
330
416
102
}
330
71
100
AcDbEntity
  8
0
  6
Continuous
 62
     2
100
AcDbLine
 10
-51.28850361795708
 20
18.19777739678258
 30
0.0
 11
-52.48129632012368
 21
18.19777739678258
 31
0.0
  0
LINE
  5
36B
102
{ACAD_REACTORS
330
415
330
416
102
}
330
71
100
AcDbEntity
  8
0
  6
Continuous
 62
     2
100
AcDbLine
 10
-52.48129632012368
 20
21.25158692059378
 30
0.0
 11
-51.28850361795708
 21
21.25158692059378
 31
0.0
  0
LINE
  5
36C
102
{ACAD_REACTORS
330
415
330
416
102
}
330
71
100
AcDbEntity
  8
0
  6
Continuous
 62
     2
100
AcDbLine
 10
-51.28850361795708
 20
21.25158692059378
 30
0.0
 11
-51.28850361795708
 21
20.18275358725919
 31
0.0
  0
LINE
  5
36D
102
{ACAD_REACTORS
330
415
330
416
102
}
330
71
100
AcDbEntity
  8
0
  6
Continuous
 62
     2
100
AcDbLine
 10
-51.28850361795708
 20
20.18275358725919
 30
0.0
 11
-50.23884604004959
 21
20.18275358725919
 31
0.0
  0
LINE
  5
36E
102
{ACAD_REACTORS
330
423
330
424
102
}
330
71
100
AcDbEntity
  8
0
  6
Continuous
 62
     2
100
AcDbLine
 10
-54.43747635167728
 20
20.58848107515368
 30
0.0
 11
-54.12018129013538
 21
20.58848107515368
 31
0.0
  0
LINE
  5
36F
102
{ACAD_REACTORS
330
423
330
424
102
}
330
71
100
AcDbEntity
  8
0
  6
Continuous
 62
     2
100
AcDbLine
 10
-54.43747635167728
 20
19.88275342581147
 30
0.0
 11
-54.12018129013538
 21
19.88275342581147
 31
0.0
  0
LINE
  5
370
102
{ACAD_REACTORS
330
423
330
424
102
}
330
71
100
AcDbEntity
  8
0
  6
Continuous
 62
     2
100
AcDbLine
 10
-55.67798076193139
 20
21.25158692059378
 30
0.0
 11
-55.67798076193139
 21
18.19777739678258
 31
0.0
  0
LINE
  5
371
102
{ACAD_REACTORS
330
423
330
424
102
}
330
71
100
AcDbEntity
  8
0
  6
Continuous
 62
     2
100
AcDbLine
 10
-55.67798076193139
 20
21.25158692059378
 30
0.0
 11
-53.67870876389699
 21
21.25158692059378
 31
0.0
  0
LINE
  5
372
102
{ACAD_REACTORS
330
423
330
424
102
}
330
71
100
AcDbEntity
  8
0
  6
Continuous
 62
     2
100
AcDbLine
 10
-54.43747635167728
 20
19.14085563792639
 30
0.0
 11
-53.67870876389699
 21
19.14085563792639
 31
0.0
  0
LINE
  5
373
102
{ACAD_REACTORS
330
429
330
42A
102
}
330
71
100
AcDbEntity
  8
0
  6
Continuous
 62
     2
100
AcDbLine
 10
-61.77447679522808
 20
20.22331444195899
 30
0.0
 11
-61.77447679522808
 21
15.86685939924189
 31
0.0
  0
LINE
  5
374
102
{ACAD_REACTORS
330
429
330
42A
102
}
330
71
100
AcDbEntity
  8
0
  6
Continuous
 62
     2
100
AcDbLine
 10
-61.4587598721524
 20
20.53903136503519
 30
0.0
 11
-59.98292661114277
 21
20.53903136503519
 31
0.0
  0
LINE
  5
375
102
{ACAD_REACTORS
330
429
330
42A
102
}
330
71
100
AcDbEntity
  8
0
  6
Continuous
 62
     2
100
AcDbLine
 10
-59.66720968806618
 20
19.61928982289848
 30
0.0
 11
-59.66720968806618
 21
20.22331444195899
 31
0.0
  0
LINE
  5
376
102
{ACAD_REACTORS
330
429
330
42A
102
}
330
71
100
AcDbEntity
  8
0
  6
Continuous
 62
     2
100
AcDbLine
 10
-59.66720968806618
 20
15.86685939924189
 30
0.0
 11
-59.66720968806618
 21
17.3976303307735
 31
0.0
  0
LINE
  5
377
102
{ACAD_REACTORS
330
429
330
42A
102
}
330
71
100
AcDbEntity
  8
0
  6
Continuous
 62
     2
100
AcDbLine
 10
-56.57934245818208
 20
14.83858692060829
 30
0.0
 11
-62.05265454889889
 21
14.83858692060829
 31
0.0
  0
LINE
  5
378
102
{ACAD_REACTORS
330
429
330
42A
102
}
330
71
100
AcDbEntity
  8
0
  6
Continuous
 62
     2
100
AcDbLine
 10
-56.1550978427982
 20
20.82734230519179
 30
0.0
 11
-56.1550978427982
 21
15.26283153599158
 31
0.0
  0
LINE
  5
379
102
{ACAD_REACTORS
330
429
330
42A
102
}
330
71
100
AcDbEntity
  8
0
  6
Continuous
 62
     2
100
AcDbLine
 10
-62.05265454889889
 20
21.25158692057559
 30
0.0
 11
-56.57934245818208
 21
21.25158692057559
 31
0.0
  0
LINE
  5
37A
102
{ACAD_REACTORS
330
429
330
42A
102
}
330
71
100
AcDbEntity
  8
0
  6
Continuous
 62
     2
100
AcDbLine
 10
-62.47689916428169
 20
20.82734230519179
 30
0.0
 11
-62.47689916428169
 21
15.26283153599158
 31
0.0
  0
LINE
  5
37B
102
{ACAD_REACTORS
330
429
330
42A
102
}
330
71
100
AcDbEntity
  8
0
  6
Continuous
 62
     2
100
AcDbLine
 10
-59.98292661114277
 20
15.55114247616518
 30
0.0
 11
-61.4587598721524
 21
15.55114247616518
 31
0.0
  0
LINE
  5
37C
102
{ACAD_REACTORS
330
423
330
424
102
}
330
71
100
AcDbEntity
  8
0
  6
Continuous
 62
     2
100
AcDbLine
 10
-54.43747635167728
 20
18.19777739678258
 30
0.0
 11
-54.43747635167728
 21
19.14085563792639
 31
0.0
  0
LINE
  5
37D
102
{ACAD_REACTORS
330
423
330
424
102
}
330
71
100
AcDbEntity
  8
0
  6
Continuous
 62
     2
100
AcDbLine
 10
-55.67798076193139
 20
18.19777739678258
 30
0.0
 11
-54.43747635167728
 21
18.19777739678258
 31
0.0
  0
LINE
  5
37E
102
{ACAD_REACTORS
330
423
330
424
102
}
330
71
100
AcDbEntity
  8
0
  6
Continuous
 62
     2
100
AcDbLine
 10
-54.43747635167728
 20
19.88275342581147
 30
0.0
 11
-54.43747635167728
 21
20.58848107515368
 31
0.0
  0
LINE
  5
37F
102
{ACAD_REACTORS
330
415
330
416
102
}
330
71
100
AcDbEntity
  8
0
  6
Continuous
 62
     2
100
AcDbLine
 10
-52.48129632012368
 20
21.25158692059378
 30
0.0
 11
-52.48129632012368
 21
18.19777739678258
 31
0.0
  0
LINE
  5
380
102
{ACAD_REACTORS
330
415
330
416
102
}
330
71
100
AcDbEntity
  8
0
  6
Continuous
 62
     2
100
AcDbLine
 10
-51.28850361795708
 20
19.3320495056264
 30
0.0
 11
-51.28850361795708
 21
18.19777739678258
 31
0.0
  0
LINE
  5
381
102
{ACAD_REACTORS
330
415
330
416
102
}
330
71
100
AcDbEntity
  8
0
  6
Continuous
 62
     2
100
AcDbLine
 10
-50.23884604004959
 20
19.3320495056264
 30
0.0
 11
-51.28850361795708
 21
19.3320495056264
 31
0.0
  0
LINE
  5
382
102
{ACAD_REACTORS
330
415
330
416
102
}
330
71
100
AcDbEntity
  8
0
  6
Continuous
 62
     2
100
AcDbLine
 10
-50.23884604004959
 20
21.25158692059378
 30
0.0
 11
-49.04605333788319
 21
21.25158692059378
 31
0.0
  0
LINE
  5
383
102
{ACAD_REACTORS
330
415
330
416
102
}
330
71
100
AcDbEntity
  8
0
  6
Continuous
 62
     2
100
AcDbLine
 10
-50.23884604004959
 20
20.18275358725919
 30
0.0
 11
-50.23884604004959
 21
21.25158692059378
 31
0.0
  0
LINE
  5
384
102
{ACAD_REACTORS
330
427
330
428
102
}
330
71
100
AcDbEntity
  8
0
  6
Continuous
 62
     2
100
AcDbLine
 10
-44.2271708211286
 20
20.5535733151508
 30
0.0
 11
-44.2271708211286
 21
21.25158692059378
 31
0.0
  0
LINE
  5
385
102
{ACAD_REACTORS
330
427
330
428
102
}
330
71
100
AcDbEntity
  8
0
  6
Continuous
 62
     2
100
AcDbLine
 10
-47.37749054490959
 20
21.25158692059378
 30
0.0
 11
-44.2271708211286
 21
21.25158692059378
 31
0.0
  0
LINE
  5
386
102
{ACAD_REACTORS
330
427
330
428
102
}
330
71
100
AcDbEntity
  8
0
  6
Continuous
 62
     2
100
AcDbLine
 10
-47.37749054490959
 20
18.19777739678258
 30
0.0
 11
-44.2271708211286
 21
18.19777739678258
 31
0.0
  0
LINE
  5
387
102
{ACAD_REACTORS
330
427
330
428
102
}
330
71
100
AcDbEntity
  8
0
  6
Continuous
 62
     2
100
AcDbLine
 10
-44.2271708211286
 20
18.19777739678258
 30
0.0
 11
-44.2271708211286
 21
18.89579100222508
 31
0.0
  0
LINE
  5
388
102
{ACAD_REACTORS
330
427
330
428
102
}
330
71
100
AcDbEntity
  8
0
  6
Continuous
 62
     2
100
AcDbLine
 10
-44.2271708211286
 20
18.89579100222508
 30
0.0
 11
-45.56309864755627
 21
18.89579100222508
 31
0.0
  0
LINE
  5
389
102
{ACAD_REACTORS
330
427
330
428
102
}
330
71
100
AcDbEntity
  8
0
  6
Continuous
 62
     2
100
AcDbLine
 10
-45.56309864755627
 20
18.89579100222508
 30
0.0
 11
-45.56309864755627
 21
19.37567535596679
 31
0.0
  0
LINE
  5
38A
102
{ACAD_REACTORS
330
427
330
428
102
}
330
71
100
AcDbEntity
  8
0
  6
Continuous
 62
     2
100
AcDbLine
 10
-45.56309864755627
 20
20.5535733151508
 30
0.0
 11
-44.2271708211286
 21
20.5535733151508
 31
0.0
  0
LINE
  5
38B
102
{ACAD_REACTORS
330
417
330
418
102
}
330
71
100
AcDbEntity
  8
0
  6
Continuous
 62
     2
100
AcDbLine
 10
-48.04425839894779
 20
14.83858692060829
 30
0.0
 11
-48.04425839894779
 21
16.14736243081288
 31
0.0
  0
LINE
  5
38C
102
{ACAD_REACTORS
330
417
330
418
102
}
330
71
100
AcDbEntity
  8
0
  6
Continuous
 62
     2
100
AcDbLine
 10
-48.04425839894779
 20
16.14736243081288
 30
0.0
 11
-46.80375398869489
 21
14.83858692060829
 31
0.0
  0
LINE
  5
38D
102
{ACAD_REACTORS
330
417
330
418
102
}
330
71
100
AcDbEntity
  8
0
  6
Continuous
 62
     2
100
AcDbLine
 10
-45.61096128652849
 20
14.83858692060829
 30
0.0
 11
-45.61096128652849
 21
17.89239644441938
 31
0.0
  0
LINE
  5
38E
102
{ACAD_REACTORS
330
417
330
418
102
}
330
71
100
AcDbEntity
  8
0
  6
Continuous
 62
     2
100
AcDbLine
 10
-45.61096128652849
 20
17.89239644441938
 30
0.0
 11
-46.80375398869489
 21
17.89239644441938
 31
0.0
  0
LINE
  5
38F
102
{ACAD_REACTORS
330
417
330
418
102
}
330
71
100
AcDbEntity
  8
0
  6
Continuous
 62
     2
100
AcDbLine
 10
-46.80375398869489
 20
17.89239644441938
 30
0.0
 11
-46.80375398869489
 21
16.58362093421428
 31
0.0
  0
LINE
  5
390
102
{ACAD_REACTORS
330
417
330
418
102
}
330
71
100
AcDbEntity
  8
0
  6
Continuous
 62
     2
100
AcDbLine
 10
-46.80375398869489
 20
16.58362093421428
 30
0.0
 11
-48.04425839894779
 21
17.89239644441938
 31
0.0
  0
LINE
  5
391
102
{ACAD_REACTORS
330
419
330
41A
102
}
330
71
100
AcDbEntity
  8
0
  6
Continuous
 62
     2
100
AcDbLine
 10
-42.79581957852918
 20
19.50655290698728
 30
0.0
 11
-41.55531516827517
 21
18.19777739678258
 31
0.0
  0
LINE
  5
392
102
{ACAD_REACTORS
330
419
330
41A
102
}
330
71
100
AcDbEntity
  8
0
  6
Continuous
 62
     2
100
AcDbLine
 10
-41.55531516827517
 20
18.19777739678258
 30
0.0
 11
-40.36252246610857
 21
18.19777739678258
 31
0.0
  0
LINE
  5
393
102
{ACAD_REACTORS
330
419
330
41A
102
}
330
71
100
AcDbEntity
  8
0
  6
Continuous
 62
     2
100
AcDbLine
 10
-40.36252246610857
 20
18.19777739678258
 30
0.0
 11
-40.36252246610857
 21
21.25158692059378
 31
0.0
  0
LINE
  5
394
102
{ACAD_REACTORS
330
419
330
41A
102
}
330
71
100
AcDbEntity
  8
0
  6
Continuous
 62
     2
100
AcDbLine
 10
-40.36252246610857
 20
21.25158692059378
 30
0.0
 11
-41.55531516827517
 21
21.25158692059378
 31
0.0
  0
LINE
  5
395
102
{ACAD_REACTORS
330
419
330
41A
102
}
330
71
100
AcDbEntity
  8
0
  6
Continuous
 62
     2
100
AcDbLine
 10
-41.55531516827517
 20
19.9428114103886
 30
0.0
 11
-42.79581957852918
 21
21.25158692059378
 31
0.0
  0
LINE
  5
396
102
{ACAD_REACTORS
330
419
330
41A
102
}
330
71
100
AcDbEntity
  8
0
  6
Continuous
 62
     2
100
AcDbLine
 10
-43.98861228069569
 20
18.19777739678258
 30
0.0
 11
-42.79581957852918
 21
18.19777739678258
 31
0.0
  0
LINE
  5
397
102
{ACAD_REACTORS
330
41B
330
41C
102
}
330
71
100
AcDbEntity
  8
0
  6
Continuous
 62
     2
100
AcDbLine
 10
-45.4678261622683
 20
17.89239644441938
 30
0.0
 11
-45.4678261622683
 21
17.10713113829578
 31
0.0
  0
LINE
  5
398
102
{ACAD_REACTORS
330
41B
330
41C
102
}
330
71
100
AcDbEntity
  8
0
  6
Continuous
 62
     2
100
AcDbLine
 10
-44.65672712479369
 20
17.10713113829578
 30
0.0
 11
-44.65672712479369
 21
14.83858692060829
 31
0.0
  0
LINE
  5
399
102
{ACAD_REACTORS
330
41B
330
41C
102
}
330
71
100
AcDbEntity
  8
0
  6
Continuous
 62
     2
100
AcDbLine
 10
-44.65672712479369
 20
14.83858692060829
 30
0.0
 11
-43.46393442262718
 21
14.83858692060829
 31
0.0
  0
LINE
  5
39A
102
{ACAD_REACTORS
330
41D
330
41E
102
}
330
71
100
AcDbEntity
  8
0
  6
Continuous
 62
     2
100
AcDbLine
 10
-40.51440792920769
 20
14.83858692060829
 30
0.0
 11
-40.72588798268347
 21
15.37954746482618
 31
0.0
  0
LINE
  5
39B
102
{ACAD_REACTORS
330
41D
330
41E
102
}
330
71
100
AcDbEntity
  8
0
  6
Continuous
 62
     2
100
AcDbLine
 10
-40.67185656589408
 20
17.89239644441938
 30
0.0
 11
-39.27390351895377
 21
14.83858692060829
 31
0.0
  0
LINE
  5
39C
102
{ACAD_REACTORS
330
41D
330
41E
102
}
330
71
100
AcDbEntity
  8
0
  6
Continuous
 62
     2
100
AcDbLine
 10
-41.91236097614677
 20
17.89239644441938
 30
0.0
 11
-40.67185656589408
 21
17.89239644441938
 31
0.0
  0
LINE
  5
39D
102
{ACAD_REACTORS
330
41D
330
41E
102
}
330
71
100
AcDbEntity
  8
0
  6
Continuous
 62
     2
100
AcDbLine
 10
-43.31031402308608
 20
14.83858692060829
 30
0.0
 11
-42.0698096128331
 21
14.83858692060829
 31
0.0
  0
LINE
  5
39E
102
{ACAD_REACTORS
330
41D
330
41E
102
}
330
71
100
AcDbEntity
  8
0
  6
Continuous
 62
     2
100
AcDbLine
 10
-41.59227400821229
 20
16.06011073013278
 30
0.0
 11
-40.99194353382978
 21
16.06011073013278
 31
0.0
  0
LINE
  5
39F
102
{ACAD_REACTORS
330
41D
330
41E
102
}
330
71
100
AcDbEntity
  8
0
  6
Continuous
 62
     2
100
AcDbLine
 10
-40.99194353382978
 20
16.06011073013278
 30
0.0
 11
-41.29210877101988
 21
16.82792569611948
 31
0.0
  0
LINE
  5
3A0
102
{ACAD_REACTORS
330
41F
330
420
102
}
330
71
100
AcDbEntity
  8
0
  6
Continuous
 62
     2
100
AcDbLine
 10
-38.88345951542178
 20
18.19777739678258
 30
0.0
 11
-40.12396392567467
 21
18.19777739678258
 31
0.0
  0
LINE
  5
3A1
102
{ACAD_REACTORS
330
421
330
422
102
}
330
71
100
AcDbEntity
  8
0
  6
Continuous
 62
     2
100
AcDbLine
 10
-37.36145602745668
 20
18.19777739678258
 30
0.0
 11
-38.7641802452049
 21
18.19777739678258
 31
0.0
  0
LINE
  5
3A2
102
{ACAD_REACTORS
330
421
330
422
102
}
330
71
100
AcDbEntity
  8
0
  6
Continuous
 62
     2
100
AcDbLine
 10
-37.36145602745668
 20
18.19777739678258
 30
0.0
 11
-36.66486508939099
 21
18.9855091820763
 31
0.0
  0
LINE
  5
3A3
102
{ACAD_REACTORS
330
421
330
422
102
}
330
71
100
AcDbEntity
  8
0
  6
Continuous
 62
     2
100
AcDbLine
 10
-36.0636975674982
 20
21.25158692059378
 30
0.0
 11
-34.66097334975098
 21
21.25158692059378
 31
0.0
  0
LINE
  5
3A4
102
{ACAD_REACTORS
330
421
330
422
102
}
330
71
100
AcDbEntity
  8
0
  6
Continuous
 62
     2
100
AcDbLine
 10
-38.66875682903208
 20
21.25158692059378
 30
0.0
 11
-37.3662271982646
 21
19.77863639055758
 31
0.0
  0
LINE
  5
3A5
102
{ACAD_REACTORS
330
421
330
422
102
}
330
71
100
AcDbEntity
  8
0
  6
Continuous
 62
     2
100
AcDbLine
 10
-38.7641802452049
 20
18.19777739678258
 30
0.0
 11
-37.3662271982646
 21
19.77863639055758
 31
0.0
  0
LINE
  5
3A6
102
{ACAD_REACTORS
330
42B
330
42C
102
}
330
71
100
AcDbEntity
  8
0
  6
Continuous
 62
     2
100
AcDbLine
 10
-36.90342362982497
 20
15.8856073287719
 30
0.0
 11
-36.90342362982497
 21
15.01309032196858
 31
0.0
  0
LINE
  5
3A7
102
{ACAD_REACTORS
330
42B
330
42C
102
}
330
71
100
AcDbEntity
  8
0
  6
Continuous
 62
     2
100
AcDbLine
 10
-37.67308097278638
 20
17.10713113829578
 30
0.0
 11
-36.56944167321828
 21
17.10713113829578
 31
0.0
  0
LINE
  5
3A8
102
{ACAD_REACTORS
330
42D
330
42E
102
}
330
71
100
AcDbEntity
  8
0
  6
Continuous
 62
     2
100
AcDbLine
 10
-53.00612510907689
 20
15.88560732877238
 30
0.0
 11
-53.00612510907689
 21
15.01309032196917
 31
0.0
  0
LINE
  5
3A9
102
{ACAD_REACTORS
330
42D
330
42E
102
}
330
71
100
AcDbEntity
  8
0
  6
Continuous
 62
     2
100
AcDbLine
 10
-53.00612510907689
 20
16.84537603625529
 30
0.0
 11
-53.00612510907689
 21
17.71789304305858
 31
0.0
  0
LINE
  5
3AA
330
71
100
AcDbEntity
  8
1
  6
Continuous
 62
     7
100
AcDbLine
 10
62.83125047590701
 20
16.04508692059198
 30
0.0
 11
-30.31355405084437
 21
16.04508692059198
 31
0.0
  0
LINE
  5
3AB
330
71
100
AcDbEntity
  8
1
  6
Continuous
 62
     6
100
AcDbLine
 10
-135.7135540508443
 20
7.54508692059198
 30
0.0
 11
-180.6687495240943
 21
7.54508692059198
 31
0.0
  0
LINE
  5
3AC
330
71
100
AcDbEntity
  8
1
  6
Continuous
 62
     7
100
AcDbLine
 10
53.91284219422821
 20
33.04508692059198
 30
0.0
 11
53.91284219422821
 21
24.54508692059198
 31
0.0
  0
LINE
  5
3AD
330
71
100
AcDbEntity
  8
1
  6
Continuous
 62
     7
100
AcDbLine
 10
27.4128421942286
 20
33.04508692059198
 30
0.0
 11
27.4128421942286
 21
24.54508692059198
 31
0.0
  0
LINE
  5
3AE
330
71
100
AcDbEntity
  8
1
  6
Continuous
 62
     7
100
AcDbLine
 10
-30.31355405084437
 20
24.54508692059198
 30
0.0
 11
-30.31355405084437
 21
33.04508692059198
 31
0.0
  0
LINE
  5
3AF
330
71
100
AcDbEntity
  8
1
  6
Continuous
 62
     7
100
AcDbLine
 10
-66.7135540508443
 20
24.54508692059198
 30
0.0
 11
-66.7135540508443
 21
33.04508692059198
 31
0.0
  0
LINE
  5
3B0
330
71
100
AcDbEntity
  8
1
  6
Continuous
 62
     6
100
AcDbLine
 10
-30.31355405084437
 20
24.54508692059198
 30
0.0
 11
62.83125047590741
 21
24.54508692059198
 31
0.0
  0
LINE
  5
3B1
330
71
100
AcDbEntity
  8
1
  6
Continuous
 62
     7
100
AcDbLine
 10
-2.41355405084428
 20
16.0450869205919
 30
0.0
 11
-2.41355405084428
 21
24.54508692059198
 31
0.0
  0
LINE
  5
3B2
330
71
100
AcDbEntity
  8
1
  6
PHANTOM
 62
     2
100
AcDbLine
 10
-51.22689916428169
 20
28.6700869205919
 30
0.0
 11
-56.72689916428169
 21
28.6700869205919
 31
0.0
  0
LINE
  5
3B3
330
71
100
AcDbEntity
  8
1
  6
PHANTOM
 62
     2
100
AcDbLine
 10
-53.97689916428169
 20
31.4200869205919
 30
0.0
 11
-53.97689916428169
 21
25.9200869205919
 31
0.0
  0
LINE
  5
3B4
330
71
100
AcDbEntity
  8
1
  6
DOT_CENTER
 62
     2
100
AcDbLine
 10
-62.72689916428169
 20
28.6700869205919
 30
0.0
 11
-57.22689916428169
 21
28.6700869205919
 31
0.0
  0
ARC
  5
3B5
102
{ACAD_REACTORS
330
42D
330
42E
102
}
330
71
100
AcDbEntity
  8
0
  6
Continuous
 62
     2
100
AcDbCircle
 10
-54.34205302619469
 20
13.05281073725769
 30
0.0
 40
4.852596863498064
100
AcDbArc
 50
74.02000874164737
 51
84.84185523037506
  0
ARC
  5
3B6
102
{ACAD_REACTORS
330
42D
330
42E
102
}
330
71
100
AcDbEntity
  8
0
  6
Continuous
 62
     2
100
AcDbCircle
 10
-53.76601241744098
 20
16.20857109314198
 30
0.0
 40
0.9059297849853318
100
AcDbArc
 50
71.5519238818532
 51
113.3722778881284
  0
ARC
  5
3B7
102
{ACAD_REACTORS
330
42D
330
42E
102
}
330
71
100
AcDbEntity
  8
0
  6
Continuous
 62
     2
100
AcDbCircle
 10
-53.922452450143
 20
16.16042025317509
 30
0.0
 40
0.5115800601948034
100
AcDbArc
 50
208.5214732576956
 51
246.6277221118272
  0
ARC
  5
3B8
102
{ACAD_REACTORS
330
42D
330
42E
102
}
330
71
100
AcDbEntity
  8
0
  6
Continuous
 62
     2
100
AcDbCircle
 10
-53.76601241744098
 20
16.52241227188509
 30
0.0
 40
0.9059297849849148
100
AcDbArc
 50
246.6277221118714
 51
288.4480761181587
  0
ARC
  5
3B9
102
{ACAD_REACTORS
330
42D
330
42E
102
}
330
71
100
AcDbEntity
  8
0
  6
Continuous
 62
     2
100
AcDbCircle
 10
-54.18418015110177
 20
17.77595804792227
 30
0.0
 40
2.227384008972737
100
AcDbArc
 50
288.4480761181328
 51
301.9309089499593
  0
ARC
  5
3BA
102
{ACAD_REACTORS
330
429
330
42A
102
}
330
71
100
AcDbEntity
  8
0
  6
Continuous
 62
     2
100
AcDbCircle
 10
-59.40925388370857
 20
18.50846007683629
 30
0.0
 40
0.9118481501444653
100
AcDbArc
 50
295.3740086781763
 51
64.62599132180736
  0
ARC
  5
3BB
102
{ACAD_REACTORS
330
429
330
42A
102
}
330
71
100
AcDbEntity
  8
0
  6
Continuous
 62
     2
100
AcDbCircle
 10
-58.8832111856207
 20
20.22313696531089
 30
0.0
 40
0.3157169230760639
100
AcDbArc
 50
90.18896704254463
 51
180.0
  0
ARC
  5
3BC
102
{ACAD_REACTORS
330
42B
330
42C
102
}
330
71
100
AcDbEntity
  8
0
  6
Continuous
 62
     2
100
AcDbCircle
 10
-37.67308097278638
 20
16.15260813146969
 30
0.0
 40
0.9545230068260899
100
AcDbArc
 50
90.0
 51
109.3371432194321
  0
ARC
  5
3BD
102
{ACAD_REACTORS
330
42B
330
42C
102
}
330
71
100
AcDbEntity
  8
0
  6
Continuous
 62
     2
100
AcDbCircle
 10
-37.4423937128087
 20
16.36549168251358
 30
0.0
 40
0.9410597353348862
100
AcDbArc
 50
151.4785267423622
 51
208.5214732576696
  0
ARC
  5
3BE
102
{ACAD_REACTORS
330
42B
330
42C
102
}
330
71
100
AcDbEntity
  8
0
  6
Continuous
 62
     2
100
AcDbCircle
 10
-37.66331093818698
 20
16.52241227188509
 30
0.0
 40
0.9059297849852784
100
AcDbArc
 50
246.6277221118182
 51
288.4480761180817
  0
ARC
  5
3BF
102
{ACAD_REACTORS
330
42B
330
42C
102
}
330
71
100
AcDbEntity
  8
0
  6
Continuous
 62
     2
100
AcDbCircle
 10
-38.08147867184889
 20
17.77595804792168
 30
0.0
 40
2.227384008972748
100
AcDbArc
 50
288.4480761181337
 51
301.9309089499399
  0
ARC
  5
3C0
102
{ACAD_REACTORS
330
42B
330
42C
102
}
330
71
100
AcDbEntity
  8
0
  6
Continuous
 62
     2
100
AcDbCircle
 10
-38.23935154694169
 20
19.67817262776998
 30
0.0
 40
4.852596863498825
100
AcDbArc
 50
275.1581447696362
 51
285.9799912583387
  0
ARC
  5
3C1
102
{ACAD_REACTORS
330
42B
330
42C
102
}
330
71
100
AcDbEntity
  8
0
  6
Continuous
 62
     2
100
AcDbCircle
 10
-37.95049545220587
 20
16.47828204454839
 30
0.0
 40
1.639695123940453
100
AcDbArc
 50
195.0618917771009
 51
275.158144769676
  0
ARC
  5
3C2
102
{ACAD_REACTORS
330
423
330
424
102
}
330
71
100
AcDbEntity
  8
0
  6
Continuous
 62
     2
100
AcDbCircle
 10
-53.67870876389699
 20
20.1962212792601
 30
0.0
 40
1.055365641333712
100
AcDbArc
 50
270.0
 51
90.0
  0
ARC
  5
3C3
102
{ACAD_REACTORS
330
429
330
42A
102
}
330
71
100
AcDbEntity
  8
0
  6
Continuous
 62
     2
100
AcDbCircle
 10
-61.4587598721524
 20
15.86685939924189
 30
0.0
 40
0.3157169230756836
100
AcDbArc
 50
180.0
 51
270.0
  0
ARC
  5
3C4
102
{ACAD_REACTORS
330
429
330
42A
102
}
330
71
100
AcDbEntity
  8
0
  6
Continuous
 62
     2
100
AcDbCircle
 10
-59.98292661114277
 20
20.22331444195899
 30
0.0
 40
0.315716923076593
100
AcDbArc
 50
0.0
 51
90.0
  0
ARC
  5
3C5
102
{ACAD_REACTORS
330
429
330
42A
102
}
330
71
100
AcDbEntity
  8
0
  6
Continuous
 62
     2
100
AcDbCircle
 10
-59.98292661114277
 20
19.61928982289848
 30
0.0
 40
0.3157169230761172
100
AcDbArc
 50
295.1944106485386
 51
0.0
  0
ARC
  5
3C6
102
{ACAD_REACTORS
330
429
330
42A
102
}
330
71
100
AcDbEntity
  8
0
  6
Continuous
 62
     2
100
AcDbCircle
 10
-59.98292661114277
 20
15.86685939924189
 30
0.0
 40
0.3157169230767085
100
AcDbArc
 50
270.0
 51
0.0
  0
ARC
  5
3C7
102
{ACAD_REACTORS
330
429
330
42A
102
}
330
71
100
AcDbEntity
  8
0
  6
Continuous
 62
     2
100
AcDbCircle
 10
-62.05265454889889
 20
20.82734230519179
 30
0.0
 40
0.4242446153837989
100
AcDbArc
 50
90.0
 51
180.0
  0
ARC
  5
3C8
102
{ACAD_REACTORS
330
429
330
42A
102
}
330
71
100
AcDbEntity
  8
0
  6
Continuous
 62
     2
100
AcDbCircle
 10
-56.57934245818208
 20
20.82734230519179
 30
0.0
 40
0.4242446153838841
100
AcDbArc
 50
0.0
 51
90.0
  0
ARC
  5
3C9
102
{ACAD_REACTORS
330
429
330
42A
102
}
330
71
100
AcDbEntity
  8
0
  6
Continuous
 62
     2
100
AcDbCircle
 10
-56.57934245818208
 20
15.26283153599158
 30
0.0
 40
0.4242446153832908
100
AcDbArc
 50
270.0
 51
0.0
  0
ARC
  5
3CA
102
{ACAD_REACTORS
330
427
330
428
102
}
330
71
100
AcDbEntity
  8
0
  6
Continuous
 62
     2
100
AcDbCircle
 10
-47.36095857109058
 20
19.7246821586879
 30
0.0
 40
0.7717997786796373
100
AcDbArc
 50
321.8795802028437
 51
38.12041979715956
  0
ARC
  5
3CB
102
{ACAD_REACTORS
330
427
330
428
102
}
330
71
100
AcDbEntity
  8
0
  6
Continuous
 62
     2
100
AcDbCircle
 10
-47.16121853474439
 20
19.56795098056747
 30
0.0
 40
0.5179085730134383
100
AcDbArc
 50
218.12041979715
 51
321.8795802028573
  0
ARC
  5
3CC
102
{ACAD_REACTORS
330
425
330
426
102
}
330
71
100
AcDbEntity
  8
0
  6
Continuous
 62
     2
100
AcDbCircle
 10
-50.84122612370459
 20
16.36549168251358
 30
0.0
 40
1.458034083652003
100
AcDbArc
 50
297.548148175701
 51
62.45185182429901
  0
ARC
  5
3CD
102
{ACAD_REACTORS
330
425
330
426
102
}
330
71
100
AcDbEntity
  8
0
  6
Continuous
 62
     2
100
AcDbCircle
 10
-51.40310590737118
 20
16.36549168251358
 30
0.0
 40
1.458034083651496
100
AcDbArc
 50
117.5481481756626
 51
242.4518518243373
  0
ARC
  5
3CE
102
{ACAD_REACTORS
330
425
330
426
102
}
330
71
100
AcDbEntity
  8
0
  6
Continuous
 62
     2
100
AcDbCircle
 10
-51.12216601553789
 20
15.82691667221079
 30
0.0
 40
2.065479772208569
100
AcDbArc
 50
62.45185182430616
 51
117.5481481756662
  0
ARC
  5
3CF
102
{ACAD_REACTORS
330
425
330
426
102
}
330
71
100
AcDbEntity
  8
0
  6
Continuous
 62
     2
100
AcDbCircle
 10
-51.12216601553789
 20
16.90406669281688
 30
0.0
 40
2.065479772208502
100
AcDbArc
 50
242.4518518243403
 51
297.5481481756873
  0
ARC
  5
3D0
102
{ACAD_REACTORS
330
427
330
428
102
}
330
71
100
AcDbEntity
  8
0
  6
Continuous
 62
     2
100
AcDbCircle
 10
-46.96147849839809
 20
19.7246821586879
 30
0.0
 40
0.7717997786796835
100
AcDbArc
 50
141.8795802028411
 51
218.1204197971556
  0
ARC
  5
3D1
102
{ACAD_REACTORS
330
427
330
428
102
}
330
71
100
AcDbEntity
  8
0
  6
Continuous
 62
     2
100
AcDbCircle
 10
-47.16121853474439
 20
19.88141333680838
 30
0.0
 40
0.5179085730135288
100
AcDbArc
 50
38.12041979714365
 51
141.8795802028491
  0
ARC
  5
3D2
102
{ACAD_REACTORS
330
429
330
42A
102
}
330
71
100
AcDbEntity
  8
0
  6
Continuous
 62
     2
100
AcDbCircle
 10
-62.05265454889889
 20
15.26283153599158
 30
0.0
 40
0.424244615382797
100
AcDbArc
 50
180.0
 51
270.0
  0
ARC
  5
3D3
102
{ACAD_REACTORS
330
429
330
42A
102
}
330
71
100
AcDbEntity
  8
0
  6
Continuous
 62
     2
100
AcDbCircle
 10
-59.98292661114277
 20
17.3976303307735
 30
0.0
 40
0.315716923076593
100
AcDbArc
 50
0.0
 51
64.80558935146145
  0
ARC
  5
3D4
102
{ACAD_REACTORS
330
429
330
42A
102
}
330
71
100
AcDbEntity
  8
0
  6
Continuous
 62
     2
100
AcDbCircle
 10
-59.46034216356779
 20
18.50846007683629
 30
0.0
 40
0.9118975235576144
100
AcDbArc
 50
115.1944106485287
 51
244.8055893514874
  0
ARC
  5
3D5
102
{ACAD_REACTORS
330
429
330
42A
102
}
330
71
100
AcDbEntity
  8
0
  6
Continuous
 62
     2
100
AcDbCircle
 10
-61.4587598721524
 20
20.22331444195899
 30
0.0
 40
0.3157169230761987
100
AcDbArc
 50
90.0
 51
180.0
  0
ARC
  5
3D6
102
{ACAD_REACTORS
330
423
330
424
102
}
330
71
100
AcDbEntity
  8
0
  6
Continuous
 62
     2
100
AcDbCircle
 10
-54.12018129013538
 20
20.23561725048259
 30
0.0
 40
0.3528638246711218
100
AcDbArc
 50
270.0
 51
90.0
  0
ARC
  5
3D7
102
{ACAD_REACTORS
330
427
330
428
102
}
330
71
100
AcDbEntity
  8
0
  6
Continuous
 62
     2
100
AcDbCircle
 10
-47.37749054490959
 20
19.7246821586879
 30
0.0
 40
1.526904761905879
100
AcDbArc
 50
90.0
 51
270.0
  0
ARC
  5
3D8
102
{ACAD_REACTORS
330
42B
330
42C
102
}
330
71
100
AcDbEntity
  8
0
  6
Continuous
 62
     2
100
AcDbCircle
 10
-37.95049545220587
 20
16.25270132047868
 30
0.0
 40
1.639695123940211
100
AcDbArc
 50
90.0
 51
164.938108222895
  0
ARC
  5
3D9
102
{ACAD_REACTORS
330
42B
330
42C
102
}
330
71
100
AcDbEntity
  8
0
  6
Continuous
 62
     2
100
AcDbCircle
 10
-38.36962329566748
 20
16.36549168251358
 30
0.0
 40
1.205656168393009
100
AcDbArc
 50
164.9381082229029
 51
195.0618917770957
  0
ARC
  5
3DA
102
{ACAD_REACTORS
330
42B
330
42C
102
}
330
71
100
AcDbEntity
  8
0
  6
Continuous
 62
     2
100
AcDbCircle
 10
-37.81975097089008
 20
16.16042025317509
 30
0.0
 40
0.511580060196027
100
AcDbArc
 50
208.521473257686
 51
246.627722111844
  0
ARC
  5
3DB
102
{ACAD_REACTORS
330
42B
330
42C
102
}
330
71
100
AcDbEntity
  8
0
  6
Continuous
 62
     2
100
AcDbCircle
 10
-37.81975097089008
 20
16.57056311185258
 30
0.0
 40
0.5115800601944133
100
AcDbArc
 50
109.3371432194862
 51
151.4785267424228
  0
ARC
  5
3DC
102
{ACAD_REACTORS
330
429
330
42A
102
}
330
71
100
AcDbEntity
  8
0
  6
Continuous
 62
     2
100
AcDbCircle
 10
-58.8832111856207
 20
16.8174670701728
 30
0.0
 40
0.3157169230767849
100
AcDbArc
 50
180.0
 51
269.8110329574554
  0
ARC
  5
3DD
102
{ACAD_REACTORS
330
429
330
42A
102
}
330
71
100
AcDbEntity
  8
0
  6
Continuous
 62
     2
100
AcDbCircle
 10
-58.87759505031067
 20
18.52030201774178
 30
0.0
 40
2.018561131933259
100
AcDbArc
 50
269.8110329575857
 51
90.18896704241436
  0
ARC
  5
3DE
102
{ACAD_REACTORS
330
429
330
42A
102
}
330
71
100
AcDbEntity
  8
0
  6
Continuous
 62
     2
100
AcDbCircle
 10
-58.8832111856207
 20
19.6176016768041
 30
0.0
 40
0.3157169230767849
100
AcDbArc
 50
180.0
 51
244.6259913216493
  0
ARC
  5
3DF
102
{ACAD_REACTORS
330
429
330
42A
102
}
330
71
100
AcDbEntity
  8
0
  6
Continuous
 62
     2
100
AcDbCircle
 10
-58.8832111856207
 20
17.39931847686788
 30
0.0
 40
0.3157169230765233
100
AcDbArc
 50
115.3740086783512
 51
180.0
  0
ARC
  5
3E0
102
{ACAD_REACTORS
330
42D
330
42E
102
}
330
71
100
AcDbEntity
  8
0
  6
Continuous
 62
     2
100
AcDbCircle
 10
-54.05319693145879
 20
16.25270132047868
 30
0.0
 40
1.639695123940507
100
AcDbArc
 50
84.84185523036211
 51
164.9381082228864
  0
ARC
  5
3E1
102
{ACAD_REACTORS
330
42D
330
42E
102
}
330
71
100
AcDbEntity
  8
0
  6
Continuous
 62
     2
100
AcDbCircle
 10
-54.47232477492159
 20
16.36549168251358
 30
0.0
 40
1.205656168390944
100
AcDbArc
 50
164.9381082228765
 51
195.0618917770948
  0
ARC
  5
3E2
102
{ACAD_REACTORS
330
42D
330
42E
102
}
330
71
100
AcDbEntity
  8
0
  6
Continuous
 62
     2
100
AcDbCircle
 10
-54.05319693145879
 20
16.47828204454839
 30
0.0
 40
1.63969512393938
100
AcDbArc
 50
195.0618917770895
 51
275.1581447696398
  0
ARC
  5
3E3
102
{ACAD_REACTORS
330
42D
330
42E
102
}
330
71
100
AcDbEntity
  8
0
  6
Continuous
 62
     2
100
AcDbCircle
 10
-54.34205302619469
 20
19.67817262776998
 30
0.0
 40
4.852596863498136
100
AcDbArc
 50
275.1581447696249
 51
285.9799912583529
  0
ARC
  5
3E4
102
{ACAD_REACTORS
330
42D
330
42E
102
}
330
71
100
AcDbEntity
  8
0
  6
Continuous
 62
     2
100
AcDbCircle
 10
-53.54509519206269
 20
16.36549168251358
 30
0.0
 40
0.9410597353332545
100
AcDbArc
 50
151.4785267422669
 51
208.5214732577057
  0
ARC
  5
3E5
102
{ACAD_REACTORS
330
42D
330
42E
102
}
330
71
100
AcDbEntity
  8
0
  6
Continuous
 62
     2
100
AcDbCircle
 10
-53.922452450143
 20
16.57056311185258
 30
0.0
 40
0.5115800601948811
100
AcDbArc
 50
113.372277888199
 51
151.4785267423044
  0
ARC
  5
3E6
102
{ACAD_REACTORS
330
42D
330
42E
102
}
330
71
100
AcDbEntity
  8
0
  6
Continuous
 62
     2
100
AcDbCircle
 10
-54.18418015110177
 20
14.9550253171054
 30
0.0
 40
2.227384008973473
100
AcDbArc
 50
58.06909105004065
 51
71.5519238818672
  0
ARC
  5
3E7
102
{ACAD_REACTORS
330
425
330
426
102
}
330
71
100
AcDbEntity
  8
0
  6
Continuous
 62
     2
100
AcDbCircle
 10
-51.12216601553789
 20
16.52222286063409
 30
0.0
 40
0.5179085730133011
100
AcDbArc
 50
38.12041979714593
 51
141.8795802028589
  0
ARC
  5
3E8
102
{ACAD_REACTORS
330
425
330
426
102
}
330
71
100
AcDbEntity
  8
0
  6
Continuous
 62
     2
100
AcDbCircle
 10
-50.92242597919179
 20
16.36549168251358
 30
0.0
 40
0.7717997786794555
100
AcDbArc
 50
141.8795802028362
 51
218.1204197971689
  0
ARC
  5
3E9
102
{ACAD_REACTORS
330
425
330
426
102
}
330
71
100
AcDbEntity
  8
0
  6
Continuous
 62
     2
100
AcDbCircle
 10
-51.12216601553789
 20
16.20876050439358
 30
0.0
 40
0.5179085730137287
100
AcDbArc
 50
218.1204197971935
 51
321.8795802028017
  0
ARC
  5
3EA
102
{ACAD_REACTORS
330
425
330
426
102
}
330
71
100
AcDbEntity
  8
0
  6
Continuous
 62
     2
100
AcDbCircle
 10
-51.3219060518843
 20
16.36549168251358
 30
0.0
 40
0.7717997786796936
100
AcDbArc
 50
321.8795802028419
 51
38.12041979715308
  0
CIRCLE
  5
3EB
330
71
100
AcDbEntity
  8
1
  6
Continuous
 62
     2
100
AcDbCircle
 10
-53.97689916428169
 20
28.6700869205919
 30
0.0
 40
2.5
  0
CIRCLE
  5
3EC
330
71
100
AcDbEntity
  8
1
  6
Continuous
 62
     2
100
AcDbCircle
 10
-53.97689916428169
 20
28.6700869205919
 30
0.0
 40
1.249999999999908
  0
CIRCLE
  5
3ED
102
{ACAD_REACTORS
330
429
330
42A
102
}
330
71
100
AcDbEntity
  8
0
  6
Continuous
 62
     2
100
AcDbCircle
 10
-59.43306889838138
 20
18.50846007683629
 30
0.0
 40
0.4709789327785074
  0
MTEXT
  5
3EE
330
71
100
AcDbEntity
  8
1
 62
     3
100
AcDbMText
 10
-224.1636817380225
 20
194.3363950758908
 30
0.0
 40
1.8
 41
0.0
 71
     7
 72
     1
  3
Weitergabe sowie Vervielf\U+00e4ltigung dieses Dokuments, Verwertung und \PMitteilung seines Inhalts sind verboten, soweit nicht ausdr\U+00fccklich gestattet. \PZuwiderhandlungen verpflichten zu Schadenersatz. Alle Rechte f\U+00fcr den Fall\Pder Pat
  1
ent-, Gebrauchsmuster- oder Designeintragung vorbehalten.
  7
CONVERTER_11
 73
     1
 44
0.99639855942377
  0
MTEXT
  5
3EF
330
71
100
AcDbEntity
  8
1
 62
     3
100
AcDbMText
 10
-41.31057189923439
 20
194.3363950758908
 30
0.0
 40
1.8
 41
0.0
 71
     7
 72
     1
  3
Transfer or duplication of this document as well as the utilisation or\Pcommunication of its content are not permitted unless express consent\Pis granted. Violations give rise to claims for damages. All rights reserved\Pin case of patent, utility mo
  1
del or design patent registrations.
  7
CONVERTER_11
 73
     1
 44
0.99639855942377
  0
TEXT
  5
3F0
330
71
100
AcDbEntity
  8
1
 62
     2
100
AcDbText
 10
-47.51355405084448
 20
8.78606970560037
 30
0.0
 40
1.8
  1
of
 41
0.9
  7
CONVERTER_11
100
AcDbText
  0
TEXT
  5
3F1
330
71
100
AcDbEntity
  8
1
 62
     2
100
AcDbText
 10
-65.7135540508443
 20
8.78606970560031
 30
0.0
 40
1.8
  1
page
 41
0.9
  7
CONVERTER_11
100
AcDbText
  0
TEXT
  5
3F2
330
71
100
AcDbEntity
  8
1
 62
     2
100
AcDbText
 10
-57.06728908050229
 20
8.74583826678997
 30
0.0
 40
1.8
  1
1
 41
0.9
  7
CONVERTER_11
100
AcDbText
  0
TEXT
  5
3F3
330
71
100
AcDbEntity
  8
1
 62
     2
100
AcDbText
 10
-42.27824524103079
 20
8.79508692059187
 30
0.0
 40
1.8
  1
1
 41
0.9
  7
CONVERTER_11
100
AcDbText
  0
MTEXT
  5
3F5
330
71
100
AcDbEntity
  8
1
 62
     7
100
AcDbMText
 10
16.25884821253121
 20
10.79508692059221
 30
0.0
 40
3.0
 41
0.0
 71
     5
 72
     1
  1
URKN/S
  7
CONVERTER_12
 73
     1
 44
1.20048019207683
  0
MTEXT
  5
3F6
330
71
100
AcDbEntity
  8
1
 62
     2
100
AcDbMText
 10
-29.31355405084437
 20
15.04508692059198
 30
0.0
 40
1.8
 41
0.0
 71
     1
 72
     1
  1
description
  7
CONVERTER_11
 73
     1
 44
1.20048019207683
  0
MTEXT
  5
3F7
330
71
100
AcDbEntity
  8
1
 62
     3
100
AcDbMText
 10
-40.51355405084439
 20
28.67008692059198
 30
0.0
 40
2.5
 41
0.0
 71
     5
 72
     1
  1
DIN A4
  7
CONVERTER_11
 73
     1
 44
1.20048019207683
  0
MTEXT
  5
3F8
330
71
100
AcDbEntity
  8
1
 62
     7
100
AcDbMText
 10
-226.6687495240934
 20
30.04508692059198
 30
0.0
 40
3.5
 41
0.0
 71
     5
 72
     1
  1
D
  7
CONVERTER_11
 73
     1
 44
1.20048019207683
  0
MTEXT
  5
3F9
330
71
100
AcDbEntity
  8
1
 62
     7
100
AcDbMText
 10
-226.6687495240934
 20
82.54508692059198
 30
0.0
 40
3.5
 41
0.0
 71
     5
 72
     1
  1
C
  7
CONVERTER_11
 73
     1
 44
1.20048019207683
  0
MTEXT
  5
3FA
330
71
100
AcDbEntity
  8
1
 62
     7
100
AcDbMText
 10
-226.6687495240934
 20
132.545086920592
 30
0.0
 40
3.5
 41
0.0
 71
     5
 72
     1
  1
B
  7
CONVERTER_11
 73
     1
 44
1.20048019207683
  0
MTEXT
  5
3FB
330
71
100
AcDbEntity
  8
1
 62
     7
100
AcDbMText
 10
-226.6687495240934
 20
185.045086920592
 30
0.0
 40
3.5
 41
0.0
 71
     5
 72
     1
  1
A
  7
CONVERTER_11
 73
     1
 44
1.20048019207683
  0
MTEXT
  5
3FC
330
71
100
AcDbEntity
  8
1
 62
     7
100
AcDbMText
 10
43.58125047590491
 20
5.04508692059187
 30
0.0
 40
3.5
 41
0.0
 71
     5
 72
     1
  1
6
  7
CONVERTER_11
 73
     1
 44
1.20048019207683
  0
MTEXT
  5
3FD
330
71
100
AcDbEntity
  8
1
 62
     7
100
AcDbMText
 10
-5.6687495240943
 20
5.04508692059187
 30
0.0
 40
3.5
 41
0.0
 71
     5
 72
     1
  1
5
  7
CONVERTER_11
 73
     1
 44
1.20048019207683
  0
MTEXT
  5
3FE
330
71
100
AcDbEntity
  8
1
 62
     7
100
AcDbMText
 10
-55.66874952409438
 20
5.04508692059187
 30
0.0
 40
3.5
 41
0.0
 71
     5
 72
     1
  1
4
  7
CONVERTER_11
 73
     1
 44
1.20048019207683
  0
MTEXT
  5
3FF
330
71
100
AcDbEntity
  8
1
 62
     7
100
AcDbMText
 10
-105.6687495240943
 20
5.04508692059187
 30
0.0
 40
3.5
 41
0.0
 71
     5
 72
     1
  1
3
  7
CONVERTER_11
 73
     1
 44
1.20048019207683
  0
MTEXT
  5
400
330
71
100
AcDbEntity
  8
1
 62
     7
100
AcDbMText
 10
-155.6687495240943
 20
5.04508692059187
 30
0.0
 40
3.5
 41
0.0
 71
     5
 72
     1
  1
2
  7
CONVERTER_11
 73
     1
 44
1.20048019207683
  0
MTEXT
  5
401
330
71
100
AcDbEntity
  8
1
 62
     7
100
AcDbMText
 10
-204.9187495240939
 20
5.04508692059187
 30
0.0
 40
3.5
 41
0.0
 71
     5
 72
     1
  1
1
  7
CONVERTER_11
 73
     1
 44
1.20048019207683
  0
MTEXT
  5
402
330
71
100
AcDbEntity
  8
1
 62
     7
100
AcDbMText
 10
65.33125047590471
 20
30.04508692059198
 30
0.0
 40
3.5
 41
0.0
 71
     5
 72
     1
  1
D
  7
CONVERTER_11
 73
     1
 44
1.20048019207683
  0
MTEXT
  5
403
330
71
100
AcDbEntity
  8
1
 62
     7
100
AcDbMText
 10
65.33125047590471
 20
132.5450869205939
 30
0.0
 40
3.5
 41
0.0
 71
     5
 72
     1
  1
B
  7
CONVERTER_11
 73
     1
 44
1.20048019207683
  0
MTEXT
  5
404
330
71
100
AcDbEntity
  8
1
 62
     7
100
AcDbMText
 10
65.33125047590471
 20
185.045086920592
 30
0.0
 40
3.5
 41
0.0
 71
     5
 72
     1
  1
A
  7
CONVERTER_11
 73
     1
 44
1.20048019207683
  0
MTEXT
  5
405
330
71
100
AcDbEntity
  8
1
 62
     7
100
AcDbMText
 10
65.33125047590471
 20
82.54508692059389
 30
0.0
 40
3.5
 41
0.0
 71
     5
 72
     1
  1
C
  7
CONVERTER_11
 73
     1
 44
1.20048019207683
  0
MTEXT
  5
406
330
71
100
AcDbEntity
  8
1
 62
     2
100
AcDbMText
 10
-101.1515687758918
 20
20.2950869205919
 30
0.0
 40
2.0
 41
0.0
 71
     5
 72
     1
  1
General Information\P- Simplified representation\P- Document excluded from change process\P- Linear dimensions [mm]
  7
CONVERTER_11
 73
     1
 44
1.20048019207683
  0
TEXT
  5
407
330
71
100
AcDbEntity
  8
1
 62
     7
100
AcDbText
 10
-28.81355405084457
 20
17.34508692059188
 30
0.0
 40
2.5
  1
0701024
 41
0.81
  7
CONVERTER_12
100
AcDbText
  0
MTEXT
  5
408
330
71
100
AcDbEntity
  8
1
 62
     2
100
AcDbMText
 10
-29.21355405084429
 20
23.54508692059198
 30
0.0
 40
1.8
 41
0.0
 71
     1
 72
     1
  1
ident.-No.
  7
CONVERTER_11
 73
     1
 44
1.20048019207683
  0
MTEXT
  5
409
330
71
100
AcDbEntity
  8
1
 62
     2
100
AcDbMText
 10
55.01284219422843
 20
32.04508692059198
 30
0.0
 40
1.8
 41
0.0
 71
     1
 72
     1
  1
scale
  7
CONVERTER_11
 73
     1
 44
1.20048019207683
  0
MTEXT
  5
40B
330
71
100
AcDbEntity
  8
1
 62
     3
100
AcDbMText
 10
58.37204633506802
 20
25.84508692059208
 30
0.0
 40
2.5
 41
0.0
 71
     8
 72
     1
  1
1:1
  7
CONVERTER_13
 73
     1
 44
1.32052821128451
  0
TEXT
  5
40C
330
71
100
AcDbEntity
  8
1
 62
     7
100
AcDbText
 10
-29.21355405084429
 20
25.84508692059188
 30
0.0
 40
2.5
  1
00447693
 41
0.81
  7
CONVERTER_12
100
AcDbText
  0
MTEXT
  5
40E
330
71
100
AcDbEntity
  8
1
 62
     2
100
AcDbMText
 10
-29.21355405084429
 20
32.04508692059198
 30
0.0
 40
1.8
 41
0.0
 71
     1
 72
     1
  1
document-No. / RI
  7
CONVERTER_14
 73
     1
 44
1.32052821128451
  0
TEXT
  5
40F
330
71
100
AcDbEntity
  8
1
 62
     3
100
AcDbText
 10
-1.41355405084428
 20
17.34508692059188
 30
0.0
 40
2.5
  1
TECDOC 2D_Productdrawing
 41
0.81
  7
CONVERTER_12
100
AcDbText
  0
MTEXT
  5
410
330
71
100
AcDbEntity
  8
1
 62
     2
100
AcDbMText
 10
-1.41355405084428
 20
23.5450869205919
 30
0.0
 40
1.8
 41
0.0
 71
     1
 72
     1
  1
document-type
  7
CONVERTER_11
 73
     1
 44
1.20048019207683
  0
MTEXT
  5
411
330
71
100
AcDbEntity
  8
1
 62
     2
100
AcDbMText
 10
28.4128421942286
 20
32.0450869205919
 30
0.0
 40
1.8
 41
0.0
 71
     1
 72
     1
  1
date
  7
CONVERTER_11
 73
     1
 44
1.32052821128451
  0
TEXT
  5
412
330
71
100
AcDbEntity
  8
1
 62
     3
100
AcDbText
 10
28.4128421942286
 20
25.84508692059188
 30
0.0
 40
2.5
  1
20.02.2018
 41
0.81
  7
CONVERTER_12
100
AcDbText
  0
TEXT
  5
413
330
71
100
AcDbEntity
  8
1
 62
     7
100
AcDbText
 10
-9.18364183178849
 20
25.84508692059188
 30
0.0
 40
2.5
  1
00
 41
0.81
  7
CONVERTER_12
100
AcDbText
  0
TEXT
  5
414
330
71
100
AcDbEntity
  8
1
 62
     7
100
AcDbText
 10
-11.3400063288305
 20
25.84508692059188
 30
0.0
 40
2.5
  1
/
 41
0.9
  7
CONVERTER_11
100
AcDbText
  0
HATCH
  5
415
330
71
100
AcDbEntity
  8
1
  6
Continuous
 62
     2
100
AcDbHatch
 10
0.0
 20
0.0
 30
0.0
210
0.0
220
0.0
230
1.0
  2
_USER
 70
     0
 71
     1
 91
        1
 92
        1
 93
       12
 72
     1
 10
-49.04605333788319
 20
18.19777739678258
 11
-50.23884604004959
 21
18.19777739678258
 72
     1
 10
-50.23884604004959
 20
18.19777739678258
 11
-50.23884604004959
 21
19.3320495056264
 72
     1
 10
-50.23884604004959
 20
19.3320495056264
 11
-51.28850361795708
 21
19.3320495056264
 72
     1
 10
-51.28850361795708
 20
19.3320495056264
 11
-51.28850361795708
 21
18.19777739678258
 72
     1
 10
-51.28850361795708
 20
18.19777739678258
 11
-52.48129632012368
 21
18.19777739678258
 72
     1
 10
-52.48129632012368
 20
18.19777739678258
 11
-52.48129632012368
 21
21.25158692059378
 72
     1
 10
-52.48129632012368
 20
21.25158692059378
 11
-51.28850361795708
 21
21.25158692059378
 72
     1
 10
-51.28850361795708
 20
21.25158692059378
 11
-51.28850361795708
 21
20.18275358725919
 72
     1
 10
-51.28850361795708
 20
20.18275358725919
 11
-50.23884604004959
 21
20.18275358725919
 72
     1
 10
-50.23884604004959
 20
20.18275358725919
 11
-50.23884604004959
 21
21.25158692059378
 72
     1
 10
-50.23884604004959
 20
21.25158692059378
 11
-49.04605333788319
 21
21.25158692059378
 72
     1
 10
-49.04605333788319
 20
21.25158692059378
 11
-49.04605333788319
 21
18.19777739678258
 97
       12
330
382
330
383
330
36D
330
36C
330
36B
330
37F
330
36A
330
380
330
381
330
369
330
368
330
367
 75
     1
 76
     0
 52
45.0
 41
0.1
 77
     0
 78
     1
 53
45.0
 43
0.0
 44
0.0
 45
-0.0707106781186548
 46
0.0707106781186548
 79
     0
 98
        1
 10
0.0
 20
0.0
  0
HATCH
  5
416
330
71
100
AcDbEntity
  8
1
  6
Continuous
 62
     2
100
AcDbHatch
 10
0.0
 20
0.0
 30
0.0
210
0.0
220
0.0
230
1.0
  2
_USER
 70
     0
 71
     1
 91
        1
 92
        1
 93
       12
 72
     1
 10
-49.04605333788319
 20
18.19777739678258
 11
-50.23884604004959
 21
18.19777739678258
 72
     1
 10
-50.23884604004959
 20
18.19777739678258
 11
-50.23884604004959
 21
19.3320495056264
 72
     1
 10
-50.23884604004959
 20
19.3320495056264
 11
-51.28850361795708
 21
19.3320495056264
 72
     1
 10
-51.28850361795708
 20
19.3320495056264
 11
-51.28850361795708
 21
18.19777739678258
 72
     1
 10
-51.28850361795708
 20
18.19777739678258
 11
-52.48129632012368
 21
18.19777739678258
 72
     1
 10
-52.48129632012368
 20
18.19777739678258
 11
-52.48129632012368
 21
21.25158692059378
 72
     1
 10
-52.48129632012368
 20
21.25158692059378
 11
-51.28850361795708
 21
21.25158692059378
 72
     1
 10
-51.28850361795708
 20
21.25158692059378
 11
-51.28850361795708
 21
20.18275358725919
 72
     1
 10
-51.28850361795708
 20
20.18275358725919
 11
-50.23884604004959
 21
20.18275358725919
 72
     1
 10
-50.23884604004959
 20
20.18275358725919
 11
-50.23884604004959
 21
21.25158692059378
 72
     1
 10
-50.23884604004959
 20
21.25158692059378
 11
-49.04605333788319
 21
21.25158692059378
 72
     1
 10
-49.04605333788319
 20
21.25158692059378
 11
-49.04605333788319
 21
18.19777739678258
 97
       12
330
382
330
383
330
36D
330
36C
330
36B
330
37F
330
36A
330
380
330
381
330
369
330
368
330
367
 75
     1
 76
     0
 52
45.0
 41
0.1
 77
     0
 78
     1
 53
45.0
 43
0.0
 44
0.0
 45
-0.0707106781186548
 46
0.0707106781186548
 79
     0
 98
        1
 10
0.0
 20
0.0
  0
HATCH
  5
417
330
71
100
AcDbEntity
  8
1
  6
Continuous
 62
     2
100
AcDbHatch
 10
0.0
 20
0.0
 30
0.0
210
0.0
220
0.0
230
1.0
  2
_USER
 70
     0
 71
     1
 91
        1
 92
        1
 93
       10
 72
     1
 10
-46.80375398869489
 20
16.58362093421428
 11
-48.04425839894779
 21
17.89239644441938
 72
     1
 10
-48.04425839894779
 20
17.89239644441938
 11
-49.23705110111538
 21
17.89239644441938
 72
     1
 10
-49.23705110111538
 20
17.89239644441938
 11
-49.23705110111538
 21
14.83858692060829
 72
     1
 10
-49.23705110111538
 20
14.83858692060829
 11
-48.04425839894779
 21
14.83858692060829
 72
     1
 10
-48.04425839894779
 20
14.83858692060829
 11
-48.04425839894779
 21
16.14736243081288
 72
     1
 10
-48.04425839894779
 20
16.14736243081288
 11
-46.80375398869489
 21
14.83858692060829
 72
     1
 10
-46.80375398869489
 20
14.83858692060829
 11
-45.61096128652849
 21
14.83858692060829
 72
     1
 10
-45.61096128652849
 20
14.83858692060829
 11
-45.61096128652849
 21
17.89239644441938
 72
     1
 10
-45.61096128652849
 20
17.89239644441938
 11
-46.80375398869489
 21
17.89239644441938
 72
     1
 10
-46.80375398869489
 20
17.89239644441938
 11
-46.80375398869489
 21
16.58362093421428
 97
       10
330
390
330
360
330
35F
330
362
330
38B
330
38C
330
361
330
38D
330
38E
330
38F
 75
     1
 76
     0
 52
45.0
 41
0.1
 77
     0
 78
     1
 53
45.0
 43
0.0
 44
0.0
 45
-0.0707106781186548
 46
0.0707106781186548
 79
     0
 98
        1
 10
0.0
 20
0.0
  0
HATCH
  5
418
330
71
100
AcDbEntity
  8
1
  6
Continuous
 62
     2
100
AcDbHatch
 10
0.0
 20
0.0
 30
0.0
210
0.0
220
0.0
230
1.0
  2
_USER
 70
     0
 71
     1
 91
        1
 92
        1
 93
       10
 72
     1
 10
-46.80375398869489
 20
16.58362093421428
 11
-48.04425839894779
 21
17.89239644441938
 72
     1
 10
-48.04425839894779
 20
17.89239644441938
 11
-49.23705110111538
 21
17.89239644441938
 72
     1
 10
-49.23705110111538
 20
17.89239644441938
 11
-49.23705110111538
 21
14.83858692060829
 72
     1
 10
-49.23705110111538
 20
14.83858692060829
 11
-48.04425839894779
 21
14.83858692060829
 72
     1
 10
-48.04425839894779
 20
14.83858692060829
 11
-48.04425839894779
 21
16.14736243081288
 72
     1
 10
-48.04425839894779
 20
16.14736243081288
 11
-46.80375398869489
 21
14.83858692060829
 72
     1
 10
-46.80375398869489
 20
14.83858692060829
 11
-45.61096128652849
 21
14.83858692060829
 72
     1
 10
-45.61096128652849
 20
14.83858692060829
 11
-45.61096128652849
 21
17.89239644441938
 72
     1
 10
-45.61096128652849
 20
17.89239644441938
 11
-46.80375398869489
 21
17.89239644441938
 72
     1
 10
-46.80375398869489
 20
17.89239644441938
 11
-46.80375398869489
 21
16.58362093421428
 97
       10
330
390
330
360
330
35F
330
362
330
38B
330
38C
330
361
330
38D
330
38E
330
38F
 75
     1
 76
     0
 52
45.0
 41
0.1
 77
     0
 78
     1
 53
45.0
 43
0.0
 44
0.0
 45
-0.0707106781186548
 46
0.0707106781186548
 79
     0
 98
        1
 10
0.0
 20
0.0
  0
HATCH
  5
419
330
71
100
AcDbEntity
  8
1
  6
Continuous
 62
     2
100
AcDbHatch
 10
0.0
 20
0.0
 30
0.0
210
0.0
220
0.0
230
1.0
  2
_USER
 70
     0
 71
     1
 91
        1
 92
        1
 93
       10
 72
     1
 10
-41.55531516827517
 20
19.9428114103886
 11
-42.79581957852918
 21
21.25158692059378
 72
     1
 10
-42.79581957852918
 20
21.25158692059378
 11
-43.98861228069569
 21
21.25158692059378
 72
     1
 10
-43.98861228069569
 20
21.25158692059378
 11
-43.98861228069569
 21
18.19777739678258
 72
     1
 10
-43.98861228069569
 20
18.19777739678258
 11
-42.79581957852918
 21
18.19777739678258
 72
     1
 10
-42.79581957852918
 20
18.19777739678258
 11
-42.79581957852918
 21
19.50655290698728
 72
     1
 10
-42.79581957852918
 20
19.50655290698728
 11
-41.55531516827517
 21
18.19777739678258
 72
     1
 10
-41.55531516827517
 20
18.19777739678258
 11
-40.36252246610857
 21
18.19777739678258
 72
     1
 10
-40.36252246610857
 20
18.19777739678258
 11
-40.36252246610857
 21
21.25158692059378
 72
     1
 10
-40.36252246610857
 20
21.25158692059378
 11
-41.55531516827517
 21
21.25158692059378
 72
     1
 10
-41.55531516827517
 20
21.25158692059378
 11
-41.55531516827517
 21
19.9428114103886
 97
       10
330
395
330
35D
330
35C
330
396
330
35B
330
391
330
392
330
393
330
394
330
35E
 75
     1
 76
     0
 52
45.0
 41
0.1
 77
     0
 78
     1
 53
45.0
 43
0.0
 44
0.0
 45
-0.0707106781186548
 46
0.0707106781186548
 79
     0
 98
        1
 10
0.0
 20
0.0
  0
HATCH
  5
41A
330
71
100
AcDbEntity
  8
1
  6
Continuous
 62
     2
100
AcDbHatch
 10
0.0
 20
0.0
 30
0.0
210
0.0
220
0.0
230
1.0
  2
_USER
 70
     0
 71
     1
 91
        1
 92
        1
 93
       10
 72
     1
 10
-41.55531516827517
 20
19.9428114103886
 11
-42.79581957852918
 21
21.25158692059378
 72
     1
 10
-42.79581957852918
 20
21.25158692059378
 11
-43.98861228069569
 21
21.25158692059378
 72
     1
 10
-43.98861228069569
 20
21.25158692059378
 11
-43.98861228069569
 21
18.19777739678258
 72
     1
 10
-43.98861228069569
 20
18.19777739678258
 11
-42.79581957852918
 21
18.19777739678258
 72
     1
 10
-42.79581957852918
 20
18.19777739678258
 11
-42.79581957852918
 21
19.50655290698728
 72
     1
 10
-42.79581957852918
 20
19.50655290698728
 11
-41.55531516827517
 21
18.19777739678258
 72
     1
 10
-41.55531516827517
 20
18.19777739678258
 11
-40.36252246610857
 21
18.19777739678258
 72
     1
 10
-40.36252246610857
 20
18.19777739678258
 11
-40.36252246610857
 21
21.25158692059378
 72
     1
 10
-40.36252246610857
 20
21.25158692059378
 11
-41.55531516827517
 21
21.25158692059378
 72
     1
 10
-41.55531516827517
 20
21.25158692059378
 11
-41.55531516827517
 21
19.9428114103886
 97
       10
330
395
330
35D
330
35C
330
396
330
35B
330
391
330
392
330
393
330
394
330
35E
 75
     1
 76
     0
 52
45.0
 41
0.1
 77
     0
 78
     1
 53
45.0
 43
0.0
 44
0.0
 45
-0.0707106781186548
 46
0.0707106781186548
 79
     0
 98
        1
 10
0.0
 20
0.0
  0
HATCH
  5
41B
330
71
100
AcDbEntity
  8
1
  6
Continuous
 62
     2
100
AcDbHatch
 10
0.0
 20
0.0
 30
0.0
210
0.0
220
0.0
230
1.0
  2
_USER
 70
     0
 71
     1
 91
        1
 92
        1
 93
        8
 72
     1
 10
-42.65283538515467
 20
17.89239644441938
 11
-45.4678261622683
 21
17.89239644441938
 72
     1
 10
-45.4678261622683
 20
17.89239644441938
 11
-45.4678261622683
 21
17.10713113829578
 72
     1
 10
-45.4678261622683
 20
17.10713113829578
 11
-44.65672712479369
 21
17.10713113829578
 72
     1
 10
-44.65672712479369
 20
17.10713113829578
 11
-44.65672712479369
 21
14.83858692060829
 72
     1
 10
-44.65672712479369
 20
14.83858692060829
 11
-43.46393442262718
 21
14.83858692060829
 72
     1
 10
-43.46393442262718
 20
14.83858692060829
 11
-43.46393442262718
 21
17.10713113829578
 72
     1
 10
-43.46393442262718
 20
17.10713113829578
 11
-42.65283538515467
 21
17.10713113829578
 72
     1
 10
-42.65283538515467
 20
17.10713113829578
 11
-42.65283538515467
 21
17.89239644441938
 97
        8
330
357
330
397
330
356
330
398
330
399
330
35A
330
359
330
358
 75
     1
 76
     0
 52
45.0
 41
0.1
 77
     0
 78
     1
 53
45.0
 43
0.0
 44
0.0
 45
-0.0707106781186548
 46
0.0707106781186548
 79
     0
 98
        1
 10
0.0
 20
0.0
  0
HATCH
  5
41C
330
71
100
AcDbEntity
  8
1
  6
Continuous
 62
     2
100
AcDbHatch
 10
0.0
 20
0.0
 30
0.0
210
0.0
220
0.0
230
1.0
  2
_USER
 70
     0
 71
     1
 91
        1
 92
        1
 93
        8
 72
     1
 10
-42.65283538515467
 20
17.89239644441938
 11
-45.4678261622683
 21
17.89239644441938
 72
     1
 10
-45.4678261622683
 20
17.89239644441938
 11
-45.4678261622683
 21
17.10713113829578
 72
     1
 10
-45.4678261622683
 20
17.10713113829578
 11
-44.65672712479369
 21
17.10713113829578
 72
     1
 10
-44.65672712479369
 20
17.10713113829578
 11
-44.65672712479369
 21
14.83858692060829
 72
     1
 10
-44.65672712479369
 20
14.83858692060829
 11
-43.46393442262718
 21
14.83858692060829
 72
     1
 10
-43.46393442262718
 20
14.83858692060829
 11
-43.46393442262718
 21
17.10713113829578
 72
     1
 10
-43.46393442262718
 20
17.10713113829578
 11
-42.65283538515467
 21
17.10713113829578
 72
     1
 10
-42.65283538515467
 20
17.10713113829578
 11
-42.65283538515467
 21
17.89239644441938
 97
        8
330
357
330
397
330
356
330
398
330
399
330
35A
330
359
330
358
 75
     1
 76
     0
 52
45.0
 41
0.1
 77
     0
 78
     1
 53
45.0
 43
0.0
 44
0.0
 45
-0.0707106781186548
 46
0.0707106781186548
 79
     0
 98
        1
 10
0.0
 20
0.0
  0
HATCH
  5
41D
330
71
100
AcDbEntity
  8
1
  6
Continuous
 62
     2
100
AcDbHatch
 10
0.0
 20
0.0
 30
0.0
210
0.0
220
0.0
230
1.0
  2
_USER
 70
     0
 71
     1
 91
        2
 92
        1
 93
        8
 72
     1
 10
-40.51440792920769
 20
14.83858692060829
 11
-40.72588798268347
 21
15.37954746482618
 72
     1
 10
-40.72588798268347
 20
15.37954746482618
 11
-41.85832955935729
 21
15.37954746482618
 72
     1
 10
-41.85832955935729
 20
15.37954746482618
 11
-42.0698096128331
 21
14.83858692060829
 72
     1
 10
-42.0698096128331
 20
14.83858692060829
 11
-43.31031402308608
 21
14.83858692060829
 72
     1
 10
-43.31031402308608
 20
14.83858692060829
 11
-41.91236097614677
 21
17.89239644441938
 72
     1
 10
-41.91236097614677
 20
17.89239644441938
 11
-40.67185656589408
 21
17.89239644441938
 72
     1
 10
-40.67185656589408
 20
17.89239644441938
 11
-39.27390351895377
 21
14.83858692060829
 72
     1
 10
-39.27390351895377
 20
14.83858692060829
 11
-40.51440792920769
 21
14.83858692060829
 97
        8
330
39B
330
39C
330
353
330
39D
330
352
330
355
330
39A
330
354
 92
       16
 93
        3
 72
     1
 10
-41.59227400821229
 20
16.06011073013278
 11
-41.29210877101988
 21
16.82792569611948
 72
     1
 10
-41.29210877101988
 20
16.82792569611948
 11
-40.99194353382978
 21
16.06011073013278
 72
     1
 10
-40.99194353382978
 20
16.06011073013278
 11
-41.59227400821229
 21
16.06011073013278
 97
        3
330
351
330
39F
330
39E
 75
     1
 76
     0
 52
45.0
 41
0.1
 77
     0
 78
     1
 53
45.0
 43
0.0
 44
0.0
 45
-0.0707106781186548
 46
0.0707106781186548
 79
     0
 98
        1
 10
0.0
 20
0.0
  0
HATCH
  5
41E
330
71
100
AcDbEntity
  8
1
  6
Continuous
 62
     2
100
AcDbHatch
 10
0.0
 20
0.0
 30
0.0
210
0.0
220
0.0
230
1.0
  2
_USER
 70
     0
 71
     1
 91
        2
 92
        1
 93
        8
 72
     1
 10
-40.51440792920769
 20
14.83858692060829
 11
-40.72588798268347
 21
15.37954746482618
 72
     1
 10
-40.72588798268347
 20
15.37954746482618
 11
-41.85832955935729
 21
15.37954746482618
 72
     1
 10
-41.85832955935729
 20
15.37954746482618
 11
-42.0698096128331
 21
14.83858692060829
 72
     1
 10
-42.0698096128331
 20
14.83858692060829
 11
-43.31031402308608
 21
14.83858692060829
 72
     1
 10
-43.31031402308608
 20
14.83858692060829
 11
-41.91236097614677
 21
17.89239644441938
 72
     1
 10
-41.91236097614677
 20
17.89239644441938
 11
-40.67185656589408
 21
17.89239644441938
 72
     1
 10
-40.67185656589408
 20
17.89239644441938
 11
-39.27390351895377
 21
14.83858692060829
 72
     1
 10
-39.27390351895377
 20
14.83858692060829
 11
-40.51440792920769
 21
14.83858692060829
 97
        8
330
39B
330
39C
330
353
330
39D
330
352
330
355
330
39A
330
354
 92
       16
 93
        3
 72
     1
 10
-41.59227400821229
 20
16.06011073013278
 11
-41.29210877101988
 21
16.82792569611948
 72
     1
 10
-41.29210877101988
 20
16.82792569611948
 11
-40.99194353382978
 21
16.06011073013278
 72
     1
 10
-40.99194353382978
 20
16.06011073013278
 11
-41.59227400821229
 21
16.06011073013278
 97
        3
330
351
330
39F
330
39E
 75
     1
 76
     0
 52
45.0
 41
0.1
 77
     0
 78
     1
 53
45.0
 43
0.0
 44
0.0
 45
-0.0707106781186548
 46
0.0707106781186548
 79
     0
 98
        1
 10
0.0
 20
0.0
  0
HATCH
  5
41F
330
71
100
AcDbEntity
  8
1
  6
Continuous
 62
     2
100
AcDbHatch
 10
0.0
 20
0.0
 30
0.0
210
0.0
220
0.0
230
1.0
  2
_USER
 70
     0
 71
     1
 91
        1
 92
        1
 93
        4
 72
     1
 10
-38.88345951542178
 20
18.19777739678258
 11
-40.12396392567467
 21
18.19777739678258
 72
     1
 10
-40.12396392567467
 20
18.19777739678258
 11
-40.12396392567467
 21
21.25158692059378
 72
     1
 10
-40.12396392567467
 20
21.25158692059378
 11
-38.88345951542178
 21
21.25158692059378
 72
     1
 10
-38.88345951542178
 20
21.25158692059378
 11
-38.88345951542178
 21
18.19777739678258
 97
        4
330
34E
330
350
330
3A0
330
34F
 75
     1
 76
     0
 52
45.0
 41
0.1
 77
     0
 78
     1
 53
45.0
 43
0.0
 44
0.0
 45
-0.0707106781186548
 46
0.0707106781186548
 79
     0
 98
        1
 10
0.0
 20
0.0
  0
HATCH
  5
420
330
71
100
AcDbEntity
  8
1
  6
Continuous
 62
     2
100
AcDbHatch
 10
0.0
 20
0.0
 30
0.0
210
0.0
220
0.0
230
1.0
  2
_USER
 70
     0
 71
     1
 91
        1
 92
        1
 93
        4
 72
     1
 10
-38.88345951542178
 20
18.19777739678258
 11
-40.12396392567467
 21
18.19777739678258
 72
     1
 10
-40.12396392567467
 20
18.19777739678258
 11
-40.12396392567467
 21
21.25158692059378
 72
     1
 10
-40.12396392567467
 20
21.25158692059378
 11
-38.88345951542178
 21
21.25158692059378
 72
     1
 10
-38.88345951542178
 20
21.25158692059378
 11
-38.88345951542178
 21
18.19777739678258
 97
        4
330
34E
330
350
330
3A0
330
34F
 75
     1
 76
     0
 52
45.0
 41
0.1
 77
     0
 78
     1
 53
45.0
 43
0.0
 44
0.0
 45
-0.0707106781186548
 46
0.0707106781186548
 79
     0
 98
        1
 10
0.0
 20
0.0
  0
HATCH
  5
421
330
71
100
AcDbEntity
  8
1
  6
Continuous
 62
     2
100
AcDbHatch
 10
0.0
 20
0.0
 30
0.0
210
0.0
220
0.0
230
1.0
  2
_USER
 70
     0
 71
     1
 91
        1
 92
        1
 93
       12
 72
     1
 10
-34.66097334975098
 20
21.25158692059378
 11
-35.96350298051749
 21
19.77863639055758
 72
     1
 10
-35.96350298051749
 20
19.77863639055758
 11
-34.56554993357719
 21
18.19777739678258
 72
     1
 10
-34.56554993357719
 20
18.19777739678258
 11
-35.96827415132549
 21
18.19777739678258
 72
     1
 10
-35.96827415132549
 20
18.19777739678258
 11
-36.66486508939099
 21
18.9855091820763
 72
     1
 10
-36.66486508939099
 20
18.9855091820763
 11
-37.36145602745668
 21
18.19777739678258
 72
     1
 10
-37.36145602745668
 20
18.19777739678258
 11
-38.7641802452049
 21
18.19777739678258
 72
     1
 10
-38.7641802452049
 20
18.19777739678258
 11
-37.3662271982646
 21
19.77863639055758
 72
     1
 10
-37.3662271982646
 20
19.77863639055758
 11
-38.66875682903208
 21
21.25158692059378
 72
     1
 10
-38.66875682903208
 20
21.25158692059378
 11
-37.26603261128278
 21
21.25158692059378
 72
     1
 10
-37.26603261128278
 20
21.25158692059378
 11
-36.66486508939099
 21
20.57176359903829
 72
     1
 10
-36.66486508939099
 20
20.57176359903829
 11
-36.0636975674982
 21
21.25158692059378
 72
     1
 10
-36.0636975674982
 20
21.25158692059378
 11
-34.66097334975098
 21
21.25158692059378
 97
       12
330
349
330
348
330
347
330
3A4
330
3A5
330
3A1
330
3A2
330
34D
330
34C
330
34B
330
34A
330
3A3
 75
     1
 76
     0
 52
45.0
 41
0.1
 77
     0
 78
     1
 53
45.0
 43
0.0
 44
0.0
 45
-0.0707106781186548
 46
0.0707106781186548
 79
     0
 98
        1
 10
0.0
 20
0.0
  0
HATCH
  5
422
330
71
100
AcDbEntity
  8
1
  6
Continuous
 62
     2
100
AcDbHatch
 10
0.0
 20
0.0
 30
0.0
210
0.0
220
0.0
230
1.0
  2
_USER
 70
     0
 71
     1
 91
        1
 92
        1
 93
       12
 72
     1
 10
-34.66097334975098
 20
21.25158692059378
 11
-35.96350298051749
 21
19.77863639055758
 72
     1
 10
-35.96350298051749
 20
19.77863639055758
 11
-34.56554993357719
 21
18.19777739678258
 72
     1
 10
-34.56554993357719
 20
18.19777739678258
 11
-35.96827415132549
 21
18.19777739678258
 72
     1
 10
-35.96827415132549
 20
18.19777739678258
 11
-36.66486508939099
 21
18.9855091820763
 72
     1
 10
-36.66486508939099
 20
18.9855091820763
 11
-37.36145602745668
 21
18.19777739678258
 72
     1
 10
-37.36145602745668
 20
18.19777739678258
 11
-38.7641802452049
 21
18.19777739678258
 72
     1
 10
-38.7641802452049
 20
18.19777739678258
 11
-37.3662271982646
 21
19.77863639055758
 72
     1
 10
-37.3662271982646
 20
19.77863639055758
 11
-38.66875682903208
 21
21.25158692059378
 72
     1
 10
-38.66875682903208
 20
21.25158692059378
 11
-37.26603261128278
 21
21.25158692059378
 72
     1
 10
-37.26603261128278
 20
21.25158692059378
 11
-36.66486508939099
 21
20.57176359903829
 72
     1
 10
-36.66486508939099
 20
20.57176359903829
 11
-36.0636975674982
 21
21.25158692059378
 72
     1
 10
-36.0636975674982
 20
21.25158692059378
 11
-34.66097334975098
 21
21.25158692059378
 97
       12
330
349
330
348
330
347
330
3A4
330
3A5
330
3A1
330
3A2
330
34D
330
34C
330
34B
330
34A
330
3A3
 75
     1
 76
     0
 52
45.0
 41
0.1
 77
     0
 78
     1
 53
45.0
 43
0.0
 44
0.0
 45
-0.0707106781186548
 46
0.0707106781186548
 79
     0
 98
        1
 10
0.0
 20
0.0
  0
HATCH
  5
423
330
71
100
AcDbEntity
  8
1
  6
Continuous
 62
     2
100
AcDbHatch
 10
0.0
 20
0.0
 30
0.0
210
0.0
220
0.0
230
1.0
  2
_USER
 70
     0
 71
     1
 91
        2
 92
        1
 93
        6
 72
     1
 10
-53.67870876389699
 20
19.14085563792639
 11
-54.43747635167728
 21
19.14085563792639
 72
     1
 10
-54.43747635167728
 20
19.14085563792639
 11
-54.43747635167728
 21
18.19777739678258
 72
     1
 10
-54.43747635167728
 20
18.19777739678258
 11
-55.67798076193139
 21
18.19777739678258
 72
     1
 10
-55.67798076193139
 20
18.19777739678258
 11
-55.67798076193139
 21
21.25158692059378
 72
     1
 10
-55.67798076193139
 20
21.25158692059378
 11
-53.67870876389699
 21
21.25158692059378
 72
     2
 10
-53.67870876389699
 20
20.1962212792601
 40
1.055365641333712
 50
270.0
 51
450.0
 73
     0
 97
        6
330
371
330
370
330
37D
330
37C
330
372
330
3C2
 92
       16
 93
        4
 72
     2
 10
-54.12018129013538
 20
20.23561725048259
 40
0.3528638246711218
 50
270.0
 51
450.0
 73
     1
 72
     1
 10
-54.12018129013538
 20
20.58848107515368
 11
-54.43747635167728
 21
20.58848107515368
 72
     1
 10
-54.43747635167728
 20
20.58848107515368
 11
-54.43747635167728
 21
19.88275342581147
 72
     1
 10
-54.43747635167728
 20
19.88275342581147
 11
-54.12018129013538
 21
19.88275342581147
 97
        4
330
3D6
330
36E
330
37E
330
36F
 75
     1
 76
     0
 52
45.0
 41
0.1
 77
     0
 78
     1
 53
45.0
 43
0.0
 44
0.0
 45
-0.0707106781186548
 46
0.0707106781186548
 79
     0
 98
        1
 10
0.0
 20
0.0
  0
HATCH
  5
424
330
71
100
AcDbEntity
  8
1
  6
Continuous
 62
     2
100
AcDbHatch
 10
0.0
 20
0.0
 30
0.0
210
0.0
220
0.0
230
1.0
  2
_USER
 70
     0
 71
     1
 91
        2
 92
        1
 93
        6
 72
     1
 10
-53.67870876389699
 20
19.14085563792639
 11
-54.43747635167728
 21
19.14085563792639
 72
     1
 10
-54.43747635167728
 20
19.14085563792639
 11
-54.43747635167728
 21
18.19777739678258
 72
     1
 10
-54.43747635167728
 20
18.19777739678258
 11
-55.67798076193139
 21
18.19777739678258
 72
     1
 10
-55.67798076193139
 20
18.19777739678258
 11
-55.67798076193139
 21
21.25158692059378
 72
     1
 10
-55.67798076193139
 20
21.25158692059378
 11
-53.67870876389699
 21
21.25158692059378
 72
     2
 10
-53.67870876389699
 20
20.1962212792601
 40
1.055365641333712
 50
270.0
 51
450.0
 73
     0
 97
        6
330
371
330
370
330
37D
330
37C
330
372
330
3C2
 92
       16
 93
        4
 72
     2
 10
-54.12018129013538
 20
20.23561725048259
 40
0.3528638246711218
 50
270.0
 51
450.0
 73
     1
 72
     1
 10
-54.12018129013538
 20
20.58848107515368
 11
-54.43747635167728
 21
20.58848107515368
 72
     1
 10
-54.43747635167728
 20
20.58848107515368
 11
-54.43747635167728
 21
19.88275342581147
 72
     1
 10
-54.43747635167728
 20
19.88275342581147
 11
-54.12018129013538
 21
19.88275342581147
 97
        4
330
3D6
330
36E
330
37E
330
36F
 75
     1
 76
     0
 52
45.0
 41
0.1
 77
     0
 78
     1
 53
45.0
 43
0.0
 44
0.0
 45
-0.0707106781186548
 46
0.0707106781186548
 79
     0
 98
        1
 10
0.0
 20
0.0
  0
HATCH
  5
425
330
71
100
AcDbEntity
  8
1
  6
Continuous
 62
     2
100
AcDbHatch
 10
0.0
 20
0.0
 30
0.0
210
0.0
220
0.0
230
1.0
  2
_USER
 70
     0
 71
     1
 91
        2
 92
        1
 93
        4
 72
     2
 10
-51.12216601553789
 20
15.82691667221079
 40
2.065479772208569
 50
62.45185182430616
 51
117.5481481756662
 73
     1
 72
     2
 10
-51.40310590737118
 20
16.36549168251358
 40
1.458034083651496
 50
117.5481481756626
 51
242.4518518243373
 73
     1
 72
     2
 10
-51.12216601553789
 20
16.90406669281688
 40
2.065479772208502
 50
242.4518518243403
 51
297.5481481756873
 73
     1
 72
     2
 10
-50.84122612370459
 20
16.36549168251358
 40
1.458034083652003
 50
297.548148175701
 51
422.451851824299
 73
     1
 97
        4
330
3CE
330
3CD
330
3CF
330
3CC
 92
       16
 93
        4
 72
     2
 10
-51.3219060518843
 20
16.36549168251358
 40
0.7717997786796936
 50
321.8795802028419
 51
398.120419797153
 73
     1
 72
     2
 10
-51.12216601553789
 20
16.52222286063409
 40
0.5179085730133011
 50
38.12041979714593
 51
141.8795802028589
 73
     1
 72
     2
 10
-50.92242597919179
 20
16.36549168251358
 40
0.7717997786794555
 50
141.8795802028362
 51
218.1204197971689
 73
     1
 72
     2
 10
-51.12216601553789
 20
16.20876050439358
 40
0.5179085730137287
 50
218.1204197971935
 51
321.8795802028017
 73
     1
 97
        4
330
3EA
330
3E7
330
3E8
330
3E9
 75
     1
 76
     0
 52
45.0
 41
0.1
 77
     0
 78
     1
 53
45.0
 43
0.0
 44
0.0
 45
-0.0707106781186548
 46
0.0707106781186548
 79
     0
 98
        1
 10
0.0
 20
0.0
  0
HATCH
  5
426
330
71
100
AcDbEntity
  8
1
  6
Continuous
 62
     2
100
AcDbHatch
 10
0.0
 20
0.0
 30
0.0
210
0.0
220
0.0
230
1.0
  2
_USER
 70
     0
 71
     1
 91
        2
 92
        1
 93
        4
 72
     2
 10
-51.12216601553789
 20
15.82691667221079
 40
2.065479772208569
 50
62.45185182430616
 51
117.5481481756662
 73
     1
 72
     2
 10
-51.40310590737118
 20
16.36549168251358
 40
1.458034083651496
 50
117.5481481756626
 51
242.4518518243373
 73
     1
 72
     2
 10
-51.12216601553789
 20
16.90406669281688
 40
2.065479772208502
 50
242.4518518243403
 51
297.5481481756873
 73
     1
 72
     2
 10
-50.84122612370459
 20
16.36549168251358
 40
1.458034083652003
 50
297.548148175701
 51
422.451851824299
 73
     1
 97
        4
330
3CE
330
3CD
330
3CF
330
3CC
 92
       16
 93
        4
 72
     2
 10
-51.3219060518843
 20
16.36549168251358
 40
0.7717997786796936
 50
321.8795802028419
 51
398.120419797153
 73
     1
 72
     2
 10
-51.12216601553789
 20
16.52222286063409
 40
0.5179085730133011
 50
38.12041979714593
 51
141.8795802028589
 73
     1
 72
     2
 10
-50.92242597919179
 20
16.36549168251358
 40
0.7717997786794555
 50
141.8795802028362
 51
218.1204197971689
 73
     1
 72
     2
 10
-51.12216601553789
 20
16.20876050439358
 40
0.5179085730137287
 50
218.1204197971935
 51
321.8795802028017
 73
     1
 97
        4
330
3EA
330
3E7
330
3E8
330
3E9
 75
     1
 76
     0
 52
45.0
 41
0.1
 77
     0
 78
     1
 53
45.0
 43
0.0
 44
0.0
 45
-0.0707106781186548
 46
0.0707106781186548
 79
     0
 98
        1
 10
0.0
 20
0.0
  0
HATCH
  5
427
330
71
100
AcDbEntity
  8
1
  6
Continuous
 62
     2
100
AcDbHatch
 10
0.0
 20
0.0
 30
0.0
210
0.0
220
0.0
230
1.0
  2
_USER
 70
     0
 71
     1
 91
        2
 92
        1
 93
       12
 72
     1
 10
-44.2271708211286
 20
20.5535733151508
 11
-45.56309864755627
 21
20.5535733151508
 72
     1
 10
-45.56309864755627
 20
20.5535733151508
 11
-45.56309864755627
 21
20.07368896140909
 72
     1
 10
-45.56309864755627
 20
20.07368896140909
 11
-44.2271708211286
 21
20.07368896140909
 72
     1
 10
-44.2271708211286
 20
20.07368896140909
 11
-44.2271708211286
 21
19.37567535596679
 72
     1
 10
-44.2271708211286
 20
19.37567535596679
 11
-45.56309864755627
 21
19.37567535596679
 72
     1
 10
-45.56309864755627
 20
19.37567535596679
 11
-45.56309864755627
 21
18.89579100222508
 72
     1
 10
-45.56309864755627
 20
18.89579100222508
 11
-44.2271708211286
 21
18.89579100222508
 72
     1
 10
-44.2271708211286
 20
18.89579100222508
 11
-44.2271708211286
 21
18.19777739678258
 72
     1
 10
-44.2271708211286
 20
18.19777739678258
 11
-47.37749054490959
 21
18.19777739678258
 72
     2
 10
-47.37749054490959
 20
19.7246821586879
 40
1.526904761905879
 50
90.0
 51
270.0
 73
     0
 72
     1
 10
-47.37749054490959
 20
21.25158692059378
 11
-44.2271708211286
 21
21.25158692059378
 72
     1
 10
-44.2271708211286
 20
21.25158692059378
 11
-44.2271708211286
 21
20.5535733151508
 97
       12
330
385
330
3D7
330
386
330
387
330
388
330
389
330
366
330
365
330
364
330
363
330
38A
330
384
 92
       16
 93
        4
 72
     2
 10
-47.16121853474439
 20
19.88141333680838
 40
0.5179085730135288
 50
38.12041979714365
 51
141.8795802028491
 73
     1
 72
     2
 10
-46.96147849839809
 20
19.7246821586879
 40
0.7717997786796835
 50
141.8795802028411
 51
218.1204197971556
 73
     1
 72
     2
 10
-47.16121853474439
 20
19.56795098056747
 40
0.5179085730134383
 50
218.12041979715
 51
321.8795802028573
 73
     1
 72
     2
 10
-47.36095857109058
 20
19.7246821586879
 40
0.7717997786796373
 50
321.8795802028437
 51
398.1204197971596
 73
     1
 97
        4
330
3D1
330
3D0
330
3CB
330
3CA
 75
     1
 76
     0
 52
45.0
 41
0.1
 77
     0
 78
     1
 53
45.0
 43
0.0
 44
0.0
 45
-0.0707106781186548
 46
0.0707106781186548
 79
     0
 98
        1
 10
0.0
 20
0.0
  0
HATCH
  5
428
330
71
100
AcDbEntity
  8
1
  6
Continuous
 62
     2
100
AcDbHatch
 10
0.0
 20
0.0
 30
0.0
210
0.0
220
0.0
230
1.0
  2
_USER
 70
     0
 71
     1
 91
        2
 92
        1
 93
       12
 72
     1
 10
-44.2271708211286
 20
20.5535733151508
 11
-45.56309864755627
 21
20.5535733151508
 72
     1
 10
-45.56309864755627
 20
20.5535733151508
 11
-45.56309864755627
 21
20.07368896140909
 72
     1
 10
-45.56309864755627
 20
20.07368896140909
 11
-44.2271708211286
 21
20.07368896140909
 72
     1
 10
-44.2271708211286
 20
20.07368896140909
 11
-44.2271708211286
 21
19.37567535596679
 72
     1
 10
-44.2271708211286
 20
19.37567535596679
 11
-45.56309864755627
 21
19.37567535596679
 72
     1
 10
-45.56309864755627
 20
19.37567535596679
 11
-45.56309864755627
 21
18.89579100222508
 72
     1
 10
-45.56309864755627
 20
18.89579100222508
 11
-44.2271708211286
 21
18.89579100222508
 72
     1
 10
-44.2271708211286
 20
18.89579100222508
 11
-44.2271708211286
 21
18.19777739678258
 72
     1
 10
-44.2271708211286
 20
18.19777739678258
 11
-47.37749054490959
 21
18.19777739678258
 72
     2
 10
-47.37749054490959
 20
19.7246821586879
 40
1.526904761905879
 50
90.0
 51
270.0
 73
     0
 72
     1
 10
-47.37749054490959
 20
21.25158692059378
 11
-44.2271708211286
 21
21.25158692059378
 72
     1
 10
-44.2271708211286
 20
21.25158692059378
 11
-44.2271708211286
 21
20.5535733151508
 97
       12
330
385
330
3D7
330
386
330
387
330
388
330
389
330
366
330
365
330
364
330
363
330
38A
330
384
 92
       16
 93
        4
 72
     2
 10
-47.16121853474439
 20
19.88141333680838
 40
0.5179085730135288
 50
38.12041979714365
 51
141.8795802028491
 73
     1
 72
     2
 10
-46.96147849839809
 20
19.7246821586879
 40
0.7717997786796835
 50
141.8795802028411
 51
218.1204197971556
 73
     1
 72
     2
 10
-47.16121853474439
 20
19.56795098056747
 40
0.5179085730134383
 50
218.12041979715
 51
321.8795802028573
 73
     1
 72
     2
 10
-47.36095857109058
 20
19.7246821586879
 40
0.7717997786796373
 50
321.8795802028437
 51
398.1204197971596
 73
     1
 97
        4
330
3D1
330
3D0
330
3CB
330
3CA
 75
     1
 76
     0
 52
45.0
 41
0.1
 77
     0
 78
     1
 53
45.0
 43
0.0
 44
0.0
 45
-0.0707106781186548
 46
0.0707106781186548
 79
     0
 98
        1
 10
0.0
 20
0.0
  0
HATCH
  5
429
330
71
100
AcDbEntity
  8
1
  6
Continuous
 62
     2
100
AcDbHatch
 10
0.0
 20
0.0
 30
0.0
210
0.0
220
0.0
230
1.0
  2
_USER
 70
     0
 71
     1
 91
        4
 92
        1
 93
        8
 72
     1
 10
-56.1550978427982
 20
20.82734230519179
 11
-56.1550978427982
 21
15.26283153599158
 72
     2
 10
-56.57934245818208
 20
15.26283153599158
 40
0.4242446153832908
 50
0.0
 51
90.0
 73
     0
 72
     1
 10
-56.57934245818208
 20
14.83858692060829
 11
-62.05265454889889
 21
14.83858692060829
 72
     2
 10
-62.05265454889889
 20
15.26283153599158
 40
0.424244615382797
 50
90.0
 51
180.0
 73
     0
 72
     1
 10
-62.47689916428169
 20
15.26283153599158
 11
-62.47689916428169
 21
20.82734230519179
 72
     2
 10
-62.05265454889889
 20
20.82734230519179
 40
0.4242446153837989
 50
180.0
 51
270.0
 73
     0
 72
     1
 10
-62.05265454889889
 20
21.25158692057559
 11
-56.57934245818208
 21
21.25158692057559
 72
     2
 10
-56.57934245818208
 20
20.82734230519179
 40
0.4242446153838841
 50
270.0
 51
360.0
 73
     0
 97
        8
330
379
330
3C7
330
37A
330
3D2
330
377
330
3C9
330
378
330
3C8
 92
       16
 93
        1
 72
     2
 10
-59.43306889838138
 20
18.50846007683629
 40
0.4709789327785074
 50
0.0
 51
360.0
 73
     1
 97
        1
330
3ED
 92
       16
 93
        8
 72
     2
 10
-58.8832111856207
 20
17.39931847686788
 40
0.3157169230765233
 50
115.3740086783512
 51
180.0
 73
     1
 72
     1
 10
-59.19892810869749
 20
17.39931847686788
 11
-59.19892810869749
 21
16.8174670701728
 72
     2
 10
-58.8832111856207
 20
16.8174670701728
 40
0.3157169230767849
 50
180.0
 51
269.8110329574554
 73
     1
 72
     2
 10
-58.87759505031067
 20
18.52030201774178
 40
2.018561131933259
 50
269.8110329575857
 51
450.1889670424143
 73
     1
 72
     2
 10
-58.8832111856207
 20
20.22313696531089
 40
0.3157169230760639
 50
90.18896704254463
 51
180.0
 73
     1
 72
     1
 10
-59.19892810869749
 20
20.22313696531089
 11
-59.19892810869749
 21
19.6176016768041
 72
     2
 10
-58.8832111856207
 20
19.6176016768041
 40
0.3157169230767849
 50
180.0
 51
244.6259913216493
 73
     1
 72
     2
 10
-59.40925388370857
 20
18.50846007683629
 40
0.9118481501444653
 50
295.3740086781926
 51
424.6259913218237
 73
     0
 97
        8
330
3DF
330
340
330
3DC
330
3DD
330
3BB
330
33F
330
3DE
330
3BA
 92
       16
 93
       12
 72
     2
 10
-61.4587598721524
 20
15.86685939924189
 40
0.3157169230756836
 50
180.0
 51
270.0
 73
     1
 72
     1
 10
-61.4587598721524
 20
15.55114247616518
 11
-59.98292661114277
 21
15.55114247616518
 72
     2
 10
-59.98292661114277
 20
15.86685939924189
 40
0.3157169230767085
 50
270.0
 51
360.0
 73
     1
 72
     1
 10
-59.66720968806618
 20
15.86685939924189
 11
-59.66720968806618
 21
17.3976303307735
 72
     2
 10
-59.98292661114277
 20
17.3976303307735
 40
0.315716923076593
 50
0.0
 51
64.80558935146145
 73
     1
 72
     2
 10
-59.46034216356779
 20
18.50846007683629
 40
0.9118975235576144
 50
115.1944106485127
 51
244.8055893514713
 73
     0
 72
     2
 10
-59.98292661114277
 20
19.61928982289848
 40
0.3157169230761172
 50
295.1944106485386
 51
360.0
 73
     1
 72
     1
 10
-59.66720968806618
 20
19.61928982289848
 11
-59.66720968806618
 21
20.22331444195899
 72
     2
 10
-59.98292661114277
 20
20.22331444195899
 40
0.315716923076593
 50
0.0
 51
90.0
 73
     1
 72
     1
 10
-59.98292661114277
 20
20.53903136503519
 11
-61.4587598721524
 21
20.53903136503519
 72
     2
 10
-61.4587598721524
 20
20.22331444195899
 40
0.3157169230761987
 50
90.0
 51
180.0
 73
     1
 72
     1
 10
-61.77447679522808
 20
20.22331444195899
 11
-61.77447679522808
 21
15.86685939924189
 97
       12
330
3C3
330
37B
330
3C6
330
376
330
3D3
330
3D4
330
3C5
330
375
330
3C4
330
374
330
3D5
330
373
 75
     1
 76
     0
 52
45.0
 41
0.1
 77
     0
 78
     1
 53
45.0
 43
0.0
 44
0.0
 45
-0.0707106781186548
 46
0.0707106781186548
 79
     0
 98
        1
 10
0.0
 20
0.0
  0
HATCH
  5
42A
330
71
100
AcDbEntity
  8
1
  6
Continuous
 62
     2
100
AcDbHatch
 10
0.0
 20
0.0
 30
0.0
210
0.0
220
0.0
230
1.0
  2
_USER
 70
     0
 71
     1
 91
        4
 92
        1
 93
        8
 72
     1
 10
-56.1550978427982
 20
20.82734230519179
 11
-56.1550978427982
 21
15.26283153599158
 72
     2
 10
-56.57934245818208
 20
15.26283153599158
 40
0.4242446153832908
 50
0.0
 51
90.0
 73
     0
 72
     1
 10
-56.57934245818208
 20
14.83858692060829
 11
-62.05265454889889
 21
14.83858692060829
 72
     2
 10
-62.05265454889889
 20
15.26283153599158
 40
0.424244615382797
 50
90.0
 51
180.0
 73
     0
 72
     1
 10
-62.47689916428169
 20
15.26283153599158
 11
-62.47689916428169
 21
20.82734230519179
 72
     2
 10
-62.05265454889889
 20
20.82734230519179
 40
0.4242446153837989
 50
180.0
 51
270.0
 73
     0
 72
     1
 10
-62.05265454889889
 20
21.25158692057559
 11
-56.57934245818208
 21
21.25158692057559
 72
     2
 10
-56.57934245818208
 20
20.82734230519179
 40
0.4242446153838841
 50
270.0
 51
360.0
 73
     0
 97
        8
330
379
330
3C7
330
37A
330
3D2
330
377
330
3C9
330
378
330
3C8
 92
       16
 93
        1
 72
     2
 10
-59.43306889838138
 20
18.50846007683629
 40
0.4709789327785074
 50
0.0
 51
360.0
 73
     1
 97
        1
330
3ED
 92
       16
 93
        8
 72
     2
 10
-58.8832111856207
 20
17.39931847686788
 40
0.3157169230765233
 50
115.3740086783512
 51
180.0
 73
     1
 72
     1
 10
-59.19892810869749
 20
17.39931847686788
 11
-59.19892810869749
 21
16.8174670701728
 72
     2
 10
-58.8832111856207
 20
16.8174670701728
 40
0.3157169230767849
 50
180.0
 51
269.8110329574554
 73
     1
 72
     2
 10
-58.87759505031067
 20
18.52030201774178
 40
2.018561131933259
 50
269.8110329575857
 51
450.1889670424143
 73
     1
 72
     2
 10
-58.8832111856207
 20
20.22313696531089
 40
0.3157169230760639
 50
90.18896704254463
 51
180.0
 73
     1
 72
     1
 10
-59.19892810869749
 20
20.22313696531089
 11
-59.19892810869749
 21
19.6176016768041
 72
     2
 10
-58.8832111856207
 20
19.6176016768041
 40
0.3157169230767849
 50
180.0
 51
244.6259913216493
 73
     1
 72
     2
 10
-59.40925388370857
 20
18.50846007683629
 40
0.9118481501444653
 50
295.3740086781926
 51
424.6259913218237
 73
     0
 97
        8
330
3DF
330
340
330
3DC
330
3DD
330
3BB
330
33F
330
3DE
330
3BA
 92
       16
 93
       12
 72
     2
 10
-61.4587598721524
 20
15.86685939924189
 40
0.3157169230756836
 50
180.0
 51
270.0
 73
     1
 72
     1
 10
-61.4587598721524
 20
15.55114247616518
 11
-59.98292661114277
 21
15.55114247616518
 72
     2
 10
-59.98292661114277
 20
15.86685939924189
 40
0.3157169230767085
 50
270.0
 51
360.0
 73
     1
 72
     1
 10
-59.66720968806618
 20
15.86685939924189
 11
-59.66720968806618
 21
17.3976303307735
 72
     2
 10
-59.98292661114277
 20
17.3976303307735
 40
0.315716923076593
 50
0.0
 51
64.80558935146145
 73
     1
 72
     2
 10
-59.46034216356779
 20
18.50846007683629
 40
0.9118975235576144
 50
115.1944106485127
 51
244.8055893514713
 73
     0
 72
     2
 10
-59.98292661114277
 20
19.61928982289848
 40
0.3157169230761172
 50
295.1944106485386
 51
360.0
 73
     1
 72
     1
 10
-59.66720968806618
 20
19.61928982289848
 11
-59.66720968806618
 21
20.22331444195899
 72
     2
 10
-59.98292661114277
 20
20.22331444195899
 40
0.315716923076593
 50
0.0
 51
90.0
 73
     1
 72
     1
 10
-59.98292661114277
 20
20.53903136503519
 11
-61.4587598721524
 21
20.53903136503519
 72
     2
 10
-61.4587598721524
 20
20.22331444195899
 40
0.3157169230761987
 50
90.0
 51
180.0
 73
     1
 72
     1
 10
-61.77447679522808
 20
20.22331444195899
 11
-61.77447679522808
 21
15.86685939924189
 97
       12
330
3C3
330
37B
330
3C6
330
376
330
3D3
330
3D4
330
3C5
330
375
330
3C4
330
374
330
3D5
330
373
 75
     1
 76
     0
 52
45.0
 41
0.1
 77
     0
 78
     1
 53
45.0
 43
0.0
 44
0.0
 45
-0.0707106781186548
 46
0.0707106781186548
 79
     0
 98
        1
 10
0.0
 20
0.0
  0
HATCH
  5
42B
330
71
100
AcDbEntity
  8
1
  6
Continuous
 62
     2
100
AcDbHatch
 10
0.0
 20
0.0
 30
0.0
210
0.0
220
0.0
230
1.0
  2
_USER
 70
     0
 71
     1
 91
        1
 92
        1
 93
       18
 72
     1
 10
-34.56554993357719
 20
17.10713113829578
 11
-35.37664897105057
 21
17.10713113829578
 72
     1
 10
-35.37664897105057
 20
17.10713113829578
 11
-35.37664897105057
 21
14.83858692060829
 72
     1
 10
-35.37664897105057
 20
14.83858692060829
 11
-36.56944167321828
 21
14.83858692060829
 72
     1
 10
-36.56944167321828
 20
14.83858692060829
 11
-36.56944167321828
 21
17.10713113829578
 72
     1
 10
-36.56944167321828
 20
17.10713113829578
 11
-37.67308097278638
 21
17.10713113829578
 72
     2
 10
-37.67308097278638
 20
16.15260813146969
 40
0.9545230068260899
 50
90.0
 51
109.3371432194321
 73
     1
 72
     2
 10
-37.81975097089008
 20
16.57056311185258
 40
0.5115800601944133
 50
109.3371432194862
 51
151.4785267424228
 73
     1
 72
     2
 10
-37.4423937128087
 20
16.36549168251358
 40
0.9410597353348862
 50
151.4785267423622
 51
208.5214732576696
 73
     1
 72
     2
 10
-37.81975097089008
 20
16.16042025317509
 40
0.511580060196027
 50
208.521473257686
 51
246.627722111844
 73
     1
 72
     2
 10
-37.66331093818698
 20
16.52241227188509
 40
0.9059297849852784
 50
246.6277221118182
 51
288.4480761180817
 73
     1
 72
     2
 10
-38.08147867184889
 20
17.77595804792168
 40
2.227384008972748
 50
288.4480761181337
 51
301.9309089499399
 73
     1
 72
     1
 10
-36.90342362982497
 20
15.8856073287719
 11
-36.90342362982497
 21
15.01309032196858
 72
     2
 10
-38.23935154694169
 20
19.67817262776998
 40
4.852596863498825
 50
74.02000874166129
 51
84.84185523036375
 73
     0
 72
     2
 10
-37.95049545220587
 20
16.47828204454839
 40
1.639695123940453
 50
84.84185523032401
 51
164.9381082228991
 73
     0
 72
     2
 10
-38.36962329566748
 20
16.36549168251358
 40
1.205656168393009
 50
164.9381082229043
 51
195.0618917770971
 73
     0
 72
     2
 10
-37.95049545220587
 20
16.25270132047868
 40
1.639695123940211
 50
195.061891777105
 51
270.0
 73
     0
 72
     1
 10
-37.95049545220587
 20
17.89239644441889
 11
-34.56554993357719
 21
17.89239644441938
 72
     1
 10
-34.56554993357719
 20
17.89239644441938
 11
-34.56554993357719
 21
17.10713113829578
 97
       18
330
342
330
3D8
330
3D9
330
3C1
330
3C0
330
3A6
330
3BF
330
3BE
330
3DA
330
3BD
330
3DB
330
3BC
330
3A7
330
341
330
346
330
345
330
344
330
343
 75
     1
 76
     0
 52
45.0
 41
0.1
 77
     0
 78
     1
 53
45.0
 43
0.0
 44
0.0
 45
-0.0707106781186548
 46
0.0707106781186548
 79
     0
 98
        1
 10
0.0
 20
0.0
  0
HATCH
  5
42C
330
71
100
AcDbEntity
  8
1
  6
Continuous
 62
     2
100
AcDbHatch
 10
0.0
 20
0.0
 30
0.0
210
0.0
220
0.0
230
1.0
  2
_USER
 70
     0
 71
     1
 91
        1
 92
        1
 93
       18
 72
     1
 10
-34.56554993357719
 20
17.10713113829578
 11
-35.37664897105057
 21
17.10713113829578
 72
     1
 10
-35.37664897105057
 20
17.10713113829578
 11
-35.37664897105057
 21
14.83858692060829
 72
     1
 10
-35.37664897105057
 20
14.83858692060829
 11
-36.56944167321828
 21
14.83858692060829
 72
     1
 10
-36.56944167321828
 20
14.83858692060829
 11
-36.56944167321828
 21
17.10713113829578
 72
     1
 10
-36.56944167321828
 20
17.10713113829578
 11
-37.67308097278638
 21
17.10713113829578
 72
     2
 10
-37.67308097278638
 20
16.15260813146969
 40
0.9545230068260899
 50
90.0
 51
109.3371432194321
 73
     1
 72
     2
 10
-37.81975097089008
 20
16.57056311185258
 40
0.5115800601944133
 50
109.3371432194862
 51
151.4785267424228
 73
     1
 72
     2
 10
-37.4423937128087
 20
16.36549168251358
 40
0.9410597353348862
 50
151.4785267423622
 51
208.5214732576696
 73
     1
 72
     2
 10
-37.81975097089008
 20
16.16042025317509
 40
0.511580060196027
 50
208.521473257686
 51
246.627722111844
 73
     1
 72
     2
 10
-37.66331093818698
 20
16.52241227188509
 40
0.9059297849852784
 50
246.6277221118182
 51
288.4480761180817
 73
     1
 72
     2
 10
-38.08147867184889
 20
17.77595804792168
 40
2.227384008972748
 50
288.4480761181337
 51
301.9309089499399
 73
     1
 72
     1
 10
-36.90342362982497
 20
15.8856073287719
 11
-36.90342362982497
 21
15.01309032196858
 72
     2
 10
-38.23935154694169
 20
19.67817262776998
 40
4.852596863498825
 50
74.02000874166129
 51
84.84185523036375
 73
     0
 72
     2
 10
-37.95049545220587
 20
16.47828204454839
 40
1.639695123940453
 50
84.84185523032401
 51
164.9381082228991
 73
     0
 72
     2
 10
-38.36962329566748
 20
16.36549168251358
 40
1.205656168393009
 50
164.9381082229043
 51
195.0618917770971
 73
     0
 72
     2
 10
-37.95049545220587
 20
16.25270132047868
 40
1.639695123940211
 50
195.061891777105
 51
270.0
 73
     0
 72
     1
 10
-37.95049545220587
 20
17.89239644441889
 11
-34.56554993357719
 21
17.89239644441938
 72
     1
 10
-34.56554993357719
 20
17.89239644441938
 11
-34.56554993357719
 21
17.10713113829578
 97
       18
330
342
330
3D8
330
3D9
330
3C1
330
3C0
330
3A6
330
3BF
330
3BE
330
3DA
330
3BD
330
3DB
330
3BC
330
3A7
330
341
330
346
330
345
330
344
330
343
 75
     1
 76
     0
 52
45.0
 41
0.1
 77
     0
 78
     1
 53
45.0
 43
0.0
 44
0.0
 45
-0.0707106781186548
 46
0.0707106781186548
 79
     0
 98
        1
 10
0.0
 20
0.0
  0
HATCH
  5
42D
330
71
100
AcDbEntity
  8
1
  6
Continuous
 62
     2
100
AcDbHatch
 10
0.0
 20
0.0
 30
0.0
210
0.0
220
0.0
230
1.0
  2
_USER
 70
     0
 71
     1
 91
        1
 92
        1
 93
       14
 72
     2
 10
-54.05319693145879
 20
16.25270132047868
 40
1.639695123940507
 50
84.84185523036211
 51
164.9381082228864
 73
     1
 72
     2
 10
-54.47232477492159
 20
16.36549168251358
 40
1.205656168390944
 50
164.9381082228765
 51
195.0618917770948
 73
     1
 72
     2
 10
-54.05319693145879
 20
16.47828204454839
 40
1.63969512393938
 50
195.0618917770895
 51
275.1581447696398
 73
     1
 72
     2
 10
-54.34205302619469
 20
19.67817262776998
 40
4.852596863498136
 50
275.1581447696249
 51
285.9799912583529
 73
     1
 72
     1
 10
-53.00612510907689
 20
15.01309032196917
 11
-53.00612510907689
 21
15.88560732877238
 72
     2
 10
-54.18418015110177
 20
17.77595804792227
 40
2.227384008972737
 50
58.06909105004065
 51
71.55192388186722
 73
     0
 72
     2
 10
-53.76601241744098
 20
16.52241227188509
 40
0.9059297849849148
 50
71.55192388184128
 51
113.3722778881286
 73
     0
 72
     2
 10
-53.922452450143
 20
16.16042025317509
 40
0.5115800601948034
 50
113.3722778881728
 51
151.4785267423044
 73
     0
 72
     2
 10
-53.54509519206269
 20
16.36549168251358
 40
0.9410597353332545
 50
151.4785267422943
 51
208.5214732577331
 73
     0
 72
     2
 10
-53.922452450143
 20
16.57056311185258
 40
0.5115800601948811
 50
208.5214732576956
 51
246.627722111801
 73
     0
 72
     2
 10
-53.76601241744098
 20
16.20857109314198
 40
0.9059297849853318
 50
246.6277221118717
 51
288.4480761181468
 73
     0
 72
     2
 10
-54.18418015110177
 20
14.9550253171054
 40
2.227384008973473
 50
288.4480761181328
 51
301.9309089499593
 73
     0
 72
     1
 10
-53.00612510907689
 20
16.84537603625529
 11
-53.00612510907689
 21
17.71789304305858
 72
     2
 10
-54.34205302619469
 20
13.05281073725769
 40
4.852596863498064
 50
74.02000874164737
 51
84.84185523037506
 73
     1
 97
       14
330
3E0
330
3E1
330
3E2
330
3E3
330
3A8
330
3B9
330
3B8
330
3B7
330
3E4
330
3E5
330
3B6
330
3E6
330
3A9
330
3B5
 75
     1
 76
     0
 52
45.0
 41
0.1
 77
     0
 78
     1
 53
45.0
 43
0.0
 44
0.0
 45
-0.0707106781186548
 46
0.0707106781186548
 79
     0
 98
        1
 10
0.0
 20
0.0
  0
HATCH
  5
42E
330
71
100
AcDbEntity
  8
1
  6
Continuous
 62
     2
100
AcDbHatch
 10
0.0
 20
0.0
 30
0.0
210
0.0
220
0.0
230
1.0
  2
_USER
 70
     0
 71
     1
 91
        1
 92
        1
 93
       14
 72
     2
 10
-54.05319693145879
 20
16.25270132047868
 40
1.639695123940507
 50
84.84185523036211
 51
164.9381082228864
 73
     1
 72
     2
 10
-54.47232477492159
 20
16.36549168251358
 40
1.205656168390944
 50
164.9381082228765
 51
195.0618917770948
 73
     1
 72
     2
 10
-54.05319693145879
 20
16.47828204454839
 40
1.63969512393938
 50
195.0618917770895
 51
275.1581447696398
 73
     1
 72
     2
 10
-54.34205302619469
 20
19.67817262776998
 40
4.852596863498136
 50
275.1581447696249
 51
285.9799912583529
 73
     1
 72
     1
 10
-53.00612510907689
 20
15.01309032196917
 11
-53.00612510907689
 21
15.88560732877238
 72
     2
 10
-54.18418015110177
 20
17.77595804792227
 40
2.227384008972737
 50
58.06909105004065
 51
71.55192388186722
 73
     0
 72
     2
 10
-53.76601241744098
 20
16.52241227188509
 40
0.9059297849849148
 50
71.55192388184128
 51
113.3722778881286
 73
     0
 72
     2
 10
-53.922452450143
 20
16.16042025317509
 40
0.5115800601948034
 50
113.3722778881728
 51
151.4785267423044
 73
     0
 72
     2
 10
-53.54509519206269
 20
16.36549168251358
 40
0.9410597353332545
 50
151.4785267422943
 51
208.5214732577331
 73
     0
 72
     2
 10
-53.922452450143
 20
16.57056311185258
 40
0.5115800601948811
 50
208.5214732576956
 51
246.627722111801
 73
     0
 72
     2
 10
-53.76601241744098
 20
16.20857109314198
 40
0.9059297849853318
 50
246.6277221118717
 51
288.4480761181468
 73
     0
 72
     2
 10
-54.18418015110177
 20
14.9550253171054
 40
2.227384008973473
 50
288.4480761181328
 51
301.9309089499593
 73
     0
 72
     1
 10
-53.00612510907689
 20
16.84537603625529
 11
-53.00612510907689
 21
17.71789304305858
 72
     2
 10
-54.34205302619469
 20
13.05281073725769
 40
4.852596863498064
 50
74.02000874164737
 51
84.84185523037506
 73
     1
 97
       14
330
3E0
330
3E1
330
3E2
330
3E3
330
3A8
330
3B9
330
3B8
330
3B7
330
3E4
330
3E5
330
3B6
330
3E6
330
3A9
330
3B5
 75
     1
 76
     0
 52
45.0
 41
0.1
 77
     0
 78
     1
 53
45.0
 43
0.0
 44
0.0
 45
-0.0707106781186548
 46
0.0707106781186548
 79
     0
 98
        1
 10
0.0
 20
0.0
  0
ENDBLK
  5
73
330
71
100
AcDbEntity
  8
0
100
AcDbBlockEnd
  0
BLOCK
  5
75
330
74
100
AcDbEntity
  8
0
100
AcDbBlockBegin
  2
_punkt
 70
     0
 10
62.83125047590572
 20
7.54508692059198
 30
0.0
  3
_punkt
  1

  0
LINE
  5
42F
330
74
100
AcDbEntity
  8
1
  6
Continuous
 62
     2
100
AcDbLine
 10
62.83125047590572
 20
7.54508692059198
 30
0.0
 11
67.83125047590471
 21
7.54508692059198
 31
0.0
  0
LINE
  5
430
330
74
100
AcDbEntity
  8
1
  6
Continuous
 62
     2
100
AcDbLine
 10
62.83125047590572
 20
7.54508692059198
 30
0.0
 11
62.83125047590572
 21
2.54508692059187
 31
0.0
  0
ENDBLK
  5
76
330
74
100
AcDbEntity
  8
0
100
AcDbBlockEnd
  0
BLOCK
  5
7A
330
77
100
AcDbEntity
  8
0
100
AcDbBlockBegin
  2
A4I_CS
 70
     0
 10
62.83125047590572
 20
2.54508692059187
 30
0.0
  3
A4I_CS
  1

  0
INSERT
  5
78
330
77
100
AcDbEntity
  8
1
100
AcDbBlockReference
  2
_rahmen
 10
62.83125047590572
 20
2.54508692059187
 30
0.0
  0
INSERT
  5
79
330
77
100
AcDbEntity
  8
1
100
AcDbBlockReference
  2
_punkt
 10
62.83125047590572
 20
7.54508692059198
 30
0.0
  0
ENDBLK
  5
7B
330
77
100
AcDbEntity
  8
0
100
AcDbBlockEnd
  0
BLOCK
  5
84
330
7C
100
AcDbEntity
  8
0
100
AcDbBlockBegin
  2
1
 70
     0
 10
0.0
 20
0.0
 30
0.0
  3
1
  1

  0
INSERT
  5
7D
330
7C
100
AcDbEntity
  8
0
100
AcDbBlockReference
  2
AllgSicht1
 10
-20.00000008281495
 20
79.00000002392017
 30
0.0
  0
INSERT
  5
7E
330
7C
100
AcDbEntity
  8
0
100
AcDbBlockReference
  2
Drfsicht1
 10
-115.8125000468662
 20
76.94618219125327
 30
0.0
  0
INSERT
  5
7F
330
7C
100
AcDbEntity
  8
0
100
AcDbBlockReference
  2
Rckans1
 10
-4.99999990436004
 20
150.0
 30
0.0
  0
INSERT
  5
80
330
7C
100
AcDbEntity
  8
0
100
AcDbBlockReference
  2
SA_Rechts1
 10
-183.9999999999799
 20
150.0
 30
0.0
  0
INSERT
  5
81
330
7C
100
AcDbEntity
  8
0
100
AcDbBlockReference
  2
SA_links1
 10
-56.69415233868733
 20
149.9999995851661
 30
0.0
  0
INSERT
  5
82
330
7C
100
AcDbEntity
  8
0
100
AcDbBlockReference
  2
Vordans1
 10
-115.8125000468662
 20
149.9999995851661
 30
0.0
  0
INSERT
  5
83
330
7C
100
AcDbEntity
  8
0
100
AcDbBlockReference
  2
A4I_CS
 10
62.83125047590572
 20
2.54508692059187
 30
0.0
  0
ENDBLK
  5
85
330
7C
100
AcDbEntity
  8
0
100
AcDbBlockEnd
  0
BLOCK
  5
18F
330
186
100
AcDbEntity
  8
0
100
AcDbBlockBegin
  2
*D17
 70
     1
 10
0.0
 20
0.0
 30
0.0
  3
*D17
  1

  0
LINE
  5
187
330
186
100
AcDbEntity
  8
1
  6
Continuous
 62
     2
100
AcDbLine
 10
-147.5500010937325
 20
59.4953470700327
 30
0.0
 11
-147.5500010937325
 21
72.87118200053834
 31
0.0
  0
LINE
  5
188
330
186
100
AcDbEntity
  8
1
  6
Continuous
 62
     2
100
AcDbLine
 10
-147.5500010937325
 20
72.87118200053834
 30
0.0
 11
-147.5500010937325
 21
81.02118200053835
 31
0.0
  0
LINE
  5
189
330
186
100
AcDbEntity
  8
1
  6
Continuous
 62
     2
100
AcDbLine
 10
-147.5500010937325
 20
81.02118200053835
 30
0.0
 11
-147.5500010937325
 21
88.02118200053835
 31
0.0
  0
LINE
  5
18A
330
186
100
AcDbEntity
  8
1
  6
Continuous
 62
     2
100
AcDbLine
 10
-137.5500010937325
 20
72.87118200053834
 30
0.0
 11
-149.0500010937325
 21
72.87118200053834
 31
0.0
  0
LINE
  5
18B
330
186
100
AcDbEntity
  8
1
  6
Continuous
 62
     2
100
AcDbLine
 10
-137.5500010937325
 20
81.02118200053835
 30
0.0
 11
-149.0500010937325
 21
81.02118200053835
 31
0.0
  0
SOLID
  5
18C
330
186
100
AcDbEntity
  8
1
 62
     2
100
AcDbTrace
 10
-147.0892173521766
 20
69.37118200053834
 30
0.0
 11
-148.0107848352883
 21
69.37118200053834
 31
0.0
 12
-147.5500010937325
 22
72.87118200053834
 32
0.0
 13
-147.5500010937325
 23
72.87118200053834
 33
0.0
  0
SOLID
  5
18D
330
186
100
AcDbEntity
  8
1
 62
     2
100
AcDbTrace
 10
-148.0107848352883
 20
84.52118200053835
 30
0.0
 11
-147.0892173521766
 21
84.52118200053835
 31
0.0
 12
-147.5500010937325
 22
81.02118200053835
 32
0.0
 13
-147.5500010937325
 23
81.02118200053835
 33
0.0
  0
MTEXT
  5
18E
330
186
100
AcDbEntity
  8
1
 62
     3
100
AcDbMText
 10
-149.4000010937325
 20
59.4953470700327
 30
0.0
 40
3.5
 41
0.0
 71
     7
 72
     1
  1
8,15
  7
CONVERTER_11
 11
0.0
 21
1.0
 31
0.0
 73
     1
 44
0.60024009603842
  0
ENDBLK
  5
190
330
186
100
AcDbEntity
  8
0
100
AcDbBlockEnd
  0
BLOCK
  5
2C8
330
2C1
100
AcDbEntity
  8
0
100
AcDbBlockBegin
  2
*D18
 70
     1
 10
0.0
 20
0.0
 30
0.0
  3
*D18
  1

  0
LINE
  5
2C2
330
2C1
100
AcDbEntity
  8
1
  6
Continuous
 62
     2
100
AcDbLine
 10
-116.2750010937326
 20
113.380638697307
 30
0.0
 11
-98.77500109373253
 21
113.380638697307
 31
0.0
  0
LINE
  5
2C3
330
2C1
100
AcDbEntity
  8
1
  6
Continuous
 62
     2
100
AcDbLine
 10
-116.2750010937326
 20
129.5958195464169
 30
0.0
 11
-116.2750010937326
 21
111.880638697307
 31
0.0
  0
LINE
  5
2C4
330
2C1
100
AcDbEntity
  8
1
  6
Continuous
 62
     2
100
AcDbLine
 10
-98.77500109373253
 20
130.549999170332
 30
0.0
 11
-98.77500109373253
 21
111.880638697307
 31
0.0
  0
SOLID
  5
2C5
330
2C1
100
AcDbEntity
  8
1
 62
     2
100
AcDbTrace
 10
-112.7750010937326
 20
113.8414224388629
 30
0.0
 11
-112.7750010937326
 21
112.9198549557511
 31
0.0
 12
-116.2750010937326
 22
113.380638697307
 32
0.0
 13
-116.2750010937326
 23
113.380638697307
 33
0.0
  0
SOLID
  5
2C6
330
2C1
100
AcDbEntity
  8
1
 62
     2
100
AcDbTrace
 10
-102.2750010937325
 20
112.9198549557511
 30
0.0
 11
-102.2750010937325
 21
113.8414224388629
 31
0.0
 12
-98.77500109373253
 22
113.380638697307
 32
0.0
 13
-98.77500109373253
 23
113.380638697307
 33
0.0
  0
MTEXT
  5
2C7
330
2C1
100
AcDbEntity
  8
1
 62
     3
100
AcDbMText
 10
-112.018475008539
 20
115.230638697307
 30
0.0
 40
3.5
 41
0.0
 71
     7
 72
     1
  1
17,5
  7
CONVERTER_11
 11
0.9999999999970619
 21
2.424068405545306E-6
 31
0.0
 73
     1
 44
0.60024009603842
  0
ENDBLK
  5
2C9
330
2C1
100
AcDbEntity
  8
0
100
AcDbBlockEnd
  0
BLOCK
  5
2D3
330
2CC
100
AcDbEntity
  8
0
100
AcDbBlockBegin
  2
*D19
 70
     1
 10
0.0
 20
0.0
 30
0.0
  3
*D19
  1

  0
LINE
  5
2CD
330
2CC
100
AcDbEntity
  8
1
  6
Continuous
 62
     2
100
AcDbLine
 10
-116.2750010937326
 20
105.380638697307
 30
0.0
 11
-94.07500109373252
 21
105.380638697307
 31
0.0
  0
LINE
  5
2CE
330
2CC
100
AcDbEntity
  8
1
  6
Continuous
 62
     2
100
AcDbLine
 10
-116.2750010937326
 20
129.5958195464169
 30
0.0
 11
-116.2750010937326
 21
103.880638697307
 31
0.0
  0
LINE
  5
2CF
330
2CC
100
AcDbEntity
  8
1
  6
Continuous
 62
     2
100
AcDbLine
 10
-94.07500109373252
 20
141.3500012403709
 30
0.0
 11
-94.07500109373252
 21
103.880638697307
 31
0.0
  0
SOLID
  5
2D0
330
2CC
100
AcDbEntity
  8
1
 62
     2
100
AcDbTrace
 10
-112.7750010937326
 20
105.8414224388629
 30
0.0
 11
-112.7750010937326
 21
104.9198549557511
 31
0.0
 12
-116.2750010937326
 22
105.380638697307
 32
0.0
 13
-116.2750010937326
 23
105.380638697307
 33
0.0
  0
SOLID
  5
2D1
330
2CC
100
AcDbEntity
  8
1
 62
     2
100
AcDbTrace
 10
-97.57500109373252
 20
104.9198549557511
 30
0.0
 11
-97.57500109373252
 21
105.8414224388629
 31
0.0
 12
-94.07500109373252
 22
105.380638697307
 32
0.0
 13
-94.07500109373252
 23
105.380638697307
 33
0.0
  0
MTEXT
  5
2D2
330
2CC
100
AcDbEntity
  8
1
 62
     3
100
AcDbMText
 10
-110.095145080593
 20
107.230638697307
 30
0.0
 40
3.5
 41
0.0
 71
     7
 72
     1
  1
22,2
  7
CONVERTER_11
 11
0.9999999999970619
 21
2.424068405545306E-6
 31
0.0
 73
     1
 44
0.60024009603842
  0
ENDBLK
  5
2D4
330
2CC
100
AcDbEntity
  8
0
100
AcDbBlockEnd
  0
BLOCK
  5
2DE
330
2D7
100
AcDbEntity
  8
0
100
AcDbBlockBegin
  2
*D20
 70
     1
 10
0.0
 20
0.0
 30
0.0
  3
*D20
  1

  0
LINE
  5
2D8
330
2D7
100
AcDbEntity
  8
1
  6
Continuous
 62
     2
100
AcDbLine
 10
-137.5500010937325
 20
97.380638697307
 30
0.0
 11
-94.07500109373252
 21
97.380638697307
 31
0.0
  0
LINE
  5
2D9
330
2D7
100
AcDbEntity
  8
1
  6
Continuous
 62
     2
100
AcDbLine
 10
-137.5500010937325
 20
125.449999170332
 30
0.0
 11
-137.5500010937325
 21
95.880638697307
 31
0.0
  0
LINE
  5
2DA
330
2D7
100
AcDbEntity
  8
1
  6
Continuous
 62
     2
100
AcDbLine
 10
-94.07500109373252
 20
141.3500012403709
 30
0.0
 11
-94.07500109373252
 21
95.880638697307
 31
0.0
  0
SOLID
  5
2DB
330
2D7
100
AcDbEntity
  8
1
 62
     2
100
AcDbTrace
 10
-134.0500010937325
 20
97.84142243886289
 30
0.0
 11
-134.0500010937325
 21
96.91985495575112
 31
0.0
 12
-137.5500010937325
 22
97.380638697307
 32
0.0
 13
-137.5500010937325
 23
97.380638697307
 33
0.0
  0
SOLID
  5
2DC
330
2D7
100
AcDbEntity
  8
1
 62
     2
100
AcDbTrace
 10
-97.57500109373252
 20
96.91985495575112
 30
0.0
 11
-97.57500109373252
 21
97.84142243886289
 31
0.0
 12
-94.07500109373252
 22
97.380638697307
 32
0.0
 13
-94.07500109373252
 23
97.380638697307
 33
0.0
  0
MTEXT
  5
2DD
330
2D7
100
AcDbEntity
  8
1
 62
     3
100
AcDbMText
 10
-122.862510465489
 20
99.230638697307
 30
0.0
 40
3.5
 41
0.0
 71
     7
 72
     1
  1
43,48
  7
CONVERTER_11
 11
0.9999999999970619
 21
2.424068405545306E-6
 31
0.0
 73
     1
 44
0.60024009603842
  0
ENDBLK
  5
2DF
330
2D7
100
AcDbEntity
  8
0
100
AcDbBlockEnd
  0
BLOCK
  5
2E9
330
2E2
100
AcDbEntity
  8
0
100
AcDbBlockBegin
  2
*D21
 70
     1
 10
0.0
 20
0.0
 30
0.0
  3
*D21
  1

  0
LINE
  5
2E3
330
2E2
100
AcDbEntity
  8
1
  6
Continuous
 62
     2
100
AcDbLine
 10
-147.5500010937325
 20
131.749999170332
 30
0.0
 11
-147.5500010937325
 21
174.549999170332
 31
0.0
  0
LINE
  5
2E4
330
2E2
100
AcDbEntity
  8
1
  6
Continuous
 62
     2
100
AcDbLine
 10
-102.8500010937324
 20
131.749999170332
 30
0.0
 11
-149.0500010937325
 21
131.749999170332
 31
0.0
  0
LINE
  5
2E5
330
2E2
100
AcDbEntity
  8
1
  6
Continuous
 62
     2
100
AcDbLine
 10
-129.0786998654561
 20
174.549999170332
 30
0.0
 11
-149.0500010937325
 21
174.549999170332
 31
0.0
  0
SOLID
  5
2E6
330
2E2
100
AcDbEntity
  8
1
 62
     2
100
AcDbTrace
 10
-148.0107848352883
 20
135.249999170332
 30
0.0
 11
-147.0892173521766
 21
135.249999170332
 31
0.0
 12
-147.5500010937325
 22
131.749999170332
 32
0.0
 13
-147.5500010937325
 23
131.749999170332
 33
0.0
  0
SOLID
  5
2E7
330
2E2
100
AcDbEntity
  8
1
 62
     2
100
AcDbTrace
 10
-147.0892173521766
 20
171.049999170332
 30
0.0
 11
-148.0107848352883
 21
171.049999170332
 31
0.0
 12
-147.5500010937325
 22
174.549999170332
 32
0.0
 13
-147.5500010937325
 23
174.549999170332
 33
0.0
  0
MTEXT
  5
2E8
330
2E2
100
AcDbEntity
  8
1
 62
     3
100
AcDbMText
 10
-149.4000010937325
 20
149.465691471074
 30
0.0
 40
3.5
 41
0.0
 71
     7
 72
     1
  1
42,8
  7
CONVERTER_11
 11
0.0
 21
1.0
 31
0.0
 73
     1
 44
0.60024009603842
  0
ENDBLK
  5
2EA
330
2E2
100
AcDbEntity
  8
0
100
AcDbBlockEnd
  0
BLOCK
  5
2F4
330
2ED
100
AcDbEntity
  8
0
100
AcDbBlockBegin
  2
*D22
 70
     1
 10
0.0
 20
0.0
 30
0.0
  3
*D22
  1

  0
LINE
  5
2EE
330
2ED
100
AcDbEntity
  8
1
  6
Continuous
 62
     2
100
AcDbLine
 10
-155.5500010937325
 20
125.449999170332
 30
0.0
 11
-155.5500010937325
 21
174.549999170332
 31
0.0
  0
LINE
  5
2EF
330
2ED
100
AcDbEntity
  8
1
  6
Continuous
 62
     2
100
AcDbLine
 10
-137.5500010937325
 20
125.449999170332
 30
0.0
 11
-157.0500010937325
 21
125.449999170332
 31
0.0
  0
LINE
  5
2F0
330
2ED
100
AcDbEntity
  8
1
  6
Continuous
 62
     2
100
AcDbLine
 10
-129.0786998654561
 20
174.549999170332
 30
0.0
 11
-157.0500010937325
 21
174.549999170332
 31
0.0
  0
SOLID
  5
2F1
330
2ED
100
AcDbEntity
  8
1
 62
     2
100
AcDbTrace
 10
-156.0107848352883
 20
128.949999170332
 30
0.0
 11
-155.0892173521766
 21
128.949999170332
 31
0.0
 12
-155.5500010937325
 22
125.449999170332
 32
0.0
 13
-155.5500010937325
 23
125.449999170332
 33
0.0
  0
SOLID
  5
2F2
330
2ED
100
AcDbEntity
  8
1
 62
     2
100
AcDbTrace
 10
-155.0892173521766
 20
171.049999170332
 30
0.0
 11
-156.0107848352883
 21
171.049999170332
 31
0.0
 12
-155.5500010937325
 22
174.549999170332
 32
0.0
 13
-155.5500010937325
 23
174.549999170332
 33
0.0
  0
MTEXT
  5
2F3
330
2ED
100
AcDbEntity
  8
1
 62
     3
100
AcDbMText
 10
-157.4000010937325
 20
145.560380172886
 30
0.0
 40
3.5
 41
0.0
 71
     7
 72
     1
  1
49,1
  7
CONVERTER_11
 11
0.0
 21
1.0
 31
0.0
 73
     1
 44
0.60024009603842
  0
ENDBLK
  5
2F5
330
2ED
100
AcDbEntity
  8
0
100
AcDbBlockEnd
  0
ENDSEC
  0
SECTION
  2
ENTITIES
  0
INSERT
  5
86
330
1F
100
AcDbEntity
  8
1
100
AcDbBlockReference
  2
1
 10
0.0
 20
0.0
 30
0.0
  0
ENDSEC
  0
SECTION
  2
OBJECTS
  0
DICTIONARY
  5
C
330
0
100
AcDbDictionary
281
     1
  3
ACAD_GROUP
350
D
  3
ACAD_LAYOUT
350
1A
  3
ACAD_MATERIAL
350
3B
  3
ACAD_MLEADERSTYLE
350
458
  3
ACAD_MLINESTYLE
350
17
  3
ACAD_PLOTSETTINGS
350
19
  3
ACAD_PLOTSTYLENAME
350
E
  3
ACAD_TABLESTYLE
350
457
  3
ACAD_VISUALSTYLE
350
2A
  0
DICTIONARY
  5
D
102
{ACAD_REACTORS
330
C
102
}
330
C
100
AcDbDictionary
281
     1
  0
DICTIONARY
  5
1A
102
{ACAD_REACTORS
330
C
102
}
330
C
100
AcDbDictionary
281
     1
  3
Layout1
350
1E
  3
Layout2
350
26
  3
Model
350
22
  0
DICTIONARY
  5
3B
102
{ACAD_REACTORS
330
C
102
}
330
C
100
AcDbDictionary
281
     1
  3
ByBlock
350
3D
  3
ByLayer
350
3C
  3
Global
350
3E
  0
DICTIONARY
  5
458
102
{ACAD_REACTORS
330
C
102
}
330
C
100
AcDbDictionary
281
     1
  0
DICTIONARY
  5
17
102
{ACAD_REACTORS
330
C
102
}
330
C
100
AcDbDictionary
281
     1
  3
Standard
350
18
  0
DICTIONARY
  5
19
102
{ACAD_REACTORS
330
C
102
}
330
C
100
AcDbDictionary
281
     1
  0
ACDBDICTIONARYWDFLT
  5
E
102
{ACAD_REACTORS
330
C
102
}
330
C
100
AcDbDictionary
281
     1
  3
Normal
350
F
100
AcDbDictionaryWithDefault
340
F
  0
DICTIONARY
  5
457
102
{ACAD_REACTORS
330
C
102
}
330
C
100
AcDbDictionary
281
     1
  0
DICTIONARY
  5
2A
102
{ACAD_REACTORS
330
C
102
}
330
C
100
AcDbDictionary
281
     1
  3
2dWireframe
350
2F
  3
3D Hidden
350
31
  3
3dWireframe
350
30
  3
Basic
350
32
  3
Brighten
350
36
  3
ColorChange
350
3A
  3
Conceptual
350
34
  3
Dim
350
35
  3
Facepattern
350
39
  3
Flat
350
2B
  3
FlatWithEdges
350
2C
  3
Gouraud
350
2D
  3
GouraudWithEdges
350
2E
  3
Linepattern
350
38
  3
Realistic
350
33
  3
Thicken
350
37
  0
LAYOUT
  5
1E
102
{ACAD_REACTORS
330
1A
102
}
330
1A
100
AcDbPlotSettings
  1

  2
none_device
  4

  6

 40
0.0
 41
0.0
 42
0.0
 43
0.0
 44
0.0
 45
0.0
 46
0.0
 47
0.0
 48
0.0
 49
0.0
140
0.0
141
0.0
142
1.0
143
1.0
 70
   688
 72
     0
 73
     0
 74
     5
  7

 75
    16
 76
     0
 77
     2
 78
   300
147
1.0
148
0.0
149
0.0
100
AcDbLayout
  1
Layout1
 70
     1
 71
     1
 10
0.0
 20
0.0
 11
12.0
 21
9.0
 12
0.0
 22
0.0
 32
0.0
 14
1.00000000000000E+20
 24
1.00000000000000E+20
 34
1.00000000000000E+20
 15
-1.00000000000000E+20
 25
-1.00000000000000E+20
 35
-1.00000000000000E+20
146
0.0
 13
0.0
 23
0.0
 33
0.0
 16
1.0
 26
0.0
 36
0.0
 17
0.0
 27
1.0
 37
0.0
 76
     0
330
1B
  0
LAYOUT
  5
26
102
{ACAD_REACTORS
330
1A
102
}
330
1A
100
AcDbPlotSettings
  1

  2
none_device
  4

  6

 40
0.0
 41
0.0
 42
0.0
 43
0.0
 44
0.0
 45
0.0
 46
0.0
 47
0.0
 48
0.0
 49
0.0
140
0.0
141
0.0
142
1.0
143
1.0
 70
   688
 72
     0
 73
     0
 74
     5
  7

 75
    16
 76
     0
 77
     2
 78
   300
147
1.0
148
0.0
149
0.0
100
AcDbLayout
  1
Layout2
 70
     1
 71
     2
 10
0.0
 20
0.0
 11
0.0
 21
0.0
 12
0.0
 22
0.0
 32
0.0
 14
0.0
 24
0.0
 34
0.0
 15
0.0
 25
0.0
 35
0.0
146
0.0
 13
0.0
 23
0.0
 33
0.0
 16
1.0
 26
0.0
 36
0.0
 17
0.0
 27
1.0
 37
0.0
 76
     0
330
23
  0
LAYOUT
  5
22
102
{ACAD_REACTORS
330
1A
102
}
330
1A
100
AcDbPlotSettings
  1

  2
none_device
  4

  6

 40
0.0
 41
0.0
 42
0.0
 43
0.0
 44
0.0
 45
0.0
 46
0.0
 47
0.0
 48
0.0
 49
0.0
140
0.0
141
0.0
142
1.0
143
1.0
 70
  1712
 72
     0
 73
     0
 74
     0
  7

 75
     0
 76
     0
 77
     2
 78
   300
147
1.0
148
0.0
149
0.0
100
AcDbLayout
  1
Model
 70
     1
 71
     0
 10
0.0
 20
0.0
 11
12.0
 21
9.0
 12
0.0
 22
0.0
 32
0.0
 14
-229.1687495240934
 24
2.54508692059187
 34
0.0
 15
67.83125047590471
 25
212.545086920592
 35
0.0
146
0.0
 13
0.0
 23
0.0
 33
0.0
 16
1.0
 26
0.0
 36
0.0
 17
0.0
 27
1.0
 37
0.0
 76
     0
330
1F
331
29
  0
MATERIAL
  5
3D
102
{ACAD_REACTORS
330
3B
102
}
102
{ACAD_XDICTIONARY
360
453
102
}
330
3B
100
AcDbMaterial
  1
ByBlock
  0
MATERIAL
  5
3C
102
{ACAD_REACTORS
330
3B
102
}
102
{ACAD_XDICTIONARY
360
451
102
}
330
3B
100
AcDbMaterial
  1
ByLayer
  0
MATERIAL
  5
3E
102
{ACAD_REACTORS
330
3B
102
}
102
{ACAD_XDICTIONARY
360
455
102
}
330
3B
100
AcDbMaterial
  1
Global
  0
MLINESTYLE
  5
18
102
{ACAD_REACTORS
330
17
102
}
330
17
100
AcDbMlineStyle
  2
Standard
 70
     0
  3

 62
   256
 51
90.0
 52
90.0
 71
     2
 49
0.5
 62
   256
  6
BYLAYER
 49
-0.5
 62
   256
  6
BYLAYER
  0
ACDBPLACEHOLDER
  5
F
102
{ACAD_REACTORS
330
E
102
}
330
E
  0
VISUALSTYLE
  5
2F
102
{ACAD_REACTORS
330
2A
102
}
102
{ACAD_XDICTIONARY
360
439
102
}
330
2A
100
AcDbVisualStyle
  2
2dWireframe
 70
     4
 71
     0
 72
     2
 73
     0
 90
        0
 40
-0.6
 41
-30.0
 62
     5
 63
     7
421
 16777215
 74
     1
 91
        4
 64
     7
 65
   257
 75
     1
175
     1
 42
1.0
 92
        0
 66
   257
 43
1.0
 76
     1
 77
     6
 78
     2
 67
     7
 79
     5
170
     0
171
     0
290
     0
174
     0
 93
        1
 44
0.0
173
     0
291
     0
 45
0.0
1001
ACAD
1000
AcDbSavedByObjectVersion
1070
     0
  0
VISUALSTYLE
  5
31
102
{ACAD_REACTORS
330
2A
102
}
102
{ACAD_XDICTIONARY
360
43D
102
}
330
2A
100
AcDbVisualStyle
  2
3D Hidden
 70
     6
 71
     1
 72
     2
 73
     2
 90
        0
 40
-0.6
 41
-30.0
 62
     5
 63
     7
421
 16777215
 74
     2
 91
        2
 64
     7
 65
   257
 75
     2
175
     1
 42
40.0
 92
        0
 66
   257
 43
1.0
 76
     1
 77
     6
 78
     2
 67
     7
 79
     3
170
     0
171
     0
290
     0
174
     0
 93
        1
 44
0.0
173
     0
291
     0
 45
0.0
1001
ACAD
1000
AcDbSavedByObjectVersion
1070
     0
  0
VISUALSTYLE
  5
30
102
{ACAD_REACTORS
330
2A
102
}
102
{ACAD_XDICTIONARY
360
43B
102
}
330
2A
100
AcDbVisualStyle
  2
3dWireframe
 70
     5
 71
     0
 72
     2
 73
     0
 90
        0
 40
-0.6
 41
-30.0
 62
     5
 63
     7
421
 16777215
 74
     1
 91
        4
 64
     7
 65
   257
 75
     1
175
     1
 42
1.0
 92
        0
 66
   257
 43
1.0
 76
     1
 77
     6
 78
     2
 67
     7
 79
     5
170
     0
171
     0
290
     0
174
     0
 93
        1
 44
0.0
173
     0
291
     0
 45
0.0
1001
ACAD
1000
AcDbSavedByObjectVersion
1070
     0
  0
VISUALSTYLE
  5
32
102
{ACAD_REACTORS
330
2A
102
}
102
{ACAD_XDICTIONARY
360
43F
102
}
330
2A
100
AcDbVisualStyle
  2
Basic
 70
     7
 71
     1
 72
     0
 73
     1
 90
        0
 40
-0.6
 41
-30.0
 62
     5
 63
     7
421
 16777215
 74
     0
 91
        4
 64
     7
 65
   257
 75
     1
175
     1
 42
1.0
 92
        8
 66
     7
 43
1.0
 76
     1
 77
     6
 78
     2
 67
     7
 79
     5
170
     0
171
     0
290
     0
174
     0
 93
        1
 44
0.0
173
     0
291
     1
 45
0.0
1001
ACAD
1000
AcDbSavedByObjectVersion
1070
     0
  0
VISUALSTYLE
  5
36
102
{ACAD_REACTORS
330
2A
102
}
102
{ACAD_XDICTIONARY
360
447
102
}
330
2A
100
AcDbVisualStyle
  2
Brighten
 70
    12
 71
     2
 72
     2
 73
     0
 90
        0
 40
-0.6
 41
-30.0
 62
     5
 63
     7
421
 16777215
 74
     1
 91
        4
 64
     7
 65
   257
 75
     1
175
     1
 42
1.0
 92
        8
 66
     7
 43
1.0
 76
     1
 77
     6
 78
     2
 67
     7
 79
     5
170
     0
171
     0
290
     0
174
     0
 93
        1
 44
50.0
173
     0
291
     1
 45
0.0
1001
ACAD
1000
AcDbSavedByObjectVersion
1070
     0
  0
VISUALSTYLE
  5
3A
102
{ACAD_REACTORS
330
2A
102
}
102
{ACAD_XDICTIONARY
360
44F
102
}
330
2A
100
AcDbVisualStyle
  2
ColorChange
 70
    16
 71
     2
 72
     2
 73
     3
 90
        0
 40
-0.6
 41
-30.0
 62
     5
 63
     8
421
  8421504
 74
     1
 91
        4
 64
     7
 65
   257
 75
     1
175
     1
 42
1.0
 92
        8
 66
     8
424
  8421504
 43
1.0
 76
     1
 77
     6
 78
     2
 67
     7
 79
     5
170
     0
171
     0
290
     0
174
     0
 93
        1
 44
0.0
173
     0
291
     1
 45
0.0
1001
ACAD
1000
AcDbSavedByObjectVersion
1070
     0
  0
VISUALSTYLE
  5
34
102
{ACAD_REACTORS
330
2A
102
}
102
{ACAD_XDICTIONARY
360
443
102
}
330
2A
100
AcDbVisualStyle
  2
Conceptual
 70
     9
 71
     3
 72
     2
 73
     0
 90
        0
 40
-0.6
 41
-30.0
 62
     5
 63
     7
421
 16777215
 74
     2
 91
        2
 64
     7
 65
   257
 75
     1
175
     1
 42
40.0
 92
        8
 66
     7
 43
1.0
 76
     1
 77
     6
 78
     2
 67
     7
 79
     3
170
     0
171
     0
290
     0
174
     0
 93
        1
 44
0.0
173
     0
291
     0
 45
0.0
1001
ACAD
1000
AcDbSavedByObjectVersion
1070
     0
  0
VISUALSTYLE
  5
35
102
{ACAD_REACTORS
330
2A
102
}
102
{ACAD_XDICTIONARY
360
445
102
}
330
2A
100
AcDbVisualStyle
  2
Dim
 70
    11
 71
     2
 72
     2
 73
     0
 90
        0
 40
-0.6
 41
-30.0
 62
     5
 63
     7
421
 16777215
 74
     1
 91
        4
 64
     7
 65
   257
 75
     1
175
     1
 42
1.0
 92
        8
 66
     7
 43
1.0
 76
     1
 77
     6
 78
     2
 67
     7
 79
     5
170
     0
171
     0
290
     0
174
     0
 93
        1
 44
-50.0
173
     0
291
     1
 45
0.0
1001
ACAD
1000
AcDbSavedByObjectVersion
1070
     0
  0
VISUALSTYLE
  5
39
102
{ACAD_REACTORS
330
2A
102
}
102
{ACAD_XDICTIONARY
360
44D
102
}
330
2A
100
AcDbVisualStyle
  2
Facepattern
 70
    15
 71
     2
 72
     2
 73
     0
 90
        0
 40
-0.6
 41
-30.0
 62
     5
 63
     7
421
 16777215
 74
     1
 91
        4
 64
     7
 65
   257
 75
     1
175
     1
 42
1.0
 92
        8
 66
     7
 43
1.0
 76
     1
 77
     6
 78
     2
 67
     7
 79
     5
170
     0
171
     0
290
     0
174
     0
 93
        1
 44
0.0
173
     0
291
     1
 45
0.0
1001
ACAD
1000
AcDbSavedByObjectVersion
1070
     0
  0
VISUALSTYLE
  5
2B
102
{ACAD_REACTORS
330
2A
102
}
102
{ACAD_XDICTIONARY
360
431
102
}
330
2A
100
AcDbVisualStyle
  2
Flat
 70
     0
 71
     2
 72
     1
 73
     1
 90
        2
 40
-0.6
 41
30.0
 62
     5
 63
     7
421
 16777215
 74
     0
 91
        4
 64
     7
 65
   257
 75
     1
175
     1
 42
1.0
 92
        8
 66
     7
 43
1.0
 76
     1
 77
     6
 78
     2
 67
     7
 79
     5
170
     0
171
     0
290
     0
174
     0
 93
       13
 44
0.0
173
     0
291
     1
 45
0.0
1001
ACAD
1000
AcDbSavedByObjectVersion
1070
     0
  0
VISUALSTYLE
  5
2C
102
{ACAD_REACTORS
330
2A
102
}
102
{ACAD_XDICTIONARY
360
433
102
}
330
2A
100
AcDbVisualStyle
  2
FlatWithEdges
 70
     1
 71
     2
 72
     1
 73
     1
 90
        2
 40
-0.6
 41
30.0
 62
     5
 63
     7
421
 16777215
 74
     1
 91
        4
 64
     7
 65
   257
 75
     1
175
     1
 42
1.0
 92
        0
 66
   257
 43
1.0
 76
     1
 77
     6
 78
     2
 67
     7
 79
     5
170
     0
171
     0
290
     0
174
     0
 93
       13
 44
0.0
173
     0
291
     1
 45
0.0
1001
ACAD
1000
AcDbSavedByObjectVersion
1070
     0
  0
VISUALSTYLE
  5
2D
102
{ACAD_REACTORS
330
2A
102
}
102
{ACAD_XDICTIONARY
360
435
102
}
330
2A
100
AcDbVisualStyle
  2
Gouraud
 70
     2
 71
     2
 72
     2
 73
     1
 90
        2
 40
-0.6
 41
30.0
 62
     5
 63
     7
421
 16777215
 74
     0
 91
        4
 64
     7
 65
   257
 75
     1
175
     1
 42
1.0
 92
        0
 66
     7
 43
1.0
 76
     1
 77
     6
 78
     2
 67
     7
 79
     5
170
     0
171
     0
290
     0
174
     0
 93
       13
 44
0.0
173
     0
291
     1
 45
0.0
1001
ACAD
1000
AcDbSavedByObjectVersion
1070
     0
  0
VISUALSTYLE
  5
2E
102
{ACAD_REACTORS
330
2A
102
}
102
{ACAD_XDICTIONARY
360
437
102
}
330
2A
100
AcDbVisualStyle
  2
GouraudWithEdges
 70
     3
 71
     2
 72
     2
 73
     1
 90
        2
 40
-0.6
 41
30.0
 62
     5
 63
     7
421
 16777215
 74
     1
 91
        4
 64
     7
 65
   257
 75
     1
175
     1
 42
1.0
 92
        0
 66
   257
 43
1.0
 76
     1
 77
     6
 78
     2
 67
     7
 79
     5
170
     0
171
     0
290
     0
174
     0
 93
       13
 44
0.0
173
     0
291
     1
 45
0.0
1001
ACAD
1000
AcDbSavedByObjectVersion
1070
     0
  0
VISUALSTYLE
  5
38
102
{ACAD_REACTORS
330
2A
102
}
102
{ACAD_XDICTIONARY
360
44B
102
}
330
2A
100
AcDbVisualStyle
  2
Linepattern
 70
    14
 71
     2
 72
     2
 73
     0
 90
        0
 40
-0.6
 41
-30.0
 62
     5
 63
     7
421
 16777215
 74
     1
 91
        4
 64
     7
 65
   257
 75
     7
175
     7
 42
1.0
 92
        8
 66
     7
 43
1.0
 76
     1
 77
     6
 78
     2
 67
     7
 79
     5
170
     0
171
     0
290
     0
174
     0
 93
        1
 44
0.0
173
     0
291
     1
 45
0.0
1001
ACAD
1000
AcDbSavedByObjectVersion
1070
     0
  0
VISUALSTYLE
  5
33
102
{ACAD_REACTORS
330
2A
102
}
102
{ACAD_XDICTIONARY
360
441
102
}
330
2A
100
AcDbVisualStyle
  2
Realistic
 70
     8
 71
     2
 72
     2
 73
     0
 90
        0
 40
-0.6
 41
-30.0
 62
     5
 63
     7
421
 16777215
 74
     1
 91
        0
 64
     7
 65
   257
 75
     1
175
     1
 42
1.0
 92
        8
 66
     8
424
  7895160
 43
1.0
 76
     1
 77
     6
 78
     2
 67
     7
 79
     5
170
     0
171
     0
290
     0
174
     0
 93
       13
 44
0.0
173
     0
291
     0
 45
0.0
1001
ACAD
1000
AcDbSavedByObjectVersion
1070
     0
  0
VISUALSTYLE
  5
37
102
{ACAD_REACTORS
330
2A
102
}
102
{ACAD_XDICTIONARY
360
449
102
}
330
2A
100
AcDbVisualStyle
  2
Thicken
 70
    13
 71
     2
 72
     2
 73
     0
 90
        0
 40
-0.6
 41
-30.0
 62
     5
 63
     7
421
 16777215
 74
     1
 91
        4
 64
     7
 65
   257
 75
     1
175
     1
 42
1.0
 92
       12
 66
     7
 43
1.0
 76
     1
 77
     6
 78
     2
 67
     7
 79
     5
170
     0
171
     0
290
     0
174
     0
 93
        1
 44
0.0
173
     0
291
     1
 45
0.0
1001
ACAD
1000
AcDbSavedByObjectVersion
1070
     0
  0
DICTIONARY
  5
453
330
3D
100
AcDbDictionary
280
     1
281
     1
  3
ACAD_XREC_ROUNDTRIP
360
454
  0
DICTIONARY
  5
451
330
3C
100
AcDbDictionary
280
     1
281
     1
  3
ACAD_XREC_ROUNDTRIP
360
452
  0
DICTIONARY
  5
455
330
3E
100
AcDbDictionary
280
     1
281
     1
  3
ACAD_XREC_ROUNDTRIP
360
456
  0
DICTIONARY
  5
439
330
2F
100
AcDbDictionary
280
     1
281
     1
  3
ACAD_XREC_ROUNDTRIP
360
43A
  0
DICTIONARY
  5
43D
330
31
100
AcDbDictionary
280
     1
281
     1
  3
ACAD_XREC_ROUNDTRIP
360
43E
  0
DICTIONARY
  5
43B
330
30
100
AcDbDictionary
280
     1
281
     1
  3
ACAD_XREC_ROUNDTRIP
360
43C
  0
DICTIONARY
  5
43F
330
32
100
AcDbDictionary
280
     1
281
     1
  3
ACAD_XREC_ROUNDTRIP
360
440
  0
DICTIONARY
  5
447
330
36
100
AcDbDictionary
280
     1
281
     1
  3
ACAD_XREC_ROUNDTRIP
360
448
  0
DICTIONARY
  5
44F
330
3A
100
AcDbDictionary
280
     1
281
     1
  3
ACAD_XREC_ROUNDTRIP
360
450
  0
DICTIONARY
  5
443
330
34
100
AcDbDictionary
280
     1
281
     1
  3
ACAD_XREC_ROUNDTRIP
360
444
  0
DICTIONARY
  5
445
330
35
100
AcDbDictionary
280
     1
281
     1
  3
ACAD_XREC_ROUNDTRIP
360
446
  0
DICTIONARY
  5
44D
330
39
100
AcDbDictionary
280
     1
281
     1
  3
ACAD_XREC_ROUNDTRIP
360
44E
  0
DICTIONARY
  5
431
330
2B
100
AcDbDictionary
280
     1
281
     1
  3
ACAD_XREC_ROUNDTRIP
360
432
  0
DICTIONARY
  5
433
330
2C
100
AcDbDictionary
280
     1
281
     1
  3
ACAD_XREC_ROUNDTRIP
360
434
  0
DICTIONARY
  5
435
330
2D
100
AcDbDictionary
280
     1
281
     1
  3
ACAD_XREC_ROUNDTRIP
360
436
  0
DICTIONARY
  5
437
330
2E
100
AcDbDictionary
280
     1
281
     1
  3
ACAD_XREC_ROUNDTRIP
360
438
  0
DICTIONARY
  5
44B
330
38
100
AcDbDictionary
280
     1
281
     1
  3
ACAD_XREC_ROUNDTRIP
360
44C
  0
DICTIONARY
  5
441
330
33
100
AcDbDictionary
280
     1
281
     1
  3
ACAD_XREC_ROUNDTRIP
360
442
  0
DICTIONARY
  5
449
330
37
100
AcDbDictionary
280
     1
281
     1
  3
ACAD_XREC_ROUNDTRIP
360
44A
  0
XRECORD
  5
454
102
{ACAD_REACTORS
330
453
102
}
330
453
100
AcDbXrecord
280
     1
102
MATERIAL
148
0.0
149
0.0
149
0.0
 93
        0
 94
      127
282
     0
 72
     1
 77
     1
171
     1
175
     1
179
     1
273
     0
  0
XRECORD
  5
452
102
{ACAD_REACTORS
330
451
102
}
330
451
100
AcDbXrecord
280
     1
102
MATERIAL
148
0.0
149
0.0
149
0.0
 93
        0
 94
      127
282
     0
 72
     1
 77
     1
171
     1
175
     1
179
     1
273
     0
  0
XRECORD
  5
456
102
{ACAD_REACTORS
330
455
102
}
330
455
100
AcDbXrecord
280
     1
102
MATERIAL
148
0.0
149
0.0
149
0.0
 93
        0
 94
      127
282
     0
 72
     1
 77
     1
171
     1
175
     1
179
     1
273
     0
  0
XRECORD
  5
43A
102
{ACAD_REACTORS
330
439
102
}
330
439
100
AcDbXrecord
280
     1
102
RTVSPropertyOp0
 70
     1
102
RTVSPropertyOp1
 70
     1
102
RTVSPropertyOp2
 70
     1
102
RTVSPropertyOp3
 70
     1
102
RTVSPropertyOp4
 70
     1
102
RTVSPropertyOp5
 70
     1
102
RTVSPropertyOp6
 70
     1
102
RTVSPropertyOp7
 70
     1
102
RTVSPropertyOp8
 70
     1
102
RTVSPropertyOp9
 70
     1
102
RTVSPropertyOp10
 70
     1
102
RTVSPropertyOp11
 70
     1
102
RTVSPropertyOp12
 70
     1
102
RTVSPropertyOp13
 70
     1
102
RTVSPropertyOp14
 70
     1
102
RTVSPropertyOp15
 70
     1
102
RTVSPropertyOp16
 70
     1
102
RTVSPropertyOp17
 70
     1
102
RTVSPropertyOp18
 70
     1
102
RTVSPropertyOp19
 70
     1
102
RTVSPropertyOp20
 70
     1
102
RTVSPropertyOp21
 70
     1
102
RTVSPropertyOp22
 70
     1
102
RTVSPropertyOp23
 70
     1
102
RTVSPropertyOp24
 70
     1
102
RTVSPropertyOp25
 70
     1
102
RTVSPropertyOp26
 70
     1
102
RTVSPropertyOp27
 70
     1
102
RTVSPropertyOp28
 70
     1
102
RTVSPropertyOp29
 70
     1
102
RTVSPropertyOp30
 70
     1
102
RTVSPropertyOp31
 70
     1
102
RTVSPropertyOp32
 70
     1
  0
XRECORD
  5
43E
102
{ACAD_REACTORS
330
43D
102
}
330
43D
100
AcDbXrecord
280
     1
102
RTVSPropertyOp0
 70
     1
102
RTVSPropertyOp1
 70
     1
102
RTVSPropertyOp2
 70
     1
102
RTVSPropertyOp3
 70
     1
102
RTVSPropertyOp4
 70
     1
102
RTVSPropertyOp5
 70
     1
102
RTVSPropertyOp6
 70
     1
102
RTVSPropertyOp7
 70
     1
102
RTVSPropertyOp8
 70
     1
102
RTVSPropertyOp9
 70
     1
102
RTVSPropertyOp10
 70
     1
102
RTVSPropertyOp11
 70
     1
102
RTVSPropertyOp12
 70
     1
102
RTVSPropertyOp13
 70
     1
102
RTVSPropertyOp14
 70
     1
102
RTVSPropertyOp15
 70
     1
102
RTVSPropertyOp16
 70
     1
102
RTVSPropertyOp17
 70
     1
102
RTVSPropertyOp18
 70
     1
102
RTVSPropertyOp19
 70
     1
102
RTVSPropertyOp20
 70
     1
102
RTVSPropertyOp21
 70
     1
102
RTVSPropertyOp22
 70
     1
102
RTVSPropertyOp23
 70
     1
102
RTVSPropertyOp24
 70
     1
102
RTVSPropertyOp25
 70
     1
102
RTVSPropertyOp26
 70
     1
102
RTVSPropertyOp27
 70
     1
102
RTVSPropertyOp28
 70
     1
102
RTVSPropertyOp29
 70
     1
102
RTVSPropertyOp30
 70
     1
102
RTVSPropertyOp31
 70
     1
102
RTVSPropertyOp32
 70
     1
  0
XRECORD
  5
43C
102
{ACAD_REACTORS
330
43B
102
}
330
43B
100
AcDbXrecord
280
     1
102
RTVSPropertyOp0
 70
     1
102
RTVSPropertyOp1
 70
     1
102
RTVSPropertyOp2
 70
     1
102
RTVSPropertyOp3
 70
     1
102
RTVSPropertyOp4
 70
     1
102
RTVSPropertyOp5
 70
     1
102
RTVSPropertyOp6
 70
     1
102
RTVSPropertyOp7
 70
     1
102
RTVSPropertyOp8
 70
     1
102
RTVSPropertyOp9
 70
     1
102
RTVSPropertyOp10
 70
     1
102
RTVSPropertyOp11
 70
     1
102
RTVSPropertyOp12
 70
     1
102
RTVSPropertyOp13
 70
     1
102
RTVSPropertyOp14
 70
     1
102
RTVSPropertyOp15
 70
     1
102
RTVSPropertyOp16
 70
     1
102
RTVSPropertyOp17
 70
     1
102
RTVSPropertyOp18
 70
     1
102
RTVSPropertyOp19
 70
     1
102
RTVSPropertyOp20
 70
     1
102
RTVSPropertyOp21
 70
     1
102
RTVSPropertyOp22
 70
     1
102
RTVSPropertyOp23
 70
     1
102
RTVSPropertyOp24
 70
     1
102
RTVSPropertyOp25
 70
     1
102
RTVSPropertyOp26
 70
     1
102
RTVSPropertyOp27
 70
     1
102
RTVSPropertyOp28
 70
     1
102
RTVSPropertyOp29
 70
     1
102
RTVSPropertyOp30
 70
     1
102
RTVSPropertyOp31
 70
     1
102
RTVSPropertyOp32
 70
     1
  0
XRECORD
  5
440
102
{ACAD_REACTORS
330
43F
102
}
330
43F
100
AcDbXrecord
280
     1
102
RTVSPropertyOp0
 70
     1
102
RTVSPropertyOp1
 70
     1
102
RTVSPropertyOp2
 70
     1
102
RTVSPropertyOp3
 70
     1
102
RTVSPropertyOp4
 70
     1
102
RTVSPropertyOp5
 70
     1
102
RTVSPropertyOp6
 70
     1
102
RTVSPropertyOp7
 70
     1
102
RTVSPropertyOp8
 70
     1
102
RTVSPropertyOp9
 70
     1
102
RTVSPropertyOp10
 70
     1
102
RTVSPropertyOp11
 70
     1
102
RTVSPropertyOp12
 70
     1
102
RTVSPropertyOp13
 70
     1
102
RTVSPropertyOp14
 70
     1
102
RTVSPropertyOp15
 70
     1
102
RTVSPropertyOp16
 70
     1
102
RTVSPropertyOp17
 70
     1
102
RTVSPropertyOp18
 70
     1
102
RTVSPropertyOp19
 70
     1
102
RTVSPropertyOp20
 70
     1
102
RTVSPropertyOp21
 70
     1
102
RTVSPropertyOp22
 70
     1
102
RTVSPropertyOp23
 70
     1
102
RTVSPropertyOp24
 70
     1
102
RTVSPropertyOp25
 70
     1
102
RTVSPropertyOp26
 70
     1
102
RTVSPropertyOp27
 70
     1
102
RTVSPropertyOp28
 70
     1
102
RTVSPropertyOp29
 70
     1
102
RTVSPropertyOp30
 70
     1
102
RTVSPropertyOp31
 70
     1
102
RTVSPropertyOp32
 70
     1
  0
XRECORD
  5
448
102
{ACAD_REACTORS
330
447
102
}
330
447
100
AcDbXrecord
280
     1
102
RTVSPropertyOp0
 70
     1
102
RTVSPropertyOp1
 70
     1
102
RTVSPropertyOp2
 70
     1
102
RTVSPropertyOp3
 70
     1
102
RTVSPropertyOp4
 70
     1
102
RTVSPropertyOp5
 70
     1
102
RTVSPropertyOp6
 70
     1
102
RTVSPropertyOp7
 70
     1
102
RTVSPropertyOp8
 70
     1
102
RTVSPropertyOp9
 70
     1
102
RTVSPropertyOp10
 70
     1
102
RTVSPropertyOp11
 70
     1
102
RTVSPropertyOp12
 70
     1
102
RTVSPropertyOp13
 70
     1
102
RTVSPropertyOp14
 70
     1
102
RTVSPropertyOp15
 70
     1
102
RTVSPropertyOp16
 70
     1
102
RTVSPropertyOp17
 70
     1
102
RTVSPropertyOp18
 70
     1
102
RTVSPropertyOp19
 70
     1
102
RTVSPropertyOp20
 70
     1
102
RTVSPropertyOp21
 70
     1
102
RTVSPropertyOp22
 70
     1
102
RTVSPropertyOp23
 70
     1
102
RTVSPropertyOp24
 70
     1
102
RTVSPropertyOp25
 70
     1
102
RTVSPropertyOp26
 70
     1
102
RTVSPropertyOp27
 70
     1
102
RTVSPropertyOp28
 70
     1
102
RTVSPropertyOp29
 70
     1
102
RTVSPropertyOp30
 70
     1
102
RTVSPropertyOp31
 70
     1
102
RTVSPropertyOp32
 70
     1
  0
XRECORD
  5
450
102
{ACAD_REACTORS
330
44F
102
}
330
44F
100
AcDbXrecord
280
     1
102
RTVSPropertyOp0
 70
     1
102
RTVSPropertyOp1
 70
     1
102
RTVSPropertyOp2
 70
     1
102
RTVSPropertyOp3
 70
     1
102
RTVSPropertyOp4
 70
     1
102
RTVSPropertyOp5
 70
     1
102
RTVSPropertyOp6
 70
     1
102
RTVSPropertyOp7
 70
     1
102
RTVSPropertyOp8
 70
     1
102
RTVSPropertyOp9
 70
     1
102
RTVSPropertyOp10
 70
     1
102
RTVSPropertyOp11
 70
     1
102
RTVSPropertyOp12
 70
     1
102
RTVSPropertyOp13
 70
     1
102
RTVSPropertyOp14
 70
     1
102
RTVSPropertyOp15
 70
     1
102
RTVSPropertyOp16
 70
     1
102
RTVSPropertyOp17
 70
     1
102
RTVSPropertyOp18
 70
     1
102
RTVSPropertyOp19
 70
     1
102
RTVSPropertyOp20
 70
     1
102
RTVSPropertyOp21
 70
     1
102
RTVSPropertyOp22
 70
     1
102
RTVSPropertyOp23
 70
     1
102
RTVSPropertyOp24
 70
     1
102
RTVSPropertyOp25
 70
     1
102
RTVSPropertyOp26
 70
     1
102
RTVSPropertyOp27
 70
     1
102
RTVSPropertyOp28
 70
     1
102
RTVSPropertyOp29
 70
     1
102
RTVSPropertyOp30
 70
     1
102
RTVSPropertyOp31
 70
     1
102
RTVSPropertyOp32
 70
     1
  0
XRECORD
  5
444
102
{ACAD_REACTORS
330
443
102
}
330
443
100
AcDbXrecord
280
     1
102
RTVSPropertyOp0
 70
     1
102
RTVSPropertyOp1
 70
     1
102
RTVSPropertyOp2
 70
     1
102
RTVSPropertyOp3
 70
     1
102
RTVSPropertyOp4
 70
     1
102
RTVSPropertyOp5
 70
     1
102
RTVSPropertyOp6
 70
     1
102
RTVSPropertyOp7
 70
     1
102
RTVSPropertyOp8
 70
     1
102
RTVSPropertyOp9
 70
     1
102
RTVSPropertyOp10
 70
     1
102
RTVSPropertyOp11
 70
     1
102
RTVSPropertyOp12
 70
     1
102
RTVSPropertyOp13
 70
     1
102
RTVSPropertyOp14
 70
     1
102
RTVSPropertyOp15
 70
     1
102
RTVSPropertyOp16
 70
     1
102
RTVSPropertyOp17
 70
     1
102
RTVSPropertyOp18
 70
     1
102
RTVSPropertyOp19
 70
     1
102
RTVSPropertyOp20
 70
     1
102
RTVSPropertyOp21
 70
     1
102
RTVSPropertyOp22
 70
     1
102
RTVSPropertyOp23
 70
     1
102
RTVSPropertyOp24
 70
     1
102
RTVSPropertyOp25
 70
     1
102
RTVSPropertyOp26
 70
     1
102
RTVSPropertyOp27
 70
     1
102
RTVSPropertyOp28
 70
     1
102
RTVSPropertyOp29
 70
     1
102
RTVSPropertyOp30
 70
     1
102
RTVSPropertyOp31
 70
     1
102
RTVSPropertyOp32
 70
     1
  0
XRECORD
  5
446
102
{ACAD_REACTORS
330
445
102
}
330
445
100
AcDbXrecord
280
     1
102
RTVSPropertyOp0
 70
     1
102
RTVSPropertyOp1
 70
     1
102
RTVSPropertyOp2
 70
     1
102
RTVSPropertyOp3
 70
     1
102
RTVSPropertyOp4
 70
     1
102
RTVSPropertyOp5
 70
     1
102
RTVSPropertyOp6
 70
     1
102
RTVSPropertyOp7
 70
     1
102
RTVSPropertyOp8
 70
     1
102
RTVSPropertyOp9
 70
     1
102
RTVSPropertyOp10
 70
     1
102
RTVSPropertyOp11
 70
     1
102
RTVSPropertyOp12
 70
     1
102
RTVSPropertyOp13
 70
     1
102
RTVSPropertyOp14
 70
     1
102
RTVSPropertyOp15
 70
     1
102
RTVSPropertyOp16
 70
     1
102
RTVSPropertyOp17
 70
     1
102
RTVSPropertyOp18
 70
     1
102
RTVSPropertyOp19
 70
     1
102
RTVSPropertyOp20
 70
     1
102
RTVSPropertyOp21
 70
     1
102
RTVSPropertyOp22
 70
     1
102
RTVSPropertyOp23
 70
     1
102
RTVSPropertyOp24
 70
     1
102
RTVSPropertyOp25
 70
     1
102
RTVSPropertyOp26
 70
     1
102
RTVSPropertyOp27
 70
     1
102
RTVSPropertyOp28
 70
     1
102
RTVSPropertyOp29
 70
     1
102
RTVSPropertyOp30
 70
     1
102
RTVSPropertyOp31
 70
     1
102
RTVSPropertyOp32
 70
     1
  0
XRECORD
  5
44E
102
{ACAD_REACTORS
330
44D
102
}
330
44D
100
AcDbXrecord
280
     1
102
RTVSPropertyOp0
 70
     1
102
RTVSPropertyOp1
 70
     1
102
RTVSPropertyOp2
 70
     1
102
RTVSPropertyOp3
 70
     1
102
RTVSPropertyOp4
 70
     1
102
RTVSPropertyOp5
 70
     1
102
RTVSPropertyOp6
 70
     1
102
RTVSPropertyOp7
 70
     1
102
RTVSPropertyOp8
 70
     1
102
RTVSPropertyOp9
 70
     1
102
RTVSPropertyOp10
 70
     1
102
RTVSPropertyOp11
 70
     1
102
RTVSPropertyOp12
 70
     1
102
RTVSPropertyOp13
 70
     1
102
RTVSPropertyOp14
 70
     1
102
RTVSPropertyOp15
 70
     1
102
RTVSPropertyOp16
 70
     1
102
RTVSPropertyOp17
 70
     1
102
RTVSPropertyOp18
 70
     1
102
RTVSPropertyOp19
 70
     1
102
RTVSPropertyOp20
 70
     1
102
RTVSPropertyOp21
 70
     1
102
RTVSPropertyOp22
 70
     1
102
RTVSPropertyOp23
 70
     1
102
RTVSPropertyOp24
 70
     1
102
RTVSPropertyOp25
 70
     1
102
RTVSPropertyOp26
 70
     1
102
RTVSPropertyOp27
 70
     1
102
RTVSPropertyOp28
 70
     1
102
RTVSPropertyOp29
 70
     1
102
RTVSPropertyOp30
 70
     1
102
RTVSPropertyOp31
 70
     1
102
RTVSPropertyOp32
 70
     1
  0
XRECORD
  5
432
102
{ACAD_REACTORS
330
431
102
}
330
431
100
AcDbXrecord
280
     1
102
RTVSPropertyOp0
 70
     1
102
RTVSPropertyOp1
 70
     1
102
RTVSPropertyOp2
 70
     1
102
RTVSPropertyOp3
 70
     1
102
RTVSPropertyOp4
 70
     1
102
RTVSPropertyOp5
 70
     1
102
RTVSPropertyOp6
 70
     1
102
RTVSPropertyOp7
 70
     1
102
RTVSPropertyOp8
 70
     1
102
RTVSPropertyOp9
 70
     1
102
RTVSPropertyOp10
 70
     1
102
RTVSPropertyOp11
 70
     1
102
RTVSPropertyOp12
 70
     1
102
RTVSPropertyOp13
 70
     1
102
RTVSPropertyOp14
 70
     1
102
RTVSPropertyOp15
 70
     1
102
RTVSPropertyOp16
 70
     1
102
RTVSPropertyOp17
 70
     1
102
RTVSPropertyOp18
 70
     1
102
RTVSPropertyOp19
 70
     1
102
RTVSPropertyOp20
 70
     1
102
RTVSPropertyOp21
 70
     1
102
RTVSPropertyOp22
 70
     1
102
RTVSPropertyOp23
 70
     1
102
RTVSPropertyOp24
 70
     1
102
RTVSPropertyOp25
 70
     1
102
RTVSPropertyOp26
 70
     1
102
RTVSPropertyOp27
 70
     1
102
RTVSPropertyOp28
 70
     1
102
RTVSPropertyOp29
 70
     1
102
RTVSPropertyOp30
 70
     1
102
RTVSPropertyOp31
 70
     1
102
RTVSPropertyOp32
 70
     1
  0
XRECORD
  5
434
102
{ACAD_REACTORS
330
433
102
}
330
433
100
AcDbXrecord
280
     1
102
RTVSPropertyOp0
 70
     1
102
RTVSPropertyOp1
 70
     1
102
RTVSPropertyOp2
 70
     1
102
RTVSPropertyOp3
 70
     1
102
RTVSPropertyOp4
 70
     1
102
RTVSPropertyOp5
 70
     1
102
RTVSPropertyOp6
 70
     1
102
RTVSPropertyOp7
 70
     1
102
RTVSPropertyOp8
 70
     1
102
RTVSPropertyOp9
 70
     1
102
RTVSPropertyOp10
 70
     1
102
RTVSPropertyOp11
 70
     1
102
RTVSPropertyOp12
 70
     1
102
RTVSPropertyOp13
 70
     1
102
RTVSPropertyOp14
 70
     1
102
RTVSPropertyOp15
 70
     1
102
RTVSPropertyOp16
 70
     1
102
RTVSPropertyOp17
 70
     1
102
RTVSPropertyOp18
 70
     1
102
RTVSPropertyOp19
 70
     1
102
RTVSPropertyOp20
 70
     1
102
RTVSPropertyOp21
 70
     1
102
RTVSPropertyOp22
 70
     1
102
RTVSPropertyOp23
 70
     1
102
RTVSPropertyOp24
 70
     1
102
RTVSPropertyOp25
 70
     1
102
RTVSPropertyOp26
 70
     1
102
RTVSPropertyOp27
 70
     1
102
RTVSPropertyOp28
 70
     1
102
RTVSPropertyOp29
 70
     1
102
RTVSPropertyOp30
 70
     1
102
RTVSPropertyOp31
 70
     1
102
RTVSPropertyOp32
 70
     1
  0
XRECORD
  5
436
102
{ACAD_REACTORS
330
435
102
}
330
435
100
AcDbXrecord
280
     1
102
RTVSPropertyOp0
 70
     1
102
RTVSPropertyOp1
 70
     1
102
RTVSPropertyOp2
 70
     1
102
RTVSPropertyOp3
 70
     1
102
RTVSPropertyOp4
 70
     1
102
RTVSPropertyOp5
 70
     1
102
RTVSPropertyOp6
 70
     1
102
RTVSPropertyOp7
 70
     1
102
RTVSPropertyOp8
 70
     1
102
RTVSPropertyOp9
 70
     1
102
RTVSPropertyOp10
 70
     1
102
RTVSPropertyOp11
 70
     1
102
RTVSPropertyOp12
 70
     1
102
RTVSPropertyOp13
 70
     1
102
RTVSPropertyOp14
 70
     1
102
RTVSPropertyOp15
 70
     1
102
RTVSPropertyOp16
 70
     1
102
RTVSPropertyOp17
 70
     1
102
RTVSPropertyOp18
 70
     1
102
RTVSPropertyOp19
 70
     1
102
RTVSPropertyOp20
 70
     1
102
RTVSPropertyOp21
 70
     1
102
RTVSPropertyOp22
 70
     1
102
RTVSPropertyOp23
 70
     1
102
RTVSPropertyOp24
 70
     1
102
RTVSPropertyOp25
 70
     1
102
RTVSPropertyOp26
 70
     1
102
RTVSPropertyOp27
 70
     1
102
RTVSPropertyOp28
 70
     1
102
RTVSPropertyOp29
 70
     1
102
RTVSPropertyOp30
 70
     1
102
RTVSPropertyOp31
 70
     1
102
RTVSPropertyOp32
 70
     1
  0
XRECORD
  5
438
102
{ACAD_REACTORS
330
437
102
}
330
437
100
AcDbXrecord
280
     1
102
RTVSPropertyOp0
 70
     1
102
RTVSPropertyOp1
 70
     1
102
RTVSPropertyOp2
 70
     1
102
RTVSPropertyOp3
 70
     1
102
RTVSPropertyOp4
 70
     1
102
RTVSPropertyOp5
 70
     1
102
RTVSPropertyOp6
 70
     1
102
RTVSPropertyOp7
 70
     1
102
RTVSPropertyOp8
 70
     1
102
RTVSPropertyOp9
 70
     1
102
RTVSPropertyOp10
 70
     1
102
RTVSPropertyOp11
 70
     1
102
RTVSPropertyOp12
 70
     1
102
RTVSPropertyOp13
 70
     1
102
RTVSPropertyOp14
 70
     1
102
RTVSPropertyOp15
 70
     1
102
RTVSPropertyOp16
 70
     1
102
RTVSPropertyOp17
 70
     1
102
RTVSPropertyOp18
 70
     1
102
RTVSPropertyOp19
 70
     1
102
RTVSPropertyOp20
 70
     1
102
RTVSPropertyOp21
 70
     1
102
RTVSPropertyOp22
 70
     1
102
RTVSPropertyOp23
 70
     1
102
RTVSPropertyOp24
 70
     1
102
RTVSPropertyOp25
 70
     1
102
RTVSPropertyOp26
 70
     1
102
RTVSPropertyOp27
 70
     1
102
RTVSPropertyOp28
 70
     1
102
RTVSPropertyOp29
 70
     1
102
RTVSPropertyOp30
 70
     1
102
RTVSPropertyOp31
 70
     1
102
RTVSPropertyOp32
 70
     1
  0
XRECORD
  5
44C
102
{ACAD_REACTORS
330
44B
102
}
330
44B
100
AcDbXrecord
280
     1
102
RTVSPropertyOp0
 70
     1
102
RTVSPropertyOp1
 70
     1
102
RTVSPropertyOp2
 70
     1
102
RTVSPropertyOp3
 70
     1
102
RTVSPropertyOp4
 70
     1
102
RTVSPropertyOp5
 70
     1
102
RTVSPropertyOp6
 70
     1
102
RTVSPropertyOp7
 70
     1
102
RTVSPropertyOp8
 70
     1
102
RTVSPropertyOp9
 70
     1
102
RTVSPropertyOp10
 70
     1
102
RTVSPropertyOp11
 70
     1
102
RTVSPropertyOp12
 70
     1
102
RTVSPropertyOp13
 70
     1
102
RTVSPropertyOp14
 70
     1
102
RTVSPropertyOp15
 70
     1
102
RTVSPropertyOp16
 70
     1
102
RTVSPropertyOp17
 70
     1
102
RTVSPropertyOp18
 70
     1
102
RTVSPropertyOp19
 70
     1
102
RTVSPropertyOp20
 70
     1
102
RTVSPropertyOp21
 70
     1
102
RTVSPropertyOp22
 70
     1
102
RTVSPropertyOp23
 70
     1
102
RTVSPropertyOp24
 70
     1
102
RTVSPropertyOp25
 70
     1
102
RTVSPropertyOp26
 70
     1
102
RTVSPropertyOp27
 70
     1
102
RTVSPropertyOp28
 70
     1
102
RTVSPropertyOp29
 70
     1
102
RTVSPropertyOp30
 70
     1
102
RTVSPropertyOp31
 70
     1
102
RTVSPropertyOp32
 70
     1
  0
XRECORD
  5
442
102
{ACAD_REACTORS
330
441
102
}
330
441
100
AcDbXrecord
280
     1
102
RTVSPropertyOp0
 70
     1
102
RTVSPropertyOp1
 70
     1
102
RTVSPropertyOp2
 70
     1
102
RTVSPropertyOp3
 70
     1
102
RTVSPropertyOp4
 70
     1
102
RTVSPropertyOp5
 70
     1
102
RTVSPropertyOp6
 70
     1
102
RTVSPropertyOp7
 70
     1
102
RTVSPropertyOp8
 70
     1
102
RTVSPropertyOp9
 70
     1
102
RTVSPropertyOp10
 70
     1
102
RTVSPropertyOp11
 70
     1
102
RTVSPropertyOp12
 70
     1
102
RTVSPropertyOp13
 70
     1
102
RTVSPropertyOp14
 70
     1
102
RTVSPropertyOp15
 70
     1
102
RTVSPropertyOp16
 70
     1
102
RTVSPropertyOp17
 70
     1
102
RTVSPropertyOp18
 70
     1
102
RTVSPropertyOp19
 70
     1
102
RTVSPropertyOp20
 70
     1
102
RTVSPropertyOp21
 70
     1
102
RTVSPropertyOp22
 70
     1
102
RTVSPropertyOp23
 70
     1
102
RTVSPropertyOp24
 70
     1
102
RTVSPropertyOp25
 70
     1
102
RTVSPropertyOp26
 70
     1
102
RTVSPropertyOp27
 70
     1
102
RTVSPropertyOp28
 70
     1
102
RTVSPropertyOp29
 70
     1
102
RTVSPropertyOp30
 70
     1
102
RTVSPropertyOp31
 70
     1
102
RTVSPropertyOp32
 70
     1
  0
XRECORD
  5
44A
102
{ACAD_REACTORS
330
449
102
}
330
449
100
AcDbXrecord
280
     1
102
RTVSPropertyOp0
 70
     1
102
RTVSPropertyOp1
 70
     1
102
RTVSPropertyOp2
 70
     1
102
RTVSPropertyOp3
 70
     1
102
RTVSPropertyOp4
 70
     1
102
RTVSPropertyOp5
 70
     1
102
RTVSPropertyOp6
 70
     1
102
RTVSPropertyOp7
 70
     1
102
RTVSPropertyOp8
 70
     1
102
RTVSPropertyOp9
 70
     1
102
RTVSPropertyOp10
 70
     1
102
RTVSPropertyOp11
 70
     1
102
RTVSPropertyOp12
 70
     1
102
RTVSPropertyOp13
 70
     1
102
RTVSPropertyOp14
 70
     1
102
RTVSPropertyOp15
 70
     1
102
RTVSPropertyOp16
 70
     1
102
RTVSPropertyOp17
 70
     1
102
RTVSPropertyOp18
 70
     1
102
RTVSPropertyOp19
 70
     1
102
RTVSPropertyOp20
 70
     1
102
RTVSPropertyOp21
 70
     1
102
RTVSPropertyOp22
 70
     1
102
RTVSPropertyOp23
 70
     1
102
RTVSPropertyOp24
 70
     1
102
RTVSPropertyOp25
 70
     1
102
RTVSPropertyOp26
 70
     1
102
RTVSPropertyOp27
 70
     1
102
RTVSPropertyOp28
 70
     1
102
RTVSPropertyOp29
 70
     1
102
RTVSPropertyOp30
 70
     1
102
RTVSPropertyOp31
 70
     1
102
RTVSPropertyOp32
 70
     1
  0
ENDSEC
  0
EOF
