  0
SECTION
  2
HEADER
  9
$ACADVER
  1
AC1018
  9
$ACADMAINTVER
 70
     0
  9
$DWGCODEPAGE
  3
ANSI_1252
  9
$INSBASE
 10
0.0
 20
0.0
 30
0.0
  9
$EXTMIN
 10
-221.1687495241185
 20
-11.17141943035915
 30
0.0
  9
$EXTMAX
 10
75.83125047587961
 20
198.828580569641
 30
0.0
  9
$LIMMIN
 10
0.0
 20
0.0
  9
$LIMMAX
 10
12.0
 20
9.0
  9
$ORTHOMODE
 70
     0
  9
$REGENMODE
 70
     1
  9
$FILLMODE
 70
     1
  9
$QTEXTMODE
 70
     0
  9
$MIRRTEXT
 70
     1
  9
$LTSCALE
 40
1.0
  9
$ATTMODE
 70
     1
  9
$TEXTSIZE
 40
0.2
  9
$TRACEWID
 40
0.05
  9
$TEXTSTYLE
  7
Standard
  9
$CLAYER
  8
0
  9
$CELTYPE
  6
ByLayer
  9
$CECOLOR
 62
   256
  9
$CELTSCALE
 40
1.0
  9
$DISPSILH
 70
     0
  9
$DIMSCALE
 40
1.0
  9
$DIMASZ
 40
0.18
  9
$DIMEXO
 40
0.0625
  9
$DIMDLI
 40
0.38
  9
$DIMRND
 40
0.0
  9
$DIMDLE
 40
0.0
  9
$DIMEXE
 40
0.18
  9
$DIMTP
 40
0.0
  9
$DIMTM
 40
0.0
  9
$DIMTXT
 40
0.18
  9
$DIMCEN
 40
0.09
  9
$DIMTSZ
 40
0.0
  9
$DIMTOL
 70
     0
  9
$DIMLIM
 70
     0
  9
$DIMTIH
 70
     1
  9
$DIMTOH
 70
     1
  9
$DIMSE1
 70
     0
  9
$DIMSE2
 70
     0
  9
$DIMTAD
 70
     0
  9
$DIMZIN
 70
     0
  9
$DIMBLK
  1

  9
$DIMASO
 70
     1
  9
$DIMSHO
 70
     1
  9
$DIMPOST
  1

  9
$DIMAPOST
  1

  9
$DIMALT
 70
     0
  9
$DIMALTD
 70
     2
  9
$DIMALTF
 40
25.4
  9
$DIMLFAC
 40
1.0
  9
$DIMTOFL
 70
     0
  9
$DIMTVP
 40
0.0
  9
$DIMTIX
 70
     0
  9
$DIMSOXD
 70
     0
  9
$DIMSAH
 70
     0
  9
$DIMBLK1
  1

  9
$DIMBLK2
  1

  9
$DIMSTYLE
  2
Standard
  9
$DIMCLRD
 70
     0
  9
$DIMCLRE
 70
     0
  9
$DIMCLRT
 70
     0
  9
$DIMTFAC
 40
1.0
  9
$DIMGAP
 40
0.09
  9
$DIMJUST
 70
     0
  9
$DIMSD1
 70
     0
  9
$DIMSD2
 70
     0
  9
$DIMTOLJ
 70
     1
  9
$DIMTZIN
 70
     0
  9
$DIMALTZ
 70
     0
  9
$DIMALTTZ
 70
     0
  9
$DIMUPT
 70
     0
  9
$DIMDEC
 70
     4
  9
$DIMTDEC
 70
     4
  9
$DIMALTU
 70
     2
  9
$DIMALTTD
 70
     2
  9
$DIMTXSTY
  7
Standard
  9
$DIMAUNIT
 70
     0
  9
$DIMADEC
 70
     0
  9
$DIMALTRND
 40
0.0
  9
$DIMAZIN
 70
     0
  9
$DIMDSEP
 70
    46
  9
$DIMATFIT
 70
     3
  9
$DIMFRAC
 70
     0
  9
$DIMLDRBLK
  1

  9
$DIMLUNIT
 70
     2
  9
$DIMLWD
 70
    -2
  9
$DIMLWE
 70
    -2
  9
$DIMTMOVE
 70
     0
  9
$LUNITS
 70
     2
  9
$LUPREC
 70
     4
  9
$SKETCHINC
 40
0.1
  9
$FILLETRAD
 40
0.5
  9
$AUNITS
 70
     0
  9
$AUPREC
 70
     0
  9
$MENU
  1
.
  9
$ELEVATION
 40
0.0
  9
$PELEVATION
 40
0.0
  9
$THICKNESS
 40
0.0
  9
$LIMCHECK
 70
     0
  9
$CHAMFERA
 40
0.5
  9
$CHAMFERB
 40
0.5
  9
$CHAMFERC
 40
1.0
  9
$CHAMFERD
 40
0.0
  9
$SKPOLY
 70
     0
  9
$TDCREATE
 40
2458170.693340058
  9
$TDUCREATE
 40
2458170.651673391
  9
$TDUPDATE
 40
2458170.693340602
  9
$TDUUPDATE
 40
2458170.651673935
  9
$TDINDWG
 40
0.0000000116
  9
$TDUSRTIMER
 40
0.0000000116
  9
$USRTIMER
 70
     1
  9
$ANGBASE
 50
0.0
  9
$ANGDIR
 70
     0
  9
$PDMODE
 70
     0
  9
$PDSIZE
 40
0.0
  9
$PLINEWID
 40
0.0
  9
$SPLFRAME
 70
     0
  9
$SPLINETYPE
 70
     6
  9
$SPLINESEGS
 70
     8
  9
$HANDSEED
  5
464
  9
$SURFTAB1
 70
     6
  9
$SURFTAB2
 70
     6
  9
$SURFTYPE
 70
     6
  9
$SURFU
 70
     6
  9
$SURFV
 70
     6
  9
$UCSBASE
  2

  9
$UCSNAME
  2

  9
$UCSORG
 10
0.0
 20
0.0
 30
0.0
  9
$UCSXDIR
 10
1.0
 20
0.0
 30
0.0
  9
$UCSYDIR
 10
0.0
 20
1.0
 30
0.0
  9
$UCSORTHOREF
  2

  9
$UCSORTHOVIEW
 70
     0
  9
$UCSORGTOP
 10
0.0
 20
0.0
 30
0.0
  9
$UCSORGBOTTOM
 10
0.0
 20
0.0
 30
0.0
  9
$UCSORGLEFT
 10
0.0
 20
0.0
 30
0.0
  9
$UCSORGRIGHT
 10
0.0
 20
0.0
 30
0.0
  9
$UCSORGFRONT
 10
0.0
 20
0.0
 30
0.0
  9
$UCSORGBACK
 10
0.0
 20
0.0
 30
0.0
  9
$PUCSBASE
  2

  9
$PUCSNAME
  2

  9
$PUCSORG
 10
0.0
 20
0.0
 30
0.0
  9
$PUCSXDIR
 10
1.0
 20
0.0
 30
0.0
  9
$PUCSYDIR
 10
0.0
 20
1.0
 30
0.0
  9
$PUCSORTHOREF
  2

  9
$PUCSORTHOVIEW
 70
     0
  9
$PUCSORGTOP
 10
0.0
 20
0.0
 30
0.0
  9
$PUCSORGBOTTOM
 10
0.0
 20
0.0
 30
0.0
  9
$PUCSORGLEFT
 10
0.0
 20
0.0
 30
0.0
  9
$PUCSORGRIGHT
 10
0.0
 20
0.0
 30
0.0
  9
$PUCSORGFRONT
 10
0.0
 20
0.0
 30
0.0
  9
$PUCSORGBACK
 10
0.0
 20
0.0
 30
0.0
  9
$USERI1
 70
     0
  9
$USERI2
 70
     0
  9
$USERI3
 70
     0
  9
$USERI4
 70
     0
  9
$USERI5
 70
     0
  9
$USERR1
 40
18.1
  9
$USERR2
 40
0.0
  9
$USERR3
 40
0.0
  9
$USERR4
 40
0.0
  9
$USERR5
 40
0.0
  9
$WORLDVIEW
 70
     1
  9
$SHADEDGE
 70
     3
  9
$SHADEDIF
 70
    70
  9
$TILEMODE
 70
     1
  9
$MAXACTVP
 70
    64
  9
$PINSBASE
 10
0.0
 20
0.0
 30
0.0
  9
$PLIMCHECK
 70
     0
  9
$PEXTMIN
 10
1.00000000000000E+20
 20
1.00000000000000E+20
 30
1.00000000000000E+20
  9
$PEXTMAX
 10
-1.00000000000000E+20
 20
-1.00000000000000E+20
 30
-1.00000000000000E+20
  9
$PLIMMIN
 10
0.0
 20
0.0
  9
$PLIMMAX
 10
12.0
 20
9.0
  9
$UNITMODE
 70
     0
  9
$VISRETAIN
 70
     1
  9
$PLINEGEN
 70
     0
  9
$PSLTSCALE
 70
     1
  9
$TREEDEPTH
 70
  3020
  9
$CMLSTYLE
  2
Standard
  9
$CMLJUST
 70
     0
  9
$CMLSCALE
 40
1.0
  9
$PROXYGRAPHICS
 70
     1
  9
$MEASUREMENT
 70
     1
  9
$CELWEIGHT
370
    -1
  9
$ENDCAPS
280
     0
  9
$JOINSTYLE
280
     0
  9
$LWDISPLAY
290
     0
  9
$INSUNITS
 70
     4
  9
$HYPERLINKBASE
  1

  9
$STYLESHEET
  1

  9
$XEDIT
290
     1
  9
$CEPSNTYPE
380
     0
  9
$PSTYLEMODE
290
     1
  9
$FINGERPRINTGUID
  2
{CA4BFF68-2B15-4DAF-A6AC-301A2468CDF9}
  9
$VERSIONGUID
  2
{FAEB1C32-E019-11D5-929B-00C0DF256EC4}
  9
$EXTNAMES
290
     1
  9
$PSVPSCALE
 40
0.0
  9
$OLESTARTUP
290
     0
  9
$SORTENTS
280
   127
  9
$INDEXCTL
280
     0
  9
$HIDETEXT
280
     1
  9
$XCLIPFRAME
290
     0
  9
$HALOGAP
280
     0
  9
$OBSCOLOR
 70
   257
  9
$OBSLTYPE
280
     0
  9
$INTERSECTIONDISPLAY
280
     0
  9
$INTERSECTIONCOLOR
 70
   257
  9
$DIMASSOC
280
     2
  9
$PROJECTNAME
  1

  0
ENDSEC
  0
SECTION
  2
CLASSES
  0
CLASS
  1
ACDBDICTIONARYWDFLT
  2
AcDbDictionaryWithDefault
  3
ObjectDBX Classes
 90
        0
 91
        4
280
     0
281
     0
  0
CLASS
  1
VISUALSTYLE
  2
AcDbVisualStyle
  3
ObjectDBX Classes
 90
     4095
 91
        4
280
     0
281
     0
  0
CLASS
  1
MATERIAL
  2
AcDbMaterial
  3
ObjectDBX Classes
 90
     1153
 91
        4
280
     0
281
     0
  0
ENDSEC
  0
SECTION
  2
TABLES
  0
TABLE
  2
VPORT
  5
8
330
0
100
AcDbSymbolTable
 70
     1
  0
VPORT
  5
29
330
8
100
AcDbSymbolTableRecord
100
AcDbViewportTableRecord
  2
*Active
 70
     0
 10
0.0
 20
0.0
 11
1.0
 21
1.0
 12
-72.66874952411945
 22
93.82858056964092
 13
0.0
 23
0.0
 14
0.5
 24
0.5
 15
0.5
 25
0.5
 16
0.0
 26
0.0
 36
1.0
 17
0.0
 27
0.0
 37
0.0
 40
231.0000000000002
 41
1.60267857142857
 42
50.0
 43
0.0
 44
0.0
 50
0.0
 51
0.0
 71
     0
 72
   100
 73
     1
 74
     3
 75
     0
 76
     0
 77
     0
 78
     0
281
     0
 65
     1
110
0.0
120
0.0
130
0.0
111
1.0
121
0.0
131
0.0
112
0.0
122
1.0
132
0.0
 79
     0
146
0.0
  0
ENDTAB
  0
TABLE
  2
LTYPE
  5
5
330
0
100
AcDbSymbolTable
 70
     8
  0
LTYPE
  5
14
330
5
100
AcDbSymbolTableRecord
100
AcDbLinetypeTableRecord
  2
ByBlock
 70
     0
  3

 72
    65
 73
     0
 40
0.0
  0
LTYPE
  5
15
330
5
100
AcDbSymbolTableRecord
100
AcDbLinetypeTableRecord
  2
ByLayer
 70
     0
  3

 72
    65
 73
     0
 40
0.0
  0
LTYPE
  5
16
330
5
100
AcDbSymbolTableRecord
100
AcDbLinetypeTableRecord
  2
Continuous
 70
     0
  3
Solid line
 72
    65
 73
     0
 40
0.0
  0
LTYPE
  5
3F
330
5
100
AcDbSymbolTableRecord
100
AcDbLinetypeTableRecord
  2
DASHED
 70
     0
  3
Dashed
 72
    65
 73
     2
 40
15.0
 49
7.0
 74
     0
 49
-8.0
 74
     0
  0
LTYPE
  5
40
330
5
100
AcDbSymbolTableRecord
100
AcDbLinetypeTableRecord
  2
DOTTED
 70
     0
  3
Dotted
 72
    65
 73
     2
 40
1.0
 49
0.0
 74
     0
 49
-1.0
 74
     0
  0
LTYPE
  5
41
330
5
100
AcDbSymbolTableRecord
100
AcDbLinetypeTableRecord
  2
DOT_CENTER
 70
     0
  3
Dot_Center
 72
    65
 73
     4
 40
14.0
 49
12.0
 74
     0
 49
-1.0
 74
     0
 49
0.0
 74
     0
 49
-1.0
 74
     0
  0
LTYPE
  5
42
330
5
100
AcDbSymbolTableRecord
100
AcDbLinetypeTableRecord
  2
LONG_DASHED
 70
     0
  3
Long_Dashed
 72
    65
 73
     2
 40
15.0
 49
10.0
 74
     0
 49
-5.0
 74
     0
  0
LTYPE
  5
43
330
5
100
AcDbSymbolTableRecord
100
AcDbLinetypeTableRecord
  2
DASH_CENTER
 70
     0
  3
Dash_Center
 72
    65
 73
     4
 40
14.0
 49
11.0
 74
     0
 49
-1.0
 74
     0
 49
1.0
 74
     0
 49
-1.0
 74
     0
  0
LTYPE
  5
44
330
5
100
AcDbSymbolTableRecord
100
AcDbLinetypeTableRecord
  2
PHANTOM
 70
     0
  3
Phantom
 72
    65
 73
     6
 40
13.0
 49
10.0
 74
     0
 49
-1.0
 74
     0
 49
0.0
 74
     0
 49
-1.0
 74
     0
 49
0.0
 74
     0
 49
-1.0
 74
     0
  0
LTYPE
  5
45
330
5
100
AcDbSymbolTableRecord
100
AcDbLinetypeTableRecord
  2
CENTER_DASH_DASH
 70
     0
  3
Center_Dash_Dash
 72
    65
 73
     6
 40
14.0
 49
9.0
 74
     0
 49
-1.0
 74
     0
 49
1.0
 74
     0
 49
-1.0
 74
     0
 49
1.0
 74
     0
 49
-1.0
 74
     0
  0
ENDTAB
  0
TABLE
  2
LAYER
  5
2
330
0
100
AcDbSymbolTable
 70
     2
  0
LAYER
  5
10
330
2
100
AcDbSymbolTableRecord
100
AcDbLayerTableRecord
  2
0
 70
     0
 62
     7
  6
Continuous
370
    -3
390
F
  0
LAYER
  5
46
330
2
100
AcDbSymbolTableRecord
100
AcDbLayerTableRecord
  2
1
 70
     0
 62
     7
  6
Continuous
370
    -3
390
F
  0
ENDTAB
  0
TABLE
  2
STYLE
  5
3
330
0
100
AcDbSymbolTable
 70
     5
  0
STYLE
  5
11
330
3
100
AcDbSymbolTableRecord
100
AcDbTextStyleTableRecord
  2
Standard
 70
     0
 40
0.0
 41
1.0
 50
0.0
 71
     0
 42
0.2
  3
txt
  4

  0
STYLE
  5
17D
330
3
100
AcDbSymbolTableRecord
100
AcDbTextStyleTableRecord
  2
CONVERTER_11
 70
     0
 40
0.0
 41
0.9
 50
0.0
 71
     0
 42
0.2
  3
txt.shx
  4

  0
STYLE
  5
17F
330
3
100
AcDbSymbolTableRecord
100
AcDbTextStyleTableRecord
  2
CONVERTER_12
 70
     0
 40
0.0
 41
0.81
 50
0.0
 71
     0
 42
0.2
  3
txt.shx
  4

  0
STYLE
  5
185
330
3
100
AcDbSymbolTableRecord
100
AcDbTextStyleTableRecord
  2
CONVERTER_13
 70
     0
 40
0.0
 41
0.855
 50
0.0
 71
     0
 42
0.2
  3
txt.shx
  4

  0
STYLE
  5
188
330
3
100
AcDbSymbolTableRecord
100
AcDbTextStyleTableRecord
  2
CONVERTER_14
 70
     0
 40
0.0
 41
0.72
 50
0.0
 71
     0
 42
0.2
  3
txt.shx
  4

  0
ENDTAB
  0
TABLE
  2
VIEW
  5
6
330
0
100
AcDbSymbolTable
 70
     0
  0
ENDTAB
  0
TABLE
  2
UCS
  5
7
330
0
100
AcDbSymbolTable
 70
     0
  0
ENDTAB
  0
TABLE
  2
APPID
  5
9
330
0
100
AcDbSymbolTable
 70
     1
  0
APPID
  5
12
330
9
100
AcDbSymbolTableRecord
100
AcDbRegAppTableRecord
  2
ACAD
 70
     0
  0
ENDTAB
  0
TABLE
  2
DIMSTYLE
  5
A
330
0
100
AcDbSymbolTable
 70
     7
100
AcDbDimStyleTable
  0
DIMSTYLE
105
27
330
A
100
AcDbSymbolTableRecord
100
AcDbDimStyleTableRecord
  2
Standard
 70
     0
178
     0
340
11
  0
DIMSTYLE
105
2CD
102
{ACAD_REACTORS
330
2CE
102
}
330
A
100
AcDbSymbolTableRecord
100
AcDbDimStyleTableRecord
  2
ME10_DIM_10
 70
     0
 41
3.5
 42
0.0
 44
1.5
 73
     0
 74
     0
 77
     1
 78
     8
140
3.5
147
1.5
172
     1
173
     1
174
     1
175
     1
176
     2
177
     2
178
     3
340
17D
  0
DIMSTYLE
105
40C
102
{ACAD_REACTORS
330
40D
102
}
330
A
100
AcDbSymbolTableRecord
100
AcDbDimStyleTableRecord
  2
ME10_DIM_11
 70
     0
 41
3.5
 42
0.0
 44
1.5
 73
     0
 74
     0
 77
     1
 78
     8
140
3.5
147
1.5
172
     1
173
     1
174
     1
175
     1
176
     2
177
     2
178
     3
340
17D
  0
DIMSTYLE
105
417
102
{ACAD_REACTORS
330
418
102
}
330
A
100
AcDbSymbolTableRecord
100
AcDbDimStyleTableRecord
  2
ME10_DIM_12
 70
     0
 41
3.5
 42
0.0
 44
1.5
 73
     0
 74
     0
 77
     1
 78
     8
140
3.5
147
1.5
172
     1
173
     1
174
     1
175
     1
176
     2
177
     2
178
     3
340
17D
  0
DIMSTYLE
105
424
102
{ACAD_REACTORS
330
425
102
}
330
A
100
AcDbSymbolTableRecord
100
AcDbDimStyleTableRecord
  2
ME10_DIM_13
 70
     0
 41
3.5
 42
0.0
 44
2.0
 73
     0
 74
     0
 77
     1
 78
     8
140
3.5
147
2.0
172
     1
173
     1
174
     1
175
     1
176
     2
177
     2
178
     3
340
17D
  0
DIMSTYLE
105
42F
102
{ACAD_REACTORS
330
430
102
}
330
A
100
AcDbSymbolTableRecord
100
AcDbDimStyleTableRecord
  2
ME10_DIM_14
 70
     0
 41
3.5
 42
0.0
 44
2.0
 73
     0
 74
     0
 77
     1
 78
     8
140
3.5
147
2.0
172
     1
173
     1
174
     1
175
     1
176
     2
177
     2
178
     3
340
17D
  0
DIMSTYLE
105
43A
102
{ACAD_REACTORS
330
43B
102
}
330
A
100
AcDbSymbolTableRecord
100
AcDbDimStyleTableRecord
  2
ME10_DIM_15
 70
     0
 41
3.5
 42
0.0
 44
2.0
 73
     0
 74
     0
 77
     1
 78
     8
140
3.5
147
2.0
172
     1
173
     1
174
     1
175
     1
176
     2
177
     2
271
     1
178
     3
271
     1
340
17D
  0
ENDTAB
  0
TABLE
  2
BLOCK_RECORD
  5
1
330
0
100
AcDbSymbolTable
 70
    23
  0
BLOCK_RECORD
  5
1F
330
1
100
AcDbSymbolTableRecord
100
AcDbBlockTableRecord
  2
*Model_Space
340
22
  0
BLOCK_RECORD
  5
1B
330
1
100
AcDbSymbolTableRecord
100
AcDbBlockTableRecord
  2
*Paper_Space
340
1E
  0
BLOCK_RECORD
  5
23
330
1
100
AcDbSymbolTableRecord
100
AcDbBlockTableRecord
  2
*Paper_Space0
340
26
  0
BLOCK_RECORD
  5
47
330
1
100
AcDbSymbolTableRecord
100
AcDbBlockTableRecord
  2
_rahmen
340
0
102
{BLKREFS
331
4E
102
}
  0
BLOCK_RECORD
  5
4A
330
1
100
AcDbSymbolTableRecord
100
AcDbBlockTableRecord
  2
_punkt
340
0
102
{BLKREFS
331
4F
102
}
  0
BLOCK_RECORD
  5
4D
330
1
100
AcDbSymbolTableRecord
100
AcDbBlockTableRecord
  2
A4I_CS
340
0
102
{BLKREFS
331
7D
102
}
  0
BLOCK_RECORD
  5
52
330
1
100
AcDbSymbolTableRecord
100
AcDbBlockTableRecord
  2
URKN-select__1
340
0
102
{BLKREFS
331
56
102
}
  0
BLOCK_RECORD
  5
55
330
1
100
AcDbSymbolTableRecord
100
AcDbBlockTableRecord
  2
AllgSicht1
340
0
102
{BLKREFS
331
7E
102
}
  0
BLOCK_RECORD
  5
59
330
1
100
AcDbSymbolTableRecord
100
AcDbBlockTableRecord
  2
URKN-select__2
340
0
102
{BLKREFS
331
5D
102
}
  0
BLOCK_RECORD
  5
5C
330
1
100
AcDbSymbolTableRecord
100
AcDbBlockTableRecord
  2
Drfsicht1
340
0
102
{BLKREFS
331
7F
102
}
  0
BLOCK_RECORD
  5
60
330
1
100
AcDbSymbolTableRecord
100
AcDbBlockTableRecord
  2
URKN-select__3
340
0
102
{BLKREFS
331
64
102
}
  0
BLOCK_RECORD
  5
63
330
1
100
AcDbSymbolTableRecord
100
AcDbBlockTableRecord
  2
Rckans1
340
0
102
{BLKREFS
331
80
102
}
  0
BLOCK_RECORD
  5
67
330
1
100
AcDbSymbolTableRecord
100
AcDbBlockTableRecord
  2
URKN-select__4
340
0
102
{BLKREFS
331
6B
102
}
  0
BLOCK_RECORD
  5
6A
330
1
100
AcDbSymbolTableRecord
100
AcDbBlockTableRecord
  2
SA_Rechts1
340
0
102
{BLKREFS
331
81
102
}
  0
BLOCK_RECORD
  5
6E
330
1
100
AcDbSymbolTableRecord
100
AcDbBlockTableRecord
  2
URKN-select__5
340
0
102
{BLKREFS
331
72
102
}
  0
BLOCK_RECORD
  5
71
330
1
100
AcDbSymbolTableRecord
100
AcDbBlockTableRecord
  2
SA_links1
340
0
102
{BLKREFS
331
82
102
}
  0
BLOCK_RECORD
  5
75
330
1
100
AcDbSymbolTableRecord
100
AcDbBlockTableRecord
  2
URKN-select__6
340
0
102
{BLKREFS
331
79
102
}
  0
BLOCK_RECORD
  5
78
330
1
100
AcDbSymbolTableRecord
100
AcDbBlockTableRecord
  2
Vordans1
340
0
102
{BLKREFS
331
83
102
}
  0
BLOCK_RECORD
  5
7C
330
1
100
AcDbSymbolTableRecord
100
AcDbBlockTableRecord
  2
1
340
0
102
{BLKREFS
331
86
102
}
  0
BLOCK_RECORD
  5
2C3
330
1
100
AcDbSymbolTableRecord
100
AcDbBlockTableRecord
  2
*D17
340
0
  0
BLOCK_RECORD
  5
403
330
1
100
AcDbSymbolTableRecord
100
AcDbBlockTableRecord
  2
*D18
340
0
  0
BLOCK_RECORD
  5
40E
330
1
100
AcDbSymbolTableRecord
100
AcDbBlockTableRecord
  2
*D19
340
0
  0
BLOCK_RECORD
  5
419
330
1
100
AcDbSymbolTableRecord
100
AcDbBlockTableRecord
  2
*D20
340
0
  0
BLOCK_RECORD
  5
426
330
1
100
AcDbSymbolTableRecord
100
AcDbBlockTableRecord
  2
*D21
340
0
  0
BLOCK_RECORD
  5
431
330
1
100
AcDbSymbolTableRecord
100
AcDbBlockTableRecord
  2
*D22
340
0
  0
ENDTAB
  0
ENDSEC
  0
SECTION
  2
BLOCKS
  0
BLOCK
  5
20
330
1F
100
AcDbEntity
  8
0
100
AcDbBlockBegin
  2
*Model_Space
 70
     0
 10
0.0
 20
0.0
 30
0.0
  3
*Model_Space
  1

  0
ENDBLK
  5
21
330
1F
100
AcDbEntity
  8
0
100
AcDbBlockEnd
  0
BLOCK
  5
1C
330
1B
100
AcDbEntity
 67
     1
  8
0
100
AcDbBlockBegin
  2
*Paper_Space
 70
     0
 10
0.0
 20
0.0
 30
0.0
  3
*Paper_Space
  1

  0
ENDBLK
  5
1D
330
1B
100
AcDbEntity
 67
     1
  8
0
100
AcDbBlockEnd
  0
BLOCK
  5
24
330
23
100
AcDbEntity
  8
0
100
AcDbBlockBegin
  2
*Paper_Space0
 70
     0
 10
0.0
 20
0.0
 30
0.0
  3
*Paper_Space0
  1

  0
ENDBLK
  5
25
330
23
100
AcDbEntity
  8
0
100
AcDbBlockEnd
  0
BLOCK
  5
48
330
47
100
AcDbEntity
  8
0
100
AcDbBlockBegin
  2
_rahmen
 70
     0
 10
70.83125047588062
 20
-11.17141943035915
 30
0.0
  3
_rahmen
  1

  0
LINE
  5
87
330
47
100
AcDbEntity
  8
1
  6
DOT_CENTER
 62
     2
100
AcDbLine
 10
-54.72689916430679
 20
14.95358056964088
 30
0.0
 11
-49.22689916430679
 21
14.95358056964088
 31
0.0
  0
LINE
  5
88
330
47
100
AcDbEntity
  8
1
  6
PHANTOM
 62
     2
100
AcDbLine
 10
-45.97689916430679
 20
17.70358056964088
 30
0.0
 11
-45.97689916430679
 21
12.20358056964088
 31
0.0
  0
LINE
  5
89
330
47
100
AcDbEntity
  8
1
  6
PHANTOM
 62
     2
100
AcDbLine
 10
-43.22689916430679
 20
14.95358056964088
 30
0.0
 11
-48.72689916430679
 21
14.95358056964088
 31
0.0
  0
LINE
  5
8A
330
47
100
AcDbEntity
  8
1
  6
Continuous
 62
     7
100
AcDbLine
 10
5.58644594913062
 20
2.32858056964088
 30
0.0
 11
5.58644594913062
 21
10.82858056964096
 31
0.0
  0
LINE
  5
8B
330
47
100
AcDbEntity
  8
1
  6
Continuous
 62
     6
100
AcDbLine
 10
-22.31355405086947
 20
10.82858056964096
 30
0.0
 11
70.83125047588231
 21
10.82858056964096
 31
0.0
  0
LINE
  5
8C
330
47
100
AcDbEntity
  8
1
  6
Continuous
 62
     7
100
AcDbLine
 10
-58.71355405086939
 20
10.82858056964096
 30
0.0
 11
-58.71355405086939
 21
19.32858056964096
 31
0.0
  0
LINE
  5
8D
330
47
100
AcDbEntity
  8
1
  6
Continuous
 62
     7
100
AcDbLine
 10
-22.31355405086947
 20
10.82858056964096
 30
0.0
 11
-22.31355405086947
 21
19.32858056964096
 31
0.0
  0
LINE
  5
8E
330
47
100
AcDbEntity
  8
1
  6
Continuous
 62
     7
100
AcDbLine
 10
35.41284219420351
 20
19.32858056964096
 30
0.0
 11
35.41284219420351
 21
10.82858056964096
 31
0.0
  0
LINE
  5
8F
330
47
100
AcDbEntity
  8
1
  6
Continuous
 62
     7
100
AcDbLine
 10
61.91284219420311
 20
19.32858056964096
 30
0.0
 11
61.91284219420311
 21
10.82858056964096
 31
0.0
  0
LINE
  5
90
330
47
100
AcDbEntity
  8
1
  6
Continuous
 62
     6
100
AcDbLine
 10
-127.7135540508694
 20
-6.17141943035904
 30
0.0
 11
-172.6687495241194
 21
-6.17141943035904
 31
0.0
  0
LINE
  5
91
330
47
100
AcDbEntity
  8
1
  6
Continuous
 62
     7
100
AcDbLine
 10
70.83125047588192
 20
2.32858056964096
 30
0.0
 11
-22.31355405086947
 21
2.32858056964096
 31
0.0
  0
LINE
  5
92
102
{ACAD_REACTORS
330
1A5
330
1A6
102
}
330
47
100
AcDbEntity
  8
0
  6
Continuous
 62
     2
100
AcDbLine
 10
-45.00612510910199
 20
3.12886968530427
 30
0.0
 11
-45.00612510910199
 21
4.00138669210756
 31
0.0
  0
LINE
  5
93
102
{ACAD_REACTORS
330
1A5
330
1A6
102
}
330
47
100
AcDbEntity
  8
0
  6
Continuous
 62
     2
100
AcDbLine
 10
-45.00612510910199
 20
2.16910097782136
 30
0.0
 11
-45.00612510910199
 21
1.29658397101815
 31
0.0
  0
LINE
  5
94
102
{ACAD_REACTORS
330
1A7
330
1A8
102
}
330
47
100
AcDbEntity
  8
0
  6
Continuous
 62
     2
100
AcDbLine
 10
-29.67308097281148
 20
3.39062478734476
 30
0.0
 11
-28.56944167324338
 21
3.39062478734476
 31
0.0
  0
LINE
  5
95
102
{ACAD_REACTORS
330
1A7
330
1A8
102
}
330
47
100
AcDbEntity
  8
0
  6
Continuous
 62
     2
100
AcDbLine
 10
-28.90342362985007
 20
2.16910097782088
 30
0.0
 11
-28.90342362985007
 21
1.29658397101755
 31
0.0
  0
LINE
  5
96
102
{ACAD_REACTORS
330
1B1
330
1B2
102
}
330
47
100
AcDbEntity
  8
0
  6
Continuous
 62
     2
100
AcDbLine
 10
-30.76418024522999
 20
4.48127104583156
 30
0.0
 11
-29.36622719828969
 21
6.06213003960656
 31
0.0
  0
LINE
  5
97
102
{ACAD_REACTORS
330
1B1
330
1B2
102
}
330
47
100
AcDbEntity
  8
0
  6
Continuous
 62
     2
100
AcDbLine
 10
-30.66875682905717
 20
7.53508056964276
 30
0.0
 11
-29.36622719828969
 21
6.06213003960656
 31
0.0
  0
LINE
  5
98
102
{ACAD_REACTORS
330
1B1
330
1B2
102
}
330
47
100
AcDbEntity
  8
0
  6
Continuous
 62
     2
100
AcDbLine
 10
-28.06369756752329
 20
7.53508056964276
 30
0.0
 11
-26.66097334977607
 21
7.53508056964276
 31
0.0
  0
LINE
  5
99
102
{ACAD_REACTORS
330
1B1
330
1B2
102
}
330
47
100
AcDbEntity
  8
0
  6
Continuous
 62
     2
100
AcDbLine
 10
-29.36145602748178
 20
4.48127104583156
 30
0.0
 11
-28.66486508941608
 21
5.26900283112528
 31
0.0
  0
LINE
  5
9A
102
{ACAD_REACTORS
330
1B1
330
1B2
102
}
330
47
100
AcDbEntity
  8
0
  6
Continuous
 62
     2
100
AcDbLine
 10
-29.36145602748178
 20
4.48127104583156
 30
0.0
 11
-30.76418024522999
 21
4.48127104583156
 31
0.0
  0
LINE
  5
9B
102
{ACAD_REACTORS
330
1B3
330
1B4
102
}
330
47
100
AcDbEntity
  8
0
  6
Continuous
 62
     2
100
AcDbLine
 10
-30.88345951544687
 20
4.48127104583156
 30
0.0
 11
-32.12396392569977
 21
4.48127104583156
 31
0.0
  0
LINE
  5
9C
102
{ACAD_REACTORS
330
1B5
330
1B6
102
}
330
47
100
AcDbEntity
  8
0
  6
Continuous
 62
     2
100
AcDbLine
 10
-32.99194353385488
 20
2.34360437918175
 30
0.0
 11
-33.29210877104498
 21
3.11141934516846
 31
0.0
  0
LINE
  5
9D
102
{ACAD_REACTORS
330
1B5
330
1B6
102
}
330
47
100
AcDbEntity
  8
0
  6
Continuous
 62
     2
100
AcDbLine
 10
-33.59227400823738
 20
2.34360437918175
 30
0.0
 11
-32.99194353385488
 21
2.34360437918175
 31
0.0
  0
LINE
  5
9E
102
{ACAD_REACTORS
330
1B5
330
1B6
102
}
330
47
100
AcDbEntity
  8
0
  6
Continuous
 62
     2
100
AcDbLine
 10
-35.31031402311118
 20
1.12208056965727
 30
0.0
 11
-34.06980961285819
 21
1.12208056965727
 31
0.0
  0
LINE
  5
9F
102
{ACAD_REACTORS
330
1B5
330
1B6
102
}
330
47
100
AcDbEntity
  8
0
  6
Continuous
 62
     2
100
AcDbLine
 10
-33.91236097617187
 20
4.17589009346835
 30
0.0
 11
-32.67185656591917
 21
4.17589009346835
 31
0.0
  0
LINE
  5
A0
102
{ACAD_REACTORS
330
1B5
330
1B6
102
}
330
47
100
AcDbEntity
  8
0
  6
Continuous
 62
     2
100
AcDbLine
 10
-32.67185656591917
 20
4.17589009346835
 30
0.0
 11
-31.27390351897887
 21
1.12208056965727
 31
0.0
  0
LINE
  5
A1
102
{ACAD_REACTORS
330
1B5
330
1B6
102
}
330
47
100
AcDbEntity
  8
0
  6
Continuous
 62
     2
100
AcDbLine
 10
-32.51440792923279
 20
1.12208056965727
 30
0.0
 11
-32.72588798270857
 21
1.66304111387515
 31
0.0
  0
LINE
  5
A2
102
{ACAD_REACTORS
330
1B7
330
1B8
102
}
330
47
100
AcDbEntity
  8
0
  6
Continuous
 62
     2
100
AcDbLine
 10
-36.65672712481879
 20
1.12208056965727
 30
0.0
 11
-35.46393442265227
 21
1.12208056965727
 31
0.0
  0
LINE
  5
A3
102
{ACAD_REACTORS
330
1B7
330
1B8
102
}
330
47
100
AcDbEntity
  8
0
  6
Continuous
 62
     2
100
AcDbLine
 10
-36.65672712481879
 20
3.39062478734476
 30
0.0
 11
-36.65672712481879
 21
1.12208056965727
 31
0.0
  0
LINE
  5
A4
102
{ACAD_REACTORS
330
1B7
330
1B8
102
}
330
47
100
AcDbEntity
  8
0
  6
Continuous
 62
     2
100
AcDbLine
 10
-37.46782616229339
 20
4.17589009346835
 30
0.0
 11
-37.46782616229339
 21
3.39062478734476
 31
0.0
  0
LINE
  5
A5
102
{ACAD_REACTORS
330
1B9
330
1BA
102
}
330
47
100
AcDbEntity
  8
0
  6
Continuous
 62
     2
100
AcDbLine
 10
-35.98861228072079
 20
4.48127104583156
 30
0.0
 11
-34.79581957855427
 21
4.48127104583156
 31
0.0
  0
LINE
  5
A6
102
{ACAD_REACTORS
330
1B9
330
1BA
102
}
330
47
100
AcDbEntity
  8
0
  6
Continuous
 62
     2
100
AcDbLine
 10
-33.55531516830027
 20
6.22630505943758
 30
0.0
 11
-34.79581957855427
 21
7.53508056964276
 31
0.0
  0
LINE
  5
A7
102
{ACAD_REACTORS
330
1B9
330
1BA
102
}
330
47
100
AcDbEntity
  8
0
  6
Continuous
 62
     2
100
AcDbLine
 10
-32.36252246613367
 20
7.53508056964276
 30
0.0
 11
-33.55531516830027
 21
7.53508056964276
 31
0.0
  0
LINE
  5
A8
102
{ACAD_REACTORS
330
1B9
330
1BA
102
}
330
47
100
AcDbEntity
  8
0
  6
Continuous
 62
     2
100
AcDbLine
 10
-32.36252246613367
 20
4.48127104583156
 30
0.0
 11
-32.36252246613367
 21
7.53508056964276
 31
0.0
  0
LINE
  5
A9
102
{ACAD_REACTORS
330
1B9
330
1BA
102
}
330
47
100
AcDbEntity
  8
0
  6
Continuous
 62
     2
100
AcDbLine
 10
-33.55531516830027
 20
4.48127104583156
 30
0.0
 11
-32.36252246613367
 21
4.48127104583156
 31
0.0
  0
LINE
  5
AA
102
{ACAD_REACTORS
330
1B9
330
1BA
102
}
330
47
100
AcDbEntity
  8
0
  6
Continuous
 62
     2
100
AcDbLine
 10
-34.79581957855427
 20
5.79004655603626
 30
0.0
 11
-33.55531516830027
 21
4.48127104583156
 31
0.0
  0
LINE
  5
AB
102
{ACAD_REACTORS
330
1BB
330
1BC
102
}
330
47
100
AcDbEntity
  8
0
  6
Continuous
 62
     2
100
AcDbLine
 10
-38.80375398871999
 20
2.86711458326326
 30
0.0
 11
-40.04425839897289
 21
4.17589009346835
 31
0.0
  0
LINE
  5
AC
102
{ACAD_REACTORS
330
1BB
330
1BC
102
}
330
47
100
AcDbEntity
  8
0
  6
Continuous
 62
     2
100
AcDbLine
 10
-38.80375398871999
 20
4.17589009346835
 30
0.0
 11
-38.80375398871999
 21
2.86711458326326
 31
0.0
  0
LINE
  5
AD
102
{ACAD_REACTORS
330
1BB
330
1BC
102
}
330
47
100
AcDbEntity
  8
0
  6
Continuous
 62
     2
100
AcDbLine
 10
-37.61096128655359
 20
4.17589009346835
 30
0.0
 11
-38.80375398871999
 21
4.17589009346835
 31
0.0
  0
LINE
  5
AE
102
{ACAD_REACTORS
330
1BB
330
1BC
102
}
330
47
100
AcDbEntity
  8
0
  6
Continuous
 62
     2
100
AcDbLine
 10
-37.61096128655359
 20
1.12208056965727
 30
0.0
 11
-37.61096128655359
 21
4.17589009346835
 31
0.0
  0
LINE
  5
AF
102
{ACAD_REACTORS
330
1BB
330
1BC
102
}
330
47
100
AcDbEntity
  8
0
  6
Continuous
 62
     2
100
AcDbLine
 10
-40.04425839897289
 20
2.43085607986185
 30
0.0
 11
-38.80375398871999
 21
1.12208056965727
 31
0.0
  0
LINE
  5
B0
102
{ACAD_REACTORS
330
1BB
330
1BC
102
}
330
47
100
AcDbEntity
  8
0
  6
Continuous
 62
     2
100
AcDbLine
 10
-40.04425839897289
 20
1.12208056965727
 30
0.0
 11
-40.04425839897289
 21
2.43085607986185
 31
0.0
  0
LINE
  5
B1
102
{ACAD_REACTORS
330
1AB
330
1AC
102
}
330
47
100
AcDbEntity
  8
0
  6
Continuous
 62
     2
100
AcDbLine
 10
-37.56309864758137
 20
6.83706696419978
 30
0.0
 11
-36.22717082115369
 21
6.83706696419978
 31
0.0
  0
LINE
  5
B2
102
{ACAD_REACTORS
330
1AB
330
1AC
102
}
330
47
100
AcDbEntity
  8
0
  6
Continuous
 62
     2
100
AcDbLine
 10
-37.56309864758137
 20
5.17928465127406
 30
0.0
 11
-37.56309864758137
 21
5.65916900501577
 31
0.0
  0
LINE
  5
B3
102
{ACAD_REACTORS
330
1AB
330
1AC
102
}
330
47
100
AcDbEntity
  8
0
  6
Continuous
 62
     2
100
AcDbLine
 10
-36.22717082115369
 20
5.17928465127406
 30
0.0
 11
-37.56309864758137
 21
5.17928465127406
 31
0.0
  0
LINE
  5
B4
102
{ACAD_REACTORS
330
1AB
330
1AC
102
}
330
47
100
AcDbEntity
  8
0
  6
Continuous
 62
     2
100
AcDbLine
 10
-36.22717082115369
 20
4.48127104583156
 30
0.0
 11
-36.22717082115369
 21
5.17928465127406
 31
0.0
  0
LINE
  5
B5
102
{ACAD_REACTORS
330
1AB
330
1AC
102
}
330
47
100
AcDbEntity
  8
0
  6
Continuous
 62
     2
100
AcDbLine
 10
-39.37749054493469
 20
4.48127104583156
 30
0.0
 11
-36.22717082115369
 21
4.48127104583156
 31
0.0
  0
LINE
  5
B6
102
{ACAD_REACTORS
330
1AB
330
1AC
102
}
330
47
100
AcDbEntity
  8
0
  6
Continuous
 62
     2
100
AcDbLine
 10
-39.37749054493469
 20
7.53508056964276
 30
0.0
 11
-36.22717082115369
 21
7.53508056964276
 31
0.0
  0
LINE
  5
B7
102
{ACAD_REACTORS
330
1AB
330
1AC
102
}
330
47
100
AcDbEntity
  8
0
  6
Continuous
 62
     2
100
AcDbLine
 10
-36.22717082115369
 20
6.83706696419978
 30
0.0
 11
-36.22717082115369
 21
7.53508056964276
 31
0.0
  0
LINE
  5
B8
102
{ACAD_REACTORS
330
1BD
330
1BE
102
}
330
47
100
AcDbEntity
  8
0
  6
Continuous
 62
     2
100
AcDbLine
 10
-42.23884604007469
 20
6.46624723630816
 30
0.0
 11
-42.23884604007469
 21
7.53508056964276
 31
0.0
  0
LINE
  5
B9
102
{ACAD_REACTORS
330
1BD
330
1BE
102
}
330
47
100
AcDbEntity
  8
0
  6
Continuous
 62
     2
100
AcDbLine
 10
-42.23884604007469
 20
7.53508056964276
 30
0.0
 11
-41.04605333790829
 21
7.53508056964276
 31
0.0
  0
LINE
  5
BA
102
{ACAD_REACTORS
330
1BD
330
1BE
102
}
330
47
100
AcDbEntity
  8
0
  6
Continuous
 62
     2
100
AcDbLine
 10
-42.23884604007469
 20
5.61554315467538
 30
0.0
 11
-43.28850361798217
 21
5.61554315467538
 31
0.0
  0
LINE
  5
BB
102
{ACAD_REACTORS
330
1BD
330
1BE
102
}
330
47
100
AcDbEntity
  8
0
  6
Continuous
 62
     2
100
AcDbLine
 10
-43.28850361798217
 20
5.61554315467538
 30
0.0
 11
-43.28850361798217
 21
4.48127104583156
 31
0.0
  0
LINE
  5
BC
102
{ACAD_REACTORS
330
1BD
330
1BE
102
}
330
47
100
AcDbEntity
  8
0
  6
Continuous
 62
     2
100
AcDbLine
 10
-44.48129632014877
 20
7.53508056964276
 30
0.0
 11
-44.48129632014877
 21
4.48127104583156
 31
0.0
  0
LINE
  5
BD
102
{ACAD_REACTORS
330
1AF
330
1B0
102
}
330
47
100
AcDbEntity
  8
0
  6
Continuous
 62
     2
100
AcDbLine
 10
-46.43747635170237
 20
6.16624707486045
 30
0.0
 11
-46.43747635170237
 21
6.87197472420266
 31
0.0
  0
LINE
  5
BE
102
{ACAD_REACTORS
330
1AF
330
1B0
102
}
330
47
100
AcDbEntity
  8
0
  6
Continuous
 62
     2
100
AcDbLine
 10
-47.67798076195649
 20
4.48127104583156
 30
0.0
 11
-46.43747635170237
 21
4.48127104583156
 31
0.0
  0
LINE
  5
BF
102
{ACAD_REACTORS
330
1AF
330
1B0
102
}
330
47
100
AcDbEntity
  8
0
  6
Continuous
 62
     2
100
AcDbLine
 10
-46.43747635170237
 20
4.48127104583156
 30
0.0
 11
-46.43747635170237
 21
5.42434928697537
 31
0.0
  0
LINE
  5
C0
102
{ACAD_REACTORS
330
1A9
330
1AA
102
}
330
47
100
AcDbEntity
  8
0
  6
Continuous
 62
     2
100
AcDbLine
 10
-51.98292661116787
 20
1.83463612521416
 30
0.0
 11
-53.4587598721775
 21
1.83463612521416
 31
0.0
  0
LINE
  5
C1
102
{ACAD_REACTORS
330
1A9
330
1AA
102
}
330
47
100
AcDbEntity
  8
0
  6
Continuous
 62
     2
100
AcDbLine
 10
-54.47689916430679
 20
7.11083595424077
 30
0.0
 11
-54.47689916430679
 21
1.54632518504056
 31
0.0
  0
LINE
  5
C2
102
{ACAD_REACTORS
330
1A9
330
1AA
102
}
330
47
100
AcDbEntity
  8
0
  6
Continuous
 62
     2
100
AcDbLine
 10
-54.05265454892398
 20
7.53508056962457
 30
0.0
 11
-48.57934245820718
 21
7.53508056962457
 31
0.0
  0
LINE
  5
C3
102
{ACAD_REACTORS
330
1A9
330
1AA
102
}
330
47
100
AcDbEntity
  8
0
  6
Continuous
 62
     2
100
AcDbLine
 10
-48.1550978428233
 20
7.11083595424077
 30
0.0
 11
-48.1550978428233
 21
1.54632518504056
 31
0.0
  0
LINE
  5
C4
102
{ACAD_REACTORS
330
1A9
330
1AA
102
}
330
47
100
AcDbEntity
  8
0
  6
Continuous
 62
     2
100
AcDbLine
 10
-48.57934245820718
 20
1.12208056965727
 30
0.0
 11
-54.05265454892398
 21
1.12208056965727
 31
0.0
  0
LINE
  5
C5
102
{ACAD_REACTORS
330
1A9
330
1AA
102
}
330
47
100
AcDbEntity
  8
0
  6
Continuous
 62
     2
100
AcDbLine
 10
-51.66720968809128
 20
2.15035304829087
 30
0.0
 11
-51.66720968809128
 21
3.68112397982247
 31
0.0
  0
LINE
  5
C6
102
{ACAD_REACTORS
330
1A9
330
1AA
102
}
330
47
100
AcDbEntity
  8
0
  6
Continuous
 62
     2
100
AcDbLine
 10
-51.66720968809128
 20
5.90278347194746
 30
0.0
 11
-51.66720968809128
 21
6.50680809100797
 31
0.0
  0
LINE
  5
C7
102
{ACAD_REACTORS
330
1A9
330
1AA
102
}
330
47
100
AcDbEntity
  8
0
  6
Continuous
 62
     2
100
AcDbLine
 10
-53.4587598721775
 20
6.82252501408416
 30
0.0
 11
-51.98292661116787
 21
6.82252501408416
 31
0.0
  0
LINE
  5
C8
102
{ACAD_REACTORS
330
1A9
330
1AA
102
}
330
47
100
AcDbEntity
  8
0
  6
Continuous
 62
     2
100
AcDbLine
 10
-53.77447679525318
 20
6.50680809100797
 30
0.0
 11
-53.77447679525318
 21
2.15035304829087
 31
0.0
  0
LINE
  5
C9
102
{ACAD_REACTORS
330
1AF
330
1B0
102
}
330
47
100
AcDbEntity
  8
0
  6
Continuous
 62
     2
100
AcDbLine
 10
-46.43747635170237
 20
5.42434928697537
 30
0.0
 11
-45.67870876392209
 21
5.42434928697537
 31
0.0
  0
LINE
  5
CA
102
{ACAD_REACTORS
330
1AF
330
1B0
102
}
330
47
100
AcDbEntity
  8
0
  6
Continuous
 62
     2
100
AcDbLine
 10
-47.67798076195649
 20
7.53508056964276
 30
0.0
 11
-45.67870876392209
 21
7.53508056964276
 31
0.0
  0
LINE
  5
CB
102
{ACAD_REACTORS
330
1AF
330
1B0
102
}
330
47
100
AcDbEntity
  8
0
  6
Continuous
 62
     2
100
AcDbLine
 10
-47.67798076195649
 20
7.53508056964276
 30
0.0
 11
-47.67798076195649
 21
4.48127104583156
 31
0.0
  0
LINE
  5
CC
102
{ACAD_REACTORS
330
1AF
330
1B0
102
}
330
47
100
AcDbEntity
  8
0
  6
Continuous
 62
     2
100
AcDbLine
 10
-46.43747635170237
 20
6.16624707486045
 30
0.0
 11
-46.12018129016047
 21
6.16624707486045
 31
0.0
  0
LINE
  5
CD
102
{ACAD_REACTORS
330
1AF
330
1B0
102
}
330
47
100
AcDbEntity
  8
0
  6
Continuous
 62
     2
100
AcDbLine
 10
-46.43747635170237
 20
6.87197472420266
 30
0.0
 11
-46.12018129016047
 21
6.87197472420266
 31
0.0
  0
LINE
  5
CE
102
{ACAD_REACTORS
330
1BD
330
1BE
102
}
330
47
100
AcDbEntity
  8
0
  6
Continuous
 62
     2
100
AcDbLine
 10
-43.28850361798217
 20
6.46624723630816
 30
0.0
 11
-42.23884604007469
 21
6.46624723630816
 31
0.0
  0
LINE
  5
CF
102
{ACAD_REACTORS
330
1BD
330
1BE
102
}
330
47
100
AcDbEntity
  8
0
  6
Continuous
 62
     2
100
AcDbLine
 10
-43.28850361798217
 20
7.53508056964276
 30
0.0
 11
-43.28850361798217
 21
6.46624723630816
 31
0.0
  0
LINE
  5
D0
102
{ACAD_REACTORS
330
1BD
330
1BE
102
}
330
47
100
AcDbEntity
  8
0
  6
Continuous
 62
     2
100
AcDbLine
 10
-44.48129632014877
 20
7.53508056964276
 30
0.0
 11
-43.28850361798217
 21
7.53508056964276
 31
0.0
  0
LINE
  5
D1
102
{ACAD_REACTORS
330
1BD
330
1BE
102
}
330
47
100
AcDbEntity
  8
0
  6
Continuous
 62
     2
100
AcDbLine
 10
-43.28850361798217
 20
4.48127104583156
 30
0.0
 11
-44.48129632014877
 21
4.48127104583156
 31
0.0
  0
LINE
  5
D2
102
{ACAD_REACTORS
330
1BD
330
1BE
102
}
330
47
100
AcDbEntity
  8
0
  6
Continuous
 62
     2
100
AcDbLine
 10
-42.23884604007469
 20
4.48127104583156
 30
0.0
 11
-42.23884604007469
 21
5.61554315467538
 31
0.0
  0
LINE
  5
D3
102
{ACAD_REACTORS
330
1BD
330
1BE
102
}
330
47
100
AcDbEntity
  8
0
  6
Continuous
 62
     2
100
AcDbLine
 10
-41.04605333790829
 20
4.48127104583156
 30
0.0
 11
-42.23884604007469
 21
4.48127104583156
 31
0.0
  0
LINE
  5
D4
102
{ACAD_REACTORS
330
1BD
330
1BE
102
}
330
47
100
AcDbEntity
  8
0
  6
Continuous
 62
     2
100
AcDbLine
 10
-41.04605333790829
 20
7.53508056964276
 30
0.0
 11
-41.04605333790829
 21
4.48127104583156
 31
0.0
  0
LINE
  5
D5
102
{ACAD_REACTORS
330
1AB
330
1AC
102
}
330
47
100
AcDbEntity
  8
0
  6
Continuous
 62
     2
100
AcDbLine
 10
-37.56309864758137
 20
5.65916900501577
 30
0.0
 11
-36.22717082115369
 21
5.65916900501577
 31
0.0
  0
LINE
  5
D6
102
{ACAD_REACTORS
330
1AB
330
1AC
102
}
330
47
100
AcDbEntity
  8
0
  6
Continuous
 62
     2
100
AcDbLine
 10
-36.22717082115369
 20
5.65916900501577
 30
0.0
 11
-36.22717082115369
 21
6.35718261045807
 31
0.0
  0
LINE
  5
D7
102
{ACAD_REACTORS
330
1AB
330
1AC
102
}
330
47
100
AcDbEntity
  8
0
  6
Continuous
 62
     2
100
AcDbLine
 10
-36.22717082115369
 20
6.35718261045807
 30
0.0
 11
-37.56309864758137
 21
6.35718261045807
 31
0.0
  0
LINE
  5
D8
102
{ACAD_REACTORS
330
1AB
330
1AC
102
}
330
47
100
AcDbEntity
  8
0
  6
Continuous
 62
     2
100
AcDbLine
 10
-37.56309864758137
 20
6.35718261045807
 30
0.0
 11
-37.56309864758137
 21
6.83706696419978
 31
0.0
  0
LINE
  5
D9
102
{ACAD_REACTORS
330
1BB
330
1BC
102
}
330
47
100
AcDbEntity
  8
0
  6
Continuous
 62
     2
100
AcDbLine
 10
-41.23705110114048
 20
1.12208056965727
 30
0.0
 11
-40.04425839897289
 21
1.12208056965727
 31
0.0
  0
LINE
  5
DA
102
{ACAD_REACTORS
330
1BB
330
1BC
102
}
330
47
100
AcDbEntity
  8
0
  6
Continuous
 62
     2
100
AcDbLine
 10
-38.80375398871999
 20
1.12208056965727
 30
0.0
 11
-37.61096128655359
 21
1.12208056965727
 31
0.0
  0
LINE
  5
DB
102
{ACAD_REACTORS
330
1BB
330
1BC
102
}
330
47
100
AcDbEntity
  8
0
  6
Continuous
 62
     2
100
AcDbLine
 10
-40.04425839897289
 20
4.17589009346835
 30
0.0
 11
-41.23705110114048
 21
4.17589009346835
 31
0.0
  0
LINE
  5
DC
102
{ACAD_REACTORS
330
1BB
330
1BC
102
}
330
47
100
AcDbEntity
  8
0
  6
Continuous
 62
     2
100
AcDbLine
 10
-41.23705110114048
 20
4.17589009346835
 30
0.0
 11
-41.23705110114048
 21
1.12208056965727
 31
0.0
  0
LINE
  5
DD
102
{ACAD_REACTORS
330
1B9
330
1BA
102
}
330
47
100
AcDbEntity
  8
0
  6
Continuous
 62
     2
100
AcDbLine
 10
-33.55531516830027
 20
7.53508056964276
 30
0.0
 11
-33.55531516830027
 21
6.22630505943758
 31
0.0
  0
LINE
  5
DE
102
{ACAD_REACTORS
330
1B9
330
1BA
102
}
330
47
100
AcDbEntity
  8
0
  6
Continuous
 62
     2
100
AcDbLine
 10
-34.79581957855427
 20
7.53508056964276
 30
0.0
 11
-35.98861228072079
 21
7.53508056964276
 31
0.0
  0
LINE
  5
DF
102
{ACAD_REACTORS
330
1B9
330
1BA
102
}
330
47
100
AcDbEntity
  8
0
  6
Continuous
 62
     2
100
AcDbLine
 10
-35.98861228072079
 20
7.53508056964276
 30
0.0
 11
-35.98861228072079
 21
4.48127104583156
 31
0.0
  0
LINE
  5
E0
102
{ACAD_REACTORS
330
1B9
330
1BA
102
}
330
47
100
AcDbEntity
  8
0
  6
Continuous
 62
     2
100
AcDbLine
 10
-34.79581957855427
 20
4.48127104583156
 30
0.0
 11
-34.79581957855427
 21
5.79004655603626
 31
0.0
  0
LINE
  5
E1
102
{ACAD_REACTORS
330
1B7
330
1B8
102
}
330
47
100
AcDbEntity
  8
0
  6
Continuous
 62
     2
100
AcDbLine
 10
-35.46393442265227
 20
1.12208056965727
 30
0.0
 11
-35.46393442265227
 21
3.39062478734476
 31
0.0
  0
LINE
  5
E2
102
{ACAD_REACTORS
330
1B7
330
1B8
102
}
330
47
100
AcDbEntity
  8
0
  6
Continuous
 62
     2
100
AcDbLine
 10
-35.46393442265227
 20
3.39062478734476
 30
0.0
 11
-34.65283538517977
 21
3.39062478734476
 31
0.0
  0
LINE
  5
E3
102
{ACAD_REACTORS
330
1B7
330
1B8
102
}
330
47
100
AcDbEntity
  8
0
  6
Continuous
 62
     2
100
AcDbLine
 10
-34.65283538517977
 20
3.39062478734476
 30
0.0
 11
-34.65283538517977
 21
4.17589009346835
 31
0.0
  0
LINE
  5
E4
102
{ACAD_REACTORS
330
1B7
330
1B8
102
}
330
47
100
AcDbEntity
  8
0
  6
Continuous
 62
     2
100
AcDbLine
 10
-34.65283538517977
 20
4.17589009346835
 30
0.0
 11
-37.46782616229339
 21
4.17589009346835
 31
0.0
  0
LINE
  5
E5
102
{ACAD_REACTORS
330
1B7
330
1B8
102
}
330
47
100
AcDbEntity
  8
0
  6
Continuous
 62
     2
100
AcDbLine
 10
-37.46782616229339
 20
3.39062478734476
 30
0.0
 11
-36.65672712481879
 21
3.39062478734476
 31
0.0
  0
LINE
  5
E6
102
{ACAD_REACTORS
330
1B5
330
1B6
102
}
330
47
100
AcDbEntity
  8
0
  6
Continuous
 62
     2
100
AcDbLine
 10
-33.85832955938238
 20
1.66304111387515
 30
0.0
 11
-32.72588798270857
 21
1.66304111387515
 31
0.0
  0
LINE
  5
E7
102
{ACAD_REACTORS
330
1B5
330
1B6
102
}
330
47
100
AcDbEntity
  8
0
  6
Continuous
 62
     2
100
AcDbLine
 10
-31.27390351897887
 20
1.12208056965727
 30
0.0
 11
-32.51440792923279
 21
1.12208056965727
 31
0.0
  0
LINE
  5
E8
102
{ACAD_REACTORS
330
1B5
330
1B6
102
}
330
47
100
AcDbEntity
  8
0
  6
Continuous
 62
     2
100
AcDbLine
 10
-33.91236097617187
 20
4.17589009346835
 30
0.0
 11
-35.31031402311118
 21
1.12208056965727
 31
0.0
  0
LINE
  5
E9
102
{ACAD_REACTORS
330
1B5
330
1B6
102
}
330
47
100
AcDbEntity
  8
0
  6
Continuous
 62
     2
100
AcDbLine
 10
-34.06980961285819
 20
1.12208056965727
 30
0.0
 11
-33.85832955938238
 21
1.66304111387515
 31
0.0
  0
LINE
  5
EA
102
{ACAD_REACTORS
330
1B5
330
1B6
102
}
330
47
100
AcDbEntity
  8
0
  6
Continuous
 62
     2
100
AcDbLine
 10
-33.59227400823738
 20
2.34360437918175
 30
0.0
 11
-33.29210877104498
 21
3.11141934516846
 31
0.0
  0
LINE
  5
EB
102
{ACAD_REACTORS
330
1B3
330
1B4
102
}
330
47
100
AcDbEntity
  8
0
  6
Continuous
 62
     2
100
AcDbLine
 10
-32.12396392569977
 20
4.48127104583156
 30
0.0
 11
-32.12396392569977
 21
7.53508056964276
 31
0.0
  0
LINE
  5
EC
102
{ACAD_REACTORS
330
1B3
330
1B4
102
}
330
47
100
AcDbEntity
  8
0
  6
Continuous
 62
     2
100
AcDbLine
 10
-30.88345951544687
 20
7.53508056964276
 30
0.0
 11
-30.88345951544687
 21
4.48127104583156
 31
0.0
  0
LINE
  5
ED
102
{ACAD_REACTORS
330
1B3
330
1B4
102
}
330
47
100
AcDbEntity
  8
0
  6
Continuous
 62
     2
100
AcDbLine
 10
-32.12396392569977
 20
7.53508056964276
 30
0.0
 11
-30.88345951544687
 21
7.53508056964276
 31
0.0
  0
LINE
  5
EE
102
{ACAD_REACTORS
330
1B1
330
1B2
102
}
330
47
100
AcDbEntity
  8
0
  6
Continuous
 62
     2
100
AcDbLine
 10
-28.66486508941608
 20
5.26900283112528
 30
0.0
 11
-27.96827415135059
 21
4.48127104583156
 31
0.0
  0
LINE
  5
EF
102
{ACAD_REACTORS
330
1B1
330
1B2
102
}
330
47
100
AcDbEntity
  8
0
  6
Continuous
 62
     2
100
AcDbLine
 10
-27.96827415135059
 20
4.48127104583156
 30
0.0
 11
-26.56554993360228
 21
4.48127104583156
 31
0.0
  0
LINE
  5
F0
102
{ACAD_REACTORS
330
1B1
330
1B2
102
}
330
47
100
AcDbEntity
  8
0
  6
Continuous
 62
     2
100
AcDbLine
 10
-27.96350298054259
 20
6.06213003960656
 30
0.0
 11
-26.56554993360228
 21
4.48127104583156
 31
0.0
  0
LINE
  5
F1
102
{ACAD_REACTORS
330
1B1
330
1B2
102
}
330
47
100
AcDbEntity
  8
0
  6
Continuous
 62
     2
100
AcDbLine
 10
-27.96350298054259
 20
6.06213003960656
 30
0.0
 11
-26.66097334977607
 21
7.53508056964276
 31
0.0
  0
LINE
  5
F2
102
{ACAD_REACTORS
330
1B1
330
1B2
102
}
330
47
100
AcDbEntity
  8
0
  6
Continuous
 62
     2
100
AcDbLine
 10
-28.66486508941608
 20
6.85525724808727
 30
0.0
 11
-28.06369756752329
 21
7.53508056964276
 31
0.0
  0
LINE
  5
F3
102
{ACAD_REACTORS
330
1B1
330
1B2
102
}
330
47
100
AcDbEntity
  8
0
  6
Continuous
 62
     2
100
AcDbLine
 10
-29.26603261130788
 20
7.53508056964276
 30
0.0
 11
-28.66486508941608
 21
6.85525724808727
 31
0.0
  0
LINE
  5
F4
102
{ACAD_REACTORS
330
1B1
330
1B2
102
}
330
47
100
AcDbEntity
  8
0
  6
Continuous
 62
     2
100
AcDbLine
 10
-29.26603261130788
 20
7.53508056964276
 30
0.0
 11
-30.66875682905717
 21
7.53508056964276
 31
0.0
  0
LINE
  5
F5
102
{ACAD_REACTORS
330
1A7
330
1A8
102
}
330
47
100
AcDbEntity
  8
0
  6
Continuous
 62
     2
100
AcDbLine
 10
-28.56944167324338
 20
1.12208056965727
 30
0.0
 11
-27.37664897107567
 21
1.12208056965727
 31
0.0
  0
LINE
  5
F6
102
{ACAD_REACTORS
330
1A7
330
1A8
102
}
330
47
100
AcDbEntity
  8
0
  6
Continuous
 62
     2
100
AcDbLine
 10
-27.37664897107567
 20
1.12208056965727
 30
0.0
 11
-27.37664897107567
 21
3.39062478734476
 31
0.0
  0
LINE
  5
F7
102
{ACAD_REACTORS
330
1A7
330
1A8
102
}
330
47
100
AcDbEntity
  8
0
  6
Continuous
 62
     2
100
AcDbLine
 10
-27.37664897107567
 20
3.39062478734476
 30
0.0
 11
-26.56554993360228
 21
3.39062478734476
 31
0.0
  0
LINE
  5
F8
102
{ACAD_REACTORS
330
1A7
330
1A8
102
}
330
47
100
AcDbEntity
  8
0
  6
Continuous
 62
     2
100
AcDbLine
 10
-26.56554993360228
 20
3.39062478734476
 30
0.0
 11
-26.56554993360228
 21
4.17589009346835
 31
0.0
  0
LINE
  5
F9
102
{ACAD_REACTORS
330
1A7
330
1A8
102
}
330
47
100
AcDbEntity
  8
0
  6
Continuous
 62
     2
100
AcDbLine
 10
-29.95049545223097
 20
4.17589009346787
 30
0.0
 11
-26.56554993360228
 21
4.17589009346835
 31
0.0
  0
LINE
  5
FA
102
{ACAD_REACTORS
330
1A7
330
1A8
102
}
330
47
100
AcDbEntity
  8
0
  6
Continuous
 62
     2
100
AcDbLine
 10
-28.56944167324338
 20
3.39062478734476
 30
0.0
 11
-28.56944167324338
 21
1.12208056965727
 31
0.0
  0
LINE
  5
FB
102
{ACAD_REACTORS
330
1A9
330
1AA
102
}
330
47
100
AcDbEntity
  8
0
  6
Continuous
 62
     2
100
AcDbLine
 10
-51.19892810872258
 20
3.10096071922177
 30
0.0
 11
-51.19892810872258
 21
3.68281212591685
 31
0.0
  0
LINE
  5
FC
102
{ACAD_REACTORS
330
1A9
330
1AA
102
}
330
47
100
AcDbEntity
  8
0
  6
Continuous
 62
     2
100
AcDbLine
 10
-51.19892810872258
 20
5.90109532585308
 30
0.0
 11
-51.19892810872258
 21
6.50663061435986
 31
0.0
  0
LINE
  5
FD
330
47
100
AcDbEntity
  8
1
  6
Continuous
 62
     6
100
AcDbLine
 10
-72.66874952411936
 20
-6.17141943035904
 30
0.0
 11
-58.71355405086939
 21
-6.17141943035915
 31
0.0
  0
LINE
  5
FE
330
47
100
AcDbEntity
  8
1
  6
Continuous
 62
     6
100
AcDbLine
 10
-122.6687495241196
 20
-6.17141943035904
 30
0.0
 11
-127.7135540508694
 21
-6.17141943035904
 31
0.0
  0
LINE
  5
FF
330
47
100
AcDbEntity
  8
1
  6
Continuous
 62
     6
100
AcDbLine
 10
27.33125047588061
 20
-6.17141943035904
 30
0.0
 11
70.83125047588062
 21
-6.17141943035904
 31
0.0
  0
LINE
  5
100
330
47
100
AcDbEntity
  8
1
  6
Continuous
 62
     6
100
AcDbLine
 10
-22.66874952411939
 20
-6.17141943035904
 30
0.0
 11
-40.51355405086937
 21
-6.17141943035904
 31
0.0
  0
LINE
  5
101
330
47
100
AcDbEntity
  8
1
  6
Continuous
 62
     2
100
AcDbLine
 10
70.83125047588062
 20
-6.17141943035904
 30
0.0
 11
75.83125047587961
 21
-6.17141943035904
 31
0.0
  0
LINE
  5
102
330
47
100
AcDbEntity
  8
1
  6
Continuous
 62
     2
100
AcDbLine
 10
70.83125047588062
 20
-6.17141943035904
 30
0.0
 11
70.83125047588062
 21
-11.17141943035915
 31
0.0
  0
LINE
  5
103
330
47
100
AcDbEntity
  8
1
  6
Continuous
 62
     6
100
AcDbLine
 10
-58.71355405086939
 20
10.82858056964096
 30
0.0
 11
-22.31355405086947
 21
10.82858056964096
 31
0.0
  0
LINE
  5
104
330
47
100
AcDbEntity
  8
1
  6
Continuous
 62
     2
100
AcDbLine
 10
75.83125047587961
 20
-11.17141943035915
 30
0.0
 11
75.83125047587961
 21
-6.17141943035904
 31
0.0
  0
LINE
  5
105
330
47
100
AcDbEntity
  8
1
  6
Continuous
 62
     2
100
AcDbLine
 10
75.83125047587961
 20
-11.17141943035915
 30
0.0
 11
70.83125047588062
 21
-11.17141943035915
 31
0.0
  0
LINE
  5
106
330
47
100
AcDbEntity
  8
1
  6
Continuous
 62
     2
100
AcDbLine
 10
70.83125047588062
 20
-11.17141943035915
 30
0.0
 11
27.33125047588061
 21
-11.17141943035915
 31
0.0
  0
LINE
  5
107
330
47
100
AcDbEntity
  8
1
  6
Continuous
 62
     6
100
AcDbLine
 10
70.83125047588231
 20
10.82858056964096
 30
0.0
 11
70.83125047588152
 21
43.82858056964108
 31
0.0
  0
LINE
  5
108
330
47
100
AcDbEntity
  8
1
  6
Continuous
 62
     2
100
AcDbLine
 10
75.83125047587961
 20
198.828580569641
 30
0.0
 11
-72.66874952411936
 21
198.828580569641
 31
0.0
  0
LINE
  5
109
330
47
100
AcDbEntity
  8
1
  6
Continuous
 62
     6
100
AcDbLine
 10
70.83125047587961
 20
178.828580569641
 30
0.0
 11
-216.1687495241185
 21
178.828580569641
 31
0.0
  0
LINE
  5
10A
330
47
100
AcDbEntity
  8
1
  6
Continuous
 62
     2
100
AcDbLine
 10
70.83125047588152
 20
43.82858056964108
 30
0.0
 11
75.83125047587961
 21
43.82858056964108
 31
0.0
  0
LINE
  5
10B
330
47
100
AcDbEntity
  8
1
  6
Continuous
 62
     6
100
AcDbLine
 10
70.83125047588152
 20
43.82858056964108
 30
0.0
 11
70.83125047588102
 21
93.82858056964088
 31
0.0
  0
LINE
  5
10C
330
47
100
AcDbEntity
  8
1
  6
Continuous
 62
     2
100
AcDbLine
 10
75.83125047587961
 20
43.82858056964108
 30
0.0
 11
75.83125047587961
 21
93.82858056964088
 31
0.0
  0
LINE
  5
10D
330
47
100
AcDbEntity
  8
1
  6
Continuous
 62
     2
100
AcDbLine
 10
70.83125047588102
 20
93.82858056964088
 30
0.0
 11
75.83125047587961
 21
93.82858056964088
 31
0.0
  0
LINE
  5
10E
330
47
100
AcDbEntity
  8
1
  6
Continuous
 62
     6
100
AcDbLine
 10
70.83125047588102
 20
93.82858056964088
 30
0.0
 11
70.83125047587981
 21
143.828580569641
 31
0.0
  0
LINE
  5
10F
330
47
100
AcDbEntity
  8
1
  6
Continuous
 62
     2
100
AcDbLine
 10
75.83125047587961
 20
93.82858056964088
 30
0.0
 11
75.83125047587961
 21
143.828580569641
 31
0.0
  0
LINE
  5
110
330
47
100
AcDbEntity
  8
1
  6
Continuous
 62
     2
100
AcDbLine
 10
70.83125047587981
 20
143.828580569641
 30
0.0
 11
75.83125047587961
 21
143.828580569641
 31
0.0
  0
LINE
  5
111
330
47
100
AcDbEntity
  8
1
  6
Continuous
 62
     6
100
AcDbLine
 10
70.83125047587981
 20
143.828580569641
 30
0.0
 11
70.83125047587961
 21
178.828580569641
 31
0.0
  0
LINE
  5
112
330
47
100
AcDbEntity
  8
1
  6
Continuous
 62
     2
100
AcDbLine
 10
75.83125047587961
 20
143.828580569641
 30
0.0
 11
75.83125047587961
 21
198.828580569641
 31
0.0
  0
LINE
  5
113
330
47
100
AcDbEntity
  8
1
  6
Continuous
 62
     2
100
AcDbLine
 10
75.83125047587961
 20
-6.17141943035904
 30
0.0
 11
75.83125047587961
 21
43.82858056964108
 31
0.0
  0
LINE
  5
114
330
47
100
AcDbEntity
  8
1
  6
Continuous
 62
     2
100
AcDbLine
 10
-72.66874952411936
 20
198.828580569641
 30
0.0
 11
-221.1687495241185
 21
198.828580569641
 31
0.0
  0
LINE
  5
115
330
47
100
AcDbEntity
  8
1
  6
Continuous
 62
     2
100
AcDbLine
 10
-72.66874952411936
 20
198.828580569641
 30
0.0
 11
-72.66874952411936
 21
189.6198887249396
 31
0.0
  0
LINE
  5
116
330
47
100
AcDbEntity
  8
1
  6
Continuous
 62
     2
100
AcDbLine
 10
-221.1687495241185
 20
-11.17141943035915
 30
0.0
 11
-216.1687495241175
 21
-11.17141943035915
 31
0.0
  0
LINE
  5
117
330
47
100
AcDbEntity
  8
1
  6
Continuous
 62
     2
100
AcDbLine
 10
-221.1687495241185
 20
198.828580569641
 30
0.0
 11
-221.1687495241185
 21
143.828580569641
 31
0.0
  0
LINE
  5
118
330
47
100
AcDbEntity
  8
1
  6
Continuous
 62
     6
100
AcDbLine
 10
-216.1687495241185
 20
178.828580569641
 30
0.0
 11
-216.1687495241184
 21
143.828580569641
 31
0.0
  0
LINE
  5
119
330
47
100
AcDbEntity
  8
1
  6
Continuous
 62
     2
100
AcDbLine
 10
-221.1687495241185
 20
143.828580569641
 30
0.0
 11
-216.1687495241184
 21
143.828580569641
 31
0.0
  0
LINE
  5
11A
330
47
100
AcDbEntity
  8
1
  6
Continuous
 62
     2
100
AcDbLine
 10
-221.1687495241185
 20
143.828580569641
 30
0.0
 11
-221.1687495241185
 21
93.82858056964088
 31
0.0
  0
LINE
  5
11B
330
47
100
AcDbEntity
  8
1
  6
Continuous
 62
     6
100
AcDbLine
 10
-216.1687495241184
 20
143.828580569641
 30
0.0
 11
-216.1687495241179
 21
93.82858056964088
 31
0.0
  0
LINE
  5
11C
330
47
100
AcDbEntity
  8
1
  6
Continuous
 62
     2
100
AcDbLine
 10
-221.1687495241185
 20
93.82858056964088
 30
0.0
 11
-216.1687495241179
 21
93.82858056964088
 31
0.0
  0
LINE
  5
11D
330
47
100
AcDbEntity
  8
1
  6
Continuous
 62
     2
100
AcDbLine
 10
-221.1687495241185
 20
93.82858056964088
 30
0.0
 11
-221.1687495241185
 21
43.82858056964108
 31
0.0
  0
LINE
  5
11E
330
47
100
AcDbEntity
  8
1
  6
Continuous
 62
     6
100
AcDbLine
 10
-216.1687495241179
 20
93.82858056964088
 30
0.0
 11
-216.1687495241177
 21
43.82858056964108
 31
0.0
  0
LINE
  5
11F
330
47
100
AcDbEntity
  8
1
  6
Continuous
 62
     2
100
AcDbLine
 10
-221.1687495241185
 20
43.82858056964108
 30
0.0
 11
-216.1687495241177
 21
43.82858056964108
 31
0.0
  0
LINE
  5
120
330
47
100
AcDbEntity
  8
1
  6
Continuous
 62
     2
100
AcDbLine
 10
-221.1687495241185
 20
43.82858056964108
 30
0.0
 11
-221.1687495241185
 21
-6.17141943035904
 31
0.0
  0
LINE
  5
121
330
47
100
AcDbEntity
  8
1
  6
Continuous
 62
     6
100
AcDbLine
 10
-216.1687495241177
 20
43.82858056964108
 30
0.0
 11
-216.1687495241175
 21
-6.17141943035904
 31
0.0
  0
LINE
  5
122
330
47
100
AcDbEntity
  8
1
  6
Continuous
 62
     2
100
AcDbLine
 10
-172.6687495241194
 20
-11.17141943035915
 30
0.0
 11
-172.6687495241194
 21
-6.17141943035904
 31
0.0
  0
LINE
  5
123
330
47
100
AcDbEntity
  8
1
  6
Continuous
 62
     2
100
AcDbLine
 10
-172.6687495241194
 20
-11.17141943035915
 30
0.0
 11
-122.6687495241196
 21
-11.17141943035915
 31
0.0
  0
LINE
  5
124
330
47
100
AcDbEntity
  8
1
  6
Continuous
 62
     2
100
AcDbLine
 10
-122.6687495241196
 20
-11.17141943035915
 30
0.0
 11
-122.6687495241196
 21
-6.17141943035904
 31
0.0
  0
LINE
  5
125
330
47
100
AcDbEntity
  8
1
  6
Continuous
 62
     2
100
AcDbLine
 10
-122.6687495241196
 20
-11.17141943035915
 30
0.0
 11
-72.66874952411936
 21
-11.17141943035915
 31
0.0
  0
LINE
  5
126
330
47
100
AcDbEntity
  8
1
  6
Continuous
 62
     2
100
AcDbLine
 10
-72.66874952411936
 20
-11.17141943035915
 30
0.0
 11
-72.66874952411936
 21
-6.17141943035904
 31
0.0
  0
LINE
  5
127
330
47
100
AcDbEntity
  8
1
  6
Continuous
 62
     2
100
AcDbLine
 10
-72.66874952411936
 20
-11.17141943035915
 30
0.0
 11
-22.66874952411939
 21
-11.17141943035915
 31
0.0
  0
LINE
  5
128
330
47
100
AcDbEntity
  8
1
  6
Continuous
 62
     2
100
AcDbLine
 10
-22.66874952411939
 20
-11.17141943035915
 30
0.0
 11
-22.66874952411939
 21
-6.17141943035904
 31
0.0
  0
LINE
  5
129
330
47
100
AcDbEntity
  8
1
  6
Continuous
 62
     2
100
AcDbLine
 10
27.33125047588061
 20
-11.17141943035915
 30
0.0
 11
27.33125047588061
 21
-6.17141943035904
 31
0.0
  0
LINE
  5
12A
330
47
100
AcDbEntity
  8
1
  6
Continuous
 62
     2
100
AcDbLine
 10
27.33125047588061
 20
-11.17141943035915
 30
0.0
 11
-22.66874952411939
 21
-11.17141943035915
 31
0.0
  0
LINE
  5
12B
330
47
100
AcDbEntity
  8
1
  6
Continuous
 62
     2
100
AcDbLine
 10
-216.1687495241175
 20
-6.17141943035904
 30
0.0
 11
-216.1687495241175
 21
-11.17141943035915
 31
0.0
  0
LINE
  5
12C
330
47
100
AcDbEntity
  8
1
  6
Continuous
 62
     2
100
AcDbLine
 10
-216.1687495241175
 20
-11.17141943035915
 30
0.0
 11
-172.6687495241194
 21
-11.17141943035915
 31
0.0
  0
LINE
  5
12D
330
47
100
AcDbEntity
  8
1
  6
Continuous
 62
     2
100
AcDbLine
 10
-216.1687495241175
 20
-6.17141943035904
 30
0.0
 11
-221.1687495241185
 21
-6.17141943035904
 31
0.0
  0
LINE
  5
12E
330
47
100
AcDbEntity
  8
1
  6
Continuous
 62
     2
100
AcDbLine
 10
-221.1687495241185
 20
-6.17141943035904
 30
0.0
 11
-221.1687495241185
 21
-11.17141943035915
 31
0.0
  0
LINE
  5
12F
330
47
100
AcDbEntity
  8
1
  6
Continuous
 62
     6
100
AcDbLine
 10
70.83125047588062
 20
-6.17141943035904
 30
0.0
 11
70.83125047588192
 21
2.32858056964096
 31
0.0
  0
LINE
  5
130
330
47
100
AcDbEntity
  8
1
  6
Continuous
 62
     6
100
AcDbLine
 10
-22.31355405086947
 20
-6.17141943035915
 30
0.0
 11
27.33125047588061
 21
-6.17141943035904
 31
0.0
  0
LINE
  5
131
330
47
100
AcDbEntity
  8
1
  6
Continuous
 62
     6
100
AcDbLine
 10
-174.9687495241196
 20
-6.17141943035915
 30
0.0
 11
-172.6687495241194
 21
-6.17141943035904
 31
0.0
  0
LINE
  5
132
330
47
100
AcDbEntity
  8
1
  6
Continuous
 62
     6
100
AcDbLine
 10
-72.66874952411936
 20
-6.17141943035904
 30
0.0
 11
-122.6687495241196
 21
-6.17141943035904
 31
0.0
  0
LINE
  5
133
330
47
100
AcDbEntity
  8
1
  6
Continuous
 62
     7
100
AcDbLine
 10
-58.71355405086939
 20
10.82858056964096
 30
0.0
 11
-58.71355405086939
 21
-1.92141943035915
 31
0.0
  0
LINE
  5
134
330
47
100
AcDbEntity
  8
1
  6
Continuous
 62
     7
100
AcDbLine
 10
-22.31355405086947
 20
10.82858056964096
 30
0.0
 11
-22.31355405086947
 21
-1.92141943035904
 31
0.0
  0
LINE
  5
135
330
47
100
AcDbEntity
  8
1
  6
Continuous
 62
     6
100
AcDbLine
 10
-174.9687495241196
 20
-6.17141943035915
 30
0.0
 11
-181.1687495241176
 21
-6.17141943035904
 31
0.0
  0
LINE
  5
136
330
47
100
AcDbEntity
  8
1
  6
Continuous
 62
     6
100
AcDbLine
 10
-22.31355405086947
 20
-6.17141943035915
 30
0.0
 11
-22.66874952411939
 21
-6.17141943035904
 31
0.0
  0
LINE
  5
137
330
47
100
AcDbEntity
  8
1
  6
Continuous
 62
     6
100
AcDbLine
 10
70.83125047588231
 20
10.82858056964096
 30
0.0
 11
70.83125047588192
 21
2.32858056964096
 31
0.0
  0
LINE
  5
138
330
47
100
AcDbEntity
  8
1
  6
Continuous
 62
     6
100
AcDbLine
 10
-181.1687495241176
 20
-6.17141943035904
 30
0.0
 11
-216.1687495241175
 21
-6.17141943035904
 31
0.0
  0
LINE
  5
139
330
47
100
AcDbEntity
  8
1
  6
Continuous
 62
     2
100
AcDbLine
 10
-54.47689916430679
 20
16.20358056964088
 30
0.0
 11
-49.47689916430679
 21
17.45358056964088
 31
0.0
  0
LINE
  5
13A
330
47
100
AcDbEntity
  8
1
  6
Continuous
 62
     2
100
AcDbLine
 10
-54.47689916430679
 20
13.70358056964088
 30
0.0
 11
-54.47689916430679
 21
16.20358056964088
 31
0.0
  0
LINE
  5
13B
330
47
100
AcDbEntity
  8
1
  6
Continuous
 62
     2
100
AcDbLine
 10
-49.47689916430679
 20
12.45358056964088
 30
0.0
 11
-54.47689916430679
 21
13.70358056964088
 31
0.0
  0
LINE
  5
13C
330
47
100
AcDbEntity
  8
1
  6
Continuous
 62
     2
100
AcDbLine
 10
-49.47689916430679
 20
17.45358056964088
 30
0.0
 11
-49.47689916430679
 21
12.45358056964088
 31
0.0
  0
LINE
  5
13D
330
47
100
AcDbEntity
  8
1
  6
Continuous
 62
     7
100
AcDbLine
 10
-58.71355405086939
 20
-1.92141943035915
 30
0.0
 11
-40.51355405086937
 21
-1.92141943035904
 31
0.0
  0
LINE
  5
13E
330
47
100
AcDbEntity
  8
1
  6
Continuous
 62
     7
100
AcDbLine
 10
-58.71355405086939
 20
-1.92141943035915
 30
0.0
 11
-58.71355405086939
 21
-6.17141943035915
 31
0.0
  0
LINE
  5
13F
330
47
100
AcDbEntity
  8
1
  6
Continuous
 62
     7
100
AcDbLine
 10
-22.31355405086947
 20
-1.92141943035904
 30
0.0
 11
-22.31355405086947
 21
-6.17141943035915
 31
0.0
  0
LINE
  5
140
330
47
100
AcDbEntity
  8
1
  6
Continuous
 62
     7
100
AcDbLine
 10
-40.51355405086937
 20
-1.92141943035904
 30
0.0
 11
-40.51355405086937
 21
-6.17141943035904
 31
0.0
  0
LINE
  5
141
330
47
100
AcDbEntity
  8
1
  6
Continuous
 62
     6
100
AcDbLine
 10
-40.51355405086937
 20
-6.17141943035904
 30
0.0
 11
-58.71355405086939
 21
-6.17141943035915
 31
0.0
  0
LINE
  5
142
330
47
100
AcDbEntity
  8
1
  6
Continuous
 62
     7
100
AcDbLine
 10
-40.51355405086937
 20
-1.92141943035904
 30
0.0
 11
-22.31355405086947
 21
-1.92141943035904
 31
0.0
  0
LINE
  5
143
330
47
100
AcDbEntity
  8
1
  6
Continuous
 62
     6
100
AcDbLine
 10
-58.71355405086939
 20
19.32858056964096
 30
0.0
 11
70.83125047588231
 21
19.32858056964096
 31
0.0
  0
ARC
  5
144
102
{ACAD_REACTORS
330
1AD
330
1AE
102
}
330
47
100
AcDbEntity
  8
0
  6
Continuous
 62
     2
100
AcDbCircle
 10
-43.32190605190939
 20
2.64898533156256
 30
0.0
 40
0.7717997786796839
100
AcDbArc
 50
321.8795802028411
 51
38.12041979715391
  0
ARC
  5
145
102
{ACAD_REACTORS
330
1AD
330
1AE
102
}
330
47
100
AcDbEntity
  8
0
  6
Continuous
 62
     2
100
AcDbCircle
 10
-43.12216601556298
 20
2.49225415344256
 30
0.0
 40
0.5179085730137298
100
AcDbArc
 50
218.1204197971936
 51
321.8795802028005
  0
ARC
  5
146
102
{ACAD_REACTORS
330
1AD
330
1AE
102
}
330
47
100
AcDbEntity
  8
0
  6
Continuous
 62
     2
100
AcDbCircle
 10
-42.92242597921688
 20
2.64898533156256
 30
0.0
 40
0.7717997786794574
100
AcDbArc
 50
141.879580202836
 51
218.120419797169
  0
ARC
  5
147
102
{ACAD_REACTORS
330
1AD
330
1AE
102
}
330
47
100
AcDbEntity
  8
0
  6
Continuous
 62
     2
100
AcDbCircle
 10
-43.12216601556298
 20
2.80571650968307
 30
0.0
 40
0.5179085730132943
100
AcDbArc
 50
38.12041979714752
 51
141.8795802028583
  0
ARC
  5
148
102
{ACAD_REACTORS
330
1A5
330
1A6
102
}
330
47
100
AcDbEntity
  8
0
  6
Continuous
 62
     2
100
AcDbCircle
 10
-46.18418015112687
 20
1.23851896615437
 30
0.0
 40
2.227384008973478
100
AcDbArc
 50
58.06909105004073
 51
71.55192388186705
  0
ARC
  5
149
102
{ACAD_REACTORS
330
1A5
330
1A6
102
}
330
47
100
AcDbEntity
  8
0
  6
Continuous
 62
     2
100
AcDbCircle
 10
-45.9224524501681
 20
2.85405676090156
 30
0.0
 40
0.5115800601948747
100
AcDbArc
 50
113.3722778881984
 51
151.478526742304
  0
ARC
  5
14A
102
{ACAD_REACTORS
330
1A5
330
1A6
102
}
330
47
100
AcDbEntity
  8
0
  6
Continuous
 62
     2
100
AcDbCircle
 10
-45.54509519208779
 20
2.64898533156256
 30
0.0
 40
0.9410597353332483
100
AcDbArc
 50
151.4785267422667
 51
208.521473257706
  0
ARC
  5
14B
102
{ACAD_REACTORS
330
1A5
330
1A6
102
}
330
47
100
AcDbEntity
  8
0
  6
Continuous
 62
     2
100
AcDbCircle
 10
-46.34205302621979
 20
5.96166627681896
 30
0.0
 40
4.852596863498138
100
AcDbArc
 50
275.1581447696248
 51
285.9799912583529
  0
ARC
  5
14C
102
{ACAD_REACTORS
330
1A5
330
1A6
102
}
330
47
100
AcDbEntity
  8
0
  6
Continuous
 62
     2
100
AcDbCircle
 10
-46.05319693148388
 20
2.76177569359737
 30
0.0
 40
1.639695123939388
100
AcDbArc
 50
195.0618917770896
 51
275.1581447696393
  0
ARC
  5
14D
102
{ACAD_REACTORS
330
1A5
330
1A6
102
}
330
47
100
AcDbEntity
  8
0
  6
Continuous
 62
     2
100
AcDbCircle
 10
-46.47232477494669
 20
2.64898533156256
 30
0.0
 40
1.205656168390937
100
AcDbArc
 50
164.9381082228764
 51
195.061891777095
  0
ARC
  5
14E
102
{ACAD_REACTORS
330
1A5
330
1A6
102
}
330
47
100
AcDbEntity
  8
0
  6
Continuous
 62
     2
100
AcDbCircle
 10
-46.05319693148388
 20
2.53619496952766
 30
0.0
 40
1.639695123940506
100
AcDbArc
 50
84.84185523036261
 51
164.9381082228864
  0
ARC
  5
14F
102
{ACAD_REACTORS
330
1A9
330
1AA
102
}
330
47
100
AcDbEntity
  8
0
  6
Continuous
 62
     2
100
AcDbCircle
 10
-50.88321118564579
 20
3.68281212591685
 30
0.0
 40
0.3157169230765332
100
AcDbArc
 50
115.3740086783518
 51
180.0
  0
ARC
  5
150
102
{ACAD_REACTORS
330
1A9
330
1AA
102
}
330
47
100
AcDbEntity
  8
0
  6
Continuous
 62
     2
100
AcDbCircle
 10
-50.88321118564579
 20
5.90109532585308
 30
0.0
 40
0.315716923076792
100
AcDbArc
 50
180.0
 51
244.6259913216482
  0
ARC
  5
151
102
{ACAD_REACTORS
330
1A9
330
1AA
102
}
330
47
100
AcDbEntity
  8
0
  6
Continuous
 62
     2
100
AcDbCircle
 10
-50.87759505033577
 20
4.80379566679076
 30
0.0
 40
2.018561131933266
100
AcDbArc
 50
269.8110329575858
 51
90.18896704241416
  0
ARC
  5
152
102
{ACAD_REACTORS
330
1A9
330
1AA
102
}
330
47
100
AcDbEntity
  8
0
  6
Continuous
 62
     2
100
AcDbCircle
 10
-50.88321118564579
 20
3.10096071922177
 30
0.0
 40
0.315716923076792
100
AcDbArc
 50
180.0
 51
269.8110329574542
  0
ARC
  5
153
102
{ACAD_REACTORS
330
1A7
330
1A8
102
}
330
47
100
AcDbEntity
  8
0
  6
Continuous
 62
     2
100
AcDbCircle
 10
-29.81975097091518
 20
2.85405676090156
 30
0.0
 40
0.5115800601944158
100
AcDbArc
 50
109.3371432194856
 51
151.4785267424226
  0
ARC
  5
154
102
{ACAD_REACTORS
330
1A7
330
1A8
102
}
330
47
100
AcDbEntity
  8
0
  6
Continuous
 62
     2
100
AcDbCircle
 10
-29.81975097091518
 20
2.44391390222407
 30
0.0
 40
0.5115800601960245
100
AcDbArc
 50
208.5214732576864
 51
246.6277221118453
  0
ARC
  5
155
102
{ACAD_REACTORS
330
1A7
330
1A8
102
}
330
47
100
AcDbEntity
  8
0
  6
Continuous
 62
     2
100
AcDbCircle
 10
-30.36962329569258
 20
2.64898533156256
 30
0.0
 40
1.205656168392999
100
AcDbArc
 50
164.9381082229028
 51
195.061891777096
  0
ARC
  5
156
102
{ACAD_REACTORS
330
1A7
330
1A8
102
}
330
47
100
AcDbEntity
  8
0
  6
Continuous
 62
     2
100
AcDbCircle
 10
-29.95049545223097
 20
2.53619496952766
 30
0.0
 40
1.639695123940215
100
AcDbArc
 50
90.0
 51
164.9381082228949
  0
ARC
  5
157
102
{ACAD_REACTORS
330
1AB
330
1AC
102
}
330
47
100
AcDbEntity
  8
0
  6
Continuous
 62
     2
100
AcDbCircle
 10
-39.37749054493469
 20
6.00817580773688
 30
0.0
 40
1.526904761905883
100
AcDbArc
 50
90.0
 51
270.0
  0
ARC
  5
158
102
{ACAD_REACTORS
330
1AF
330
1B0
102
}
330
47
100
AcDbEntity
  8
0
  6
Continuous
 62
     2
100
AcDbCircle
 10
-46.12018129016047
 20
6.51911089953157
 30
0.0
 40
0.3528638246711173
100
AcDbArc
 50
270.0
 51
90.0
  0
ARC
  5
159
102
{ACAD_REACTORS
330
1A9
330
1AA
102
}
330
47
100
AcDbEntity
  8
0
  6
Continuous
 62
     2
100
AcDbCircle
 10
-53.4587598721775
 20
6.50680809100797
 30
0.0
 40
0.3157169230761951
100
AcDbArc
 50
90.0
 51
180.0
  0
ARC
  5
15A
102
{ACAD_REACTORS
330
1A9
330
1AA
102
}
330
47
100
AcDbEntity
  8
0
  6
Continuous
 62
     2
100
AcDbCircle
 10
-51.46034216359288
 20
4.79195372588526
 30
0.0
 40
0.9118975235576177
100
AcDbArc
 50
115.1944106485286
 51
244.8055893514874
  0
ARC
  5
15B
102
{ACAD_REACTORS
330
1A9
330
1AA
102
}
330
47
100
AcDbEntity
  8
0
  6
Continuous
 62
     2
100
AcDbCircle
 10
-51.98292661116787
 20
3.68112397982247
 30
0.0
 40
0.3157169230765859
100
AcDbArc
 50
0.0
 51
64.80558935146027
  0
ARC
  5
15C
102
{ACAD_REACTORS
330
1A9
330
1AA
102
}
330
47
100
AcDbEntity
  8
0
  6
Continuous
 62
     2
100
AcDbCircle
 10
-54.05265454892398
 20
1.54632518504056
 30
0.0
 40
0.4242446153828112
100
AcDbArc
 50
180.0
 51
270.0
  0
ARC
  5
15D
102
{ACAD_REACTORS
330
1AB
330
1AC
102
}
330
47
100
AcDbEntity
  8
0
  6
Continuous
 62
     2
100
AcDbCircle
 10
-39.16121853476949
 20
6.16490698585736
 30
0.0
 40
0.5179085730135266
100
AcDbArc
 50
38.12041979714334
 51
141.8795802028489
  0
ARC
  5
15E
102
{ACAD_REACTORS
330
1AB
330
1AC
102
}
330
47
100
AcDbEntity
  8
0
  6
Continuous
 62
     2
100
AcDbCircle
 10
-38.96147849842319
 20
6.00817580773688
 30
0.0
 40
0.7717997786796724
100
AcDbArc
 50
141.8795802028404
 51
218.1204197971562
  0
ARC
  5
15F
102
{ACAD_REACTORS
330
1AD
330
1AE
102
}
330
47
100
AcDbEntity
  8
0
  6
Continuous
 62
     2
100
AcDbCircle
 10
-43.12216601556298
 20
3.18756034186586
 30
0.0
 40
2.065479772208508
100
AcDbArc
 50
242.4518518243402
 51
297.5481481756869
  0
ARC
  5
160
102
{ACAD_REACTORS
330
1AD
330
1AE
102
}
330
47
100
AcDbEntity
  8
0
  6
Continuous
 62
     2
100
AcDbCircle
 10
-43.12216601556298
 20
2.11041032125976
 30
0.0
 40
2.065479772208564
100
AcDbArc
 50
62.45185182430654
 51
117.5481481756664
  0
ARC
  5
161
102
{ACAD_REACTORS
330
1AD
330
1AE
102
}
330
47
100
AcDbEntity
  8
0
  6
Continuous
 62
     2
100
AcDbCircle
 10
-43.40310590739628
 20
2.64898533156256
 30
0.0
 40
1.45803408365149
100
AcDbArc
 50
117.5481481756624
 51
242.4518518243375
  0
ARC
  5
162
102
{ACAD_REACTORS
330
1AD
330
1AE
102
}
330
47
100
AcDbEntity
  8
0
  6
Continuous
 62
     2
100
AcDbCircle
 10
-42.84122612372968
 20
2.64898533156256
 30
0.0
 40
1.458034083651999
100
AcDbArc
 50
297.5481481757009
 51
62.4518518242992
  0
ARC
  5
163
102
{ACAD_REACTORS
330
1AB
330
1AC
102
}
330
47
100
AcDbEntity
  8
0
  6
Continuous
 62
     2
100
AcDbCircle
 10
-39.16121853476949
 20
5.85144462961645
 30
0.0
 40
0.5179085730134366
100
AcDbArc
 50
218.120419797151
 51
321.8795802028567
  0
ARC
  5
164
102
{ACAD_REACTORS
330
1AB
330
1AC
102
}
330
47
100
AcDbEntity
  8
0
  6
Continuous
 62
     2
100
AcDbCircle
 10
-39.36095857111567
 20
6.00817580773688
 30
0.0
 40
0.7717997786796311
100
AcDbArc
 50
321.8795802028435
 51
38.12041979715989
  0
ARC
  5
165
102
{ACAD_REACTORS
330
1A9
330
1AA
102
}
330
47
100
AcDbEntity
  8
0
  6
Continuous
 62
     2
100
AcDbCircle
 10
-48.57934245820718
 20
1.54632518504056
 30
0.0
 40
0.4242446153832868
100
AcDbArc
 50
270.0
 51
0.0
  0
ARC
  5
166
102
{ACAD_REACTORS
330
1A9
330
1AA
102
}
330
47
100
AcDbEntity
  8
0
  6
Continuous
 62
     2
100
AcDbCircle
 10
-48.57934245820718
 20
7.11083595424077
 30
0.0
 40
0.424244615383877
100
AcDbArc
 50
0.0
 51
90.0
  0
ARC
  5
167
102
{ACAD_REACTORS
330
1A9
330
1AA
102
}
330
47
100
AcDbEntity
  8
0
  6
Continuous
 62
     2
100
AcDbCircle
 10
-54.05265454892398
 20
7.11083595424077
 30
0.0
 40
0.4242446153837989
100
AcDbArc
 50
90.0
 51
180.0
  0
ARC
  5
168
102
{ACAD_REACTORS
330
1A9
330
1AA
102
}
330
47
100
AcDbEntity
  8
0
  6
Continuous
 62
     2
100
AcDbCircle
 10
-51.98292661116787
 20
2.15035304829087
 30
0.0
 40
0.3157169230767058
100
AcDbArc
 50
270.0
 51
0.0
  0
ARC
  5
169
102
{ACAD_REACTORS
330
1A9
330
1AA
102
}
330
47
100
AcDbEntity
  8
0
  6
Continuous
 62
     2
100
AcDbCircle
 10
-51.98292661116787
 20
5.90278347194746
 30
0.0
 40
0.3157169230761203
100
AcDbArc
 50
295.1944106485397
 51
0.0
  0
ARC
  5
16A
102
{ACAD_REACTORS
330
1A9
330
1AA
102
}
330
47
100
AcDbEntity
  8
0
  6
Continuous
 62
     2
100
AcDbCircle
 10
-51.98292661116787
 20
6.50680809100797
 30
0.0
 40
0.3157169230765859
100
AcDbArc
 50
0.0
 51
90.0
  0
ARC
  5
16B
102
{ACAD_REACTORS
330
1A9
330
1AA
102
}
330
47
100
AcDbEntity
  8
0
  6
Continuous
 62
     2
100
AcDbCircle
 10
-53.4587598721775
 20
2.15035304829087
 30
0.0
 40
0.3157169230756764
100
AcDbArc
 50
180.0
 51
270.0
  0
ARC
  5
16C
102
{ACAD_REACTORS
330
1AF
330
1B0
102
}
330
47
100
AcDbEntity
  8
0
  6
Continuous
 62
     2
100
AcDbCircle
 10
-45.67870876392209
 20
6.47971492830908
 30
0.0
 40
1.055365641333708
100
AcDbArc
 50
270.0
 51
90.0
  0
ARC
  5
16D
102
{ACAD_REACTORS
330
1A7
330
1A8
102
}
330
47
100
AcDbEntity
  8
0
  6
Continuous
 62
     2
100
AcDbCircle
 10
-29.95049545223097
 20
2.76177569359737
 30
0.0
 40
1.639695123940445
100
AcDbArc
 50
195.0618917771012
 51
275.1581447696765
  0
ARC
  5
16E
102
{ACAD_REACTORS
330
1A7
330
1A8
102
}
330
47
100
AcDbEntity
  8
0
  6
Continuous
 62
     2
100
AcDbCircle
 10
-30.23935154696679
 20
5.96166627681896
 30
0.0
 40
4.852596863498825
100
AcDbArc
 50
275.1581447696364
 51
285.9799912583387
  0
ARC
  5
16F
102
{ACAD_REACTORS
330
1A7
330
1A8
102
}
330
47
100
AcDbEntity
  8
0
  6
Continuous
 62
     2
100
AcDbCircle
 10
-30.08147867187398
 20
4.05945169697065
 30
0.0
 40
2.227384008972746
100
AcDbArc
 50
288.4480761181335
 51
301.9309089499396
  0
ARC
  5
170
102
{ACAD_REACTORS
330
1A7
330
1A8
102
}
330
47
100
AcDbEntity
  8
0
  6
Continuous
 62
     2
100
AcDbCircle
 10
-29.66331093821208
 20
2.80590592093407
 30
0.0
 40
0.9059297849852771
100
AcDbArc
 50
246.6277221118187
 51
288.4480761180819
  0
ARC
  5
171
102
{ACAD_REACTORS
330
1A7
330
1A8
102
}
330
47
100
AcDbEntity
  8
0
  6
Continuous
 62
     2
100
AcDbCircle
 10
-29.44239371283379
 20
2.64898533156256
 30
0.0
 40
0.9410597353348955
100
AcDbArc
 50
151.4785267423625
 51
208.5214732576694
  0
ARC
  5
172
102
{ACAD_REACTORS
330
1A7
330
1A8
102
}
330
47
100
AcDbEntity
  8
0
  6
Continuous
 62
     2
100
AcDbCircle
 10
-29.67308097281148
 20
2.43610178051867
 30
0.0
 40
0.9545230068260939
100
AcDbArc
 50
90.0
 51
109.337143219432
  0
ARC
  5
173
102
{ACAD_REACTORS
330
1A9
330
1AA
102
}
330
47
100
AcDbEntity
  8
0
  6
Continuous
 62
     2
100
AcDbCircle
 10
-50.88321118564579
 20
6.50663061435986
 30
0.0
 40
0.3157169230760711
100
AcDbArc
 50
90.18896704254594
 51
180.0
  0
ARC
  5
174
102
{ACAD_REACTORS
330
1A9
330
1AA
102
}
330
47
100
AcDbEntity
  8
0
  6
Continuous
 62
     2
100
AcDbCircle
 10
-51.40925388373367
 20
4.79195372588526
 30
0.0
 40
0.9118481501444585
100
AcDbArc
 50
295.3740086781764
 51
64.62599132180748
  0
ARC
  5
175
102
{ACAD_REACTORS
330
1A5
330
1A6
102
}
330
47
100
AcDbEntity
  8
0
  6
Continuous
 62
     2
100
AcDbCircle
 10
-46.18418015112687
 20
4.05945169697125
 30
0.0
 40
2.22738400897274
100
AcDbArc
 50
288.448076118133
 51
301.9309089499592
  0
ARC
  5
176
102
{ACAD_REACTORS
330
1A5
330
1A6
102
}
330
47
100
AcDbEntity
  8
0
  6
Continuous
 62
     2
100
AcDbCircle
 10
-45.76601241746607
 20
2.80590592093407
 30
0.0
 40
0.905929784984919
100
AcDbArc
 50
246.627722111871
 51
288.4480761181589
  0
ARC
  5
177
102
{ACAD_REACTORS
330
1A5
330
1A6
102
}
330
47
100
AcDbEntity
  8
0
  6
Continuous
 62
     2
100
AcDbCircle
 10
-45.9224524501681
 20
2.44391390222407
 30
0.0
 40
0.5115800601947974
100
AcDbArc
 50
208.521473257696
 51
246.6277221118281
  0
ARC
  5
178
102
{ACAD_REACTORS
330
1A5
330
1A6
102
}
330
47
100
AcDbEntity
  8
0
  6
Continuous
 62
     2
100
AcDbCircle
 10
-45.76601241746607
 20
2.49206474219096
 30
0.0
 40
0.9059297849853251
100
AcDbArc
 50
71.55192388185306
 51
113.372277888129
  0
ARC
  5
179
102
{ACAD_REACTORS
330
1A5
330
1A6
102
}
330
47
100
AcDbEntity
  8
0
  6
Continuous
 62
     2
100
AcDbCircle
 10
-46.34205302621979
 20
-0.66369561369333
 30
0.0
 40
4.852596863498068
100
AcDbArc
 50
74.02000874164739
 51
84.84185523037515
  0
CIRCLE
  5
17A
102
{ACAD_REACTORS
330
1A9
330
1AA
102
}
330
47
100
AcDbEntity
  8
0
  6
Continuous
 62
     2
100
AcDbCircle
 10
-51.43306889840648
 20
4.79195372588526
 30
0.0
 40
0.4709789327785145
  0
CIRCLE
  5
17B
330
47
100
AcDbEntity
  8
1
  6
Continuous
 62
     2
100
AcDbCircle
 10
-45.97689916430679
 20
14.95358056964088
 30
0.0
 40
1.249999999999922
  0
CIRCLE
  5
17C
330
47
100
AcDbEntity
  8
1
  6
Continuous
 62
     2
100
AcDbCircle
 10
-45.97689916430679
 20
14.95358056964088
 30
0.0
 40
2.5
  0
TEXT
  5
17E
330
47
100
AcDbEntity
  8
1
 62
     7
100
AcDbText
 10
-3.34000632885559
 20
12.12858056964086
 30
0.0
 40
2.5
  1
/
 41
0.9
  7
CONVERTER_11
100
AcDbText
  0
TEXT
  5
180
330
47
100
AcDbEntity
  8
1
 62
     7
100
AcDbText
 10
-1.18364183181359
 20
12.12858056964086
 30
0.0
 40
2.5
  1
00
 41
0.81
  7
CONVERTER_12
100
AcDbText
  0
TEXT
  5
181
330
47
100
AcDbEntity
  8
1
 62
     3
100
AcDbText
 10
36.41284219420351
 20
12.12858056964086
 30
0.0
 40
2.5
  1
20.02.2018
 41
0.81
  7
CONVERTER_12
100
AcDbText
  0
MTEXT
  5
182
330
47
100
AcDbEntity
  8
1
 62
     2
100
AcDbMText
 10
36.41284219420351
 20
18.32858056964088
 30
0.0
 40
1.8
 41
0.0
 71
     1
 72
     1
  1
date
  7
CONVERTER_11
 73
     1
 44
1.32052821128451
  0
MTEXT
  5
183
330
47
100
AcDbEntity
  8
1
 62
     2
100
AcDbMText
 10
6.58644594913062
 20
9.82858056964088
 30
0.0
 40
1.8
 41
0.0
 71
     1
 72
     1
  1
document-type
  7
CONVERTER_11
 73
     1
 44
1.20048019207683
  0
TEXT
  5
184
330
47
100
AcDbEntity
  8
1
 62
     3
100
AcDbText
 10
6.58644594913062
 20
3.62858056964086
 30
0.0
 40
2.5
  1
TECDOC 2D_Productdrawing
 41
0.81
  7
CONVERTER_12
100
AcDbText
  0
MTEXT
  5
186
330
47
100
AcDbEntity
  8
1
 62
     2
100
AcDbMText
 10
-21.21355405086939
 20
18.32858056964096
 30
0.0
 40
1.8
 41
0.0
 71
     1
 72
     1
  1
document-No. / RI
  7
CONVERTER_13
 73
     1
 44
1.32052821128451
  0
TEXT
  5
187
330
47
100
AcDbEntity
  8
1
 62
     7
100
AcDbText
 10
-21.21355405086939
 20
12.12858056964086
 30
0.0
 40
2.5
  1
00447674
 41
0.81
  7
CONVERTER_12
100
AcDbText
  0
MTEXT
  5
189
330
47
100
AcDbEntity
  8
1
 62
     3
100
AcDbMText
 10
66.37204633504292
 20
12.12858056964106
 30
0.0
 40
2.5
 41
0.0
 71
     8
 72
     1
  1
1:1
  7
CONVERTER_14
 73
     1
 44
1.32052821128451
  0
MTEXT
  5
18A
330
47
100
AcDbEntity
  8
1
 62
     2
100
AcDbMText
 10
63.01284219420333
 20
18.32858056964096
 30
0.0
 40
1.8
 41
0.0
 71
     1
 72
     1
  1
scale
  7
CONVERTER_11
 73
     1
 44
1.20048019207683
  0
MTEXT
  5
18B
330
47
100
AcDbEntity
  8
1
 62
     2
100
AcDbMText
 10
-21.21355405086939
 20
9.82858056964096
 30
0.0
 40
1.8
 41
0.0
 71
     1
 72
     1
  1
ident.-No.
  7
CONVERTER_11
 73
     1
 44
1.20048019207683
  0
TEXT
  5
18C
330
47
100
AcDbEntity
  8
1
 62
     7
100
AcDbText
 10
-20.81355405086967
 20
3.62858056964086
 30
0.0
 40
2.5
  1
0701011
 41
0.81
  7
CONVERTER_12
100
AcDbText
  0
MTEXT
  5
18D
330
47
100
AcDbEntity
  8
1
 62
     2
100
AcDbMText
 10
-93.1515687759169
 20
6.57858056964088
 30
0.0
 40
2.0
 41
0.0
 71
     5
 72
     1
  1
General Information\P- Simplified representation\P- Document excluded from change process\P- Linear dimensions [mm]
  7
CONVERTER_11
 73
     1
 44
1.20048019207683
  0
MTEXT
  5
18E
330
47
100
AcDbEntity
  8
1
 62
     7
100
AcDbMText
 10
73.33125047587961
 20
68.82858056964287
 30
0.0
 40
3.5
 41
0.0
 71
     5
 72
     1
  1
C
  7
CONVERTER_11
 73
     1
 44
1.20048019207683
  0
MTEXT
  5
18F
330
47
100
AcDbEntity
  8
1
 62
     7
100
AcDbMText
 10
73.33125047587961
 20
171.328580569641
 30
0.0
 40
3.5
 41
0.0
 71
     5
 72
     1
  1
A
  7
CONVERTER_11
 73
     1
 44
1.20048019207683
  0
MTEXT
  5
190
330
47
100
AcDbEntity
  8
1
 62
     7
100
AcDbMText
 10
73.33125047587961
 20
118.8285805696429
 30
0.0
 40
3.5
 41
0.0
 71
     5
 72
     1
  1
B
  7
CONVERTER_11
 73
     1
 44
1.20048019207683
  0
MTEXT
  5
191
330
47
100
AcDbEntity
  8
1
 62
     7
100
AcDbMText
 10
73.33125047587961
 20
16.32858056964096
 30
0.0
 40
3.5
 41
0.0
 71
     5
 72
     1
  1
D
  7
CONVERTER_11
 73
     1
 44
1.20048019207683
  0
MTEXT
  5
192
330
47
100
AcDbEntity
  8
1
 62
     7
100
AcDbMText
 10
-196.918749524119
 20
-8.67141943035915
 30
0.0
 40
3.5
 41
0.0
 71
     5
 72
     1
  1
1
  7
CONVERTER_11
 73
     1
 44
1.20048019207683
  0
MTEXT
  5
193
330
47
100
AcDbEntity
  8
1
 62
     7
100
AcDbMText
 10
-147.6687495241194
 20
-8.67141943035915
 30
0.0
 40
3.5
 41
0.0
 71
     5
 72
     1
  1
2
  7
CONVERTER_11
 73
     1
 44
1.20048019207683
  0
MTEXT
  5
194
330
47
100
AcDbEntity
  8
1
 62
     7
100
AcDbMText
 10
-97.66874952411936
 20
-8.67141943035915
 30
0.0
 40
3.5
 41
0.0
 71
     5
 72
     1
  1
3
  7
CONVERTER_11
 73
     1
 44
1.20048019207683
  0
MTEXT
  5
195
330
47
100
AcDbEntity
  8
1
 62
     7
100
AcDbMText
 10
-47.66874952411948
 20
-8.67141943035915
 30
0.0
 40
3.5
 41
0.0
 71
     5
 72
     1
  1
4
  7
CONVERTER_11
 73
     1
 44
1.20048019207683
  0
MTEXT
  5
196
330
47
100
AcDbEntity
  8
1
 62
     7
100
AcDbMText
 10
2.33125047588061
 20
-8.67141943035915
 30
0.0
 40
3.5
 41
0.0
 71
     5
 72
     1
  1
5
  7
CONVERTER_11
 73
     1
 44
1.20048019207683
  0
MTEXT
  5
197
330
47
100
AcDbEntity
  8
1
 62
     7
100
AcDbMText
 10
51.58125047587981
 20
-8.67141943035915
 30
0.0
 40
3.5
 41
0.0
 71
     5
 72
     1
  1
6
  7
CONVERTER_11
 73
     1
 44
1.20048019207683
  0
MTEXT
  5
198
330
47
100
AcDbEntity
  8
1
 62
     7
100
AcDbMText
 10
-218.6687495241185
 20
171.328580569641
 30
0.0
 40
3.5
 41
0.0
 71
     5
 72
     1
  1
A
  7
CONVERTER_11
 73
     1
 44
1.20048019207683
  0
MTEXT
  5
199
330
47
100
AcDbEntity
  8
1
 62
     7
100
AcDbMText
 10
-218.6687495241185
 20
118.828580569641
 30
0.0
 40
3.5
 41
0.0
 71
     5
 72
     1
  1
B
  7
CONVERTER_11
 73
     1
 44
1.20048019207683
  0
MTEXT
  5
19A
330
47
100
AcDbEntity
  8
1
 62
     7
100
AcDbMText
 10
-218.6687495241185
 20
68.82858056964096
 30
0.0
 40
3.5
 41
0.0
 71
     5
 72
     1
  1
C
  7
CONVERTER_11
 73
     1
 44
1.20048019207683
  0
MTEXT
  5
19B
330
47
100
AcDbEntity
  8
1
 62
     7
100
AcDbMText
 10
-218.6687495241185
 20
16.32858056964096
 30
0.0
 40
3.5
 41
0.0
 71
     5
 72
     1
  1
D
  7
CONVERTER_11
 73
     1
 44
1.20048019207683
  0
MTEXT
  5
19C
330
47
100
AcDbEntity
  8
1
 62
     3
100
AcDbMText
 10
-32.51355405086949
 20
14.95358056964096
 30
0.0
 40
2.5
 41
0.0
 71
     5
 72
     1
  1
DIN A4
  7
CONVERTER_11
 73
     1
 44
1.20048019207683
  0
MTEXT
  5
19D
330
47
100
AcDbEntity
  8
1
 62
     2
100
AcDbMText
 10
-21.31355405086947
 20
1.32858056964096
 30
0.0
 40
1.8
 41
0.0
 71
     1
 72
     1
  1
description
  7
CONVERTER_11
 73
     1
 44
1.20048019207683
  0
MTEXT
  5
19E
330
47
100
AcDbEntity
  8
1
 62
     7
100
AcDbMText
 10
24.25884821250611
 20
-2.92141943035881
 30
0.0
 40
3.0
 41
0.0
 71
     5
 72
     1
  1
URKN
  7
CONVERTER_12
 73
     1
 44
1.20048019207683
  0
TEXT
  5
19F
330
47
100
AcDbEntity
  8
1
 62
     2
100
AcDbText
 10
-34.27824524105589
 20
-4.92141943035915
 30
0.0
 40
1.8
  1
1
 41
0.9
  7
CONVERTER_11
100
AcDbText
  0
TEXT
  5
1A0
330
47
100
AcDbEntity
  8
1
 62
     2
100
AcDbText
 10
-49.06728908052739
 20
-4.97066808416105
 30
0.0
 40
1.8
  1
1
 41
0.9
  7
CONVERTER_11
100
AcDbText
  0
TEXT
  5
1A1
330
47
100
AcDbEntity
  8
1
 62
     2
100
AcDbText
 10
-57.71355405086939
 20
-4.93043664535071
 30
0.0
 40
1.8
  1
page
 41
0.9
  7
CONVERTER_11
100
AcDbText
  0
TEXT
  5
1A2
330
47
100
AcDbEntity
  8
1
 62
     2
100
AcDbText
 10
-39.51355405086957
 20
-4.93043664535065
 30
0.0
 40
1.8
  1
of
 41
0.9
  7
CONVERTER_11
100
AcDbText
  0
MTEXT
  5
1A3
330
47
100
AcDbEntity
  8
1
 62
     3
100
AcDbMText
 10
-33.31057189925949
 20
180.6198887249398
 30
0.0
 40
1.8
 41
0.0
 71
     7
 72
     1
  3
Transfer or duplication of this document as well as the utilisation or\Pcommunication of its content are not permitted unless express consent\Pis granted. Violations give rise to claims for damages. All rights reserved\Pin case of patent, utility mo
  1
del or design patent registrations.
  7
CONVERTER_11
 73
     1
 44
0.99639855942377
  0
MTEXT
  5
1A4
330
47
100
AcDbEntity
  8
1
 62
     3
100
AcDbMText
 10
-216.1636817380476
 20
180.6198887249398
 30
0.0
 40
1.8
 41
0.0
 71
     7
 72
     1
  3
Weitergabe sowie Vervielf\U+00e4ltigung dieses Dokuments, Verwertung und \PMitteilung seines Inhalts sind verboten, soweit nicht ausdr\U+00fccklich gestattet. \PZuwiderhandlungen verpflichten zu Schadenersatz. Alle Rechte f\U+00fcr den Fall\Pder Pat
  1
ent-, Gebrauchsmuster- oder Designeintragung vorbehalten.
  7
CONVERTER_11
 73
     1
 44
0.99639855942377
  0
HATCH
  5
1A5
330
47
100
AcDbEntity
  8
1
  6
Continuous
 62
     2
100
AcDbHatch
 10
0.0
 20
0.0
 30
0.0
210
0.0
220
0.0
230
1.0
  2
_USER
 70
     0
 71
     1
 91
        1
 92
        1
 93
       14
 72
     2
 10
-46.47232477494669
 20
2.648985331562557
 40
1.205656168390937
 50
164.9381082228764
 51
195.061891777095
 73
     1
 72
     2
 10
-46.05319693148388
 20
2.761775693597372
 40
1.639695123939388
 50
195.0618917770896
 51
275.1581447696393
 73
     1
 72
     2
 10
-46.34205302621979
 20
5.96166627681896
 40
4.852596863498138
 50
275.1581447696248
 51
285.9799912583529
 73
     1
 72
     1
 10
-45.00612510910199
 20
1.296583971018151
 11
-45.00612510910199
 21
2.169100977821358
 72
     2
 10
-46.18418015112687
 20
4.059451696971252
 40
2.22738400897274
 50
58.06909105004075
 51
71.55192388186703
 73
     0
 72
     2
 10
-45.76601241746607
 20
2.805905920934066
 40
0.905929784984919
 50
71.55192388184112
 51
113.372277888129
 73
     0
 72
     2
 10
-45.9224524501681
 20
2.443913902224068
 40
0.5115800601947974
 50
113.3722778881719
 51
151.478526742304
 73
     0
 72
     2
 10
-45.54509519208779
 20
2.648985331562557
 40
0.9410597353332483
 50
151.478526742294
 51
208.5214732577333
 73
     0
 72
     2
 10
-45.9224524501681
 20
2.854056760901557
 40
0.5115800601948747
 50
208.521473257696
 51
246.6277221118015
 73
     0
 72
     2
 10
-45.76601241746607
 20
2.492064742190962
 40
0.9059297849853251
 50
246.627722111871
 51
288.4480761181469
 73
     0
 72
     2
 10
-46.18418015112687
 20
1.238518966154373
 40
2.227384008973478
 50
288.448076118133
 51
301.9309089499593
 73
     0
 72
     1
 10
-45.00612510910199
 20
3.128869685304267
 11
-45.00612510910199
 21
4.001386692107559
 72
     2
 10
-46.34205302621979
 20
-0.663695613693335
 40
4.852596863498068
 50
74.02000874164739
 51
84.84185523037515
 73
     1
 72
     2
 10
-46.05319693148388
 20
2.536194969527656
 40
1.639695123940506
 50
84.84185523036261
 51
164.9381082228864
 73
     1
 97
       14
330
179
330
92
330
148
330
178
330
149
330
14A
330
177
330
176
330
175
330
93
330
14B
330
14C
330
14D
330
14E
 75
     1
 76
     0
 52
45.0
 41
0.1
 77
     0
 78
     1
 53
45.0
 43
0.0
 44
0.0
 45
-0.0707106781186548
 46
0.0707106781186548
 79
     0
 98
        1
 10
0.0
 20
0.0
  0
HATCH
  5
1A6
330
47
100
AcDbEntity
  8
1
  6
Continuous
 62
     2
100
AcDbHatch
 10
0.0
 20
0.0
 30
0.0
210
0.0
220
0.0
230
1.0
  2
_USER
 70
     0
 71
     1
 91
        1
 92
        1
 93
       14
 72
     2
 10
-46.47232477494669
 20
2.648985331562557
 40
1.205656168390937
 50
164.9381082228764
 51
195.061891777095
 73
     1
 72
     2
 10
-46.05319693148388
 20
2.761775693597372
 40
1.639695123939388
 50
195.0618917770896
 51
275.1581447696393
 73
     1
 72
     2
 10
-46.34205302621979
 20
5.96166627681896
 40
4.852596863498138
 50
275.1581447696248
 51
285.9799912583529
 73
     1
 72
     1
 10
-45.00612510910199
 20
1.296583971018151
 11
-45.00612510910199
 21
2.169100977821358
 72
     2
 10
-46.18418015112687
 20
4.059451696971252
 40
2.22738400897274
 50
58.06909105004075
 51
71.55192388186703
 73
     0
 72
     2
 10
-45.76601241746607
 20
2.805905920934066
 40
0.905929784984919
 50
71.55192388184112
 51
113.372277888129
 73
     0
 72
     2
 10
-45.9224524501681
 20
2.443913902224068
 40
0.5115800601947974
 50
113.3722778881719
 51
151.478526742304
 73
     0
 72
     2
 10
-45.54509519208779
 20
2.648985331562557
 40
0.9410597353332483
 50
151.478526742294
 51
208.5214732577333
 73
     0
 72
     2
 10
-45.9224524501681
 20
2.854056760901557
 40
0.5115800601948747
 50
208.521473257696
 51
246.6277221118015
 73
     0
 72
     2
 10
-45.76601241746607
 20
2.492064742190962
 40
0.9059297849853251
 50
246.627722111871
 51
288.4480761181469
 73
     0
 72
     2
 10
-46.18418015112687
 20
1.238518966154373
 40
2.227384008973478
 50
288.448076118133
 51
301.9309089499593
 73
     0
 72
     1
 10
-45.00612510910199
 20
3.128869685304267
 11
-45.00612510910199
 21
4.001386692107559
 72
     2
 10
-46.34205302621979
 20
-0.663695613693335
 40
4.852596863498068
 50
74.02000874164739
 51
84.84185523037515
 73
     1
 72
     2
 10
-46.05319693148388
 20
2.536194969527656
 40
1.639695123940506
 50
84.84185523036261
 51
164.9381082228864
 73
     1
 97
       14
330
179
330
92
330
148
330
178
330
149
330
14A
330
177
330
176
330
175
330
93
330
14B
330
14C
330
14D
330
14E
 75
     1
 76
     0
 52
45.0
 41
0.1
 77
     0
 78
     1
 53
45.0
 43
0.0
 44
0.0
 45
-0.0707106781186548
 46
0.0707106781186548
 79
     0
 98
        1
 10
0.0
 20
0.0
  0
HATCH
  5
1A7
330
47
100
AcDbEntity
  8
1
  6
Continuous
 62
     2
100
AcDbHatch
 10
0.0
 20
0.0
 30
0.0
210
0.0
220
0.0
230
1.0
  2
_USER
 70
     0
 71
     1
 91
        1
 92
        1
 93
       18
 72
     2
 10
-29.95049545223097
 20
2.536194969527656
 40
1.639695123940215
 50
90.0
 51
164.9381082228949
 73
     1
 72
     2
 10
-30.36962329569258
 20
2.648985331562557
 40
1.205656168392999
 50
164.9381082229028
 51
195.061891777096
 73
     1
 72
     2
 10
-29.95049545223097
 20
2.761775693597372
 40
1.639695123940445
 50
195.0618917771012
 51
275.1581447696765
 73
     1
 72
     2
 10
-30.23935154696679
 20
5.96166627681896
 40
4.852596863498825
 50
275.1581447696364
 51
285.9799912583387
 73
     1
 72
     1
 10
-28.90342362985007
 20
1.296583971017554
 11
-28.90342362985007
 21
2.169100977820875
 72
     2
 10
-30.08147867187398
 20
4.059451696970655
 40
2.227384008972746
 50
58.06909105006035
 51
71.55192388186651
 73
     0
 72
     2
 10
-29.66331093821208
 20
2.805905920934066
 40
0.9059297849852771
 50
71.55192388191807
 51
113.3722778881813
 73
     0
 72
     2
 10
-29.81975097091518
 20
2.443913902224068
 40
0.5115800601960245
 50
113.3722778881547
 51
151.4785267423136
 73
     0
 72
     2
 10
-29.44239371283379
 20
2.648985331562557
 40
0.9410597353348955
 50
151.4785267423306
 51
208.5214732576375
 73
     0
 72
     2
 10
-29.81975097091518
 20
2.854056760901557
 40
0.5115800601944158
 50
208.5214732575774
 51
250.6628567805143
 73
     0
 72
     2
 10
-29.67308097281148
 20
2.436101780518669
 40
0.9545230068260939
 50
250.662856780568
 51
270.0
 73
     0
 72
     1
 10
-29.67308097281148
 20
3.390624787344763
 11
-28.56944167324338
 21
3.390624787344763
 72
     1
 10
-28.56944167324338
 20
3.390624787344763
 11
-28.56944167324338
 21
1.122080569657271
 72
     1
 10
-28.56944167324338
 20
1.122080569657271
 11
-27.37664897107567
 21
1.122080569657271
 72
     1
 10
-27.37664897107567
 20
1.122080569657271
 11
-27.37664897107567
 21
3.390624787344763
 72
     1
 10
-27.37664897107567
 20
3.390624787344763
 11
-26.56554993360228
 21
3.390624787344763
 72
     1
 10
-26.56554993360228
 20
3.390624787344763
 11
-26.56554993360228
 21
4.175890093468354
 72
     1
 10
-26.56554993360228
 20
4.175890093468354
 11
-29.95049545223097
 21
4.175890093467871
 97
       18
330
F8
330
F7
330
F6
330
F5
330
FA
330
94
330
172
330
153
330
171
330
154
330
170
330
16F
330
95
330
16E
330
16D
330
155
330
156
330
F9
 75
     1
 76
     0
 52
45.0
 41
0.1
 77
     0
 78
     1
 53
45.0
 43
0.0
 44
0.0
 45
-0.0707106781186548
 46
0.0707106781186548
 79
     0
 98
        1
 10
0.0
 20
0.0
  0
HATCH
  5
1A8
330
47
100
AcDbEntity
  8
1
  6
Continuous
 62
     2
100
AcDbHatch
 10
0.0
 20
0.0
 30
0.0
210
0.0
220
0.0
230
1.0
  2
_USER
 70
     0
 71
     1
 91
        1
 92
        1
 93
       18
 72
     2
 10
-29.95049545223097
 20
2.536194969527656
 40
1.639695123940215
 50
90.0
 51
164.9381082228949
 73
     1
 72
     2
 10
-30.36962329569258
 20
2.648985331562557
 40
1.205656168392999
 50
164.9381082229028
 51
195.061891777096
 73
     1
 72
     2
 10
-29.95049545223097
 20
2.761775693597372
 40
1.639695123940445
 50
195.0618917771012
 51
275.1581447696765
 73
     1
 72
     2
 10
-30.23935154696679
 20
5.96166627681896
 40
4.852596863498825
 50
275.1581447696364
 51
285.9799912583387
 73
     1
 72
     1
 10
-28.90342362985007
 20
1.296583971017554
 11
-28.90342362985007
 21
2.169100977820875
 72
     2
 10
-30.08147867187398
 20
4.059451696970655
 40
2.227384008972746
 50
58.06909105006035
 51
71.55192388186651
 73
     0
 72
     2
 10
-29.66331093821208
 20
2.805905920934066
 40
0.9059297849852771
 50
71.55192388191807
 51
113.3722778881813
 73
     0
 72
     2
 10
-29.81975097091518
 20
2.443913902224068
 40
0.5115800601960245
 50
113.3722778881547
 51
151.4785267423136
 73
     0
 72
     2
 10
-29.44239371283379
 20
2.648985331562557
 40
0.9410597353348955
 50
151.4785267423306
 51
208.5214732576375
 73
     0
 72
     2
 10
-29.81975097091518
 20
2.854056760901557
 40
0.5115800601944158
 50
208.5214732575774
 51
250.6628567805143
 73
     0
 72
     2
 10
-29.67308097281148
 20
2.436101780518669
 40
0.9545230068260939
 50
250.662856780568
 51
270.0
 73
     0
 72
     1
 10
-29.67308097281148
 20
3.390624787344763
 11
-28.56944167324338
 21
3.390624787344763
 72
     1
 10
-28.56944167324338
 20
3.390624787344763
 11
-28.56944167324338
 21
1.122080569657271
 72
     1
 10
-28.56944167324338
 20
1.122080569657271
 11
-27.37664897107567
 21
1.122080569657271
 72
     1
 10
-27.37664897107567
 20
1.122080569657271
 11
-27.37664897107567
 21
3.390624787344763
 72
     1
 10
-27.37664897107567
 20
3.390624787344763
 11
-26.56554993360228
 21
3.390624787344763
 72
     1
 10
-26.56554993360228
 20
3.390624787344763
 11
-26.56554993360228
 21
4.175890093468354
 72
     1
 10
-26.56554993360228
 20
4.175890093468354
 11
-29.95049545223097
 21
4.175890093467871
 97
       18
330
F8
330
F7
330
F6
330
F5
330
FA
330
94
330
172
330
153
330
171
330
154
330
170
330
16F
330
95
330
16E
330
16D
330
155
330
156
330
F9
 75
     1
 76
     0
 52
45.0
 41
0.1
 77
     0
 78
     1
 53
45.0
 43
0.0
 44
0.0
 45
-0.0707106781186548
 46
0.0707106781186548
 79
     0
 98
        1
 10
0.0
 20
0.0
  0
HATCH
  5
1A9
330
47
100
AcDbEntity
  8
1
  6
Continuous
 62
     2
100
AcDbHatch
 10
0.0
 20
0.0
 30
0.0
210
0.0
220
0.0
230
1.0
  2
_USER
 70
     0
 71
     1
 91
        4
 92
        1
 93
        8
 72
     2
 10
-54.05265454892398
 20
7.11083595424077
 40
0.4242446153837989
 50
90.0
 51
180.0
 73
     1
 72
     1
 10
-54.47689916430679
 20
7.11083595424077
 11
-54.47689916430679
 21
1.546325185040558
 72
     2
 10
-54.05265454892398
 20
1.546325185040558
 40
0.4242446153828112
 50
180.0
 51
270.0
 73
     1
 72
     1
 10
-54.05265454892398
 20
1.122080569657271
 11
-48.57934245820718
 21
1.122080569657271
 72
     2
 10
-48.57934245820718
 20
1.546325185040558
 40
0.4242446153832868
 50
270.0
 51
360.0
 73
     1
 72
     1
 10
-48.1550978428233
 20
1.546325185040558
 11
-48.1550978428233
 21
7.11083595424077
 72
     2
 10
-48.57934245820718
 20
7.11083595424077
 40
0.424244615383877
 50
0.0
 51
90.0
 73
     1
 72
     1
 10
-48.57934245820718
 20
7.535080569624569
 11
-54.05265454892398
 21
7.535080569624569
 97
        8
330
166
330
C3
330
165
330
C4
330
15C
330
C1
330
167
330
C2
 92
       16
 93
        1
 72
     2
 10
-51.43306889840648
 20
4.791953725885264
 40
0.4709789327785145
 50
0.0
 51
360.0
 73
     1
 97
        1
330
17A
 92
       16
 93
        8
 72
     2
 10
-51.40925388373367
 20
4.791953725885264
 40
0.9118481501444585
 50
295.3740086781764
 51
424.6259913218075
 73
     1
 72
     2
 10
-50.88321118564579
 20
5.901095325853078
 40
0.315716923076792
 50
115.3740086783518
 51
180.0
 73
     0
 72
     1
 10
-51.19892810872258
 20
5.901095325853078
 11
-51.19892810872258
 21
6.506630614359864
 72
     2
 10
-50.88321118564579
 20
6.506630614359864
 40
0.3157169230760711
 50
180.0
 51
269.8110329574541
 73
     0
 72
     2
 10
-50.87759505033577
 20
4.803795666790762
 40
2.018561131933266
 50
269.8110329575858
 51
450.1889670424142
 73
     0
 72
     2
 10
-50.88321118564579
 20
3.100960719221774
 40
0.315716923076792
 50
90.18896704254585
 51
180.0
 73
     0
 72
     1
 10
-51.19892810872258
 20
3.100960719221774
 11
-51.19892810872258
 21
3.682812125916854
 72
     2
 10
-50.88321118564579
 20
3.682812125916854
 40
0.3157169230765332
 50
180.0
 51
244.6259913216482
 73
     0
 97
        8
330
174
330
150
330
FC
330
173
330
151
330
152
330
FB
330
14F
 92
       16
 93
       12
 72
     1
 10
-53.4587598721775
 20
1.834636125214161
 11
-51.98292661116787
 21
1.834636125214161
 72
     2
 10
-51.98292661116787
 20
2.150353048290867
 40
0.3157169230767058
 50
270.0
 51
360.0
 73
     1
 72
     1
 10
-51.66720968809128
 20
2.150353048290867
 11
-51.66720968809128
 21
3.681123979822473
 72
     2
 10
-51.98292661116787
 20
3.681123979822473
 40
0.3157169230765859
 50
0.0
 51
64.80558935146027
 73
     1
 72
     2
 10
-51.46034216359288
 20
4.791953725885264
 40
0.9118975235576177
 50
115.1944106485127
 51
244.8055893514714
 73
     0
 72
     2
 10
-51.98292661116787
 20
5.902783471947458
 40
0.3157169230761203
 50
295.1944106485397
 51
360.0
 73
     1
 72
     1
 10
-51.66720968809128
 20
5.902783471947458
 11
-51.66720968809128
 21
6.506808091007969
 72
     2
 10
-51.98292661116787
 20
6.506808091007969
 40
0.3157169230765859
 50
0.0
 51
90.0
 73
     1
 72
     1
 10
-51.98292661116787
 20
6.822525014084164
 11
-53.4587598721775
 21
6.822525014084164
 72
     2
 10
-53.4587598721775
 20
6.506808091007969
 40
0.3157169230761951
 50
90.0
 51
180.0
 73
     1
 72
     1
 10
-53.77447679525318
 20
6.506808091007969
 11
-53.77447679525318
 21
2.150353048290867
 72
     2
 10
-53.4587598721775
 20
2.150353048290867
 40
0.3157169230756764
 50
180.0
 51
270.0
 73
     1
 97
       12
330
C8
330
159
330
C7
330
16A
330
C6
330
169
330
15A
330
15B
330
C5
330
168
330
C0
330
16B
 75
     1
 76
     0
 52
45.0
 41
0.1
 77
     0
 78
     1
 53
45.0
 43
0.0
 44
0.0
 45
-0.0707106781186548
 46
0.0707106781186548
 79
     0
 98
        1
 10
0.0
 20
0.0
  0
HATCH
  5
1AA
330
47
100
AcDbEntity
  8
1
  6
Continuous
 62
     2
100
AcDbHatch
 10
0.0
 20
0.0
 30
0.0
210
0.0
220
0.0
230
1.0
  2
_USER
 70
     0
 71
     1
 91
        4
 92
        1
 93
        8
 72
     2
 10
-54.05265454892398
 20
7.11083595424077
 40
0.4242446153837989
 50
90.0
 51
180.0
 73
     1
 72
     1
 10
-54.47689916430679
 20
7.11083595424077
 11
-54.47689916430679
 21
1.546325185040558
 72
     2
 10
-54.05265454892398
 20
1.546325185040558
 40
0.4242446153828112
 50
180.0
 51
270.0
 73
     1
 72
     1
 10
-54.05265454892398
 20
1.122080569657271
 11
-48.57934245820718
 21
1.122080569657271
 72
     2
 10
-48.57934245820718
 20
1.546325185040558
 40
0.4242446153832868
 50
270.0
 51
360.0
 73
     1
 72
     1
 10
-48.1550978428233
 20
1.546325185040558
 11
-48.1550978428233
 21
7.11083595424077
 72
     2
 10
-48.57934245820718
 20
7.11083595424077
 40
0.424244615383877
 50
0.0
 51
90.0
 73
     1
 72
     1
 10
-48.57934245820718
 20
7.535080569624569
 11
-54.05265454892398
 21
7.535080569624569
 97
        8
330
166
330
C3
330
165
330
C4
330
15C
330
C1
330
167
330
C2
 92
       16
 93
        1
 72
     2
 10
-51.43306889840648
 20
4.791953725885264
 40
0.4709789327785145
 50
0.0
 51
360.0
 73
     1
 97
        1
330
17A
 92
       16
 93
        8
 72
     2
 10
-51.40925388373367
 20
4.791953725885264
 40
0.9118481501444585
 50
295.3740086781764
 51
424.6259913218075
 73
     1
 72
     2
 10
-50.88321118564579
 20
5.901095325853078
 40
0.315716923076792
 50
115.3740086783518
 51
180.0
 73
     0
 72
     1
 10
-51.19892810872258
 20
5.901095325853078
 11
-51.19892810872258
 21
6.506630614359864
 72
     2
 10
-50.88321118564579
 20
6.506630614359864
 40
0.3157169230760711
 50
180.0
 51
269.8110329574541
 73
     0
 72
     2
 10
-50.87759505033577
 20
4.803795666790762
 40
2.018561131933266
 50
269.8110329575858
 51
450.1889670424142
 73
     0
 72
     2
 10
-50.88321118564579
 20
3.100960719221774
 40
0.315716923076792
 50
90.18896704254585
 51
180.0
 73
     0
 72
     1
 10
-51.19892810872258
 20
3.100960719221774
 11
-51.19892810872258
 21
3.682812125916854
 72
     2
 10
-50.88321118564579
 20
3.682812125916854
 40
0.3157169230765332
 50
180.0
 51
244.6259913216482
 73
     0
 97
        8
330
174
330
150
330
FC
330
173
330
151
330
152
330
FB
330
14F
 92
       16
 93
       12
 72
     1
 10
-53.4587598721775
 20
1.834636125214161
 11
-51.98292661116787
 21
1.834636125214161
 72
     2
 10
-51.98292661116787
 20
2.150353048290867
 40
0.3157169230767058
 50
270.0
 51
360.0
 73
     1
 72
     1
 10
-51.66720968809128
 20
2.150353048290867
 11
-51.66720968809128
 21
3.681123979822473
 72
     2
 10
-51.98292661116787
 20
3.681123979822473
 40
0.3157169230765859
 50
0.0
 51
64.80558935146027
 73
     1
 72
     2
 10
-51.46034216359288
 20
4.791953725885264
 40
0.9118975235576177
 50
115.1944106485127
 51
244.8055893514714
 73
     0
 72
     2
 10
-51.98292661116787
 20
5.902783471947458
 40
0.3157169230761203
 50
295.1944106485397
 51
360.0
 73
     1
 72
     1
 10
-51.66720968809128
 20
5.902783471947458
 11
-51.66720968809128
 21
6.506808091007969
 72
     2
 10
-51.98292661116787
 20
6.506808091007969
 40
0.3157169230765859
 50
0.0
 51
90.0
 73
     1
 72
     1
 10
-51.98292661116787
 20
6.822525014084164
 11
-53.4587598721775
 21
6.822525014084164
 72
     2
 10
-53.4587598721775
 20
6.506808091007969
 40
0.3157169230761951
 50
90.0
 51
180.0
 73
     1
 72
     1
 10
-53.77447679525318
 20
6.506808091007969
 11
-53.77447679525318
 21
2.150353048290867
 72
     2
 10
-53.4587598721775
 20
2.150353048290867
 40
0.3157169230756764
 50
180.0
 51
270.0
 73
     1
 97
       12
330
C8
330
159
330
C7
330
16A
330
C6
330
169
330
15A
330
15B
330
C5
330
168
330
C0
330
16B
 75
     1
 76
     0
 52
45.0
 41
0.1
 77
     0
 78
     1
 53
45.0
 43
0.0
 44
0.0
 45
-0.0707106781186548
 46
0.0707106781186548
 79
     0
 98
        1
 10
0.0
 20
0.0
  0
HATCH
  5
1AB
330
47
100
AcDbEntity
  8
1
  6
Continuous
 62
     2
100
AcDbHatch
 10
0.0
 20
0.0
 30
0.0
210
0.0
220
0.0
230
1.0
  2
_USER
 70
     0
 71
     1
 91
        2
 92
        1
 93
       12
 72
     2
 10
-39.37749054493469
 20
6.008175807736876
 40
1.526904761905883
 50
90.0
 51
270.0
 73
     1
 72
     1
 10
-39.37749054493469
 20
4.481271045831562
 11
-36.22717082115369
 21
4.481271045831562
 72
     1
 10
-36.22717082115369
 20
4.481271045831562
 11
-36.22717082115369
 21
5.17928465127406
 72
     1
 10
-36.22717082115369
 20
5.17928465127406
 11
-37.56309864758137
 21
5.17928465127406
 72
     1
 10
-37.56309864758137
 20
5.17928465127406
 11
-37.56309864758137
 21
5.65916900501577
 72
     1
 10
-37.56309864758137
 20
5.65916900501577
 11
-36.22717082115369
 21
5.65916900501577
 72
     1
 10
-36.22717082115369
 20
5.65916900501577
 11
-36.22717082115369
 21
6.357182610458068
 72
     1
 10
-36.22717082115369
 20
6.357182610458068
 11
-37.56309864758137
 21
6.357182610458068
 72
     1
 10
-37.56309864758137
 20
6.357182610458068
 11
-37.56309864758137
 21
6.837066964199778
 72
     1
 10
-37.56309864758137
 20
6.837066964199778
 11
-36.22717082115369
 21
6.837066964199778
 72
     1
 10
-36.22717082115369
 20
6.837066964199778
 11
-36.22717082115369
 21
7.535080569642759
 72
     1
 10
-36.22717082115369
 20
7.535080569642759
 11
-39.37749054493469
 21
7.535080569642759
 97
       12
330
B7
330
B1
330
D8
330
D7
330
D6
330
D5
330
B2
330
B3
330
B4
330
B5
330
157
330
B6
 92
       16
 93
        4
 72
     2
 10
-38.96147849842319
 20
6.008175807736876
 40
0.7717997786796724
 50
141.8795802028404
 51
218.1204197971562
 73
     1
 72
     2
 10
-39.16121853476949
 20
5.851444629616452
 40
0.5179085730134366
 50
218.120419797151
 51
321.8795802028567
 73
     1
 72
     2
 10
-39.36095857111567
 20
6.008175807736876
 40
0.7717997786796311
 50
321.8795802028435
 51
398.1204197971599
 73
     1
 72
     2
 10
-39.16121853476949
 20
6.164906985857357
 40
0.5179085730135266
 50
38.12041979714334
 51
141.8795802028489
 73
     1
 97
        4
330
164
330
163
330
15E
330
15D
 75
     1
 76
     0
 52
45.0
 41
0.1
 77
     0
 78
     1
 53
45.0
 43
0.0
 44
0.0
 45
-0.0707106781186548
 46
0.0707106781186548
 79
     0
 98
        1
 10
0.0
 20
0.0
  0
HATCH
  5
1AC
330
47
100
AcDbEntity
  8
1
  6
Continuous
 62
     2
100
AcDbHatch
 10
0.0
 20
0.0
 30
0.0
210
0.0
220
0.0
230
1.0
  2
_USER
 70
     0
 71
     1
 91
        2
 92
        1
 93
       12
 72
     2
 10
-39.37749054493469
 20
6.008175807736876
 40
1.526904761905883
 50
90.0
 51
270.0
 73
     1
 72
     1
 10
-39.37749054493469
 20
4.481271045831562
 11
-36.22717082115369
 21
4.481271045831562
 72
     1
 10
-36.22717082115369
 20
4.481271045831562
 11
-36.22717082115369
 21
5.17928465127406
 72
     1
 10
-36.22717082115369
 20
5.17928465127406
 11
-37.56309864758137
 21
5.17928465127406
 72
     1
 10
-37.56309864758137
 20
5.17928465127406
 11
-37.56309864758137
 21
5.65916900501577
 72
     1
 10
-37.56309864758137
 20
5.65916900501577
 11
-36.22717082115369
 21
5.65916900501577
 72
     1
 10
-36.22717082115369
 20
5.65916900501577
 11
-36.22717082115369
 21
6.357182610458068
 72
     1
 10
-36.22717082115369
 20
6.357182610458068
 11
-37.56309864758137
 21
6.357182610458068
 72
     1
 10
-37.56309864758137
 20
6.357182610458068
 11
-37.56309864758137
 21
6.837066964199778
 72
     1
 10
-37.56309864758137
 20
6.837066964199778
 11
-36.22717082115369
 21
6.837066964199778
 72
     1
 10
-36.22717082115369
 20
6.837066964199778
 11
-36.22717082115369
 21
7.535080569642759
 72
     1
 10
-36.22717082115369
 20
7.535080569642759
 11
-39.37749054493469
 21
7.535080569642759
 97
       12
330
B7
330
B1
330
D8
330
D7
330
D6
330
D5
330
B2
330
B3
330
B4
330
B5
330
157
330
B6
 92
       16
 93
        4
 72
     2
 10
-38.96147849842319
 20
6.008175807736876
 40
0.7717997786796724
 50
141.8795802028404
 51
218.1204197971562
 73
     1
 72
     2
 10
-39.16121853476949
 20
5.851444629616452
 40
0.5179085730134366
 50
218.120419797151
 51
321.8795802028567
 73
     1
 72
     2
 10
-39.36095857111567
 20
6.008175807736876
 40
0.7717997786796311
 50
321.8795802028435
 51
398.1204197971599
 73
     1
 72
     2
 10
-39.16121853476949
 20
6.164906985857357
 40
0.5179085730135266
 50
38.12041979714334
 51
141.8795802028489
 73
     1
 97
        4
330
164
330
163
330
15E
330
15D
 75
     1
 76
     0
 52
45.0
 41
0.1
 77
     0
 78
     1
 53
45.0
 43
0.0
 44
0.0
 45
-0.0707106781186548
 46
0.0707106781186548
 79
     0
 98
        1
 10
0.0
 20
0.0
  0
HATCH
  5
1AD
330
47
100
AcDbEntity
  8
1
  6
Continuous
 62
     2
100
AcDbHatch
 10
0.0
 20
0.0
 30
0.0
210
0.0
220
0.0
230
1.0
  2
_USER
 70
     0
 71
     1
 91
        2
 92
        1
 93
        4
 72
     2
 10
-43.40310590739628
 20
2.648985331562557
 40
1.45803408365149
 50
117.5481481756624
 51
242.4518518243375
 73
     1
 72
     2
 10
-43.12216601556298
 20
3.187560341865861
 40
2.065479772208508
 50
242.4518518243402
 51
297.5481481756869
 73
     1
 72
     2
 10
-42.84122612372968
 20
2.648985331562557
 40
1.458034083651999
 50
297.5481481757009
 51
422.4518518242992
 73
     1
 72
     2
 10
-43.12216601556298
 20
2.110410321259764
 40
2.065479772208564
 50
62.45185182430654
 51
117.5481481756664
 73
     1
 97
        4
330
162
330
15F
330
161
330
160
 92
       16
 93
        4
 72
     2
 10
-43.12216601556298
 20
2.805716509683066
 40
0.5179085730132943
 50
38.12041979714752
 51
141.8795802028583
 73
     1
 72
     2
 10
-42.92242597921688
 20
2.648985331562557
 40
0.7717997786794574
 50
141.879580202836
 51
218.120419797169
 73
     1
 72
     2
 10
-43.12216601556298
 20
2.492254153442559
 40
0.5179085730137298
 50
218.1204197971936
 51
321.8795802028005
 73
     1
 72
     2
 10
-43.32190605190939
 20
2.648985331562557
 40
0.7717997786796839
 50
321.8795802028411
 51
398.1204197971539
 73
     1
 97
        4
330
145
330
146
330
147
330
144
 75
     1
 76
     0
 52
45.0
 41
0.1
 77
     0
 78
     1
 53
45.0
 43
0.0
 44
0.0
 45
-0.0707106781186548
 46
0.0707106781186548
 79
     0
 98
        1
 10
0.0
 20
0.0
  0
HATCH
  5
1AE
330
47
100
AcDbEntity
  8
1
  6
Continuous
 62
     2
100
AcDbHatch
 10
0.0
 20
0.0
 30
0.0
210
0.0
220
0.0
230
1.0
  2
_USER
 70
     0
 71
     1
 91
        2
 92
        1
 93
        4
 72
     2
 10
-43.40310590739628
 20
2.648985331562557
 40
1.45803408365149
 50
117.5481481756624
 51
242.4518518243375
 73
     1
 72
     2
 10
-43.12216601556298
 20
3.187560341865861
 40
2.065479772208508
 50
242.4518518243402
 51
297.5481481756869
 73
     1
 72
     2
 10
-42.84122612372968
 20
2.648985331562557
 40
1.458034083651999
 50
297.5481481757009
 51
422.4518518242992
 73
     1
 72
     2
 10
-43.12216601556298
 20
2.110410321259764
 40
2.065479772208564
 50
62.45185182430654
 51
117.5481481756664
 73
     1
 97
        4
330
162
330
15F
330
161
330
160
 92
       16
 93
        4
 72
     2
 10
-43.12216601556298
 20
2.805716509683066
 40
0.5179085730132943
 50
38.12041979714752
 51
141.8795802028583
 73
     1
 72
     2
 10
-42.92242597921688
 20
2.648985331562557
 40
0.7717997786794574
 50
141.879580202836
 51
218.120419797169
 73
     1
 72
     2
 10
-43.12216601556298
 20
2.492254153442559
 40
0.5179085730137298
 50
218.1204197971936
 51
321.8795802028005
 73
     1
 72
     2
 10
-43.32190605190939
 20
2.648985331562557
 40
0.7717997786796839
 50
321.8795802028411
 51
398.1204197971539
 73
     1
 97
        4
330
145
330
146
330
147
330
144
 75
     1
 76
     0
 52
45.0
 41
0.1
 77
     0
 78
     1
 53
45.0
 43
0.0
 44
0.0
 45
-0.0707106781186548
 46
0.0707106781186548
 79
     0
 98
        1
 10
0.0
 20
0.0
  0
HATCH
  5
1AF
330
47
100
AcDbEntity
  8
1
  6
Continuous
 62
     2
100
AcDbHatch
 10
0.0
 20
0.0
 30
0.0
210
0.0
220
0.0
230
1.0
  2
_USER
 70
     0
 71
     1
 91
        2
 92
        1
 93
        6
 72
     1
 10
-47.67798076195649
 20
7.535080569642759
 11
-47.67798076195649
 21
4.481271045831562
 72
     1
 10
-47.67798076195649
 20
4.481271045831562
 11
-46.43747635170237
 21
4.481271045831562
 72
     1
 10
-46.43747635170237
 20
4.481271045831562
 11
-46.43747635170237
 21
5.424349286975371
 72
     1
 10
-46.43747635170237
 20
5.424349286975371
 11
-45.67870876392209
 21
5.424349286975371
 72
     2
 10
-45.67870876392209
 20
6.479714928309079
 40
1.055365641333708
 50
270.0
 51
450.0
 73
     1
 72
     1
 10
-45.67870876392209
 20
7.535080569642759
 11
-47.67798076195649
 21
7.535080569642759
 97
        6
330
16C
330
C9
330
BF
330
BE
330
CB
330
CA
 92
       16
 93
        4
 72
     1
 10
-46.12018129016047
 20
6.871974724202659
 11
-46.43747635170237
 21
6.871974724202659
 72
     1
 10
-46.43747635170237
 20
6.871974724202659
 11
-46.43747635170237
 21
6.166247074860451
 72
     1
 10
-46.43747635170237
 20
6.166247074860451
 11
-46.12018129016047
 21
6.166247074860451
 72
     2
 10
-46.12018129016047
 20
6.519110899531569
 40
0.3528638246711173
 50
270.0
 51
450.0
 73
     1
 97
        4
330
CC
330
BD
330
CD
330
158
 75
     1
 76
     0
 52
45.0
 41
0.1
 77
     0
 78
     1
 53
45.0
 43
0.0
 44
0.0
 45
-0.0707106781186548
 46
0.0707106781186548
 79
     0
 98
        1
 10
0.0
 20
0.0
  0
HATCH
  5
1B0
330
47
100
AcDbEntity
  8
1
  6
Continuous
 62
     2
100
AcDbHatch
 10
0.0
 20
0.0
 30
0.0
210
0.0
220
0.0
230
1.0
  2
_USER
 70
     0
 71
     1
 91
        2
 92
        1
 93
        6
 72
     1
 10
-47.67798076195649
 20
7.535080569642759
 11
-47.67798076195649
 21
4.481271045831562
 72
     1
 10
-47.67798076195649
 20
4.481271045831562
 11
-46.43747635170237
 21
4.481271045831562
 72
     1
 10
-46.43747635170237
 20
4.481271045831562
 11
-46.43747635170237
 21
5.424349286975371
 72
     1
 10
-46.43747635170237
 20
5.424349286975371
 11
-45.67870876392209
 21
5.424349286975371
 72
     2
 10
-45.67870876392209
 20
6.479714928309079
 40
1.055365641333708
 50
270.0
 51
450.0
 73
     1
 72
     1
 10
-45.67870876392209
 20
7.535080569642759
 11
-47.67798076195649
 21
7.535080569642759
 97
        6
330
16C
330
C9
330
BF
330
BE
330
CB
330
CA
 92
       16
 93
        4
 72
     1
 10
-46.12018129016047
 20
6.871974724202659
 11
-46.43747635170237
 21
6.871974724202659
 72
     1
 10
-46.43747635170237
 20
6.871974724202659
 11
-46.43747635170237
 21
6.166247074860451
 72
     1
 10
-46.43747635170237
 20
6.166247074860451
 11
-46.12018129016047
 21
6.166247074860451
 72
     2
 10
-46.12018129016047
 20
6.519110899531569
 40
0.3528638246711173
 50
270.0
 51
450.0
 73
     1
 97
        4
330
CC
330
BD
330
CD
330
158
 75
     1
 76
     0
 52
45.0
 41
0.1
 77
     0
 78
     1
 53
45.0
 43
0.0
 44
0.0
 45
-0.0707106781186548
 46
0.0707106781186548
 79
     0
 98
        1
 10
0.0
 20
0.0
  0
HATCH
  5
1B1
330
47
100
AcDbEntity
  8
1
  6
Continuous
 62
     2
100
AcDbHatch
 10
0.0
 20
0.0
 30
0.0
210
0.0
220
0.0
230
1.0
  2
_USER
 70
     0
 71
     1
 91
        1
 92
        1
 93
       12
 72
     1
 10
-28.06369756752329
 20
7.535080569642759
 11
-26.66097334977607
 21
7.535080569642759
 72
     1
 10
-26.66097334977607
 20
7.535080569642759
 11
-27.96350298054259
 21
6.062130039606558
 72
     1
 10
-27.96350298054259
 20
6.062130039606558
 11
-26.56554993360228
 21
4.481271045831562
 72
     1
 10
-26.56554993360228
 20
4.481271045831562
 11
-27.96827415135059
 21
4.481271045831562
 72
     1
 10
-27.96827415135059
 20
4.481271045831562
 11
-28.66486508941608
 21
5.269002831125278
 72
     1
 10
-28.66486508941608
 20
5.269002831125278
 11
-29.36145602748178
 21
4.481271045831562
 72
     1
 10
-29.36145602748178
 20
4.481271045831562
 11
-30.76418024522999
 21
4.481271045831562
 72
     1
 10
-30.76418024522999
 20
4.481271045831562
 11
-29.36622719828969
 21
6.062130039606558
 72
     1
 10
-29.36622719828969
 20
6.062130039606558
 11
-30.66875682905717
 21
7.535080569642759
 72
     1
 10
-30.66875682905717
 20
7.535080569642759
 11
-29.26603261130788
 21
7.535080569642759
 72
     1
 10
-29.26603261130788
 20
7.535080569642759
 11
-28.66486508941608
 21
6.85525724808727
 72
     1
 10
-28.66486508941608
 20
6.85525724808727
 11
-28.06369756752329
 21
7.535080569642759
 97
       12
330
98
330
F1
330
F0
330
EF
330
EE
330
99
330
9A
330
96
330
97
330
F4
330
F3
330
F2
 75
     1
 76
     0
 52
45.0
 41
0.1
 77
     0
 78
     1
 53
45.0
 43
0.0
 44
0.0
 45
-0.0707106781186548
 46
0.0707106781186548
 79
     0
 98
        1
 10
0.0
 20
0.0
  0
HATCH
  5
1B2
330
47
100
AcDbEntity
  8
1
  6
Continuous
 62
     2
100
AcDbHatch
 10
0.0
 20
0.0
 30
0.0
210
0.0
220
0.0
230
1.0
  2
_USER
 70
     0
 71
     1
 91
        1
 92
        1
 93
       12
 72
     1
 10
-28.06369756752329
 20
7.535080569642759
 11
-26.66097334977607
 21
7.535080569642759
 72
     1
 10
-26.66097334977607
 20
7.535080569642759
 11
-27.96350298054259
 21
6.062130039606558
 72
     1
 10
-27.96350298054259
 20
6.062130039606558
 11
-26.56554993360228
 21
4.481271045831562
 72
     1
 10
-26.56554993360228
 20
4.481271045831562
 11
-27.96827415135059
 21
4.481271045831562
 72
     1
 10
-27.96827415135059
 20
4.481271045831562
 11
-28.66486508941608
 21
5.269002831125278
 72
     1
 10
-28.66486508941608
 20
5.269002831125278
 11
-29.36145602748178
 21
4.481271045831562
 72
     1
 10
-29.36145602748178
 20
4.481271045831562
 11
-30.76418024522999
 21
4.481271045831562
 72
     1
 10
-30.76418024522999
 20
4.481271045831562
 11
-29.36622719828969
 21
6.062130039606558
 72
     1
 10
-29.36622719828969
 20
6.062130039606558
 11
-30.66875682905717
 21
7.535080569642759
 72
     1
 10
-30.66875682905717
 20
7.535080569642759
 11
-29.26603261130788
 21
7.535080569642759
 72
     1
 10
-29.26603261130788
 20
7.535080569642759
 11
-28.66486508941608
 21
6.85525724808727
 72
     1
 10
-28.66486508941608
 20
6.85525724808727
 11
-28.06369756752329
 21
7.535080569642759
 97
       12
330
98
330
F1
330
F0
330
EF
330
EE
330
99
330
9A
330
96
330
97
330
F4
330
F3
330
F2
 75
     1
 76
     0
 52
45.0
 41
0.1
 77
     0
 78
     1
 53
45.0
 43
0.0
 44
0.0
 45
-0.0707106781186548
 46
0.0707106781186548
 79
     0
 98
        1
 10
0.0
 20
0.0
  0
HATCH
  5
1B3
330
47
100
AcDbEntity
  8
1
  6
Continuous
 62
     2
100
AcDbHatch
 10
0.0
 20
0.0
 30
0.0
210
0.0
220
0.0
230
1.0
  2
_USER
 70
     0
 71
     1
 91
        1
 92
        1
 93
        4
 72
     1
 10
-30.88345951544687
 20
7.535080569642759
 11
-30.88345951544687
 21
4.481271045831562
 72
     1
 10
-30.88345951544687
 20
4.481271045831562
 11
-32.12396392569977
 21
4.481271045831562
 72
     1
 10
-32.12396392569977
 20
4.481271045831562
 11
-32.12396392569977
 21
7.535080569642759
 72
     1
 10
-32.12396392569977
 20
7.535080569642759
 11
-30.88345951544687
 21
7.535080569642759
 97
        4
330
EC
330
9B
330
EB
330
ED
 75
     1
 76
     0
 52
45.0
 41
0.1
 77
     0
 78
     1
 53
45.0
 43
0.0
 44
0.0
 45
-0.0707106781186548
 46
0.0707106781186548
 79
     0
 98
        1
 10
0.0
 20
0.0
  0
HATCH
  5
1B4
330
47
100
AcDbEntity
  8
1
  6
Continuous
 62
     2
100
AcDbHatch
 10
0.0
 20
0.0
 30
0.0
210
0.0
220
0.0
230
1.0
  2
_USER
 70
     0
 71
     1
 91
        1
 92
        1
 93
        4
 72
     1
 10
-30.88345951544687
 20
7.535080569642759
 11
-30.88345951544687
 21
4.481271045831562
 72
     1
 10
-30.88345951544687
 20
4.481271045831562
 11
-32.12396392569977
 21
4.481271045831562
 72
     1
 10
-32.12396392569977
 20
4.481271045831562
 11
-32.12396392569977
 21
7.535080569642759
 72
     1
 10
-32.12396392569977
 20
7.535080569642759
 11
-30.88345951544687
 21
7.535080569642759
 97
        4
330
EC
330
9B
330
EB
330
ED
 75
     1
 76
     0
 52
45.0
 41
0.1
 77
     0
 78
     1
 53
45.0
 43
0.0
 44
0.0
 45
-0.0707106781186548
 46
0.0707106781186548
 79
     0
 98
        1
 10
0.0
 20
0.0
  0
HATCH
  5
1B5
330
47
100
AcDbEntity
  8
1
  6
Continuous
 62
     2
100
AcDbHatch
 10
0.0
 20
0.0
 30
0.0
210
0.0
220
0.0
230
1.0
  2
_USER
 70
     0
 71
     1
 91
        2
 92
        1
 93
        8
 72
     1
 10
-31.27390351897887
 20
1.122080569657271
 11
-32.51440792923279
 21
1.122080569657271
 72
     1
 10
-32.51440792923279
 20
1.122080569657271
 11
-32.72588798270857
 21
1.663041113875153
 72
     1
 10
-32.72588798270857
 20
1.663041113875153
 11
-33.85832955938238
 21
1.663041113875153
 72
     1
 10
-33.85832955938238
 20
1.663041113875153
 11
-34.06980961285819
 21
1.122080569657271
 72
     1
 10
-34.06980961285819
 20
1.122080569657271
 11
-35.31031402311118
 21
1.122080569657271
 72
     1
 10
-35.31031402311118
 20
1.122080569657271
 11
-33.91236097617187
 21
4.175890093468354
 72
     1
 10
-33.91236097617187
 20
4.175890093468354
 11
-32.67185656591917
 21
4.175890093468354
 72
     1
 10
-32.67185656591917
 20
4.175890093468354
 11
-31.27390351897887
 21
1.122080569657271
 97
        8
330
E7
330
A1
330
E6
330
E9
330
9E
330
E8
330
9F
330
A0
 92
       16
 93
        3
 72
     1
 10
-33.59227400823738
 20
2.343604379181755
 11
-32.99194353385488
 21
2.343604379181755
 72
     1
 10
-32.99194353385488
 20
2.343604379181755
 11
-33.29210877104498
 21
3.111419345168457
 72
     1
 10
-33.29210877104498
 20
3.111419345168457
 11
-33.59227400823738
 21
2.343604379181755
 97
        3
330
9D
330
9C
330
EA
 75
     1
 76
     0
 52
45.0
 41
0.1
 77
     0
 78
     1
 53
45.0
 43
0.0
 44
0.0
 45
-0.0707106781186548
 46
0.0707106781186548
 79
     0
 98
        1
 10
0.0
 20
0.0
  0
HATCH
  5
1B6
330
47
100
AcDbEntity
  8
1
  6
Continuous
 62
     2
100
AcDbHatch
 10
0.0
 20
0.0
 30
0.0
210
0.0
220
0.0
230
1.0
  2
_USER
 70
     0
 71
     1
 91
        2
 92
        1
 93
        8
 72
     1
 10
-31.27390351897887
 20
1.122080569657271
 11
-32.51440792923279
 21
1.122080569657271
 72
     1
 10
-32.51440792923279
 20
1.122080569657271
 11
-32.72588798270857
 21
1.663041113875153
 72
     1
 10
-32.72588798270857
 20
1.663041113875153
 11
-33.85832955938238
 21
1.663041113875153
 72
     1
 10
-33.85832955938238
 20
1.663041113875153
 11
-34.06980961285819
 21
1.122080569657271
 72
     1
 10
-34.06980961285819
 20
1.122080569657271
 11
-35.31031402311118
 21
1.122080569657271
 72
     1
 10
-35.31031402311118
 20
1.122080569657271
 11
-33.91236097617187
 21
4.175890093468354
 72
     1
 10
-33.91236097617187
 20
4.175890093468354
 11
-32.67185656591917
 21
4.175890093468354
 72
     1
 10
-32.67185656591917
 20
4.175890093468354
 11
-31.27390351897887
 21
1.122080569657271
 97
        8
330
E7
330
A1
330
E6
330
E9
330
9E
330
E8
330
9F
330
A0
 92
       16
 93
        3
 72
     1
 10
-33.59227400823738
 20
2.343604379181755
 11
-32.99194353385488
 21
2.343604379181755
 72
     1
 10
-32.99194353385488
 20
2.343604379181755
 11
-33.29210877104498
 21
3.111419345168457
 72
     1
 10
-33.29210877104498
 20
3.111419345168457
 11
-33.59227400823738
 21
2.343604379181755
 97
        3
330
9D
330
9C
330
EA
 75
     1
 76
     0
 52
45.0
 41
0.1
 77
     0
 78
     1
 53
45.0
 43
0.0
 44
0.0
 45
-0.0707106781186548
 46
0.0707106781186548
 79
     0
 98
        1
 10
0.0
 20
0.0
  0
HATCH
  5
1B7
330
47
100
AcDbEntity
  8
1
  6
Continuous
 62
     2
100
AcDbHatch
 10
0.0
 20
0.0
 30
0.0
210
0.0
220
0.0
230
1.0
  2
_USER
 70
     0
 71
     1
 91
        1
 92
        1
 93
        8
 72
     1
 10
-37.46782616229339
 20
4.175890093468354
 11
-37.46782616229339
 21
3.390624787344763
 72
     1
 10
-37.46782616229339
 20
3.390624787344763
 11
-36.65672712481879
 21
3.390624787344763
 72
     1
 10
-36.65672712481879
 20
3.390624787344763
 11
-36.65672712481879
 21
1.122080569657271
 72
     1
 10
-36.65672712481879
 20
1.122080569657271
 11
-35.46393442265227
 21
1.122080569657271
 72
     1
 10
-35.46393442265227
 20
1.122080569657271
 11
-35.46393442265227
 21
3.390624787344763
 72
     1
 10
-35.46393442265227
 20
3.390624787344763
 11
-34.65283538517977
 21
3.390624787344763
 72
     1
 10
-34.65283538517977
 20
3.390624787344763
 11
-34.65283538517977
 21
4.175890093468354
 72
     1
 10
-34.65283538517977
 20
4.175890093468354
 11
-37.46782616229339
 21
4.175890093468354
 97
        8
330
E3
330
E2
330
E1
330
A2
330
A3
330
E5
330
A4
330
E4
 75
     1
 76
     0
 52
45.0
 41
0.1
 77
     0
 78
     1
 53
45.0
 43
0.0
 44
0.0
 45
-0.0707106781186548
 46
0.0707106781186548
 79
     0
 98
        1
 10
0.0
 20
0.0
  0
HATCH
  5
1B8
330
47
100
AcDbEntity
  8
1
  6
Continuous
 62
     2
100
AcDbHatch
 10
0.0
 20
0.0
 30
0.0
210
0.0
220
0.0
230
1.0
  2
_USER
 70
     0
 71
     1
 91
        1
 92
        1
 93
        8
 72
     1
 10
-37.46782616229339
 20
4.175890093468354
 11
-37.46782616229339
 21
3.390624787344763
 72
     1
 10
-37.46782616229339
 20
3.390624787344763
 11
-36.65672712481879
 21
3.390624787344763
 72
     1
 10
-36.65672712481879
 20
3.390624787344763
 11
-36.65672712481879
 21
1.122080569657271
 72
     1
 10
-36.65672712481879
 20
1.122080569657271
 11
-35.46393442265227
 21
1.122080569657271
 72
     1
 10
-35.46393442265227
 20
1.122080569657271
 11
-35.46393442265227
 21
3.390624787344763
 72
     1
 10
-35.46393442265227
 20
3.390624787344763
 11
-34.65283538517977
 21
3.390624787344763
 72
     1
 10
-34.65283538517977
 20
3.390624787344763
 11
-34.65283538517977
 21
4.175890093468354
 72
     1
 10
-34.65283538517977
 20
4.175890093468354
 11
-37.46782616229339
 21
4.175890093468354
 97
        8
330
E3
330
E2
330
E1
330
A2
330
A3
330
E5
330
A4
330
E4
 75
     1
 76
     0
 52
45.0
 41
0.1
 77
     0
 78
     1
 53
45.0
 43
0.0
 44
0.0
 45
-0.0707106781186548
 46
0.0707106781186548
 79
     0
 98
        1
 10
0.0
 20
0.0
  0
HATCH
  5
1B9
330
47
100
AcDbEntity
  8
1
  6
Continuous
 62
     2
100
AcDbHatch
 10
0.0
 20
0.0
 30
0.0
210
0.0
220
0.0
230
1.0
  2
_USER
 70
     0
 71
     1
 91
        1
 92
        1
 93
       10
 72
     1
 10
-34.79581957855427
 20
7.535080569642759
 11
-35.98861228072079
 21
7.535080569642759
 72
     1
 10
-35.98861228072079
 20
7.535080569642759
 11
-35.98861228072079
 21
4.481271045831562
 72
     1
 10
-35.98861228072079
 20
4.481271045831562
 11
-34.79581957855427
 21
4.481271045831562
 72
     1
 10
-34.79581957855427
 20
4.481271045831562
 11
-34.79581957855427
 21
5.790046556036259
 72
     1
 10
-34.79581957855427
 20
5.790046556036259
 11
-33.55531516830027
 21
4.481271045831562
 72
     1
 10
-33.55531516830027
 20
4.481271045831562
 11
-32.36252246613367
 21
4.481271045831562
 72
     1
 10
-32.36252246613367
 20
4.481271045831562
 11
-32.36252246613367
 21
7.535080569642759
 72
     1
 10
-32.36252246613367
 20
7.535080569642759
 11
-33.55531516830027
 21
7.535080569642759
 72
     1
 10
-33.55531516830027
 20
7.535080569642759
 11
-33.55531516830027
 21
6.226305059437578
 72
     1
 10
-33.55531516830027
 20
6.226305059437578
 11
-34.79581957855427
 21
7.535080569642759
 97
       10
330
DD
330
A7
330
A8
330
A9
330
AA
330
E0
330
A5
330
DF
330
DE
330
A6
 75
     1
 76
     0
 52
45.0
 41
0.1
 77
     0
 78
     1
 53
45.0
 43
0.0
 44
0.0
 45
-0.0707106781186548
 46
0.0707106781186548
 79
     0
 98
        1
 10
0.0
 20
0.0
  0
HATCH
  5
1BA
330
47
100
AcDbEntity
  8
1
  6
Continuous
 62
     2
100
AcDbHatch
 10
0.0
 20
0.0
 30
0.0
210
0.0
220
0.0
230
1.0
  2
_USER
 70
     0
 71
     1
 91
        1
 92
        1
 93
       10
 72
     1
 10
-34.79581957855427
 20
7.535080569642759
 11
-35.98861228072079
 21
7.535080569642759
 72
     1
 10
-35.98861228072079
 20
7.535080569642759
 11
-35.98861228072079
 21
4.481271045831562
 72
     1
 10
-35.98861228072079
 20
4.481271045831562
 11
-34.79581957855427
 21
4.481271045831562
 72
     1
 10
-34.79581957855427
 20
4.481271045831562
 11
-34.79581957855427
 21
5.790046556036259
 72
     1
 10
-34.79581957855427
 20
5.790046556036259
 11
-33.55531516830027
 21
4.481271045831562
 72
     1
 10
-33.55531516830027
 20
4.481271045831562
 11
-32.36252246613367
 21
4.481271045831562
 72
     1
 10
-32.36252246613367
 20
4.481271045831562
 11
-32.36252246613367
 21
7.535080569642759
 72
     1
 10
-32.36252246613367
 20
7.535080569642759
 11
-33.55531516830027
 21
7.535080569642759
 72
     1
 10
-33.55531516830027
 20
7.535080569642759
 11
-33.55531516830027
 21
6.226305059437578
 72
     1
 10
-33.55531516830027
 20
6.226305059437578
 11
-34.79581957855427
 21
7.535080569642759
 97
       10
330
DD
330
A7
330
A8
330
A9
330
AA
330
E0
330
A5
330
DF
330
DE
330
A6
 75
     1
 76
     0
 52
45.0
 41
0.1
 77
     0
 78
     1
 53
45.0
 43
0.0
 44
0.0
 45
-0.0707106781186548
 46
0.0707106781186548
 79
     0
 98
        1
 10
0.0
 20
0.0
  0
HATCH
  5
1BB
330
47
100
AcDbEntity
  8
1
  6
Continuous
 62
     2
100
AcDbHatch
 10
0.0
 20
0.0
 30
0.0
210
0.0
220
0.0
230
1.0
  2
_USER
 70
     0
 71
     1
 91
        1
 92
        1
 93
       10
 72
     1
 10
-40.04425839897289
 20
4.175890093468354
 11
-41.23705110114048
 21
4.175890093468354
 72
     1
 10
-41.23705110114048
 20
4.175890093468354
 11
-41.23705110114048
 21
1.122080569657271
 72
     1
 10
-41.23705110114048
 20
1.122080569657271
 11
-40.04425839897289
 21
1.122080569657271
 72
     1
 10
-40.04425839897289
 20
1.122080569657271
 11
-40.04425839897289
 21
2.430856079861854
 72
     1
 10
-40.04425839897289
 20
2.430856079861854
 11
-38.80375398871999
 21
1.122080569657271
 72
     1
 10
-38.80375398871999
 20
1.122080569657271
 11
-37.61096128655359
 21
1.122080569657271
 72
     1
 10
-37.61096128655359
 20
1.122080569657271
 11
-37.61096128655359
 21
4.175890093468354
 72
     1
 10
-37.61096128655359
 20
4.175890093468354
 11
-38.80375398871999
 21
4.175890093468354
 72
     1
 10
-38.80375398871999
 20
4.175890093468354
 11
-38.80375398871999
 21
2.867114583263259
 72
     1
 10
-38.80375398871999
 20
2.867114583263259
 11
-40.04425839897289
 21
4.175890093468354
 97
       10
330
AC
330
AD
330
AE
330
DA
330
AF
330
B0
330
D9
330
DC
330
DB
330
AB
 75
     1
 76
     0
 52
45.0
 41
0.1
 77
     0
 78
     1
 53
45.0
 43
0.0
 44
0.0
 45
-0.0707106781186548
 46
0.0707106781186548
 79
     0
 98
        1
 10
0.0
 20
0.0
  0
HATCH
  5
1BC
330
47
100
AcDbEntity
  8
1
  6
Continuous
 62
     2
100
AcDbHatch
 10
0.0
 20
0.0
 30
0.0
210
0.0
220
0.0
230
1.0
  2
_USER
 70
     0
 71
     1
 91
        1
 92
        1
 93
       10
 72
     1
 10
-40.04425839897289
 20
4.175890093468354
 11
-41.23705110114048
 21
4.175890093468354
 72
     1
 10
-41.23705110114048
 20
4.175890093468354
 11
-41.23705110114048
 21
1.122080569657271
 72
     1
 10
-41.23705110114048
 20
1.122080569657271
 11
-40.04425839897289
 21
1.122080569657271
 72
     1
 10
-40.04425839897289
 20
1.122080569657271
 11
-40.04425839897289
 21
2.430856079861854
 72
     1
 10
-40.04425839897289
 20
2.430856079861854
 11
-38.80375398871999
 21
1.122080569657271
 72
     1
 10
-38.80375398871999
 20
1.122080569657271
 11
-37.61096128655359
 21
1.122080569657271
 72
     1
 10
-37.61096128655359
 20
1.122080569657271
 11
-37.61096128655359
 21
4.175890093468354
 72
     1
 10
-37.61096128655359
 20
4.175890093468354
 11
-38.80375398871999
 21
4.175890093468354
 72
     1
 10
-38.80375398871999
 20
4.175890093468354
 11
-38.80375398871999
 21
2.867114583263259
 72
     1
 10
-38.80375398871999
 20
2.867114583263259
 11
-40.04425839897289
 21
4.175890093468354
 97
       10
330
AC
330
AD
330
AE
330
DA
330
AF
330
B0
330
D9
330
DC
330
DB
330
AB
 75
     1
 76
     0
 52
45.0
 41
0.1
 77
     0
 78
     1
 53
45.0
 43
0.0
 44
0.0
 45
-0.0707106781186548
 46
0.0707106781186548
 79
     0
 98
        1
 10
0.0
 20
0.0
  0
HATCH
  5
1BD
330
47
100
AcDbEntity
  8
1
  6
Continuous
 62
     2
100
AcDbHatch
 10
0.0
 20
0.0
 30
0.0
210
0.0
220
0.0
230
1.0
  2
_USER
 70
     0
 71
     1
 91
        1
 92
        1
 93
       12
 72
     1
 10
-41.04605333790829
 20
7.535080569642759
 11
-41.04605333790829
 21
4.481271045831562
 72
     1
 10
-41.04605333790829
 20
4.481271045831562
 11
-42.23884604007469
 21
4.481271045831562
 72
     1
 10
-42.23884604007469
 20
4.481271045831562
 11
-42.23884604007469
 21
5.615543154675379
 72
     1
 10
-42.23884604007469
 20
5.615543154675379
 11
-43.28850361798217
 21
5.615543154675379
 72
     1
 10
-43.28850361798217
 20
5.615543154675379
 11
-43.28850361798217
 21
4.481271045831562
 72
     1
 10
-43.28850361798217
 20
4.481271045831562
 11
-44.48129632014877
 21
4.481271045831562
 72
     1
 10
-44.48129632014877
 20
4.481271045831562
 11
-44.48129632014877
 21
7.535080569642759
 72
     1
 10
-44.48129632014877
 20
7.535080569642759
 11
-43.28850361798217
 21
7.535080569642759
 72
     1
 10
-43.28850361798217
 20
7.535080569642759
 11
-43.28850361798217
 21
6.466247236308163
 72
     1
 10
-43.28850361798217
 20
6.466247236308163
 11
-42.23884604007469
 21
6.466247236308163
 72
     1
 10
-42.23884604007469
 20
6.466247236308163
 11
-42.23884604007469
 21
7.535080569642759
 72
     1
 10
-42.23884604007469
 20
7.535080569642759
 11
-41.04605333790829
 21
7.535080569642759
 97
       12
330
D4
330
D3
330
D2
330
BA
330
BB
330
D1
330
BC
330
D0
330
CF
330
CE
330
B8
330
B9
 75
     1
 76
     0
 52
45.0
 41
0.1
 77
     0
 78
     1
 53
45.0
 43
0.0
 44
0.0
 45
-0.0707106781186548
 46
0.0707106781186548
 79
     0
 98
        1
 10
0.0
 20
0.0
  0
HATCH
  5
1BE
330
47
100
AcDbEntity
  8
1
  6
Continuous
 62
     2
100
AcDbHatch
 10
0.0
 20
0.0
 30
0.0
210
0.0
220
0.0
230
1.0
  2
_USER
 70
     0
 71
     1
 91
        1
 92
        1
 93
       12
 72
     1
 10
-41.04605333790829
 20
7.535080569642759
 11
-41.04605333790829
 21
4.481271045831562
 72
     1
 10
-41.04605333790829
 20
4.481271045831562
 11
-42.23884604007469
 21
4.481271045831562
 72
     1
 10
-42.23884604007469
 20
4.481271045831562
 11
-42.23884604007469
 21
5.615543154675379
 72
     1
 10
-42.23884604007469
 20
5.615543154675379
 11
-43.28850361798217
 21
5.615543154675379
 72
     1
 10
-43.28850361798217
 20
5.615543154675379
 11
-43.28850361798217
 21
4.481271045831562
 72
     1
 10
-43.28850361798217
 20
4.481271045831562
 11
-44.48129632014877
 21
4.481271045831562
 72
     1
 10
-44.48129632014877
 20
4.481271045831562
 11
-44.48129632014877
 21
7.535080569642759
 72
     1
 10
-44.48129632014877
 20
7.535080569642759
 11
-43.28850361798217
 21
7.535080569642759
 72
     1
 10
-43.28850361798217
 20
7.535080569642759
 11
-43.28850361798217
 21
6.466247236308163
 72
     1
 10
-43.28850361798217
 20
6.466247236308163
 11
-42.23884604007469
 21
6.466247236308163
 72
     1
 10
-42.23884604007469
 20
6.466247236308163
 11
-42.23884604007469
 21
7.535080569642759
 72
     1
 10
-42.23884604007469
 20
7.535080569642759
 11
-41.04605333790829
 21
7.535080569642759
 97
       12
330
D4
330
D3
330
D2
330
BA
330
BB
330
D1
330
BC
330
D0
330
CF
330
CE
330
B8
330
B9
 75
     1
 76
     0
 52
45.0
 41
0.1
 77
     0
 78
     1
 53
45.0
 43
0.0
 44
0.0
 45
-0.0707106781186548
 46
0.0707106781186548
 79
     0
 98
        1
 10
0.0
 20
0.0
  0
ENDBLK
  5
49
330
47
100
AcDbEntity
  8
0
100
AcDbBlockEnd
  0
BLOCK
  5
4B
330
4A
100
AcDbEntity
  8
0
100
AcDbBlockBegin
  2
_punkt
 70
     0
 10
70.83125047588062
 20
-6.17141943035904
 30
0.0
  3
_punkt
  1

  0
LINE
  5
1BF
330
4A
100
AcDbEntity
  8
1
  6
Continuous
 62
     2
100
AcDbLine
 10
70.83125047588062
 20
-6.17141943035904
 30
0.0
 11
70.83125047588062
 21
-11.17141943035915
 31
0.0
  0
LINE
  5
1C0
330
4A
100
AcDbEntity
  8
1
  6
Continuous
 62
     2
100
AcDbLine
 10
70.83125047588062
 20
-6.17141943035904
 30
0.0
 11
75.83125047587961
 21
-6.17141943035904
 31
0.0
  0
ENDBLK
  5
4C
330
4A
100
AcDbEntity
  8
0
100
AcDbBlockEnd
  0
BLOCK
  5
50
330
4D
100
AcDbEntity
  8
0
100
AcDbBlockBegin
  2
A4I_CS
 70
     0
 10
70.83125047588062
 20
-11.17141943035915
 30
0.0
  3
A4I_CS
  1

  0
INSERT
  5
4E
330
4D
100
AcDbEntity
  8
1
100
AcDbBlockReference
  2
_rahmen
 10
70.83125047588062
 20
-11.17141943035915
 30
0.0
  0
INSERT
  5
4F
330
4D
100
AcDbEntity
  8
1
100
AcDbBlockReference
  2
_punkt
 10
70.83125047588062
 20
-6.17141943035904
 30
0.0
  0
ENDBLK
  5
51
330
4D
100
AcDbEntity
  8
0
100
AcDbBlockEnd
  0
BLOCK
  5
53
330
52
100
AcDbEntity
  8
0
100
AcDbBlockBegin
  2
URKN-select__1
 70
     0
 10
6.58863793320238
 20
35.42591171876603
 30
0.0
  3
URKN-select__1
  1

  0
LINE
  5
1C1
330
52
100
AcDbEntity
  8
0
  6
Continuous
 62
     7
100
AcDbLine
 10
19.00000000000011
 20
88.77501266171893
 30
0.0
 11
29.17900172474261
 21
85.83658796878802
 31
0.0
  0
LINE
  5
1C2
330
52
100
AcDbEntity
  8
0
  6
Continuous
 62
     7
100
AcDbLine
 10
28.9970452561247
 20
80.02900904458201
 30
0.0
 11
28.9970452561247
 21
68.42426863387053
 31
0.0
  0
LINE
  5
1C3
330
52
100
AcDbEntity
  8
0
  6
Continuous
 62
     2
100
AcDbLine
 10
13.16576766497729
 20
52.55616529399009
 30
0.0
 11
12.71576766497727
 21
52.16645386228709
 31
0.0
  0
LINE
  5
1C4
330
52
100
AcDbEntity
  8
0
  6
Continuous
 62
     7
100
AcDbLine
 10
10.80911955671292
 20
51.16633892817957
 30
0.0
 11
9.96613700796167
 21
50.43629462601403
 31
0.0
  0
LINE
  5
1C5
330
52
100
AcDbEntity
  8
0
  6
Continuous
 62
     7
100
AcDbLine
 10
12.71576766497727
 20
53.07578053626079
 30
0.0
 11
10.01559293119765
 21
53.8552538409641
 31
0.0
  0
LINE
  5
1C6
330
52
100
AcDbEntity
  8
0
  6
Continuous
 62
     7
100
AcDbLine
 10
10.0749534383061
 20
53.83811793858494
 30
0.0
 11
9.89421074853283
 21
53.68159017769296
 31
0.0
  0
LINE
  5
1C7
330
52
100
AcDbEntity
  8
0
  6
Continuous
 62
     7
100
AcDbLine
 10
19.05940374769831
 20
48.08353781244757
 30
0.0
 11
14.03645640574855
 21
49.53353781244756
 31
0.0
  0
LINE
  5
1C8
330
52
100
AcDbEntity
  8
0
  6
Continuous
 62
     7
100
AcDbLine
 10
10.65895733098923
 20
48.43043356105276
 30
0.0
 11
9.67463945888932
 21
48.54101985682054
 31
0.0
  0
LINE
  5
1C9
330
52
100
AcDbEntity
  8
0
  6
Continuous
 62
     2
100
AcDbLine
 10
19.59227375965431
 20
49.28029736916549
 30
0.0
 11
19.34468922023921
 21
49.06588286844769
 31
0.0
  0
LINE
  5
1CA
330
52
100
AcDbEntity
  8
0
  6
Continuous
 62
     7
100
AcDbLine
 10
11.47594894540359
 20
75.34577170940574
 30
0.0
 11
14.21475428487191
 21
79.29889670940574
 31
0.0
  0
LINE
  5
1CB
330
52
100
AcDbEntity
  8
0
  6
Continuous
 62
     7
100
AcDbLine
 10
14.21475428487191
 20
79.29889670940574
 30
0.0
 11
13.41225428487196
 21
79.99388209594272
 31
0.0
  0
LINE
  5
1CC
330
52
100
AcDbEntity
  8
0
  6
Continuous
 62
     7
100
AcDbLine
 10
13.41225428487196
 20
79.99388209594272
 30
0.0
 11
13.18366754331428
 21
79.66394555401398
 31
0.0
  0
LINE
  5
1CD
330
52
100
AcDbEntity
  8
0
  6
Continuous
 62
     7
100
AcDbLine
 10
13.18366754331428
 20
79.66394555401398
 30
0.0
 11
13.48844986539118
 21
79.92789478755698
 31
0.0
  0
LINE
  5
1CE
330
52
100
AcDbEntity
  8
0
  6
Continuous
 62
     7
100
AcDbLine
 10
13.88344894540351
 20
78.82069864209068
 30
0.0
 11
10.67344894540363
 21
76.04075709594274
 31
0.0
  0
LINE
  5
1CF
330
52
100
AcDbEntity
  8
0
  6
Continuous
 62
     7
100
AcDbLine
 10
10.67344894540363
 20
76.04075709594274
 30
0.0
 11
11.47594894540359
 21
75.34577170940574
 31
0.0
  0
LINE
  5
1D0
330
52
100
AcDbEntity
  8
0
  6
Continuous
 62
     7
100
AcDbLine
 10
10.90203568696133
 20
76.3706936378714
 30
0.0
 11
14.11203568696097
 21
79.15063518401914
 31
0.0
  0
LINE
  5
1D1
330
52
100
AcDbEntity
  8
0
  6
Continuous
 62
     7
100
AcDbLine
 10
10.90203568696133
 20
76.3706936378714
 30
0.0
 11
10.67344894540363
 21
76.04075709594274
 31
0.0
  0
LINE
  5
1D2
330
52
100
AcDbEntity
  8
0
  6
Continuous
 62
     7
100
AcDbLine
 10
12.90258468652022
 20
50.3734718475683
 30
0.0
 11
10.65895733098923
 21
48.43043356105276
 31
0.0
  0
LINE
  5
1D3
330
52
100
AcDbEntity
  8
0
  6
Continuous
 62
     7
100
AcDbLine
 10
12.41585535545239
 20
50.55781294705781
 30
0.0
 11
10.65895733098923
 21
49.03629462601404
 31
0.0
  0
LINE
  5
1D4
330
52
100
AcDbEntity
  8
0
  6
Continuous
 62
     7
100
AcDbLine
 10
28.42900172474261
 20
79.12489108945863
 30
0.0
 11
28.9970452561247
 21
78.9609110465812
 31
0.0
  0
LINE
  5
1D5
330
52
100
AcDbEntity
  8
0
  6
Continuous
 62
     7
100
AcDbLine
 10
26.5670471066061
 20
74.11982850523823
 30
0.0
 11
26.5670471066061
 21
85.7245689159497
 31
0.0
  0
LINE
  5
1D6
330
52
100
AcDbEntity
  8
0
  6
Continuous
 62
     7
100
AcDbLine
 10
28.42900172474261
 20
85.18706891594971
 30
0.0
 11
28.42900172474261
 21
79.12489108945863
 31
0.0
  0
LINE
  5
1D7
330
52
100
AcDbEntity
  8
0
  6
Continuous
 62
     7
100
AcDbLine
 10
28.42900172474261
 20
85.18706891594971
 30
0.0
 11
26.5670471066061
 21
85.7245689159497
 31
0.0
  0
LINE
  5
1D8
330
52
100
AcDbEntity
  8
0
  6
Continuous
 62
     7
100
AcDbLine
 10
28.42900172474261
 20
85.18706891594971
 30
0.0
 11
29.17900172474261
 21
85.83658796878802
 31
0.0
  0
LINE
  5
1D9
330
52
100
AcDbEntity
  8
0
  6
Continuous
 62
     7
100
AcDbLine
 10
29.17900172474261
 20
85.83658796878802
 30
0.0
 11
29.17900172474261
 21
80.18658796878805
 31
0.0
  0
LINE
  5
1DA
330
52
100
AcDbEntity
  8
0
  6
Continuous
 62
     7
100
AcDbLine
 10
32.21009063798821
 20
84.96158796878802
 30
0.0
 11
31.46009063798821
 21
84.31206891594971
 31
0.0
  0
LINE
  5
1DB
330
52
100
AcDbEntity
  8
0
  6
Continuous
 62
     7
100
AcDbLine
 10
31.46009063798821
 20
84.31206891594971
 30
0.0
 11
31.46009063798821
 21
82.1620689159497
 31
0.0
  0
LINE
  5
1DC
330
52
100
AcDbEntity
  8
0
  6
Continuous
 62
     7
100
AcDbLine
 10
33.3220452561247
 20
83.7745689159497
 30
0.0
 11
31.46009063798821
 21
84.31206891594971
 31
0.0
  0
LINE
  5
1DD
330
52
100
AcDbEntity
  8
0
  6
Continuous
 62
     7
100
AcDbLine
 10
28.9970452561247
 20
80.02900904458201
 30
0.0
 11
33.3220452561247
 21
83.7745689159497
 31
0.0
  0
LINE
  5
1DE
330
52
100
AcDbEntity
  8
0
  6
Continuous
 62
     7
100
AcDbLine
 10
26.5670471066061
 20
85.7245689159497
 30
0.0
 11
22.2420471066061
 21
81.97900904458201
 31
0.0
  0
LINE
  5
1DF
330
52
100
AcDbEntity
  8
0
  6
Continuous
 62
     7
100
AcDbLine
 10
13.92500000000009
 20
84.3799337375129
 30
0.0
 11
19.00000000000011
 21
88.77501266171893
 31
0.0
  0
LINE
  5
1E0
330
52
100
AcDbEntity
  8
0
  6
Continuous
 62
     7
100
AcDbLine
 10
13.92019455547692
 20
49.76847114937542
 30
0.0
 11
10.74580178006946
 21
47.01936636428277
 31
0.0
  0
LINE
  5
1E1
330
52
100
AcDbEntity
  8
0
  6
Continuous
 62
     7
100
AcDbLine
 10
13.92500000000009
 20
84.3799337375129
 30
0.0
 11
22.2420471066061
 21
81.97900904458201
 31
0.0
  0
LINE
  5
1E2
330
52
100
AcDbEntity
  8
0
  6
Continuous
 62
     7
100
AcDbLine
 10
13.18366754331428
 20
79.66394555401398
 30
0.0
 11
12.00547717384861
 21
81.6093411865275
 31
0.0
  0
LINE
  5
1E3
330
52
100
AcDbEntity
  8
0
  6
Continuous
 62
     7
100
AcDbLine
 10
9.85788383248862
 20
47.44889127806669
 30
0.0
 11
10.74580178006946
 21
47.01936636428277
 31
0.0
  0
LINE
  5
1E4
330
52
100
AcDbEntity
  8
0
  6
Continuous
 62
     7
100
AcDbLine
 10
22.2420471066061
 20
70.37426863387053
 30
0.0
 11
22.2420471066061
 21
81.97900904458201
 31
0.0
  0
LINE
  5
1E5
330
52
100
AcDbEntity
  8
0
  6
Continuous
 62
     7
100
AcDbLine
 10
20.15737549254781
 20
49.03440923612478
 30
0.0
 11
19.05940374769831
 21
48.08353781244757
 31
0.0
  0
LINE
  5
1E6
330
52
100
AcDbEntity
  8
0
  6
Continuous
 62
     7
100
AcDbLine
 10
12.00547717384861
 20
81.6093411865275
 30
0.0
 11
13.92500000000009
 21
84.3799337375129
 31
0.0
  0
LINE
  5
1E7
330
52
100
AcDbEntity
  8
0
  6
Continuous
 62
     7
100
AcDbLine
 10
9.53877237988399
 20
43.12428126029742
 30
0.0
 11
14.61377237988399
 21
47.51936018450344
 31
0.0
  0
LINE
  5
1E8
330
52
100
AcDbEntity
  8
0
  6
Continuous
 62
     7
100
AcDbLine
 10
8.9227260564269
 20
77.15977321780744
 30
0.0
 11
12.71254399922125
 21
80.44185183198545
 31
0.0
  0
LINE
  5
1E9
330
52
100
AcDbEntity
  8
0
  6
Continuous
 62
     7
100
AcDbLine
 10
7.8929999954538
 20
54.03645918357194
 30
0.0
 11
6.99999999999998
 21
57.626967431645
 31
0.0
  0
LINE
  5
1EA
330
52
100
AcDbEntity
  8
0
  6
Continuous
 62
     7
100
AcDbLine
 10
7.00000000000005
 20
74.38455720216763
 30
0.0
 11
8.9227260564269
 21
77.15977321780744
 31
0.0
  0
LINE
  5
1EB
330
52
100
AcDbEntity
  8
0
  6
Continuous
 62
     7
100
AcDbLine
 10
8.9227260564269
 20
77.15977321780744
 30
0.0
 11
10.90203568696133
 21
76.3706936378714
 31
0.0
  0
LINE
  5
1EC
330
52
100
AcDbEntity
  8
0
  6
Continuous
 62
     7
100
AcDbLine
 10
9.67463945888932
 20
48.54101985682054
 30
0.0
 11
9.85788383248862
 21
47.44889127806669
 31
0.0
  0
LINE
  5
1ED
330
52
100
AcDbEntity
  8
0
  6
Continuous
 62
     2
100
AcDbLine
 10
10.40722684644792
 20
53.74219886776733
 30
0.0
 11
9.61972684644793
 21
53.06020386228708
 31
0.0
  0
LINE
  5
1EE
330
52
100
AcDbEntity
  8
0
  6
Continuous
 62
     7
100
AcDbLine
 10
9.69773069399282
 20
53.58460742760175
 30
0.0
 11
8.96507317573994
 21
52.95010740452109
 31
0.0
  0
LINE
  5
1EF
330
52
100
AcDbEntity
  8
0
  6
Continuous
 62
     7
100
AcDbLine
 10
9.35942427542184
 20
53.61313895717906
 30
0.0
 11
7.8929999954538
 21
54.03645918357194
 31
0.0
  0
LINE
  5
1F0
330
52
100
AcDbEntity
  8
0
  6
Continuous
 62
     7
100
AcDbLine
 10
6.99999999999998
 20
57.626967431645
 30
0.0
 11
7.00000000000005
 21
74.38455720216763
 31
0.0
  0
LINE
  5
1F1
330
52
100
AcDbEntity
  8
0
  6
Continuous
 62
     7
100
AcDbLine
 10
9.61972684644793
 20
53.06020386228708
 30
0.0
 11
12.71576766497727
 21
52.16645386228709
 31
0.0
  0
LINE
  5
1F2
330
52
100
AcDbEntity
  8
0
  6
Continuous
 62
     7
100
AcDbLine
 10
7.49796460717604
 20
44.62273839273967
 30
0.0
 11
7.49796460717605
 21
45.15573779962498
 31
0.0
  0
LINE
  5
1F3
330
52
100
AcDbEntity
  8
0
  6
Continuous
 62
     7
100
AcDbLine
 10
8.75370144266355
 20
44.26023839273965
 30
0.0
 11
8.75370144266348
 21
52.44417845850263
 31
0.0
  0
LINE
  5
1F4
330
52
100
AcDbEntity
  8
0
  6
Continuous
 62
     7
100
AcDbLine
 10
7.59651232553791
 20
46.101622263637
 30
0.0
 11
7.55171790810062
 21
46.1615874364286
 31
0.0
  0
LINE
  5
1F5
330
52
100
AcDbEntity
  8
0
  6
Continuous
 62
     2
100
AcDbLine
 10
7.02165063509461
 20
46.44898793011933
 30
0.0
 11
8.75370144266348
 21
47.94898793011933
 31
0.0
  0
LINE
  5
1F6
330
52
100
AcDbEntity
  8
0
  6
Continuous
 62
     2
100
AcDbLine
 10
7.59651232553791
 20
46.101622263637
 30
0.0
 11
8.75370144266348
 21
47.10377743605064
 31
0.0
  0
LINE
  5
1F7
330
52
100
AcDbEntity
  8
0
  6
Continuous
 62
     2
100
AcDbLine
 10
7.2381569860407
 20
46.38648793011933
 30
0.0
 11
8.75370144266348
 21
47.69898793011935
 31
0.0
  0
LINE
  5
1F8
330
52
100
AcDbEntity
  8
0
  6
Continuous
 62
     7
100
AcDbLine
 10
7.2381569860407
 20
46.38648793011933
 30
0.0
 11
7.02165063509461
 21
46.44898793011933
 31
0.0
  0
LINE
  5
1F9
330
52
100
AcDbEntity
  8
0
  6
Continuous
 62
     2
100
AcDbLine
 10
7.55171790810062
 20
46.1615874364286
 30
0.0
 11
8.75370144266348
 21
47.20253571229061
 31
0.0
  0
LINE
  5
1FA
330
52
100
AcDbEntity
  8
0
  6
Continuous
 62
     7
100
AcDbLine
 10
8.75370144266355
 20
44.26023839273965
 30
0.0
 11
7.49796460717604
 21
44.62273839273967
 31
0.0
  0
LINE
  5
1FB
330
52
100
AcDbEntity
  8
0
  6
Continuous
 62
     7
100
AcDbLine
 10
8.75370144266348
 20
48.17741305599327
 30
0.0
 11
6.69432379974062
 21
46.39393970123635
 31
0.0
  0
LINE
  5
1FC
330
52
100
AcDbEntity
  8
0
  6
Continuous
 62
     7
100
AcDbLine
 10
13.98019455547691
 20
49.6472275928456
 30
0.0
 11
10.74580178006951
 21
46.84616128352588
 31
0.0
  0
LINE
  5
1FD
330
52
100
AcDbEntity
  8
0
  6
Continuous
 62
     7
100
AcDbLine
 10
13.13378776835756
 20
50.28590730688662
 30
0.0
 11
9.85788383248862
 21
47.44889127806669
 31
0.0
  0
LINE
  5
1FE
330
52
100
AcDbEntity
  8
0
  6
Continuous
 62
     7
100
AcDbLine
 10
37.02433807785901
 20
72.71433703791358
 30
0.0
 11
39.76314341732731
 21
67.17996203791357
 31
0.0
  0
LINE
  5
1FF
330
52
100
AcDbEntity
  8
0
  6
Continuous
 62
     7
100
AcDbLine
 10
9.96613700796167
 20
50.43629462601403
 30
0.0
 11
10.65895733098923
 21
49.03629462601404
 31
0.0
  0
LINE
  5
200
330
52
100
AcDbEntity
  8
0
  6
Continuous
 62
     7
100
AcDbLine
 10
10.65895733098923
 20
49.03629462601404
 30
0.0
 11
10.65895733098923
 21
48.43043356105276
 31
0.0
  0
LINE
  5
201
330
52
100
AcDbEntity
  8
0
  6
Continuous
 62
     7
100
AcDbLine
 10
44.23909236273091
 20
46.87696743164489
 30
0.0
 11
43.29957638194751
 21
36.40946553421819
 31
0.0
  0
LINE
  5
202
330
52
100
AcDbEntity
  8
0
  6
Continuous
 62
     7
100
AcDbLine
 10
20.2934899480911
 20
47.00474361280518
 30
0.0
 11
19.57542475746021
 21
46.38288091614549
 31
0.0
  0
LINE
  5
203
330
52
100
AcDbEntity
  8
0
  6
Continuous
 62
     2
100
AcDbLine
 10
20.2934899480911
 20
46.68494843658169
 30
0.0
 11
20.03368232695581
 21
46.45994843658168
 31
0.0
  0
LINE
  5
204
330
52
100
AcDbEntity
  8
0
  6
Continuous
 62
     7
100
AcDbLine
 10
40.168772964944
 20
39.73812176260801
 30
0.0
 11
36.63971944452251
 21
40.75687176260799
 31
0.0
  0
LINE
  5
205
330
52
100
AcDbEntity
  8
0
  6
Continuous
 62
     7
100
AcDbLine
 10
36.63971944452251
 20
40.75687176260799
 30
0.0
 11
36.18505610753561
 21
42.93897554305812
 31
0.0
  0
LINE
  5
206
330
52
100
AcDbEntity
  8
0
  6
Continuous
 62
     7
100
AcDbLine
 10
19.34468922023921
 20
49.06588286844769
 30
0.0
 11
19.05940374769831
 21
48.08353781244757
 31
0.0
  0
LINE
  5
207
330
52
100
AcDbEntity
  8
0
  6
Continuous
 62
     7
100
AcDbLine
 10
40.168772964944
 20
38.6988912780667
 30
0.0
 11
40.168772964944
 21
39.73812176260801
 31
0.0
  0
LINE
  5
208
330
52
100
AcDbEntity
  8
0
  6
Continuous
 62
     7
100
AcDbLine
 10
39.4759526419164
 20
38.72568619730981
 30
0.0
 11
40.168772964944
 21
38.6988912780667
 31
0.0
  0
LINE
  5
209
330
52
100
AcDbEntity
  8
0
  6
Continuous
 62
     7
100
AcDbLine
 10
49.31409236273081
 20
51.27204635585092
 30
0.0
 11
48.3745763819475
 21
40.80454445842421
 31
0.0
  0
LINE
  5
20A
330
52
100
AcDbEntity
  8
0
  6
Continuous
 62
     7
100
AcDbLine
 10
48.9058226610535
 20
50.83350032888139
 30
0.0
 11
44.63082266105351
 21
47.13124172770291
 31
0.0
  0
LINE
  5
20B
330
52
100
AcDbEntity
  8
0
  6
Continuous
 62
     7
100
AcDbLine
 10
9.53877237988399
 20
43.12428126029742
 30
0.0
 11
6.58863793320238
 21
43.97591171876603
 31
0.0
  0
LINE
  5
20C
330
52
100
AcDbEntity
  8
0
  6
Continuous
 62
     7
100
AcDbLine
 10
10.74580178006946
 20
47.01936636428277
 30
0.0
 11
10.74580178006951
 21
46.84616128352588
 31
0.0
  0
LINE
  5
20D
330
52
100
AcDbEntity
  8
0
  6
Continuous
 62
     7
100
AcDbLine
 10
6.58863793320238
 20
43.97591171876603
 30
0.0
 11
6.5886379332024
 21
46.14097522822713
 31
0.0
  0
LINE
  5
20E
330
52
100
AcDbEntity
  8
0
  6
Continuous
 62
     7
100
AcDbLine
 10
8.75370144266348
 20
46.29647971508041
 30
0.0
 11
7.61509630848499
 21
45.31041874400244
 31
0.0
  0
LINE
  5
20F
330
52
100
AcDbEntity
  8
0
  6
Continuous
 62
     2
100
AcDbLine
 10
7.49796460717605
 20
45.15573779962498
 30
0.0
 11
8.75370144266348
 21
46.24323779962499
 31
0.0
  0
LINE
  5
210
330
52
100
AcDbEntity
  8
0
  6
Continuous
 62
     7
100
AcDbLine
 10
7.49796460717604
 20
44.62273839273967
 30
0.0
 11
8.75370144266348
 21
45.71023839273967
 31
0.0
  0
LINE
  5
211
330
52
100
AcDbEntity
  8
0
  6
Continuous
 62
     7
100
AcDbLine
 10
28.9970452561247
 20
80.02900904458201
 30
0.0
 11
37.31409236273081
 21
77.6280843516511
 31
0.0
  0
LINE
  5
212
330
52
100
AcDbEntity
  8
0
  6
Continuous
 62
     7
100
AcDbLine
 10
28.9970452561247
 20
68.42426863387053
 30
0.0
 11
22.2420471066061
 21
70.37426863387053
 31
0.0
  0
LINE
  5
213
330
52
100
AcDbEntity
  8
0
  6
Continuous
 62
     7
100
AcDbLine
 10
38.05542481941651
 20
72.48408767472571
 30
0.0
 11
37.8268380778589
 21
72.94599883342595
 31
0.0
  0
LINE
  5
214
330
52
100
AcDbEntity
  8
0
  6
Continuous
 62
     7
100
AcDbLine
 10
37.8268380778589
 20
72.94599883342595
 30
0.0
 11
37.02433807785901
 21
72.71433703791358
 31
0.0
  0
LINE
  5
215
330
52
100
AcDbEntity
  8
0
  6
Continuous
 62
     7
100
AcDbLine
 10
34.88601800185891
 20
43.53697357934977
 30
0.0
 11
35.9468991214948
 21
38.44539809163317
 31
0.0
  0
LINE
  5
216
330
52
100
AcDbEntity
  8
0
  6
Continuous
 62
     7
100
AcDbLine
 10
36.20670674263021
 20
35.42591171876603
 30
0.0
 11
33.65193180146611
 21
36.16341171876603
 31
0.0
  0
LINE
  5
217
330
52
100
AcDbEntity
  8
0
  6
Continuous
 62
     7
100
AcDbLine
 10
33.65193180146611
 20
36.16341171876603
 30
0.0
 11
33.65193180146611
 21
37.59235363501039
 31
0.0
  0
LINE
  5
218
330
52
100
AcDbEntity
  8
0
  6
Continuous
 62
     7
100
AcDbLine
 10
33.65193180146611
 20
37.59235363501039
 30
0.0
 11
33.09767554304401
 21
37.75235363501041
 31
0.0
  0
LINE
  5
219
330
52
100
AcDbEntity
  8
0
  6
Continuous
 62
     7
100
AcDbLine
 10
20.2934899480911
 20
46.64475605771702
 30
0.0
 11
20.2934899480911
 21
48.67991575661042
 31
0.0
  0
LINE
  5
21A
330
52
100
AcDbEntity
  8
0
  6
Continuous
 62
     7
100
AcDbLine
 10
19.8604772461989
 20
49.23792845850264
 30
0.0
 11
19.76294737210811
 21
49.26608290803282
 31
0.0
  0
LINE
  5
21B
330
52
100
AcDbEntity
  8
0
  6
Continuous
 62
     7
100
AcDbLine
 10
35.21077752827811
 20
38.22488538974094
 30
0.0
 11
35.21077752827811
 21
36.92584728406428
 31
0.0
  0
LINE
  5
21C
330
52
100
AcDbEntity
  8
0
  6
Continuous
 62
     7
100
AcDbLine
 10
35.9468991214948
 20
38.01238538974094
 30
0.0
 11
35.21077752827811
 21
38.22488538974094
 31
0.0
  0
LINE
  5
21D
330
52
100
AcDbEntity
  8
0
  6
Continuous
 62
     7
100
AcDbLine
 10
35.9468991214948
 20
38.44539809163317
 30
0.0
 11
35.9468991214948
 21
38.01238538974094
 31
0.0
  0
LINE
  5
21E
330
52
100
AcDbEntity
  8
0
  6
Continuous
 62
     7
100
AcDbLine
 10
35.21077752827811
 20
36.92584728406428
 30
0.0
 11
36.20670674263021
 21
36.53009410859122
 31
0.0
  0
LINE
  5
21F
330
52
100
AcDbEntity
  8
0
  6
Continuous
 62
     7
100
AcDbLine
 10
34.88601800185891
 20
44.46741575661042
 30
0.0
 11
34.88601800185891
 21
43.53697357934977
 31
0.0
  0
LINE
  5
220
330
52
100
AcDbEntity
  8
0
  6
Continuous
 62
     7
100
AcDbLine
 10
35.7520434056433
 20
44.65042845850265
 30
0.0
 11
35.3190307037511
 21
44.77542845850265
 31
0.0
  0
LINE
  5
221
330
52
100
AcDbEntity
  8
0
  6
Continuous
 62
     7
100
AcDbLine
 10
36.18505610753561
 20
42.93897554305812
 30
0.0
 11
36.18505610753561
 21
44.09241575661042
 31
0.0
  0
LINE
  5
222
330
52
100
AcDbEntity
  8
0
  6
Continuous
 62
     7
100
AcDbLine
 10
36.20670674263021
 20
36.53009410859122
 30
0.0
 11
36.20670674263021
 21
35.42591171876603
 31
0.0
  0
LINE
  5
223
330
52
100
AcDbEntity
  8
0
  6
Continuous
 62
     7
100
AcDbLine
 10
37.31409236273081
 20
77.6280843516511
 30
0.0
 11
39.23361518888211
 21
73.74925478027146
 31
0.0
  0
LINE
  5
224
330
52
100
AcDbEntity
  8
0
  6
Continuous
 62
     7
100
AcDbLine
 10
38.1218991214948
 20
40.3290033448643
 30
0.0
 11
35.9468991214948
 21
38.44539809163317
 31
0.0
  0
LINE
  5
225
330
52
100
AcDbEntity
  8
0
  6
Continuous
 62
     7
100
AcDbLine
 10
38.88577752827801
 20
40.10849064297209
 30
0.0
 11
35.21077752827811
 21
36.92584728406428
 31
0.0
  0
LINE
  5
226
330
52
100
AcDbEntity
  8
0
  6
Continuous
 62
     7
100
AcDbLine
 10
28.9970452561247
 20
79.61683121809094
 30
0.0
 11
28.42900172474261
 21
79.12489108945863
 31
0.0
  0
LINE
  5
227
330
52
100
AcDbEntity
  8
0
  6
Continuous
 62
     7
100
AcDbLine
 10
43.29957638194751
 20
36.40946553421819
 30
0.0
 11
48.3745763819475
 21
40.80454445842421
 31
0.0
  0
LINE
  5
228
330
52
100
AcDbEntity
  8
0
  6
Continuous
 62
     7
100
AcDbLine
 10
36.20670674263021
 20
35.42591171876603
 30
0.0
 11
39.5125299042492
 21
38.28883855714708
 31
0.0
  0
LINE
  5
229
330
52
100
AcDbEntity
  8
0
  6
Continuous
 62
     7
100
AcDbLine
 10
39.97545674263021
 20
39.79392734910381
 30
0.0
 11
36.20670674263021
 21
36.53009410859122
 31
0.0
  0
LINE
  5
22A
330
52
100
AcDbEntity
  8
0
  6
Continuous
 62
     7
100
AcDbLine
 10
38.4968991214948
 20
40.22075016939124
 30
0.0
 11
35.9468991214948
 21
38.01238538974094
 31
0.0
  0
LINE
  5
22B
330
52
100
AcDbEntity
  8
0
  6
Continuous
 62
     7
100
AcDbLine
 10
39.4759526419164
 20
38.33597476560684
 30
0.0
 11
39.4759526419164
 21
38.72568619730981
 31
0.0
  0
LINE
  5
22C
330
52
100
AcDbEntity
  8
0
  6
Continuous
 62
     7
100
AcDbLine
 10
40.2986767755116
 20
37.27575063201157
 30
0.0
 11
39.4759526419164
 21
38.33597476560684
 31
0.0
  0
LINE
  5
22D
330
52
100
AcDbEntity
  8
0
  6
Continuous
 62
     7
100
AcDbLine
 10
40.168772964944
 20
39.32568619730979
 30
0.0
 11
39.4759526419164
 21
38.72568619730981
 31
0.0
  0
LINE
  5
22E
330
52
100
AcDbEntity
  8
0
  6
Continuous
 62
     7
100
AcDbLine
 10
43.29957638194751
 20
36.40946553421819
 30
0.0
 11
40.2986767755116
 21
37.27575063201157
 31
0.0
  0
LINE
  5
22F
330
52
100
AcDbEntity
  8
0
  6
Continuous
 62
     7
100
AcDbLine
 10
42.31636630630391
 20
67.51985962406344
 30
0.0
 11
47.3913663063039
 21
71.91493854826946
 31
0.0
  0
LINE
  5
230
330
52
100
AcDbEntity
  8
0
  6
Continuous
 62
     7
100
AcDbLine
 10
44.23909236273071
 20
63.63455720216767
 30
0.0
 11
49.31409236273081
 21
68.02963612637369
 31
0.0
  0
LINE
  5
231
330
52
100
AcDbEntity
  8
0
  6
Continuous
 62
     7
100
AcDbLine
 10
40.33705667576951
 20
67.87353499212605
 30
0.0
 11
42.31636630630391
 21
67.51985962406344
 31
0.0
  0
LINE
  5
232
330
52
100
AcDbEntity
  8
0
  6
Continuous
 62
     7
100
AcDbLine
 10
13.78645640574856
 20
50.03871929798848
 30
0.0
 11
9.96613700796167
 21
51.48560534581327
 31
0.0
  0
LINE
  5
233
330
52
100
AcDbEntity
  8
0
  6
Continuous
 62
     7
100
AcDbLine
 10
9.96613700796167
 20
51.48560534581327
 30
0.0
 11
9.96613700796167
 21
50.43629462601403
 31
0.0
  0
LINE
  5
234
330
52
100
AcDbEntity
  8
0
  6
Continuous
 62
     7
100
AcDbLine
 10
14.03645640574855
 20
49.53353781244756
 30
0.0
 11
13.78645640574856
 21
50.03871929798848
 31
0.0
  0
LINE
  5
235
330
52
100
AcDbEntity
  8
0
  6
Continuous
 62
     7
100
AcDbLine
 10
40.4051434173272
 20
67.7359503471431
 30
0.0
 11
39.76314341732731
 21
67.17996203791357
 31
0.0
  0
LINE
  5
236
330
52
100
AcDbEntity
  8
0
  6
Continuous
 62
     7
100
AcDbLine
 10
40.5656434173272
 20
67.41162383342588
 30
0.0
 11
40.33705667576951
 21
67.87353499212605
 31
0.0
  0
LINE
  5
237
330
52
100
AcDbEntity
  8
0
  6
Continuous
 62
     7
100
AcDbLine
 10
49.31409236273081
 20
68.02963612637369
 30
0.0
 11
49.31409236273081
 21
51.27204635585092
 31
0.0
  0
LINE
  5
238
330
52
100
AcDbEntity
  8
0
  6
Continuous
 62
     7
100
AcDbLine
 10
44.6390923627307
 20
63.09366138403397
 30
0.0
 11
48.91409236273069
 21
66.79591998521244
 31
0.0
  0
LINE
  5
239
330
52
100
AcDbEntity
  8
0
  6
Continuous
 62
     7
100
AcDbLine
 10
48.91409236273081
 20
50.92563619433705
 30
0.0
 11
48.91409236273069
 21
66.79591998521244
 31
0.0
  0
LINE
  5
23A
330
52
100
AcDbEntity
  8
0
  6
Continuous
 62
     7
100
AcDbLine
 10
48.91409236273081
 20
50.92563619433705
 30
0.0
 11
49.31409236273081
 21
51.27204635585092
 31
0.0
  0
LINE
  5
23B
330
52
100
AcDbEntity
  8
0
  6
Continuous
 62
     7
100
AcDbLine
 10
48.9058226610535
 20
50.83350032888139
 30
0.0
 11
44.86270246482791
 21
54.33494512936662
 31
0.0
  0
LINE
  5
23C
330
52
100
AcDbEntity
  8
0
  6
Continuous
 62
     7
100
AcDbLine
 10
48.9058226610535
 20
50.83350032888139
 30
0.0
 11
48.91409236273081
 21
50.92563619433705
 31
0.0
  0
LINE
  5
23D
330
52
100
AcDbEntity
  8
0
  6
Continuous
 62
     7
100
AcDbLine
 10
44.86270246482791
 20
54.33494512936662
 30
0.0
 11
44.6390923627308
 21
54.40219977322707
 31
0.0
  0
LINE
  5
23E
330
52
100
AcDbEntity
  8
0
  6
Continuous
 62
     7
100
AcDbLine
 10
44.86270246482791
 20
54.33494512936662
 30
0.0
 11
44.86270246482791
 21
63.28731341299296
 31
0.0
  0
LINE
  5
23F
330
52
100
AcDbEntity
  8
0
  6
Continuous
 62
     7
100
AcDbLine
 10
47.3913663063039
 20
71.91493854826946
 30
0.0
 11
49.31409236273081
 21
68.02963612637369
 31
0.0
  0
LINE
  5
240
330
52
100
AcDbEntity
  8
0
  6
Continuous
 62
     7
100
AcDbLine
 10
45.41205667576961
 20
72.26861391633209
 30
0.0
 11
47.3913663063039
 21
71.91493854826946
 31
0.0
  0
LINE
  5
241
330
52
100
AcDbEntity
  8
0
  6
Continuous
 62
     7
100
AcDbLine
 10
40.33705667576951
 20
67.87353499212605
 30
0.0
 11
45.41205667576961
 21
72.26861391633209
 31
0.0
  0
LINE
  5
242
330
52
100
AcDbEntity
  8
0
  6
Continuous
 62
     7
100
AcDbLine
 10
32.21009063798821
 20
84.96158796878802
 30
0.0
 11
42.3890923627308
 21
82.02316327585713
 31
0.0
  0
LINE
  5
243
330
52
100
AcDbEntity
  8
0
  6
Continuous
 62
     7
100
AcDbLine
 10
39.23361518888211
 20
73.74925478027146
 30
0.0
 11
44.30861518888221
 21
78.14433370447748
 31
0.0
  0
LINE
  5
244
330
52
100
AcDbEntity
  8
0
  6
Continuous
 62
     7
100
AcDbLine
 10
22.2420471066061
 20
70.37426863387053
 30
0.0
 11
26.5670471066061
 21
74.11982850523823
 31
0.0
  0
LINE
  5
245
330
52
100
AcDbEntity
  8
0
  6
Continuous
 62
     7
100
AcDbLine
 10
38.05542481941651
 20
72.48408767472571
 30
0.0
 11
43.13042481941651
 21
76.87916659893175
 31
0.0
  0
LINE
  5
246
330
52
100
AcDbEntity
  8
0
  6
Continuous
 62
     7
100
AcDbLine
 10
44.23909236273071
 20
63.63455720216767
 30
0.0
 11
44.23909236273091
 21
46.87696743164489
 31
0.0
  0
LINE
  5
247
330
52
100
AcDbEntity
  8
0
  6
Continuous
 62
     7
100
AcDbLine
 10
34.88601800185891
 20
43.53697357934977
 30
0.0
 11
35.9995227486477
 21
44.50129697730346
 31
0.0
  0
LINE
  5
248
330
52
100
AcDbEntity
  8
0
  6
Continuous
 62
     2
100
AcDbLine
 10
35.25717174633791
 20
44.78884432803899
 30
0.0
 11
34.88601800185891
 21
44.46741575661042
 31
0.0
  0
LINE
  5
249
330
52
100
AcDbEntity
  8
0
  6
Continuous
 62
     7
100
AcDbLine
 10
22.1818199420316
 20
44.66280468763769
 30
0.0
 11
20.9017615778881
 21
43.55424162596271
 31
0.0
  0
LINE
  5
24A
330
52
100
AcDbEntity
  8
0
  6
Continuous
 62
     2
100
AcDbLine
 10
22.0055080380183
 20
44.68394034986632
 30
0.0
 11
20.98378408172891
 21
43.79910144806459
 31
0.0
  0
LINE
  5
24B
330
52
100
AcDbEntity
  8
0
  6
Continuous
 62
     7
100
AcDbLine
 10
39.76314341732731
 20
67.17996203791357
 30
0.0
 11
40.5656434173272
 21
67.41162383342588
 31
0.0
  0
LINE
  5
24C
330
52
100
AcDbEntity
  8
0
  6
Continuous
 62
     7
100
AcDbLine
 10
42.31636630630391
 20
67.51985962406344
 30
0.0
 11
44.23909236273071
 21
63.63455720216767
 31
0.0
  0
LINE
  5
24D
330
52
100
AcDbEntity
  8
0
  6
Continuous
 62
     7
100
AcDbLine
 10
39.23361518888211
 20
73.74925478027146
 30
0.0
 11
38.05542481941651
 21
72.48408767472571
 31
0.0
  0
LINE
  5
24E
330
52
100
AcDbEntity
  8
0
  6
Continuous
 62
     7
100
AcDbLine
 10
42.4884248194166
 20
76.32317828970223
 30
0.0
 11
44.7700566757695
 21
71.71262560710247
 31
0.0
  0
LINE
  5
24F
330
52
100
AcDbEntity
  8
0
  6
Continuous
 62
     7
100
AcDbLine
 10
26.5670471066061
 20
74.11982850523823
 30
0.0
 11
28.9970452561247
 21
73.4183484623608
 31
0.0
  0
LINE
  5
250
330
52
100
AcDbEntity
  8
0
  6
Continuous
 62
     7
100
AcDbLine
 10
44.23909236273091
 20
46.87696743164489
 30
0.0
 11
44.6390923627308
 21
47.22337759315858
 31
0.0
  0
LINE
  5
251
330
52
100
AcDbEntity
  8
0
  6
Continuous
 62
     7
100
AcDbLine
 10
44.63082266105351
 20
47.13124172770291
 30
0.0
 11
44.6390923627308
 21
47.22337759315858
 31
0.0
  0
LINE
  5
252
330
52
100
AcDbEntity
  8
0
  6
Continuous
 62
     7
100
AcDbLine
 10
44.6390923627308
 20
47.22337759315858
 30
0.0
 11
44.6390923627307
 21
63.09366138403397
 31
0.0
  0
LINE
  5
253
330
52
100
AcDbEntity
  8
0
  6
Continuous
 62
     7
100
AcDbLine
 10
44.30861518888221
 20
78.14433370447748
 30
0.0
 11
43.13042481941651
 21
76.87916659893175
 31
0.0
  0
LINE
  5
254
330
52
100
AcDbEntity
  8
0
  6
Continuous
 62
     7
100
AcDbLine
 10
42.3890923627308
 20
82.02316327585713
 30
0.0
 11
44.30861518888221
 21
78.14433370447748
 31
0.0
  0
LINE
  5
255
330
52
100
AcDbEntity
  8
0
  6
Continuous
 62
     7
100
AcDbLine
 10
37.31409236273081
 20
77.6280843516511
 30
0.0
 11
42.3890923627308
 21
82.02316327585713
 31
0.0
  0
SPLINE
  5
256
330
52
100
AcDbEntity
  8
0
  6
Continuous
 62
     7
100
AcDbSpline
210
0.0
220
0.0
230
1.0
 70
     8
 71
     3
 72
    15
 73
    11
 74
     9
 42
0.000000001
 43
0.0000000001
 44
0.00000001
 40
0.0
 40
0.0
 40
0.0
 40
0.0
 40
0.1129385421857293
 40
0.2322801150809071
 40
0.3616824440741343
 40
0.50121137188376
 40
0.6480042193304585
 40
0.7974169697409845
 40
0.9442165363784857
 40
1.083757557814003
 40
1.083757557814003
 40
1.083757557814003
 40
1.083757557814003
 10
13.05946084209898
 20
52.22425450261423
 30
0.0
 10
13.08521686855025
 20
52.25231219503817
 30
0.0
 10
13.13818914383922
 20
52.31001831405057
 30
0.0
 10
13.17232802676646
 20
52.42959489328824
 30
0.0
 10
13.17126018437394
 20
52.56011720399844
 30
0.0
 10
13.13342071373068
 20
52.69503173763496
 30
0.0
 10
13.06323183530711
 20
52.82357028931688
 30
0.0
 10
12.96565395977631
 20
52.9354538269357
 30
0.0
 10
12.84927873545572
 20
53.02559203565706
 30
0.0
 10
12.75951285507341
 20
53.05933617098072
 30
0.0
 10
12.71576766497727
 20
53.07578053626079
 30
0.0
 11
13.05946084209898
 21
52.22425450261423
 31
0.0
 11
13.1293890602718
 21
52.3129402388199
 31
0.0
 11
13.16581646985424
 21
52.42658642794601
 31
0.0
 11
13.16579189722581
 21
52.55598875760414
 31
0.0
 11
13.12931810838878
 21
52.69066609354336
 31
0.0
 11
13.05934854477539
 21
52.81971027363544
 31
0.0
 11
12.96155102685312
 21
52.93266962676438
 31
0.0
 11
12.84384613302464
 21
53.02039459770729
 31
0.0
 11
12.71576766497727
 21
53.07578053626079
 31
0.0
  0
SPLINE
  5
257
330
52
100
AcDbEntity
  8
0
  6
Continuous
 62
     7
100
AcDbSpline
210
0.0
220
0.0
230
1.0
 70
     8
 71
     3
 72
    11
 73
     7
 74
     5
 42
0.000000001
 43
0.0000000001
 44
0.00000001
 40
0.0
 40
0.0
 40
0.0
 40
0.0
 40
0.0982491249895991
 40
0.1905940433496374
 40
0.2780075494674208
 40
0.3625878635464228
 40
0.3625878635464228
 40
0.3625878635464228
 40
0.3625878635464228
 10
12.71576766497727
 20
52.16645386228709
 30
0.0
 10
12.74782448760237
 20
52.15906144195338
 30
0.0
 10
12.8100117047345
 20
52.1447208575678
 30
0.0
 10
12.90349559421291
 20
52.1494180214372
 30
0.0
 10
12.98984469177835
 20
52.17353086632043
 30
0.0
 10
13.03651170415805
 20
52.20753332314116
 30
0.0
 10
13.05946084209898
 20
52.22425450261423
 30
0.0
 11
12.71576766497727
 21
52.16645386228709
 31
0.0
 11
12.81244372817643
 21
52.14894302459237
 31
0.0
 11
12.90469828916025
 21
52.15302718249733
 31
0.0
 11
12.98831200499088
 21
52.17851969264915
 31
0.0
 11
13.05946084209898
 21
52.22425450261423
 31
0.0
  0
SPLINE
  5
258
330
52
100
AcDbEntity
  8
0
  6
Continuous
 62
     7
100
AcDbSpline
210
0.0
220
0.0
230
1.0
 70
     8
 71
     3
 72
     9
 73
     5
 74
     3
 42
0.000000001
 43
0.0000000001
 44
0.00000001
 40
0.0
 40
0.0
 40
0.0
 40
0.0
 40
0.1053579233047697
 40
0.2134431121004221
 40
0.2134431121004221
 40
0.2134431121004221
 40
0.2134431121004221
 10
9.894210748532835
 20
53.68159017769296
 30
0.0
 10
9.919417181968358
 20
53.70649345988547
 30
0.0
 10
9.970482520034164
 20
53.75694467593559
 30
0.0
 10
10.00042858803754
 20
53.82220615666208
 30
0.0
 10
10.01559293119765
 20
53.8552538409641
 30
0.0
 11
9.894210748532835
 21
53.68159017769296
 31
0.0
 11
9.964684287816299
 21
53.75990858241757
 31
0.0
 11
10.01559293119765
 21
53.8552538409641
 31
0.0
  0
SPLINE
  5
259
330
52
100
AcDbEntity
  8
0
  6
Continuous
 62
     7
100
AcDbSpline
210
0.0
220
0.0
230
1.0
 70
     8
 71
     3
 72
     9
 73
     5
 74
     3
 42
0.000000001
 43
0.0000000001
 44
0.00000001
 40
0.0
 40
0.0
 40
0.0
 40
0.0
 40
0.8971193494258628
 40
1.81651109103541
 40
1.81651109103541
 40
1.81651109103541
 40
1.81651109103541
 10
14.61377237988399
 20
47.51936018450344
 30
0.0
 10
14.78255902973026
 20
47.76754521524648
 30
0.0
 10
15.12432270496679
 20
48.27007686853868
 30
0.0
 10
15.34147922563722
 20
48.83776016508422
 30
0.0
 10
15.45138876387581
 20
49.12508202352263
 30
0.0
 11
14.61377237988399
 21
47.51936018450344
 31
0.0
 11
15.08973975871866
 21
48.27980622650012
 31
0.0
 11
15.45138876387581
 21
49.12508202352263
 31
0.0
  0
SPLINE
  5
25A
330
52
100
AcDbEntity
  8
0
  6
Continuous
 62
     7
100
AcDbSpline
210
0.0
220
0.0
230
1.0
 70
     8
 71
     3
 72
    17
 73
    13
 74
    11
 42
0.000000001
 43
0.0000000001
 44
0.00000001
 40
0.0
 40
0.0
 40
0.0
 40
0.0
 40
0.3680059164315885
 40
0.7986432244931008
 40
1.320263018005028
 40
1.930285532802653
 40
2.607608339586284
 40
3.320900926458343
 40
4.034193513107377
 40
4.711516318981984
 40
5.321538834386812
 40
5.843158633572336
 40
5.843158633572336
 40
5.843158633572336
 40
5.843158633572336
 10
22.70031754730551
 20
85.09431302762394
 30
0.0
 10
22.67936315513013
 20
85.21753266604337
 30
0.0
 10
22.63388810535975
 20
85.48494284365714
 30
0.0
 10
22.31858582986857
 20
85.81969683267745
 30
0.0
 10
21.87788603465823
 20
86.09696566461217
 30
0.0
 10
21.30769063981236
 20
86.30748029330533
 30
0.0
 10
20.65225668293901
 20
86.43959646169574
 30
0.0
 10
19.95041975941638
 20
86.48439935580308
 30
0.0
 10
19.24797992283585
 20
86.44020585269033
 30
0.0
 10
18.59420810155685
 20
86.30527996031778
 30
0.0
 10
18.01881741199698
 20
86.10387378948803
 30
0.0
 10
17.71074893052693
 20
85.88342624079195
 30
0.0
 10
17.56874768689827
 20
85.78181302762394
 30
0.0
 11
22.70031754730551
 21
85.09431302762394
 31
0.0
 11
22.6066128614166
 21
85.45018911976125
 31
0.0
 11
22.33188740771271
 21
85.78181302762394
 31
0.0
 11
21.89486067714192
 21
86.06658459254217
 31
0.0
 11
21.32531754730545
 21
86.28509795782753
 31
0.0
 11
20.66206973158013
 21
86.42246068467948
 31
0.0
 11
19.95031754730551
 21
86.46931302762394
 31
0.0
 11
19.23856536303088
 21
86.42246068467949
 31
0.0
 11
18.5753175473055
 21
86.28509795782753
 31
0.0
 11
18.00577441746903
 21
86.06658459254214
 31
0.0
 11
17.56874768689827
 21
85.78181302762394
 31
0.0
  0
SPLINE
  5
25B
330
52
100
AcDbEntity
  8
0
  6
Continuous
 62
     7
100
AcDbSpline
210
0.0
220
0.0
230
1.0
 70
     8
 71
     3
 72
     9
 73
     5
 74
     3
 42
0.000000001
 43
0.0000000001
 44
0.00000001
 40
0.0
 40
0.0
 40
0.0
 40
0.0
 40
0.4306373060047697
 40
0.7986432292267891
 40
0.7986432292267891
 40
0.7986432292267891
 40
0.7986432292267891
 10
17.56874768689827
 20
85.78181302762394
 30
0.0
 10
17.46233766550107
 20
85.67889429923575
 30
0.0
 10
17.26499378718081
 20
85.4880252108088
 30
0.0
 10
17.22071891014797
 20
85.21850496449342
 30
0.0
 10
17.20031754730547
 20
85.09431302762393
 30
0.0
 11
17.56874768689827
 21
85.78181302762394
 31
0.0
 11
17.29402223319438
 21
85.45018911976125
 31
0.0
 11
17.20031754730547
 21
85.09431302762393
 31
0.0
  0
SPLINE
  5
25C
330
52
100
AcDbEntity
  8
0
  6
Continuous
 62
     7
100
AcDbSpline
210
0.0
220
0.0
230
1.0
 70
     8
 71
     3
 72
    19
 73
    15
 74
    13
 42
0.000000001
 43
0.0000000001
 44
0.00000001
 40
0.0
 40
0.0
 40
0.0
 40
0.0
 40
0.3680059210526051
 40
0.7986432255765425
 40
1.320263020133531
 40
1.930285536548626
 40
2.607608345772949
 40
3.320900935876174
 40
4.034193525979395
 40
4.711516335203711
 40
5.321538851618798
 40
5.843158646175768
 40
6.273795950699714
 40
6.64180187175232
 40
6.64180187175232
 40
6.64180187175232
 40
6.64180187175232
 10
17.20031754730547
 20
85.09431302762393
 30
0.0
 10
17.2212719237186
 20
84.97109341583345
 30
0.0
 10
17.26674694607611
 20
84.70368330137224
 30
0.0
 10
17.58204953010531
 20
84.36892874951164
 30
0.0
 10
18.02274774451109
 20
84.09166270509948
 30
0.0
 10
18.59295054718047
 20
83.88113505085897
 30
0.0
 10
19.24835246073924
 20
83.74907522613485
 30
0.0
 10
19.9503175473055
 20
83.70404699741
 30
0.0
 10
20.65228263387178
 20
83.74907522613488
 30
0.0
 10
21.30768454743053
 20
83.88113505085897
 30
0.0
 10
21.87788735009992
 20
84.0916627050995
 30
0.0
 10
22.31858556450569
 20
84.36892874951162
 30
0.0
 10
22.63388814853485
 20
84.70368330137225
 30
0.0
 10
22.67936317089237
 20
84.9710934158335
 30
0.0
 10
22.70031754730551
 20
85.09431302762394
 30
0.0
 11
17.20031754730547
 21
85.09431302762393
 31
0.0
 11
17.29402223319438
 21
84.7384369354866
 31
0.0
 11
17.56874768689827
 21
84.40681302762394
 31
0.0
 11
18.00577441746903
 21
84.12204146270571
 31
0.0
 11
18.5753175473055
 21
83.90352809742032
 31
0.0
 11
19.23856536303088
 21
83.76616537056839
 31
0.0
 11
19.95031754730551
 21
83.71931302762394
 31
0.0
 11
20.66206973158014
 21
83.76616537056839
 31
0.0
 11
21.3253175473055
 21
83.90352809742033
 31
0.0
 11
21.89486067714197
 21
84.12204146270571
 31
0.0
 11
22.33188740771271
 21
84.40681302762394
 31
0.0
 11
22.6066128614166
 21
84.73843693548662
 31
0.0
 11
22.70031754730551
 21
85.09431302762394
 31
0.0
  0
SPLINE
  5
25D
330
52
100
AcDbEntity
  8
0
  6
Continuous
 62
     7
100
AcDbSpline
210
0.0
220
0.0
230
1.0
 70
     8
 71
     3
 72
    11
 73
     7
 74
     5
 42
0.000000001
 43
0.0000000001
 44
0.00000001
 40
0.0
 40
0.0
 40
0.0
 40
0.0
 40
0.1538892952047543
 40
0.2978823951877306
 40
0.4333081504048003
 40
0.5637031100644158
 40
0.5637031100644158
 40
0.5637031100644158
 40
0.5637031100644158
 10
9.359424275421837
 20
53.61313895717906
 30
0.0
 10
9.408885778599824
 20
53.59861043842101
 30
0.0
 10
9.504628055503744
 20
53.570487703987
 30
0.0
 10
9.65063872871897
 20
53.5709716205608
 30
0.0
 10
9.786041953686041
 20
53.6039290262928
 30
0.0
 10
9.858612296598519
 20
53.65603181391783
 30
0.0
 10
9.894210748532835
 20
53.68159017769296
 30
0.0
 11
9.359424275421837
 21
53.61313895717906
 31
0.0
 11
9.509045632158749
 21
53.5771477795296
 31
0.0
 11
9.653038458507467
 21
53.57686583046458
 31
0.0
 11
9.783744073185272
 21
53.6123084361785
 31
0.0
 11
9.894210748532835
 21
53.68159017769296
 31
0.0
  0
SPLINE
  5
25E
330
52
100
AcDbEntity
  8
0
  6
Continuous
 62
     7
100
AcDbSpline
210
0.0
220
0.0
230
1.0
 70
     8
 71
     3
 72
    11
 73
     7
 74
     5
 42
0.000000001
 43
0.0000000001
 44
0.00000001
 40
0.0
 40
0.0
 40
0.0
 40
0.0
 40
0.1871411907843795
 40
0.3630362754382466
 40
0.5295381944253283
 40
0.6906435563658285
 40
0.6906435563658285
 40
0.6906435563658285
 40
0.6906435563658285
 10
9.619726846447925
 20
53.06020386228708
 30
0.0
 10
9.558666231816911
 20
53.07428466294738
 30
0.0
 10
9.440214390977177
 20
53.10160007497662
 30
0.0
 10
9.262149837932366
 20
53.09265309000454
 30
0.0
 10
9.097675361441205
 20
53.04672386714275
 30
0.0
 10
9.008785819922624
 20
52.98195727053797
 30
0.0
 10
8.965073175739938
 20
52.95010740452109
 30
0.0
 11
9.619726846447925
 21
53.06020386228708
 31
0.0
 11
9.435581964163815
 21
53.09355783884844
 31
0.0
 11
9.259858990861304
 21
53.08577849045804
 31
0.0
 11
9.10059477023156
 21
53.03722132826411
 31
0.0
 11
8.965073175739938
 21
52.95010740452109
 31
0.0
  0
SPLINE
  5
25F
330
52
100
AcDbEntity
  8
0
  6
Continuous
 62
     7
100
AcDbSpline
210
0.0
220
0.0
230
1.0
 70
     8
 71
     3
 72
    11
 73
     7
 74
     5
 42
0.000000001
 43
0.0000000001
 44
0.00000001
 40
0.0
 40
0.0
 40
0.0
 40
0.0
 40
0.1340578103041793
 40
0.2712905770934187
 40
0.4142835042396648
 40
0.5646514904338991
 40
0.5646514904338991
 40
0.5646514904338991
 40
0.5646514904338991
 10
8.965073175739938
 20
52.95010740452109
 30
0.0
 10
8.933245132587622
 20
52.91842208464424
 30
0.0
 10
8.868835258304184
 20
52.85430101617507
 30
0.0
 10
8.803326602502246
 20
52.73080785185177
 30
0.0
 10
8.761031968548172
 20
52.5924364402859
 30
0.0
 10
8.756185559032303
 20
52.49441916723128
 30
0.0
 10
8.753701442663477
 20
52.44417845850263
 30
0.0
 11
8.965073175739938
 21
52.95010740452109
 31
0.0
 11
8.87484190668083
 21
52.85096198097731
 31
0.0
 11
8.808263135147818
 21
52.73096156384838
 31
0.0
 11
8.767451037031988
 21
52.59391649668926
 31
0.0
 11
8.753701442663477
 21
52.44417845850263
 31
0.0
  0
SPLINE
  5
260
330
52
100
AcDbEntity
  8
0
  6
Continuous
 62
     7
100
AcDbSpline
210
0.0
220
0.0
230
1.0
 70
     8
 71
     3
 72
     9
 73
     5
 74
     3
 42
0.000000001
 43
0.0000000001
 44
0.00000001
 40
0.0
 40
0.0
 40
0.0
 40
0.0
 40
0.0105463981386397
 40
0.0210530027012949
 40
0.0210530027012949
 40
0.0210530027012949
 40
0.0210530027012949
 10
7.557349206292734
 20
45.2691510528684
 30
0.0
 10
7.554349688930185
 20
45.26730854375261
 30
0.0
 10
7.548361983185938
 20
45.2636304611552
 30
0.0
 10
7.542943212151577
 20
45.25915639934926
 30
0.0
 10
7.540238953791338
 20
45.25692358882868
 30
0.0
 11
7.557349206292734
 21
45.2691510528684
 31
0.0
 11
7.548493431514778
 21
45.26342376934272
 31
0.0
 11
7.540238953791338
 21
45.25692358882868
 31
0.0
  0
SPLINE
  5
261
330
52
100
AcDbEntity
  8
0
  6
Continuous
 62
     7
100
AcDbSpline
210
0.0
220
0.0
230
1.0
 70
     8
 71
     3
 72
     9
 73
     5
 74
     3
 42
0.000000001
 43
0.0000000001
 44
0.00000001
 40
0.0
 40
0.0
 40
0.0
 40
0.0
 40
0.0538940626129742
 40
0.1122793847777722
 40
0.1122793847777722
 40
0.1122793847777722
 40
0.1122793847777722
 10
7.540238953791338
 20
45.25692358882868
 30
0.0
 10
7.528081960601663
 20
45.24304300264465
 30
0.0
 10
7.502754888362675
 20
45.21412508257441
 30
0.0
 10
7.499603382092955
 20
45.1757124078594
 30
0.0
 10
7.497964607176051
 20
45.15573779962498
 30
0.0
 11
7.540238953791338
 21
45.25692358882868
 31
0.0
 11
7.508877223464463
 21
45.21309423693507
 31
0.0
 11
7.497964607176051
 21
45.15573779962498
 31
0.0
  0
SPLINE
  5
262
330
52
100
AcDbEntity
  8
0
  6
Continuous
 62
     7
100
AcDbSpline
210
0.0
220
0.0
230
1.0
 70
     8
 71
     3
 72
    13
 73
     9
 74
     7
 42
0.000000001
 43
0.0000000001
 44
0.00000001
 40
0.0
 40
0.0
 40
0.0
 40
0.0
 40
0.1248411886603799
 40
0.2550773715367984
 40
0.3943177140035204
 40
0.5436156424344771
 40
0.7016670892362554
 40
0.8654408283586115
 40
0.8654408283586115
 40
0.8654408283586115
 40
0.8654408283586115
 10
7.615096308484986
 20
45.31041874400244
 30
0.0
 10
7.644005649730982
 20
45.34085901090818
 30
0.0
 10
7.703073634381256
 20
45.40305502544611
 30
0.0
 10
7.749905840547022
 20
45.52925083224196
 30
0.0
 10
7.763523419214489
 20
45.66929393672294
 30
0.0
 10
7.740908115942039
 20
45.81769328081931
 30
0.0
 10
7.686717683024231
 20
45.9666301537502
 30
0.0
 10
7.626935108404794
 20
46.05609464763486
 30
0.0
 10
7.596512325537908
 20
46.101622263637
 30
0.0
 11
7.615096308484986
 21
45.31041874400244
 31
0.0
 11
7.694932135905763
 21
45.40639563711525
 31
0.0
 11
7.743407676381615
 21
45.52727403247382
 31
0.0
 11
7.757608728805961
 21
45.66578830582121
 31
0.0
 11
7.7366820915435
 21
45.81361234922076
 31
0.0
 11
7.681885236534405
 21
45.96186067022123
 31
0.0
 11
7.596512325537908
 21
46.101622263637
 31
0.0
  0
SPLINE
  5
263
330
52
100
AcDbEntity
  8
0
  6
Continuous
 62
     7
100
AcDbSpline
210
0.0
220
0.0
230
1.0
 70
     8
 71
     3
 72
     9
 73
     5
 74
     3
 42
0.000000001
 43
0.0000000001
 44
0.00000001
 40
0.0
 40
0.0
 40
0.0
 40
0.0
 40
0.0355940948216644
 40
0.0710538863244239
 40
0.0710538863244239
 40
0.0710538863244239
 40
0.0710538863244239
 10
7.557349206292734
 20
45.2691510528684
 30
0.0
 10
7.567472577705276
 20
45.27536952132709
 30
0.0
 10
7.587681111887738
 20
45.28778301127993
 30
0.0
 10
7.605969436235065
 20
45.30288300826088
 30
0.0
 10
7.615096308484986
 20
45.31041874400244
 30
0.0
 11
7.557349206292734
 21
45.2691510528684
 31
0.0
 11
7.587237446168345
 21
45.28848063476756
 31
0.0
 11
7.615096308484986
 21
45.31041874400244
 31
0.0
  0
SPLINE
  5
264
330
52
100
AcDbEntity
  8
0
  6
Continuous
 62
     7
100
AcDbSpline
210
0.0
220
0.0
230
1.0
 70
     8
 71
     3
 72
    11
 73
     7
 74
     5
 42
0.000000001
 43
0.0000000001
 44
0.00000001
 40
0.0
 40
0.0
 40
0.0
 40
0.0
 40
0.1010495858331962
 40
0.2011562146919139
 40
0.2986299914394945
 40
0.3920887822124507
 40
0.3920887822124507
 40
0.3920887822124507
 40
0.3920887822124507
 10
7.551717908100621
 20
46.1615874364286
 30
0.0
 10
7.530360274176203
 20
46.18773111197764
 30
0.0
 10
7.487844296674066
 20
46.23977449012483
 30
0.0
 10
7.410754792459775
 20
46.30349671048306
 30
0.0
 10
7.327900732512265
 20
46.35514587188319
 30
0.0
 10
7.267649241359208
 20
46.37618807580866
 30
0.0
 10
7.2381569860407
 20
46.38648793011933
 30
0.0
 11
7.551717908100621
 21
46.1615874364286
 31
0.0
 11
7.485270075185433
 21
46.23771696018119
 31
0.0
 11
7.40872904584598
 21
46.30223678878362
 31
0.0
 11
7.325221057688681
 21
46.35251156791888
 31
0.0
 11
7.2381569860407
 21
46.38648793011933
 31
0.0
  0
SPLINE
  5
265
330
52
100
AcDbEntity
  8
0
  6
Continuous
 62
     7
100
AcDbSpline
210
0.0
220
0.0
230
1.0
 70
     8
 71
     3
 72
    11
 73
     7
 74
     5
 42
0.000000001
 43
0.0000000001
 44
0.00000001
 40
0.0
 40
0.0
 40
0.0
 40
0.0
 40
0.0935705952109257
 40
0.1815181363976045
 40
0.2647690944696197
 40
0.345321774450637
 40
0.345321774450637
 40
0.345321774450637
 40
0.345321774450637
 10
7.021650635094609
 20
46.44898793011933
 30
0.0
 10
6.991120327838247
 20
46.45602833043585
 30
0.0
 10
6.931894406690722
 20
46.46968602915598
 30
0.0
 10
6.842862131084226
 20
46.46521254008145
 30
0.0
 10
6.760624895567526
 20
46.44224792561813
 30
0.0
 10
6.716180121563559
 20
46.40986463404921
 30
0.0
 10
6.694323799740623
 20
46.39393970123635
 30
0.0
 11
7.021650635094609
 21
46.44898793011933
 31
0.0
 11
6.929578193952553
 21
46.46566491840002
 31
0.0
 11
6.841716707301295
 21
46.46177524420482
 31
0.0
 11
6.762084596986425
 21
46.43749666310785
 31
0.0
 11
6.694323799740623
 21
46.39393970123635
 31
0.0
  0
SPLINE
  5
266
330
52
100
AcDbEntity
  8
0
  6
Continuous
 62
     7
100
AcDbSpline
210
0.0
220
0.0
230
1.0
 70
     8
 71
     3
 72
     9
 73
     5
 74
     3
 42
0.000000001
 43
0.0000000001
 44
0.00000001
 40
0.0
 40
0.0
 40
0.0
 40
0.0
 40
0.1347351597551091
 40
0.2806984683897894
 40
0.2806984683897894
 40
0.2806984683897894
 40
0.2806984683897894
 10
6.694323799740623
 20
46.39393970123635
 30
0.0
 10
6.663931316039482
 20
46.35923823494625
 30
0.0
 10
6.600613608965887
 20
46.28694344752235
 30
0.0
 10
6.592734870585116
 20
46.1909117499157
 30
0.0
 10
6.588637933202399
 20
46.14097522822713
 30
0.0
 11
6.694323799740623
 21
46.39393970123635
 31
0.0
 11
6.615919473923432
 21
46.28436632150235
 31
0.0
 11
6.588637933202399
 21
46.14097522822713
 31
0.0
  0
SPLINE
  5
267
330
52
100
AcDbEntity
  8
0
  6
Continuous
 62
     7
100
AcDbSpline
210
0.0
220
0.0
230
1.0
 70
     8
 71
     3
 72
    11
 73
     7
 74
     5
 42
0.000000001
 43
0.0000000001
 44
0.00000001
 40
0.0
 40
0.0
 40
0.0
 40
0.0
 40
0.1676014956986885
 40
0.3276192723756775
 40
0.4818199683816357
 40
0.6328501322470043
 40
0.6328501322470043
 40
0.6328501322470043
 40
0.6328501322470043
 10
21.82236997785591
 20
44.70343885900648
 30
0.0
 10
21.76639400702728
 20
44.70632876327353
 30
0.0
 10
21.65697489506729
 20
44.7119777932338
 30
0.0
 10
21.49794911167815
 20
44.68214068720386
 30
0.0
 10
21.35158782262613
 20
44.6259714192461
 30
0.0
 10
21.27014835424376
 20
44.5642306462386
 30
0.0
 10
21.2298515932513
 20
44.5336809143705
 30
0.0
 11
21.82236997785591
 21
44.70343885900648
 31
0.0
 11
21.65477904571134
 21
44.70532061434054
 31
0.0
 11
21.49728941586255
 21
44.67698854853352
 31
0.0
 11
21.35431210505235
 21
44.6192361119814
 31
0.0
 11
21.2298515932513
 21
44.5336809143705
 31
0.0
  0
SPLINE
  5
268
330
52
100
AcDbEntity
  8
0
  6
Continuous
 62
     7
100
AcDbSpline
210
0.0
220
0.0
230
1.0
 70
     8
 71
     3
 72
    11
 73
     7
 74
     5
 42
0.000000001
 43
0.0000000001
 44
0.00000001
 40
0.0
 40
0.0
 40
0.0
 40
0.0
 40
1.501716589123583
 40
3.011982928025888
 40
4.507380582629336
 40
5.9659408962884
 40
5.9659408962884
 40
5.9659408962884
 40
5.9659408962884
 10
31.6673090872356
 20
38.92055991817714
 30
0.0
 10
31.40075079199232
 20
39.34540115836077
 30
0.0
 10
30.86611658807577
 20
40.19750238645544
 30
0.0
 10
29.84510074281107
 20
41.30845513954006
 30
0.0
 10
28.70840188749263
 20
42.27975931828625
 30
0.0
 10
27.84984728026743
 20
42.76606191036398
 30
0.0
 10
27.4259232765285
 20
43.00618098120002
 30
0.0
 11
31.6673090872356
 21
38.92055991817714
 31
0.0
 11
30.83093273789967
 21
40.16780781576954
 31
0.0
 11
29.82040607332891
 21
41.29018933691724
 31
0.0
 11
28.67175314684255
 21
42.2476916107788
 31
0.0
 11
27.4259232765285
 21
43.00618098120002
 31
0.0
  0
SPLINE
  5
269
330
52
100
AcDbEntity
  8
0
  6
Continuous
 62
     7
100
AcDbSpline
210
0.0
220
0.0
230
1.0
 70
     8
 71
     3
 72
    11
 73
     7
 74
     5
 42
0.000000001
 43
0.0000000001
 44
0.00000001
 40
0.0
 40
0.0
 40
0.0
 40
0.0
 40
0.9475859412047788
 40
1.92047302647455
 40
2.926545669604419
 40
3.97081113609558
 40
3.97081113609558
 40
3.97081113609558
 40
3.97081113609558
 10
9.538772379883987
 20
43.12428126029742
 30
0.0
 10
9.714840516496816
 20
43.38747300089553
 30
0.0
 10
10.07167790755528
 20
43.92088387582364
 30
0.0
 10
10.43384053428683
 20
44.83301375271526
 30
0.0
 10
10.67918730509992
 20
45.8148088484151
 30
0.0
 10
10.72332291364696
 20
46.4981342400193
 30
0.0
 10
10.74580178006951
 20
46.84616128352588
 30
0.0
 11
9.538772379883987
 21
43.12428126029742
 31
0.0
 11
10.03796237359532
 21
43.92971807851345
 31
0.0
 11
10.40936028705563
 21
44.82892488111499
 31
0.0
 11
10.6466515153543
 21
45.80661350187315
 31
0.0
 11
10.74580178006951
 21
46.84616128352588
 31
0.0
  0
SPLINE
  5
26A
330
52
100
AcDbEntity
  8
0
  6
Continuous
 62
     7
100
AcDbSpline
210
0.0
220
0.0
230
1.0
 70
     8
 71
     3
 72
    11
 73
     7
 74
     5
 42
0.000000001
 43
0.0000000001
 44
0.00000001
 40
0.0
 40
0.0
 40
0.0
 40
0.0
 40
0.4826695327547983
 40
0.966107466158823
 40
1.438159115350815
 40
1.888547215089368
 40
1.888547215089368
 40
1.888547215089368
 40
1.888547215089368
 10
31.6673090872356
 20
38.92055991817714
 30
0.0
 10
31.75471239989077
 20
38.78486612213441
 30
0.0
 10
31.92965818169981
 20
38.51326251685616
 30
0.0
 10
32.27791070933955
 20
38.17910676466177
 30
0.0
 10
32.66570841357535
 20
37.9086795944704
 30
0.0
 10
32.95595867925306
 20
37.80363999670089
 30
0.0
 10
33.09767554304401
 20
37.75235363501041
 30
0.0
 11
31.6673090872356
 21
38.92055991817714
 31
0.0
 11
31.94424524742893
 21
38.52524201880981
 31
0.0
 11
32.28890814500495
 21
38.18624390038539
 31
0.0
 11
32.68106051245925
 21
37.92347159931609
 31
0.0
 11
33.09767554304401
 21
37.75235363501041
 31
0.0
  0
SPLINE
  5
26B
330
52
100
AcDbEntity
  8
0
  6
Continuous
 62
     7
100
AcDbSpline
210
0.0
220
0.0
230
1.0
 70
     8
 71
     3
 72
     9
 73
     5
 74
     3
 42
0.000000001
 43
0.0000000001
 44
0.00000001
 40
0.0
 40
0.0
 40
0.0
 40
0.0
 40
3.017382863901072
 40
5.879923767077694
 40
5.879923767077694
 40
5.879923767077694
 40
5.879923767077694
 10
27.4259232765285
 20
43.00618098120002
 30
0.0
 10
26.50700489796511
 20
43.42840820316894
 30
0.0
 10
24.71632394113715
 20
44.25119534452665
 30
0.0
 10
22.76993590096193
 20
44.55536099400848
 30
0.0
 10
21.82236997785591
 20
44.70343885900648
 30
0.0
 11
27.4259232765285
 21
43.00618098120002
 31
0.0
 11
24.62816417542522
 21
44.13628865974889
 31
0.0
 11
21.82236997785591
 21
44.70343885900648
 31
0.0
  0
SPLINE
  5
26C
330
52
100
AcDbEntity
  8
0
  6
Continuous
 62
     7
100
AcDbSpline
210
0.0
220
0.0
230
1.0
 70
     8
 71
     3
 72
    11
 73
     7
 74
     5
 42
0.000000001
 43
0.0000000001
 44
0.00000001
 40
0.0
 40
0.0
 40
0.0
 40
0.0
 40
0.0627418998187561
 40
0.1274830534601863
 40
0.1957283673663189
 40
0.2682168887433336
 40
0.2682168887433336
 40
0.2682168887433336
 40
0.2682168887433336
 10
20.9017615778881
 20
43.55424162596271
 30
0.0
 10
20.91649986114648
 20
43.56927939706122
 30
0.0
 10
20.94644604786582
 20
43.59983412336174
 30
0.0
 10
20.9739090196196
 20
43.66020819377411
 30
0.0
 10
20.98828762583761
 20
43.72785780621491
 30
0.0
 10
20.98531514214907
 20
43.7748809754141
 30
0.0
 10
20.98378408172891
 20
43.79910144806459
 30
0.0
 11
20.9017615778881
 21
43.55424162596271
 31
0.0
 11
20.94305553310284
 21
43.60147885170593
 31
0.0
 11
20.9712005864579
 21
43.65978213896139
 31
0.0
 11
20.98497590087442
 21
43.72662272459864
 31
0.0
 11
20.98378408172891
 21
43.79910144806459
 31
0.0
  0
SPLINE
  5
26D
330
52
100
AcDbEntity
  8
0
  6
Continuous
 62
     7
100
AcDbSpline
210
0.0
220
0.0
230
1.0
 70
     8
 71
     3
 72
    11
 73
     7
 74
     5
 42
0.000000001
 43
0.0000000001
 44
0.00000001
 40
0.0
 40
0.0
 40
0.0
 40
0.0
 40
0.6085423711959678
 40
1.247260111612474
 40
1.908517438562353
 40
2.581951841252405
 40
2.581951841252405
 40
2.581951841252405
 40
2.581951841252405
 10
19.4280029858218
 20
46.00303044046561
 30
0.0
 10
19.44828081146644
 20
45.80058440510882
 30
0.0
 10
19.48984198015381
 20
45.38565378522074
 30
0.0
 10
19.69837946571348
 20
44.77989287506733
 30
0.0
 10
19.99702440926296
 20
44.190263323726
 30
0.0
 10
20.2722999808866
 20
43.8394584724507
 30
0.0
 10
20.41119351277181
 20
43.66245576507116
 30
0.0
 11
19.4280029858218
 21
46.00303044046561
 31
0.0
 11
19.5113852181157
 21
45.40022763504441
 31
0.0
 11
19.70911840447171
 21
44.79288758091104
 31
0.0
 11
20.01317144546961
 21
44.20567977884234
 31
0.0
 11
20.41119351277181
 21
43.66245576507116
 31
0.0
  0
SPLINE
  5
26E
330
52
100
AcDbEntity
  8
0
  6
Continuous
 62
     7
100
AcDbSpline
210
0.0
220
0.0
230
1.0
 70
     8
 71
     3
 72
    11
 73
     7
 74
     5
 42
0.000000001
 43
0.0000000001
 44
0.00000001
 40
0.0
 40
0.0
 40
0.0
 40
0.0
 40
0.0561423569815196
 40
0.1089108807812975
 40
0.1588614544872752
 40
0.2071930616845637
 40
0.2071930616845637
 40
0.2071930616845637
 40
0.2071930616845637
 10
20.03368232695581
 20
46.45994843658168
 30
0.0
 10
20.05200051126231
 20
46.45572419640271
 30
0.0
 10
20.08753606453293
 20
46.44752958300621
 30
0.0
 10
20.14095542916407
 20
46.45021367372171
 30
0.0
 10
20.19029776829101
 20
46.46399244482565
 30
0.0
 10
20.21696463528915
 20
46.4834224143802
 30
0.0
 10
20.23007842816821
 20
46.49297737391148
 30
0.0
 11
20.03368232695581
 21
46.45994843658168
 31
0.0
 11
20.08892579164102
 21
46.44994224361328
 31
0.0
 11
20.14164268363175
 21
46.4522760481304
 31
0.0
 11
20.18942194982066
 21
46.46684319678857
 31
0.0
 11
20.23007842816821
 21
46.49297737391148
 31
0.0
  0
SPLINE
  5
26F
330
52
100
AcDbEntity
  8
0
  6
Continuous
 62
     7
100
AcDbSpline
210
0.0
220
0.0
230
1.0
 70
     8
 71
     3
 72
     9
 73
     5
 74
     3
 42
0.000000001
 43
0.0000000001
 44
0.00000001
 40
0.0
 40
0.0
 40
0.0
 40
0.0
 40
0.0808410949936687
 40
0.1684190793150883
 40
0.1684190793150883
 40
0.1684190793150883
 40
0.1684190793150883
 10
20.23007842816821
 20
46.49297737391148
 30
0.0
 10
20.24831391819502
 20
46.5137982534642
 30
0.0
 10
20.28630453537886
 20
46.55717512931901
 30
0.0
 10
20.29103178568559
 20
46.61479414499787
 30
0.0
 10
20.2934899480911
 20
46.64475605771702
 30
0.0
 11
20.23007842816821
 21
46.49297737391148
 31
0.0
 11
20.27712102365849
 21
46.55872140175189
 31
0.0
 11
20.2934899480911
 21
46.64475605771702
 31
0.0
  0
SPLINE
  5
270
330
52
100
AcDbEntity
  8
0
  6
Continuous
 62
     7
100
AcDbSpline
210
0.0
220
0.0
230
1.0
 70
     8
 71
     3
 72
    13
 73
     9
 74
     7
 42
0.000000001
 43
0.0000000001
 44
0.00000001
 40
0.0
 40
0.0
 40
0.0
 40
0.0
 40
0.1172631642635316
 40
0.2419307378212635
 40
0.3712960139461137
 40
0.5017221147109352
 40
0.629373771144747
 40
0.7509434390751804
 40
0.7509434390751804
 40
0.7509434390751804
 40
0.7509434390751804
 10
20.2934899480911
 20
48.67991575661042
 30
0.0
 10
20.29041557383694
 20
48.71906611913487
 30
0.0
 10
20.28407268381885
 20
48.79983893411062
 30
0.0
 10
20.23820265071766
 20
48.91648684842055
 30
0.0
 10
20.16993317123588
 20
49.02569459915505
 30
0.0
 10
20.08033475104784
 20
49.11963300475735
 30
0.0
 10
19.97693281650542
 20
49.19503603462224
 30
0.0
 10
19.89865904134662
 20
49.22386550611897
 30
0.0
 10
19.8604772461989
 20
49.23792845850264
 30
0.0
 11
20.2934899480911
 21
48.67991575661042
 31
0.0
 11
20.27873528655777
 21
48.79624696465643
 31
0.0
 11
20.2354772461989
 21
48.91316893208347
 31
0.0
 11
20.16666338241578
 21
49.02271356874382
 31
0.0
 11
20.07698359714501
 21
49.11741575661041
 31
0.0
 11
19.9725491503409
 21
49.19082142495679
 31
0.0
 11
19.8604772461989
 21
49.23792845850264
 31
0.0
  0
SPLINE
  5
271
330
52
100
AcDbEntity
  8
0
  6
Continuous
 62
     7
100
AcDbSpline
210
0.0
220
0.0
230
1.0
 70
     8
 71
     3
 72
     9
 73
     5
 74
     3
 42
0.000000001
 43
0.0000000001
 44
0.00000001
 40
0.0
 40
0.0
 40
0.0
 40
0.0
 40
0.134735159755091
 40
0.2806984683897788
 40
0.2806984683897788
 40
0.2806984683897788
 40
0.2806984683897788
 10
34.9917038683971
 20
44.72038022961965
 30
0.0
 10
34.96131138469598
 20
44.68567876332956
 30
0.0
 10
34.8979936776224
 20
44.61338397590566
 30
0.0
 10
34.89011493924163
 20
44.517352278299
 30
0.0
 10
34.88601800185891
 20
44.46741575661042
 30
0.0
 11
34.9917038683971
 21
44.72038022961965
 31
0.0
 11
34.91329954257994
 21
44.61080684988565
 31
0.0
 11
34.88601800185891
 21
44.46741575661042
 31
0.0
  0
SPLINE
  5
272
330
52
100
AcDbEntity
  8
0
  6
Continuous
 62
     7
100
AcDbSpline
210
0.0
220
0.0
230
1.0
 70
     8
 71
     3
 72
    11
 73
     7
 74
     5
 42
0.000000001
 43
0.0000000001
 44
0.00000001
 40
0.0
 40
0.0
 40
0.0
 40
0.0
 40
0.0935705952109298
 40
0.1815181363975796
 40
0.2647690944696038
 40
0.3453217744506412
 40
0.3453217744506412
 40
0.3453217744506412
 40
0.3453217744506412
 10
35.3190307037511
 20
44.77542845850265
 30
0.0
 10
35.28850039649473
 20
44.78246885881916
 30
0.0
 10
35.22927447534721
 20
44.79612655753926
 30
0.0
 10
35.14024219974073
 20
44.79165306846475
 30
0.0
 10
35.05800496422403
 20
44.76868845400143
 30
0.0
 10
35.01356019022004
 20
44.73630516243251
 30
0.0
 10
34.9917038683971
 20
44.72038022961965
 30
0.0
 11
35.3190307037511
 21
44.77542845850265
 31
0.0
 11
35.22695826260904
 21
44.79210544678332
 31
0.0
 11
35.13909677595781
 21
44.78821577258812
 31
0.0
 11
35.05946466564293
 21
44.76393719149115
 31
0.0
 11
34.9917038683971
 21
44.72038022961965
 31
0.0
  0
SPLINE
  5
273
330
52
100
AcDbEntity
  8
0
  6
Continuous
 62
     7
100
AcDbSpline
210
0.0
220
0.0
230
1.0
 70
     8
 71
     3
 72
    13
 73
     9
 74
     7
 42
0.000000001
 43
0.0000000001
 44
0.00000001
 40
0.0
 40
0.0
 40
0.0
 40
0.0
 40
0.1172631642635524
 40
0.2419307378212962
 40
0.3712960139461543
 40
0.5017221147109658
 40
0.6293737711447764
 40
0.7509434390752185
 40
0.7509434390752185
 40
0.7509434390752185
 40
0.7509434390752185
 10
36.18505610753561
 20
44.09241575661042
 30
0.0
 10
36.18198173328143
 20
44.13156611913488
 30
0.0
 10
36.17563884326331
 20
44.21233893411065
 30
0.0
 10
36.12976881016205
 20
44.32898684842056
 30
0.0
 10
36.06149933068029
 20
44.43819459915506
 30
0.0
 10
35.97190091049224
 20
44.53213300475734
 30
0.0
 10
35.86849897594982
 20
44.60753603462224
 30
0.0
 10
35.79022520079101
 20
44.63636550611897
 30
0.0
 10
35.7520434056433
 20
44.65042845850265
 30
0.0
 11
36.18505610753561
 21
44.09241575661042
 31
0.0
 11
36.17030144600222
 21
44.20874696465645
 31
0.0
 11
36.12704340564331
 21
44.32566893208347
 31
0.0
 11
36.05822954186018
 21
44.43521356874383
 31
0.0
 11
35.96854975658941
 21
44.52991575661042
 31
0.0
 11
35.8641153097853
 21
44.6033214249568
 31
0.0
 11
35.7520434056433
 21
44.65042845850265
 31
0.0
  0
SPLINE
  5
274
330
52
100
AcDbEntity
  8
0
  6
Continuous
 62
     7
100
AcDbSpline
210
0.0
220
0.0
230
1.0
 70
     8
 71
     3
 72
     9
 73
     5
 74
     3
 42
0.000000001
 43
0.0000000001
 44
0.00000001
 40
0.0
 40
0.0
 40
0.0
 40
0.0
 40
0.4306373060047995
 40
0.7986432292268154
 40
0.7986432292268154
 40
0.7986432292268154
 40
0.7986432292268154
 10
33.15720495501821
 20
81.28181302762394
 30
0.0
 10
33.05079493362098
 20
81.1788942992358
 30
0.0
 10
32.85345105530067
 20
80.98802521080889
 30
0.0
 10
32.80917617826788
 20
80.71850496449339
 30
0.0
 10
32.78877481542541
 20
80.59431302762393
 30
0.0
 11
33.15720495501821
 21
81.28181302762394
 31
0.0
 11
32.88247950131425
 21
80.95018911976126
 31
0.0
 11
32.78877481542541
 21
80.59431302762393
 31
0.0
  0
SPLINE
  5
275
330
52
100
AcDbEntity
  8
0
  6
Continuous
 62
     7
100
AcDbSpline
210
0.0
220
0.0
230
1.0
 70
     8
 71
     3
 72
    17
 73
    13
 74
    11
 42
0.000000001
 43
0.0000000001
 44
0.00000001
 40
0.0
 40
0.0
 40
0.0
 40
0.0
 40
0.3680059164316067
 40
0.798643224493133
 40
1.320263018005049
 40
1.930285532802639
 40
2.607608339586295
 40
3.320900926458384
 40
4.034193513107446
 40
4.711516318982012
 40
5.321538834386798
 40
5.8431586335723
 40
5.8431586335723
 40
5.8431586335723
 40
5.8431586335723
 10
38.28877481542541
 20
80.59431302762394
 30
0.0
 10
38.26782042325004
 20
80.71753266604341
 30
0.0
 10
38.22234537347964
 20
80.98494284365711
 30
0.0
 10
37.90704309798843
 20
81.31969683267748
 30
0.0
 10
37.46634330277809
 20
81.59696566461216
 30
0.0
 10
36.89614790793225
 20
81.80748029330539
 30
0.0
 10
36.24071395105887
 20
81.93959646169571
 30
0.0
 10
35.53887702753624
 20
81.98439935580306
 30
0.0
 10
34.8364371909557
 20
81.94020585269037
 30
0.0
 10
34.1826653696767
 20
81.80527996031775
 30
0.0
 10
33.60727468011688
 20
81.60387378948809
 30
0.0
 10
33.29920619864685
 20
81.38342624079195
 30
0.0
 10
33.15720495501821
 20
81.28181302762394
 30
0.0
 11
38.28877481542541
 21
80.59431302762394
 31
0.0
 11
38.19507012953648
 21
80.95018911976126
 31
0.0
 11
37.92034467583255
 21
81.28181302762394
 31
0.0
 11
37.48331794526179
 21
81.56658459254217
 31
0.0
 11
36.91377481542536
 21
81.78509795782755
 31
0.0
 11
36.25052699970001
 21
81.92246068467949
 31
0.0
 11
35.53877481542536
 21
81.96931302762394
 31
0.0
 11
34.8270226311507
 21
81.92246068467949
 31
0.0
 11
34.16377481542536
 21
81.78509795782755
 31
0.0
 11
33.59423168558894
 21
81.56658459254216
 31
0.0
 11
33.15720495501821
 21
81.28181302762394
 31
0.0
  0
SPLINE
  5
276
330
52
100
AcDbEntity
  8
0
  6
Continuous
 62
     7
100
AcDbSpline
210
0.0
220
0.0
230
1.0
 70
     8
 71
     3
 72
    11
 73
     7
 74
     5
 42
0.000000001
 43
0.0000000001
 44
0.00000001
 40
0.0
 40
0.0
 40
0.0
 40
0.0
 40
0.1882257032866348
 40
0.3824491697457805
 40
0.5871851159401434
 40
0.8046506808535078
 40
0.8046506808535078
 40
0.8046506808535078
 40
0.8046506808535078
 10
21.2298515932513
 20
44.5336809143705
 30
0.0
 10
21.18563674257641
 20
44.48856760015691
 30
0.0
 10
21.09579815773143
 20
44.39690343812591
 30
0.0
 10
21.01340925285633
 20
44.21578121442812
 30
0.0
 10
20.97027342009615
 20
44.01283237570828
 30
0.0
 10
20.97919090045196
 20
43.87176286627748
 30
0.0
 10
20.98378408172891
 20
43.79910144806459
 30
0.0
 11
21.2298515932513
 21
44.5336809143705
 31
0.0
 11
21.10596972760717
 21
44.39196923714079
 31
0.0
 11
21.02153456754191
 21
44.21705937537438
 31
0.0
 11
20.98020862429244
 21
44.01653761846252
 31
0.0
 11
20.98378408172891
 21
43.79910144806459
 31
0.0
  0
SPLINE
  5
277
330
52
100
AcDbEntity
  8
0
  6
Continuous
 62
     7
100
AcDbSpline
210
0.0
220
0.0
230
1.0
 70
     8
 71
     3
 72
    11
 73
     7
 74
     5
 42
0.000000001
 43
0.0000000001
 44
0.00000001
 40
0.0
 40
0.0
 40
0.0
 40
0.0
 40
0.0994033217203156
 40
0.2014330550267172
 40
0.308173352923509
 40
0.4208342685142968
 40
0.4208342685142968
 40
0.4208342685142968
 40
0.4208342685142968
 10
19.57542475746021
 20
46.38288091614549
 30
0.0
 10
19.55191118627463
 20
46.35927215356301
 30
0.0
 10
19.50426278490401
 20
46.31143083339173
 30
0.0
 10
19.45743285978114
 20
46.21841846352642
 30
0.0
 10
19.42903792769083
 20
46.11414075639728
 30
0.0
 10
19.428354112443
 20
46.04072757285324
 30
0.0
 10
19.4280029858218
 20
46.00303044046561
 30
0.0
 11
19.57542475746021
 21
46.38288091614549
 31
0.0
 11
19.50903336447165
 21
46.30889981286438
 31
0.0
 11
19.46132102823005
 21
46.21871333959857
 31
0.0
 11
19.4339865339482
 21
46.11553234783001
 31
0.0
 11
19.4280029858218
 21
46.00303044046561
 31
0.0
  0
SPLINE
  5
278
330
52
100
AcDbEntity
  8
0
  6
Continuous
 62
     7
100
AcDbSpline
210
0.0
220
0.0
230
1.0
 70
     8
 71
     3
 72
     9
 73
     5
 74
     3
 42
0.000000001
 43
0.0000000001
 44
0.00000001
 40
0.0
 40
0.0
 40
0.0
 40
0.0
 40
0.0849727062785294
 40
0.1730887211058149
 40
0.1730887211058149
 40
0.1730887211058149
 40
0.1730887211058149
 10
19.43562053675411
 20
49.21103467914982
 30
0.0
 10
19.41552845856836
 20
49.1905664095973
 30
0.0
 10
19.37460107225494
 20
49.14887269700303
 30
0.0
 10
19.35477981703253
 20
49.0938790445321
 30
0.0
 10
19.34468922023921
 20
49.06588286844769
 30
0.0
 11
19.43562053675411
 21
49.21103467914982
 31
0.0
 11
19.38043093742501
 21
49.14642454694804
 31
0.0
 11
19.34468922023921
 21
49.06588286844769
 31
0.0
  0
SPLINE
  5
279
330
52
100
AcDbEntity
  8
0
  6
Continuous
 62
     7
100
AcDbSpline
210
0.0
220
0.0
230
1.0
 70
     8
 71
     3
 72
    13
 73
     9
 74
     7
 42
0.000000001
 43
0.0000000001
 44
0.00000001
 40
0.0
 40
0.0
 40
0.0
 40
0.0
 40
0.1045567286508332
 40
0.206141800753683
 40
0.3022745471529423
 40
0.3916590361758923
 40
0.4747389888150986
 40
0.5539452715656588
 40
0.5539452715656588
 40
0.5539452715656588
 40
0.5539452715656588
 10
20.41119351277181
 20
43.66245576507116
 30
0.0
 10
20.43539629887953
 20
43.6372156774271
 30
0.0
 10
20.48311400189265
 20
43.58745287287434
 30
0.0
 10
20.56965052754473
 20
43.5338862397075
 30
0.0
 10
20.66036477567573
 20
43.50079313629045
 30
0.0
 10
20.75026927617047
 20
43.49245294119581
 30
0.0
 10
20.8350715791834
 20
43.507732751624
 30
0.0
 10
20.87988816179201
 20
43.5389873396626
 30
0.0
 10
20.9017615778881
 20
43.55424162596271
 30
0.0
 11
20.41119351277181
 21
43.66245576507116
 31
0.0
 11
20.48670826579626
 21
43.5901395767277
 31
0.0
 11
20.57276054903371
 21
43.53615317561335
 31
0.0
 11
20.66343119852369
 21
43.50421043652937
 31
0.0
 11
20.75248322685045
 21
43.49650824916756
 31
0.0
 11
20.83379093774546
 21
43.51357680141635
 31
0.0
 11
20.9017615778881
 21
43.55424162596271
 31
0.0
  0
SPLINE
  5
27A
330
52
100
AcDbEntity
  8
0
  6
Continuous
 62
     7
100
AcDbSpline
210
0.0
220
0.0
230
1.0
 70
     8
 71
     3
 72
    11
 73
     7
 74
     5
 42
0.000000001
 43
0.0000000001
 44
0.00000001
 40
0.0
 40
0.0
 40
0.0
 40
0.0
 40
0.1309988334403229
 40
0.2541253920138805
 40
0.3706767344519062
 40
0.4834504872167245
 40
0.4834504872167245
 40
0.4834504872167245
 40
0.4834504872167245
 10
20.03368232695581
 20
46.45994843658168
 30
0.0
 10
19.99093989674958
 20
46.46980499703571
 30
0.0
 10
19.90802360772516
 20
46.48892578107947
 30
0.0
 10
19.78337842114335
 20
46.48266289364594
 30
0.0
 10
19.66824628923685
 20
46.45051243582322
 30
0.0
 10
19.60602360822705
 20
46.40517582223998
 30
0.0
 10
19.57542475746021
 20
46.38288091614549
 30
0.0
 11
20.03368232695581
 21
46.45994843658168
 31
0.0
 11
19.90478090935691
 21
46.48329622017463
 31
0.0
 11
19.78177482804515
 21
46.47785067630134
 31
0.0
 11
19.67028987360435
 21
46.4438606627656
 31
0.0
 11
19.57542475746021
 21
46.38288091614549
 31
0.0
  0
SPLINE
  5
27B
330
52
100
AcDbEntity
  8
0
  6
Continuous
 62
     7
100
AcDbSpline
210
0.0
220
0.0
230
1.0
 70
     8
 71
     3
 72
    11
 73
     7
 74
     5
 42
0.000000001
 43
0.0000000001
 44
0.00000001
 40
0.0
 40
0.0
 40
0.0
 40
0.0
 40
0.093570595210945
 40
0.1815181363975945
 40
0.264769094469614
 40
0.3453217744506463
 40
0.3453217744506463
 40
0.3453217744506463
 40
0.3453217744506463
 10
19.76294737210811
 20
49.26608290803282
 30
0.0
 10
19.73241706485174
 20
49.27312330834934
 30
0.0
 10
19.67319114370421
 20
49.28678100706943
 30
0.0
 10
19.58415886809772
 20
49.28230751799494
 30
0.0
 10
19.50192163258103
 20
49.25934290353162
 30
0.0
 10
19.45747685857705
 20
49.22695961196268
 30
0.0
 10
19.43562053675411
 20
49.21103467914982
 30
0.0
 11
19.76294737210811
 21
49.26608290803282
 31
0.0
 11
19.67087493096603
 21
49.28275989631349
 31
0.0
 11
19.5830134443148
 21
49.2788702221183
 31
0.0
 11
19.50338133399993
 21
49.25459164102133
 31
0.0
 11
19.43562053675411
 21
49.21103467914982
 31
0.0
  0
SPLINE
  5
27C
330
52
100
AcDbEntity
  8
0
  6
Continuous
 62
     7
100
AcDbSpline
210
0.0
220
0.0
230
1.0
 70
     8
 71
     3
 72
    19
 73
    15
 74
    13
 42
0.000000001
 43
0.0000000001
 44
0.00000001
 40
0.0
 40
0.0
 40
0.0
 40
0.0
 40
0.3680059210525942
 40
0.7986432255765272
 40
1.320263020133516
 40
1.930285536548568
 40
2.607608345772853
 40
3.320900935876108
 40
4.034193525979354
 40
4.711516335203651
 40
5.321538851618698
 40
5.843158646175687
 40
6.27379595069964
 40
6.641801871752259
 40
6.641801871752259
 40
6.641801871752259
 40
6.641801871752259
 10
32.78877481542541
 20
80.59431302762393
 30
0.0
 10
32.80972919183854
 20
80.47109341583348
 30
0.0
 10
32.85520421419601
 20
80.20368330137222
 30
0.0
 10
33.1705067982252
 20
79.86892874951161
 30
0.0
 10
33.61120501263098
 20
79.59166270509952
 30
0.0
 10
34.18140781530032
 20
79.38113505085894
 30
0.0
 10
34.83680972885908
 20
79.24907522613489
 30
0.0
 10
35.53877481542535
 20
79.20404699741
 30
0.0
 10
36.24073990199163
 20
79.24907522613485
 30
0.0
 10
36.89614181555039
 20
79.381135050859
 30
0.0
 10
37.46634461821972
 20
79.59166270509952
 30
0.0
 10
37.90704283262554
 20
79.8689287495116
 30
0.0
 10
38.22234541665469
 20
80.20368330137227
 30
0.0
 10
38.26782043901225
 20
80.47109341583348
 30
0.0
 10
38.28877481542541
 20
80.59431302762394
 30
0.0
 11
32.78877481542541
 21
80.59431302762393
 31
0.0
 11
32.88247950131428
 21
80.2384369354866
 31
0.0
 11
33.15720495501816
 21
79.90681302762394
 31
0.0
 11
33.59423168558893
 21
79.62204146270572
 31
0.0
 11
34.16377481542536
 21
79.40352809742033
 31
0.0
 11
34.8270226311507
 21
79.2661653705684
 31
0.0
 11
35.53877481542536
 21
79.21931302762394
 31
0.0
 11
36.25052699970001
 21
79.26616537056839
 31
0.0
 11
36.91377481542536
 21
79.40352809742035
 31
0.0
 11
37.48331794526178
 21
79.62204146270572
 31
0.0
 11
37.92034467583255
 21
79.90681302762394
 31
0.0
 11
38.19507012953645
 21
80.23843693548662
 31
0.0
 11
38.28877481542541
 21
80.59431302762394
 31
0.0
  0
ENDBLK
  5
54
330
52
100
AcDbEntity
  8
0
100
AcDbBlockEnd
  0
BLOCK
  5
57
330
55
100
AcDbEntity
  8
0
100
AcDbBlockBegin
  2
AllgSicht1
 70
     0
 10
27.9513661499494
 20
62.00000002391016
 30
0.0
  3
AllgSicht1
  1

  0
INSERT
  5
56
330
55
100
AcDbEntity
  8
0
100
AcDbBlockReference
  2
URKN-select__1
 10
6.58863793320238
 20
35.42591171876603
 30
0.0
  0
MTEXT
  5
27D
330
55
100
AcDbEntity
  8
1
 62
     6
100
AcDbMText
 10
27.95136614994991
 20
28.10716155411592
 30
0.0
 40
5.0
 41
0.0
 71
     2
 72
     1
  1
 
  7
CONVERTER_11
 73
     1
 44
1.32052821128451
  0
ENDBLK
  5
58
330
55
100
AcDbEntity
  8
0
100
AcDbBlockEnd
  0
BLOCK
  5
5A
330
59
100
AcDbEntity
  8
0
100
AcDbBlockBegin
  2
URKN-select__2
 70
     0
 10
-133.5500010937325
 20
58.29999961851993
 30
0.0
  3
URKN-select__2
  1

  0
LINE
  5
27E
330
59
100
AcDbEntity
  8
1
  6
DOT_CENTER
 62
     2
100
AcDbLine
 10
-120.5750010937325
 20
65.57499961851994
 30
0.0
 11
-120.5750010937325
 21
59.52499961851994
 31
0.0
  0
LINE
  5
27F
330
59
100
AcDbEntity
  8
1
  6
DOT_CENTER
 62
     2
100
AcDbLine
 10
-117.5500010937325
 20
62.54999961851993
 30
0.0
 11
-123.6000010937325
 21
62.54999961851993
 31
0.0
  0
LINE
  5
280
330
59
100
AcDbEntity
  8
1
  6
DOT_CENTER
 62
     2
100
AcDbLine
 10
-102.5750010937325
 20
65.57499961851994
 30
0.0
 11
-102.5750010937325
 21
59.52499961851993
 31
0.0
  0
LINE
  5
281
330
59
100
AcDbEntity
  8
1
  6
DOT_CENTER
 62
     2
100
AcDbLine
 10
-99.55000109373253
 20
62.54999961851993
 30
0.0
 11
-105.6000010937325
 21
62.54999961851993
 31
0.0
  0
LINE
  5
282
330
59
100
AcDbEntity
  8
0
  6
Continuous
 62
     7
100
AcDbLine
 10
-92.29517390624451
 20
58.29999961851993
 30
0.0
 11
-90.07500109373265
 21
58.29999961851993
 31
0.0
  0
LINE
  5
283
330
59
100
AcDbEntity
  8
0
  6
Continuous
 62
     7
100
AcDbLine
 10
-98.07130232200892
 20
58.29999961851993
 30
0.0
 11
-95.85482828122068
 21
58.29999961851993
 31
0.0
  0
LINE
  5
284
330
59
100
AcDbEntity
  8
0
  6
Continuous
 62
     7
100
AcDbLine
 10
-95.85482828122068
 20
58.29999961851993
 30
0.0
 11
-95.24338175074801
 21
58.29999961851993
 31
0.0
  0
LINE
  5
285
330
59
100
AcDbEntity
  8
0
  6
Continuous
 62
     7
100
AcDbLine
 10
-107.6750010937326
 20
58.29999961851993
 30
0.0
 11
-98.07130232200892
 21
58.29999961851993
 31
0.0
  0
LINE
  5
286
330
59
100
AcDbEntity
  8
0
  6
Continuous
 62
     7
100
AcDbLine
 10
-127.2951739062445
 20
58.29999961851993
 30
0.0
 11
-125.0786998654561
 21
58.29999961851993
 31
0.0
  0
LINE
  5
287
330
59
100
AcDbEntity
  8
0
  6
Continuous
 62
     7
100
AcDbLine
 10
-127.9066204367169
 20
58.29999961851993
 30
0.0
 11
-127.2951739062445
 21
58.29999961851993
 31
0.0
  0
LINE
  5
288
330
59
100
AcDbEntity
  8
0
  6
Continuous
 62
     7
100
AcDbLine
 10
-128.5693183852232
 20
58.29999961851993
 30
0.0
 11
-127.9066204367169
 21
58.29999961851993
 31
0.0
  0
LINE
  5
289
330
59
100
AcDbEntity
  8
0
  6
Continuous
 62
     7
100
AcDbLine
 10
-107.6750010937326
 20
58.29999961851993
 30
0.0
 11
-107.6750010937326
 21
66.94999961851994
 31
0.0
  0
LINE
  5
28A
330
59
100
AcDbEntity
  8
0
  6
Continuous
 62
     7
100
AcDbLine
 10
-107.6750010937326
 20
58.29999961851993
 30
0.0
 11
-115.4750010937325
 21
58.29999961851993
 31
0.0
  0
LINE
  5
28B
330
59
100
AcDbEntity
  8
0
  6
Continuous
 62
     7
100
AcDbLine
 10
-118.2808364757542
 20
64.0663467771931
 30
0.0
 11
-122.0913482524057
 21
60.25583500054157
 31
0.0
  0
LINE
  5
28C
330
59
100
AcDbEntity
  8
0
  6
Continuous
 62
     7
100
AcDbLine
 10
-127.9066204367169
 20
68.44999961851994
 30
0.0
 11
-127.9066204367169
 21
58.29999961851993
 31
0.0
  0
LINE
  5
28D
330
59
100
AcDbEntity
  8
0
  6
Continuous
 62
     7
100
AcDbLine
 10
-125.0786998654561
 20
58.29999961851993
 30
0.0
 11
-125.0786998654561
 21
68.44999961851994
 31
0.0
  0
LINE
  5
28E
330
59
100
AcDbEntity
  8
0
  6
Continuous
 62
     7
100
AcDbLine
 10
-122.8691657117109
 20
61.03365245984678
 30
0.0
 11
-119.0586539350594
 21
64.8441642364983
 31
0.0
  0
LINE
  5
28F
330
59
100
AcDbEntity
  8
0
  6
Continuous
 62
     7
100
AcDbLine
 10
-113.3250010937325
 20
66.94999961851994
 30
0.0
 11
-109.8250010937325
 21
66.94999961851994
 31
0.0
  0
LINE
  5
290
330
59
100
AcDbEntity
  8
0
  6
Continuous
 62
     7
100
AcDbLine
 10
-113.3250010937325
 20
66.94999961851994
 30
0.0
 11
-115.4750010937325
 21
66.94999961851994
 31
0.0
  0
LINE
  5
291
330
59
100
AcDbEntity
  8
0
  6
Continuous
 62
     7
100
AcDbLine
 10
-125.0786998654561
 20
58.29999961851993
 30
0.0
 11
-115.4750010937325
 21
58.29999961851993
 31
0.0
  0
LINE
  5
292
330
59
100
AcDbEntity
  8
0
  6
Continuous
 62
     7
100
AcDbLine
 10
-115.4750010937325
 20
66.94999961851994
 30
0.0
 11
-115.4750010937325
 21
58.29999961851993
 31
0.0
  0
LINE
  5
293
330
59
100
AcDbEntity
  8
0
  6
Continuous
 62
     7
100
AcDbLine
 10
-113.3250010937325
 20
66.94999961851994
 30
0.0
 11
-113.3250010937325
 21
68.44999961851994
 31
0.0
  0
LINE
  5
294
330
59
100
AcDbEntity
  8
0
  6
Continuous
 62
     7
100
AcDbLine
 10
-109.8250010937325
 20
68.44999961851994
 30
0.0
 11
-113.3250010937325
 21
68.44999961851994
 31
0.0
  0
LINE
  5
295
330
59
100
AcDbEntity
  8
0
  6
Continuous
 62
     7
100
AcDbLine
 10
-109.8250010937325
 20
68.44999961851994
 30
0.0
 11
-109.8250010937325
 21
66.94999961851994
 31
0.0
  0
LINE
  5
296
330
59
100
AcDbEntity
  8
0
  6
Continuous
 62
     7
100
AcDbLine
 10
-127.2951739062445
 20
58.29999961851993
 30
0.0
 11
-127.2951739062445
 21
68.44999961851994
 31
0.0
  0
LINE
  5
297
330
59
100
AcDbEntity
  8
0
  6
Continuous
 62
     7
100
AcDbLine
 10
-130.8548282812206
 20
58.29999961851993
 30
0.0
 11
-128.5693183852232
 21
58.29999961851993
 31
0.0
  0
LINE
  5
298
330
59
100
AcDbEntity
  8
0
  6
Continuous
 62
     7
100
AcDbLine
 10
-128.5693183852232
 20
58.29999961851993
 30
0.0
 11
-128.5693183852232
 21
68.44999961851994
 31
0.0
  0
LINE
  5
299
330
59
100
AcDbEntity
  8
0
  6
Continuous
 62
     7
100
AcDbLine
 10
-130.8548282812206
 20
58.29999961851993
 30
0.0
 11
-130.8548282812206
 21
68.44999961851994
 31
0.0
  0
LINE
  5
29A
330
59
100
AcDbEntity
  8
0
  6
Continuous
 62
     7
100
AcDbLine
 10
-133.0750010937325
 20
58.29999961851993
 30
0.0
 11
-130.8548282812206
 21
58.29999961851993
 31
0.0
  0
LINE
  5
29B
330
59
100
AcDbEntity
  8
0
  6
Continuous
 62
     7
100
AcDbLine
 10
-133.0750010937325
 20
58.29999961851993
 30
0.0
 11
-133.0750010937325
 21
68.44999961851994
 31
0.0
  0
LINE
  5
29C
330
59
100
AcDbEntity
  8
0
  6
Continuous
 62
     7
100
AcDbLine
 10
-133.0750010937325
 20
58.29999961851993
 30
0.0
 11
-133.5500010937325
 21
58.29999961851993
 31
0.0
  0
LINE
  5
29D
330
59
100
AcDbEntity
  8
0
  6
Continuous
 62
     7
100
AcDbLine
 10
-133.5500010937325
 20
68.44999961851994
 30
0.0
 11
-133.5500010937325
 21
58.29999961851993
 31
0.0
  0
LINE
  5
29E
330
59
100
AcDbEntity
  8
0
  6
Continuous
 62
     7
100
AcDbLine
 10
-107.6750010937326
 20
66.94999961851994
 30
0.0
 11
-109.8250010937325
 21
66.94999961851994
 31
0.0
  0
LINE
  5
29F
330
59
100
AcDbEntity
  8
0
  6
Continuous
 62
     7
100
AcDbLine
 10
-90.07500109373265
 20
58.29999961851993
 30
0.0
 11
-90.07500109373265
 21
68.44999961851994
 31
0.0
  0
LINE
  5
2A0
330
59
100
AcDbEntity
  8
0
  6
Continuous
 62
     7
100
AcDbLine
 10
-92.29517390624451
 20
58.29999961851993
 30
0.0
 11
-92.29517390624451
 21
68.44999961851994
 31
0.0
  0
LINE
  5
2A1
330
59
100
AcDbEntity
  8
0
  6
Continuous
 62
     7
100
AcDbLine
 10
-95.24338175074804
 20
68.44999961851994
 30
0.0
 11
-95.24338175074801
 21
58.29999961851993
 31
0.0
  0
LINE
  5
2A2
330
59
100
AcDbEntity
  8
0
  6
Continuous
 62
     7
100
AcDbLine
 10
-95.24338175074804
 20
68.44999961851994
 30
0.0
 11
-94.58068380224177
 21
68.44999961851994
 31
0.0
  0
LINE
  5
2A3
330
59
100
AcDbEntity
  8
0
  6
Continuous
 62
     7
100
AcDbLine
 10
-94.58068380224181
 20
58.29999961851993
 30
0.0
 11
-92.29517390624451
 21
58.29999961851993
 31
0.0
  0
LINE
  5
2A4
330
59
100
AcDbEntity
  8
0
  6
Continuous
 62
     7
100
AcDbLine
 10
-95.24338175074801
 20
58.29999961851993
 30
0.0
 11
-94.58068380224181
 21
58.29999961851993
 31
0.0
  0
LINE
  5
2A5
330
59
100
AcDbEntity
  8
0
  6
Continuous
 62
     7
100
AcDbLine
 10
-94.58068380224181
 20
58.29999961851993
 30
0.0
 11
-94.58068380224177
 21
68.44999961851994
 31
0.0
  0
LINE
  5
2A6
330
59
100
AcDbEntity
  8
0
  6
Continuous
 62
     7
100
AcDbLine
 10
-92.29517390624451
 20
68.44999961851994
 30
0.0
 11
-90.07500109373265
 21
68.44999961851994
 31
0.0
  0
LINE
  5
2A7
330
59
100
AcDbEntity
  8
0
  6
Continuous
 62
     7
100
AcDbLine
 10
-94.58068380224177
 20
68.44999961851994
 30
0.0
 11
-92.29517390624451
 21
68.44999961851994
 31
0.0
  0
LINE
  5
2A8
330
59
100
AcDbEntity
  8
0
  6
Continuous
 62
     2
100
AcDbLine
 10
-133.3000010937325
 20
68.44999961851994
 30
0.0
 11
-133.3000010937325
 21
67.39999961851993
 31
0.0
  0
LINE
  5
2A9
330
59
100
AcDbEntity
  8
0
  6
Continuous
 62
     7
100
AcDbLine
 10
-128.5693183852232
 20
68.44999961851994
 30
0.0
 11
-127.9066204367169
 21
68.44999961851994
 31
0.0
  0
LINE
  5
2AA
330
59
100
AcDbEntity
  8
0
  6
Continuous
 62
     7
100
AcDbLine
 10
-127.2951739062445
 20
68.44999961851994
 30
0.0
 11
-125.0786998654561
 21
68.44999961851994
 31
0.0
  0
LINE
  5
2AB
330
59
100
AcDbEntity
  8
0
  6
Continuous
 62
     7
100
AcDbLine
 10
-98.07130232200892
 20
68.44999961851994
 30
0.0
 11
-95.85482828122068
 21
68.44999961851994
 31
0.0
  0
LINE
  5
2AC
330
59
100
AcDbEntity
  8
0
  6
Continuous
 62
     7
100
AcDbLine
 10
-95.85482828122068
 20
68.44999961851994
 30
0.0
 11
-95.24338175074804
 21
68.44999961851994
 31
0.0
  0
LINE
  5
2AD
330
59
100
AcDbEntity
  8
0
  6
Continuous
 62
     7
100
AcDbLine
 10
-109.8250010937325
 20
68.44999961851994
 30
0.0
 11
-98.07130232200892
 21
68.44999961851994
 31
0.0
  0
LINE
  5
2AE
330
59
100
AcDbEntity
  8
0
  6
Continuous
 62
     7
100
AcDbLine
 10
-125.0786998654561
 20
68.44999961851994
 30
0.0
 11
-113.3250010937325
 21
68.44999961851994
 31
0.0
  0
LINE
  5
2AF
330
59
100
AcDbEntity
  8
0
  6
Continuous
 62
     7
100
AcDbLine
 10
-127.9066204367169
 20
68.44999961851994
 30
0.0
 11
-127.2951739062445
 21
68.44999961851994
 31
0.0
  0
LINE
  5
2B0
330
59
100
AcDbEntity
  8
0
  6
Continuous
 62
     7
100
AcDbLine
 10
-130.8548282812206
 20
68.44999961851994
 30
0.0
 11
-128.5693183852232
 21
68.44999961851994
 31
0.0
  0
LINE
  5
2B1
330
59
100
AcDbEntity
  8
0
  6
Continuous
 62
     7
100
AcDbLine
 10
-133.0750010937325
 20
68.44999961851994
 30
0.0
 11
-130.8548282812206
 21
68.44999961851994
 31
0.0
  0
LINE
  5
2B2
330
59
100
AcDbEntity
  8
0
  6
Continuous
 62
     7
100
AcDbLine
 10
-133.3000010937325
 20
68.44999961851994
 30
0.0
 11
-133.0750010937325
 21
68.44999961851994
 31
0.0
  0
LINE
  5
2B3
330
59
100
AcDbEntity
  8
0
  6
Continuous
 62
     7
100
AcDbLine
 10
-133.3000010937325
 20
67.39999961851993
 30
0.0
 11
-133.0750010937325
 21
67.39999961851993
 31
0.0
  0
LINE
  5
2B4
330
59
100
AcDbEntity
  8
0
  6
Continuous
 62
     7
100
AcDbLine
 10
-133.3000010937325
 20
68.44999961851994
 30
0.0
 11
-133.5500010937325
 21
68.44999961851994
 31
0.0
  0
LINE
  5
2B5
330
59
100
AcDbEntity
  8
0
  6
Continuous
 62
     7
100
AcDbLine
 10
-104.8691657117109
 20
61.03365245984678
 30
0.0
 11
-101.0586539350594
 21
64.8441642364983
 31
0.0
  0
LINE
  5
2B6
330
59
100
AcDbEntity
  8
0
  6
Continuous
 62
     7
100
AcDbLine
 10
-100.2808364757542
 20
64.0663467771931
 30
0.0
 11
-104.0913482524057
 21
60.25583500054157
 31
0.0
  0
LINE
  5
2B7
330
59
100
AcDbEntity
  8
0
  6
Continuous
 62
     7
100
AcDbLine
 10
-98.07130232200892
 20
58.29999961851993
 30
0.0
 11
-98.07130232200892
 21
68.44999961851994
 31
0.0
  0
LINE
  5
2B8
330
59
100
AcDbEntity
  8
0
  6
Continuous
 62
     7
100
AcDbLine
 10
-95.85482828122068
 20
58.29999961851993
 30
0.0
 11
-95.85482828122068
 21
68.44999961851994
 31
0.0
  0
ARC
  5
2B9
330
59
100
AcDbEntity
  8
0
  6
Continuous
 62
     7
100
AcDbCircle
 10
-102.5750010937325
 20
62.54999961851993
 30
0.0
 40
2.750000000000008
100
AcDbArc
 50
236.5369590328147
 51
33.46304096718555
  0
ARC
  5
2BA
330
59
100
AcDbEntity
  8
0
  6
Continuous
 62
     7
100
AcDbCircle
 10
-120.5750010937325
 20
62.54999961851993
 30
0.0
 40
2.750000000000008
100
AcDbArc
 50
236.5369590328147
 51
33.46304096718555
  0
ARC
  5
2BB
330
59
100
AcDbEntity
  8
0
  6
Continuous
 62
     7
100
AcDbCircle
 10
-120.5750010937325
 20
62.54999961851993
 30
0.0
 40
2.750000000000028
100
AcDbArc
 50
213.4630409671837
 51
236.5369590328147
  0
ARC
  5
2BC
330
59
100
AcDbEntity
  8
0
  6
Continuous
 62
     7
100
AcDbCircle
 10
-120.5750010937325
 20
62.54999961851993
 30
0.0
 40
2.749999999999949
100
AcDbArc
 50
33.46304096718555
 51
56.5369590328167
  0
ARC
  5
2BD
330
59
100
AcDbEntity
  8
0
  6
Continuous
 62
     7
100
AcDbCircle
 10
-120.5750010937325
 20
62.54999961851993
 30
0.0
 40
2.749999999999971
100
AcDbArc
 50
56.5369590328167
 51
180.0
  0
ARC
  5
2BE
330
59
100
AcDbEntity
  8
0
  6
Continuous
 62
     7
100
AcDbCircle
 10
-120.5750010937325
 20
62.54999961851993
 30
0.0
 40
2.75
100
AcDbArc
 50
180.0
 51
213.4630409671837
  0
ARC
  5
2BF
330
59
100
AcDbEntity
  8
0
  6
Continuous
 62
     7
100
AcDbCircle
 10
-102.5750010937325
 20
62.54999961851993
 30
0.0
 40
2.749999999999971
100
AcDbArc
 50
56.5369590328167
 51
180.0
  0
ARC
  5
2C0
330
59
100
AcDbEntity
  8
0
  6
Continuous
 62
     7
100
AcDbCircle
 10
-102.5750010937325
 20
62.54999961851993
 30
0.0
 40
2.75
100
AcDbArc
 50
180.0
 51
213.4630409671837
  0
ARC
  5
2C1
330
59
100
AcDbEntity
  8
0
  6
Continuous
 62
     7
100
AcDbCircle
 10
-102.5750010937325
 20
62.54999961851993
 30
0.0
 40
2.749999999999949
100
AcDbArc
 50
33.46304096718555
 51
56.5369590328167
  0
ARC
  5
2C2
330
59
100
AcDbEntity
  8
0
  6
Continuous
 62
     7
100
AcDbCircle
 10
-102.5750010937325
 20
62.54999961851993
 30
0.0
 40
2.750000000000028
100
AcDbArc
 50
213.4630409671837
 51
236.5369590328147
  0
ENDBLK
  5
5B
330
59
100
AcDbEntity
  8
0
100
AcDbBlockEnd
  0
BLOCK
  5
5E
330
5C
100
AcDbEntity
  8
0
100
AcDbBlockBegin
  2
Drfsicht1
 70
     0
 10
-111.8125000468662
 20
63.37499980925986
 30
0.0
  3
Drfsicht1
  1

  0
INSERT
  5
5D
330
5C
100
AcDbEntity
  8
0
100
AcDbBlockReference
  2
URKN-select__2
 10
-133.5500010937325
 20
58.29999961851993
 30
0.0
  0
DIMENSION
  5
2CE
330
5C
100
AcDbEntity
  8
1
100
AcDbDimension
  2
*D17
 10
-143.5500010937325
 20
58.29999961851993
 30
0.0
 11
-146.9750010937325
 21
50.6530588569361
 31
0.0
 70
    33
  1
<>
 71
     5
 42
-1.0
 53
90.0
  3
ME10_DIM_10
100
AcDbAlignedDimension
 13
-133.5500010937325
 23
68.44999961851994
 33
0.0
 14
-133.5500010937325
 24
58.29999961851993
 34
0.0
  0
ENDBLK
  5
5F
330
5C
100
AcDbEntity
  8
0
100
AcDbBlockEnd
  0
BLOCK
  5
61
330
60
100
AcDbEntity
  8
0
100
AcDbBlockBegin
  2
URKN-select__3
 70
     0
 10
-22.73749885749373
 20
111.4499995851658
 30
0.0
  3
URKN-select__3
  1

  0
LINE
  5
2CF
330
60
100
AcDbEntity
  8
0
  6
Continuous
 62
     7
100
AcDbLine
 10
15.09412048549068
 20
149.301897475973
 30
0.0
 11
11.93162048549066
 21
154.7795081549096
 31
0.0
  0
LINE
  5
2D0
330
60
100
AcDbEntity
  8
0
  6
Continuous
 62
     7
100
AcDbLine
 10
-17.23749885749371
 20
116.3499995851659
 30
0.0
 11
-18.03749885749375
 21
116.5499995851659
 31
0.0
  0
LINE
  5
2D1
330
60
100
AcDbEntity
  8
0
  6
Continuous
 62
     7
100
AcDbLine
 10
-21.65263924866724
 20
114.9499995851659
 30
0.0
 11
-18.18749885749372
 21
114.9499995851658
 31
0.0
  0
LINE
  5
2D2
330
60
100
AcDbEntity
  8
0
  6
Continuous
 62
     7
100
AcDbLine
 10
-18.18749885749372
 20
114.9499995851658
 30
0.0
 11
-17.23749885749371
 21
115.8999995851659
 31
0.0
  0
LINE
  5
2D3
330
60
100
AcDbEntity
  8
0
  6
Continuous
 62
     7
100
AcDbLine
 10
-17.23749885749371
 20
115.8999995851659
 30
0.0
 11
-17.23749885749371
 21
116.3499995851659
 31
0.0
  0
LINE
  5
2D4
330
60
100
AcDbEntity
  8
0
  6
Continuous
 62
     7
100
AcDbLine
 10
16.83750114250631
 20
121.2472798843003
 30
0.0
 11
16.83750114250631
 21
120.035640231221
 31
0.0
  0
LINE
  5
2D5
330
60
100
AcDbEntity
  8
0
  6
Continuous
 62
     7
100
AcDbLine
 10
12.42617627710109
 20
120.8499995851659
 30
0.0
 11
16.83750114250631
 21
121.2472798843003
 31
0.0
  0
LINE
  5
2D6
330
60
100
AcDbEntity
  8
0
  6
Continuous
 62
     7
100
AcDbLine
 10
12.13750114250629
 20
120.3499995851659
 30
0.0
 11
12.42617627710109
 21
120.8499995851659
 31
0.0
  0
LINE
  5
2D7
330
60
100
AcDbEntity
  8
0
  6
Continuous
 62
     7
100
AcDbLine
 10
6.33750114250631
 20
120.3499995851659
 30
0.0
 11
12.13750114250629
 21
120.3499995851659
 31
0.0
  0
LINE
  5
2D8
330
60
100
AcDbEntity
  8
0
  6
Continuous
 62
     7
100
AcDbLine
 10
6.00808185377155
 20
121.5794091077171
 30
0.0
 11
6.33750114250631
 21
120.3499995851659
 31
0.0
  0
LINE
  5
2D9
330
60
100
AcDbEntity
  8
0
  6
Continuous
 62
     7
100
AcDbLine
 10
5.41250114250629
 20
121.9499995851659
 30
0.0
 11
5.525118940627
 21
121.9499995851659
 31
0.0
  0
LINE
  5
2DA
330
60
100
AcDbEntity
  8
0
  6
Continuous
 62
     7
100
AcDbLine
 10
-12.9374988574937
 20
121.9499995851659
 30
0.0
 11
-12.4374988574937
 21
121.9499995851659
 31
0.0
  0
LINE
  5
2DB
330
60
100
AcDbEntity
  8
0
  6
Continuous
 62
     7
100
AcDbLine
 10
16.83750114250631
 20
120.035640231221
 30
0.0
 11
16.03750114250629
 21
118.6499995851659
 31
0.0
  0
LINE
  5
2DC
330
60
100
AcDbEntity
  8
0
  6
Continuous
 62
     7
100
AcDbLine
 10
16.03750114250629
 20
117.9504114872721
 30
0.0
 11
17.17409351935638
 21
117.7499995851659
 31
0.0
  0
LINE
  5
2DD
330
60
100
AcDbEntity
  8
0
  6
Continuous
 62
     7
100
AcDbLine
 10
17.17409351935638
 20
117.7499995851659
 30
0.0
 11
16.96250114250631
 21
116.5499995851659
 31
0.0
  0
LINE
  5
2DE
330
60
100
AcDbEntity
  8
0
  6
Continuous
 62
     7
100
AcDbLine
 10
16.96250114250631
 20
116.5499995851659
 30
0.0
 11
15.93722181039811
 21
116.3499995851659
 31
0.0
  0
LINE
  5
2DF
330
60
100
AcDbEntity
  8
0
  6
Continuous
 62
     7
100
AcDbLine
 10
15.93722181039811
 20
116.3499995851659
 30
0.0
 11
15.93722181039806
 21
116.1499995851659
 31
0.0
  0
LINE
  5
2E0
330
60
100
AcDbEntity
  8
0
  6
Continuous
 62
     7
100
AcDbLine
 10
16.03750114250629
 20
118.6499995851659
 30
0.0
 11
16.03750114250629
 21
117.9504114872721
 31
0.0
  0
LINE
  5
2E1
330
60
100
AcDbEntity
  8
0
  6
Continuous
 62
     7
100
AcDbLine
 10
-18.0374988574937
 20
117.7499995851659
 30
0.0
 11
-13.96249885749379
 21
117.7499995851659
 31
0.0
  0
LINE
  5
2E2
330
60
100
AcDbEntity
  8
0
  6
Continuous
 62
     7
100
AcDbLine
 10
-13.96249885749379
 20
117.7499995851659
 30
0.0
 11
-13.4374988574937
 21
120.1181215495887
 31
0.0
  0
LINE
  5
2E3
330
60
100
AcDbEntity
  8
0
  6
Continuous
 62
     7
100
AcDbLine
 10
4.91250114250629
 20
119.0999995851659
 30
0.0
 11
4.91250114250629
 21
121.4499995851659
 31
0.0
  0
LINE
  5
2E4
330
60
100
AcDbEntity
  8
0
  6
Continuous
 62
     7
100
AcDbLine
 10
-11.9374988574937
 20
121.4499995851659
 30
0.0
 11
-11.9374988574937
 21
120.3756175021522
 31
0.0
  0
LINE
  5
2E5
330
60
100
AcDbEntity
  8
0
  6
Continuous
 62
     7
100
AcDbLine
 10
-13.4374988574937
 20
120.1181215495887
 30
0.0
 11
-13.4374988574937
 21
121.4499995851659
 31
0.0
  0
LINE
  5
2E6
330
60
100
AcDbEntity
  8
0
  6
Continuous
 62
     7
100
AcDbLine
 10
-22.73749885749373
 20
127.3500016552048
 30
0.0
 11
-21.65263924866724
 21
114.9499995851659
 31
0.0
  0
LINE
  5
2E7
330
60
100
AcDbEntity
  8
0
  6
Continuous
 62
     7
100
AcDbLine
 10
-18.03749885749375
 20
116.5499995851659
 30
0.0
 11
-18.0374988574937
 21
117.7499995851659
 31
0.0
  0
LINE
  5
2E8
330
60
100
AcDbEntity
  8
0
  6
Continuous
 62
     7
100
AcDbLine
 10
20.48750114250628
 20
114.3830122870581
 30
0.0
 11
18.73750114250628
 21
115.3933752581399
 31
0.0
  0
LINE
  5
2E9
330
60
100
AcDbEntity
  8
0
  6
Continuous
 62
     7
100
AcDbLine
 10
-11.9374988574937
 20
120.3756175021522
 30
0.0
 11
-13.16249885749369
 21
114.8499995851659
 31
0.0
  0
LINE
  5
2EA
330
60
100
AcDbEntity
  8
0
  6
Continuous
 62
     7
100
AcDbLine
 10
20.73750114250628
 20
111.4499995851659
 30
0.0
 11
20.73750114250628
 21
113.9499995851659
 31
0.0
  0
LINE
  5
2EB
330
60
100
AcDbEntity
  8
0
  6
Continuous
 62
     7
100
AcDbLine
 10
20.26250114250629
 20
127.3500016552049
 30
0.0
 11
20.2625011425062
 21
146.699999585166
 31
0.0
  0
LINE
  5
2EC
330
60
100
AcDbEntity
  8
0
  6
Continuous
 62
     7
100
AcDbLine
 10
-20.51732604498174
 20
150.5454516980197
 30
0.0
 11
-22.73749885749361
 21
146.699999585166
 31
0.0
  0
LINE
  5
2ED
330
60
100
AcDbEntity
  8
0
  6
Continuous
 62
     7
100
AcDbLine
 10
-18.23181614898449
 20
150.2940709590883
 30
0.0
 11
-20.51732604498174
 21
150.5454516980197
 31
0.0
  0
LINE
  5
2EE
330
60
100
AcDbEntity
  8
0
  6
Continuous
 62
     7
100
AcDbLine
 10
-18.49576538252745
 20
149.836897475973
 30
0.0
 11
-18.23181614898449
 21
150.2940709590883
 31
0.0
  0
LINE
  5
2EF
330
60
100
AcDbEntity
  8
0
  6
Continuous
 62
     7
100
AcDbLine
 10
-17.56911820047822
 20
149.3018974759731
 30
0.0
 11
-18.49576538252745
 21
149.836897475973
 31
0.0
  0
LINE
  5
2F0
330
60
100
AcDbEntity
  8
0
  6
Continuous
 62
     7
100
AcDbLine
 10
19.2313535669831
 20
123.5017065132511
 30
0.0
 11
20.26250114250629
 21
127.3500016552049
 31
0.0
  0
LINE
  5
2F1
330
60
100
AcDbEntity
  8
0
  6
Continuous
 62
     7
100
AcDbLine
 10
17.5380726614116
 20
123.5017065132511
 30
0.0
 11
19.2313535669831
 21
123.5017065132511
 31
0.0
  0
LINE
  5
2F2
330
60
100
AcDbEntity
  8
0
  6
Continuous
 62
     7
100
AcDbLine
 10
-22.73749885749361
 20
146.699999585166
 30
0.0
 11
-22.73749885749373
 21
127.3500016552048
 31
0.0
  0
LINE
  5
2F3
330
60
100
AcDbEntity
  8
0
  6
Continuous
 62
     7
100
AcDbLine
 10
20.2625011425062
 20
146.699999585166
 30
0.0
 11
18.04232832999431
 21
150.5454516980197
 31
0.0
  0
LINE
  5
2F4
330
60
100
AcDbEntity
  8
0
  6
Continuous
 62
     7
100
AcDbLine
 10
18.2375011425062
 20
116.2594006619244
 30
0.0
 11
18.23750114250628
 21
121.9499995851659
 31
0.0
  0
LINE
  5
2F5
330
60
100
AcDbEntity
  8
0
  6
Continuous
 62
     7
100
AcDbLine
 10
-14.40661820047818
 20
154.7795081549097
 30
0.0
 11
-17.56911820047822
 21
149.3018974759731
 31
0.0
  0
LINE
  5
2F6
330
60
100
AcDbEntity
  8
0
  6
Continuous
 62
     7
100
AcDbLine
 10
-16.95767167000557
 20
156.7109539328629
 30
0.0
 11
-15.59721461607029
 21
154.8573346717943
 31
0.0
  0
LINE
  5
2F7
330
60
100
AcDbEntity
  8
0
  6
Continuous
 62
     7
100
AcDbLine
 10
-2.98749885749371
 20
153.5499995851659
 30
0.0
 11
0.51250114250629
 21
153.5499995851659
 31
0.0
  0
LINE
  5
2F8
330
60
100
AcDbEntity
  8
0
  6
Continuous
 62
     7
100
AcDbLine
 10
17.23750114250628
 20
122.9499995851659
 30
0.0
 11
13.6625011425063
 21
122.9499995851659
 31
0.0
  0
LINE
  5
2F9
330
60
100
AcDbEntity
  8
0
  6
Continuous
 62
     7
100
AcDbLine
 10
-14.74119762921733
 20
160.5499995851659
 30
0.0
 11
-16.95767167000557
 21
156.7109539328629
 31
0.0
  0
LINE
  5
2FA
330
60
100
AcDbEntity
  8
0
  6
Continuous
 62
     7
100
AcDbLine
 10
-2.98749885749371
 20
160.5499995851659
 30
0.0
 11
-14.74119762921733
 21
160.5499995851659
 31
0.0
  0
LINE
  5
2FB
330
60
100
AcDbEntity
  8
0
  6
Continuous
 62
     7
100
AcDbLine
 10
13.12221690108296
 20
154.8573346717942
 30
0.0
 11
14.48267395501822
 21
156.710953932863
 31
0.0
  0
LINE
  5
2FC
330
60
100
AcDbEntity
  8
0
  6
Continuous
 62
     7
100
AcDbLine
 10
12.85826766753995
 20
155.3145081549096
 30
0.0
 11
13.12221690108296
 21
154.8573346717942
 31
0.0
  0
LINE
  5
2FD
330
60
100
AcDbEntity
  8
0
  6
Continuous
 62
     7
100
AcDbLine
 10
13.6625011425063
 20
123.9999995851659
 30
0.0
 11
16.78039436131968
 21
123.9999995851659
 31
0.0
  0
LINE
  5
2FE
330
60
100
AcDbEntity
  8
0
  6
Continuous
 62
     7
100
AcDbLine
 10
-15.59721461607029
 20
154.8573346717943
 30
0.0
 11
-15.33326538252739
 21
155.3145081549097
 31
0.0
  0
LINE
  5
2FF
330
60
100
AcDbEntity
  8
0
  6
Continuous
 62
     7
100
AcDbLine
 10
-15.33326538252739
 20
155.3145081549097
 30
0.0
 11
-14.40661820047818
 21
154.7795081549097
 31
0.0
  0
LINE
  5
300
330
60
100
AcDbEntity
  8
0
  6
Continuous
 62
     7
100
AcDbLine
 10
-10.51249885749372
 20
111.4499995851659
 30
0.0
 11
-10.51249885749372
 21
113.0999995851659
 31
0.0
  0
LINE
  5
301
330
60
100
AcDbEntity
  8
0
  6
Continuous
 62
     7
100
AcDbLine
 10
17.33097930863186
 20
111.4499995851658
 30
0.0
 11
20.73750114250628
 21
111.4499995851659
 31
0.0
  0
LINE
  5
302
330
60
100
AcDbEntity
  8
0
  6
Continuous
 62
     7
100
AcDbLine
 10
-13.16249885749369
 20
114.8499995851659
 30
0.0
 11
-13.16249885749369
 21
114.3499995851659
 31
0.0
  0
LINE
  5
303
330
60
100
AcDbEntity
  8
0
  6
Continuous
 62
     7
100
AcDbLine
 10
-13.16249885749369
 20
114.3499995851659
 30
0.0
 11
-12.3124988574937
 21
114.3499995851659
 31
0.0
  0
LINE
  5
304
330
60
100
AcDbEntity
  8
0
  6
Continuous
 62
     7
100
AcDbLine
 10
-12.3124988574937
 20
114.3499995851659
 30
0.0
 11
-12.3124988574937
 21
112.8499995851659
 31
0.0
  0
LINE
  5
305
330
60
100
AcDbEntity
  8
0
  6
Continuous
 62
     7
100
AcDbLine
 10
-10.51249885749372
 20
113.0999995851659
 30
0.0
 11
-9.8724988574937
 21
113.0999995851659
 31
0.0
  0
LINE
  5
306
330
60
100
AcDbEntity
  8
0
  6
Continuous
 62
     7
100
AcDbLine
 10
-13.46249885749373
 20
112.7249995851659
 30
0.0
 11
-13.46249885749371
 21
111.4499995851659
 31
0.0
  0
LINE
  5
307
330
60
100
AcDbEntity
  8
0
  6
Continuous
 62
     7
100
AcDbLine
 10
-13.46249885749371
 20
111.4499995851659
 30
0.0
 11
-10.51249885749372
 21
111.4499995851659
 31
0.0
  0
LINE
  5
308
330
60
100
AcDbEntity
  8
0
  6
Continuous
 62
     7
100
AcDbLine
 10
-12.3124988574937
 20
112.8499995851659
 30
0.0
 11
-13.46249885749373
 21
112.7249995851659
 31
0.0
  0
LINE
  5
309
330
60
100
AcDbEntity
  8
0
  6
Continuous
 62
     7
100
AcDbLine
 10
-2.98749885749371
 20
160.5499995851659
 30
0.0
 11
-2.98749885749371
 21
153.5499995851659
 31
0.0
  0
LINE
  5
30A
330
60
100
AcDbEntity
  8
0
  6
Continuous
 62
     7
100
AcDbLine
 10
12.26619991422985
 20
160.5499995851659
 30
0.0
 11
0.51250114250629
 21
160.5499995851659
 31
0.0
  0
LINE
  5
30B
330
60
100
AcDbEntity
  8
0
  6
Continuous
 62
     7
100
AcDbLine
 10
14.48267395501822
 20
156.710953932863
 30
0.0
 11
12.26619991422985
 21
160.5499995851659
 31
0.0
  0
LINE
  5
30C
330
60
100
AcDbEntity
  8
0
  6
Continuous
 62
     7
100
AcDbLine
 10
11.93162048549066
 20
154.7795081549096
 30
0.0
 11
12.85826766753995
 21
155.3145081549096
 31
0.0
  0
LINE
  5
30D
330
60
100
AcDbEntity
  8
0
  6
Continuous
 62
     7
100
AcDbLine
 10
16.02076766754001
 20
149.836897475973
 30
0.0
 11
15.09412048549068
 21
149.301897475973
 31
0.0
  0
LINE
  5
30E
330
60
100
AcDbEntity
  8
0
  6
Continuous
 62
     7
100
AcDbLine
 10
0.51250114250629
 20
160.5499995851659
 30
0.0
 11
0.51250114250629
 21
153.5499995851659
 31
0.0
  0
LINE
  5
30F
330
60
100
AcDbEntity
  8
0
  6
Continuous
 62
     7
100
AcDbLine
 10
18.04232832999431
 20
150.5454516980197
 30
0.0
 11
15.75681843399696
 21
150.2940709590883
 31
0.0
  0
LINE
  5
310
330
60
100
AcDbEntity
  8
0
  6
Continuous
 62
     7
100
AcDbLine
 10
15.75681843399696
 20
150.2940709590883
 30
0.0
 11
16.02076766754001
 21
149.836897475973
 31
0.0
  0
ARC
  5
311
330
60
100
AcDbEntity
  8
0
  6
Continuous
 62
     7
100
AcDbCircle
 10
2.9241691115001
 20
116.1888761241218
 30
0.0
 40
1.199999999999927
100
AcDbArc
 50
353.076279155932
 51
79.29351303112074
  0
ARC
  5
312
330
60
100
AcDbEntity
  8
0
  6
Continuous
 62
     7
100
AcDbCircle
 10
5.525118940627
 20
121.4499995851659
 30
0.0
 40
0.4999999999999968
100
AcDbArc
 50
14.99999999999288
 51
90.0
  0
ARC
  5
313
330
60
100
AcDbEntity
  8
0
  6
Continuous
 62
     7
100
AcDbCircle
 10
5.41250114250629
 20
121.4499995851659
 30
0.0
 40
0.5
100
AcDbArc
 50
90.0
 51
180.0
  0
ARC
  5
314
330
60
100
AcDbEntity
  8
0
  6
Continuous
 62
     7
100
AcDbCircle
 10
-12.4374988574937
 20
121.4499995851659
 30
0.0
 40
0.5
100
AcDbArc
 50
0.0
 51
90.0
  0
ARC
  5
315
330
60
100
AcDbEntity
  8
0
  6
Continuous
 62
     7
100
AcDbCircle
 10
-12.9374988574937
 20
121.4499995851659
 30
0.0
 40
0.5
100
AcDbArc
 50
90.0
 51
180.0
  0
ARC
  5
316
330
60
100
AcDbEntity
  8
0
  6
Continuous
 62
     7
100
AcDbCircle
 10
2.5648548676126
 20
118.2116651709195
 30
0.0
 40
3.350000000000066
100
AcDbArc
 50
311.3165829300447
 51
357.5849578586677
  0
ARC
  5
317
330
60
100
AcDbEntity
  8
0
  6
Continuous
 62
     7
100
AcDbCircle
 10
4.51250114250629
 20
115.9959995851659
 30
0.0
 40
0.4000000000000289
100
AcDbArc
 50
173.0762791559473
 51
311.316582930049
  0
ARC
  5
318
330
60
100
AcDbEntity
  8
0
  6
Continuous
 62
     7
100
AcDbCircle
 10
19.23750114250628
 20
116.2594006619244
 30
0.0
 40
1.000000000000078
100
AcDbArc
 50
180.0
 51
240.0000000000019
  0
ARC
  5
319
330
60
100
AcDbEntity
  8
0
  6
Continuous
 62
     7
100
AcDbCircle
 10
5.21250114250631
 20
119.0999995851659
 30
0.0
 40
0.3000000000000114
100
AcDbArc
 50
180.0
 51
270.0
  0
ARC
  5
31A
330
60
100
AcDbEntity
  8
0
  6
Continuous
 62
     7
100
AcDbCircle
 10
5.21250114250631
 20
118.0999995851659
 30
0.0
 40
0.6999999999999843
100
AcDbArc
 50
357.5849578586677
 51
90.0
  0
ARC
  5
31B
330
60
100
AcDbEntity
  8
0
  6
Continuous
 62
     7
100
AcDbCircle
 10
0.13750114250629
 20
101.4499995851659
 30
0.0
 40
16.19999999999996
100
AcDbArc
 50
79.29351303112054
 51
102.3352321792815
  0
ARC
  5
31C
330
60
100
AcDbEntity
  8
0
  6
Continuous
 62
     7
100
AcDbCircle
 10
-1.6142742744855
 20
109.4606976127053
 30
0.0
 40
7.99999999999998
100
AcDbArc
 50
102.3352321792813
 51
145.6719647666237
  0
ARC
  5
31D
330
60
100
AcDbEntity
  8
0
  6
Continuous
 62
     7
100
AcDbCircle
 10
20.23750114250628
 20
113.9499995851659
 30
0.0
 40
0.5
100
AcDbArc
 50
0.0
 51
59.99999999999865
  0
ARC
  5
31E
330
60
100
AcDbEntity
  8
0
  6
Continuous
 62
     7
100
AcDbCircle
 10
17.48750114250628
 20
124.2499995851659
 30
0.0
 40
0.750000000000049
100
AcDbArc
 50
199.4712206344894
 51
273.8663130269699
  0
ARC
  5
31F
330
60
100
AcDbEntity
  8
0
  6
Continuous
 62
     7
100
AcDbCircle
 10
-9.8724988574937
 20
115.0999995851659
 30
0.0
 40
2.0
100
AcDbArc
 50
270.0
 51
325.6719647666237
  0
ARC
  5
320
330
60
100
AcDbEntity
  8
0
  6
Continuous
 62
     7
100
AcDbCircle
 10
13.6625011425063
 20
123.4749995851659
 30
0.0
 40
0.5249999999999915
100
AcDbArc
 50
90.0
 51
270.0
  0
ARC
  5
321
330
60
100
AcDbEntity
  8
0
  6
Continuous
 62
     7
100
AcDbCircle
 10
25.4336779314209
 20
116.4094627646089
 30
0.0
 40
9.499999999999938
100
AcDbArc
 50
181.5650519949543
 51
211.4697785839647
  0
ARC
  5
322
330
60
100
AcDbEntity
  8
0
  6
Continuous
 62
     7
100
AcDbCircle
 10
17.23750114250628
 20
121.9499995851659
 30
0.0
 40
1.0
100
AcDbArc
 50
0.0
 51
90.0
  0
ENDBLK
  5
62
330
60
100
AcDbEntity
  8
0
100
AcDbBlockEnd
  0
BLOCK
  5
65
330
63
100
AcDbEntity
  8
0
100
AcDbBlockBegin
  2
Rckans1
 70
     0
 10
-0.99999990436004
 20
136.0
 30
0.0
  3
Rckans1
  1

  0
INSERT
  5
64
330
63
100
AcDbEntity
  8
0
100
AcDbBlockReference
  2
URKN-select__3
 10
-22.73749885749373
 20
111.4499995851658
 30
0.0
  0
MTEXT
  5
323
330
63
100
AcDbEntity
  8
1
 62
     6
100
AcDbMText
 10
-0.99999990436004
 20
106.4499998092651
 30
0.0
 40
5.0
 41
0.0
 71
     2
 72
     1
  1
 
  7
CONVERTER_11
 73
     1
 44
1.32052821128451
  0
ENDBLK
  5
66
330
63
100
AcDbEntity
  8
0
100
AcDbBlockEnd
  0
BLOCK
  5
68
330
67
100
AcDbEntity
  8
0
100
AcDbBlockBegin
  2
URKN-select__4
 70
     0
 10
-186.0750001907451
 20
111.4499995851658
 30
0.0
  3
URKN-select__4
  1

  0
LINE
  5
324
330
67
100
AcDbEntity
  8
0
  6
Continuous
 62
     7
100
AcDbLine
 10
-178.9250001907451
 20
139.5499995851658
 30
0.0
 11
-176.7250001907451
 21
141.7499995851658
 31
0.0
  0
LINE
  5
325
330
67
100
AcDbEntity
  8
0
  6
Continuous
 62
     7
100
AcDbLine
 10
-178.9250001907451
 20
131.4499995851658
 30
0.0
 11
-184.6250001907451
 21
131.4499995851658
 31
0.0
  0
LINE
  5
326
330
67
100
AcDbEntity
  8
0
  6
Continuous
 62
     7
100
AcDbLine
 10
-185.2750001907451
 20
130.0494442352193
 30
0.0
 11
-184.6250001907451
 21
131.4499995851658
 31
0.0
  0
LINE
  5
327
330
67
100
AcDbEntity
  8
0
  6
Continuous
 62
     7
100
AcDbLine
 10
-186.0750001907451
 20
112.7249995851659
 30
0.0
 11
-186.0750001907451
 21
111.4499995851658
 31
0.0
  0
LINE
  5
328
330
67
100
AcDbEntity
  8
0
  6
Continuous
 62
     7
100
AcDbLine
 10
-186.0750001907451
 20
114.9499995851658
 30
0.0
 11
-186.0750001907451
 21
114.8499995851659
 31
0.0
  0
LINE
  5
329
330
67
100
AcDbEntity
  8
0
  6
Continuous
 62
     7
100
AcDbLine
 10
-185.2750001907451
 20
127.2408557545331
 30
0.0
 11
-185.2750001907451
 21
127.3500016552046
 31
0.0
  0
LINE
  5
32A
330
67
100
AcDbEntity
  8
0
  6
Continuous
 62
     7
100
AcDbLine
 10
-186.0750001907451
 20
127.3500016552047
 30
0.0
 11
-185.2750001907451
 21
127.3500016552046
 31
0.0
  0
LINE
  5
32B
330
67
100
AcDbEntity
  8
0
  6
Continuous
 62
     7
100
AcDbLine
 10
-186.0750001907451
 20
127.3500016552047
 30
0.0
 11
-186.0750001907451
 21
114.9499995851658
 31
0.0
  0
LINE
  5
32C
330
67
100
AcDbEntity
  8
0
  6
Continuous
 62
     7
100
AcDbLine
 10
-186.0750001907451
 20
114.8499995851659
 30
0.0
 11
-186.0750001907451
 21
114.3499995851659
 31
0.0
  0
LINE
  5
32D
330
67
100
AcDbEntity
  8
0
  6
Continuous
 62
     7
100
AcDbLine
 10
-186.0750001907451
 20
112.8499995851659
 30
0.0
 11
-186.0750001907451
 21
112.7249995851659
 31
0.0
  0
LINE
  5
32E
330
67
100
AcDbEntity
  8
0
  6
Continuous
 62
     7
100
AcDbLine
 10
-186.0750001907451
 20
114.3499995851659
 30
0.0
 11
-186.0750001907451
 21
112.8499995851659
 31
0.0
  0
LINE
  5
32F
330
67
100
AcDbEntity
  8
0
  6
Continuous
 62
     7
100
AcDbLine
 10
-175.9250001907451
 20
146.699999585166
 30
0.0
 11
-175.9250001907451
 21
127.3500016552047
 31
0.0
  0
LINE
  5
330
330
67
100
AcDbEntity
  8
0
  6
Continuous
 62
     7
100
AcDbLine
 10
-176.7250001907451
 20
129.9362692186835
 30
0.0
 11
-176.7250001907451
 21
141.7499995851658
 31
0.0
  0
LINE
  5
331
330
67
100
AcDbEntity
  8
0
  6
Continuous
 62
     7
100
AcDbLine
 10
-175.9250001907451
 20
160.5499995851659
 30
0.0
 11
-175.9250001907451
 21
156.7109539328629
 31
0.0
  0
LINE
  5
332
330
67
100
AcDbEntity
  8
0
  6
Continuous
 62
     7
100
AcDbLine
 10
-175.9250001907451
 20
154.8573346717943
 30
0.0
 11
-175.9250001907451
 21
154.7795081549096
 31
0.0
  0
LINE
  5
333
330
67
100
AcDbEntity
  8
0
  6
Continuous
 62
     7
100
AcDbLine
 10
-176.7250001907451
 20
127.3500016552046
 30
0.0
 11
-175.9250001907451
 21
127.3500016552047
 31
0.0
  0
LINE
  5
334
330
67
100
AcDbEntity
  8
0
  6
Continuous
 62
     7
100
AcDbLine
 10
-176.7250001907451
 20
141.7499995851658
 30
0.0
 11
-176.7250001907451
 21
145.6754268927599
 31
0.0
  0
LINE
  5
335
330
67
100
AcDbEntity
  8
0
  6
Continuous
 62
     7
100
AcDbLine
 10
-176.7250001907451
 20
127.3500016552046
 30
0.0
 11
-176.7250001907451
 21
129.9362692186835
 31
0.0
  0
LINE
  5
336
330
67
100
AcDbEntity
  8
0
  6
Continuous
 62
     7
100
AcDbLine
 10
-186.0750001907451
 20
111.4499995851658
 30
0.0
 11
-175.9250001907451
 21
111.4499995851658
 31
0.0
  0
LINE
  5
337
330
67
100
AcDbEntity
  8
0
  6
Continuous
 62
     7
100
AcDbLine
 10
-184.6250001907451
 20
139.5499995851658
 30
0.0
 11
-185.2750001907451
 21
141.5855151816737
 31
0.0
  0
LINE
  5
338
330
67
100
AcDbEntity
  8
0
  6
Continuous
 62
     7
100
AcDbLine
 10
-186.0750001907451
 20
150.5454516980196
 30
0.0
 11
-175.9250001907451
 21
150.5454516980196
 31
0.0
  0
LINE
  5
339
330
67
100
AcDbEntity
  8
0
  6
Continuous
 62
     7
100
AcDbLine
 10
-186.0750001907451
 20
146.699999585166
 30
0.0
 11
-175.9250001907451
 21
146.699999585166
 31
0.0
  0
LINE
  5
33A
330
67
100
AcDbEntity
  8
0
  6
Continuous
 62
     7
100
AcDbLine
 10
-175.9250001907451
 20
154.7795081549096
 30
0.0
 11
-175.9250001907451
 21
150.5454516980196
 31
0.0
  0
LINE
  5
33B
330
67
100
AcDbEntity
  8
0
  6
Continuous
 62
     7
100
AcDbLine
 10
-186.0750001907451
 20
154.8573346717943
 30
0.0
 11
-175.9250001907451
 21
154.8573346717943
 31
0.0
  0
LINE
  5
33C
330
67
100
AcDbEntity
  8
0
  6
Continuous
 62
     7
100
AcDbLine
 10
-175.9250001907451
 20
150.5454516980196
 30
0.0
 11
-175.9250001907451
 21
146.699999585166
 31
0.0
  0
LINE
  5
33D
330
67
100
AcDbEntity
  8
0
  6
Continuous
 62
     7
100
AcDbLine
 10
-185.2750001907451
 20
145.6754268927599
 30
0.0
 11
-176.7250001907451
 21
145.6754268927599
 31
0.0
  0
LINE
  5
33E
330
67
100
AcDbEntity
  8
0
  6
Continuous
 62
     7
100
AcDbLine
 10
-184.6250001907451
 20
139.5499995851658
 30
0.0
 11
-178.9250001907451
 21
139.5499995851658
 31
0.0
  0
LINE
  5
33F
330
67
100
AcDbEntity
  8
0
  6
Continuous
 62
     7
100
AcDbLine
 10
-175.9250001907451
 20
112.7249995851659
 30
0.0
 11
-186.0750001907451
 21
112.7249995851659
 31
0.0
  0
LINE
  5
340
330
67
100
AcDbEntity
  8
0
  6
Continuous
 62
     7
100
AcDbLine
 10
-175.9250001907451
 20
154.7795081549096
 30
0.0
 11
-186.0750001907451
 21
154.7795081549096
 31
0.0
  0
LINE
  5
341
330
67
100
AcDbEntity
  8
0
  6
Continuous
 62
     7
100
AcDbLine
 10
-175.9250001907451
 20
156.7109539328629
 30
0.0
 11
-175.9250001907451
 21
154.8573346717943
 31
0.0
  0
LINE
  5
342
330
67
100
AcDbEntity
  8
0
  6
Continuous
 62
     7
100
AcDbLine
 10
-186.0750001907451
 20
114.9499995851658
 30
0.0
 11
-175.9250001907451
 21
114.9499995851658
 31
0.0
  0
LINE
  5
343
330
67
100
AcDbEntity
  8
0
  6
Continuous
 62
     7
100
AcDbLine
 10
-175.9250001907451
 20
114.8499995851659
 30
0.0
 11
-186.0750001907451
 21
114.8499995851659
 31
0.0
  0
LINE
  5
344
330
67
100
AcDbEntity
  8
0
  6
Continuous
 62
     7
100
AcDbLine
 10
-175.9250001907451
 20
112.8499995851659
 30
0.0
 11
-186.0750001907451
 21
112.8499995851659
 31
0.0
  0
LINE
  5
345
330
67
100
AcDbEntity
  8
0
  6
Continuous
 62
     7
100
AcDbLine
 10
-175.9250001907451
 20
114.3499995851659
 30
0.0
 11
-186.0750001907451
 21
114.3499995851659
 31
0.0
  0
LINE
  5
346
330
67
100
AcDbEntity
  8
0
  6
Continuous
 62
     7
100
AcDbLine
 10
-176.7250001907451
 20
127.2408557545331
 30
0.0
 11
-185.2750001907451
 21
127.2408557545331
 31
0.0
  0
LINE
  5
347
330
67
100
AcDbEntity
  8
0
  6
Continuous
 62
     7
100
AcDbLine
 10
-184.6250001907451
 20
131.4499995851658
 30
0.0
 11
-184.6250001907451
 21
139.5499995851658
 31
0.0
  0
LINE
  5
348
330
67
100
AcDbEntity
  8
0
  6
Continuous
 62
     7
100
AcDbLine
 10
-185.2750001907451
 20
130.0494442352193
 30
0.0
 11
-185.2750001907451
 21
141.5855151816737
 31
0.0
  0
LINE
  5
349
330
67
100
AcDbEntity
  8
0
  6
Continuous
 62
     7
100
AcDbLine
 10
-186.0750001907451
 20
146.699999585166
 30
0.0
 11
-186.0750001907451
 21
127.3500016552047
 31
0.0
  0
LINE
  5
34A
330
67
100
AcDbEntity
  8
0
  6
Continuous
 62
     7
100
AcDbLine
 10
-186.0750001907451
 20
154.7795081549096
 30
0.0
 11
-186.0750001907451
 21
150.5454516980196
 31
0.0
  0
LINE
  5
34B
330
67
100
AcDbEntity
  8
0
  6
Continuous
 62
     7
100
AcDbLine
 10
-186.0750001907451
 20
150.5454516980196
 30
0.0
 11
-186.0750001907451
 21
146.699999585166
 31
0.0
  0
LINE
  5
34C
330
67
100
AcDbEntity
  8
0
  6
Continuous
 62
     7
100
AcDbLine
 10
-185.2750001907451
 20
141.5855151816737
 30
0.0
 11
-185.2750001907451
 21
145.6754268927599
 31
0.0
  0
LINE
  5
34D
330
67
100
AcDbEntity
  8
0
  6
Continuous
 62
     7
100
AcDbLine
 10
-185.2750001907451
 20
127.3500016552046
 30
0.0
 11
-185.2750001907451
 21
130.0494442352193
 31
0.0
  0
LINE
  5
34E
330
67
100
AcDbEntity
  8
0
  6
Continuous
 62
     7
100
AcDbLine
 10
-186.0750001907451
 20
156.7109539328629
 30
0.0
 11
-175.9250001907451
 21
156.7109539328629
 31
0.0
  0
LINE
  5
34F
330
67
100
AcDbEntity
  8
0
  6
Continuous
 62
     7
100
AcDbLine
 10
-186.0750001907451
 20
154.8573346717943
 30
0.0
 11
-186.0750001907451
 21
154.7795081549096
 31
0.0
  0
LINE
  5
350
330
67
100
AcDbEntity
  8
0
  6
Continuous
 62
     7
100
AcDbLine
 10
-186.0750001907451
 20
160.5499995851659
 30
0.0
 11
-186.0750001907451
 21
156.7109539328629
 31
0.0
  0
LINE
  5
351
330
67
100
AcDbEntity
  8
0
  6
Continuous
 62
     7
100
AcDbLine
 10
-186.0750001907451
 20
160.5499995851659
 30
0.0
 11
-175.9250001907451
 21
160.5499995851659
 31
0.0
  0
LINE
  5
352
330
67
100
AcDbEntity
  8
0
  6
Continuous
 62
     7
100
AcDbLine
 10
-186.0750001907451
 20
156.7109539328629
 30
0.0
 11
-186.0750001907451
 21
154.8573346717943
 31
0.0
  0
LINE
  5
353
330
67
100
AcDbEntity
  8
0
  6
Continuous
 62
     7
100
AcDbLine
 10
-178.9250001907451
 20
139.5499995851658
 30
0.0
 11
-178.9250001907451
 21
131.4499995851658
 31
0.0
  0
LINE
  5
354
330
67
100
AcDbEntity
  8
0
  6
Continuous
 62
     7
100
AcDbLine
 10
-176.7250001907451
 20
129.9362692186835
 30
0.0
 11
-178.9250001907451
 21
131.4499995851658
 31
0.0
  0
LINE
  5
355
330
67
100
AcDbEntity
  8
0
  6
Continuous
 62
     7
100
AcDbLine
 10
-175.9250001907451
 20
112.8499995851659
 30
0.0
 11
-175.9250001907451
 21
112.7249995851659
 31
0.0
  0
LINE
  5
356
330
67
100
AcDbEntity
  8
0
  6
Continuous
 62
     7
100
AcDbLine
 10
-175.9250001907451
 20
112.7249995851659
 30
0.0
 11
-175.9250001907451
 21
111.4499995851658
 31
0.0
  0
LINE
  5
357
330
67
100
AcDbEntity
  8
0
  6
Continuous
 62
     7
100
AcDbLine
 10
-175.9250001907451
 20
114.3499995851659
 30
0.0
 11
-175.9250001907451
 21
112.8499995851659
 31
0.0
  0
LINE
  5
358
330
67
100
AcDbEntity
  8
0
  6
Continuous
 62
     7
100
AcDbLine
 10
-175.9250001907451
 20
114.8499995851659
 30
0.0
 11
-175.9250001907451
 21
114.3499995851659
 31
0.0
  0
LINE
  5
359
330
67
100
AcDbEntity
  8
0
  6
Continuous
 62
     7
100
AcDbLine
 10
-175.9250001907451
 20
114.9499995851658
 30
0.0
 11
-175.9250001907451
 21
114.8499995851659
 31
0.0
  0
LINE
  5
35A
330
67
100
AcDbEntity
  8
0
  6
Continuous
 62
     7
100
AcDbLine
 10
-175.9250001907451
 20
127.3500016552047
 30
0.0
 11
-175.9250001907451
 21
114.9499995851658
 31
0.0
  0
LINE
  5
35B
330
67
100
AcDbEntity
  8
0
  6
Continuous
 62
     7
100
AcDbLine
 10
-176.7250001907451
 20
127.2408557545331
 30
0.0
 11
-176.7250001907451
 21
127.3500016552046
 31
0.0
  0
ENDBLK
  5
69
330
67
100
AcDbEntity
  8
0
100
AcDbBlockEnd
  0
BLOCK
  5
6C
330
6A
100
AcDbEntity
  8
0
100
AcDbBlockBegin
  2
SA_Rechts1
 70
     0
 10
-181.0000000000051
 20
136.0
 30
0.0
  3
SA_Rechts1
  1

  0
INSERT
  5
6B
330
6A
100
AcDbEntity
  8
0
100
AcDbBlockReference
  2
URKN-select__4
 10
-186.0750001907451
 20
111.4499995851658
 30
0.0
  0
MTEXT
  5
35C
330
6A
100
AcDbEntity
  8
1
 62
     6
100
AcDbMText
 10
-181.000000000005
 20
106.4499998092651
 30
0.0
 40
5.0
 41
0.0
 71
     2
 72
     1
  1
 
  7
CONVERTER_11
 73
     1
 44
1.32052821128451
  0
ENDBLK
  5
6D
330
6A
100
AcDbEntity
  8
0
100
AcDbBlockEnd
  0
BLOCK
  5
6F
330
6E
100
AcDbEntity
  8
0
100
AcDbBlockBegin
  2
URKN-select__5
 70
     0
 10
-62.07499961852005
 20
111.4499991703319
 30
0.0
  3
URKN-select__5
  1

  0
LINE
  5
35D
330
6E
100
AcDbEntity
  8
0
  6
Continuous
 62
     7
100
AcDbLine
 10
-61.27499961852006
 20
141.7499991703319
 30
0.0
 11
-59.07499961852005
 21
139.5499991703319
 31
0.0
  0
LINE
  5
35E
330
6E
100
AcDbEntity
  8
0
  6
Continuous
 62
     7
100
AcDbLine
 10
-51.92499961852005
 20
111.4499991703319
 30
0.0
 11
-62.07499961852005
 21
111.4499991703319
 31
0.0
  0
LINE
  5
35F
330
6E
100
AcDbEntity
  8
0
  6
Continuous
 62
     7
100
AcDbLine
 10
-51.92499961852005
 20
113.9499991703319
 30
0.0
 11
-51.92499961852005
 21
111.4499991703319
 31
0.0
  0
LINE
  5
360
330
6E
100
AcDbEntity
  8
0
  6
Continuous
 62
     2
100
AcDbLine
 10
-62.07499961852005
 20
113.9499991703319
 30
0.0
 11
-51.92499961852005
 21
113.9499991703319
 31
0.0
  0
LINE
  5
361
330
6E
100
AcDbEntity
  8
0
  6
Continuous
 62
     7
100
AcDbLine
 10
-62.07499961852005
 20
111.4499991703319
 30
0.0
 11
-62.07499961852005
 21
113.9499991703319
 31
0.0
  0
LINE
  5
362
330
6E
100
AcDbEntity
  8
0
  6
Continuous
 62
     2
100
AcDbLine
 10
-62.07499961852005
 20
115.3933748433059
 30
0.0
 11
-61.02499961852006
 21
115.3933748433059
 31
0.0
  0
LINE
  5
363
330
6E
100
AcDbEntity
  8
0
  6
Continuous
 62
     7
100
AcDbLine
 10
-61.02499961852006
 20
114.4499991703319
 30
0.0
 11
-61.02499961852006
 21
115.3933748433059
 31
0.0
  0
LINE
  5
364
330
6E
100
AcDbEntity
  8
0
  6
Continuous
 62
     7
100
AcDbLine
 10
-61.02499961852006
 20
114.3830118722241
 30
0.0
 11
-61.02499961852006
 21
114.4499991703319
 31
0.0
  0
LINE
  5
365
330
6E
100
AcDbEntity
  8
0
  6
Continuous
 62
     2
100
AcDbLine
 10
-62.07499961852005
 20
114.3830118722242
 30
0.0
 11
-61.02499961852006
 21
114.3830118722241
 31
0.0
  0
LINE
  5
366
330
6E
100
AcDbEntity
  8
0
  6
Continuous
 62
     7
100
AcDbLine
 10
-61.02499961852006
 20
114.4499991703319
 30
0.0
 11
-51.92499961852005
 21
114.4499991703319
 31
0.0
  0
LINE
  5
367
330
6E
100
AcDbEntity
  8
0
  6
Continuous
 62
     7
100
AcDbLine
 10
-62.07499961852005
 20
123.4999991703319
 30
0.0
 11
-51.92499961852005
 21
123.4999991703319
 31
0.0
  0
LINE
  5
368
330
6E
100
AcDbEntity
  8
0
  6
Continuous
 62
     7
100
AcDbLine
 10
-62.07499961852005
 20
122.9499991703319
 30
0.0
 11
-62.07499961852005
 21
123.4999991703319
 31
0.0
  0
LINE
  5
369
330
6E
100
AcDbEntity
  8
0
  6
Continuous
 62
     7
100
AcDbLine
 10
-62.07499961852005
 20
123.4999991703319
 30
0.0
 11
-62.07499961852005
 21
123.5017060984171
 31
0.0
  0
LINE
  5
36A
330
6E
100
AcDbEntity
  8
0
  6
Continuous
 62
     7
100
AcDbLine
 10
-51.92499961852005
 20
122.9499991703319
 30
0.0
 11
-51.92499961852005
 21
123.4999991703319
 31
0.0
  0
LINE
  5
36B
330
6E
100
AcDbEntity
  8
0
  6
Continuous
 62
     7
100
AcDbLine
 10
-51.92499961852005
 20
123.4999991703319
 30
0.0
 11
-51.92499961852005
 21
123.5017060984171
 31
0.0
  0
LINE
  5
36C
330
6E
100
AcDbEntity
  8
0
  6
Continuous
 62
     7
100
AcDbLine
 10
-62.07499961852005
 20
122.9499991703319
 30
0.0
 11
-62.07499961852005
 21
121.9499991703319
 31
0.0
  0
LINE
  5
36D
330
6E
100
AcDbEntity
  8
0
  6
Continuous
 62
     7
100
AcDbLine
 10
-51.92499961852005
 20
122.9499991703319
 30
0.0
 11
-51.92499961852005
 21
121.9499991703319
 31
0.0
  0
LINE
  5
36E
330
6E
100
AcDbEntity
  8
0
  6
Continuous
 62
     7
100
AcDbLine
 10
-62.07499961852005
 20
122.9499991703319
 30
0.0
 11
-51.92499961852005
 21
122.9499991703319
 31
0.0
  0
LINE
  5
36F
330
6E
100
AcDbEntity
  8
0
  6
Continuous
 62
     2
100
AcDbLine
 10
-62.07499961852005
 20
121.9499991703319
 30
0.0
 11
-51.92499961852005
 21
121.9499991703319
 31
0.0
  0
LINE
  5
370
330
6E
100
AcDbEntity
  8
0
  6
Continuous
 62
     7
100
AcDbLine
 10
-51.92499961852005
 20
123.5017060984171
 30
0.0
 11
-62.07499961852005
 21
123.5017060984171
 31
0.0
  0
LINE
  5
371
330
6E
100
AcDbEntity
  8
0
  6
Continuous
 62
     7
100
AcDbLine
 10
-52.72499961852005
 20
127.2507036031808
 30
0.0
 11
-61.27499961852006
 21
127.2507036031808
 31
0.0
  0
LINE
  5
372
330
6E
100
AcDbEntity
  8
0
  6
Continuous
 62
     7
100
AcDbLine
 10
-53.37499961852005
 20
131.4499991703319
 30
0.0
 11
-59.07499961852004
 21
131.4499991703319
 31
0.0
  0
LINE
  5
373
330
6E
100
AcDbEntity
  8
0
  6
Continuous
 62
     2
100
AcDbLine
 10
-62.07499961852005
 20
116.2594002470905
 30
0.0
 11
-61.02499961852006
 21
116.2594002470904
 31
0.0
  0
LINE
  5
374
330
6E
100
AcDbEntity
  8
0
  6
Continuous
 62
     7
100
AcDbLine
 10
-61.02499961852006
 20
115.3933748433059
 30
0.0
 11
-61.02499961852006
 21
116.2594002470904
 31
0.0
  0
LINE
  5
375
330
6E
100
AcDbEntity
  8
0
  6
Continuous
 62
     7
100
AcDbLine
 10
-62.07499961852005
 20
115.3933748433059
 30
0.0
 11
-62.07499961852005
 21
116.2594002470905
 31
0.0
  0
LINE
  5
376
330
6E
100
AcDbEntity
  8
0
  6
Continuous
 62
     7
100
AcDbLine
 10
-52.72499961852004
 20
141.5855147668398
 30
0.0
 11
-53.37499961852005
 21
139.5499991703319
 31
0.0
  0
LINE
  5
377
330
6E
100
AcDbEntity
  8
0
  6
Continuous
 62
     7
100
AcDbLine
 10
-53.37499961852005
 20
131.4499991703319
 30
0.0
 11
-52.72499961852005
 21
130.0494438203854
 31
0.0
  0
LINE
  5
378
330
6E
100
AcDbEntity
  8
0
  6
Continuous
 62
     7
100
AcDbLine
 10
-53.37499961852005
 20
139.5499991703319
 30
0.0
 11
-53.37499961852005
 21
131.4499991703319
 31
0.0
  0
LINE
  5
379
330
6E
100
AcDbEntity
  8
0
  6
Continuous
 62
     7
100
AcDbLine
 10
-51.92499961852005
 20
113.9499991703319
 30
0.0
 11
-51.92499961852005
 21
114.4499991703319
 31
0.0
  0
LINE
  5
37A
330
6E
100
AcDbEntity
  8
0
  6
Continuous
 62
     7
100
AcDbLine
 10
-61.27499961852006
 20
145.675426477926
 30
0.0
 11
-52.72499961852005
 21
145.675426477926
 31
0.0
  0
LINE
  5
37B
330
6E
100
AcDbEntity
  8
0
  6
Continuous
 62
     7
100
AcDbLine
 10
-51.92499961852005
 20
146.6999991703321
 30
0.0
 11
-62.07499961852005
 21
146.6999991703321
 31
0.0
  0
LINE
  5
37C
330
6E
100
AcDbEntity
  8
0
  6
Continuous
 62
     7
100
AcDbLine
 10
-51.92499961852005
 20
154.7795077400756
 30
0.0
 11
-51.92499961852005
 21
150.5454512831857
 31
0.0
  0
LINE
  5
37D
330
6E
100
AcDbEntity
  8
0
  6
Continuous
 62
     7
100
AcDbLine
 10
-51.92499961852005
 20
154.8573342569604
 30
0.0
 11
-51.92499961852005
 21
154.7795077400756
 31
0.0
  0
LINE
  5
37E
330
6E
100
AcDbEntity
  8
0
  6
Continuous
 62
     7
100
AcDbLine
 10
-51.92499961852005
 20
156.7109535180291
 30
0.0
 11
-51.92499961852005
 21
154.8573342569604
 31
0.0
  0
LINE
  5
37F
330
6E
100
AcDbEntity
  8
0
  6
Continuous
 62
     7
100
AcDbLine
 10
-51.92499961852005
 20
160.549999170332
 30
0.0
 11
-51.92499961852005
 21
156.7109535180291
 31
0.0
  0
LINE
  5
380
330
6E
100
AcDbEntity
  8
0
  6
Continuous
 62
     7
100
AcDbLine
 10
-62.07499961852005
 20
154.7795077400756
 30
0.0
 11
-51.92499961852005
 21
154.7795077400756
 31
0.0
  0
LINE
  5
381
330
6E
100
AcDbEntity
  8
0
  6
Continuous
 62
     7
100
AcDbLine
 10
-51.92499961852005
 20
156.7109535180291
 30
0.0
 11
-62.07499961852005
 21
156.7109535180291
 31
0.0
  0
LINE
  5
382
330
6E
100
AcDbEntity
  8
0
  6
Continuous
 62
     7
100
AcDbLine
 10
-62.07499961852005
 20
160.549999170332
 30
0.0
 11
-62.07499961852005
 21
156.7109535180291
 31
0.0
  0
LINE
  5
383
330
6E
100
AcDbEntity
  8
0
  6
Continuous
 62
     7
100
AcDbLine
 10
-62.07499961852005
 20
160.549999170332
 30
0.0
 11
-51.92499961852005
 21
160.549999170332
 31
0.0
  0
LINE
  5
384
330
6E
100
AcDbEntity
  8
0
  6
Continuous
 62
     7
100
AcDbLine
 10
-62.07499961852005
 20
156.7109535180291
 30
0.0
 11
-62.07499961852005
 21
154.8573342569604
 31
0.0
  0
LINE
  5
385
330
6E
100
AcDbEntity
  8
0
  6
Continuous
 62
     7
100
AcDbLine
 10
-51.92499961852005
 20
154.8573342569604
 30
0.0
 11
-62.07499961852005
 21
154.8573342569604
 31
0.0
  0
LINE
  5
386
330
6E
100
AcDbEntity
  8
0
  6
Continuous
 62
     7
100
AcDbLine
 10
-62.07499961852005
 20
154.8573342569604
 30
0.0
 11
-62.07499961852005
 21
154.7795077400756
 31
0.0
  0
LINE
  5
387
330
6E
100
AcDbEntity
  8
0
  6
Continuous
 62
     7
100
AcDbLine
 10
-51.92499961852005
 20
150.5454512831857
 30
0.0
 11
-62.07499961852005
 21
150.5454512831857
 31
0.0
  0
LINE
  5
388
330
6E
100
AcDbEntity
  8
0
  6
Continuous
 62
     7
100
AcDbLine
 10
-51.92499961852005
 20
146.6999991703321
 30
0.0
 11
-51.92499961852005
 21
150.5454512831857
 31
0.0
  0
LINE
  5
389
330
6E
100
AcDbEntity
  8
0
  6
Continuous
 62
     7
100
AcDbLine
 10
-62.07499961852005
 20
127.350001240371
 30
0.0
 11
-62.07499961852005
 21
146.6999991703321
 31
0.0
  0
LINE
  5
38A
330
6E
100
AcDbEntity
  8
0
  6
Continuous
 62
     7
100
AcDbLine
 10
-62.07499961852005
 20
116.2594002470905
 30
0.0
 11
-62.07499961852005
 21
121.9499991703319
 31
0.0
  0
LINE
  5
38B
330
6E
100
AcDbEntity
  8
0
  6
Continuous
 62
     7
100
AcDbLine
 10
-62.07499961852005
 20
150.5454512831857
 30
0.0
 11
-62.07499961852005
 21
154.7795077400756
 31
0.0
  0
LINE
  5
38C
330
6E
100
AcDbEntity
  8
0
  6
Continuous
 62
     7
100
AcDbLine
 10
-62.07499961852005
 20
146.6999991703321
 30
0.0
 11
-62.07499961852005
 21
150.5454512831857
 31
0.0
  0
LINE
  5
38D
330
6E
100
AcDbEntity
  8
0
  6
Continuous
 62
     7
100
AcDbLine
 10
-62.07499961852005
 20
123.5017060984171
 30
0.0
 11
-62.07499961852005
 21
127.350001240371
 31
0.0
  0
LINE
  5
38E
330
6E
100
AcDbEntity
  8
0
  6
Continuous
 62
     7
100
AcDbLine
 10
-62.07499961852005
 20
114.3830118722242
 30
0.0
 11
-62.07499961852005
 21
115.3933748433059
 31
0.0
  0
LINE
  5
38F
330
6E
100
AcDbEntity
  8
0
  6
Continuous
 62
     7
100
AcDbLine
 10
-62.07499961852005
 20
113.9499991703319
 30
0.0
 11
-62.07499961852005
 21
114.3830118722242
 31
0.0
  0
LINE
  5
390
330
6E
100
AcDbEntity
  8
0
  6
Continuous
 62
     7
100
AcDbLine
 10
-61.27499961852006
 20
127.350001240371
 30
0.0
 11
-61.27499961852006
 21
127.2507036031808
 31
0.0
  0
LINE
  5
391
330
6E
100
AcDbEntity
  8
0
  6
Continuous
 62
     7
100
AcDbLine
 10
-51.92499961852005
 20
127.350001240371
 30
0.0
 11
-51.92499961852005
 21
146.6999991703321
 31
0.0
  0
LINE
  5
392
330
6E
100
AcDbEntity
  8
0
  6
Continuous
 62
     7
100
AcDbLine
 10
-52.72499961852004
 20
141.5855147668398
 30
0.0
 11
-52.72499961852005
 21
130.0494438203854
 31
0.0
  0
LINE
  5
393
330
6E
100
AcDbEntity
  8
0
  6
Continuous
 62
     7
100
AcDbLine
 10
-51.92499961852005
 20
114.4499991703319
 30
0.0
 11
-51.92499961852005
 21
121.9499991703319
 31
0.0
  0
LINE
  5
394
330
6E
100
AcDbEntity
  8
0
  6
Continuous
 62
     7
100
AcDbLine
 10
-51.92499961852005
 20
127.350001240371
 30
0.0
 11
-52.72499961852005
 21
127.350001240371
 31
0.0
  0
LINE
  5
395
330
6E
100
AcDbEntity
  8
0
  6
Continuous
 62
     7
100
AcDbLine
 10
-51.92499961852005
 20
123.5017060984171
 30
0.0
 11
-51.92499961852005
 21
127.350001240371
 31
0.0
  0
LINE
  5
396
330
6E
100
AcDbEntity
  8
0
  6
Continuous
 62
     7
100
AcDbLine
 10
-52.72499961852005
 20
130.0494438203854
 30
0.0
 11
-52.72499961852005
 21
127.350001240371
 31
0.0
  0
LINE
  5
397
330
6E
100
AcDbEntity
  8
0
  6
Continuous
 62
     7
100
AcDbLine
 10
-52.72499961852005
 20
127.350001240371
 30
0.0
 11
-52.72499961852005
 21
127.2507036031808
 31
0.0
  0
LINE
  5
398
330
6E
100
AcDbEntity
  8
0
  6
Continuous
 62
     7
100
AcDbLine
 10
-52.72499961852005
 20
145.675426477926
 30
0.0
 11
-52.72499961852004
 21
141.5855147668398
 31
0.0
  0
LINE
  5
399
330
6E
100
AcDbEntity
  8
0
  6
Continuous
 62
     7
100
AcDbLine
 10
-59.07499961852004
 20
131.4499991703319
 30
0.0
 11
-59.07499961852005
 21
139.5499991703319
 31
0.0
  0
LINE
  5
39A
330
6E
100
AcDbEntity
  8
0
  6
Continuous
 62
     7
100
AcDbLine
 10
-59.07499961852004
 20
131.4499991703319
 30
0.0
 11
-61.27499961852006
 21
129.9362688038496
 31
0.0
  0
LINE
  5
39B
330
6E
100
AcDbEntity
  8
0
  6
Continuous
 62
     7
100
AcDbLine
 10
-61.27499961852006
 20
141.7499991703319
 30
0.0
 11
-61.27499961852006
 21
129.9362688038496
 31
0.0
  0
LINE
  5
39C
330
6E
100
AcDbEntity
  8
0
  6
Continuous
 62
     7
100
AcDbLine
 10
-61.27499961852006
 20
127.350001240371
 30
0.0
 11
-62.07499961852005
 21
127.350001240371
 31
0.0
  0
LINE
  5
39D
330
6E
100
AcDbEntity
  8
0
  6
Continuous
 62
     7
100
AcDbLine
 10
-61.27499961852006
 20
129.9362688038496
 30
0.0
 11
-61.27499961852006
 21
127.350001240371
 31
0.0
  0
LINE
  5
39E
330
6E
100
AcDbEntity
  8
0
  6
Continuous
 62
     7
100
AcDbLine
 10
-61.27499961852006
 20
145.675426477926
 30
0.0
 11
-61.27499961852006
 21
141.7499991703319
 31
0.0
  0
LINE
  5
39F
330
6E
100
AcDbEntity
  8
0
  6
Continuous
 62
     7
100
AcDbLine
 10
-59.07499961852005
 20
139.5499991703319
 30
0.0
 11
-53.37499961852005
 21
139.5499991703319
 31
0.0
  0
ENDBLK
  5
70
330
6E
100
AcDbEntity
  8
0
100
AcDbBlockEnd
  0
BLOCK
  5
73
330
71
100
AcDbEntity
  8
0
100
AcDbBlockBegin
  2
SA_links1
 70
     0
 10
-56.99999980925998
 20
135.9999995851661
 30
0.0
  3
SA_links1
  1

  0
INSERT
  5
72
330
71
100
AcDbEntity
  8
0
100
AcDbBlockReference
  2
URKN-select__5
 10
-62.07499961852005
 20
111.4499991703319
 30
0.0
  0
ENDBLK
  5
74
330
71
100
AcDbEntity
  8
0
100
AcDbBlockEnd
  0
BLOCK
  5
76
330
75
100
AcDbEntity
  8
0
100
AcDbBlockBegin
  2
URKN-select__6
 70
     0
 10
-133.5500010937325
 20
111.449999170332
 30
0.0
  3
URKN-select__6
  1

  0
LINE
  5
3A0
330
75
100
AcDbEntity
  8
0
  6
Continuous
 62
     7
100
AcDbLine
 10
-127.9066204367169
 20
149.3018970611391
 30
0.0
 11
-124.7441204367169
 21
154.7795077400757
 31
0.0
  0
LINE
  5
3A1
330
75
100
AcDbEntity
  8
0
  6
Continuous
 62
     7
100
AcDbLine
 10
-100.5000010937326
 20
112.849999170332
 30
0.0
 11
-99.35000109373252
 21
112.724999170332
 31
0.0
  0
LINE
  5
3A2
330
75
100
AcDbEntity
  8
0
  6
Continuous
 62
     7
100
AcDbLine
 10
-129.9865934705826
 20
117.749999170332
 30
0.0
 11
-129.7750010937326
 21
116.549999170332
 31
0.0
  0
LINE
  5
3A3
330
75
100
AcDbEntity
  8
0
  6
Continuous
 62
     7
100
AcDbLine
 10
-92.29517390624451
 20
150.5454512831858
 30
0.0
 11
-90.07500109373265
 21
146.6999991703321
 31
0.0
  0
LINE
  5
3A4
330
75
100
AcDbEntity
  8
0
  6
Continuous
 62
     7
100
AcDbLine
 10
-117.7250010937325
 20
119.099999170332
 30
0.0
 11
-117.7250010937325
 21
121.449999170332
 31
0.0
  0
LINE
  5
3A5
330
75
100
AcDbEntity
  8
0
  6
Continuous
 62
     7
100
AcDbLine
 10
-124.9500010937325
 20
120.349999170332
 30
0.0
 11
-125.2386762283273
 21
120.849999170332
 31
0.0
  0
LINE
  5
3A6
330
75
100
AcDbEntity
  8
0
  6
Continuous
 62
     7
100
AcDbLine
 10
-90.07500109373265
 20
146.6999991703321
 30
0.0
 11
-90.07500109373252
 21
127.3500012403709
 31
0.0
  0
LINE
  5
3A7
330
75
100
AcDbEntity
  8
0
  6
Continuous
 62
     7
100
AcDbLine
 10
-94.58068380224181
 20
150.2940705442544
 30
0.0
 11
-92.29517390624451
 21
150.5454512831858
 31
0.0
  0
LINE
  5
3A8
330
75
100
AcDbEntity
  8
0
  6
Continuous
 62
     7
100
AcDbLine
 10
-94.31673456869882
 20
149.8368970611391
 30
0.0
 11
-94.58068380224181
 21
150.2940705442544
 31
0.0
  0
LINE
  5
3A9
330
75
100
AcDbEntity
  8
0
  6
Continuous
 62
     7
100
AcDbLine
 10
-95.24338175074801
 20
149.3018970611392
 30
0.0
 11
-94.31673456869882
 21
149.8368970611391
 31
0.0
  0
LINE
  5
3AA
330
75
100
AcDbEntity
  8
0
  6
Continuous
 62
     7
100
AcDbLine
 10
-107.6750010937326
 20
147.149999170332
 30
0.0
 11
-115.4750010937325
 21
147.149999170332
 31
0.0
  0
LINE
  5
3AB
330
75
100
AcDbEntity
  8
0
  6
Continuous
 62
     7
100
AcDbLine
 10
-98.40588175074804
 20
154.7795077400758
 30
0.0
 11
-95.24338175074801
 21
149.3018970611392
 31
0.0
  0
LINE
  5
3AC
330
75
100
AcDbEntity
  8
0
  6
Continuous
 62
     7
100
AcDbLine
 10
-98.85000109373246
 20
117.749999170332
 30
0.0
 11
-99.37500109373255
 21
120.1181211347548
 31
0.0
  0
LINE
  5
3AD
330
75
100
AcDbEntity
  8
0
  6
Continuous
 62
     7
100
AcDbLine
 10
-128.8500010937325
 20
118.649999170332
 30
0.0
 11
-128.8500010937325
 21
117.9504110724382
 31
0.0
  0
LINE
  5
3AE
330
75
100
AcDbEntity
  8
0
  6
Continuous
 62
     7
100
AcDbLine
 10
-113.3250010937325
 20
153.549999170332
 30
0.0
 11
-109.8250010937325
 21
153.549999170332
 31
0.0
  0
LINE
  5
3AF
330
75
100
AcDbEntity
  8
0
  6
Continuous
 62
     7
100
AcDbLine
 10
-133.3000010937325
 20
114.3830118722242
 30
0.0
 11
-131.5500010937325
 21
115.393374843306
 31
0.0
  0
LINE
  5
3B0
330
75
100
AcDbEntity
  8
0
  6
Continuous
 62
     7
100
AcDbLine
 10
-91.15986070255902
 20
114.949999170332
 30
0.0
 11
-94.62500109373254
 21
114.949999170332
 31
0.0
  0
LINE
  5
3B1
330
75
100
AcDbEntity
  8
0
  6
Continuous
 62
     7
100
AcDbLine
 10
-94.62500109373254
 20
114.949999170332
 30
0.0
 11
-95.57500109373254
 21
115.899999170332
 31
0.0
  0
LINE
  5
3B2
330
75
100
AcDbEntity
  8
0
  6
Continuous
 62
     7
100
AcDbLine
 10
-95.57500109373254
 20
115.899999170332
 30
0.0
 11
-95.57500109373254
 21
116.349999170332
 31
0.0
  0
LINE
  5
3B3
330
75
100
AcDbEntity
  8
0
  6
Continuous
 62
     7
100
AcDbLine
 10
-95.57500109373254
 20
116.349999170332
 30
0.0
 11
-94.77500109373251
 21
116.549999170332
 31
0.0
  0
LINE
  5
3B4
330
75
100
AcDbEntity
  8
0
  6
Continuous
 62
     7
100
AcDbLine
 10
-94.77500109373251
 20
116.549999170332
 30
0.0
 11
-94.77500109373256
 21
117.749999170332
 31
0.0
  0
LINE
  5
3B5
330
75
100
AcDbEntity
  8
0
  6
Continuous
 62
     7
100
AcDbLine
 10
-94.77500109373256
 20
117.749999170332
 30
0.0
 11
-98.85000109373246
 21
117.749999170332
 31
0.0
  0
LINE
  5
3B6
330
75
100
AcDbEntity
  8
0
  6
Continuous
 62
     7
100
AcDbLine
 10
-128.8500010937325
 20
117.9504110724382
 30
0.0
 11
-129.9865934705826
 21
117.749999170332
 31
0.0
  0
LINE
  5
3B7
330
75
100
AcDbEntity
  8
0
  6
Continuous
 62
     7
100
AcDbLine
 10
-99.87500109373255
 20
121.949999170332
 30
0.0
 11
-100.3750010937326
 21
121.949999170332
 31
0.0
  0
LINE
  5
3B8
330
75
100
AcDbEntity
  8
0
  6
Continuous
 62
     7
100
AcDbLine
 10
-118.2250010937325
 20
121.949999170332
 30
0.0
 11
-118.3376188918533
 21
121.949999170332
 31
0.0
  0
LINE
  5
3B9
330
75
100
AcDbEntity
  8
0
  6
Continuous
 62
     7
100
AcDbLine
 10
-118.8205818049978
 20
121.5794086928832
 30
0.0
 11
-119.1500010937326
 21
120.349999170332
 31
0.0
  0
LINE
  5
3BA
330
75
100
AcDbEntity
  8
0
  6
Continuous
 62
     7
100
AcDbLine
 10
-119.1500010937326
 20
120.349999170332
 30
0.0
 11
-124.9500010937325
 21
120.349999170332
 31
0.0
  0
LINE
  5
3BB
330
75
100
AcDbEntity
  8
0
  6
Continuous
 62
     7
100
AcDbLine
 10
-90.07500109373252
 20
127.3500012403709
 30
0.0
 11
-91.15986070255902
 21
114.949999170332
 31
0.0
  0
LINE
  5
3BC
330
75
100
AcDbEntity
  8
0
  6
Continuous
 62
     7
100
AcDbLine
 10
-133.0750010937325
 20
146.6999991703322
 30
0.0
 11
-130.8548282812206
 21
150.5454512831858
 31
0.0
  0
LINE
  5
3BD
330
75
100
AcDbEntity
  8
0
  6
Continuous
 62
     7
100
AcDbLine
 10
-130.8548282812206
 20
150.5454512831858
 30
0.0
 11
-128.5693183852232
 21
150.2940705442544
 31
0.0
  0
LINE
  5
3BE
330
75
100
AcDbEntity
  8
0
  6
Continuous
 62
     7
100
AcDbLine
 10
-129.6500010937326
 20
120.0356398163871
 30
0.0
 11
-128.8500010937325
 21
118.649999170332
 31
0.0
  0
LINE
  5
3BF
330
75
100
AcDbEntity
  8
0
  6
Continuous
 62
     7
100
AcDbLine
 10
-130.3505726126379
 20
123.5017060984172
 30
0.0
 11
-132.0438535182094
 21
123.5017060984172
 31
0.0
  0
LINE
  5
3C0
330
75
100
AcDbEntity
  8
0
  6
Continuous
 62
     7
100
AcDbLine
 10
-131.0500010937325
 20
116.2594002470905
 30
0.0
 11
-131.0500010937325
 21
121.949999170332
 31
0.0
  0
LINE
  5
3C1
330
75
100
AcDbEntity
  8
0
  6
Continuous
 62
     7
100
AcDbLine
 10
-131.0500010937325
 20
112.4999991703319
 30
0.0
 11
-131.0500010937325
 21
116.2594002470905
 31
0.0
  0
LINE
  5
3C2
330
75
100
AcDbEntity
  8
0
  6
Continuous
 62
     7
100
AcDbLine
 10
-131.0500010937325
 20
112.4999991703319
 30
0.0
 11
-132.5000010937325
 21
112.4999991703319
 31
0.0
  0
LINE
  5
3C3
330
75
100
AcDbEntity
  8
0
  6
Continuous
 62
     7
100
AcDbLine
 10
-132.5000010937325
 20
112.4999991703319
 30
0.0
 11
-132.5000010937325
 21
113.1154538724182
 31
0.0
  0
LINE
  5
3C4
330
75
100
AcDbEntity
  8
0
  6
Continuous
 62
     7
100
AcDbLine
 10
-132.3862079902841
 20
114.2405164117114
 30
0.0
 11
-132.4379321282153
 21
114.2948267565388
 31
0.0
  0
LINE
  5
3C5
330
75
100
AcDbEntity
  8
0
  6
Continuous
 62
     7
100
AcDbLine
 10
-132.8000010937325
 20
114.4499991703319
 30
0.0
 11
-133.0500010937325
 21
114.4499991703319
 31
0.0
  0
LINE
  5
3C6
330
75
100
AcDbEntity
  8
0
  6
Continuous
 62
     7
100
AcDbLine
 10
-133.0750010937325
 20
127.350001240371
 30
0.0
 11
-133.0750010937325
 21
146.6999991703322
 31
0.0
  0
LINE
  5
3C7
330
75
100
AcDbEntity
  8
0
  6
Continuous
 62
     7
100
AcDbLine
 10
-132.0438535182094
 20
123.5017060984172
 30
0.0
 11
-133.0750010937325
 21
127.350001240371
 31
0.0
  0
LINE
  5
3C8
330
75
100
AcDbEntity
  8
0
  6
Continuous
 62
     7
100
AcDbLine
 10
-98.07130232200892
 20
160.549999170332
 30
0.0
 11
-95.85482828122068
 21
156.710953518029
 31
0.0
  0
LINE
  5
3C9
330
75
100
AcDbEntity
  8
0
  6
Continuous
 62
     7
100
AcDbLine
 10
-95.85482828122068
 20
156.710953518029
 30
0.0
 11
-97.21528533515595
 21
154.8573342569604
 31
0.0
  0
LINE
  5
3CA
330
75
100
AcDbEntity
  8
0
  6
Continuous
 62
     7
100
AcDbLine
 10
-124.7441204367169
 20
154.7795077400757
 30
0.0
 11
-125.6707676187662
 21
155.3145077400757
 31
0.0
  0
LINE
  5
3CB
330
75
100
AcDbEntity
  8
0
  6
Continuous
 62
     7
100
AcDbLine
 10
-97.47923456869887
 20
155.3145077400758
 30
0.0
 11
-98.40588175074804
 21
154.7795077400758
 31
0.0
  0
LINE
  5
3CC
330
75
100
AcDbEntity
  8
0
  6
Continuous
 62
     7
100
AcDbLine
 10
-99.37500109373255
 20
120.1181211347548
 30
0.0
 11
-99.37500109373255
 21
121.449999170332
 31
0.0
  0
LINE
  5
3CD
330
75
100
AcDbEntity
  8
0
  6
Continuous
 62
     7
100
AcDbLine
 10
-100.8750010937326
 20
121.449999170332
 30
0.0
 11
-100.8750010937326
 21
120.3756170873183
 31
0.0
  0
LINE
  5
3CE
330
75
100
AcDbEntity
  8
0
  6
Continuous
 62
     7
100
AcDbLine
 10
-125.2386762283273
 20
120.849999170332
 30
0.0
 11
-129.6500010937326
 21
121.2472794694664
 31
0.0
  0
LINE
  5
3CF
330
75
100
AcDbEntity
  8
0
  6
Continuous
 62
     7
100
AcDbLine
 10
-125.6707676187662
 20
155.3145077400757
 30
0.0
 11
-125.9347168523092
 21
154.8573342569603
 31
0.0
  0
LINE
  5
3D0
330
75
100
AcDbEntity
  8
0
  6
Continuous
 62
     7
100
AcDbLine
 10
-97.21528533515595
 20
154.8573342569604
 30
0.0
 11
-97.47923456869887
 21
155.3145077400758
 31
0.0
  0
LINE
  5
3D1
330
75
100
AcDbEntity
  8
0
  6
Continuous
 62
     7
100
AcDbLine
 10
-107.6750010937326
 20
160.549999170332
 30
0.0
 11
-98.07130232200892
 21
160.549999170332
 31
0.0
  0
LINE
  5
3D2
330
75
100
AcDbEntity
  8
0
  6
Continuous
 62
     7
100
AcDbLine
 10
-107.6750010937326
 20
160.549999170332
 30
0.0
 11
-107.6750010937326
 21
147.149999170332
 31
0.0
  0
LINE
  5
3D3
330
75
100
AcDbEntity
  8
0
  6
Continuous
 62
     7
100
AcDbLine
 10
-115.4750010937325
 20
147.149999170332
 30
0.0
 11
-115.4750010937325
 21
160.549999170332
 31
0.0
  0
LINE
  5
3D4
330
75
100
AcDbEntity
  8
0
  6
Continuous
 62
     7
100
AcDbLine
 10
-125.0786998654561
 20
160.549999170332
 30
0.0
 11
-115.4750010937325
 21
160.549999170332
 31
0.0
  0
LINE
  5
3D5
330
75
100
AcDbEntity
  8
0
  6
Continuous
 62
     7
100
AcDbLine
 10
-125.9347168523092
 20
154.8573342569603
 30
0.0
 11
-127.2951739062445
 21
156.7109535180291
 31
0.0
  0
LINE
  5
3D6
330
75
100
AcDbEntity
  8
0
  6
Continuous
 62
     7
100
AcDbLine
 10
-113.3250010937325
 20
160.549999170332
 30
0.0
 11
-113.3250010937325
 21
153.549999170332
 31
0.0
  0
LINE
  5
3D7
330
75
100
AcDbEntity
  8
0
  6
Continuous
 62
     7
100
AcDbLine
 10
-113.3250010937325
 20
160.549999170332
 30
0.0
 11
-115.4750010937325
 21
160.549999170332
 31
0.0
  0
LINE
  5
3D8
330
75
100
AcDbEntity
  8
0
  6
Continuous
 62
     7
100
AcDbLine
 10
-107.6750010937326
 20
160.549999170332
 30
0.0
 11
-109.8250010937325
 21
160.549999170332
 31
0.0
  0
LINE
  5
3D9
330
75
100
AcDbEntity
  8
0
  6
Continuous
 62
     7
100
AcDbLine
 10
-109.8250010937325
 20
160.549999170332
 30
0.0
 11
-109.8250010937325
 21
153.549999170332
 31
0.0
  0
LINE
  5
3DA
330
75
100
AcDbEntity
  8
0
  6
Continuous
 62
     7
100
AcDbLine
 10
-100.8750010937326
 20
120.3756170873183
 30
0.0
 11
-99.65000109373256
 21
114.849999170332
 31
0.0
  0
LINE
  5
3DB
330
75
100
AcDbEntity
  8
0
  6
Continuous
 62
     7
100
AcDbLine
 10
-128.7497217616244
 20
116.349999170332
 30
0.0
 11
-128.7497217616243
 21
116.149999170332
 31
0.0
  0
LINE
  5
3DC
330
75
100
AcDbEntity
  8
0
  6
Continuous
 62
     7
100
AcDbLine
 10
-130.0500010937325
 20
122.949999170332
 30
0.0
 11
-126.4750010937325
 21
122.949999170332
 31
0.0
  0
LINE
  5
3DD
330
75
100
AcDbEntity
  8
0
  6
Continuous
 62
     7
100
AcDbLine
 10
-127.2951739062445
 20
156.7109535180291
 30
0.0
 11
-125.0786998654561
 21
160.549999170332
 31
0.0
  0
LINE
  5
3DE
330
75
100
AcDbEntity
  8
0
  6
Continuous
 62
     7
100
AcDbLine
 10
-129.6500010937326
 20
121.2472794694664
 30
0.0
 11
-129.6500010937326
 21
120.0356398163871
 31
0.0
  0
LINE
  5
3DF
330
75
100
AcDbEntity
  8
0
  6
Continuous
 62
     7
100
AcDbLine
 10
-128.8332676187663
 20
149.8368970611391
 30
0.0
 11
-127.9066204367169
 21
149.3018970611391
 31
0.0
  0
LINE
  5
3E0
330
75
100
AcDbEntity
  8
0
  6
Continuous
 62
     7
100
AcDbLine
 10
-128.5693183852232
 20
150.2940705442544
 30
0.0
 11
-128.8332676187663
 21
149.8368970611391
 31
0.0
  0
LINE
  5
3E1
330
75
100
AcDbEntity
  8
0
  6
Continuous
 62
     7
100
AcDbLine
 10
-126.4750010937325
 20
123.999999170332
 30
0.0
 11
-129.5928943125459
 21
123.999999170332
 31
0.0
  0
LINE
  5
3E2
330
75
100
AcDbEntity
  8
0
  6
Continuous
 62
     7
100
AcDbLine
 10
-130.1434792598581
 20
111.449999170332
 30
0.0
 11
-133.5500010937325
 21
111.449999170332
 31
0.0
  0
LINE
  5
3E3
330
75
100
AcDbEntity
  8
0
  6
Continuous
 62
     7
100
AcDbLine
 10
-99.35000109373254
 20
111.449999170332
 30
0.0
 11
-102.3000010937325
 21
111.449999170332
 31
0.0
  0
LINE
  5
3E4
330
75
100
AcDbEntity
  8
0
  6
Continuous
 62
     7
100
AcDbLine
 10
-102.3000010937325
 20
111.449999170332
 30
0.0
 11
-102.3000010937325
 21
113.099999170332
 31
0.0
  0
LINE
  5
3E5
330
75
100
AcDbEntity
  8
0
  6
Continuous
 62
     7
100
AcDbLine
 10
-102.3000010937325
 20
113.099999170332
 30
0.0
 11
-102.9400010937326
 21
113.099999170332
 31
0.0
  0
LINE
  5
3E6
330
75
100
AcDbEntity
  8
0
  6
Continuous
 62
     7
100
AcDbLine
 10
-129.7750010937326
 20
116.549999170332
 30
0.0
 11
-128.7497217616244
 21
116.349999170332
 31
0.0
  0
LINE
  5
3E7
330
75
100
AcDbEntity
  8
0
  6
Continuous
 62
     7
100
AcDbLine
 10
-99.35000109373252
 20
112.724999170332
 30
0.0
 11
-99.35000109373254
 21
111.449999170332
 31
0.0
  0
LINE
  5
3E8
330
75
100
AcDbEntity
  8
0
  6
Continuous
 62
     7
100
AcDbLine
 10
-100.5000010937326
 20
114.349999170332
 30
0.0
 11
-100.5000010937326
 21
112.849999170332
 31
0.0
  0
LINE
  5
3E9
330
75
100
AcDbEntity
  8
0
  6
Continuous
 62
     7
100
AcDbLine
 10
-99.65000109373256
 20
114.349999170332
 30
0.0
 11
-100.5000010937326
 21
114.349999170332
 31
0.0
  0
LINE
  5
3EA
330
75
100
AcDbEntity
  8
0
  6
Continuous
 62
     7
100
AcDbLine
 10
-99.65000109373256
 20
114.849999170332
 30
0.0
 11
-99.65000109373256
 21
114.349999170332
 31
0.0
  0
LINE
  5
3EB
330
75
100
AcDbEntity
  8
0
  6
Continuous
 62
     7
100
AcDbLine
 10
-133.5500010937325
 20
111.449999170332
 30
0.0
 11
-133.5500010937325
 21
113.949999170332
 31
0.0
  0
ARC
  5
3EC
330
75
100
AcDbEntity
  8
0
  6
Continuous
 62
     7
100
AcDbCircle
 10
-111.1982256767408
 20
109.4606971978714
 30
0.0
 40
8.000000000000004
100
AcDbArc
 50
34.32803523337624
 51
77.66476782071794
  0
ARC
  5
3ED
330
75
100
AcDbEntity
  8
0
  6
Continuous
 62
     7
100
AcDbCircle
 10
-115.7366690627264
 20
116.1888757092879
 30
0.0
 40
1.199999999999911
100
AcDbArc
 50
100.7064869688746
 51
186.9237208440686
  0
ARC
  5
3EE
330
75
100
AcDbEntity
  8
0
  6
Continuous
 62
     7
100
AcDbCircle
 10
-118.0250010937326
 20
118.099999170332
 30
0.0
 40
0.7000000000000028
100
AcDbArc
 50
90.0
 51
182.4150421413324
  0
ARC
  5
3EF
330
75
100
AcDbEntity
  8
0
  6
Continuous
 62
     7
100
AcDbCircle
 10
-118.0250010937326
 20
119.099999170332
 30
0.0
 40
0.2999999999999972
100
AcDbArc
 50
270.0
 51
0.0
  0
ARC
  5
3F0
330
75
100
AcDbEntity
  8
0
  6
Continuous
 62
     7
100
AcDbCircle
 10
-126.4750010937325
 20
123.474999170332
 30
0.0
 40
0.5249999999999915
100
AcDbArc
 50
270.0
 51
90.0
  0
ARC
  5
3F1
330
75
100
AcDbEntity
  8
0
  6
Continuous
 62
     7
100
AcDbCircle
 10
-112.9500010937325
 20
101.449999170332
 30
0.0
 40
16.2
100
AcDbArc
 50
77.66476782071845
 51
100.7064869688795
  0
ARC
  5
3F2
330
75
100
AcDbEntity
  8
0
  6
Continuous
 62
     7
100
AcDbCircle
 10
-133.0500010937325
 20
113.949999170332
 30
0.0
 40
0.4999999999999795
100
AcDbArc
 50
120.0000000000014
 51
180.0
  0
ARC
  5
3F3
330
75
100
AcDbEntity
  8
0
  6
Continuous
 62
     7
100
AcDbCircle
 10
-133.0500010937325
 20
113.949999170332
 30
0.0
 40
0.4999999999999005
100
AcDbArc
 50
90.0
 51
120.0000000000014
  0
ARC
  5
3F4
330
75
100
AcDbEntity
  8
0
  6
Continuous
 62
     7
100
AcDbCircle
 10
-132.0500010937325
 20
116.2594002470905
 30
0.0
 40
1.000000000000045
100
AcDbArc
 50
299.9999999999985
 51
0.0
  0
ARC
  5
3F5
330
75
100
AcDbEntity
  8
0
  6
Continuous
 62
     7
100
AcDbCircle
 10
-99.87500109373255
 20
121.449999170332
 30
0.0
 40
0.5
100
AcDbArc
 50
0.0
 51
90.0
  0
ARC
  5
3F6
330
75
100
AcDbEntity
  8
0
  6
Continuous
 62
     7
100
AcDbCircle
 10
-100.3750010937326
 20
121.449999170332
 30
0.0
 40
0.5
100
AcDbArc
 50
90.0
 51
180.0
  0
ARC
  5
3F7
330
75
100
AcDbEntity
  8
0
  6
Continuous
 62
     7
100
AcDbCircle
 10
-118.2250010937325
 20
121.449999170332
 30
0.0
 40
0.5
100
AcDbArc
 50
0.0
 51
90.0
  0
ARC
  5
3F8
330
75
100
AcDbEntity
  8
0
  6
Continuous
 62
     7
100
AcDbCircle
 10
-118.3376188918533
 20
121.449999170332
 30
0.0
 40
0.5
100
AcDbArc
 50
90.0
 51
165.0000000000059
  0
ARC
  5
3F9
330
75
100
AcDbEntity
  8
0
  6
Continuous
 62
     7
100
AcDbCircle
 10
-138.2461778826472
 20
116.409462349775
 30
0.0
 40
9.499999999999948
100
AcDbArc
 50
328.530221416036
 51
358.4349480050457
  0
ARC
  5
3FA
330
75
100
AcDbEntity
  8
0
  6
Continuous
 62
     7
100
AcDbCircle
 10
-130.3000010937325
 20
124.249999170332
 30
0.0
 40
0.7500000000000597
100
AcDbArc
 50
266.1336869730242
 51
340.5287793655109
  0
ARC
  5
3FB
330
75
100
AcDbEntity
  8
0
  6
Continuous
 62
     7
100
AcDbCircle
 10
-130.0500010937325
 20
121.949999170332
 30
0.0
 40
1.0
100
AcDbArc
 50
90.0
 51
180.0
  0
ARC
  5
3FC
330
75
100
AcDbEntity
  8
0
  6
Continuous
 62
     7
100
AcDbCircle
 10
-132.3000010937325
 20
113.1154538724182
 30
0.0
 40
0.20000000000004
100
AcDbArc
 50
131.0823331404147
 51
180.0
  0
ARC
  5
3FD
330
75
100
AcDbEntity
  8
0
  6
Continuous
 62
     7
100
AcDbCircle
 10
-132.8750010937323
 20
113.7749991703321
 30
0.0
 40
0.6750000000000088
100
AcDbArc
 50
311.0823331404352
 51
43.60281897270828
  0
ARC
  5
3FE
330
75
100
AcDbEntity
  8
0
  6
Continuous
 62
     7
100
AcDbCircle
 10
-132.8000010937325
 20
113.949999170332
 30
0.0
 40
0.499999999999904
100
AcDbArc
 50
43.60281897269728
 51
90.0
  0
ARC
  5
3FF
330
75
100
AcDbEntity
  8
0
  6
Continuous
 62
     7
100
AcDbCircle
 10
-115.3773548188389
 20
118.2116647560856
 30
0.0
 40
3.349999999999978
100
AcDbArc
 50
182.4150421413324
 51
228.6834170699553
  0
ARC
  5
400
330
75
100
AcDbEntity
  8
0
  6
Continuous
 62
     7
100
AcDbCircle
 10
-102.9400010937326
 20
115.099999170332
 30
0.0
 40
1.999999999999945
100
AcDbArc
 50
214.3280352333766
 51
270.0
  0
ARC
  5
401
330
75
100
AcDbEntity
  8
0
  6
Continuous
 62
     7
100
AcDbCircle
 10
-117.3250010937325
 20
115.995999170332
 30
0.0
 40
0.4000000000001072
100
AcDbArc
 50
228.6834170699418
 51
6.92372084405285
  0
ENDBLK
  5
77
330
75
100
AcDbEntity
  8
0
100
AcDbBlockEnd
  0
BLOCK
  5
7A
330
78
100
AcDbEntity
  8
0
100
AcDbBlockBegin
  2
Vordans1
 70
     0
 10
-111.8125000468662
 20
135.9999995851661
 30
0.0
  3
Vordans1
  1

  0
INSERT
  5
79
330
78
100
AcDbEntity
  8
0
100
AcDbBlockReference
  2
URKN-select__6
 10
-133.5500010937325
 20
111.449999170332
 30
0.0
  0
LINE
  5
402
330
78
100
AcDbEntity
  8
1
  6
Continuous
 62
     2
100
AcDbLine
 10
-112.2750010937326
 20
119.562708982911
 30
0.0
 11
-112.2750010937326
 21
114.562708982911
 31
0.0
  0
DIMENSION
  5
40D
330
78
100
AcDbEntity
  8
1
100
AcDbDimension
  2
*D18
 10
-151.5500010937325
 20
111.4499991703319
 30
0.0
 11
-154.9750010937325
 21
135.203719957456
 31
0.0
 70
    32
  1
<>
 71
     5
 42
-1.0
 53
90.0
  3
ME10_DIM_11
100
AcDbAlignedDimension
 13
-125.0786998654561
 23
160.549999170332
 33
0.0
 14
-130.1434792598581
 24
111.449999170332
 34
0.0
 50
90.0
100
AcDbRotatedDimension
  0
DIMENSION
  5
418
330
78
100
AcDbEntity
  8
1
100
AcDbDimension
  2
*D19
 10
-143.5500010937325
 20
117.749999170332
 30
0.0
 11
-146.9750010937325
 21
139.237147471032
 31
0.0
 70
    32
  1
<>
 71
     5
 42
-1.0
 53
90.0
  3
ME10_DIM_12
100
AcDbAlignedDimension
 13
-115.4750010937325
 23
160.549999170332
 33
0.0
 14
-98.85000109373246
 24
117.749999170332
 34
0.0
 50
90.0
100
AcDbRotatedDimension
  0
DIMENSION
  5
425
330
78
100
AcDbEntity
  8
1
100
AcDbDimension
  2
*D20
 10
-112.2750010937326
 20
93.497477246549
 30
0.0
 11
-100.975368470089
 21
97.422477246549
 31
0.0
 70
    32
  1
<>
 71
     5
 42
-1.0
 53
0.00013888888889
  3
ME10_DIM_13
100
AcDbAlignedDimension
 13
-90.07500109373252
 23
127.3500012403709
 33
0.0
 14
-112.2750010937326
 24
114.562708982911
 34
0.0
100
AcDbRotatedDimension
  0
DIMENSION
  5
430
330
78
100
AcDbEntity
  8
1
100
AcDbDimension
  2
*D21
 10
-112.2750010937326
 20
101.497477246549
 30
0.0
 11
-103.680789647999
 21
105.422477246549
 31
0.0
 70
    32
  1
<>
 71
     5
 42
-1.0
 53
0.00013888888889
  3
ME10_DIM_14
100
AcDbAlignedDimension
 13
-94.77500109373251
 23
116.549999170332
 33
0.0
 14
-112.2750010937326
 24
114.562708982911
 34
0.0
100
AcDbRotatedDimension
  0
DIMENSION
  5
43B
330
78
100
AcDbEntity
  8
1
100
AcDbDimension
  2
*D22
 10
-90.07500109373252
 20
83.47585621817878
 30
0.0
 11
-110.313435116421
 21
87.40085621817877
 31
0.0
 70
    32
  1
<>
 71
     5
 42
-1.0
 53
0.00013888888889
  3
ME10_DIM_15
100
AcDbAlignedDimension
 13
-133.5500010937325
 23
111.449999170332
 33
0.0
 14
-90.07500109373252
 24
127.3500012403709
 34
0.0
100
AcDbRotatedDimension
  0
ENDBLK
  5
7B
330
78
100
AcDbEntity
  8
0
100
AcDbBlockEnd
  0
BLOCK
  5
84
330
7C
100
AcDbEntity
  8
0
100
AcDbBlockBegin
  2
1
 70
     0
 10
0.0
 20
0.0
 30
0.0
  3
1
  1

  0
INSERT
  5
7D
330
7C
100
AcDbEntity
  8
0
100
AcDbBlockReference
  2
A4I_CS
 10
70.83125047588062
 20
-11.17141943035915
 30
0.0
  0
INSERT
  5
7E
330
7C
100
AcDbEntity
  8
0
100
AcDbBlockReference
  2
AllgSicht1
 10
27.9513661499494
 20
62.00000002391016
 30
0.0
  0
INSERT
  5
7F
330
7C
100
AcDbEntity
  8
0
100
AcDbBlockReference
  2
Drfsicht1
 10
-111.8125000468662
 20
63.37499980925986
 30
0.0
  0
INSERT
  5
80
330
7C
100
AcDbEntity
  8
0
100
AcDbBlockReference
  2
Rckans1
 10
-0.99999990436004
 20
136.0
 30
0.0
  0
INSERT
  5
81
330
7C
100
AcDbEntity
  8
0
100
AcDbBlockReference
  2
SA_Rechts1
 10
-181.0000000000051
 20
136.0
 30
0.0
  0
INSERT
  5
82
330
7C
100
AcDbEntity
  8
0
100
AcDbBlockReference
  2
SA_links1
 10
-56.99999980925998
 20
135.9999995851661
 30
0.0
  0
INSERT
  5
83
330
7C
100
AcDbEntity
  8
0
100
AcDbBlockReference
  2
Vordans1
 10
-111.8125000468662
 20
135.9999995851661
 30
0.0
  0
ENDBLK
  5
85
330
7C
100
AcDbEntity
  8
0
100
AcDbBlockEnd
  0
BLOCK
  5
2CB
330
2C3
100
AcDbEntity
  8
0
100
AcDbBlockBegin
  2
*D17
 70
     1
 10
0.0
 20
0.0
 30
0.0
  3
*D17
  1

  0
LINE
  5
2C4
330
2C3
100
AcDbEntity
  8
1
  6
Continuous
 62
     2
100
AcDbLine
 10
-143.5500010937325
 20
58.29999961851993
 30
0.0
 11
-143.5500010937325
 21
68.44999961851994
 31
0.0
  0
LINE
  5
2C5
330
2C3
100
AcDbEntity
  8
1
  6
Continuous
 62
     2
100
AcDbLine
 10
-143.5500010937325
 20
45.3155588569361
 30
0.0
 11
-143.5500010937325
 21
58.29999961851993
 31
0.0
  0
LINE
  5
2C6
330
2C3
100
AcDbEntity
  8
1
  6
Continuous
 62
     2
100
AcDbLine
 10
-133.5500010937325
 20
68.44999961851994
 30
0.0
 11
-145.0500010937325
 21
68.44999961851994
 31
0.0
  0
LINE
  5
2C7
330
2C3
100
AcDbEntity
  8
1
  6
Continuous
 62
     2
100
AcDbLine
 10
-133.5500010937325
 20
58.29999961851993
 30
0.0
 11
-145.0500010937325
 21
58.29999961851993
 31
0.0
  0
SOLID
  5
2C8
330
2C3
100
AcDbEntity
  8
1
 62
     2
100
AcDbTrace
 10
-144.0107848352883
 20
61.79999961851993
 30
0.0
 11
-143.0892173521766
 21
61.79999961851993
 31
0.0
 12
-143.5500010937325
 22
58.29999961851993
 32
0.0
 13
-143.5500010937325
 23
58.29999961851993
 33
0.0
  0
SOLID
  5
2C9
330
2C3
100
AcDbEntity
  8
1
 62
     2
100
AcDbTrace
 10
-143.0892173521766
 20
64.94999961851994
 30
0.0
 11
-144.0107848352883
 21
64.94999961851994
 31
0.0
 12
-143.5500010937325
 22
68.44999961851994
 32
0.0
 13
-143.5500010937325
 23
68.44999961851994
 33
0.0
  0
MTEXT
  5
2CA
330
2C3
100
AcDbEntity
  8
1
 62
     3
100
AcDbMText
 10
-145.4000010937325
 20
45.3155588569361
 30
0.0
 40
3.5
 41
0.0
 71
     7
 72
     1
  1
10,15
  7
CONVERTER_11
 11
0.0
 21
1.0
 31
0.0
 73
     1
 44
0.60024009603842
  0
ENDBLK
  5
2CC
330
2C3
100
AcDbEntity
  8
0
100
AcDbBlockEnd
  0
BLOCK
  5
40A
330
403
100
AcDbEntity
  8
0
100
AcDbBlockBegin
  2
*D18
 70
     1
 10
0.0
 20
0.0
 30
0.0
  3
*D18
  1

  0
LINE
  5
404
330
403
100
AcDbEntity
  8
1
  6
Continuous
 62
     2
100
AcDbLine
 10
-151.5500010937325
 20
111.4499991703319
 30
0.0
 11
-151.5500010937325
 21
160.549999170332
 31
0.0
  0
LINE
  5
405
330
403
100
AcDbEntity
  8
1
  6
Continuous
 62
     2
100
AcDbLine
 10
-125.078699865456
 20
160.549999170332
 30
0.0
 11
-153.0500010937325
 21
160.549999170332
 31
0.0
  0
LINE
  5
406
330
403
100
AcDbEntity
  8
1
  6
Continuous
 62
     2
100
AcDbLine
 10
-130.1434792598581
 20
111.4499991703319
 30
0.0
 11
-153.0500010937325
 21
111.4499991703319
 31
0.0
  0
SOLID
  5
407
330
403
100
AcDbEntity
  8
1
 62
     2
100
AcDbTrace
 10
-152.0107848352883
 20
114.9499991703319
 30
0.0
 11
-151.0892173521766
 21
114.9499991703319
 31
0.0
 12
-151.5500010937325
 22
111.4499991703319
 32
0.0
 13
-151.5500010937325
 23
111.4499991703319
 33
0.0
  0
SOLID
  5
408
330
403
100
AcDbEntity
  8
1
 62
     2
100
AcDbTrace
 10
-151.0892173521766
 20
157.049999170332
 30
0.0
 11
-152.0107848352883
 21
157.049999170332
 31
0.0
 12
-151.5500010937325
 22
160.549999170332
 32
0.0
 13
-151.5500010937325
 23
160.549999170332
 33
0.0
  0
MTEXT
  5
409
330
403
100
AcDbEntity
  8
1
 62
     3
100
AcDbMText
 10
-153.4000010937325
 20
130.916219957456
 30
0.0
 40
3.5
 41
0.0
 71
     7
 72
     1
  1
49,1
  7
CONVERTER_11
 11
0.0
 21
1.0
 31
0.0
 73
     1
 44
0.60024009603842
  0
ENDBLK
  5
40B
330
403
100
AcDbEntity
  8
0
100
AcDbBlockEnd
  0
BLOCK
  5
415
330
40E
100
AcDbEntity
  8
0
100
AcDbBlockBegin
  2
*D19
 70
     1
 10
0.0
 20
0.0
 30
0.0
  3
*D19
  1

  0
LINE
  5
40F
330
40E
100
AcDbEntity
  8
1
  6
Continuous
 62
     2
100
AcDbLine
 10
-143.5500010937325
 20
117.749999170332
 30
0.0
 11
-143.5500010937325
 21
160.549999170332
 31
0.0
  0
LINE
  5
410
330
40E
100
AcDbEntity
  8
1
  6
Continuous
 62
     2
100
AcDbLine
 10
-115.4750010937325
 20
160.549999170332
 30
0.0
 11
-145.0500010937325
 21
160.549999170332
 31
0.0
  0
LINE
  5
411
330
40E
100
AcDbEntity
  8
1
  6
Continuous
 62
     2
100
AcDbLine
 10
-98.8500010937324
 20
117.749999170332
 30
0.0
 11
-145.0500010937325
 21
117.749999170332
 31
0.0
  0
SOLID
  5
412
330
40E
100
AcDbEntity
  8
1
 62
     2
100
AcDbTrace
 10
-144.0107848352883
 20
121.249999170332
 30
0.0
 11
-143.0892173521766
 21
121.249999170332
 31
0.0
 12
-143.5500010937325
 22
117.749999170332
 32
0.0
 13
-143.5500010937325
 23
117.749999170332
 33
0.0
  0
SOLID
  5
413
330
40E
100
AcDbEntity
  8
1
 62
     2
100
AcDbTrace
 10
-143.0892173521766
 20
157.049999170332
 30
0.0
 11
-144.0107848352883
 21
157.049999170332
 31
0.0
 12
-143.5500010937325
 22
160.549999170332
 32
0.0
 13
-143.5500010937325
 23
160.549999170332
 33
0.0
  0
MTEXT
  5
414
330
40E
100
AcDbEntity
  8
1
 62
     3
100
AcDbMText
 10
-145.4000010937325
 20
134.424647471032
 30
0.0
 40
3.5
 41
0.0
 71
     7
 72
     1
  1
42,8
  7
CONVERTER_11
 11
0.0
 21
1.0
 31
0.0
 73
     1
 44
0.60024009603842
  0
ENDBLK
  5
416
330
40E
100
AcDbEntity
  8
0
100
AcDbBlockEnd
  0
BLOCK
  5
422
330
419
100
AcDbEntity
  8
0
100
AcDbBlockBegin
  2
*D20
 70
     1
 10
0.0
 20
0.0
 30
0.0
  3
*D20
  1

  0
LINE
  5
41A
330
419
100
AcDbEntity
  8
1
  6
Continuous
 62
     2
100
AcDbLine
 10
-112.2750010937326
 20
93.497477246549
 30
0.0
 11
-90.07500109373252
 21
93.497477246549
 31
0.0
  0
LINE
  5
41B
330
419
100
AcDbEntity
  8
1
  6
Continuous
 62
     2
100
AcDbLine
 10
-90.07500109373252
 20
127.3500012403709
 30
0.0
 11
-90.07500109373252
 21
118.7336031818992
 31
0.0
  0
LINE
  5
41C
330
419
100
AcDbEntity
  8
1
  6
Continuous
 62
     2
100
AcDbLine
 10
-90.07500109373252
 20
116.5518119093912
 30
0.0
 11
-90.07500109373252
 21
112.7118592697782
 31
0.0
  0
LINE
  5
41D
330
419
100
AcDbEntity
  8
1
  6
Continuous
 62
     2
100
AcDbLine
 10
-90.07500109373252
 20
110.6173396481712
 30
0.0
 11
-90.07500109373252
 21
91.497477246549
 31
0.0
  0
LINE
  5
41E
330
419
100
AcDbEntity
  8
1
  6
Continuous
 62
     2
100
AcDbLine
 10
-112.2750010937326
 20
114.562708982911
 30
0.0
 11
-112.2750010937326
 21
91.497477246549
 31
0.0
  0
SOLID
  5
41F
330
419
100
AcDbEntity
  8
1
 62
     2
100
AcDbTrace
 10
-108.7750010937326
 20
93.95826098810488
 30
0.0
 11
-108.7750010937326
 21
93.03669350499311
 31
0.0
 12
-112.2750010937326
 22
93.497477246549
 32
0.0
 13
-112.2750010937326
 23
93.497477246549
 33
0.0
  0
SOLID
  5
420
330
419
100
AcDbEntity
  8
1
 62
     2
100
AcDbTrace
 10
-93.57500109373252
 20
93.03669350499311
 30
0.0
 11
-93.57500109373252
 21
93.95826098810488
 31
0.0
 12
-90.07500109373252
 22
93.497477246549
 32
0.0
 13
-90.07500109373252
 23
93.497477246549
 33
0.0
  0
MTEXT
  5
421
330
419
100
AcDbEntity
  8
1
 62
     3
100
AcDbMText
 10
-105.787868470089
 20
95.84747724654899
 30
0.0
 40
3.5
 41
0.0
 71
     7
 72
     1
  1
22,2
  7
CONVERTER_11
 11
0.9999999999970619
 21
2.424068405545306E-6
 31
0.0
 73
     1
 44
0.60024009603842
  0
ENDBLK
  5
423
330
419
100
AcDbEntity
  8
0
100
AcDbBlockEnd
  0
BLOCK
  5
42D
330
426
100
AcDbEntity
  8
0
100
AcDbBlockBegin
  2
*D21
 70
     1
 10
0.0
 20
0.0
 30
0.0
  3
*D21
  1

  0
LINE
  5
427
330
426
100
AcDbEntity
  8
1
  6
Continuous
 62
     2
100
AcDbLine
 10
-112.2750010937326
 20
101.497477246549
 30
0.0
 11
-94.77500109373251
 21
101.497477246549
 31
0.0
  0
LINE
  5
428
330
426
100
AcDbEntity
  8
1
  6
Continuous
 62
     2
100
AcDbLine
 10
-112.2750010937326
 20
114.562708982911
 30
0.0
 11
-112.2750010937326
 21
99.497477246549
 31
0.0
  0
LINE
  5
429
330
426
100
AcDbEntity
  8
1
  6
Continuous
 62
     2
100
AcDbLine
 10
-94.77500109373251
 20
116.549999170332
 30
0.0
 11
-94.77500109373251
 21
99.497477246549
 31
0.0
  0
SOLID
  5
42A
330
426
100
AcDbEntity
  8
1
 62
     2
100
AcDbTrace
 10
-108.7750010937326
 20
101.9582609881049
 30
0.0
 11
-108.7750010937326
 21
101.0366935049931
 31
0.0
 12
-112.2750010937326
 22
101.497477246549
 32
0.0
 13
-112.2750010937326
 23
101.497477246549
 33
0.0
  0
SOLID
  5
42B
330
426
100
AcDbEntity
  8
1
 62
     2
100
AcDbTrace
 10
-98.27500109373251
 20
101.0366935049931
 30
0.0
 11
-98.27500109373251
 21
101.9582609881049
 31
0.0
 12
-94.77500109373251
 22
101.497477246549
 32
0.0
 13
-94.77500109373251
 23
101.497477246549
 33
0.0
  0
MTEXT
  5
42C
330
426
100
AcDbEntity
  8
1
 62
     3
100
AcDbMText
 10
-107.968289647999
 20
103.847477246549
 30
0.0
 40
3.5
 41
0.0
 71
     7
 72
     1
  1
17,5
  7
CONVERTER_11
 11
0.9999999999970619
 21
2.424068405545306E-6
 31
0.0
 73
     1
 44
0.60024009603842
  0
ENDBLK
  5
42E
330
426
100
AcDbEntity
  8
0
100
AcDbBlockEnd
  0
BLOCK
  5
438
330
431
100
AcDbEntity
  8
0
100
AcDbBlockBegin
  2
*D22
 70
     1
 10
0.0
 20
0.0
 30
0.0
  3
*D22
  1

  0
LINE
  5
432
330
431
100
AcDbEntity
  8
1
  6
Continuous
 62
     2
100
AcDbLine
 10
-90.07500109373252
 20
83.47585621817878
 30
0.0
 11
-133.5500010937325
 21
83.47585621817878
 31
0.0
  0
LINE
  5
433
330
431
100
AcDbEntity
  8
1
  6
Continuous
 62
     2
100
AcDbLine
 10
-90.07500109373252
 20
127.3500012403709
 30
0.0
 11
-90.07500109373252
 21
81.47585621817878
 31
0.0
  0
LINE
  5
434
330
431
100
AcDbEntity
  8
1
  6
Continuous
 62
     2
100
AcDbLine
 10
-133.5500010937325
 20
111.449999170332
 30
0.0
 11
-133.5500010937325
 21
81.47585621817878
 31
0.0
  0
SOLID
  5
435
330
431
100
AcDbEntity
  8
1
 62
     2
100
AcDbTrace
 10
-93.57500109373252
 20
83.01507247662289
 30
0.0
 11
-93.57500109373252
 21
83.93663995973466
 31
0.0
 12
-90.07500109373252
 22
83.47585621817878
 32
0.0
 13
-90.07500109373252
 23
83.47585621817878
 33
0.0
  0
SOLID
  5
436
330
431
100
AcDbEntity
  8
1
 62
     2
100
AcDbTrace
 10
-130.0500010937325
 20
83.93663995973466
 30
0.0
 11
-130.0500010937325
 21
83.01507247662289
 31
0.0
 12
-133.5500010937325
 22
83.47585621817878
 32
0.0
 13
-133.5500010937325
 23
83.47585621817878
 33
0.0
  0
MTEXT
  5
437
330
431
100
AcDbEntity
  8
1
 62
     3
100
AcDbMText
 10
-115.125935116421
 20
85.82585621817877
 30
0.0
 40
3.5
 41
0.0
 71
     7
 72
     1
  1
43,5
  7
CONVERTER_11
 11
0.9999999999970619
 21
2.424068405545306E-6
 31
0.0
 73
     1
 44
0.60024009603842
  0
ENDBLK
  5
439
330
431
100
AcDbEntity
  8
0
100
AcDbBlockEnd
  0
ENDSEC
  0
SECTION
  2
ENTITIES
  0
INSERT
  5
86
330
1F
100
AcDbEntity
  8
1
100
AcDbBlockReference
  2
1
 10
0.0
 20
0.0
 30
0.0
  0
ENDSEC
  0
SECTION
  2
OBJECTS
  0
DICTIONARY
  5
C
330
0
100
AcDbDictionary
281
     1
  3
ACAD_GROUP
350
D
  3
ACAD_LAYOUT
350
1A
  3
ACAD_MATERIAL
350
3B
  3
ACAD_MLEADERSTYLE
350
463
  3
ACAD_MLINESTYLE
350
17
  3
ACAD_PLOTSETTINGS
350
19
  3
ACAD_PLOTSTYLENAME
350
E
  3
ACAD_TABLESTYLE
350
462
  3
ACAD_VISUALSTYLE
350
2A
  0
DICTIONARY
  5
D
102
{ACAD_REACTORS
330
C
102
}
330
C
100
AcDbDictionary
281
     1
  0
DICTIONARY
  5
1A
102
{ACAD_REACTORS
330
C
102
}
330
C
100
AcDbDictionary
281
     1
  3
Layout1
350
1E
  3
Layout2
350
26
  3
Model
350
22
  0
DICTIONARY
  5
3B
102
{ACAD_REACTORS
330
C
102
}
330
C
100
AcDbDictionary
281
     1
  3
ByBlock
350
3D
  3
ByLayer
350
3C
  3
Global
350
3E
  0
DICTIONARY
  5
463
102
{ACAD_REACTORS
330
C
102
}
330
C
100
AcDbDictionary
281
     1
  0
DICTIONARY
  5
17
102
{ACAD_REACTORS
330
C
102
}
330
C
100
AcDbDictionary
281
     1
  3
Standard
350
18
  0
DICTIONARY
  5
19
102
{ACAD_REACTORS
330
C
102
}
330
C
100
AcDbDictionary
281
     1
  0
ACDBDICTIONARYWDFLT
  5
E
102
{ACAD_REACTORS
330
C
102
}
330
C
100
AcDbDictionary
281
     1
  3
Normal
350
F
100
AcDbDictionaryWithDefault
340
F
  0
DICTIONARY
  5
462
102
{ACAD_REACTORS
330
C
102
}
330
C
100
AcDbDictionary
281
     1
  0
DICTIONARY
  5
2A
102
{ACAD_REACTORS
330
C
102
}
330
C
100
AcDbDictionary
281
     1
  3
2dWireframe
350
2F
  3
3D Hidden
350
31
  3
3dWireframe
350
30
  3
Basic
350
32
  3
Brighten
350
36
  3
ColorChange
350
3A
  3
Conceptual
350
34
  3
Dim
350
35
  3
Facepattern
350
39
  3
Flat
350
2B
  3
FlatWithEdges
350
2C
  3
Gouraud
350
2D
  3
GouraudWithEdges
350
2E
  3
Linepattern
350
38
  3
Realistic
350
33
  3
Thicken
350
37
  0
LAYOUT
  5
1E
102
{ACAD_REACTORS
330
1A
102
}
330
1A
100
AcDbPlotSettings
  1

  2
none_device
  4

  6

 40
0.0
 41
0.0
 42
0.0
 43
0.0
 44
0.0
 45
0.0
 46
0.0
 47
0.0
 48
0.0
 49
0.0
140
0.0
141
0.0
142
1.0
143
1.0
 70
   688
 72
     0
 73
     0
 74
     5
  7

 75
    16
 76
     0
 77
     2
 78
   300
147
1.0
148
0.0
149
0.0
100
AcDbLayout
  1
Layout1
 70
     1
 71
     1
 10
0.0
 20
0.0
 11
12.0
 21
9.0
 12
0.0
 22
0.0
 32
0.0
 14
1.00000000000000E+20
 24
1.00000000000000E+20
 34
1.00000000000000E+20
 15
-1.00000000000000E+20
 25
-1.00000000000000E+20
 35
-1.00000000000000E+20
146
0.0
 13
0.0
 23
0.0
 33
0.0
 16
1.0
 26
0.0
 36
0.0
 17
0.0
 27
1.0
 37
0.0
 76
     0
330
1B
  0
LAYOUT
  5
26
102
{ACAD_REACTORS
330
1A
102
}
330
1A
100
AcDbPlotSettings
  1

  2
none_device
  4

  6

 40
0.0
 41
0.0
 42
0.0
 43
0.0
 44
0.0
 45
0.0
 46
0.0
 47
0.0
 48
0.0
 49
0.0
140
0.0
141
0.0
142
1.0
143
1.0
 70
   688
 72
     0
 73
     0
 74
     5
  7

 75
    16
 76
     0
 77
     2
 78
   300
147
1.0
148
0.0
149
0.0
100
AcDbLayout
  1
Layout2
 70
     1
 71
     2
 10
0.0
 20
0.0
 11
0.0
 21
0.0
 12
0.0
 22
0.0
 32
0.0
 14
0.0
 24
0.0
 34
0.0
 15
0.0
 25
0.0
 35
0.0
146
0.0
 13
0.0
 23
0.0
 33
0.0
 16
1.0
 26
0.0
 36
0.0
 17
0.0
 27
1.0
 37
0.0
 76
     0
330
23
  0
LAYOUT
  5
22
102
{ACAD_REACTORS
330
1A
102
}
330
1A
100
AcDbPlotSettings
  1

  2
none_device
  4

  6

 40
0.0
 41
0.0
 42
0.0
 43
0.0
 44
0.0
 45
0.0
 46
0.0
 47
0.0
 48
0.0
 49
0.0
140
0.0
141
0.0
142
1.0
143
1.0
 70
  1712
 72
     0
 73
     0
 74
     0
  7

 75
     0
 76
     0
 77
     2
 78
   300
147
1.0
148
0.0
149
0.0
100
AcDbLayout
  1
Model
 70
     1
 71
     0
 10
0.0
 20
0.0
 11
12.0
 21
9.0
 12
0.0
 22
0.0
 32
0.0
 14
-221.1687495241185
 24
-11.17141943035915
 34
0.0
 15
75.83125047587961
 25
198.828580569641
 35
0.0
146
0.0
 13
0.0
 23
0.0
 33
0.0
 16
1.0
 26
0.0
 36
0.0
 17
0.0
 27
1.0
 37
0.0
 76
     0
330
1F
331
29
  0
MATERIAL
  5
3D
102
{ACAD_REACTORS
330
3B
102
}
102
{ACAD_XDICTIONARY
360
45E
102
}
330
3B
100
AcDbMaterial
  1
ByBlock
  0
MATERIAL
  5
3C
102
{ACAD_REACTORS
330
3B
102
}
102
{ACAD_XDICTIONARY
360
45C
102
}
330
3B
100
AcDbMaterial
  1
ByLayer
  0
MATERIAL
  5
3E
102
{ACAD_REACTORS
330
3B
102
}
102
{ACAD_XDICTIONARY
360
460
102
}
330
3B
100
AcDbMaterial
  1
Global
  0
MLINESTYLE
  5
18
102
{ACAD_REACTORS
330
17
102
}
330
17
100
AcDbMlineStyle
  2
Standard
 70
     0
  3

 62
   256
 51
90.0
 52
90.0
 71
     2
 49
0.5
 62
   256
  6
BYLAYER
 49
-0.5
 62
   256
  6
BYLAYER
  0
ACDBPLACEHOLDER
  5
F
102
{ACAD_REACTORS
330
E
102
}
330
E
  0
VISUALSTYLE
  5
2F
102
{ACAD_REACTORS
330
2A
102
}
102
{ACAD_XDICTIONARY
360
444
102
}
330
2A
100
AcDbVisualStyle
  2
2dWireframe
 70
     4
 71
     0
 72
     2
 73
     0
 90
        0
 40
-0.6
 41
-30.0
 62
     5
 63
     7
421
 16777215
 74
     1
 91
        4
 64
     7
 65
   257
 75
     1
175
     1
 42
1.0
 92
        0
 66
   257
 43
1.0
 76
     1
 77
     6
 78
     2
 67
     7
 79
     5
170
     0
171
     0
290
     0
174
     0
 93
        1
 44
0.0
173
     0
291
     0
 45
0.0
1001
ACAD
1000
AcDbSavedByObjectVersion
1070
     0
  0
VISUALSTYLE
  5
31
102
{ACAD_REACTORS
330
2A
102
}
102
{ACAD_XDICTIONARY
360
448
102
}
330
2A
100
AcDbVisualStyle
  2
3D Hidden
 70
     6
 71
     1
 72
     2
 73
     2
 90
        0
 40
-0.6
 41
-30.0
 62
     5
 63
     7
421
 16777215
 74
     2
 91
        2
 64
     7
 65
   257
 75
     2
175
     1
 42
40.0
 92
        0
 66
   257
 43
1.0
 76
     1
 77
     6
 78
     2
 67
     7
 79
     3
170
     0
171
     0
290
     0
174
     0
 93
        1
 44
0.0
173
     0
291
     0
 45
0.0
1001
ACAD
1000
AcDbSavedByObjectVersion
1070
     0
  0
VISUALSTYLE
  5
30
102
{ACAD_REACTORS
330
2A
102
}
102
{ACAD_XDICTIONARY
360
446
102
}
330
2A
100
AcDbVisualStyle
  2
3dWireframe
 70
     5
 71
     0
 72
     2
 73
     0
 90
        0
 40
-0.6
 41
-30.0
 62
     5
 63
     7
421
 16777215
 74
     1
 91
        4
 64
     7
 65
   257
 75
     1
175
     1
 42
1.0
 92
        0
 66
   257
 43
1.0
 76
     1
 77
     6
 78
     2
 67
     7
 79
     5
170
     0
171
     0
290
     0
174
     0
 93
        1
 44
0.0
173
     0
291
     0
 45
0.0
1001
ACAD
1000
AcDbSavedByObjectVersion
1070
     0
  0
VISUALSTYLE
  5
32
102
{ACAD_REACTORS
330
2A
102
}
102
{ACAD_XDICTIONARY
360
44A
102
}
330
2A
100
AcDbVisualStyle
  2
Basic
 70
     7
 71
     1
 72
     0
 73
     1
 90
        0
 40
-0.6
 41
-30.0
 62
     5
 63
     7
421
 16777215
 74
     0
 91
        4
 64
     7
 65
   257
 75
     1
175
     1
 42
1.0
 92
        8
 66
     7
 43
1.0
 76
     1
 77
     6
 78
     2
 67
     7
 79
     5
170
     0
171
     0
290
     0
174
     0
 93
        1
 44
0.0
173
     0
291
     1
 45
0.0
1001
ACAD
1000
AcDbSavedByObjectVersion
1070
     0
  0
VISUALSTYLE
  5
36
102
{ACAD_REACTORS
330
2A
102
}
102
{ACAD_XDICTIONARY
360
452
102
}
330
2A
100
AcDbVisualStyle
  2
Brighten
 70
    12
 71
     2
 72
     2
 73
     0
 90
        0
 40
-0.6
 41
-30.0
 62
     5
 63
     7
421
 16777215
 74
     1
 91
        4
 64
     7
 65
   257
 75
     1
175
     1
 42
1.0
 92
        8
 66
     7
 43
1.0
 76
     1
 77
     6
 78
     2
 67
     7
 79
     5
170
     0
171
     0
290
     0
174
     0
 93
        1
 44
50.0
173
     0
291
     1
 45
0.0
1001
ACAD
1000
AcDbSavedByObjectVersion
1070
     0
  0
VISUALSTYLE
  5
3A
102
{ACAD_REACTORS
330
2A
102
}
102
{ACAD_XDICTIONARY
360
45A
102
}
330
2A
100
AcDbVisualStyle
  2
ColorChange
 70
    16
 71
     2
 72
     2
 73
     3
 90
        0
 40
-0.6
 41
-30.0
 62
     5
 63
     8
421
  8421504
 74
     1
 91
        4
 64
     7
 65
   257
 75
     1
175
     1
 42
1.0
 92
        8
 66
     8
424
  8421504
 43
1.0
 76
     1
 77
     6
 78
     2
 67
     7
 79
     5
170
     0
171
     0
290
     0
174
     0
 93
        1
 44
0.0
173
     0
291
     1
 45
0.0
1001
ACAD
1000
AcDbSavedByObjectVersion
1070
     0
  0
VISUALSTYLE
  5
34
102
{ACAD_REACTORS
330
2A
102
}
102
{ACAD_XDICTIONARY
360
44E
102
}
330
2A
100
AcDbVisualStyle
  2
Conceptual
 70
     9
 71
     3
 72
     2
 73
     0
 90
        0
 40
-0.6
 41
-30.0
 62
     5
 63
     7
421
 16777215
 74
     2
 91
        2
 64
     7
 65
   257
 75
     1
175
     1
 42
40.0
 92
        8
 66
     7
 43
1.0
 76
     1
 77
     6
 78
     2
 67
     7
 79
     3
170
     0
171
     0
290
     0
174
     0
 93
        1
 44
0.0
173
     0
291
     0
 45
0.0
1001
ACAD
1000
AcDbSavedByObjectVersion
1070
     0
  0
VISUALSTYLE
  5
35
102
{ACAD_REACTORS
330
2A
102
}
102
{ACAD_XDICTIONARY
360
450
102
}
330
2A
100
AcDbVisualStyle
  2
Dim
 70
    11
 71
     2
 72
     2
 73
     0
 90
        0
 40
-0.6
 41
-30.0
 62
     5
 63
     7
421
 16777215
 74
     1
 91
        4
 64
     7
 65
   257
 75
     1
175
     1
 42
1.0
 92
        8
 66
     7
 43
1.0
 76
     1
 77
     6
 78
     2
 67
     7
 79
     5
170
     0
171
     0
290
     0
174
     0
 93
        1
 44
-50.0
173
     0
291
     1
 45
0.0
1001
ACAD
1000
AcDbSavedByObjectVersion
1070
     0
  0
VISUALSTYLE
  5
39
102
{ACAD_REACTORS
330
2A
102
}
102
{ACAD_XDICTIONARY
360
458
102
}
330
2A
100
AcDbVisualStyle
  2
Facepattern
 70
    15
 71
     2
 72
     2
 73
     0
 90
        0
 40
-0.6
 41
-30.0
 62
     5
 63
     7
421
 16777215
 74
     1
 91
        4
 64
     7
 65
   257
 75
     1
175
     1
 42
1.0
 92
        8
 66
     7
 43
1.0
 76
     1
 77
     6
 78
     2
 67
     7
 79
     5
170
     0
171
     0
290
     0
174
     0
 93
        1
 44
0.0
173
     0
291
     1
 45
0.0
1001
ACAD
1000
AcDbSavedByObjectVersion
1070
     0
  0
VISUALSTYLE
  5
2B
102
{ACAD_REACTORS
330
2A
102
}
102
{ACAD_XDICTIONARY
360
43C
102
}
330
2A
100
AcDbVisualStyle
  2
Flat
 70
     0
 71
     2
 72
     1
 73
     1
 90
        2
 40
-0.6
 41
30.0
 62
     5
 63
     7
421
 16777215
 74
     0
 91
        4
 64
     7
 65
   257
 75
     1
175
     1
 42
1.0
 92
        8
 66
     7
 43
1.0
 76
     1
 77
     6
 78
     2
 67
     7
 79
     5
170
     0
171
     0
290
     0
174
     0
 93
       13
 44
0.0
173
     0
291
     1
 45
0.0
1001
ACAD
1000
AcDbSavedByObjectVersion
1070
     0
  0
VISUALSTYLE
  5
2C
102
{ACAD_REACTORS
330
2A
102
}
102
{ACAD_XDICTIONARY
360
43E
102
}
330
2A
100
AcDbVisualStyle
  2
FlatWithEdges
 70
     1
 71
     2
 72
     1
 73
     1
 90
        2
 40
-0.6
 41
30.0
 62
     5
 63
     7
421
 16777215
 74
     1
 91
        4
 64
     7
 65
   257
 75
     1
175
     1
 42
1.0
 92
        0
 66
   257
 43
1.0
 76
     1
 77
     6
 78
     2
 67
     7
 79
     5
170
     0
171
     0
290
     0
174
     0
 93
       13
 44
0.0
173
     0
291
     1
 45
0.0
1001
ACAD
1000
AcDbSavedByObjectVersion
1070
     0
  0
VISUALSTYLE
  5
2D
102
{ACAD_REACTORS
330
2A
102
}
102
{ACAD_XDICTIONARY
360
440
102
}
330
2A
100
AcDbVisualStyle
  2
Gouraud
 70
     2
 71
     2
 72
     2
 73
     1
 90
        2
 40
-0.6
 41
30.0
 62
     5
 63
     7
421
 16777215
 74
     0
 91
        4
 64
     7
 65
   257
 75
     1
175
     1
 42
1.0
 92
        0
 66
     7
 43
1.0
 76
     1
 77
     6
 78
     2
 67
     7
 79
     5
170
     0
171
     0
290
     0
174
     0
 93
       13
 44
0.0
173
     0
291
     1
 45
0.0
1001
ACAD
1000
AcDbSavedByObjectVersion
1070
     0
  0
VISUALSTYLE
  5
2E
102
{ACAD_REACTORS
330
2A
102
}
102
{ACAD_XDICTIONARY
360
442
102
}
330
2A
100
AcDbVisualStyle
  2
GouraudWithEdges
 70
     3
 71
     2
 72
     2
 73
     1
 90
        2
 40
-0.6
 41
30.0
 62
     5
 63
     7
421
 16777215
 74
     1
 91
        4
 64
     7
 65
   257
 75
     1
175
     1
 42
1.0
 92
        0
 66
   257
 43
1.0
 76
     1
 77
     6
 78
     2
 67
     7
 79
     5
170
     0
171
     0
290
     0
174
     0
 93
       13
 44
0.0
173
     0
291
     1
 45
0.0
1001
ACAD
1000
AcDbSavedByObjectVersion
1070
     0
  0
VISUALSTYLE
  5
38
102
{ACAD_REACTORS
330
2A
102
}
102
{ACAD_XDICTIONARY
360
456
102
}
330
2A
100
AcDbVisualStyle
  2
Linepattern
 70
    14
 71
     2
 72
     2
 73
     0
 90
        0
 40
-0.6
 41
-30.0
 62
     5
 63
     7
421
 16777215
 74
     1
 91
        4
 64
     7
 65
   257
 75
     7
175
     7
 42
1.0
 92
        8
 66
     7
 43
1.0
 76
     1
 77
     6
 78
     2
 67
     7
 79
     5
170
     0
171
     0
290
     0
174
     0
 93
        1
 44
0.0
173
     0
291
     1
 45
0.0
1001
ACAD
1000
AcDbSavedByObjectVersion
1070
     0
  0
VISUALSTYLE
  5
33
102
{ACAD_REACTORS
330
2A
102
}
102
{ACAD_XDICTIONARY
360
44C
102
}
330
2A
100
AcDbVisualStyle
  2
Realistic
 70
     8
 71
     2
 72
     2
 73
     0
 90
        0
 40
-0.6
 41
-30.0
 62
     5
 63
     7
421
 16777215
 74
     1
 91
        0
 64
     7
 65
   257
 75
     1
175
     1
 42
1.0
 92
        8
 66
     8
424
  7895160
 43
1.0
 76
     1
 77
     6
 78
     2
 67
     7
 79
     5
170
     0
171
     0
290
     0
174
     0
 93
       13
 44
0.0
173
     0
291
     0
 45
0.0
1001
ACAD
1000
AcDbSavedByObjectVersion
1070
     0
  0
VISUALSTYLE
  5
37
102
{ACAD_REACTORS
330
2A
102
}
102
{ACAD_XDICTIONARY
360
454
102
}
330
2A
100
AcDbVisualStyle
  2
Thicken
 70
    13
 71
     2
 72
     2
 73
     0
 90
        0
 40
-0.6
 41
-30.0
 62
     5
 63
     7
421
 16777215
 74
     1
 91
        4
 64
     7
 65
   257
 75
     1
175
     1
 42
1.0
 92
       12
 66
     7
 43
1.0
 76
     1
 77
     6
 78
     2
 67
     7
 79
     5
170
     0
171
     0
290
     0
174
     0
 93
        1
 44
0.0
173
     0
291
     1
 45
0.0
1001
ACAD
1000
AcDbSavedByObjectVersion
1070
     0
  0
DICTIONARY
  5
45E
330
3D
100
AcDbDictionary
280
     1
281
     1
  3
ACAD_XREC_ROUNDTRIP
360
45F
  0
DICTIONARY
  5
45C
330
3C
100
AcDbDictionary
280
     1
281
     1
  3
ACAD_XREC_ROUNDTRIP
360
45D
  0
DICTIONARY
  5
460
330
3E
100
AcDbDictionary
280
     1
281
     1
  3
ACAD_XREC_ROUNDTRIP
360
461
  0
DICTIONARY
  5
444
330
2F
100
AcDbDictionary
280
     1
281
     1
  3
ACAD_XREC_ROUNDTRIP
360
445
  0
DICTIONARY
  5
448
330
31
100
AcDbDictionary
280
     1
281
     1
  3
ACAD_XREC_ROUNDTRIP
360
449
  0
DICTIONARY
  5
446
330
30
100
AcDbDictionary
280
     1
281
     1
  3
ACAD_XREC_ROUNDTRIP
360
447
  0
DICTIONARY
  5
44A
330
32
100
AcDbDictionary
280
     1
281
     1
  3
ACAD_XREC_ROUNDTRIP
360
44B
  0
DICTIONARY
  5
452
330
36
100
AcDbDictionary
280
     1
281
     1
  3
ACAD_XREC_ROUNDTRIP
360
453
  0
DICTIONARY
  5
45A
330
3A
100
AcDbDictionary
280
     1
281
     1
  3
ACAD_XREC_ROUNDTRIP
360
45B
  0
DICTIONARY
  5
44E
330
34
100
AcDbDictionary
280
     1
281
     1
  3
ACAD_XREC_ROUNDTRIP
360
44F
  0
DICTIONARY
  5
450
330
35
100
AcDbDictionary
280
     1
281
     1
  3
ACAD_XREC_ROUNDTRIP
360
451
  0
DICTIONARY
  5
458
330
39
100
AcDbDictionary
280
     1
281
     1
  3
ACAD_XREC_ROUNDTRIP
360
459
  0
DICTIONARY
  5
43C
330
2B
100
AcDbDictionary
280
     1
281
     1
  3
ACAD_XREC_ROUNDTRIP
360
43D
  0
DICTIONARY
  5
43E
330
2C
100
AcDbDictionary
280
     1
281
     1
  3
ACAD_XREC_ROUNDTRIP
360
43F
  0
DICTIONARY
  5
440
330
2D
100
AcDbDictionary
280
     1
281
     1
  3
ACAD_XREC_ROUNDTRIP
360
441
  0
DICTIONARY
  5
442
330
2E
100
AcDbDictionary
280
     1
281
     1
  3
ACAD_XREC_ROUNDTRIP
360
443
  0
DICTIONARY
  5
456
330
38
100
AcDbDictionary
280
     1
281
     1
  3
ACAD_XREC_ROUNDTRIP
360
457
  0
DICTIONARY
  5
44C
330
33
100
AcDbDictionary
280
     1
281
     1
  3
ACAD_XREC_ROUNDTRIP
360
44D
  0
DICTIONARY
  5
454
330
37
100
AcDbDictionary
280
     1
281
     1
  3
ACAD_XREC_ROUNDTRIP
360
455
  0
XRECORD
  5
45F
102
{ACAD_REACTORS
330
45E
102
}
330
45E
100
AcDbXrecord
280
     1
102
MATERIAL
148
0.0
149
0.0
149
0.0
 93
        0
 94
      127
282
     0
 72
     1
 77
     1
171
     1
175
     1
179
     1
273
     0
  0
XRECORD
  5
45D
102
{ACAD_REACTORS
330
45C
102
}
330
45C
100
AcDbXrecord
280
     1
102
MATERIAL
148
0.0
149
0.0
149
0.0
 93
        0
 94
      127
282
     0
 72
     1
 77
     1
171
     1
175
     1
179
     1
273
     0
  0
XRECORD
  5
461
102
{ACAD_REACTORS
330
460
102
}
330
460
100
AcDbXrecord
280
     1
102
MATERIAL
148
0.0
149
0.0
149
0.0
 93
        0
 94
      127
282
     0
 72
     1
 77
     1
171
     1
175
     1
179
     1
273
     0
  0
XRECORD
  5
445
102
{ACAD_REACTORS
330
444
102
}
330
444
100
AcDbXrecord
280
     1
102
RTVSPropertyOp0
 70
     1
102
RTVSPropertyOp1
 70
     1
102
RTVSPropertyOp2
 70
     1
102
RTVSPropertyOp3
 70
     1
102
RTVSPropertyOp4
 70
     1
102
RTVSPropertyOp5
 70
     1
102
RTVSPropertyOp6
 70
     1
102
RTVSPropertyOp7
 70
     1
102
RTVSPropertyOp8
 70
     1
102
RTVSPropertyOp9
 70
     1
102
RTVSPropertyOp10
 70
     1
102
RTVSPropertyOp11
 70
     1
102
RTVSPropertyOp12
 70
     1
102
RTVSPropertyOp13
 70
     1
102
RTVSPropertyOp14
 70
     1
102
RTVSPropertyOp15
 70
     1
102
RTVSPropertyOp16
 70
     1
102
RTVSPropertyOp17
 70
     1
102
RTVSPropertyOp18
 70
     1
102
RTVSPropertyOp19
 70
     1
102
RTVSPropertyOp20
 70
     1
102
RTVSPropertyOp21
 70
     1
102
RTVSPropertyOp22
 70
     1
102
RTVSPropertyOp23
 70
     1
102
RTVSPropertyOp24
 70
     1
102
RTVSPropertyOp25
 70
     1
102
RTVSPropertyOp26
 70
     1
102
RTVSPropertyOp27
 70
     1
102
RTVSPropertyOp28
 70
     1
102
RTVSPropertyOp29
 70
     1
102
RTVSPropertyOp30
 70
     1
102
RTVSPropertyOp31
 70
     1
102
RTVSPropertyOp32
 70
     1
  0
XRECORD
  5
449
102
{ACAD_REACTORS
330
448
102
}
330
448
100
AcDbXrecord
280
     1
102
RTVSPropertyOp0
 70
     1
102
RTVSPropertyOp1
 70
     1
102
RTVSPropertyOp2
 70
     1
102
RTVSPropertyOp3
 70
     1
102
RTVSPropertyOp4
 70
     1
102
RTVSPropertyOp5
 70
     1
102
RTVSPropertyOp6
 70
     1
102
RTVSPropertyOp7
 70
     1
102
RTVSPropertyOp8
 70
     1
102
RTVSPropertyOp9
 70
     1
102
RTVSPropertyOp10
 70
     1
102
RTVSPropertyOp11
 70
     1
102
RTVSPropertyOp12
 70
     1
102
RTVSPropertyOp13
 70
     1
102
RTVSPropertyOp14
 70
     1
102
RTVSPropertyOp15
 70
     1
102
RTVSPropertyOp16
 70
     1
102
RTVSPropertyOp17
 70
     1
102
RTVSPropertyOp18
 70
     1
102
RTVSPropertyOp19
 70
     1
102
RTVSPropertyOp20
 70
     1
102
RTVSPropertyOp21
 70
     1
102
RTVSPropertyOp22
 70
     1
102
RTVSPropertyOp23
 70
     1
102
RTVSPropertyOp24
 70
     1
102
RTVSPropertyOp25
 70
     1
102
RTVSPropertyOp26
 70
     1
102
RTVSPropertyOp27
 70
     1
102
RTVSPropertyOp28
 70
     1
102
RTVSPropertyOp29
 70
     1
102
RTVSPropertyOp30
 70
     1
102
RTVSPropertyOp31
 70
     1
102
RTVSPropertyOp32
 70
     1
  0
XRECORD
  5
447
102
{ACAD_REACTORS
330
446
102
}
330
446
100
AcDbXrecord
280
     1
102
RTVSPropertyOp0
 70
     1
102
RTVSPropertyOp1
 70
     1
102
RTVSPropertyOp2
 70
     1
102
RTVSPropertyOp3
 70
     1
102
RTVSPropertyOp4
 70
     1
102
RTVSPropertyOp5
 70
     1
102
RTVSPropertyOp6
 70
     1
102
RTVSPropertyOp7
 70
     1
102
RTVSPropertyOp8
 70
     1
102
RTVSPropertyOp9
 70
     1
102
RTVSPropertyOp10
 70
     1
102
RTVSPropertyOp11
 70
     1
102
RTVSPropertyOp12
 70
     1
102
RTVSPropertyOp13
 70
     1
102
RTVSPropertyOp14
 70
     1
102
RTVSPropertyOp15
 70
     1
102
RTVSPropertyOp16
 70
     1
102
RTVSPropertyOp17
 70
     1
102
RTVSPropertyOp18
 70
     1
102
RTVSPropertyOp19
 70
     1
102
RTVSPropertyOp20
 70
     1
102
RTVSPropertyOp21
 70
     1
102
RTVSPropertyOp22
 70
     1
102
RTVSPropertyOp23
 70
     1
102
RTVSPropertyOp24
 70
     1
102
RTVSPropertyOp25
 70
     1
102
RTVSPropertyOp26
 70
     1
102
RTVSPropertyOp27
 70
     1
102
RTVSPropertyOp28
 70
     1
102
RTVSPropertyOp29
 70
     1
102
RTVSPropertyOp30
 70
     1
102
RTVSPropertyOp31
 70
     1
102
RTVSPropertyOp32
 70
     1
  0
XRECORD
  5
44B
102
{ACAD_REACTORS
330
44A
102
}
330
44A
100
AcDbXrecord
280
     1
102
RTVSPropertyOp0
 70
     1
102
RTVSPropertyOp1
 70
     1
102
RTVSPropertyOp2
 70
     1
102
RTVSPropertyOp3
 70
     1
102
RTVSPropertyOp4
 70
     1
102
RTVSPropertyOp5
 70
     1
102
RTVSPropertyOp6
 70
     1
102
RTVSPropertyOp7
 70
     1
102
RTVSPropertyOp8
 70
     1
102
RTVSPropertyOp9
 70
     1
102
RTVSPropertyOp10
 70
     1
102
RTVSPropertyOp11
 70
     1
102
RTVSPropertyOp12
 70
     1
102
RTVSPropertyOp13
 70
     1
102
RTVSPropertyOp14
 70
     1
102
RTVSPropertyOp15
 70
     1
102
RTVSPropertyOp16
 70
     1
102
RTVSPropertyOp17
 70
     1
102
RTVSPropertyOp18
 70
     1
102
RTVSPropertyOp19
 70
     1
102
RTVSPropertyOp20
 70
     1
102
RTVSPropertyOp21
 70
     1
102
RTVSPropertyOp22
 70
     1
102
RTVSPropertyOp23
 70
     1
102
RTVSPropertyOp24
 70
     1
102
RTVSPropertyOp25
 70
     1
102
RTVSPropertyOp26
 70
     1
102
RTVSPropertyOp27
 70
     1
102
RTVSPropertyOp28
 70
     1
102
RTVSPropertyOp29
 70
     1
102
RTVSPropertyOp30
 70
     1
102
RTVSPropertyOp31
 70
     1
102
RTVSPropertyOp32
 70
     1
  0
XRECORD
  5
453
102
{ACAD_REACTORS
330
452
102
}
330
452
100
AcDbXrecord
280
     1
102
RTVSPropertyOp0
 70
     1
102
RTVSPropertyOp1
 70
     1
102
RTVSPropertyOp2
 70
     1
102
RTVSPropertyOp3
 70
     1
102
RTVSPropertyOp4
 70
     1
102
RTVSPropertyOp5
 70
     1
102
RTVSPropertyOp6
 70
     1
102
RTVSPropertyOp7
 70
     1
102
RTVSPropertyOp8
 70
     1
102
RTVSPropertyOp9
 70
     1
102
RTVSPropertyOp10
 70
     1
102
RTVSPropertyOp11
 70
     1
102
RTVSPropertyOp12
 70
     1
102
RTVSPropertyOp13
 70
     1
102
RTVSPropertyOp14
 70
     1
102
RTVSPropertyOp15
 70
     1
102
RTVSPropertyOp16
 70
     1
102
RTVSPropertyOp17
 70
     1
102
RTVSPropertyOp18
 70
     1
102
RTVSPropertyOp19
 70
     1
102
RTVSPropertyOp20
 70
     1
102
RTVSPropertyOp21
 70
     1
102
RTVSPropertyOp22
 70
     1
102
RTVSPropertyOp23
 70
     1
102
RTVSPropertyOp24
 70
     1
102
RTVSPropertyOp25
 70
     1
102
RTVSPropertyOp26
 70
     1
102
RTVSPropertyOp27
 70
     1
102
RTVSPropertyOp28
 70
     1
102
RTVSPropertyOp29
 70
     1
102
RTVSPropertyOp30
 70
     1
102
RTVSPropertyOp31
 70
     1
102
RTVSPropertyOp32
 70
     1
  0
XRECORD
  5
45B
102
{ACAD_REACTORS
330
45A
102
}
330
45A
100
AcDbXrecord
280
     1
102
RTVSPropertyOp0
 70
     1
102
RTVSPropertyOp1
 70
     1
102
RTVSPropertyOp2
 70
     1
102
RTVSPropertyOp3
 70
     1
102
RTVSPropertyOp4
 70
     1
102
RTVSPropertyOp5
 70
     1
102
RTVSPropertyOp6
 70
     1
102
RTVSPropertyOp7
 70
     1
102
RTVSPropertyOp8
 70
     1
102
RTVSPropertyOp9
 70
     1
102
RTVSPropertyOp10
 70
     1
102
RTVSPropertyOp11
 70
     1
102
RTVSPropertyOp12
 70
     1
102
RTVSPropertyOp13
 70
     1
102
RTVSPropertyOp14
 70
     1
102
RTVSPropertyOp15
 70
     1
102
RTVSPropertyOp16
 70
     1
102
RTVSPropertyOp17
 70
     1
102
RTVSPropertyOp18
 70
     1
102
RTVSPropertyOp19
 70
     1
102
RTVSPropertyOp20
 70
     1
102
RTVSPropertyOp21
 70
     1
102
RTVSPropertyOp22
 70
     1
102
RTVSPropertyOp23
 70
     1
102
RTVSPropertyOp24
 70
     1
102
RTVSPropertyOp25
 70
     1
102
RTVSPropertyOp26
 70
     1
102
RTVSPropertyOp27
 70
     1
102
RTVSPropertyOp28
 70
     1
102
RTVSPropertyOp29
 70
     1
102
RTVSPropertyOp30
 70
     1
102
RTVSPropertyOp31
 70
     1
102
RTVSPropertyOp32
 70
     1
  0
XRECORD
  5
44F
102
{ACAD_REACTORS
330
44E
102
}
330
44E
100
AcDbXrecord
280
     1
102
RTVSPropertyOp0
 70
     1
102
RTVSPropertyOp1
 70
     1
102
RTVSPropertyOp2
 70
     1
102
RTVSPropertyOp3
 70
     1
102
RTVSPropertyOp4
 70
     1
102
RTVSPropertyOp5
 70
     1
102
RTVSPropertyOp6
 70
     1
102
RTVSPropertyOp7
 70
     1
102
RTVSPropertyOp8
 70
     1
102
RTVSPropertyOp9
 70
     1
102
RTVSPropertyOp10
 70
     1
102
RTVSPropertyOp11
 70
     1
102
RTVSPropertyOp12
 70
     1
102
RTVSPropertyOp13
 70
     1
102
RTVSPropertyOp14
 70
     1
102
RTVSPropertyOp15
 70
     1
102
RTVSPropertyOp16
 70
     1
102
RTVSPropertyOp17
 70
     1
102
RTVSPropertyOp18
 70
     1
102
RTVSPropertyOp19
 70
     1
102
RTVSPropertyOp20
 70
     1
102
RTVSPropertyOp21
 70
     1
102
RTVSPropertyOp22
 70
     1
102
RTVSPropertyOp23
 70
     1
102
RTVSPropertyOp24
 70
     1
102
RTVSPropertyOp25
 70
     1
102
RTVSPropertyOp26
 70
     1
102
RTVSPropertyOp27
 70
     1
102
RTVSPropertyOp28
 70
     1
102
RTVSPropertyOp29
 70
     1
102
RTVSPropertyOp30
 70
     1
102
RTVSPropertyOp31
 70
     1
102
RTVSPropertyOp32
 70
     1
  0
XRECORD
  5
451
102
{ACAD_REACTORS
330
450
102
}
330
450
100
AcDbXrecord
280
     1
102
RTVSPropertyOp0
 70
     1
102
RTVSPropertyOp1
 70
     1
102
RTVSPropertyOp2
 70
     1
102
RTVSPropertyOp3
 70
     1
102
RTVSPropertyOp4
 70
     1
102
RTVSPropertyOp5
 70
     1
102
RTVSPropertyOp6
 70
     1
102
RTVSPropertyOp7
 70
     1
102
RTVSPropertyOp8
 70
     1
102
RTVSPropertyOp9
 70
     1
102
RTVSPropertyOp10
 70
     1
102
RTVSPropertyOp11
 70
     1
102
RTVSPropertyOp12
 70
     1
102
RTVSPropertyOp13
 70
     1
102
RTVSPropertyOp14
 70
     1
102
RTVSPropertyOp15
 70
     1
102
RTVSPropertyOp16
 70
     1
102
RTVSPropertyOp17
 70
     1
102
RTVSPropertyOp18
 70
     1
102
RTVSPropertyOp19
 70
     1
102
RTVSPropertyOp20
 70
     1
102
RTVSPropertyOp21
 70
     1
102
RTVSPropertyOp22
 70
     1
102
RTVSPropertyOp23
 70
     1
102
RTVSPropertyOp24
 70
     1
102
RTVSPropertyOp25
 70
     1
102
RTVSPropertyOp26
 70
     1
102
RTVSPropertyOp27
 70
     1
102
RTVSPropertyOp28
 70
     1
102
RTVSPropertyOp29
 70
     1
102
RTVSPropertyOp30
 70
     1
102
RTVSPropertyOp31
 70
     1
102
RTVSPropertyOp32
 70
     1
  0
XRECORD
  5
459
102
{ACAD_REACTORS
330
458
102
}
330
458
100
AcDbXrecord
280
     1
102
RTVSPropertyOp0
 70
     1
102
RTVSPropertyOp1
 70
     1
102
RTVSPropertyOp2
 70
     1
102
RTVSPropertyOp3
 70
     1
102
RTVSPropertyOp4
 70
     1
102
RTVSPropertyOp5
 70
     1
102
RTVSPropertyOp6
 70
     1
102
RTVSPropertyOp7
 70
     1
102
RTVSPropertyOp8
 70
     1
102
RTVSPropertyOp9
 70
     1
102
RTVSPropertyOp10
 70
     1
102
RTVSPropertyOp11
 70
     1
102
RTVSPropertyOp12
 70
     1
102
RTVSPropertyOp13
 70
     1
102
RTVSPropertyOp14
 70
     1
102
RTVSPropertyOp15
 70
     1
102
RTVSPropertyOp16
 70
     1
102
RTVSPropertyOp17
 70
     1
102
RTVSPropertyOp18
 70
     1
102
RTVSPropertyOp19
 70
     1
102
RTVSPropertyOp20
 70
     1
102
RTVSPropertyOp21
 70
     1
102
RTVSPropertyOp22
 70
     1
102
RTVSPropertyOp23
 70
     1
102
RTVSPropertyOp24
 70
     1
102
RTVSPropertyOp25
 70
     1
102
RTVSPropertyOp26
 70
     1
102
RTVSPropertyOp27
 70
     1
102
RTVSPropertyOp28
 70
     1
102
RTVSPropertyOp29
 70
     1
102
RTVSPropertyOp30
 70
     1
102
RTVSPropertyOp31
 70
     1
102
RTVSPropertyOp32
 70
     1
  0
XRECORD
  5
43D
102
{ACAD_REACTORS
330
43C
102
}
330
43C
100
AcDbXrecord
280
     1
102
RTVSPropertyOp0
 70
     1
102
RTVSPropertyOp1
 70
     1
102
RTVSPropertyOp2
 70
     1
102
RTVSPropertyOp3
 70
     1
102
RTVSPropertyOp4
 70
     1
102
RTVSPropertyOp5
 70
     1
102
RTVSPropertyOp6
 70
     1
102
RTVSPropertyOp7
 70
     1
102
RTVSPropertyOp8
 70
     1
102
RTVSPropertyOp9
 70
     1
102
RTVSPropertyOp10
 70
     1
102
RTVSPropertyOp11
 70
     1
102
RTVSPropertyOp12
 70
     1
102
RTVSPropertyOp13
 70
     1
102
RTVSPropertyOp14
 70
     1
102
RTVSPropertyOp15
 70
     1
102
RTVSPropertyOp16
 70
     1
102
RTVSPropertyOp17
 70
     1
102
RTVSPropertyOp18
 70
     1
102
RTVSPropertyOp19
 70
     1
102
RTVSPropertyOp20
 70
     1
102
RTVSPropertyOp21
 70
     1
102
RTVSPropertyOp22
 70
     1
102
RTVSPropertyOp23
 70
     1
102
RTVSPropertyOp24
 70
     1
102
RTVSPropertyOp25
 70
     1
102
RTVSPropertyOp26
 70
     1
102
RTVSPropertyOp27
 70
     1
102
RTVSPropertyOp28
 70
     1
102
RTVSPropertyOp29
 70
     1
102
RTVSPropertyOp30
 70
     1
102
RTVSPropertyOp31
 70
     1
102
RTVSPropertyOp32
 70
     1
  0
XRECORD
  5
43F
102
{ACAD_REACTORS
330
43E
102
}
330
43E
100
AcDbXrecord
280
     1
102
RTVSPropertyOp0
 70
     1
102
RTVSPropertyOp1
 70
     1
102
RTVSPropertyOp2
 70
     1
102
RTVSPropertyOp3
 70
     1
102
RTVSPropertyOp4
 70
     1
102
RTVSPropertyOp5
 70
     1
102
RTVSPropertyOp6
 70
     1
102
RTVSPropertyOp7
 70
     1
102
RTVSPropertyOp8
 70
     1
102
RTVSPropertyOp9
 70
     1
102
RTVSPropertyOp10
 70
     1
102
RTVSPropertyOp11
 70
     1
102
RTVSPropertyOp12
 70
     1
102
RTVSPropertyOp13
 70
     1
102
RTVSPropertyOp14
 70
     1
102
RTVSPropertyOp15
 70
     1
102
RTVSPropertyOp16
 70
     1
102
RTVSPropertyOp17
 70
     1
102
RTVSPropertyOp18
 70
     1
102
RTVSPropertyOp19
 70
     1
102
RTVSPropertyOp20
 70
     1
102
RTVSPropertyOp21
 70
     1
102
RTVSPropertyOp22
 70
     1
102
RTVSPropertyOp23
 70
     1
102
RTVSPropertyOp24
 70
     1
102
RTVSPropertyOp25
 70
     1
102
RTVSPropertyOp26
 70
     1
102
RTVSPropertyOp27
 70
     1
102
RTVSPropertyOp28
 70
     1
102
RTVSPropertyOp29
 70
     1
102
RTVSPropertyOp30
 70
     1
102
RTVSPropertyOp31
 70
     1
102
RTVSPropertyOp32
 70
     1
  0
XRECORD
  5
441
102
{ACAD_REACTORS
330
440
102
}
330
440
100
AcDbXrecord
280
     1
102
RTVSPropertyOp0
 70
     1
102
RTVSPropertyOp1
 70
     1
102
RTVSPropertyOp2
 70
     1
102
RTVSPropertyOp3
 70
     1
102
RTVSPropertyOp4
 70
     1
102
RTVSPropertyOp5
 70
     1
102
RTVSPropertyOp6
 70
     1
102
RTVSPropertyOp7
 70
     1
102
RTVSPropertyOp8
 70
     1
102
RTVSPropertyOp9
 70
     1
102
RTVSPropertyOp10
 70
     1
102
RTVSPropertyOp11
 70
     1
102
RTVSPropertyOp12
 70
     1
102
RTVSPropertyOp13
 70
     1
102
RTVSPropertyOp14
 70
     1
102
RTVSPropertyOp15
 70
     1
102
RTVSPropertyOp16
 70
     1
102
RTVSPropertyOp17
 70
     1
102
RTVSPropertyOp18
 70
     1
102
RTVSPropertyOp19
 70
     1
102
RTVSPropertyOp20
 70
     1
102
RTVSPropertyOp21
 70
     1
102
RTVSPropertyOp22
 70
     1
102
RTVSPropertyOp23
 70
     1
102
RTVSPropertyOp24
 70
     1
102
RTVSPropertyOp25
 70
     1
102
RTVSPropertyOp26
 70
     1
102
RTVSPropertyOp27
 70
     1
102
RTVSPropertyOp28
 70
     1
102
RTVSPropertyOp29
 70
     1
102
RTVSPropertyOp30
 70
     1
102
RTVSPropertyOp31
 70
     1
102
RTVSPropertyOp32
 70
     1
  0
XRECORD
  5
443
102
{ACAD_REACTORS
330
442
102
}
330
442
100
AcDbXrecord
280
     1
102
RTVSPropertyOp0
 70
     1
102
RTVSPropertyOp1
 70
     1
102
RTVSPropertyOp2
 70
     1
102
RTVSPropertyOp3
 70
     1
102
RTVSPropertyOp4
 70
     1
102
RTVSPropertyOp5
 70
     1
102
RTVSPropertyOp6
 70
     1
102
RTVSPropertyOp7
 70
     1
102
RTVSPropertyOp8
 70
     1
102
RTVSPropertyOp9
 70
     1
102
RTVSPropertyOp10
 70
     1
102
RTVSPropertyOp11
 70
     1
102
RTVSPropertyOp12
 70
     1
102
RTVSPropertyOp13
 70
     1
102
RTVSPropertyOp14
 70
     1
102
RTVSPropertyOp15
 70
     1
102
RTVSPropertyOp16
 70
     1
102
RTVSPropertyOp17
 70
     1
102
RTVSPropertyOp18
 70
     1
102
RTVSPropertyOp19
 70
     1
102
RTVSPropertyOp20
 70
     1
102
RTVSPropertyOp21
 70
     1
102
RTVSPropertyOp22
 70
     1
102
RTVSPropertyOp23
 70
     1
102
RTVSPropertyOp24
 70
     1
102
RTVSPropertyOp25
 70
     1
102
RTVSPropertyOp26
 70
     1
102
RTVSPropertyOp27
 70
     1
102
RTVSPropertyOp28
 70
     1
102
RTVSPropertyOp29
 70
     1
102
RTVSPropertyOp30
 70
     1
102
RTVSPropertyOp31
 70
     1
102
RTVSPropertyOp32
 70
     1
  0
XRECORD
  5
457
102
{ACAD_REACTORS
330
456
102
}
330
456
100
AcDbXrecord
280
     1
102
RTVSPropertyOp0
 70
     1
102
RTVSPropertyOp1
 70
     1
102
RTVSPropertyOp2
 70
     1
102
RTVSPropertyOp3
 70
     1
102
RTVSPropertyOp4
 70
     1
102
RTVSPropertyOp5
 70
     1
102
RTVSPropertyOp6
 70
     1
102
RTVSPropertyOp7
 70
     1
102
RTVSPropertyOp8
 70
     1
102
RTVSPropertyOp9
 70
     1
102
RTVSPropertyOp10
 70
     1
102
RTVSPropertyOp11
 70
     1
102
RTVSPropertyOp12
 70
     1
102
RTVSPropertyOp13
 70
     1
102
RTVSPropertyOp14
 70
     1
102
RTVSPropertyOp15
 70
     1
102
RTVSPropertyOp16
 70
     1
102
RTVSPropertyOp17
 70
     1
102
RTVSPropertyOp18
 70
     1
102
RTVSPropertyOp19
 70
     1
102
RTVSPropertyOp20
 70
     1
102
RTVSPropertyOp21
 70
     1
102
RTVSPropertyOp22
 70
     1
102
RTVSPropertyOp23
 70
     1
102
RTVSPropertyOp24
 70
     1
102
RTVSPropertyOp25
 70
     1
102
RTVSPropertyOp26
 70
     1
102
RTVSPropertyOp27
 70
     1
102
RTVSPropertyOp28
 70
     1
102
RTVSPropertyOp29
 70
     1
102
RTVSPropertyOp30
 70
     1
102
RTVSPropertyOp31
 70
     1
102
RTVSPropertyOp32
 70
     1
  0
XRECORD
  5
44D
102
{ACAD_REACTORS
330
44C
102
}
330
44C
100
AcDbXrecord
280
     1
102
RTVSPropertyOp0
 70
     1
102
RTVSPropertyOp1
 70
     1
102
RTVSPropertyOp2
 70
     1
102
RTVSPropertyOp3
 70
     1
102
RTVSPropertyOp4
 70
     1
102
RTVSPropertyOp5
 70
     1
102
RTVSPropertyOp6
 70
     1
102
RTVSPropertyOp7
 70
     1
102
RTVSPropertyOp8
 70
     1
102
RTVSPropertyOp9
 70
     1
102
RTVSPropertyOp10
 70
     1
102
RTVSPropertyOp11
 70
     1
102
RTVSPropertyOp12
 70
     1
102
RTVSPropertyOp13
 70
     1
102
RTVSPropertyOp14
 70
     1
102
RTVSPropertyOp15
 70
     1
102
RTVSPropertyOp16
 70
     1
102
RTVSPropertyOp17
 70
     1
102
RTVSPropertyOp18
 70
     1
102
RTVSPropertyOp19
 70
     1
102
RTVSPropertyOp20
 70
     1
102
RTVSPropertyOp21
 70
     1
102
RTVSPropertyOp22
 70
     1
102
RTVSPropertyOp23
 70
     1
102
RTVSPropertyOp24
 70
     1
102
RTVSPropertyOp25
 70
     1
102
RTVSPropertyOp26
 70
     1
102
RTVSPropertyOp27
 70
     1
102
RTVSPropertyOp28
 70
     1
102
RTVSPropertyOp29
 70
     1
102
RTVSPropertyOp30
 70
     1
102
RTVSPropertyOp31
 70
     1
102
RTVSPropertyOp32
 70
     1
  0
XRECORD
  5
455
102
{ACAD_REACTORS
330
454
102
}
330
454
100
AcDbXrecord
280
     1
102
RTVSPropertyOp0
 70
     1
102
RTVSPropertyOp1
 70
     1
102
RTVSPropertyOp2
 70
     1
102
RTVSPropertyOp3
 70
     1
102
RTVSPropertyOp4
 70
     1
102
RTVSPropertyOp5
 70
     1
102
RTVSPropertyOp6
 70
     1
102
RTVSPropertyOp7
 70
     1
102
RTVSPropertyOp8
 70
     1
102
RTVSPropertyOp9
 70
     1
102
RTVSPropertyOp10
 70
     1
102
RTVSPropertyOp11
 70
     1
102
RTVSPropertyOp12
 70
     1
102
RTVSPropertyOp13
 70
     1
102
RTVSPropertyOp14
 70
     1
102
RTVSPropertyOp15
 70
     1
102
RTVSPropertyOp16
 70
     1
102
RTVSPropertyOp17
 70
     1
102
RTVSPropertyOp18
 70
     1
102
RTVSPropertyOp19
 70
     1
102
RTVSPropertyOp20
 70
     1
102
RTVSPropertyOp21
 70
     1
102
RTVSPropertyOp22
 70
     1
102
RTVSPropertyOp23
 70
     1
102
RTVSPropertyOp24
 70
     1
102
RTVSPropertyOp25
 70
     1
102
RTVSPropertyOp26
 70
     1
102
RTVSPropertyOp27
 70
     1
102
RTVSPropertyOp28
 70
     1
102
RTVSPropertyOp29
 70
     1
102
RTVSPropertyOp30
 70
     1
102
RTVSPropertyOp31
 70
     1
102
RTVSPropertyOp32
 70
     1
  0
ENDSEC
  0
EOF
